  0
SECTION
  2
HEADER
  9
$ACADVER
  1
AC1015
  9
$ACADMAINTVER
 70
               6
  9
$DWGCODEPAGE
  3
ANSI_932
  9
$INSBASE
 10
0.0
 20
0.0
 30
0.0
  9
$EXTMIN
 10
-975.00000000024124
 20
-1431.5255224711129
 30
-14.834305555555554
  9
$EXTMAX
 10
975.00000000024124
 20
1405.9972926412995
 30
14.834305555555554
  9
$LIMMIN
 10
0.0
 20
0.0
  9
$LIMMAX
 10
0.0
 20
0.0
  9
$ORTHOMODE
 70
               0
  9
$REGENMODE
 70
               1
  9
$FILLMODE
 70
               1
  9
$QTEXTMODE
 70
               0
  9
$MIRRTEXT
 70
               1
  9
$LTSCALE
 40
5.0800000000000001
  9
$ATTMODE
 70
               1
  9
$TEXTSIZE
 40
0.2
  9
$TRACEWID
 40
1.0
  9
$TEXTSTYLE
  7
Standard
  9
$CLAYER
  8
ADF70-0401
  9
$CELTYPE
  6
Continuous
  9
$CECOLOR
 62
             256
  9
$CELTSCALE
 40
1.0
  9
$DISPSILH
 70
               0
  9
$DIMSCALE
 40
1.0
  9
$DIMASZ
 40
22.4482421875
  9
$DIMEXO
 40
15.875
  9
$DIMDLI
 40
10.16
  9
$DIMRND
 40
0.0
  9
$DIMDLE
 40
1.5874999999999999
  9
$DIMEXE
 40
31.75
  9
$DIMTP
 40
0.0
  9
$DIMTM
 40
0.0
  9
$DIMTXT
 40
24.432617187500004
  9
$DIMCEN
 40
0.0
  9
$DIMTSZ
 40
0.0
  9
$DIMTOL
 70
               0
  9
$DIMLIM
 70
               0
  9
$DIMTIH
 70
               0
  9
$DIMTOH
 70
               0
  9
$DIMSE1
 70
               0
  9
$DIMSE2
 70
               0
  9
$DIMTAD
 70
               1
  9
$DIMZIN
 70
              11
  9
$DIMBLK
  1
VW_SLASH
  9
$DIMASO
 70
               1
  9
$DIMSHO
 70
               1
  9
$DIMPOST
  1
<>
  9
$DIMAPOST
  1
[]
  9
$DIMALT
 70
               0
  9
$DIMALTD
 70
               1
  9
$DIMALTF
 40
1.0
  9
$DIMLFAC
 40
1.0
  9
$DIMTOFL
 70
               1
  9
$DIMTVP
 40
0.0
  9
$DIMTIX
 70
               1
  9
$DIMSOXD
 70
               0
  9
$DIMSAH
 70
               0
  9
$DIMBLK1
  1

  9
$DIMBLK2
  1

  9
$DIMSTYLE
  2
Arch
  9
$DIMCLRD
 70
               0
  9
$DIMCLRE
 70
               0
  9
$DIMCLRT
 70
               0
  9
$DIMTFAC
 40
1.0
  9
$DIMGAP
 40
1.5874999999999999
  9
$DIMJUST
 70
               0
  9
$DIMSD1
 70
               0
  9
$DIMSD2
 70
               0
  9
$DIMTOLJ
 70
               1
  9
$DIMTZIN
 70
              11
  9
$DIMALTZ
 70
              11
  9
$DIMALTTZ
 70
              11
  9
$DIMUPT
 70
               0
  9
$DIMDEC
 70
               1
  9
$DIMTDEC
 70
               1
  9
$DIMALTU
 70
               2
  9
$DIMALTTD
 70
               2
  9
$DIMTXSTY
  7
ＭＳ ゴシック
  9
$DIMAUNIT
 70
               0
  9
$DIMADEC
 70
               2
  9
$DIMALTRND
 40
0.0
  9
$DIMAZIN
 70
               0
  9
$DIMDSEP
 70
              46
  9
$DIMATFIT
 70
               0
  9
$DIMFRAC
 70
               2
  9
$DIMLDRBLK
  1

  9
$DIMLUNIT
 70
               2
  9
$DIMLWD
 70
              -2
  9
$DIMLWE
 70
              -2
  9
$DIMTMOVE
 70
               0
  9
$LUNITS
 70
               2
  9
$LUPREC
 70
               4
  9
$SKETCHINC
 40
0.1
  9
$FILLETRAD
 40
0.0
  9
$AUNITS
 70
               0
  9
$AUPREC
 70
               0
  9
$MENU
  1
acad
  9
$ELEVATION
 40
0.0
  9
$PELEVATION
 40
0.0
  9
$THICKNESS
 40
0.0
  9
$LIMCHECK
 70
               0
  9
$CHAMFERA
 40
0.0
  9
$CHAMFERB
 40
0.0
  9
$CHAMFERC
 40
0.0
  9
$CHAMFERD
 40
0.0
  9
$SKPOLY
 70
               0
  9
$TDCREATE
 40
2456022.604849537
  9
$TDUCREATE
 40
0.000000000
  9
$TDUPDATE
 40
2456022.604849537
  9
$TDUUPDATE
 40
0.000000000
  9
$TDINDWG
 40
0.0000000000
  9
$TDUSRTIMER
 40
0.0000000000
  9
$USRTIMER
 70
               1
  9
$ANGBASE
 50
0.0
  9
$ANGDIR
 70
               0
  9
$PDMODE
 70
               1
  9
$PDSIZE
 40
-2.0
  9
$PLINEWID
 40
0.0
  9
$SPLFRAME
 70
               0
  9
$SPLINETYPE
 70
               6
  9
$SPLINESEGS
 70
               8
  9
$HANDSEED
  5
27E
  9
$SURFTAB1
 70
               6
  9
$SURFTAB2
 70
               6
  9
$SURFTYPE
 70
               6
  9
$SURFU
 70
               6
  9
$SURFV
 70
               6
  9
$UCSBASE
  2

  9
$UCSNAME
  2

  9
$UCSORG
 10
0.0
 20
0.0
 30
0.0
  9
$UCSXDIR
 10
1.0
 20
0.0
 30
0.0
  9
$UCSYDIR
 10
0.0
 20
1.0
 30
0.0
  9
$UCSORTHOREF
  2

  9
$UCSORTHOVIEW
 70
               0
  9
$UCSORGTOP
 10
0.0
 20
0.0
 30
0.0
  9
$UCSORGBOTTOM
 10
0.0
 20
0.0
 30
0.0
  9
$UCSORGLEFT
 10
0.0
 20
0.0
 30
0.0
  9
$UCSORGRIGHT
 10
0.0
 20
0.0
 30
0.0
  9
$UCSORGFRONT
 10
0.0
 20
0.0
 30
0.0
  9
$UCSORGBACK
 10
0.0
 20
0.0
 30
0.0
  9
$PUCSBASE
  2

  9
$PUCSNAME
  2

  9
$PUCSORG
 10
0.0
 20
0.0
 30
0.0
  9
$PUCSXDIR
 10
1.0
 20
0.0
 30
0.0
  9
$PUCSYDIR
 10
0.0
 20
1.0
 30
0.0
  9
$PUCSORTHOREF
  2

  9
$PUCSORTHOVIEW
 70
               0
  9
$PUCSORGTOP
 10
0.0
 20
0.0
 30
0.0
  9
$PUCSORGBOTTOM
 10
0.0
 20
0.0
 30
0.0
  9
$PUCSORGLEFT
 10
0.0
 20
0.0
 30
0.0
  9
$PUCSORGRIGHT
 10
0.0
 20
0.0
 30
0.0
  9
$PUCSORGFRONT
 10
0.0
 20
0.0
 30
0.0
  9
$PUCSORGBACK
 10
0.0
 20
0.0
 30
0.0
  9
$USERI1
 70
               0
  9
$USERI2
 70
               0
  9
$USERI3
 70
               0
  9
$USERI4
 70
               0
  9
$USERI5
 70
               0
  9
$USERR1
 40
0.0
  9
$USERR2
 40
0.0
  9
$USERR3
 40
0.0
  9
$USERR4
 40
0.0
  9
$USERR5
 40
0.0
  9
$WORLDVIEW
 70
               1
  9
$SHADEDGE
 70
               3
  9
$SHADEDIF
 70
              70
  9
$TILEMODE
 70
               1
  9
$MAXACTVP
 70
              64
  9
$PINSBASE
 10
0.0
 20
0.0
 30
0.0
  9
$PLIMCHECK
 70
               0
  9
$PEXTMIN
 10
1.0000000000000000E+20
 20
1.0000000000000000E+20
 30
1.0000000000000000E+20
  9
$PEXTMAX
 10
-1.0000000000000000E+20
 20
-1.0000000000000000E+20
 30
-1.0000000000000000E+20
  9
$PLIMMIN
 10
0.0
 20
0.0
  9
$PLIMMAX
 10
12.0
 20
9.0
  9
$UNITMODE
 70
               0
  9
$VISRETAIN
 70
               0
  9
$PLINEGEN
 70
               1
  9
$PSLTSCALE
 70
               0
  9
$TREEDEPTH
 70
            3020
  9
$CMLSTYLE
  2
Standard
  9
$CMLJUST
 70
               0
  9
$CMLSCALE
 40
1.0
  9
$PROXYGRAPHICS
 70
               0
  9
$MEASUREMENT
 70
               1
  9
$CELWEIGHT
370
               0
  9
$ENDCAPS
280
               0
  9
$JOINSTYLE
280
               0
  9
$LWDISPLAY
290
               1
  9
$INSUNITS
 70
               4
  9
$HYPERLINKBASE
  1

  9
$STYLESHEET
  1

  9
$XEDIT
290
               1
  9
$CEPSNTYPE
380
               0
  9
$PSTYLEMODE
290
               1
  9
$FINGERPRINTGUID
  2

  9
$VERSIONGUID
  2

  9
$EXTNAMES
290
               1
  9
$PSVPSCALE
 40
0.0
  0
ENDSEC
  0
SECTION
  2
CLASSES
  0
CLASS
  1
LWPOLYLINE
  2
AcDbPolyline
  3
AutoCAD 2000
 90
        0
280
               0
281
               1
  0
CLASS
  1
IMAGE
  2
AcDbRasterImage
  3
ISM
 90
      127
280
               0
281
               1
  0
CLASS
  1
OLE2FRAME
  2
AcDbOle2Frame
  3
AutoCAD 2000
 90
        0
280
               0
281
               1
  0
CLASS
  1
HATCH
  2
AcDbHatch
  3
AutoCAD 2000
 90
        0
280
               0
281
               1
  0
CLASS
  1
DICTIONARYVAR
  2
AcDbDictionaryVar
  3
AutoCAD 2000
 90
        0
280
               0
281
               0
  0
CLASS
  1
RASTERVARIABLES
  2
AcDbRasterVariables
  3
ISM
 90
        0
280
               0
281
               0
  0
CLASS
  1
IMAGEDEF
  2
AcDbRasterImageDef
  3
ISM
 90
        0
280
               0
281
               0
  0
CLASS
  1
IMAGEDEF_REACTOR
  2
AcDbRasterImageDefReactor
  3
ISM
 90
        1
280
               0
281
               0
  0
CLASS
  1
IDBUFFER
  2
AcDbIdBuffer
  3
AutoCAD 2000
 90
        0
280
               0
281
               0
  0
CLASS
  1
SPATIAL_FILTER
  2
AcDbSpatialFilter
  3
AutoCAD 2000
 90
        0
280
               0
281
               0
  0
CLASS
  1
XRECORD
  2
AcDbXrecord
  3
AutoCAD 2000
 90
        0
280
               0
281
               0
  0
CLASS
  1
SORTENTSTABLE
  2
AcDbSortentsTable
  3
AutoCAD 2000
 90
        0
280
               0
281
               0
  0
CLASS
  1
LAYER_INDEX
  2
AcDbLayerIndex
  3
AutoCAD 2000
 90
        0
280
               0
281
               0
  0
CLASS
  1
SPATIAL_INDEX
  2
AcDbSpatialIndex
  3
AutoCAD 2000
 90
        0
280
               0
281
               0
  0
CLASS
  1
OBJECT_PTR
  2
CAseDLPNTableRecord
  3
"ASE-LPNTableRecord"
 90
        1
280
               0
281
               0
  0
CLASS
  1
LAYOUT
  2
AcDbLayout
  3
AutoCAD 2000
 90
        0
280
               0
281
               0
  0
CLASS
  1
PLOTSETTINGS
  2
AcDbPlotSettings
  3
AutoCAD 2000
 90
        0
280
               0
281
               0
  0
CLASS
  1
ACDBDICTIONARYWDFLT
  2
AcDbDictionaryWithDefault
  3
AutoCAD 2000
 90
        0
280
               0
281
               0
  0
CLASS
  1
ACDBPLACEHOLDER
  2
AcDbPlaceHolder
  3
AutoCAD 2000
 90
        0
280
               0
281
               0
  0
ENDSEC
  0
SECTION
  2
TABLES
  0
TABLE
  2
VPORT
  5
7
100
AcDbSymbolTable
 70
               1
  0
VPORT
  5
15
100
AcDbSymbolTableRecord
100
AcDbViewportTableRecord
  2
*ACTIVE
 70
               0
 10
0.0
 20
0.0
 11
1.0
 21
1.0
 12
0.0
 22
-12.764114914906713
 13
0.0
 23
0.0
 14
1.0
 24
1.0
 15
0.0
 25
0.0
 16
0.0
 26
0.0
 36
1.0
 17
0.0
 27
0.0
 37
0.0
 40
2837.5228151124124
 41
0.688564
 42
50.0
 43
0.0
 44
0.0
 50
0.0
 51
0.0
 71
               0
 72
            2000
 73
               1
 74
               1
 75
               0
 76
               0
 77
               0
 78
               0
281
               0
 65
               0
110
0.0
120
0.0
130
0.0
111
1.0
121
0.0
131
0.0
112
0.0
122
1.0
132
0.0
345
0
346
0
 79
               0
146
0.0
  0
ENDTAB
  0
TABLE
  2
LTYPE
  5
4
100
AcDbSymbolTable
 70
              27
  0
LTYPE
  5
11
100
AcDbSymbolTableRecord
100
AcDbLinetypeTableRecord
  2
ByBlock
 70
              64
  3

 72
              65
 73
               0
 40
0.0
  0
LTYPE
  5
12
100
AcDbSymbolTableRecord
100
AcDbLinetypeTableRecord
  2
ByLayer
 70
              64
  3

 72
              65
 73
               0
 40
0.0
  0
LTYPE
  5
13
100
AcDbSymbolTableRecord
100
AcDbLinetypeTableRecord
  2
Continuous
 70
              64
  3
Solid line
 72
              65
 73
               0
 40
0.0
  0
LTYPE
  5
41
100
AcDbSymbolTableRecord
100
AcDbLinetypeTableRecord
  2
STYLE_01
 70
               0
  3

 72
              65
 73
               2
 40
0.6944448818897638
 49
0.3472224409448819
 74
               0
 49
-0.3472224409448819
 74
               0
  0
LTYPE
  5
42
100
AcDbSymbolTableRecord
100
AcDbLinetypeTableRecord
  2
STYLE_02
 70
               0
  3

 72
              65
 73
               4
 40
1.128472933070866
 49
0.3472224409448819
 74
               0
 49
-0.3472224409448819
 74
               0
 49
0.0868056102362205
 74
               0
 49
-0.3472224409448818
 74
               0
  0
LTYPE
  5
43
100
AcDbSymbolTableRecord
100
AcDbLinetypeTableRecord
  2
STYLE_03
 70
               0
  3

 72
              65
 73
               4
 40
1.128472933070866
 49
0.3472224409448819
 74
               0
 49
-0.3472224409448819
 74
               0
 49
0.0868056102362205
 74
               0
 49
-0.3472224409448818
 74
               0
  0
LTYPE
  5
44
100
AcDbSymbolTableRecord
100
AcDbLinetypeTableRecord
  2
STYLE_04
 70
               0
  3

 72
              65
 73
               4
 40
0.749496062992126
 49
0.6192883858267717
 74
               0
 49
-0.0434025590551181
 74
               0
 49
0.0434025590551181
 74
               0
 49
-0.0434025590551181
 74
               0
  0
LTYPE
  5
45
100
AcDbSymbolTableRecord
100
AcDbLinetypeTableRecord
  2
STYLE_05
 70
               0
  3

 72
              65
 73
               4
 40
0.749496062992126
 49
0.6192883858267717
 74
               0
 49
-0.0434025590551181
 74
               0
 49
0.0434025590551181
 74
               0
 49
-0.0434025590551181
 74
               0
  0
LTYPE
  5
46
100
AcDbSymbolTableRecord
100
AcDbLinetypeTableRecord
  2
STYLE_06
 70
               0
  3

 72
              65
 73
               4
 40
0.6591845472440944
 49
0.5024827755905512
 74
               0
 49
-0.0364758858267716
 74
               0
 49
0.08375
 74
               0
 49
-0.0364758858267716
 74
               0
  0
LTYPE
  5
47
100
AcDbSymbolTableRecord
100
AcDbLinetypeTableRecord
  2
STYLE_07
 70
               0
  3

 72
              65
 73
               4
 40
0.6591845472440944
 49
0.5024827755905512
 74
               0
 49
-0.0364758858267716
 74
               0
 49
0.08375
 74
               0
 49
-0.0364758858267716
 74
               0
  0
LTYPE
  5
48
100
AcDbSymbolTableRecord
100
AcDbLinetypeTableRecord
  2
STYLE_08
 70
               0
  3

 72
              65
 73
               6
 40
6.25
 49
3.125
 74
               0
 49
-1.0413999999999999
 74
               0
 49
0.3471500000000002
 74
               0
 49
-0.6946500000000001
 74
               0
 49
0.3471499999999995
 74
               0
 49
-0.6946500000000001
 74
               0
  0
LTYPE
  5
49
100
AcDbSymbolTableRecord
100
AcDbLinetypeTableRecord
  2
STYLE_09
 70
               0
  3

 72
              65
 73
               4
 40
25.0
 49
18.75
 74
               0
 49
-1.3889249999999991
 74
               0
 49
3.4721500000000018
 74
               0
 49
-1.3889249999999991
 74
               0
  0
LTYPE
  5
4A
100
AcDbSymbolTableRecord
100
AcDbLinetypeTableRecord
  2
STYLE_10
 70
               0
  3

 72
              65
 73
               6
 40
29.6875
 49
18.75
 74
               0
 49
-1.3889249999999991
 74
               0
 49
3.4721500000000018
 74
               0
 49
-1.3889249999999991
 74
               0
 49
3.125
 74
               0
 49
-1.5625
 74
               0
  0
LTYPE
  5
4B
100
AcDbSymbolTableRecord
100
AcDbLinetypeTableRecord
  2
STYLE_11
 70
               0
  3

 72
              65
 73
               8
 40
0.3149606299212597
 49
0.1771653543307086
 74
               0
 49
-0.0196850393700787
 74
               0
 49
0.0196850393700787
 74
               0
 49
-0.0196850393700787
 74
               0
 49
0.0196850393700787
 74
               0
 49
-0.0196850393700787
 74
               0
 49
0.0196850393700787
 74
               0
 49
-0.0196850393700787
 74
               0
  0
LTYPE
  5
4C
100
AcDbSymbolTableRecord
100
AcDbLinetypeTableRecord
  2
STYLE_12
 70
               0
  3

 72
              65
 73
              10
 40
0.3149606299212597
 49
0.1377952755905512
 74
               0
 49
-0.0196850393700787
 74
               0
 49
0.0196850393700787
 74
               0
 49
-0.0196850393700787
 74
               0
 49
0.0196850393700787
 74
               0
 49
-0.0196850393700787
 74
               0
 49
0.0196850393700787
 74
               0
 49
-0.0196850393700787
 74
               0
 49
0.0196850393700787
 74
               0
 49
-0.0196850393700787
 74
               0
  0
LTYPE
  5
4D
100
AcDbSymbolTableRecord
100
AcDbLinetypeTableRecord
  2
STYLE_13
 70
               0
  3

 72
              65
 73
              10
 40
0.3149606299212597
 49
0.1377952755905512
 74
               0
 49
-0.0196850393700787
 74
               0
 49
0.0196850393700787
 74
               0
 49
-0.0196850393700787
 74
               0
 49
0.0196850393700787
 74
               0
 49
-0.0196850393700787
 74
               0
 49
0.0196850393700787
 74
               0
 49
-0.0196850393700787
 74
               0
 49
0.0196850393700787
 74
               0
 49
-0.0196850393700787
 74
               0
  0
LTYPE
  5
4E
100
AcDbSymbolTableRecord
100
AcDbLinetypeTableRecord
  2
STYLE_14
 70
               0
  3

 72
              65
 73
              10
 40
0.2755905511811023
 49
0.0984251968503937
 74
               0
 49
-0.0196850393700787
 74
               0
 49
0.0196850393700787
 74
               0
 49
-0.0196850393700787
 74
               0
 49
0.0196850393700787
 74
               0
 49
-0.0196850393700787
 74
               0
 49
0.0196850393700787
 74
               0
 49
-0.0196850393700787
 74
               0
 49
0.0196850393700787
 74
               0
 49
-0.0196850393700787
 74
               0
  0
LTYPE
  5
4F
100
AcDbSymbolTableRecord
100
AcDbLinetypeTableRecord
  2
STYLE_15
 70
               0
  3

 72
              65
 73
              10
 40
0.2755905511811023
 49
0.0984251968503937
 74
               0
 49
-0.0196850393700787
 74
               0
 49
0.0196850393700787
 74
               0
 49
-0.0196850393700787
 74
               0
 49
0.0196850393700787
 74
               0
 49
-0.0196850393700787
 74
               0
 49
0.0196850393700787
 74
               0
 49
-0.0196850393700787
 74
               0
 49
0.0196850393700787
 74
               0
 49
-0.0196850393700787
 74
               0
  0
LTYPE
  5
50
100
AcDbSymbolTableRecord
100
AcDbLinetypeTableRecord
  2
STYLE_16
 70
               0
  3

 72
              65
 73
               2
 40
0.3169606299212598
 49
0.3149606299212598
 74
               0
 49
-0.005
 74
               0
  0
LTYPE
  5
51
100
AcDbSymbolTableRecord
100
AcDbLinetypeTableRecord
  2
STYLE_17
 70
               0
  3

 72
              65
 73
               2
 40
0.3169606299212598
 49
0.3149606299212598
 74
               0
 49
-0.005
 74
               0
  0
LTYPE
  5
52
100
AcDbSymbolTableRecord
100
AcDbLinetypeTableRecord
  2
STYLE_18
 70
               0
  3

 72
              65
 73
               4
 40
0.2559055118110236
 49
0.1838582677165354
 74
               0
 49
-0.024015748031496
 74
               0
 49
0.0240157480314961
 74
               0
 49
-0.0240157480314961
 74
               0
  0
LTYPE
  5
53
100
AcDbSymbolTableRecord
100
AcDbLinetypeTableRecord
  2
STYLE_19
 70
               0
  3

 72
              65
 73
               2
 40
0.3169606299212598
 49
0.3149606299212598
 74
               0
 49
-0.005
 74
               0
  0
LTYPE
  5
54
100
AcDbSymbolTableRecord
100
AcDbLinetypeTableRecord
  2
STYLE_20
 70
               0
  3

 72
              65
 73
               4
 40
0.2559055118110236
 49
0.1838582677165354
 74
               0
 49
-0.024015748031496
 74
               0
 49
0.0240157480314961
 74
               0
 49
-0.0240157480314961
 74
               0
  0
LTYPE
  5
55
100
AcDbSymbolTableRecord
100
AcDbLinetypeTableRecord
  2
STYLE_21
 70
               0
  3

 72
              65
 73
               2
 40
1.3888897637795274
 49
0.6944448818897637
 74
               0
 49
-0.6944448818897637
 74
               0
  0
LTYPE
  5
56
100
AcDbSymbolTableRecord
100
AcDbLinetypeTableRecord
  2
STYLE_22
 70
               0
  3

 72
              65
 73
               6
 40
59.375
 49
37.5
 74
               0
 49
-2.7778499999999982
 74
               0
 49
6.9443000000000037
 74
               0
 49
-2.7778499999999982
 74
               0
 49
6.25
 74
               0
 49
-3.125
 74
               0
  0
LTYPE
  5
57
100
AcDbSymbolTableRecord
100
AcDbLinetypeTableRecord
  2
STYLE_23
 70
               0
  3

 72
              65
 73
               2
 40
3.9370078740157481
 49
1.9685039370078741
 74
               0
 49
-1.9685039370078741
 74
               0
  0
LTYPE
  5
58
100
AcDbSymbolTableRecord
100
AcDbLinetypeTableRecord
  2
STYLE_24
 70
               0
  3

 72
              65
 73
               2
 40
39.370078740157474
 49
19.685039370078737
 74
               0
 49
-19.685039370078737
 74
               0
  0
ENDTAB
  0
TABLE
  2
LAYER
  5
2
100
AcDbSymbolTable
 70
               5
  0
LAYER
  5
14
100
AcDbSymbolTableRecord
100
AcDbLayerTableRecord
  2
0
 70
               0
 62
               7
  6
Continuous
290
               1
370
              -3
390
1D
  0
LAYER
  5
59
100
AcDbSymbolTableRecord
100
AcDbLayerTableRecord
  2
Defpoints
 70
               0
 62
               7
  6
Continuous
290
               0
370
              -3
390
1D
  0
LAYER
  5
5A
100
AcDbSymbolTableRecord
100
AcDbLayerTableRecord
  2
template
 70
               0
 62
               7
  6
Continuous
290
               1
370
              -3
390
1D
  0
LAYER
  5
5B
100
AcDbSymbolTableRecord
100
AcDbLayerTableRecord
  2
notes
 70
               0
 62
               7
  6
Continuous
290
               1
370
              -3
390
1D
  0
LAYER
  5
5C
100
AcDbSymbolTableRecord
100
AcDbLayerTableRecord
  2
ADF70-0401
 70
               0
 62
               7
  6
Continuous
290
               1
370
              -3
390
1D
  0
ENDTAB
  0
TABLE
  2
STYLE
  5
3
100
AcDbSymbolTable
 70
               2
  0
STYLE
  5
17
100
AcDbSymbolTableRecord
100
AcDbTextStyleTableRecord
  2
Standard
 70
               0
 40
0.0
 41
1.0
 50
0.0
 71
               0
 42
0.0
  3
txt
  4
BIGFONT.SHX
  0
STYLE
  5
40
100
AcDbSymbolTableRecord
100
AcDbTextStyleTableRecord
  2
ＭＳ ゴシック
 70
               0
 40
0.0
 41
1.0
 50
0.0
 71
               0
 42
0.0
  3

  4
ＭＳ ゴシック
1001
ACAD
1000
ＭＳ ゴシック
1071
        0
  0
ENDTAB
  0
TABLE
  2
VIEW
  5
5
100
AcDbSymbolTable
 70
               0
  0
ENDTAB
  0
TABLE
  2
UCS
  5
6
100
AcDbSymbolTable
 70
               0
  0
ENDTAB
  0
TABLE
  2
APPID
  5
8
100
AcDbSymbolTable
 70
               1
  0
APPID
  5
16
100
AcDbSymbolTableRecord
100
AcDbRegAppTableRecord
  2
ACAD
 70
               0
  0
ENDTAB
  0
TABLE
  2
DIMSTYLE
  5
9
100
AcDbSymbolTable
 70
               4
100
AcDbDimStyleTable
 71
               0
  0
DIMSTYLE
105
18
100
AcDbSymbolTableRecord
100
AcDbDimStyleTableRecord
  2
Standard
 70
               0
  3

  4

 40
1.0
 41
0.18
 42
0.0625
 43
0.38
 44
0.18
 45
0.0
 46
0.0
 47
0.0
 48
0.0
 71
               0
 72
               0
 73
               1
 74
               1
 75
               0
 76
               0
 77
               0
 78
               0
 79
               0
140
0.18
141
0.09
142
0.0
143
25.399999999999999
144
1.0
145
0.0
146
1.0
147
0.09
148
0.0
170
               0
171
               2
172
               0
173
               0
174
               0
175
               0
176
               0
177
               0
178
               0
179
               0
271
               4
272
               4
273
               2
274
               2
275
               0
276
               0
277
               2
278
              46
279
               0
280
               0
281
               0
282
               0
283
               1
284
               0
285
               0
286
               0
288
               0
289
               3
340
17
341
0
342
0
343
0
344
0
371
              -2
372
              -2
  0
DIMSTYLE
105
65
100
AcDbSymbolTableRecord
100
AcDbDimStyleTableRecord
  2
tfrom線あり
 70
               0
  3
<>
  4
[]
 40
1.0
 41
9.9993896484374982
 42
24.999999999999996
 43
0.9999999999999999
 44
0.0
 45
0.0
 46
0.0
 47
0.0
 48
0.0
 71
               0
 72
               0
 73
               0
 74
               0
 75
               0
 76
               0
 77
               1
 78
              11
 79
               0
140
24.432617187500004
141
0.0
142
0.0
143
1.0
144
1.0
145
0.0
146
1.0
147
0.4999999999999999
148
0.0
170
               0
171
               1
172
               0
173
               0
174
               1
175
               0
176
               0
177
               0
178
               0
179
               2
271
               1
272
               1
273
               2
274
               2
275
               0
276
               2
277
               2
278
              46
279
               0
280
               0
281
               0
282
               0
283
               1
284
              11
285
              11
286
              11
288
               0
289
               0
340
40
341
5D
342
5D
343
0
344
0
371
              -2
372
              -2
  0
DIMSTYLE
105
66
100
AcDbSymbolTableRecord
100
AcDbDimStyleTableRecord
  2
TformSENN
 70
               0
  3
<>
  4
[]
 40
1.0
 41
9.9993896484374982
 42
24.999999999999996
 43
0.9999999999999999
 44
0.0
 45
0.0
 46
0.0
 47
0.0
 48
0.0
 71
               0
 72
               0
 73
               0
 74
               0
 75
               0
 76
               0
 77
               1
 78
              11
 79
               0
140
24.432617187500004
141
0.0
142
0.0
143
1.0
144
1.0
145
0.0
146
0.8
147
0.4999999999999999
148
0.0
170
               0
171
               1
172
               1
173
               0
174
               1
175
               0
176
               0
177
               0
178
               0
179
               2
271
               1
272
               1
273
               2
274
               2
275
               0
276
               2
277
               2
278
              46
279
               0
280
               0
281
               0
282
               0
283
               1
284
              11
285
              11
286
              11
288
               0
289
               0
340
40
341
5D
342
5D
343
0
344
0
371
              -2
372
              -2
  0
DIMSTYLE
105
70
100
AcDbSymbolTableRecord
100
AcDbDimStyleTableRecord
  2
Arch
 70
               0
  3
<>
  4
[]
 40
1.0
 41
22.4482421875
 42
15.875
 43
10.16
 44
31.75
 45
0.0
 46
1.5874999999999999
 47
0.0
 48
0.0
 71
               0
 72
               0
 73
               0
 74
               0
 75
               0
 76
               0
 77
               1
 78
              11
 79
               0
140
24.432617187500004
141
0.0
142
0.0
143
1.0
144
1.0
145
0.0
146
1.0
147
1.5874999999999999
148
0.0
170
               0
171
               1
172
               1
173
               0
174
               1
175
               0
176
               0
177
               0
178
               0
179
               2
271
               1
272
               1
273
               2
274
               2
275
               0
276
               2
277
               2
278
              46
279
               0
280
               0
281
               0
282
               0
283
               1
284
              11
285
              11
286
              11
288
               0
289
               0
340
40
341
6C
342
67
343
0
344
0
371
              -2
372
              -2
  0
ENDTAB
  0
TABLE
  2
BLOCK_RECORD
  5
1
100
AcDbSymbolTable
 70
              32
  0
BLOCK_RECORD
  5
A
100
AcDbSymbolTableRecord
100
AcDbBlockTableRecord
  2
*MODEL_SPACE
340
20
  0
BLOCK_RECORD
  5
B
100
AcDbSymbolTableRecord
100
AcDbBlockTableRecord
  2
*PAPER_SPACE
340
21
  0
BLOCK_RECORD
  5
5D
100
AcDbSymbolTableRecord
100
AcDbBlockTableRecord
  2
_DOT
340
0
  0
BLOCK_RECORD
  5
67
100
AcDbSymbolTableRecord
100
AcDbBlockTableRecord
  2
VW_SLASH
340
0
  0
BLOCK_RECORD
  5
6C
100
AcDbSymbolTableRecord
100
AcDbBlockTableRecord
  2
VW_FILLEDARROW
340
0
  0
BLOCK_RECORD
  5
23
100
AcDbSymbolTableRecord
100
AcDbBlockTableRecord
  2
グループ
340
0
102
{BLKREFS
331
1D9
102
}
  0
BLOCK_RECORD
  5
24
100
AcDbSymbolTableRecord
100
AcDbBlockTableRecord
  2
*D4
340
0
  0
BLOCK_RECORD
  5
25
100
AcDbSymbolTableRecord
100
AcDbBlockTableRecord
  2
*D5
340
0
  0
BLOCK_RECORD
  5
26
100
AcDbSymbolTableRecord
100
AcDbBlockTableRecord
  2
*D6
340
0
  0
BLOCK_RECORD
  5
27
100
AcDbSymbolTableRecord
100
AcDbBlockTableRecord
  2
*D7
340
0
  0
BLOCK_RECORD
  5
28
100
AcDbSymbolTableRecord
100
AcDbBlockTableRecord
  2
*D8
340
0
  0
BLOCK_RECORD
  5
29
100
AcDbSymbolTableRecord
100
AcDbBlockTableRecord
  2
*D9
340
0
  0
BLOCK_RECORD
  5
2A
100
AcDbSymbolTableRecord
100
AcDbBlockTableRecord
  2
*D10
340
0
  0
BLOCK_RECORD
  5
2B
100
AcDbSymbolTableRecord
100
AcDbBlockTableRecord
  2
*D11
340
0
  0
BLOCK_RECORD
  5
2C
100
AcDbSymbolTableRecord
100
AcDbBlockTableRecord
  2
*D12
340
0
  0
BLOCK_RECORD
  5
2D
100
AcDbSymbolTableRecord
100
AcDbBlockTableRecord
  2
*D13
340
0
  0
BLOCK_RECORD
  5
2E
100
AcDbSymbolTableRecord
100
AcDbBlockTableRecord
  2
*D14
340
0
  0
BLOCK_RECORD
  5
2F
100
AcDbSymbolTableRecord
100
AcDbBlockTableRecord
  2
*D15
340
0
  0
BLOCK_RECORD
  5
30
100
AcDbSymbolTableRecord
100
AcDbBlockTableRecord
  2
*D16
340
0
  0
BLOCK_RECORD
  5
31
100
AcDbSymbolTableRecord
100
AcDbBlockTableRecord
  2
*D17
340
0
  0
BLOCK_RECORD
  5
32
100
AcDbSymbolTableRecord
100
AcDbBlockTableRecord
  2
*D18
340
0
  0
BLOCK_RECORD
  5
33
100
AcDbSymbolTableRecord
100
AcDbBlockTableRecord
  2
*D19
340
0
  0
BLOCK_RECORD
  5
34
100
AcDbSymbolTableRecord
100
AcDbBlockTableRecord
  2
*D20
340
0
  0
BLOCK_RECORD
  5
35
100
AcDbSymbolTableRecord
100
AcDbBlockTableRecord
  2
*D21
340
0
  0
BLOCK_RECORD
  5
36
100
AcDbSymbolTableRecord
100
AcDbBlockTableRecord
  2
*D22
340
0
  0
BLOCK_RECORD
  5
37
100
AcDbSymbolTableRecord
100
AcDbBlockTableRecord
  2
*D23
340
0
  0
BLOCK_RECORD
  5
38
100
AcDbSymbolTableRecord
100
AcDbBlockTableRecord
  2
*D24
340
0
  0
BLOCK_RECORD
  5
39
100
AcDbSymbolTableRecord
100
AcDbBlockTableRecord
  2
*D25
340
0
  0
BLOCK_RECORD
  5
3A
100
AcDbSymbolTableRecord
100
AcDbBlockTableRecord
  2
*D26
340
0
  0
BLOCK_RECORD
  5
3B
100
AcDbSymbolTableRecord
100
AcDbBlockTableRecord
  2
*D27
340
0
  0
BLOCK_RECORD
  5
3C
100
AcDbSymbolTableRecord
100
AcDbBlockTableRecord
  2
*D28
340
0
  0
BLOCK_RECORD
  5
3D
100
AcDbSymbolTableRecord
100
AcDbBlockTableRecord
  2
グループ-1
340
0
102
{BLKREFS
331
22F
102
}
  0
BLOCK_RECORD
  5
3E
100
AcDbSymbolTableRecord
100
AcDbBlockTableRecord
  2
グループ-2
340
0
102
{BLKREFS
331
1CD
102
}
  0
BLOCK_RECORD
  5
3F
100
AcDbSymbolTableRecord
100
AcDbBlockTableRecord
  2
グループ-3
340
0
102
{BLKREFS
331
230
102
}
  0
ENDTAB
  0
ENDSEC
  0
SECTION
  2
BLOCKS
  0
BLOCK
  5
D
100
AcDbEntity
  8
0
390
0
100
AcDbBlockBegin
  2
*MODEL_SPACE
 70
               0
 10
0.0
 20
0.0
 30
0.0
  3
*MODEL_SPACE
  1

  0
ENDBLK
  5
E
100
AcDbEntity
  8
0
390
0
100
AcDbBlockEnd
  0
BLOCK
  5
F
100
AcDbEntity
 67
               1
  8
0
390
0
100
AcDbBlockBegin
  2
*PAPER_SPACE
 70
               0
 10
0.0
 20
0.0
 30
0.0
  3
*PAPER_SPACE
  1

  0
ENDBLK
  5
10
100
AcDbEntity
 67
               1
  8
0
390
0
100
AcDbBlockEnd
  0
BLOCK
  5
5E
100
AcDbEntity
  8
0
390
0
100
AcDbBlockBegin
  2
_DOT
 70
               0
 10
0.0
 20
0.0
 30
0.0
  3
_DOT
  1

  0
POLYLINE
  5
5F
100
AcDbEntity
  8
0
370
              -2
390
0
  6
ByBlock
 62
               0
100
AcDb2dPolyline
 66
               1
 10
0.0
 20
0.0
 30
0.0
 70
               1
 40
0.5
 41
0.5
  0
VERTEX
  5
60
100
AcDbEntity
  8
0
370
              -2
390
0
  6
ByBlock
 62
               0
100
AcDbVertex
100
AcDb2dVertex
 10
-0.25
 20
0.0
 30
0.0
 42
1.0
  0
VERTEX
  5
61
100
AcDbEntity
  8
0
370
              -2
390
0
  6
ByBlock
 62
               0
100
AcDbVertex
100
AcDb2dVertex
 10
0.25
 20
0.0
 30
0.0
 42
1.0
  0
SEQEND
  5
62
100
AcDbEntity
  8
0
390
0
  0
LINE
  5
63
100
AcDbEntity
  8
0
370
              -2
390
0
  6
ByBlock
 62
               0
100
AcDbLine
 10
-0.5
 20
0.0
 30
0.0
 11
-1.0
 21
0.0
 31
0.0
  0
ENDBLK
  5
64
100
AcDbEntity
  8
0
390
0
100
AcDbBlockEnd
  0
BLOCK
  5
68
100
AcDbEntity
  8
0
370
              -2
390
0
  6
ByBlock
 62
               0
100
AcDbBlockBegin
  2
VW_SLASH
 70
               0
 10
0.0
 20
0.0
 30
0.0
  3
VW_SLASH
  1

  0
LINE
  5
69
100
AcDbEntity
  8
0
370
              -2
390
0
  6
ByBlock
 62
               0
100
AcDbLine
 10
0.0
 20
0.0
 30
0.0
 11
-1.0
 21
0.0
 31
0.0
  0
LINE
  5
6A
100
AcDbEntity
  8
0
370
              20
390
0
  6
ByBlock
 62
               0
100
AcDbLine
 10
-0.4987813153181721
 20
-0.4987813153181719
 30
0.0
 11
0.4987813153181721
 21
0.4987813153181719
 31
0.0
  0
ENDBLK
  5
6B
100
AcDbEntity
  8
0
390
0
100
AcDbBlockEnd
  0
BLOCK
  5
6D
100
AcDbEntity
  8
0
370
              -2
390
0
  6
ByBlock
 62
               0
100
AcDbBlockBegin
  2
VW_FILLEDARROW
 70
               0
 10
0.0
 20
0.0
 30
0.0
  3
VW_FILLEDARROW
  1

  0
SOLID
  5
6E
100
AcDbEntity
  8
0
370
              -2
390
0
 62
               0
100
AcDbTrace
 10
0.0
 20
0.0
 30
0.0
 11
-1.4107666015625
 21
-0.3780137715974714
 31
0.0
 12
-1.4107666015625
 22
0.3780137715974717
 32
0.0
 13
-1.4107666015625
 23
0.3780137715974717
 33
0.0
  0
ENDBLK
  5
6F
100
AcDbEntity
  8
0
390
0
100
AcDbBlockEnd
  0
BLOCK
  5
71
100
AcDbEntity
  8
template
390
0
100
AcDbBlockBegin
  2
グループ
 70
               0
 10
0.0
 20
0.0
 30
0.0
  3
グループ
  1

  0
LWPOLYLINE
  5
72
100
AcDbEntity
  8
0
370
              15
390
0
  6
Continuous
 62
               7
100
AcDbPolyline
 90
        8
 70
             129
 10
778.48717237179358
 20
-1479.697450619632
 10
778.48717237179358
 20
-1485.6948393132079
 10
768.98597545379027
 20
-1485.6948393132079
 10
768.98597545379027
 20
-1510.1458025767167
 10
760.63059819200748
 20
-1510.1458025767167
 10
760.63059819200748
 20
-1485.6948393132079
 10
751.29764124569806
 20
-1485.6948393132079
 10
751.29764124569806
 20
-1479.697450619632
  0
LWPOLYLINE
  5
73
100
AcDbEntity
  8
0
370
              15
390
0
  6
Continuous
 62
               7
100
AcDbPolyline
 90
      101
 70
             128
 10
791.21546420235052
 20
-1480.4256991125685
 10
791.2308142311324
 20
-1480.4213383558842
 42
-0.0222221607815074
 10
791.52081880780656
 20
-1480.3527138906388
 10
791.53661257179647
 20
-1480.3497104675425
 42
-0.014688356558787
 10
791.79931527702433
 20
-1480.3077072805925
 42
-0.0127458844185979
 10
792.06395424417894
 20
-1480.2801703125199
 10
792.12640932249019
 20
-1480.2752768899318
 42
-0.0198099018565424
 10
792.51725843196436
 20
-1480.2601917325351
 10
792.56906990141078
 20
-1480.2602455082001
 42
-0.0147617382763642
 10
793.06369336238129
 20
-1480.275365533445
 10
793.1363848172615
 20
-1480.2797381403329
 42
-0.0162624549003409
 10
793.52653844672454
 20
-1480.3159710156051
 10
793.6480708379828
 20
-1480.3312575746015
 42
-0.0080020874665911
 10
793.79364986907535
 20
-1480.35194042187
 10
793.83196933967326
 20
-1480.3580116996816
 42
-0.0053821929671368
 10
793.90045344498515
 20
-1480.3696192235027
 10
793.17404774578654
 20
-1482.5505476792166
 42
0.0108667757390983
 10
793.10673067565142
 20
-1482.5373605639959
 10
793.06926265246625
 20
-1482.5308628214023
 42
0.0170663203310512
 10
792.92604586555137
 20
-1482.5110332241106
 10
792.85817053286769
 20
-1482.503986053523
 42
0.0220162375274658
 10
792.57779112501282
 20
-1482.4873036927529
 10
792.49993555795982
 20
-1482.4861043254864
 42
0.0282606915787785
 10
792.16429923438238
 20
-1482.4999076024556
 10
792.12038596060404
 20
-1482.5042075924598
 42
0.0169677213692155
 10
791.87446146565117
 20
-1482.5367446420109
 42
0.0190576269863219
 10
791.63155350307159
 20
-1482.5868915141173
 10
791.62529431496023
 20
-1482.5884344882268
 42
0.0213685642845983
 10
791.37490983048394
 20
-1482.6616347733311
 10
791.36941993556627
 20
-1482.6634977693907
 42
0.0237595297601894
 10
791.11592505066517
 20
-1482.7631822912874
 10
791.11082297663791
 20
-1482.7654740667645
 42
0.0261857468820483
 10
790.85865220040898
 20
-1482.8950104041385
 10
790.84822601132259
 20
-1482.9010758786064
 42
0.0272553062019431
 10
790.61179623608245
 20
-1483.0564480845514
 10
790.57703322257396
 20
-1483.082109232643
 42
0.0325996893172771
 10
790.42687787892146
 20
-1483.2088571056152
 10
790.40316844979611
 20
-1483.2316751341302
 42
0.0138050960638385
 10
790.3112852935883
 20
-1483.3251247956796
 42
0.0125280103797611
 10
790.22444276075578
 20
-1483.4232881222786
 10
790.20076231584642
 20
-1483.4514466204671
 42
0.0205218024738806
 10
790.07566224033405
 20
-1483.6132399346943
 10
790.0531958998456
 20
-1483.6448996645231
 42
0.0163110129587224
 10
789.89748552059064
 20
-1483.880230099599
 10
789.89476162454332
 20
-1483.8846538615785
 42
0.0131897341892145
 10
789.74796110363854
 20
-1484.1377859539409
 10
789.74626100827095
 20
-1484.1409041930788
 42
0.0107895576068261
 10
789.60848430605813
 20
-1484.4071194027181
 10
789.60775141653517
 20
-1484.4086136353603
 42
0.0091371507220219
 10
789.47927146788652
 20
-1484.6831388331177
 10
789.44952583647637
 20
-1484.7498453402786
 42
0.0135418326350693
 10
789.2778118974029
 20
-1485.164783125552
 10
789.2442070889698
 20
-1485.2526492678303
 42
0.009283454241449
 10
789.07297802904964
 20
-1485.726547766134
 10
789.04736090133099
 20
-1485.8017888359302
 42
0.0054261043581057
 10
788.93972275303895
 20
-1486.1295528089927
 10
788.92219676685056
 20
-1486.1849409712574
 42
0.000822509082292
 10
788.85352671503153
 20
-1486.4032097293718
 10
787.86883758309807
 20
-1489.4281010226284
 10
791.10146142317194
 20
-1489.4281010226284
 10
790.59726899331849
 20
-1491.3325793209808
 10
787.34121271133517
 20
-1491.3325793209808
 10
781.51206367898135
 20
-1510.1458023869857
 10
779.68696606867104
 20
-1510.1458023869857
 10
785.52164410417197
 20
-1491.3325793209808
 10
783.11652773513163
 20
-1491.3325793209808
 10
783.62072016498507
 20
-1489.4281010226284
 10
786.04926897593509
 20
-1489.4281010226284
 10
786.90942389412373
 20
-1486.7916880219295
 42
-0.0005863560649434
 10
786.94615857230497
 20
-1486.6748616017085
 10
787.02224640598763
 20
-1486.4338693022523
 42
-0.0087522378926035
 10
787.22171454944339
 20
-1485.8385932151089
 10
787.31397882485976
 20
-1485.5784530465876
 42
-0.0077400953829899
 10
787.57191248398908
 20
-1484.8854483690448
 10
787.58767745556827
 20
-1484.8450174856578
 42
-0.0082369946329911
 10
787.83476192617991
 20
-1484.240938419463
 42
-0.0085725238364432
 10
788.1020080221831
 20
-1483.645512380175
 10
788.20363762319062
 20
-1483.4290912781898
 42
-0.016810941059609
 10
788.49058205192023
 20
-1482.8678837520863
 10
788.61642544237998
 20
-1482.6409197190874
 42
-0.0007817726862287
 10
788.6707097924359
 20
-1482.5433754740579
 10
788.67083809844439
 20
-1482.5431457653374
 42
-0.0036626142169117
 10
788.72572596247437
 20
-1482.4465478853529
 42
-0.0080221150679402
 10
788.78285021787985
 20
-1482.3512686506019
 10
788.81355016924226
 20
-1482.3018777014777
 42
-0.020213932556892
 10
788.9412059090472
 20
-1482.1138961007989
 10
788.9952733742366
 20
-1482.0408172365555
 42
-0.0249323791802347
 10
789.25443616795417
 20
-1481.724771994403
 10
789.27857598208277
 20
-1481.6981577214888
 42
-0.0242132121536747
 10
789.61825672362636
 20
-1481.3582742352833
 10
789.6661682963761
 20
-1481.3147650990982
 42
-0.0251017527859094
 10
789.95014999701607
 20
-1481.0817723533337
 10
789.95159547383139
 20
-1481.0807030957535
 42
-0.0130868069033408
 10
790.24985612378714
 20
-1480.8719226272124
 10
790.25141794292574
 20
-1480.8708891869401
 42
-0.0290329526392638
 10
790.56252908432316
 20
-1480.6900636853079
 10
790.59237464631735
 20
-1480.6749613024642
 42
-0.0160250190042327
 10
790.85827906007398
 20
-1480.5509451922553
 42
-0.0267600374788225
 10
791.1335551375397
 20
-1480.4501968717075
 10
791.16029105706355
 20
-1480.442004312881
 42
-0.0049981587669845
 10
791.21546420235052
 20
-1480.4256991125685
 42
-0.0049981587669845
  0
LWPOLYLINE
  5
74
100
AcDbEntity
  8
0
370
              15
390
0
  6
Continuous
 62
               7
100
AcDbPolyline
 90
      118
 70
             128
 10
811.02983176679743
 20
-1489.5020843504558
 10
812.9049536912969
 20
-1489.5020843504558
 10
812.06691478569701
 20
-1492.1836508768558
 42
-0.0010587229255859
 10
812.09837060119185
 20
-1492.1467463435906
 10
812.15656469190094
 20
-1492.0787640873248
 42
-0.0071874740410468
 10
812.30693991000328
 20
-1491.9081233952911
 10
812.4486626832612
 20
-1491.7518872539827
 42
-0.0148118053514632
 10
812.89879197597668
 20
-1491.284273407967
 10
812.98601431088287
 20
-1491.1988760871091
 42
-0.0086273358691592
 10
813.32156311188419
 20
-1490.8815004530995
 10
813.36539682811622
 20
-1490.8414508087608
 42
-0.010313832311234
 10
813.62342053034354
 20
-1490.6152876714282
 10
813.66919493667046
 20
-1490.5768056241682
 42
-0.0060206748571478
 10
813.84204300078284
 20
-1490.4350109734137
 10
813.84407413167924
 20
-1490.4333852677742
 42
-0.006706902729319
 10
814.01636694633135
 20
-1490.2992346339875
 10
814.01891571224337
 20
-1490.2973044641226
 42
-0.0076184352057214
 10
814.18982097812864
 20
-1490.1719295888684
 42
-0.0089652861675589
 10
814.36478194085771
 20
-1490.0522963285391
 10
814.40113366100888
 20
-1490.0283851150521
 42
-0.0156916245936195
 10
814.59709315816826
 20
-1489.9081226285784
 42
-0.0023299011066119
 10
814.79735520214911
 20
-1489.7949446890368
 10
814.81273933452792
 20
-1489.7863446939728
 42
-0.0107669341486142
 10
815.04697615963266
 20
-1489.6619445606216
 10
815.06924096070406
 20
-1489.6507278106733
 42
-0.007805804589533
 10
815.35283107865246
 20
-1489.5133663550369
 10
815.36273816636594
 20
-1489.5087572271664
 42
-0.0181829330470142
 10
815.67304757098543
 20
-1489.3778934860693
 10
815.72710301354425
 20
-1489.3573783661288
 42
-0.0208411536033513
 10
816.07618798099861
 20
-1489.2412879036342
 10
816.0905440811257
 20
-1489.2371694586809
 42
-0.0222799817142298
 10
816.41926387504327
 20
-1489.1585278925404
 10
816.42815283828338
 20
-1489.1568158819548
 42
-0.0215509523881962
 10
816.74462380656018
 20
-1489.1099001934208
 10
816.78710576760545
 20
-1489.1054626666303
 42
-0.0182545924871546
 10
817.02121454691428
 20
-1489.0896188412391
 10
817.06061556325562
 20
-1489.0883942961602
 42
-0.0072962856539014
 10
817.21653844295133
 20
-1489.0858249676378
 10
817.24563811352164
 20
-1489.0857701322341
 42
-0.0059227516321757
 10
817.34338761266827
 20
-1489.0867438440246
 10
817.37262983018547
 20
-1489.0873816106289
 42
-0.0011833111911178
 10
817.4118811138726
 20
-1489.0883306149378
 10
816.61649451826543
 20
-1491.6270645600368
 42
0.0143932051566695
 10
816.59009313591844
 20
-1491.6168655899928
 10
816.58282116349756
 20
-1491.6142943711343
 42
0.0234388603533111
 10
816.54099029756424
 20
-1491.6016751354186
 10
816.53230863465274
 20
-1491.5994941734139
 42
0.019916274298385
 10
816.47201980057525
 20
-1491.5868774380792
 10
816.45120586276653
 20
-1491.5833802386503
 42
0.0293643550676031
 10
816.34813100400424
 20
-1491.572230192997
 10
816.3234458232871
 20
-1491.5710185759785
 42
0.0214606686862399
 10
816.17030490733646
 20
-1491.570080015561
 10
816.16093299651664
 20
-1491.5704249271053
 42
0.0167564054179561
 10
815.9894128054051
 20
-1491.5825019694737
 10
815.98095301264925
 20
-1491.5833833099005
 42
0.0137677553242717
 10
815.79359969938378
 20
-1491.6081326184442
 10
815.78624795987662
 20
-1491.609310538412
 42
0.011849726147933
 10
815.58575019578211
 20
-1491.6463278885997
 10
815.57960018852805
 20
-1491.6476147513213
 42
0.0106421143892647
 10
815.3687193012338
 20
-1491.6964471268984
 10
815.36381049285399
 20
-1491.6976944695812
 42
0.0099746379704644
 10
815.14535202369075
 20
-1491.7578689978961
 10
815.08380398352119
 20
-1491.7761508765266
 42
0.0191613675858478
 10
814.74781952100341
 20
-1491.8901282568143
 10
814.65975974825915
 20
-1491.9238151671379
 42
0.0205274080142895
 10
814.2744529763595
 20
-1492.0896435749642
 10
814.21680369438138
 20
-1492.1173115395345
 42
0.0181256912193311
 10
813.95852675371054
 20
-1492.2529953585145
 10
813.90557137039013
 20
-1492.2833129717328
 42
0.0140709242417536
 10
813.76061643576827
 20
-1492.3718076451635
 10
813.73436756714966
 20
-1492.3888644638789
 42
0.0086667884395899
 10
813.64544140560724
 20
-1492.4488671317617
 42
0.0036408192033368
 10
813.55800816755652
 20
-1492.5110479895666
 10
813.52278129310525
 20
-1492.5364889354669
 42
0.0052260781272653
 10
813.3665525957208
 20
-1492.6518213220961
 10
813.3503457394545
 20
-1492.6640494327194
 42
0.0050024435897137
 10
813.16434239640375
 20
-1492.8073320009753
 10
813.14902423988053
 20
-1492.8193780234274
 42
0.0136138710277163
 10
812.93858297155839
 20
-1492.9943445283379
 10
812.90491509576168
 20
-1493.0239235010549
 42
0.0172815186918778
 10
812.64051155409732
 20
-1493.2729201736802
 10
812.63794920825649
 20
-1493.2755059908254
 42
0.0189403857993598
 10
812.38736740967556
 20
-1493.5483112556317
 10
812.35473591614118
 20
-1493.586655187127
 42
0.018504419950395
 10
812.16277947716139
 20
-1493.8299037682496
 42
0.0088565243897172
 10
811.98431937053772
 20
-1494.0834201883927
 10
811.97514139088446
 20
-1494.0969615681597
 42
0.0157195347234594
 10
811.7919207845473
 20
-1494.3864837774804
 10
811.74583784262063
 20
-1494.4646359744943
 42
0.009545187977935
 10
811.58075229248186
 20
-1494.7572306168527
 10
811.56960437355349
 20
-1494.7779012889823
 42
0.0100351706260162
 10
811.43756062439297
 20
-1495.0349568494755
 42
0.0086935915416494
 10
811.31522947260373
 20
-1495.2967899948692
 10
811.31190873118442
 20
-1495.3042323178518
 42
0.0072580174866793
 10
811.19156227923372
 20
-1495.5848243094485
 10
811.18830064593317
 20
-1495.5927443354526
 42
0.0060005122617791
 10
811.06909997758385
 20
-1495.8923540060753
 10
811.06588899924884
 20
-1495.9007155339627
 42
0.0049017786976902
 10
810.94698884039246
 20
-1496.2196445145639
 10
810.94382303400096
 20
-1496.2283974517973
 42
0.0039415167600153
 10
810.82438675594062
 20
-1496.5669395142213
 10
810.82125565329216
 20
-1496.5760427150867
 42
0.003103583876843
 10
810.70045086760308
 20
-1496.934482576848
 10
810.69734082306866
 20
-1496.9439031982351
 42
0.0025070747153123
 10
810.57443947175841
 20
-1497.3225504151631
 10
810.53714557532794
 20
-1497.4394420804319
 42
0.0029081910285217
 10
810.34512727751314
 20
-1498.053605738736
 10
810.30432410900005
 20
-1498.1868289809995
 42
0.0009266453733164
 10
810.0359067346634
 20
-1499.0690534409955
 10
810.01501926204492
 20
-1499.1381653201584
 42
-0.0005809993666188
 10
809.73768258145356
 20
-1500.0519734267978
 10
809.67140078318232
 20
-1500.2694583589521
 42
-0.0012018708165261
 10
809.52441647375144
 20
-1500.7476210234781
 10
809.47209662215926
 20
-1500.9163801644297
 42
-0.0002691059599431
 10
809.4285271410173
 20
-1501.056647784686
 10
806.59557124272806
 20
-1510.1458023869857
 10
804.77758235074953
 20
-1510.1458023869857
 10
811.02983176679743
 20
-1489.5020843504558
  0
SPLINE
  5
75
100
AcDbEntity
  8
0
370
              15
390
0
  6
Continuous
 62
               7
100
AcDbSpline
210
0.0
220
0.0
230
1.0
 70
              13
 71
               2
 72
             782
 73
             779
 74
               0
 42
0.000001
 43
0.000001
 40
0.0
 40
0.0
 40
0.0
 40
1.0
 40
1.0
 40
2.0
 40
2.0
 40
3.0
 40
3.0
 40
4.0
 40
4.0
 40
5.0
 40
5.0
 40
6.0
 40
6.0
 40
7.0
 40
7.0
 40
8.0
 40
8.0
 40
9.0
 40
9.0
 40
10.0
 40
10.0
 40
11.0
 40
11.0
 40
12.0
 40
12.0
 40
13.0
 40
13.0
 40
14.0
 40
14.0
 40
15.0
 40
15.0
 40
16.0
 40
16.0
 40
17.0
 40
17.0
 40
18.0
 40
18.0
 40
19.0
 40
19.0
 40
20.0
 40
20.0
 40
21.0
 40
21.0
 40
22.0
 40
22.0
 40
23.0
 40
23.0
 40
24.0
 40
24.0
 40
25.0
 40
25.0
 40
26.0
 40
26.0
 40
27.0
 40
27.0
 40
28.0
 40
28.0
 40
29.0
 40
29.0
 40
30.0
 40
30.0
 40
31.0
 40
31.0
 40
32.0
 40
32.0
 40
33.0
 40
33.0
 40
34.0
 40
34.0
 40
35.0
 40
35.0
 40
36.0
 40
36.0
 40
37.0
 40
37.0
 40
38.0
 40
38.0
 40
39.0
 40
39.0
 40
40.0
 40
40.0
 40
41.0
 40
41.0
 40
42.0
 40
42.0
 40
43.0
 40
43.0
 40
44.0
 40
44.0
 40
45.0
 40
45.0
 40
46.0
 40
46.0
 40
47.0
 40
47.0
 40
48.0
 40
48.0
 40
49.0
 40
49.0
 40
50.0
 40
50.0
 40
51.0
 40
51.0
 40
52.0
 40
52.0
 40
53.0
 40
53.0
 40
54.0
 40
54.0
 40
55.0
 40
55.0
 40
56.0
 40
56.0
 40
57.0
 40
57.0
 40
58.0
 40
58.0
 40
59.0
 40
59.0
 40
60.0
 40
60.0
 40
61.0
 40
61.0
 40
62.0
 40
62.0
 40
63.0
 40
63.0
 40
64.0
 40
64.0
 40
65.0
 40
65.0
 40
66.0
 40
66.0
 40
67.0
 40
67.0
 40
68.0
 40
68.0
 40
69.0
 40
69.0
 40
70.0
 40
70.0
 40
71.0
 40
71.0
 40
72.0
 40
72.0
 40
73.0
 40
73.0
 40
74.0
 40
74.0
 40
75.0
 40
75.0
 40
76.0
 40
76.0
 40
77.0
 40
77.0
 40
78.0
 40
78.0
 40
79.0
 40
79.0
 40
80.0
 40
80.0
 40
81.0
 40
81.0
 40
82.0
 40
82.0
 40
83.0
 40
83.0
 40
84.0
 40
84.0
 40
85.0
 40
85.0
 40
86.0
 40
86.0
 40
87.0
 40
87.0
 40
88.0
 40
88.0
 40
89.0
 40
89.0
 40
90.0
 40
90.0
 40
91.0
 40
91.0
 40
92.0
 40
92.0
 40
93.0
 40
93.0
 40
94.0
 40
94.0
 40
95.0
 40
95.0
 40
96.0
 40
96.0
 40
97.0
 40
97.0
 40
98.0
 40
98.0
 40
99.0
 40
99.0
 40
100.0
 40
100.0
 40
101.0
 40
101.0
 40
102.0
 40
102.0
 40
103.0
 40
103.0
 40
104.0
 40
104.0
 40
105.0
 40
105.0
 40
106.0
 40
106.0
 40
107.0
 40
107.0
 40
108.0
 40
108.0
 40
109.0
 40
109.0
 40
110.0
 40
110.0
 40
111.0
 40
111.0
 40
112.0
 40
112.0
 40
113.0
 40
113.0
 40
114.0
 40
114.0
 40
115.0
 40
115.0
 40
116.0
 40
116.0
 40
117.0
 40
117.0
 40
118.0
 40
118.0
 40
119.0
 40
119.0
 40
120.0
 40
120.0
 40
121.0
 40
121.0
 40
122.0
 40
122.0
 40
123.0
 40
123.0
 40
124.0
 40
124.0
 40
125.0
 40
125.0
 40
126.0
 40
126.0
 40
127.0
 40
127.0
 40
128.0
 40
128.0
 40
129.0
 40
129.0
 40
130.0
 40
130.0
 40
131.0
 40
131.0
 40
132.0
 40
132.0
 40
133.0
 40
133.0
 40
134.0
 40
134.0
 40
135.0
 40
135.0
 40
136.0
 40
136.0
 40
137.0
 40
137.0
 40
138.0
 40
138.0
 40
139.0
 40
139.0
 40
140.0
 40
140.0
 40
141.0
 40
141.0
 40
142.0
 40
142.0
 40
143.0
 40
143.0
 40
144.0
 40
144.0
 40
145.0
 40
145.0
 40
146.0
 40
146.0
 40
147.0
 40
147.0
 40
148.0
 40
148.0
 40
149.0
 40
149.0
 40
150.0
 40
150.0
 40
151.0
 40
151.0
 40
152.0
 40
152.0
 40
153.0
 40
153.0
 40
154.0
 40
154.0
 40
155.0
 40
155.0
 40
156.0
 40
156.0
 40
157.0
 40
157.0
 40
158.0
 40
158.0
 40
159.0
 40
159.0
 40
160.0
 40
160.0
 40
161.0
 40
161.0
 40
162.0
 40
162.0
 40
163.0
 40
163.0
 40
164.0
 40
164.0
 40
165.0
 40
165.0
 40
166.0
 40
166.0
 40
167.0
 40
167.0
 40
168.0
 40
168.0
 40
169.0
 40
169.0
 40
170.0
 40
170.0
 40
171.0
 40
171.0
 40
172.0
 40
172.0
 40
173.0
 40
173.0
 40
174.0
 40
174.0
 40
175.0
 40
175.0
 40
176.0
 40
176.0
 40
177.0
 40
177.0
 40
178.0
 40
178.0
 40
179.0
 40
179.0
 40
180.0
 40
180.0
 40
181.0
 40
181.0
 40
182.0
 40
182.0
 40
183.0
 40
183.0
 40
184.0
 40
184.0
 40
185.0
 40
185.0
 40
186.0
 40
186.0
 40
187.0
 40
187.0
 40
188.0
 40
188.0
 40
189.0
 40
189.0
 40
190.0
 40
190.0
 40
191.0
 40
191.0
 40
192.0
 40
192.0
 40
193.0
 40
193.0
 40
194.0
 40
194.0
 40
195.0
 40
195.0
 40
196.0
 40
196.0
 40
197.0
 40
197.0
 40
198.0
 40
198.0
 40
199.0
 40
199.0
 40
200.0
 40
200.0
 40
201.0
 40
201.0
 40
202.0
 40
202.0
 40
203.0
 40
203.0
 40
204.0
 40
204.0
 40
205.0
 40
205.0
 40
206.0
 40
206.0
 40
207.0
 40
207.0
 40
208.0
 40
208.0
 40
209.0
 40
209.0
 40
210.0
 40
210.0
 40
211.0
 40
211.0
 40
212.0
 40
212.0
 40
213.0
 40
213.0
 40
214.0
 40
214.0
 40
215.0
 40
215.0
 40
216.0
 40
216.0
 40
217.0
 40
217.0
 40
218.0
 40
218.0
 40
219.0
 40
219.0
 40
220.0
 40
220.0
 40
221.0
 40
221.0
 40
222.0
 40
222.0
 40
223.0
 40
223.0
 40
224.0
 40
224.0
 40
225.0
 40
225.0
 40
226.0
 40
226.0
 40
227.0
 40
227.0
 40
228.0
 40
228.0
 40
229.0
 40
229.0
 40
230.0
 40
230.0
 40
231.0
 40
231.0
 40
232.0
 40
232.0
 40
233.0
 40
233.0
 40
234.0
 40
234.0
 40
235.0
 40
235.0
 40
236.0
 40
236.0
 40
237.0
 40
237.0
 40
238.0
 40
238.0
 40
239.0
 40
239.0
 40
240.0
 40
240.0
 40
241.0
 40
241.0
 40
242.0
 40
242.0
 40
243.0
 40
243.0
 40
244.0
 40
244.0
 40
245.0
 40
245.0
 40
246.0
 40
246.0
 40
247.0
 40
247.0
 40
248.0
 40
248.0
 40
249.0
 40
249.0
 40
250.0
 40
250.0
 40
251.0
 40
251.0
 40
252.0
 40
252.0
 40
253.0
 40
253.0
 40
254.0
 40
254.0
 40
255.0
 40
255.0
 40
256.0
 40
256.0
 40
257.0
 40
257.0
 40
258.0
 40
258.0
 40
259.0
 40
259.0
 40
260.0
 40
260.0
 40
261.0
 40
261.0
 40
262.0
 40
262.0
 40
263.0
 40
263.0
 40
264.0
 40
264.0
 40
265.0
 40
265.0
 40
266.0
 40
266.0
 40
267.0
 40
267.0
 40
268.0
 40
268.0
 40
269.0
 40
269.0
 40
270.0
 40
270.0
 40
271.0
 40
271.0
 40
272.0
 40
272.0
 40
273.0
 40
273.0
 40
274.0
 40
274.0
 40
275.0
 40
275.0
 40
276.0
 40
276.0
 40
277.0
 40
277.0
 40
278.0
 40
278.0
 40
279.0
 40
279.0
 40
280.0
 40
280.0
 40
281.0
 40
281.0
 40
282.0
 40
282.0
 40
283.0
 40
283.0
 40
284.0
 40
284.0
 40
285.0
 40
285.0
 40
286.0
 40
286.0
 40
287.0
 40
287.0
 40
288.0
 40
288.0
 40
289.0
 40
289.0
 40
290.0
 40
290.0
 40
291.0
 40
291.0
 40
292.0
 40
292.0
 40
293.0
 40
293.0
 40
294.0
 40
294.0
 40
295.0
 40
295.0
 40
296.0
 40
296.0
 40
297.0
 40
297.0
 40
298.0
 40
298.0
 40
299.0
 40
299.0
 40
300.0
 40
300.0
 40
301.0
 40
301.0
 40
302.0
 40
302.0
 40
303.0
 40
303.0
 40
304.0
 40
304.0
 40
305.0
 40
305.0
 40
306.0
 40
306.0
 40
307.0
 40
307.0
 40
308.0
 40
308.0
 40
309.0
 40
309.0
 40
310.0
 40
310.0
 40
311.0
 40
311.0
 40
312.0
 40
312.0
 40
313.0
 40
313.0
 40
314.0
 40
314.0
 40
315.0
 40
315.0
 40
316.0
 40
316.0
 40
317.0
 40
317.0
 40
318.0
 40
318.0
 40
319.0
 40
319.0
 40
320.0
 40
320.0
 40
321.0
 40
321.0
 40
322.0
 40
322.0
 40
323.0
 40
323.0
 40
324.0
 40
324.0
 40
325.0
 40
325.0
 40
326.0
 40
326.0
 40
327.0
 40
327.0
 40
328.0
 40
328.0
 40
329.0
 40
329.0
 40
330.0
 40
330.0
 40
331.0
 40
331.0
 40
332.0
 40
332.0
 40
333.0
 40
333.0
 40
334.0
 40
334.0
 40
335.0
 40
335.0
 40
336.0
 40
336.0
 40
337.0
 40
337.0
 40
338.0
 40
338.0
 40
339.0
 40
339.0
 40
340.0
 40
340.0
 40
341.0
 40
341.0
 40
342.0
 40
342.0
 40
343.0
 40
343.0
 40
344.0
 40
344.0
 40
345.0
 40
345.0
 40
346.0
 40
346.0
 40
347.0
 40
347.0
 40
348.0
 40
348.0
 40
349.0
 40
349.0
 40
350.0
 40
350.0
 40
351.0
 40
351.0
 40
352.0
 40
352.0
 40
353.0
 40
353.0
 40
354.0
 40
354.0
 40
355.0
 40
355.0
 40
356.0
 40
356.0
 40
357.0
 40
357.0
 40
358.0
 40
358.0
 40
359.0
 40
359.0
 40
360.0
 40
360.0
 40
361.0
 40
361.0
 40
362.0
 40
362.0
 40
363.0
 40
363.0
 40
364.0
 40
364.0
 40
365.0
 40
365.0
 40
366.0
 40
366.0
 40
367.0
 40
367.0
 40
368.0
 40
368.0
 40
369.0
 40
369.0
 40
370.0
 40
370.0
 40
371.0
 40
371.0
 40
372.0
 40
372.0
 40
373.0
 40
373.0
 40
374.0
 40
374.0
 40
375.0
 40
375.0
 40
376.0
 40
376.0
 40
377.0
 40
377.0
 40
378.0
 40
378.0
 40
379.0
 40
379.0
 40
380.0
 40
380.0
 40
381.0
 40
381.0
 40
382.0
 40
382.0
 40
383.0
 40
383.0
 40
384.0
 40
384.0
 40
385.0
 40
385.0
 40
386.0
 40
386.0
 40
387.0
 40
387.0
 40
388.0
 40
388.0
 40
389.0
 40
389.0
 40
389.0
 10
821.35853621753006
 20
-1489.4911579870934
 30
0.0
 41
1.0
 10
822.17696032625054
 20
-1489.4911579870934
 30
0.0
 41
1.0
 10
822.99538443497102
 20
-1489.4911579870934
 30
0.0
 41
1.0
 10
822.58163069945431
 20
-1490.8337842513431
 30
0.0
 41
1.0
 10
822.16787696393749
 20
-1492.1764105155928
 30
0.0
 41
1.0
 10
822.18621645908229
 20
-1492.1477097427169
 30
0.0
 41
0.9999957264358411
 10
822.20472345589064
 20
-1492.1191166926012
 30
0.0
 41
1.0
 10
822.23515278005073
 20
-1492.0721038141901
 30
0.0
 41
1.0
 10
822.26558210421081
 20
-1492.025090935779
 30
0.0
 41
1.0
 10
822.34494774931864
 20
-1491.9024721288733
 30
0.0
 41
0.9995394069081316
 10
822.43160614087265
 20
-1491.7848940671286
 30
0.0
 41
1.0
 10
822.46736300313023
 20
-1491.7363791745379
 30
0.0
 41
1.0
 10
822.50311986538793
 20
-1491.6878642819474
 30
0.0
 41
1.0
 10
822.63684653320524
 20
-1491.5064240068216
 30
0.0
 41
0.9994460617143443
 10
822.78234701449446
 20
-1491.3342816091704
 30
0.0
 41
1.0
 10
822.78673519546874
 20
-1491.3290899287886
 30
0.0
 41
1.0
 10
822.79112337644301
 20
-1491.323898248407
 30
0.0
 41
1.0
 10
822.92784749578163
 20
-1491.1621392115217
 30
0.0
 41
0.9994359394934059
 10
823.07512172613383
 20
-1491.0099230103563
 30
0.0
 41
1.0
 10
823.07750508008712
 20
-1491.0074596799832
 30
0.0
 41
1.0
 10
823.0798884340403
 20
-1491.0049963496101
 30
0.0
 41
1.0
 10
823.22239595648546
 20
-1490.8577068091913
 30
0.0
 41
0.9995293688568308
 10
823.37366763746741
 20
-1490.7194335970275
 30
0.0
 41
1.0
 10
823.39296139673002
 20
-1490.7017977113769
 30
0.0
 41
1.0
 10
823.41225515599251
 20
-1490.6841618257265
 30
0.0
 41
1.0
 10
823.52493931844822
 20
-1490.5811603848645
 30
0.0
 41
0.9997087614803056
 10
823.64246220740461
 20
-1490.4837161040655
 30
0.0
 41
1.0
 10
823.66162828058623
 20
-1490.4678245255523
 30
0.0
 41
1.0
 10
823.68079435376796
 20
-1490.4519329470393
 30
0.0
 41
1.0
 10
823.7599850963627
 20
-1490.3862718232649
 30
0.0
 41
0.999959533870022
 10
823.84034436721481
 20
-1490.3220460926127
 30
0.0
 41
1.0
 10
823.92070363808921
 20
-1490.2578203619428
 30
0.0
 41
0.999974941750861
 10
824.0019641724532
 20
-1490.1947388079802
 30
0.0
 41
1.0
 10
824.02295031858921
 20
-1490.1784475206991
 30
0.0
 41
1.0
 10
824.04393646472522
 20
-1490.162156233418
 30
0.0
 41
1.0
 10
824.12850435003429
 20
-1490.0965072235713
 30
0.0
 41
0.9999792037117828
 10
824.21391194981584
 20
-1490.0319544419185
 30
0.0
 41
1.0
 10
824.23473677583138
 20
-1490.0162146195821
 30
0.0
 41
1.0
 10
824.25556160184703
 20
-1490.0004747972457
 30
0.0
 41
1.0
 10
824.29931954966344
 20
-1489.9674016602162
 30
0.0
 41
0.999999337376012
 10
824.34300123572848
 20
-1489.934227864851
 30
0.0
 41
1.0
 10
824.3866829218781
 20
-1489.9010540694223
 30
0.0
 41
0.9999160953818158
 10
824.43120933280818
 20
-1489.8690230042164
 30
0.0
 41
1.0
 10
824.46403122021923
 20
-1489.8454118486375
 30
0.0
 41
1.0
 10
824.49685310763027
 20
-1489.8218006930588
 30
0.0
 41
1.0
 10
824.6070232933904
 20
-1489.74254731669
 30
0.0
 41
0.9980964527232458
 10
824.72611228689277
 20
-1489.677459843833
 30
0.0
 41
1.0
 10
824.76314489381889
 20
-1489.6572198642411
 30
0.0
 41
1.0
 10
824.80017750074501
 20
-1489.636979884649
 30
0.0
 41
1.0
 10
824.979504514018
 20
-1489.5389696339478
 30
0.0
 41
0.9984572810572799
 10
825.1685930803776
 20
-1489.461447372601
 30
0.0
 41
1.0
 10
825.17223934977324
 20
-1489.4599524802632
 30
0.0
 41
1.0
 10
825.17588561916887
 20
-1489.4584575879253
 30
0.0
 41
1.0
 10
825.35768164673618
 20
-1489.3839251112547
 30
0.0
 41
0.9987838528034185
 10
825.54593430529576
 20
-1489.327659471089
 30
0.0
 41
1.0
 10
825.55017225449672
 20
-1489.3263928173981
 30
0.0
 41
1.0
 10
825.55441020369767
 20
-1489.3251261637072
 30
0.0
 41
1.0
 10
825.73418696385738
 20
-1489.2713938309228
 30
0.0
 41
0.99906528162077
 10
825.91793289557086
 20
-1489.2333901513812
 30
0.0
 41
1.0
 10
825.92312129660013
 20
-1489.232317048275
 30
0.0
 41
1.0
 10
825.92830969762952
 20
-1489.2312439451689
 30
0.0
 41
1.0
 10
826.1016788272849
 20
-1489.1953864718394
 30
0.0
 41
0.9992909934270348
 10
826.27725459374506
 20
-1489.1726760393726
 30
0.0
 41
1.0
 10
826.45283036020123
 20
-1489.1499656069063
 30
0.0
 41
0.9994553539448092
 10
826.62952179329261
 20
-1489.1388863027
 30
0.0
 41
1.0
 10
826.6649562010914
 20
-1489.1366644146519
 30
0.0
 41
1.0
 10
826.7003906088903
 20
-1489.1344425266041
 30
0.0
 41
1.0
 10
826.86661637545853
 20
-1489.1240194641925
 30
0.0
 41
0.9990928098293066
 10
827.0331261673598
 20
-1489.1277791054272
 30
0.0
 41
1.0
 10
827.071688002634
 20
-1489.1286497969602
 30
0.0
 41
1.0
 10
827.11024983790821
 20
-1489.1295204884932
 30
0.0
 41
1.0
 10
827.19963595926481
 20
-1489.1315387466618
 30
0.0
 41
0.9998382089206499
 10
827.28889164204861
 20
-1489.1367708731896
 30
0.0
 41
1.0
 10
827.28932154826612
 20
-1489.1367960740918
 30
0.0
 41
1.0
 10
827.28975145448362
 20
-1489.1368212749937
 30
0.0
 41
1.0
 10
827.3781473248323
 20
-1489.1420029997175
 30
0.0
 41
0.9997558016758905
 10
827.4662279020356
 20
-1489.1510855150841
 30
0.0
 41
1.0
 10
827.46670404046154
 20
-1489.1511346125662
 30
0.0
 41
1.0
 10
827.46718017888736
 20
-1489.1511837100484
 30
0.0
 41
1.0
 10
827.5543084792323
 20
-1489.16016803045
 30
0.0
 41
0.9996565144181715
 10
827.64084633257858
 20
-1489.1737053371398
 30
0.0
 41
1.0
 10
827.64131225795791
 20
-1489.1737782228715
 30
0.0
 41
1.0
 10
827.64177818333735
 20
-1489.173851108603
 30
0.0
 41
1.0
 10
827.72738418592246
 20
-1489.187242643829
 30
0.0
 41
0.9995321806867704
 10
827.81201126624853
 20
-1489.205843132258
 30
0.0
 41
1.0
 10
827.81240046081962
 20
-1489.2059286747237
 30
0.0
 41
1.0
 10
827.8127896553907
 20
-1489.2060142171895
 30
0.0
 41
1.0
 10
827.89663834657608
 20
-1489.2244436206872
 30
0.0
 41
0.9993819199219647
 10
827.97898488077271
 20
-1489.2487190039478
 30
0.0
 41
1.0
 10
827.97922331427026
 20
-1489.2487892930571
 30
0.0
 41
1.0
 10
827.97946174776769
 20
-1489.2488595821662
 30
0.0
 41
1.0
 10
828.06133141496832
 20
-1489.2729943872084
 30
0.0
 41
0.9992088568505806
 10
828.14102393395717
 20
-1489.3035596230029
 30
0.0
 41
1.0
 10
828.22070492483624
 20
-1489.3341192237363
 30
0.0
 41
0.9990226101773436
 10
828.29737559474336
 20
-1489.3715966553509
 30
0.0
 41
1.0
 10
828.37403473654103
 20
-1489.409068451904
 30
0.0
 41
0.9988424273972602
 10
828.44673836375262
 20
-1489.4537332271564
 30
0.0
 41
1.0
 10
828.44700607213258
 20
-1489.453897691229
 30
0.0
 41
1.0
 10
828.44727378051243
 20
-1489.4540621553015
 30
0.0
 41
1.0
 10
828.52051282448349
 20
-1489.499055858699
 30
0.0
 41
0.998692884449185
 10
828.58877569119386
 20
-1489.5512915929789
 30
0.0
 41
1.0
 10
828.58935698341622
 20
-1489.5517364062066
 30
0.0
 41
1.0
 10
828.58993827563859
 20
-1489.5521812194343
 30
0.0
 41
1.0
 10
828.65936372679448
 20
-1489.6053065801702
 30
0.0
 41
0.9986007262278968
 10
828.72278989656081
 20
-1489.6654673498633
 30
0.0
 41
1.0
 10
828.72368431201789
 20
-1489.6663157176984
 30
0.0
 41
1.0
 10
828.72457872747509
 20
-1489.6671640855334
 30
0.0
 41
1.0
 10
828.78979372815661
 20
-1489.7290215908974
 30
0.0
 41
0.9985581491380939
 10
828.84800133985868
 20
-1489.7975140811698
 30
0.0
 41
1.0
 10
828.85725979345409
 20
-1489.8084084388711
 30
0.0
 41
1.0
 10
828.8665182470495
 20
-1489.8193027965722
 30
0.0
 41
1.0
 10
828.94324276594273
 20
-1489.9095840022471
 30
0.0
 41
0.9970460233520112
 10
829.00523466710206
 20
-1490.0105510864289
 30
0.0
 41
1.0
 10
829.01970403218149
 20
-1490.0341175455101
 30
0.0
 41
1.0
 10
829.03417339726093
 20
-1490.057684004591
 30
0.0
 41
1.0
 10
829.07391009727337
 20
-1490.1224037286229
 30
0.0
 41
0.9988468816636309
 10
829.10725646802507
 20
-1490.1906361810509
 30
0.0
 41
1.0
 10
829.11429249051685
 20
-1490.2050331021887
 30
0.0
 41
1.0
 10
829.12132851300862
 20
-1490.2194300233268
 30
0.0
 41
1.0
 10
829.14060283877666
 20
-1490.2588686334786
 30
0.0
 41
0.9998431189999151
 10
829.15846816627163
 20
-1490.2989651879193
 30
0.0
 41
1.0
 10
829.17633349378684
 20
-1490.3390617424052
 30
0.0
 41
0.9999989989898511
 10
829.19431221720322
 20
-1490.3791075799766
 30
0.0
 41
1.0
 10
829.20048452879018
 20
-1490.3928557967729
 30
0.0
 41
1.0
 10
829.20665684037704
 20
-1490.406604013569
 30
0.0
 41
1.0
 10
829.23698018698781
 20
-1490.474146284779
 30
0.0
 41
0.9998790356321295
 10
829.26518806712386
 20
-1490.5425990367116
 30
0.0
 41
1.0
 10
829.27202324840982
 20
-1490.5591861381429
 30
0.0
 41
1.0
 10
829.27885842969567
 20
-1490.5757732395741
 30
0.0
 41
1.0
 10
829.30241609207508
 20
-1490.6329411944573
 30
0.0
 41
0.9998227574561515
 10
829.32380484046371
 20
-1490.6909555027332
 30
0.0
 41
1.0
 10
829.34519358885279
 20
-1490.7489698110094
 30
0.0
 41
0.9996797971040532
 10
829.36361987381133
 20
-1490.807991930126
 30
0.0
 41
1.0
 10
829.3675236765373
 20
-1490.8204963882963
 30
0.0
 41
1.0
 10
829.37142747926328
 20
-1490.8330008464666
 30
0.0
 41
1.0
 10
829.39766136967353
 20
-1490.9170318819229
 30
0.0
 41
0.9979274938735275
 10
829.4128858931532
 20
-1491.0037362405849
 30
0.0
 41
1.0
 10
829.41510958041431
 20
-1491.0164002414058
 30
0.0
 41
1.0
 10
829.41733326767542
 20
-1491.0290642422267
 30
0.0
 41
1.0
 10
829.42826320737379
 20
-1491.0913107495178
 30
0.0
 41
0.9994985982137766
 10
829.43523137255033
 20
-1491.1541242506573
 30
0.0
 41
1.0
 10
829.44219953772711
 20
-1491.2169377517985
 30
0.0
 41
0.9996372611201316
 10
829.44577540349496
 20
-1491.2800353304806
 30
0.0
 41
1.0
 10
829.44594398098434
 20
-1491.2830099475632
 30
0.0
 41
1.0
 10
829.44611255847371
 20
-1491.285984564646
 30
0.0
 41
1.0
 10
829.45002557921998
 20
-1491.3550313774924
 30
0.0
 41
0.9997730630735757
 10
829.45099389270808
 20
-1491.424182201526
 30
0.0
 41
1.0
 10
829.45105099912621
 20
-1491.428260380668
 30
0.0
 41
1.0
 10
829.45110810554434
 20
-1491.43233855981
 30
0.0
 41
1.0
 10
829.45219063186858
 20
-1491.5096457421316
 30
0.0
 41
0.9998772614071625
 10
829.45085054513675
 20
-1491.5869488886992
 30
0.0
 41
1.0
 10
829.45076128193807
 20
-1491.5920980525307
 30
0.0
 41
1.0
 10
829.4506720187394
 20
-1491.5972472163621
 30
0.0
 41
1.0
 10
829.44915340561022
 20
-1491.6848486905967
 30
0.0
 41
0.9999415567324848
 10
829.44574109536381
 20
-1491.7723968522823
 30
0.0
 41
1.0
 10
829.44549977468864
 20
-1491.7785883120141
 30
0.0
 41
1.0
 10
829.44525845401358
 20
-1491.7847797717461
 30
0.0
 41
1.0
 10
829.44136350241718
 20
-1491.8847108528958
 30
0.0
 41
0.9999716810421736
 10
829.43596491929941
 20
-1491.9845719911073
 30
0.0
 41
1.0
 10
829.4327521205106
 20
-1492.0440012407655
 30
0.0
 41
1.0
 10
829.42953932172179
 20
-1492.1034304904238
 30
0.0
 41
1.0
 10
829.42146541256943
 20
-1492.2527788917027
 30
0.0
 41
0.9999819129890801
 10
829.41159562095163
 20
-1492.4020193694316
 30
0.0
 41
1.0
 10
829.40172582933508
 20
-1492.551259847143
 30
0.0
 41
1.0
 10
829.39928650877118
 20
-1492.5884528929923
 30
0.0
 41
1.0
 10
829.42198474258748
 20
-1492.5497118956876
 30
0.0
 41
0.9999982128108906
 10
829.44482930136348
 20
-1492.5110570016948
 30
0.0
 41
1.0
 10
829.4717388612454
 20
-1492.4655237876445
 30
0.0
 41
1.0
 10
829.49864842112731
 20
-1492.4199905735943
 30
0.0
 41
1.0
 10
829.57531209965396
 20
-1492.2902692515233
 30
0.0
 41
0.9998609190057675
 10
829.65625941251767
 20
-1492.1631768695911
 30
0.0
 41
1.0
 10
829.68590773400024
 20
-1492.1166271366324
 30
0.0
 41
1.0
 10
829.71555605548292
 20
-1492.0700774036738
 30
0.0
 41
1.0
 10
829.7978282757183
 20
-1491.9409048336815
 30
0.0
 41
0.9999067609731394
 10
829.88359728517958
 20
-1491.8140271442444
 30
0.0
 41
1.0
 10
829.8860019883798
 20
-1491.8104698781906
 30
0.0
 41
1.0
 10
829.88840669157992
 20
-1491.8069126121368
 30
0.0
 41
1.0
 10
829.96936629464221
 20
-1491.687149454805
 30
0.0
 41
0.9998784952149403
 10
830.05401990432495
 20
-1491.5699682380946
 30
0.0
 41
1.0
 10
830.13867351400563
 20
-1491.4527870213865
 30
0.0
 41
0.9998532968283197
 10
830.22729113483069
 20
-1491.338574112913
 30
0.0
 41
1.0
 10
830.24725292381981
 20
-1491.3128467918955
 30
0.0
 41
1.0
 10
830.26721471280882
 20
-1491.287119470878
 30
0.0
 41
1.0
 10
830.3856987625694
 20
-1491.1344138599072
 30
0.0
 41
0.9991551975795173
 10
830.51632321219358
 20
-1490.991954297823
 30
0.0
 41
1.0
 10
830.51983282817037
 20
-1490.988126696202
 30
0.0
 41
1.0
 10
830.52334244414703
 20
-1490.9842990945808
 30
0.0
 41
1.0
 10
830.64694766181492
 20
-1490.8494947357415
 30
0.0
 41
0.999741814418176
 10
830.7765498015176
 20
-1490.720445325127
 30
0.0
 41
1.0
 10
830.90615194121767
 20
-1490.5913959145153
 30
0.0
 41
0.998923820463328
 10
831.04715448946638
 20
-1490.474910952478
 30
0.0
 41
1.0
 10
831.09240216760611
 20
-1490.437530960869
 30
0.0
 41
1.0
 10
831.13764984574584
 20
-1490.40015096926
 30
0.0
 41
1.0
 10
831.27788990296915
 20
-1490.2842959159677
 30
0.0
 41
0.9990825084096853
 10
831.42752983557375
 20
-1490.1808669181341
 30
0.0
 41
1.0
 10
831.43757519963287
 20
-1490.1739237050533
 30
0.0
 41
1.0
 10
831.44762056369188
 20
-1490.1669804919723
 30
0.0
 41
1.0
 10
831.57716976817994
 20
-1490.0774379202999
 30
0.0
 41
0.9998164899824873
 10
831.71005397155398
 20
-1489.9929236787848
 30
0.0
 41
1.0
 10
831.7218995320776
 20
-1489.9853899122604
 30
0.0
 41
1.0
 10
831.73374509260123
 20
-1489.9778561457363
 30
0.0
 41
1.0
 10
831.84293817492915
 20
-1489.9084094372693
 30
0.0
 41
0.9997473449131671
 10
831.95514213217962
 20
-1489.8439404794528
 30
0.0
 41
1.0
 10
832.06734608943702
 20
-1489.7794715216328
 30
0.0
 41
0.9999327861148175
 10
832.18101470020997
 20
-1489.7176215299462
 30
0.0
 41
1.0
 10
832.18156670276198
 20
-1489.7173211712718
 30
0.0
 41
1.0
 10
832.182118705314
 20
-1489.7170208125974
 30
0.0
 41
1.0
 10
832.29689132119722
 20
-1489.6545701035584
 30
0.0
 41
0.9996956420484343
 10
832.4146046470338
 20
-1489.5978566365852
 30
0.0
 41
1.0
 10
832.44504505192776
 20
-1489.5831906598546
 30
0.0
 41
1.0
 10
832.47548545682162
 20
-1489.5685246831242
 30
0.0
 41
1.0
 10
832.57846256356595
 20
-1489.5189110246806
 30
0.0
 41
0.9998070570176765
 10
832.68330895250926
 20
-1489.4733804377784
 30
0.0
 41
1.0
 10
832.78815534145053
 20
-1489.4278498508775
 30
0.0
 41
0.9997827436147144
 10
832.8948082780604
 20
-1489.3867286795655
 30
0.0
 41
1.0
 10
832.91403112769171
 20
-1489.3793171059333
 30
0.0
 41
1.0
 10
832.93325397732292
 20
-1489.3719055323008
 30
0.0
 41
1.0
 10
833.07835261319531
 20
-1489.3159612137242
 30
0.0
 41
0.9988031841976359
 10
833.22822297579978
 20
-1489.2744611495566
 30
0.0
 41
1.0
 10
833.2531402241641
 20
-1489.2675614037494
 30
0.0
 41
1.0
 10
833.27805747252853
 20
-1489.2606616579424
 30
0.0
 41
1.0
 10
833.44532749817472
 20
-1489.2143435155356
 30
0.0
 41
0.9984748040549814
 10
833.61668440682286
 20
-1489.186749283271
 30
0.0
 41
1.0
 10
833.62142354307264
 20
-1489.1859861227574
 30
0.0
 41
1.0
 10
833.62616267932242
 20
-1489.1852229622439
 30
0.0
 41
1.0
 10
833.78804131547247
 20
-1489.1591550510061
 30
0.0
 41
0.9984436495479954
 10
833.95181605919652
 20
-1489.1512770971874
 30
0.0
 41
1.0
 10
833.97351326732826
 20
-1489.1502334099878
 30
0.0
 41
1.0
 10
833.99521047546
 20
-1489.1491897227882
 30
0.0
 41
1.0
 10
834.11559080292159
 20
-1489.1433991433687
 30
0.0
 41
0.9987954789335185
 10
834.2359590478311
 20
-1489.149435671111
 30
0.0
 41
1.0
 10
834.25592384032643
 20
-1489.1504369154495
 30
0.0
 41
1.0
 10
834.27588863282176
 20
-1489.1514381597881
 30
0.0
 41
1.0
 10
834.35632729274175
 20
-1489.1554721988532
 30
0.0
 41
0.9997941595878729
 10
834.43653607083536
 20
-1489.1627662647743
 30
0.0
 41
1.0
 10
834.51674484892658
 20
-1489.1700603306949
 30
0.0
 41
0.9998589466235631
 10
834.59666339577791
 20
-1489.1800441851447
 30
0.0
 41
1.0
 10
834.62906959758959
 20
-1489.1840925420643
 30
0.0
 41
1.0
 10
834.66147579940127
 20
-1489.1881408989839
 30
0.0
 41
1.0
 10
834.80620674987438
 20
-1489.2062214672728
 30
0.0
 41
0.9993495063249482
 10
834.94925799364171
 20
-1489.2346871770146
 30
0.0
 41
1.0
 10
834.98219169078834
 20
-1489.2412406402282
 30
0.0
 41
1.0
 10
835.01512538793486
 20
-1489.2477941034419
 30
0.0
 41
1.0
 10
835.12441921114282
 20
-1489.2695424375779
 30
0.0
 41
0.9996788715560873
 10
835.23247078310339
 20
-1489.2968002369421
 30
0.0
 41
1.0
 10
835.23453378564295
 20
-1489.2973206635152
 30
0.0
 41
1.0
 10
835.23659678818262
 20
-1489.2978410900882
 30
0.0
 41
1.0
 10
835.34052235506056
 20
-1489.3240580363054
 30
0.0
 41
0.9995480654492895
 10
835.44268459028922
 20
-1489.3564729929294
 30
0.0
 41
1.0
 10
835.44437423241857
 20
-1489.3570090978433
 30
0.0
 41
1.0
 10
835.4460638745478
 20
-1489.3575452027574
 30
0.0
 41
1.0
 10
835.54484682551868
 20
-1489.3888879495539
 30
0.0
 41
0.9993867959456523
 10
835.64119398396122
 20
-1489.4270673188437
 30
0.0
 41
1.0
 10
835.64243693304593
 20
-1489.4275598607401
 30
0.0
 41
1.0
 10
835.64367988213075
 20
-1489.4280524026362
 30
0.0
 41
1.0
 10
835.73754114240342
 20
-1489.4652466881332
 30
0.0
 41
0.99920502565216
 10
835.82814081743709
 20
-1489.5098005873722
 30
0.0
 41
1.0
 10
835.82887550014959
 20
-1489.510161879833
 30
0.0
 41
1.0
 10
835.8296101828621
 20
-1489.5105231722939
 30
0.0
 41
1.0
 10
835.91874049247019
 20
-1489.5543544866107
 30
0.0
 41
0.9990222350741718
 10
836.00365055386419
 20
-1489.6058877543092
 30
0.0
 41
1.0
 10
836.00383443914689
 20
-1489.6059993572139
 30
0.0
 41
1.0
 10
836.00401832442947
 20
-1489.6061109601187
 30
0.0
 41
1.0
 10
836.08856061525728
 20
-1489.6574210220072
 30
0.0
 41
0.9988642743805219
 10
836.16783514987674
 20
-1489.7165452095328
 30
0.0
 41
1.0
 10
836.24710968449529
 20
-1489.7756693970575
 30
0.0
 41
0.998768123331051
 10
836.32013346877204
 20
-1489.8423600884589
 30
0.0
 41
1.0
 10
836.32046239673787
 20
-1489.8426604896731
 30
0.0
 41
1.0
 10
836.32079132470358
 20
-1489.8429608908873
 30
0.0
 41
1.0
 10
836.39447296491164
 20
-1489.9102523847168
 30
0.0
 41
0.9987496570898609
 10
836.46106677023931
 20
-1489.9845651988039
 30
0.0
 41
1.0
 10
836.46183893999932
 20
-1489.9854268721615
 30
0.0
 41
1.0
 10
836.46261110975934
 20
-1489.9862885455188
 30
0.0
 41
1.0
 10
836.53074925460839
 20
-1490.0623247063227
 30
0.0
 41
0.9988147669827097
 10
836.59117150883333
 20
-1490.1446257131649
 30
0.0
 41
1.0
 10
836.59229083491061
 20
-1490.1461503445169
 30
0.0
 41
1.0
 10
836.5934101609879
 20
-1490.1476749758688
 30
0.0
 41
1.0
 10
836.65607106736729
 20
-1490.2330252454146
 30
0.0
 41
0.9989452636215943
 10
836.71063798032856
 20
-1490.3237639345723
 30
0.0
 41
1.0
 10
836.71198670641479
 20
-1490.3260067155993
 30
0.0
 41
1.0
 10
836.71333543250103
 20
-1490.3282494966265
 30
0.0
 41
1.0
 10
836.77059979763362
 20
-1490.4234737478366
 30
0.0
 41
0.9991046436070993
 10
836.81960901095522
 20
-1490.5231981808618
 30
0.0
 41
1.0
 10
836.8210728725453
 20
-1490.5261768609344
 30
0.0
 41
1.0
 10
836.82253673413538
 20
-1490.5291555410072
 30
0.0
 41
1.0
 10
836.87447367063726
 20
-1490.6348373341777
 30
0.0
 41
0.9992763831100657
 10
836.91822679919233
 20
-1490.7441613961337
 30
0.0
 41
1.0
 10
836.91970606885559
 20
-1490.7478575836672
 30
0.0
 41
1.0
 10
836.92118533851885
 20
-1490.7515537712006
 30
0.0
 41
1.0
 10
836.96789700639977
 20
-1490.8682702082215
 30
0.0
 41
0.9994163472883252
 10
837.00653003758964
 20
-1490.9879037966859
 30
0.0
 41
1.0
 10
837.0077681898365
 20
-1490.991737940469
 30
0.0
 41
1.0
 10
837.00900634208335
 20
-1490.995572084252
 30
0.0
 41
1.0
 10
837.04888990310155
 20
-1491.1190781457333
 30
0.0
 41
0.999726805589057
 10
837.08295795901313
 20
-1491.2443131776824
 30
0.0
 41
1.0
 10
837.08388813928264
 20
-1491.2477325437908
 30
0.0
 41
1.0
 10
837.08481831955203
 20
-1491.2511519098991
 30
0.0
 41
1.0
 10
837.11702601492448
 20
-1491.3695482096298
 30
0.0
 41
0.9996701319000242
 10
837.14311163169555
 20
-1491.4894421628965
 30
0.0
 41
1.0
 10
837.16919724846605
 20
-1491.6093361161609
 30
0.0
 41
0.9995785451108921
 10
837.18828082580603
 20
-1491.7305418771934
 30
0.0
 41
1.0
 10
837.19250060797981
 20
-1491.7573430319583
 30
0.0
 41
1.0
 10
837.19672039015347
 20
-1491.7841441867231
 30
0.0
 41
1.0
 10
837.22329536609175
 20
-1491.9529301604257
 30
0.0
 41
0.9979925101217083
 10
837.22832095201818
 20
-1492.1237214885164
 30
0.0
 41
1.0
 10
837.22914576444282
 20
-1492.151752211993
 30
0.0
 41
1.0
 10
837.22997057686734
 20
-1492.1797829354696
 30
0.0
 41
1.0
 10
837.23334653794484
 20
-1492.2945128166009
 30
0.0
 41
0.9995314902262654
 10
837.22969634580602
 20
-1492.4092343003599
 30
0.0
 41
1.0
 10
837.22604615366777
 20
-1492.5239557841087
 30
0.0
 41
0.9996245486944393
 10
837.21611705853718
 20
-1492.6383050552304
 30
0.0
 41
1.0
 10
837.21595401054265
 20
-1492.6401828113685
 30
0.0
 41
1.0
 10
837.21579096254823
 20
-1492.6420605675064
 30
0.0
 41
1.0
 10
837.20553577142857
 20
-1492.7601653509025
 30
0.0
 41
0.9997286095001012
 10
837.18979044785772
 20
-1492.8776642597927
 30
0.0
 41
1.0
 10
837.18939695520726
 20
-1492.8806006844961
 30
0.0
 41
1.0
 10
837.18900346255668
 20
-1492.8835371091993
 30
0.0
 41
1.0
 10
837.17247115368468
 20
-1493.006908867497
 30
0.0
 41
0.9998265533968705
 10
837.15135569495112
 20
-1493.1295793422905
 30
0.0
 41
1.0
 10
837.15067915281429
 20
-1493.1335097207959
 30
0.0
 41
1.0
 10
837.15000261067757
 20
-1493.1374400993013
 30
0.0
 41
1.0
 10
837.12753406767092
 20
-1493.2679713311038
 30
0.0
 41
0.9999022530853242
 10
837.10142460306304
 20
-1493.3978232997317
 30
0.0
 41
1.0
 10
837.10044596189653
 20
-1493.4026904421248
 30
0.0
 41
1.0
 10
837.09946732073001
 20
-1493.4075575845177
 30
0.0
 41
1.0
 10
837.07140057378774
 20
-1493.5471438379382
 30
0.0
 41
0.9999524761937911
 10
837.04061760495154
 20
-1493.6861563311088
 30
0.0
 41
1.0
 10
837.03934149777751
 20
-1493.6919190904046
 30
0.0
 41
1.0
 10
837.03806539060361
 20
-1493.6976818497001
 30
0.0
 41
1.0
 10
837.00473020741879
 20
-1493.8482198614656
 30
0.0
 41
0.9999813588730527
 10
836.96955920662742
 20
-1493.9983395741024
 30
0.0
 41
1.0
 10
836.96800528116819
 20
-1494.0049721645362
 30
0.0
 41
1.0
 10
836.96645135570907
 20
-1494.01160475497
 30
0.0
 41
1.0
 10
836.92817250399844
 20
-1494.1749896484771
 30
0.0
 41
0.9999955237629467
 10
836.88891662600747
 20
-1494.3381425521279
 30
0.0
 41
1.0
 10
836.87663499037922
 20
-1494.3891867426255
 30
0.0
 41
1.0
 10
836.86435335475085
 20
-1494.4402309331233
 30
0.0
 41
1.0
 10
836.8005342055169
 20
-1494.7054722177122
 30
0.0
 41
0.9999993604377968
 10
836.73611525832769
 20
-1494.9705684684841
 30
0.0
 41
1.0
 10
836.73139642278363
 20
-1494.9899873765123
 30
0.0
 41
1.0
 10
836.72667758723958
 20
-1495.0094062845405
 30
0.0
 41
1.0
 10
836.65282096897977
 20
-1495.3133403512975
 30
0.0
 41
0.9999659914733151
 10
836.57396137309513
 20
-1495.616014897854
 30
0.0
 41
1.0
 10
836.56900868416392
 20
-1495.6350240350389
 30
0.0
 41
1.0
 10
836.56405599523259
 20
-1495.6540331722238
 30
0.0
 41
1.0
 10
836.47529102148428
 20
-1495.9947259931535
 30
0.0
 41
0.999944197602511
 10
836.37934798851995
 20
-1496.3334674184553
 30
0.0
 41
1.0
 10
836.36264747009636
 20
-1496.3924311309763
 30
0.0
 41
1.0
 10
836.34594695167266
 20
-1496.4513948434974
 30
0.0
 41
1.0
 10
836.21660288185853
 20
-1496.9080636938495
 30
0.0
 41
0.9999625120740644
 10
836.07937011453225
 20
-1497.3624242278554
 30
0.0
 41
1.0
 10
836.04358017144864
 20
-1497.4809202544848
 30
0.0
 41
1.0
 10
836.00779022836491
 20
-1497.5994162811141
 30
0.0
 41
1.0
 10
835.93327002432613
 20
-1497.8461433592083
 30
0.0
 41
0.9999793386313898
 10
835.85558400118998
 20
-1498.0918919984399
 30
0.0
 41
1.0
 10
835.77789797805247
 20
-1498.337640637676
 30
0.0
 41
1.0
 10
835.76711841918177
 20
-1498.3716585420507
 30
0.0
 41
1.0
 10
833.91674536591267
 20
-1504.2587304645181
 30
0.0
 41
1.0
 10
832.06637231264347
 20
-1510.1458023869857
 30
0.0
 41
1.0
 10
831.10511562261991
 20
-1510.1458023869857
 30
0.0
 41
1.0
 10
830.14385893259634
 20
-1510.1458023869857
 30
0.0
 41
1.0
 10
831.76280371127473
 20
-1504.9977738851962
 30
0.0
 41
1.0
 10
833.38174848995322
 20
-1499.8497453834068
 30
0.0
 41
1.0
 10
833.42691431312755
 20
-1499.7057141611369
 30
0.0
 41
1.0
 10
833.47208013630177
 20
-1499.5616829388671
 30
0.0
 41
1.0
 10
833.64238455366149
 20
-1499.0185919097144
 30
0.0
 41
0.999991165790482
 10
833.80811736534474
 20
-1498.4740883783409
 30
0.0
 41
1.0
 10
833.83781330884608
 20
-1498.3765244382873
 30
0.0
 41
1.0
 10
833.86750925234742
 20
-1498.2789604982338
 30
0.0
 41
1.0
 10
833.97385017702481
 20
-1497.9295848469778
 30
0.0
 41
0.9999952428152602
 10
834.07803376635002
 20
-1497.5795598226277
 30
0.0
 41
1.0
 10
834.08309323668243
 20
-1497.5625615483527
 30
0.0
 41
1.0
 10
834.08815270701484
 20
-1497.5455632740777
 30
0.0
 41
1.0
 10
834.18221735567613
 20
-1497.229534798274
 30
0.0
 41
0.9999931687552949
 10
834.27394319354858
 20
-1496.9128195850076
 30
0.0
 41
1.0
 10
834.27887845800819
 20
-1496.8957788757361
 30
0.0
 41
1.0
 10
834.28381372246781
 20
-1496.8787381664649
 30
0.0
 41
1.0
 10
834.36566903141897
 20
-1496.5961043717484
 30
0.0
 41
0.9999893840789692
 10
834.44491625787907
 20
-1496.3127282424905
 30
0.0
 41
1.0
 10
834.52416348433417
 20
-1496.0293521132503
 30
0.0
 41
0.9999833980057653
 10
834.60013972507659
 20
-1495.7450815302195
 30
0.0
 41
1.0
 10
834.60914366179838
 20
-1495.7113926517427
 30
0.0
 41
1.0
 10
834.61814759852018
 20
-1495.6777037732661
 30
0.0
 41
1.0
 10
834.68711214738903
 20
-1495.4196679409604
 30
0.0
 41
0.9999233658066771
 10
834.74966711860941
 20
-1495.1600037822375
 30
0.0
 41
1.0
 10
834.81222208982967
 20
-1494.900339623515
 30
0.0
 41
1.0
 10
834.85170550868725
 20
-1494.7365329590889
 30
0.0
 41
1.0
 10
834.85668411266397
 20
-1494.715877997221
 30
0.0
 41
1.0
 10
834.86166271664058
 20
-1494.6952230353531
 30
0.0
 41
1.0
 10
834.89118892754504
 20
-1494.5727262946625
 30
0.0
 41
0.9999868670874814
 10
834.919458011541
 20
-1494.4499333490173
 30
0.0
 41
1.0
 10
834.92335549870131
 20
-1494.4330037615891
 30
0.0
 41
1.0
 10
834.92725298586151
 20
-1494.4160741741609
 30
0.0
 41
1.0
 10
834.94772709553911
 20
-1494.3271404033635
 30
0.0
 41
0.9999778173357929
 10
834.96701469365257
 20
-1494.2379417861414
 30
0.0
 41
1.0
 10
834.98630229176808
 20
-1494.1487431689104
 30
0.0
 41
0.9999602692860613
 10
835.00399665039765
 20
-1494.0592148804906
 30
0.0
 41
1.0
 10
835.00720048247581
 20
-1494.0430044256018
 30
0.0
 41
1.0
 10
835.01040431455408
 20
-1494.0267939707132
 30
0.0
 41
1.0
 10
835.03450633734008
 20
-1493.9048447725154
 30
0.0
 41
0.9995617985320432
 10
835.05134968455877
 20
-1493.7816830248096
 30
0.0
 41
1.0
 10
835.0538141744654
 20
-1493.763662207441
 30
0.0
 41
1.0
 10
835.05627866437203
 20
-1493.7456413900727
 30
0.0
 41
1.0
 10
835.07656192541992
 20
-1493.5973263403748
 30
0.0
 41
0.9991121410639612
 10
835.08428727900787
 20
-1493.447830241571
 30
0.0
 41
1.0
 10
835.08520606903244
 20
-1493.4300504049945
 30
0.0
 41
1.0
 10
835.08612485905701
 20
-1493.4122705684181
 30
0.0
 41
1.0
 10
835.09201263259615
 20
-1493.2983341427644
 30
0.0
 41
0.998979249490541
 10
835.08759354047879
 20
-1493.1843313068662
 30
0.0
 41
1.0
 10
835.08694556861019
 20
-1493.1676150609401
 30
0.0
 41
1.0
 10
835.08629759674159
 20
-1493.150898815014
 30
0.0
 41
1.0
 10
835.08317444836143
 20
-1493.0703284709689
 30
0.0
 41
0.99978202953938
 10
835.07669045098578
 20
-1492.9899587492239
 30
0.0
 41
1.0
 10
835.07020645361024
 20
-1492.9095890274809
 30
0.0
 41
0.9998335105973482
 10
835.06079425809867
 20
-1492.8295094110322
 30
0.0
 41
1.0
 10
835.05919933342216
 20
-1492.8159396805479
 30
0.0
 41
1.0
 10
835.05760440874565
 20
-1492.8023699500636
 30
0.0
 41
1.0
 10
835.04500236388196
 20
-1492.6951508726527
 30
0.0
 41
0.9996876457879166
 10
835.02705845108392
 20
-1492.5886954449377
 30
0.0
 41
1.0
 10
835.02482678793785
 20
-1492.5754557096909
 30
0.0
 41
1.0
 10
835.02259512479168
 20
-1492.5622159744441
 30
0.0
 41
1.0
 10
835.00879930337112
 20
-1492.4803698304875
 30
0.0
 41
0.9995547496493928
 10
834.99014598147869
 20
-1492.3994923332984
 30
0.0
 41
1.0
 10
834.98977202460742
 20
-1492.3978709225933
 30
0.0
 41
1.0
 10
834.98939806773626
 20
-1492.3962495118881
 30
0.0
 41
1.0
 10
834.97149265958569
 20
-1492.318614836106
 30
0.0
 41
0.9994899427175494
 10
834.94866775090668
 20
-1492.2422815532727
 30
0.0
 41
1.0
 10
834.94820922416579
 20
-1492.2407481034834
 30
0.0
 41
1.0
 10
834.94775069742479
 20
-1492.2392146536943
 30
0.0
 41
1.0
 10
834.92584284222767
 20
-1492.1659482704395
 30
0.0
 41
0.9993784877591323
 10
834.8988272071208
 20
-1492.0944075652794
 30
0.0
 41
1.0
 10
834.89829551614389
 20
-1492.0929995825588
 30
0.0
 41
1.0
 10
834.89776382516698
 20
-1492.0915915998382
 30
0.0
 41
1.0
 10
834.87181157201405
 20
-1492.0228668601198
 30
0.0
 41
0.9992430832254241
 10
834.84059503685489
 20
-1491.9563677080521
 30
0.0
 41
1.0
 10
834.84001292079847
 20
-1491.9551276529351
 30
0.0
 41
1.0
 10
834.83943080474205
 20
-1491.9538875978183
 30
0.0
 41
1.0
 10
834.80937850169573
 20
-1491.8898685559841
 30
0.0
 41
0.999078963279788
 10
834.7739478749188
 20
-1491.8286619442342
 30
0.0
 41
1.0
 10
834.77335216873723
 20
-1491.8276328583756
 30
0.0
 41
1.0
 10
834.77275646255566
 20
-1491.8266037725173
 30
0.0
 41
1.0
 10
834.7385172481421
 20
-1491.7674553324848
 30
0.0
 41
0.9988874801121541
 10
834.69885797211009
 20
-1491.7117956200668
 30
0.0
 41
1.0
 10
834.69830244604611
 20
-1491.7110159683925
 30
0.0
 41
1.0
 10
834.69774691998214
 20
-1491.710236316718
 30
0.0
 41
1.0
 10
834.65919869607808
 20
-1491.6561359076491
 30
0.0
 41
0.9986762060693497
 10
834.6152962248018
 20
-1491.6062821932096
 30
0.0
 41
1.0
 10
834.61485226446996
 20
-1491.6057780513934
 30
0.0
 41
1.0
 10
834.61440830413812
 20
-1491.6052739095771
 30
0.0
 41
1.0
 10
834.57139375352574
 20
-1491.5564284787708
 30
0.0
 41
0.9984621642489073
 10
834.5232361967478
 20
-1491.5126451782994
 30
0.0
 41
1.0
 10
834.52298956223103
 20
-1491.5124209461358
 30
0.0
 41
1.0
 10
834.52274292771438
 20
-1491.5121967139721
 30
0.0
 41
1.0
 10
834.47507863997043
 20
-1491.4688618778284
 30
0.0
 41
0.9982724693850441
 10
834.42266000812856
 20
-1491.4314175273107
 30
0.0
 41
1.0
 10
834.37024137628623
 20
-1491.3939731767923
 30
0.0
 41
0.9981399180157164
 10
834.31365531289282
 20
-1491.3631866573489
 30
0.0
 41
1.0
 10
834.3136096508149
 20
-1491.3631618141922
 30
0.0
 41
1.0
 10
834.31356398873686
 20
-1491.3631369710351
 30
0.0
 41
1.0
 10
834.25688660118567
 20
-1491.3323007652768
 30
0.0
 41
0.998092708683561
 10
834.19684125011827
 20
-1491.3086839564241
 30
0.0
 41
1.0
 10
834.19640108040755
 20
-1491.3085108305495
 30
0.0
 41
1.0
 10
834.19596091069684
 20
-1491.3083377046748
 30
0.0
 41
1.0
 10
834.13503522020619
 20
-1491.2843746440719
 30
0.0
 41
0.9981411356561195
 10
834.07164669880501
 20
-1491.2680020025662
 30
0.0
 41
1.0
 10
834.07076458210486
 20
-1491.2677741603611
 30
0.0
 41
1.0
 10
834.06988246540482
 20
-1491.2675463181558
 30
0.0
 41
1.0
 10
834.0047297106039
 20
-1491.2507179922397
 30
0.0
 41
0.9983031812935355
 10
833.93806228161009
 20
-1491.2415786310635
 30
0.0
 41
1.0
 10
833.92919125620392
 20
-1491.2403625123918
 30
0.0
 41
1.0
 10
833.92032023079764
 20
-1491.2391463937201
 30
0.0
 41
1.0
 10
833.86597058829477
 20
-1491.2316956637292
 30
0.0
 41
0.9983887708263134
 10
833.81112673900304
 20
-1491.230450990096
 30
0.0
 41
1.0
 10
833.80306333377951
 20
-1491.2302679922209
 30
0.0
 41
1.0
 10
833.79499992855597
 20
-1491.230084994346
 30
0.0
 41
1.0
 10
833.75628288970427
 20
-1491.2292063164625
 30
0.0
 41
0.9998869563078696
 10
833.71755693650755
 20
-1491.2294921858224
 30
0.0
 41
1.0
 10
833.67883098334073
 20
-1491.2297780551819
 30
0.0
 41
0.9999972320120916
 10
833.64010680416561
 20
-1491.2302461547101
 30
0.0
 41
1.0
 10
833.6207537875498
 20
-1491.2304800948
 30
0.0
 41
1.0
 10
833.60140077093411
 20
-1491.2307140348898
 30
0.0
 41
1.0
 10
833.52397055856034
 20
-1491.2316500145978
 30
0.0
 41
0.9997304945087364
 10
833.44666725231968
 20
-1491.2361791083842
 30
0.0
 41
1.0
 10
833.43761761061842
 20
-1491.2367093143739
 30
0.0
 41
1.0
 10
833.42856796891726
 20
-1491.2372395203638
 30
0.0
 41
1.0
 10
833.33316537927442
 20
-1491.2428290261294
 30
0.0
 41
0.9997888306416356
 10
833.23807304343529
 20
-1491.2523339906179
 30
0.0
 41
1.0
 10
833.22935198185917
 20
-1491.2532057052504
 30
0.0
 41
1.0
 10
833.22063092028304
 20
-1491.2540774198828
 30
0.0
 41
1.0
 10
833.10809646129496
 20
-1491.2653258136363
 30
0.0
 41
0.9984170238191263
 10
832.99753731394378
 20
-1491.2891418955719
 30
0.0
 41
1.0
 10
832.96115618295767
 20
-1491.2969789313779
 30
0.0
 41
1.0
 10
832.92477505197155
 20
-1491.3048159671841
 30
0.0
 41
1.0
 10
832.80958398354994
 20
-1491.3296298336938
 30
0.0
 41
0.997659285419945
 10
832.69885581714425
 20
-1491.369928510841
 30
0.0
 41
1.0
 10
832.58812765073992
 20
-1491.4102271879879
 30
0.0
 41
0.9993255074352551
 10
832.48065585194865
 20
-1491.4585440864805
 30
0.0
 41
1.0
 10
832.47603067302521
 20
-1491.4606234626804
 30
0.0
 41
1.0
 10
832.47140549410187
 20
-1491.46270283888
 30
0.0
 41
1.0
 10
832.35468333746485
 20
-1491.5151784897719
 30
0.0
 41
0.9976475078275346
 10
832.24623599315464
 20
-1491.5831264794301
 30
0.0
 41
1.0
 10
832.22789359902049
 20
-1491.5946189582442
 30
0.0
 41
1.0
 10
832.20955120488645
 20
-1491.6061114370582
 30
0.0
 41
1.0
 10
832.12534901333413
 20
-1491.6588685578267
 30
0.0
 41
0.9995131336407022
 10
832.04460129837491
 20
-1491.7167747697811
 30
0.0
 41
1.0
 10
831.96385358341468
 20
-1491.7746809817363
 30
0.0
 41
0.9995810107605868
 10
831.88659193568492
 20
-1491.8371626642033
 30
0.0
 41
1.0
 10
831.88362190447674
 20
-1491.8395645356663
 30
0.0
 41
1.0
 10
831.88065187326856
 20
-1491.8419664071293
 30
0.0
 41
1.0
 10
831.79745016312017
 20
-1491.9092518325238
 30
0.0
 41
0.9996617837954509
 10
831.71785947598505
 20
-1491.9807722880835
 30
0.0
 41
1.0
 10
831.70572872510638
 20
-1491.9916730210757
 30
0.0
 41
1.0
 10
831.69359797422783
 20
-1492.002573754068
 30
0.0
 41
1.0
 10
831.62532244682995
 20
-1492.0639263695412
 30
0.0
 41
0.999726775005281
 10
831.55998893854917
 20
-1492.1284029060639
 30
0.0
 41
1.0
 10
831.49465543025929
 20
-1492.1928794425953
 30
0.0
 41
0.9999667288962382
 10
831.43038248710604
 20
-1492.2584132494967
 30
0.0
 41
1.0
 10
831.3615550393373
 20
-1492.3285909082485
 30
0.0
 41
1.0
 10
831.29272759156856
 20
-1492.3987685670004
 30
0.0
 41
1.0
 10
831.09079975286943
 20
-1492.6046576914132
 30
0.0
 41
0.9988205335174571
 10
830.90979413588946
 20
-1492.8291619234753
 30
0.0
 41
1.0
 10
830.87915417098611
 20
-1492.8671651739035
 30
0.0
 41
1.0
 10
830.84851420608288
 20
-1492.9051684243316
 30
0.0
 41
1.0
 10
830.60622865929258
 20
-1493.2056791572538
 30
0.0
 41
0.9997077826755042
 10
830.37875070818632
 20
-1493.5175489514716
 30
0.0
 41
1.0
 10
830.37702729305704
 20
-1493.5199117348495
 30
0.0
 41
1.0
 10
830.37530387792776
 20
-1493.5222745182275
 30
0.0
 41
1.0
 10
830.14437909656306
 20
-1493.838869879201
 30
0.0
 41
0.9989147567078969
 10
829.94391559368046
 20
-1494.1755793403838
 30
0.0
 41
1.0
 10
829.91917444837077
 20
-1494.217135920941
 30
0.0
 41
1.0
 10
829.89443330306096
 20
-1494.2586925014982
 30
0.0
 41
1.0
 10
829.73922200442587
 20
-1494.5193938859468
 30
0.0
 41
0.999747659818084
 10
829.59587701691726
 20
-1494.7868036345278
 30
0.0
 41
1.0
 10
829.45253202940785
 20
-1495.05421338311
 30
0.0
 41
0.999625896710982
 10
829.32402377747644
 20
-1495.3290613197335
 30
0.0
 41
1.0
 10
829.31082386802518
 20
-1495.3572927198325
 30
0.0
 41
1.0
 10
829.29762395857392
 20
-1495.3855241199312
 30
0.0
 41
1.0
 10
829.15741523757572
 20
-1495.6853965178809
 30
0.0
 41
0.9998735413944422
 10
829.02681389085615
 20
-1495.9895761173466
 30
0.0
 41
1.0
 10
829.02337106279879
 20
-1495.9975947028042
 30
0.0
 41
1.0
 10
829.01992823474131
 20
-1496.0056132882617
 30
0.0
 41
1.0
 10
828.89621254414124
 20
-1496.293755716802
 30
0.0
 41
0.9999377418863469
 10
828.77895774196099
 20
-1496.5845871844895
 30
0.0
 41
1.0
 10
828.66170293978621
 20
-1496.8754186521642
 30
0.0
 41
0.9999508299507515
 10
828.55023899640662
 20
-1497.1685183289917
 30
0.0
 41
1.0
 10
828.54715822774506
 20
-1497.1766193549529
 30
0.0
 41
1.0
 10
828.54407745908361
 20
-1497.1847203809143
 30
0.0
 41
1.0
 10
828.42645197837999
 20
-1497.4940221096667
 30
0.0
 41
0.999960922843492
 10
828.3143133755043
 20
-1497.8053551256874
 30
0.0
 41
1.0
 10
828.31135736515614
 20
-1497.8135619660925
 30
0.0
 41
1.0
 10
828.30840135480798
 20
-1497.8217688064979
 30
0.0
 41
1.0
 10
828.19035073123746
 20
-1498.1495155033253
 30
0.0
 41
0.9999674607403604
 10
828.07760320516593
 20
-1498.4791241233293
 30
0.0
 41
1.0
 10
828.0262048146019
 20
-1498.6293833190257
 30
0.0
 41
1.0
 10
827.97480642403787
 20
-1498.7796425147224
 30
0.0
 41
1.0
 10
827.85879581728022
 20
-1499.1187904972244
 30
0.0
 41
0.9999287532308028
 10
827.75091441331301
 20
-1499.4606112361903
 30
0.0
 41
1.0
 10
827.7044371571576
 20
-1499.6078737806129
 30
0.0
 41
1.0
 10
827.65795990100219
 20
-1499.7551363250357
 30
0.0
 41
1.0
 10
827.64303300932181
 20
-1499.8024319752303
 30
0.0
 41
0.9999998224257227
 10
827.62816250061178
 20
-1499.8497453834068
 30
0.0
 41
1.0
 10
826.00750636381633
 20
-1504.9977738851962
 30
0.0
 41
1.0
 10
824.38685022702089
 20
-1510.1458023869857
 30
0.0
 41
1.0
 10
823.48154178312996
 20
-1510.1458023869857
 30
0.0
 41
1.0
 10
822.57623333923902
 20
-1510.1458023869857
 30
0.0
 41
1.0
 10
824.42831775062507
 20
-1504.2587304645181
 30
0.0
 41
1.0
 10
826.28040216201111
 20
-1498.3716585420507
 30
0.0
 41
1.0
 10
826.29052392031383
 20
-1498.339615328601
 30
0.0
 41
1.0
 10
826.36313158916357
 20
-1498.1093157867751
 30
0.0
 41
1.0
 10
826.4357392580157
 20
-1497.8790162449418
 30
0.0
 41
0.9999825681979784
 10
826.50562229722948
 20
-1497.6478753498691
 30
0.0
 41
1.0
 10
826.55391335938884
 20
-1497.4881507663781
 30
0.0
 41
1.0
 10
826.60220442154809
 20
-1497.3284261828869
 30
0.0
 41
1.0
 10
826.69935677486296
 20
-1497.0070909611179
 30
0.0
 41
0.9999672528968879
 10
826.79129558048567
 20
-1496.6842254155345
 30
0.0
 41
1.0
 10
826.79408446415573
 20
-1496.6744315701433
 30
0.0
 41
1.0
 10
826.79687334782591
 20
-1496.6646377247521
 30
0.0
 41
1.0
 10
826.88323438610644
 20
-1496.3613598699571
 30
0.0
 41
0.9999899749124795
 10
826.9668759956437
 20
-1496.0573207814955
 30
0.0
 41
1.0
 10
826.97698191466043
 20
-1496.0205855438198
 30
0.0
 41
1.0
 10
826.98708783367726
 20
-1495.9838503061442
 30
0.0
 41
1.0
 10
827.05051760517824
 20
-1495.7532816930438
 30
0.0
 41
0.9999214200503701
 10
827.10814703355618
 20
-1495.5211953508338
 30
0.0
 41
1.0
 10
827.12091288573697
 20
-1495.4697844654365
 30
0.0
 41
1.0
 10
827.13367873791788
 20
-1495.4183735800391
 30
0.0
 41
1.0
 10
827.16577646193377
 20
-1495.289109008625
 30
0.0
 41
0.9999828681663793
 10
827.19635871392927
 20
-1495.1594775341571
 30
0.0
 41
1.0
 10
827.22694096592363
 20
-1495.0298460596946
 30
0.0
 41
0.9999389844478325
 10
827.2546519547119
 20
-1494.8995706037992
 30
0.0
 41
1.0
 10
827.26178969843318
 20
-1494.8660144999571
 30
0.0
 41
1.0
 10
827.26892744215434
 20
-1494.8324583961148
 30
0.0
 41
1.0
 10
827.31091391838345
 20
-1494.6350707325421
 30
0.0
 41
0.9998933699442756
 10
827.34711818278538
 20
-1494.4365411247861
 30
0.0
 41
1.0
 10
827.34849100800216
 20
-1494.4290131040871
 30
0.0
 41
1.0
 10
827.34986383321893
 20
-1494.421485083388
 30
0.0
 41
1.0
 10
827.38881374805385
 20
-1494.2078994342369
 30
0.0
 41
0.9996850305193701
 10
827.41699742431308
 20
-1493.9926284287963
 30
0.0
 41
1.0
 10
827.41899245768195
 20
-1493.9773900746773
 30
0.0
 41
1.0
 10
827.42098749105082
 20
-1493.9621517205585
 30
0.0
 41
1.0
 10
827.44839535351048
 20
-1493.7528064934004
 30
0.0
 41
0.9994697936706629
 10
827.4621199127298
 20
-1493.5421212980705
 30
0.0
 41
1.0
 10
827.46259698197946
 20
-1493.5347978258601
 30
0.0
 41
1.0
 10
827.46307405122911
 20
-1493.5274743536499
 30
0.0
 41
1.0
 10
827.47584447194947
 20
-1493.3314361027408
 30
0.0
 41
0.999180489313665
 10
827.47271615567661
 20
-1493.1350072527662
 30
0.0
 41
1.0
 10
827.47263227685448
 20
-1493.1297404513534
 30
0.0
 41
1.0
 10
827.47254839803236
 20
-1493.1244736499405
 30
0.0
 41
1.0
 10
827.46958783940386
 20
-1492.9385784027922
 30
0.0
 41
0.9988448329321693
 10
827.44879629378011
 20
-1492.7538258129593
 30
0.0
 41
1.0
 10
827.44720222007709
 20
-1492.7396609571877
 30
0.0
 41
1.0
 10
827.44560814637396
 20
-1492.725496101416
 30
0.0
 41
1.0
 10
827.42800474815635
 20
-1492.5690732231246
 30
0.0
 41
0.9985503209458084
 10
827.39368847585683
 20
-1492.4154490390367
 30
0.0
 41
1.0
 10
827.38610248378586
 20
-1492.3814887116378
 30
0.0
 41
1.0
 10
827.378516491715
 20
-1492.347528384239
 30
0.0
 41
1.0
 10
827.3593722035572
 20
-1492.2618248549475
 30
0.0
 41
0.9991036781370564
 10
827.33304734190597
 20
-1492.1780477676225
 30
0.0
 41
1.0
 10
827.32906511644887
 20
-1492.1653746051086
 30
0.0
 41
1.0
 10
827.32508289099189
 20
-1492.1527014425947
 30
0.0
 41
1.0
 10
827.3067224802528
 20
-1492.0942706802905
 30
0.0
 41
0.999887450436882
 10
827.28661727257645
 20
-1492.0364170780742
 30
0.0
 41
1.0
 10
827.2665120648976
 20
-1491.9785634758496
 30
0.0
 41
0.9994041637543178
 10
827.24246345196377
 20
-1491.9222347719613
 30
0.0
 41
1.0
 10
827.23826666773994
 20
-1491.9124047074797
 30
0.0
 41
1.0
 10
827.23406988351599
 20
-1491.9025746429982
 30
0.0
 41
1.0
 10
827.2061910525216
 20
-1491.8372744770315
 30
0.0
 41
0.9991846840702788
 10
827.17313469582803
 20
-1491.7744364457499
 30
0.0
 41
1.0
 10
827.17199808943326
 20
-1491.7722758292957
 30
0.0
 41
1.0
 10
827.17086148303849
 20
-1491.7701152128413
 30
0.0
 41
1.0
 10
827.14007833913558
 20
-1491.7115984144709
 30
0.0
 41
0.9989253167923342
 10
827.10400891507993
 20
-1491.6561834860795
 30
0.0
 41
1.0
 10
827.10295479040542
 20
-1491.654563991317
 30
0.0
 41
1.0
 10
827.10190066573102
 20
-1491.6529444965543
 30
0.0
 41
1.0
 10
827.06793949102541
 20
-1491.6007685576899
 30
0.0
 41
0.9986467172836839
 10
827.0287423383877
 20
-1491.5524025240597
 30
0.0
 41
1.0
 10
827.0278682096872
 20
-1491.5513239217817
 30
0.0
 41
1.0
 10
827.0269940809867
 20
-1491.5502453195038
 30
0.0
 41
1.0
 10
826.98954518575056
 20
-1491.5040364904303
 30
0.0
 41
0.9984001104267337
 10
826.94711845523307
 20
-1491.4623513830611
 30
0.0
 41
1.0
 10
826.94653131712403
 20
-1491.4617745081803
 30
0.0
 41
1.0
 10
826.9459441790151
 20
-1491.4611976332994
 30
0.0
 41
1.0
 10
826.90469172471592
 20
-1491.4206662756924
 30
0.0
 41
0.9982442159082484
 10
826.85893562338038
 20
-1491.3852977144322
 30
0.0
 41
1.0
 10
826.85872082791843
 20
-1491.3851316817891
 30
0.0
 41
1.0
 10
826.8585060324566
 20
-1491.3849656491457
 30
0.0
 41
1.0
 10
826.81317952204404
 20
-1491.3499291531716
 30
0.0
 41
0.9982450060835914
 10
826.76402854297294
 20
-1491.3204973701386
 30
0.0
 41
1.0
 10
826.71487756390195
 20
-1491.2910655871053
 30
0.0
 41
0.9983922639635233
 10
826.66271125773778
 20
-1491.2673859524514
 30
0.0
 41
1.0
 10
826.66248438041259
 20
-1491.2672829669696
 30
0.0
 41
1.0
 10
826.6622575030874
 20
-1491.267179981488
 30
0.0
 41
1.0
 10
826.60963744227183
 20
-1491.2432943758702
 30
0.0
 41
0.9986517147148984
 10
826.55482446940186
 20
-1491.2249932567481
 30
0.0
 41
1.0
 10
826.55414654797596
 20
-1491.2247669103172
 30
0.0
 41
1.0
 10
826.55346862655006
 20
-1491.2245405638864
 30
0.0
 41
1.0
 10
826.49729981082783
 20
-1491.2057867519022
 30
0.0
 41
0.9989435598957006
 10
826.43964642367769
 20
-1491.1922690496679
 30
0.0
 41
1.0
 10
826.43856630409459
 20
-1491.1920157994145
 30
0.0
 41
1.0
 10
826.4374861845115
 20
-1491.1917625491612
 30
0.0
 41
1.0
 10
826.37767255819642
 20
-1491.1777383464207
 30
0.0
 41
0.9992249241239911
 10
826.31694104929898
 20
-1491.1684630037055
 30
0.0
 41
1.0
 10
826.31552736100821
 20
-1491.1682470952978
 30
0.0
 41
1.0
 10
826.31411367271733
 20
-1491.1680311868899
 30
0.0
 41
1.0
 10
826.25055478723709
 20
-1491.1583240273587
 30
0.0
 41
0.9994396597833322
 10
826.18648885070002
 20
-1491.1528911050132
 30
0.0
 41
1.0
 10
826.16734818322266
 20
-1491.1512679372945
 30
0.0
 41
1.0
 10
826.1482075157453
 20
-1491.1496447695758
 30
0.0
 41
1.0
 10
826.04586024425225
 20
-1491.140965511793
 30
0.0
 41
0.9987693403121344
 10
825.94315662066481
 20
-1491.1424685752456
 30
0.0
 41
1.0
 10
825.93290228643752
 20
-1491.1426186470198
 30
0.0
 41
1.0
 10
825.92264795221024
 20
-1491.1427687187941
 30
0.0
 41
1.0
 10
825.81309218603189
 20
-1491.1443720630814
 30
0.0
 41
0.9989753644966135
 10
825.70413018601585
 20
-1491.1558750700065
 30
0.0
 41
1.0
 10
825.59516818599934
 20
-1491.1673780769318
 30
0.0
 41
0.9983190067306531
 10
825.48826937503418
 20
-1491.1914130687185
 30
0.0
 41
1.0
 10
825.47936842342756
 20
-1491.1934143472813
 30
0.0
 41
1.0
 10
825.47046747182094
 20
-1491.1954156258439
 30
0.0
 41
1.0
 10
825.34576675764345
 20
-1491.2234531747558
 30
0.0
 41
0.9985539388303377
 10
825.22479700396605
 20
-1491.2647168508011
 30
0.0
 41
1.0
 10
825.22245157300495
 20
-1491.2655168946171
 30
0.0
 41
1.0
 10
825.22010614204396
 20
-1491.2663169384332
 30
0.0
 41
1.0
 10
825.09444552644766
 20
-1491.3091807021099
 30
0.0
 41
0.9988468746494535
 10
824.97347518414847
 20
-1491.3638987871714
 30
0.0
 41
1.0
 10
824.97029236215803
 20
-1491.3653384617321
 30
0.0
 41
1.0
 10
824.96710954016771
 20
-1491.3667781362929
 30
0.0
 41
1.0
 10
824.83977355388834
 20
-1491.4243755704758
 30
0.0
 41
0.9991322885919431
 10
824.71767296983069
 20
-1491.4923709026582
 30
0.0
 41
1.0
 10
824.70007095878668
 20
-1491.5021731046481
 30
0.0
 41
1.0
 10
824.68246894774279
 20
-1491.5119753066379
 30
0.0
 41
1.0
 10
824.58029226668793
 20
-1491.5688754224175
 30
0.0
 41
0.9993860037849675
 10
824.48235126261477
 20
-1491.6327914380058
 30
0.0
 41
1.0
 10
824.47673294976767
 20
-1491.6364579326973
 30
0.0
 41
1.0
 10
824.47111463692045
 20
-1491.6401244273889
 30
0.0
 41
1.0
 10
824.3844102585465
 20
-1491.696707453591
 30
0.0
 41
0.9998821494953495
 10
824.29948388272851
 20
-1491.7559256836712
 30
0.0
 41
1.0
 10
824.2145575069211
 20
-1491.8151439137439
 30
0.0
 41
0.9997976482744492
 10
824.13208187652492
 20
-1491.8777303217798
 30
0.0
 41
1.0
 10
824.11744561171361
 20
-1491.8888370115646
 30
0.0
 41
1.0
 10
824.10280934690229
 20
-1491.8999437013492
 30
0.0
 41
1.0
 10
823.99106118689156
 20
-1491.9847434889484
 30
0.0
 41
0.9998091630799386
 10
823.88271090886406
 20
-1492.0738438396497
 30
0.0
 41
1.0
 10
823.86970515638529
 20
-1492.084538940097
 30
0.0
 41
1.0
 10
823.85669940390653
 20
-1492.0952340405443
 30
0.0
 41
1.0
 10
823.72233762092412
 20
-1492.2057245921378
 30
0.0
 41
0.9995035112317102
 10
823.59520174315901
 20
-1492.3244584091544
 30
0.0
 41
1.0
 10
823.58555443277146
 20
-1492.3334681553126
 30
0.0
 41
1.0
 10
823.5759071223838
 20
-1492.3424779014708
 30
0.0
 41
1.0
 10
823.45248405961991
 20
-1492.4577442732252
 30
0.0
 41
0.999463042429935
 10
823.33687565383707
 20
-1492.5808470164593
 30
0.0
 41
1.0
 10
823.33319281506806
 20
-1492.5847685959698
 30
0.0
 41
1.0
 10
823.32950997629905
 20
-1492.5886901754802
 30
0.0
 41
1.0
 10
823.22126724805662
 20
-1492.7039497596907
 30
0.0
 41
0.9995160693750209
 10
823.12040121852112
 20
-1492.8257171775672
 30
0.0
 41
1.0
 10
823.11846749844221
 20
-1492.828051601773
 30
0.0
 41
1.0
 10
823.11653377836319
 20
-1492.8303860259791
 30
0.0
 41
1.0
 10
823.01953518898927
 20
-1492.9474845954396
 30
0.0
 41
0.9996561470514167
 10
822.9288089703233
 20
-1493.0695073578888
 30
0.0
 41
1.0
 10
822.92265130442058
 20
-1493.077789146932
 30
0.0
 41
1.0
 10
822.91649363851786
 20
-1493.0860709359754
 30
0.0
 41
1.0
 10
822.83808275165484
 20
-1493.1915301203417
 30
0.0
 41
0.9998349055175054
 10
822.76355546972513
 20
-1493.2997687040015
 30
0.0
 41
1.0
 10
822.68902818779429
 20
-1493.4080072876629
 30
0.0
 41
0.9999728109560181
 10
822.61610529187999
 20
-1493.5173332132242
 30
0.0
 41
1.0
 10
822.61479007646972
 20
-1493.5193049827246
 30
0.0
 41
1.0
 10
822.61347486105933
 20
-1493.521276752225
 30
0.0
 41
1.0
 10
822.53792153433551
 20
-1493.6345462167706
 30
0.0
 41
0.9999972147434442
 10
822.46290372396948
 20
-1493.7481710595941
 30
0.0
 41
1.0
 10
822.45793218133826
 20
-1493.7557011480799
 30
0.0
 41
1.0
 10
822.45296063870694
 20
-1493.7632312365658
 30
0.0
 41
1.0
 10
822.36799974309031
 20
-1493.8919162563429
 30
0.0
 41
0.9999371979007584
 10
822.28594439368942
 20
-1494.0224731701148
 30
0.0
 41
1.0
 10
822.28243550932461
 20
-1494.0280560981846
 30
0.0
 41
1.0
 10
822.27892662495992
 20
-1494.0336390262544
 30
0.0
 41
1.0
 10
822.18985350682976
 20
-1494.1753617961656
 30
0.0
 41
0.999827202561008
 10
822.10611011594858
 20
-1494.3202976729065
 30
0.0
 41
1.0
 10
822.09089494392492
 20
-1494.3466307873628
 30
0.0
 41
1.0
 10
822.07567977190115
 20
-1494.3729639018188
 30
0.0
 41
1.0
 10
821.96150603697083
 20
-1494.570566007475
 30
0.0
 41
0.999521721483824
 10
821.85976634741371
 20
-1494.77484833534
 30
0.0
 41
1.0
 10
821.85212278478025
 20
-1494.7901957850397
 30
0.0
 41
1.0
 10
821.8444792221469
 20
-1494.8055432347394
 30
0.0
 41
1.0
 10
821.75757392955677
 20
-1494.9800396928219
 30
0.0
 41
0.9998269762607459
 10
821.67721946328356
 20
-1495.1576479795474
 30
0.0
 41
1.0
 10
821.59686499701138
 20
-1495.3352562662712
 30
0.0
 41
0.9998944747386765
 10
821.52170420244624
 20
-1495.5151239919014
 30
0.0
 41
1.0
 10
821.51675053285544
 20
-1495.526978646818
 30
0.0
 41
1.0
 10
821.51179686326464
 20
-1495.5388333017345
 30
0.0
 41
1.0
 10
821.43114980271173
 20
-1495.7318302417532
 30
0.0
 41
0.9999506734410523
 10
821.35435227380776
 20
-1495.9263910466102
 30
0.0
 41
1.0
 10
821.33975230853162
 20
-1495.9633789684294
 30
0.0
 41
1.0
 10
821.32515234325535
 20
-1496.0003668902489
 30
0.0
 41
1.0
 10
821.27755474490118
 20
-1496.1209518514743
 30
0.0
 41
0.9999912393917364
 10
821.23096830088161
 20
-1496.2419310541623
 30
0.0
 41
1.0
 10
821.18438185686421
 20
-1496.3629102568445
 30
0.0
 41
0.9999927113959231
 10
821.13872056246589
 20
-1496.4842416643578
 30
0.0
 41
1.0
 10
821.12475213106768
 20
-1496.5213586463578
 30
0.0
 41
1.0
 10
821.11078369966958
 20
-1496.5584756283579
 30
0.0
 41
1.0
 10
821.03718554248303
 20
-1496.7540409998492
 30
0.0
 41
0.9999487550948717
 10
820.96756191751126
 20
-1496.9510563650317
 30
0.0
 41
1.0
 10
820.94396830757341
 20
-1497.0178196753268
 30
0.0
 41
1.0
 10
820.92037469763568
 20
-1497.0845829856221
 30
0.0
 41
1.0
 10
820.82568906326526
 20
-1497.3525168204465
 30
0.0
 41
0.9999808436949806
 10
820.73432747462243
 20
-1497.6216022517151
 30
0.0
 41
1.0
 10
820.64296588598154
 20
-1497.8906876829778
 30
0.0
 41
0.9999873932911908
 10
820.55431117726471
 20
-1498.1606770379876
 30
0.0
 41
1.0
 10
820.53421882039447
 20
-1498.2218663707431
 30
0.0
 41
1.0
 10
820.51412646352424
 20
-1498.2830557034988
 30
0.0
 41
1.0
 10
820.38528704106545
 20
-1498.6754237240239
 30
0.0
 41
0.999979488302799
 10
820.26148425609892
 20
-1499.0694099303284
 30
0.0
 41
1.0
 10
820.25033199667814
 20
-1499.1049005405125
 30
0.0
 41
1.0
 10
820.23917973725736
 20
-1499.1403911506964
 30
0.0
 41
1.0
 10
820.09662157334787
 20
-1499.5940639028217
 30
0.0
 41
0.999998276173009
 10
819.95574913332166
 20
-1500.0482629249791
 30
0.0
 41
1.0
 10
818.36760880074905
 20
-1505.0970326559823
 30
0.0
 41
1.0
 10
816.77946846817645
 20
-1510.1458023869857
 30
0.0
 41
1.0
 10
815.83071785670006
 20
-1510.1458023869857
 30
0.0
 41
1.0
 10
814.88196724522368
 20
-1510.1458023869857
 30
0.0
 41
1.0
 10
818.12025173137681
 20
-1499.8184801870395
 30
0.0
 41
1.0
 10
821.35853621753006
 20
-1489.4911579870934
 30
0.0
 41
1.0
  0
LWPOLYLINE
  5
76
100
AcDbEntity
  8
0
370
              15
390
0
  6
Continuous
 62
               7
100
AcDbPolyline
 90
      232
 70
             128
 10
795.65499044370301
 20
-1490.5755008186086
 42
0.000437080069053
 10
795.60211326965452
 20
-1490.6441674578341
 10
795.56282903850354
 20
-1490.6952745707613
 42
0.0030481992173736
 10
795.43249032139329
 20
-1490.8669962630938
 10
795.39397864963394
 20
-1490.9183830468937
 42
0.0042058245755932
 10
795.18999359894997
 20
-1491.1953887919867
 10
795.13758847646341
 20
-1491.267821638748
 42
0.0120948898743342
 10
794.84154455970111
 20
-1491.6985712432986
 10
794.74535206058067
 20
-1491.8460519785212
 42
0.0141601263950794
 10
794.44170801365806
 20
-1492.3417213152575
 10
794.40217074623172
 20
-1492.41056528269
 42
0.0071131081300969
 10
794.19689842299363
 20
-1492.7800680815274
 42
0.0068458791002961
 10
794.00201889615028
 20
-1493.155159645004
 10
793.99520703369285
 20
-1493.168721358727
 42
0.0064120880289191
 10
793.79706478364915
 20
-1493.5761458336447
 10
793.78953009813154
 20
-1493.5921576903672
 42
0.0058857236448271
 10
793.58677470626355
 20
-1494.0365338013937
 10
793.57859977996588
 20
-1494.0550239550362
 42
0.0053189741893795
 10
793.36989546729683
 20
-1494.540987428958
 10
793.361147661617
 20
-1494.5619693071503
 42
0.0047503650417411
 10
793.1451739354743
 20
-1495.0941687403395
 10
793.13590568711811
 20
-1495.1176451164679
 42
0.0042071762170598
 10
792.91135830338794
 20
-1495.7007387105439
 10
792.90160890104175
 20
-1495.7267048854073
 42
0.0036680086485412
 10
792.66715425772895
 20
-1496.3653402699404
 10
792.65694647788189
 20
-1496.3937888042828
 42
0.0032573142627871
 10
792.4113141919089
 20
-1497.0926414640544
 10
792.34266367107637
 20
-1497.2921045480839
 42
0.0026133366650466
 10
791.99421847231656
 20
-1498.3219678317612
 10
791.93096168481304
 20
-1498.5121986671627
 42
0.0020592950740643
 10
791.71709861584873
 20
-1499.1643023197673
 10
791.7140468246879
 20
-1499.1737388081699
 42
0.0025609928534199
 10
791.5122263231998
 20
-1499.8088840305429
 10
791.50963495608119
 20
-1499.8171863714574
 42
0.0031362356238969
 10
791.32014417039613
 20
-1500.437949227663
 10
791.31801312745972
 20
-1500.4450905339042
 42
0.0037229918028035
 10
791.14121274054241
 20
-1501.0540758358484
 10
791.13953415134131
 20
-1501.0600227260038
 42
0.0043077623704302
 10
790.97579334927093
 20
-1501.6598414577916
 42
0.0047654161822845
 10
790.82296462675413
 20
-1502.2625275466976
 10
790.78850001791579
 20
-1502.4040893238439
 42
0.011296936844503
 10
790.59263565977153
 20
-1503.2957814844717
 10
790.5646292706756
 20
-1503.4386095305658
 42
0.0130056762571964
 10
790.36379202702892
 20
-1504.6255506022108
 10
790.34325227688191
 20
-1504.7696287156871
 42
0.013872153214432
 10
790.23954927234399
 20
-1505.6764582015135
 10
790.22025378443641
 20
-1505.8999559234344
 42
0.0071254697007658
 10
790.18690713851356
 20
-1506.3631429322859
 10
790.18194616434926
 20
-1506.4491469268642
 42
0.0028881799208195
 10
790.16680787106043
 20
-1506.7408886366884
 42
0.006029729713838
 10
790.15687567128452
 20
-1507.0328375728193
 10
790.15581338961772
 20
-1507.0812299447391
 42
0.0229523164159139
 10
790.1635444174035
 20
-1507.4039847910199
 10
790.16777019092433
 20
-1507.4643883250426
 42
0.012367330067074
 10
790.1868488374422
 20
-1507.6655090502109
 42
0.0128577674470311
 10
790.21604422784856
 20
-1507.8654069001379
 10
790.2231701012355
 20
-1507.9067357147346
 42
0.0285717853763164
 10
790.28766410293065
 20
-1508.1848518660463
 10
790.30133262659763
 20
-1508.2315066355252
 42
0.0316283099160116
 10
790.41714320651181
 20
-1508.5505211373511
 10
790.4201918982676
 20
-1508.5575075096772
 42
0.033898482423285
 10
790.56962360923455
 20
-1508.8450734738658
 10
790.57193233860403
 20
-1508.8488645031412
 42
0.0350228718354611
 10
790.75429262927798
 20
-1509.1059164878186
 10
790.75517788105333
 20
-1509.106995565583
 42
0.0347476747530069
 10
790.96960256829311
 20
-1509.3341806128028
 42
0.0331337701909871
 10
791.21284589404036
 20
-1509.5303092748807
 10
791.21394599255564
 20
-1509.5310819780525
 42
0.0305233319080161
 10
791.48249068812959
 20
-1509.6962101481445
 10
791.48572073263017
 20
-1509.6979341600068
 42
0.0273744481149817
 10
791.77827444420222
 20
-1509.8340723038962
 10
791.78337897934205
 20
-1509.8361158883667
 42
0.0240964406193384
 10
792.09885605498653
 20
-1509.9450996146479
 10
792.10543938419778
 20
-1509.9470243543233
 42
0.0209636179811257
 10
792.44283953685112
 20
-1510.0304925022554
 10
792.45047199729902
 20
-1510.0320444152567
 42
0.018138870469125
 10
792.80879438929855
 20
-1510.0914605084708
 10
792.81707523767568
 20
-1510.0925266922877
 42
0.0156086547584849
 10
793.19526260186342
 20
-1510.1292628788644
 10
793.23845785418951
 20
-1510.1321013813433
 42
0.0137148329017911
 10
793.56613099949038
 20
-1510.1446216365948
 10
793.61206718942742
 20
-1510.14511606971
 42
0.0051057823884885
 10
793.84821277600861
 20
-1510.1452463241189
 42
0.0052256693316878
 10
794.08431005979253
 20
-1510.1404974996547
 10
794.15453684353668
 20
-1510.1383505336407
 42
0.0161507179048543
 10
794.53027392163779
 20
-1510.1147001633142
 10
794.55028688201105
 20
-1510.1127899680266
 42
0.010121673783191
 10
794.96431410349498
 20
-1510.0647970376619
 10
794.99836739292846
 20
-1510.0601493408515
 42
0.0245291776398532
 10
795.47515704848013
 20
-1509.9710742627751
 10
795.55998036400729
 20
-1509.9508783424285
 42
0.0143509212557696
 10
795.9166114679432
 20
-1509.8550737086507
 42
0.015655785703506
 10
796.26682753267005
 20
-1509.7380624928321
 10
796.2743287471651
 20
-1509.7352923310777
 42
0.0170137333629803
 10
796.63092474285099
 20
-1509.5896347162045
 10
796.63802866525396
 20
-1509.5864468806428
 42
0.0183105364410378
 10
796.9973783334159
 20
-1509.4091118388208
 10
797.00432509805898
 20
-1509.4053614039462
 42
0.019489995815672
 10
797.3628058390459
 20
-1509.1933824220534
 10
797.36981971837963
 20
-1509.1888570797605
 42
0.0204869852955252
 10
797.72383402047592
 20
-1508.9393370646728
 10
797.73109962906062
 20
-1508.9337569993263
 42
0.0212516938556178
 10
798.07708956016484
 20
-1508.6438530024352
 10
798.12360625424378
 20
-1508.6013856923387
 42
0.0215248918250234
 10
798.38363242313198
 20
-1508.3426214133437
 10
798.42866215751712
 20
-1508.293777291989
 42
0.0114578554957975
 10
798.58345431118983
 20
-1508.1179543585354
 10
798.59464884717033
 20
-1508.1046355949973
 42
0.0061531305135453
 10
798.72112349317092
 20
-1507.9503460616843
 42
0.0006325587119093
 10
798.84550197726833
 20
-1507.794342686077
 10
798.86854211237414
 20
-1507.7653691653493
 42
0.0041897761557933
 10
799.036997516361
 20
-1507.5498497892693
 10
799.09545963623907
 20
-1507.4737484423022
 42
0.009299388003929
 10
799.37207156346187
 20
-1507.0994696784196
 10
799.45446605666007
 20
-1506.9835326748521
 42
0.0159321727087569
 10
799.80107253930407
 20
-1506.4613584540937
 10
799.84542867470009
 20
-1506.3896788898323
 42
0.0085547317023006
 10
800.07994044001885
 20
-1505.995803940619
 42
0.008460115688973
 10
800.3009166174611
 20
-1505.5941770915867
 10
800.30903209129133
 20
-1505.5788174093138
 42
0.0081429654285222
 10
800.53228136172947
 20
-1505.1390958967718
 10
800.54114152591285
 20
-1505.1209170547536
 42
0.0076574581328559
 10
800.7675490364835
 20
-1504.6377341794921
 10
800.77702867720325
 20
-1504.6166697011977
 42
0.0070682724201749
 10
801.00747358501167
 20
-1504.0846323964122
 10
801.01746386899174
 20
-1504.0606432074046
 42
0.0064559514448318
 10
801.25279707717175
 20
-1503.47433094089
 10
801.26320643533836
 20
-1503.4473960154437
 42
0.0058311413907422
 10
801.50425317210136
 20
-1502.8013639210592
 10
801.51500824948869
 20
-1502.7714795798993
 42
0.0052312425819548
 10
801.76258952753028
 20
-1502.0602771660629
 10
801.77363336390931
 20
-1502.0274504539952
 42
0.0046680544795682
 10
802.02856179164155
 20
-1501.2456241382476
 10
802.07055394168799
 20
-1501.1126409009464
 42
0.0041666856443508
 10
802.2738399540824
 20
-1500.4496721259427
 10
802.31150239473163
 20
-1500.3230910183381
 42
0.0015170975155765
 10
802.4326889731592
 20
-1499.9112226667953
 42
-0.0004887993117312
 10
802.55302874625534
 20
-1499.4991042548459
 10
802.62950600377735
 20
-1499.2381468688122
 42
0.0002583378928656
 10
802.9027205738314
 20
-1498.3040901656682
 10
802.98449342341758
 20
-1498.0239909060526
 42
0.0006636169669956
 10
803.17836118342962
 20
-1497.3566379824631
 10
803.18345783775362
 20
-1497.339006399663
 42
0.0010589131320969
 10
803.36490653869328
 20
-1496.7062750565342
 10
803.36988860918325
 20
-1496.6887621494809
 42
0.0015655524462768
 10
803.5381588163566
 20
-1496.0901454703132
 10
803.54298901676395
 20
-1496.0727533114048
 42
0.0021640440478184
 10
803.69727898875749
 20
-1495.5077262933592
 10
803.70191320818788
 20
-1495.4904615633639
 42
0.0028763871853088
 10
803.8414289262405
 20
-1494.9584936125184
 10
803.84581479041083
 20
-1494.9413696343518
 42
0.0037310511946849
 10
803.9697714822446
 20
-1494.4419220403402
 10
803.9738467025303
 20
-1494.4249617691084
 42
0.0047652197770823
 10
804.08147060304202
 20
-1493.9574840007895
 10
804.08516120236652
 20
-1493.9407244456345
 42
0.0060276699303358
 10
804.17569130151901
 20
-1493.5046486504953
 10
804.1789099918085
 20
-1493.4881474361841
 42
0.0075824337761439
 10
804.25159930122368
 20
-1493.0828802717599
 10
804.25424467860466
 20
-1493.0667253243046
 42
0.0095130624613251
 10
804.3083599142351
 20
-1492.6916359712377
 10
804.31534613811755
 20
-1492.6357024131221
 42
0.0121054653225922
 10
804.34193746869562
 20
-1492.3708065846472
 10
804.34280395845508
 20
-1492.3594031417192
 42
0.006905082738471
 10
804.35789277649292
 20
-1492.116461914874
 10
804.35902807616117
 20
-1492.0929356578338
 42
0.0169063976701852
 10
804.36185535514164
 20
-1491.8967429305285
 10
804.36068470361045
 20
-1491.8364071691785
 42
0.0052007732890792
 10
804.35843125501742
 20
-1491.7608137790271
 42
0.0054038123300333
 10
804.33846774317612
 20
-1491.6407954830029
 10
804.33338188730818
 20
-1491.612136996436
 42
0.0112050460469807
 10
804.29799752524968
 20
-1491.4358105580975
 10
804.28017256320891
 20
-1491.3562689713763
 42
0.0240764468009375
 10
804.18927519706313
 20
-1491.0260319358761
 10
804.17071643424936
 20
-1490.9694117708812
 42
0.025681233183414
 10
804.02735351405977
 20
-1490.5976875646238
 10
804.02194408823823
 20
-1490.5855562296338
 42
0.0268360501216851
 10
803.85251684738853
 20
-1490.2545630956131
 10
803.84698043975391
 20
-1490.2450434253014
 42
0.0274670231729583
 10
803.65477946334022
 20
-1489.9527560503834
 10
803.64939816337744
 20
-1489.9454769028418
 42
0.0275035967094885
 10
803.43782528381576
 20
-1489.6899610125381
 10
803.43275578284943
 20
-1489.6844819249079
 42
0.0269557673523435
 10
803.20535223940965
 20
-1489.4638396389455
 10
803.20060918162744
 20
-1489.4597096844852
 42
0.0259124802209366
 10
802.96105435019626
 20
-1489.2720191573321
 10
802.95652350501598
 20
-1489.2688336550029
 42
0.0245162153001555
 10
802.70860715191952
 20
-1489.1121006458916
 10
802.70408060559816
 20
-1489.1095404486923
 42
0.022928258883802
 10
802.45166104876796
 20
-1488.9816722561918
 10
802.44688055493009
 20
-1488.9795199564294
 42
0.0212984135701215
 10
802.19384260246943
 20
-1488.8783210391875
 10
802.18853831750403
 20
-1488.8764574764291
 42
0.019755546234676
 10
801.93875997977693
 20
-1488.7996420584627
 42
0.0183511896794598
 10
801.68383125431114
 20
-1488.7420591514967
 10
801.5974660575913
 20
-1488.7258563611122
 42
0.0338057877145405
 10
801.31195870833051
 20
-1488.6920479559717
 10
801.22095330328523
 20
-1488.6874683007102
 42
0.0091990524497455
 10
801.11510619465457
 20
-1488.6840924447883
 42
0.0028333980780617
 10
801.00919227868258
 20
-1488.6832643372718
 10
801.00827682561226
 20
-1488.6832623674477
 42
-0.0023619827799458
 10
800.90053081050735
 20
-1488.6825215263691
 10
800.86412564033049
 20
-1488.6820992199059
 42
0.0008824598472245
 10
800.68356965050782
 20
-1488.680323441668
 10
800.6397082180747
 20
-1488.6799694801421
 42
0.0038132665768329
 10
800.37142532218957
 20
-1488.6798505440756
 10
800.3548916674024
 20
-1488.6799693102191
 42
0.0060665569333658
 10
800.05361117581026
 20
-1488.6857896096399
 10
800.03936084378574
 20
-1488.6862379176075
 42
0.0080356953340557
 10
799.70990212743334
 20
-1488.7019056396753
 10
799.69783211235927
 20
-1488.7026742226149
 42
0.0098996399104122
 10
799.34506902771818
 20
-1488.7321594518121
 10
799.3350233183337
 20
-1488.7331997480112
 42
0.0117740981369384
 10
798.96386645998246
 20
-1488.7804919955415
 10
798.95564376350239
 20
-1488.7817371121118
 42
0.013743521513794
 10
798.57105494401685
 20
-1488.8508340856738
 10
798.56439790489389
 20
-1488.8522199819072
 42
0.0158359869387546
 10
798.17140081109119
 20
-1488.9471120703879
 10
798.16598762422427
 20
-1488.9486020112583
 42
0.0180554124026791
 10
797.76967257961348
 20
-1489.0732400274965
 10
797.7651157915285
 20
-1489.0748560637635
 42
0.0203657431282413
 10
797.37063827371605
 20
-1489.2331164052794
 10
797.36649473470982
 20
-1489.2349780267209
 42
0.0226819684657212
 10
796.97905867850477
 20
-1489.430620605393
 10
796.97485888748804
 20
-1489.4329861973119
 42
0.0248634984605007
 10
796.59967694631018
 20
-1489.6696128432566
 10
796.55148201752502
 20
-1489.703469885083
 42
0.0267044190882861
 10
796.27718932060634
 20
-1489.918910260953
 42
0.0139303002202017
 10
796.0210221546638
 20
-1490.1561491018686
 10
796.01616876894661
 20
-1490.1609017647249
 42
0.0283460963442212
 10
795.77209617472045
 20
-1490.4286324251686
 10
795.73242766956287
 20
-1490.4774340026431
 42
0.0070695364819138
 10
795.65499044370301
 20
-1490.5755008186086
 42
0.0070695364819138
  0
LWPOLYLINE
  5
77
100
AcDbEntity
  8
0
370
              15
390
0
  6
Continuous
 62
               7
100
AcDbPolyline
 90
      226
 70
             128
 10
792.12617000645662
 20
-1506.2970896247925
 42
-0.0026277636607031
 10
792.12609212265659
 20
-1506.2303176990256
 10
792.12630948088861
 20
-1506.1771624816065
 42
-0.0088680296727718
 10
792.13008609718167
 20
-1506.0041466992004
 10
792.13243245629405
 20
-1505.9448666737499
 42
-0.00773817056165
 10
792.14847856705671
 20
-1505.65360617796
 10
792.14934647823031
 20
-1505.6413179442666
 42
-0.0068872530530423
 10
792.1759785579776
 20
-1505.3260961922063
 10
792.17718278216455
 20
-1505.3138552131786
 42
-0.0062130021489922
 10
792.21477649899066
 20
-1504.9749855219534
 10
792.21628040252745
 20
-1504.9628116500237
 42
-0.0056726929665742
 10
792.26520226202979
 20
-1504.6006164279106
 10
792.26697570767419
 20
-1504.588522627665
 42
-0.0052341884491082
 10
792.32758629393447
 20
-1504.2033293721452
 10
792.32960428271076
 20
-1504.1913244421546
 42
-0.0049768450167155
 10
792.40234296413837
 20
-1503.7834798747156
 10
792.42659197885894
 20
-1503.6549318917159
 42
-0.0089029805623153
 10
792.56367283065367
 20
-1502.9931564442936
 10
792.59641820597221
 20
-1502.8481250137702
 42
-0.008031825710069
 10
792.82596682031101
 20
-1501.9024153819239
 10
792.83795174676118
 20
-1501.8562847467265
 42
-0.0074265721318001
 10
793.12196328561276
 20
-1500.8262201683403
 10
793.14184282872475
 20
-1500.7580861077672
 42
-0.0069711922702992
 10
793.46914740723446
 20
-1499.6918183674284
 10
793.52909935433786
 20
-1499.5057970090643
 42
-0.0052070422892398
 10
793.75852457959923
 20
-1498.8185249320265
 10
793.77580577176059
 20
-1498.7684976514408
 42
-0.0009167004448696
 10
793.97889765906098
 20
-1498.1840418032552
 42
-0.0025162726943076
 10
794.18599528931895
 20
-1497.6010005391054
 10
794.22321990114062
 20
-1497.497850993155
 42
-0.0028212681456869
 10
794.47139582009208
 20
-1496.8221203610165
 10
794.48122658284865
 20
-1496.7958129163237
 42
-0.0031964916823586
 10
794.71751884050502
 20
-1496.1756081542126
 10
794.72715329449784
 20
-1496.1507981640852
 42
-0.0036281836453514
 10
794.95225925560521
 20
-1495.5833574831763
 10
794.96169766576725
 20
-1495.5600600516623
 42
-0.0041269166830479
 10
795.17631536242186
 20
-1495.0426191556951
 10
795.20894831883504
 20
-1494.9657407093518
 42
-0.004747221306016
 10
795.36599312439625
 20
-1494.6053192414506
 10
795.37288720562492
 20
-1494.5898986440729
 42
-0.0025651659993096
 10
795.52124523945463
 20
-1494.2625705883702
 42
-0.0057144634993518
 10
795.67499493322634
 20
-1493.9377609150067
 10
795.70302563862458
 20
-1493.8802525326187
 42
-0.0065388068374253
 10
795.88649266636696
 20
-1493.5160200359485
 10
795.8949511221457
 20
-1493.4997604565785
 42
-0.007451084302244
 10
796.07113336802331
 20
-1493.1730721754561
 10
796.07931303855912
 20
-1493.1584313981789
 42
-0.0084648979855369
 10
796.24894689165444
 20
-1492.8665223872263
 10
796.25680301813861
 20
-1492.8535153955818
 42
-0.0095638542804194
 10
796.42063846573672
 20
-1492.5936265235969
 10
796.42811340940432
 20
-1492.5822571621479
 42
-0.0107191626810082
 10
796.58691498979601
 20
-1492.3516459275975
 10
796.59393172352532
 20
-1492.3419098352354
 42
-0.0118458573908523
 10
796.7484798220396
 20
-1492.1378376399221
 42
-0.0129184518191892
 10
796.91293244564179
 20
-1491.9416771237509
 10
796.94307721800556
 20
-1491.9075510448506
 42
-0.0217742579632833
 10
797.11968954033955
 20
-1491.7243442746021
 10
797.130435084797
 20
-1491.7141274414021
 42
-0.0097266568654688
 10
797.29649270365576
 20
-1491.5622798669617
 42
-0.0187720905722697
 10
797.47084027954372
 20
-1491.4202110135739
 10
797.50154627021652
 20
-1491.3970519311786
 42
-0.017942820752175
 10
797.73396699021555
 20
-1491.2344997540647
 10
797.73761931713477
 20
-1491.2321358191746
 42
-0.0170047877692459
 10
797.9733829546617
 20
-1491.0906753050253
 10
797.97716594340386
 20
-1491.0885769999916
 42
-0.0160190788366169
 10
798.21407449104356
 20
-1490.966925698001
 42
-0.0151102861490108
 10
798.45810627349283
 20
-1490.8602429219454
 10
798.51049277570201
 20
-1490.8392027890518
 42
-0.0271945441888779
 10
798.86915533475803
 20
-1490.7173379783464
 10
798.93822013524812
 20
-1490.6979884370796
 42
-0.023759659402486
 10
799.35401698227088
 20
-1490.602537725098
 10
799.42207983599997
 20
-1490.5902830369714
 42
-0.0213715440554977
 10
799.70795476744661
 20
-1490.5513360054613
 10
799.7681019336685
 20
-1490.54574629076
 42
-0.0101465655819847
 10
799.93559446565871
 20
-1490.5336027474964
 10
799.94493485185637
 20
-1490.5331158324991
 42
-0.0100375910882192
 10
800.0940889524195
 20
-1490.5283400145738
 10
800.10434822209845
 20
-1490.5282175755594
 42
-0.0103625633383418
 10
800.23305621675468
 20
-1490.529349009086
 10
800.25532186802991
 20
-1490.5300063675511
 42
-0.0115689250227363
 10
800.33937260554956
 20
-1490.5344358737962
 42
-0.0072438037435573
 10
800.42321088499693
 20
-1490.5420250735463
 10
800.44001139446152
 20
-1490.5437916162696
 42
-0.0217917313119029
 10
800.55658115777783
 20
-1490.5612115089909
 10
800.62218124834112
 20
-1490.5739581174048
 42
-0.0332943556758102
 10
800.82657341337017
 20
-1490.6279984087123
 10
800.85674598192327
 20
-1490.6381664858318
 42
-0.018482408480137
 10
800.99525103838573
 20
-1490.6906175012173
 42
-0.0198002050693172
 10
801.12932537888628
 20
-1490.7535015614171
 10
801.131212016262
 20
-1490.7544793482964
 42
-0.021224234296809
 10
801.26335095866398
 20
-1490.8302420870893
 10
801.26516625420732
 20
-1490.8313878892977
 42
-0.0226090605791025
 10
801.39367015542825
 20
-1490.9208675328616
 10
801.39551459716654
 20
-1490.9222797858497
 42
-0.0238457052226188
 10
801.51869667845892
 20
-1491.0262756817115
 10
801.52064940701848
 20
-1491.0280905594782
 42
-0.0248160564145185
 10
801.6368509143191
 20
-1491.1473651606868
 10
801.63895454772114
 20
-1491.1497504943914
 42
-0.0254109591446363
 10
801.74655976558824
 20
-1491.2850388803572
 10
801.74880778750116
 20
-1491.2881804287563
 42
-0.0255528488285064
 10
801.84625446629798
 20
-1491.4402074829902
 10
801.84858556621452
 20
-1491.4442890945984
 42
-0.0252146793223693
 10
801.93436659222311
 20
-1491.6137913405942
 10
801.93666883138121
 20
-1491.6189734225081
 42
-0.0244265635952724
 10
802.00932352514246
 20
-1491.8067199945542
 10
802.01856992661158
 20
-1491.8345854128941
 42
-0.023131961289318
 10
802.06449270560313
 20
-1491.9978864596942
 42
-0.0112130424362456
 10
802.09912872814164
 20
-1492.1640900598836
 10
802.1003312532539
 20
-1492.1705866467701
 42
-0.0210527881240757
 10
802.12601772862467
 20
-1492.3516422922116
 10
802.12952832344649
 20
-1492.3870478407587
 42
-0.0190029892428769
 10
802.14496979699118
 20
-1492.6405836870326
 10
802.14577977343515
 20
-1492.6760593014001
 42
-0.0137974553664573
 10
802.14423092059974
 20
-1493.0010907081273
 10
802.14338546564409
 20
-1493.0272094527263
 42
-0.008133663421462
 10
802.12852613042151
 20
-1493.3325569203255
 42
-0.007352692357146
 10
802.10421759704798
 20
-1493.6373051645999
 10
802.10295617326415
 20
-1493.6506418392767
 42
-0.0066886138690832
 10
802.06722058721755
 20
-1493.9812278827746
 10
802.06556349774769
 20
-1493.9948495017652
 42
-0.006135918735252
 10
802.01771289569683
 20
-1494.3516134818653
 10
802.01567539462394
 20
-1494.3655082846944
 42
-0.0056698610070377
 10
801.95502506385753
 20
-1494.7487868535293
 10
801.95261963053395
 20
-1494.7629459727632
 42
-0.005272107727801
 10
801.8784874297362
 20
-1495.1730733124309
 10
801.87572428089254
 20
-1495.1874899478271
 42
-0.0049289272179375
 10
801.78743016279429
 20
-1495.6247984589411
 10
801.78431766810991
 20
-1495.6394673117654
 42
-0.004741595671103
 10
801.68107967657647
 20
-1496.104264069181
 10
801.64631146621787
 20
-1496.2540711645593
 42
-0.0084404470902368
 10
801.45629502264603
 20
-1497.0142951890903
 10
801.45016833466036
 20
-1497.0371593132438
 42
-0.0039635940256592
 10
801.22871465037213
 20
-1497.8381481775059
 10
801.21533785519682
 20
-1497.8850797940831
 42
-0.007247504083592
 10
800.947890967332
 20
-1498.7742995104786
 10
800.87767864051239
 20
-1498.9960398604264
 42
-0.0051345458828221
 10
800.59091926844746
 20
-1499.8703650482564
 10
800.5693930016788
 20
-1499.93379131539
 42
-0.0019150016600837
 10
800.31385959481327
 20
-1500.6773404356125
 10
800.30739199042182
 20
-1500.6959279005198
 42
-0.0021524362753365
 10
800.05891393935326
 20
-1501.4002537222418
 10
800.04970351864881
 20
-1501.4260073005655
 42
-0.0024331286818189
 10
799.81344825962083
 20
-1502.0766066086617
 10
799.80440030707666
 20
-1502.1011499149988
 42
-0.0027449721786604
 10
799.57978573623484
 20
-1502.7002797939404
 10
799.57089572884354
 20
-1502.7236023837902
 42
-0.0031083229769338
 10
799.35735324223265
 20
-1503.2735264213723
 10
799.34861711055521
 20
-1503.2956161372347
 42
-0.0035311343283131
 10
799.14557592496521
 20
-1503.7985992629601
 10
799.13699058581847
 20
-1503.8194419864681
 42
-0.0040245640951791
 10
798.94387878202315
 20
-1504.2777513090628
 10
798.9354426684182
 20
-1504.2973306771391
 42
-0.004601513585208
 10
798.75168637525633
 20
-1504.7132357067771
 10
798.74340019743534
 20
-1504.7315328462132
 42
-0.0052768638276338
 10
798.56842267847242
 20
-1505.1073057304995
 10
798.56029046784602
 20
-1505.1242990690416
 42
-0.0060672675643815
 10
798.39351085507951
 20
-1505.462214692157
 10
798.3855413746021
 20
-1505.4778799511462
 42
-0.0069904648873678
 10
798.22637298059658
 20
-1505.780215757818
 10
798.21858158098905
 20
-1505.7945263070394
 42
-0.0080637022767353
 10
798.06642972063992
 20
-1506.0635616101983
 10
798.05884068800344
 20
-1506.0764894758079
 42
-0.0093006455661804
 10
797.91310001147713
 20
-1506.3145038743023
 10
797.90574934473443
 20
-1506.3260218434741
 42
-0.0107060778047146
 10
797.76580080129497
 20
-1506.5352921608544
 10
797.75873903301897
 20
-1506.5453777034152
 42
-0.0122723111411856
 10
797.62394531481732
 20
-1506.7281710329094
 10
797.62361909125957
 20
-1506.7285914207239
 42
-0.0141836319620813
 10
797.4800374882891
 20
-1506.9031611785485
 10
797.4730897326408
 20
-1506.9111361788091
 42
-0.0175957477210364
 10
797.33318356460245
 20
-1507.060757067218
 42
-0.0080466359666278
 10
797.18571979956357
 20
-1507.2030795953774
 10
797.13968525505481
 20
-1507.2461000334604
 42
-0.0269600260397802
 10
796.88640500907411
 20
-1507.4584232919678
 10
796.81983787277954
 20
-1507.5083747065901
 42
-0.017836283975559
 10
796.57989338311904
 20
-1507.6753926328458
 10
796.57264841211872
 20
-1507.6800611450506
 42
-0.0174650732652078
 10
796.33631221467726
 20
-1507.8209221100099
 42
-0.0169240130169074
 10
796.09084596881962
 20
-1507.9452143697872
 10
796.04485981326184
 20
-1507.9665763253545
 42
-0.0318883036840452
 10
795.69450895764192
 20
-1508.1029146348646
 10
795.62614342247616
 20
-1508.1246152553404
 42
-0.0284435909899571
 10
795.25009329618604
 20
-1508.2208326908149
 10
795.21493513568771
 20
-1508.2277262866432
 42
-0.0243909341012432
 10
794.90149167476852
 20
-1508.2734473176733
 10
794.8512109479982
 20
-1508.278292864575
 42
-0.0196639292930644
 10
794.63561537047008
 20
-1508.2905411500885
 10
794.58379129929904
 20
-1508.2914444108253
 42
-0.0100501510680955
 10
794.47136801764236
 20
-1508.2911440124722
 10
794.43970815627904
 20
-1508.2904229405863
 42
-0.0019752031141359
 10
794.39061581961698
 20
-1508.2891107803771
 10
794.38785551640171
 20
-1508.2890260885511
 42
0.0065378751977466
 10
794.34427894164014
 20
-1508.2882591973359
 42
-0.0167974694649492
 10
794.30074811871134
 20
-1508.2865992988102
 10
794.29666877944624
 20
-1508.2863062879151
 42
-0.0081283276297635
 10
794.2451089817207
 20
-1508.2817592942783
 10
794.23336940782906
 20
-1508.2805313766987
 42
-0.0126703440181922
 10
794.15865111203618
 20
-1508.2707965856273
 10
794.13586324435892
 20
-1508.267238329712
 42
-0.0117852088434632
 10
794.01632425852722
 20
-1508.245675334555
 10
793.96094380676345
 20
-1508.2343317943203
 42
-0.0251774592291131
 10
793.7340997677544
 20
-1508.1758337848869
 10
793.68938057790035
 20
-1508.1618669655506
 42
-0.0146525199889491
 10
793.50298759036605
 20
-1508.0976004383538
 42
-0.0166929435862225
 10
793.32100993423899
 20
-1508.0217933052991
 10
793.31635330296626
 20
-1508.0196684046853
 42
-0.0191684358436137
 10
793.1311696717155
 20
-1507.9264323208945
 10
793.12783708595998
 20
-1507.9245910733421
 42
-0.0221181781813927
 10
792.94452678205664
 20
-1507.8124575749703
 10
792.94217697804936
 20
-1507.8108732769801
 42
-0.025498468538682
 10
792.7658868276643
 20
-1507.6784621270108
 10
792.74340467996285
 20
-1507.659709818075
 42
-0.0292492648804001
 10
792.61863574111908
 20
-1507.5426170184312
 42
-0.0159048957490961
 10
792.50479574366875
 20
-1507.4145970268319
 10
792.5034769530896
 20
-1507.413015413812
 42
-0.0343813379568836
 10
792.40083969146406
 20
-1507.2711440880437
 10
792.36934816010262
 20
-1507.2206406959485
 42
-0.036911727570119
 10
792.2834556582053
 20
-1507.0571634550001
 42
-0.0191751379909661
 10
792.21626227264892
 20
-1506.8847588489957
 10
792.21449894888883
 20
-1506.8796655043193
 42
-0.037817804222814
 10
792.16470423010446
 20
-1506.6907247282375
 10
792.15870893437409
 20
-1506.6581641100402
 42
-0.0184846046461173
 10
792.13799173507982
 20
-1506.5164112894961
 42
-0.0179866351316105
 10
792.12765873000626
 20
-1506.3735204764162
 10
792.12760228756042
 20
-1506.3719627898024
 42
-0.008549718613882
 10
792.12617000645662
 20
-1506.2970896247925
 42
-0.008549718613882
  0
ENDBLK
  5
78
100
AcDbEntity
  8
template
390
0
100
AcDbBlockEnd
  0
BLOCK
  5
79
100
AcDbEntity
  8
notes
390
0
100
AcDbBlockBegin
  2
*D4
 70
               1
 10
0.0
 20
0.0
 30
0.0
  3
*D4
  1

  0
LINE
  5
7A
100
AcDbEntity
  8
0
370
              -2
390
0
  6
Continuous
 62
               0
100
AcDbLine
 10
431.3838199513383
 20
-792.02939680536065
 30
0.0
 11
336.34235830139176
 21
-792.02939680536065
 31
0.0
  0
LINE
  5
7B
100
AcDbEntity
  8
0
370
              -2
390
0
  6
Continuous
 62
               0
100
AcDbLine
 10
431.43024342413344
 20
-502.02939680536065
 30
0.0
 11
336.34235830139176
 21
-502.02939680536065
 31
0.0
  0
LINE
  5
7C
100
AcDbEntity
  8
0
370
              -2
390
0
  6
Continuous
 62
               0
100
AcDbLine
 10
336.34235830139176
 20
-792.02939680536065
 30
0.0
 11
336.34235830139176
 21
-502.02939680536065
 31
0.0
  0
CIRCLE
  5
7D
102
{ACAD_REACTORS
330
7E
102
}
100
AcDbEntity
  8
0
370
              -2
390
0
  6
Continuous
 62
               0
100
AcDbCircle
 10
336.34235830139176
 20
-792.02939680536065
 30
0.0
 40
4.99969482421875
  0
HATCH
  5
7E
100
AcDbEntity
  8
0
370
              -2
390
0
  6
Continuous
 62
               0
100
AcDbHatch
 10
0.0
 20
0.0
 30
0.0
210
0.0
220
0.0
230
1.0
  2
SOLID
 70
               1
 71
               1
 91
        1
 92
        1
 93
        1
 72
               2
 10
336.34235830139176
 20
-792.02939680536065
 40
4.99969482421875
 50
0.0
 51
360.0
 73
               0
 97
        1
330
7D
 75
               0
 76
               1
 98
        1
 10
0.0
 20
0.0
  0
CIRCLE
  5
7F
102
{ACAD_REACTORS
330
80
102
}
100
AcDbEntity
  8
0
370
              -2
390
0
  6
Continuous
 62
               0
100
AcDbCircle
 10
336.34235830139176
 20
-502.02939680536065
 30
0.0
 40
4.99969482421875
  0
HATCH
  5
80
100
AcDbEntity
  8
0
370
              -2
390
0
  6
Continuous
 62
               0
100
AcDbHatch
 10
0.0
 20
0.0
 30
0.0
210
0.0
220
0.0
230
1.0
  2
SOLID
 70
               1
 71
               1
 91
        1
 92
        1
 93
        1
 72
               2
 10
336.34235830139176
 20
-502.02939680536065
 40
4.99969482421875
 50
0.0
 51
360.0
 73
               0
 97
        1
330
7F
 75
               0
 76
               1
 98
        1
 10
0.0
 20
0.0
  0
MTEXT
  5
81
100
AcDbEntity
  8
0
390
0
 62
               0
100
AcDbMText
 10
302.46474111389176
 20
-670.84189848753613
 30
0.0
 40
24.432617187500004
 41
0.0
 71
               1
 72
               1
  1
290
  7
ＭＳ ゴシック
 11
0.0
 21
1.0
 31
0.0
 73
               1
 44
0.7828267384257843
  0
POINT
  5
82
100
AcDbEntity
  8
Defpoints
370
               0
390
0
 62
               0
100
AcDbPoint
 10
456.43024342413344
 20
-502.02939680536065
 30
0.0
  0
POINT
  5
83
100
AcDbEntity
  8
Defpoints
370
               0
390
0
 62
               0
100
AcDbPoint
 10
456.3838199513383
 20
-792.02939680536065
 30
0.0
  0
POINT
  5
84
100
AcDbEntity
  8
Defpoints
370
               0
390
0
 62
               0
100
AcDbPoint
 10
336.34235830139176
 20
-792.02939680536065
 30
0.0
  0
ENDBLK
  5
85
100
AcDbEntity
  8
notes
390
0
100
AcDbBlockEnd
  0
BLOCK
  5
86
100
AcDbEntity
  8
notes
390
0
100
AcDbBlockBegin
  2
*D5
 70
               1
 10
0.0
 20
0.0
 30
0.0
  3
*D5
  1

  0
LINE
  5
87
100
AcDbEntity
  8
0
370
              -2
390
0
  6
Continuous
 62
               0
100
AcDbLine
 10
431.43024342413344
 20
-502.02939680536065
 30
0.0
 11
336.3887817741869
 21
-502.02939680536065
 31
0.0
  0
LINE
  5
88
100
AcDbEntity
  8
0
370
              -2
390
0
  6
Continuous
 62
               0
100
AcDbLine
 10
431.43024342413344
 20
-372.02939680535974
 30
0.0
 11
336.3887817741869
 21
-372.02939680535974
 31
0.0
  0
LINE
  5
89
100
AcDbEntity
  8
0
370
              -2
390
0
  6
Continuous
 62
               0
100
AcDbLine
 10
336.3887817741869
 20
-502.02939680536065
 30
0.0
 11
336.3887817741869
 21
-372.02939680535974
 31
0.0
  0
CIRCLE
  5
8A
102
{ACAD_REACTORS
330
8B
102
}
100
AcDbEntity
  8
0
370
              -2
390
0
  6
Continuous
 62
               0
100
AcDbCircle
 10
336.3887817741869
 20
-502.02939680536065
 30
0.0
 40
4.99969482421875
  0
HATCH
  5
8B
100
AcDbEntity
  8
0
370
              -2
390
0
  6
Continuous
 62
               0
100
AcDbHatch
 10
0.0
 20
0.0
 30
0.0
210
0.0
220
0.0
230
1.0
  2
SOLID
 70
               1
 71
               1
 91
        1
 92
        1
 93
        1
 72
               2
 10
336.3887817741869
 20
-502.02939680536065
 40
4.99969482421875
 50
0.0
 51
360.0
 73
               0
 97
        1
330
8A
 75
               0
 76
               1
 98
        1
 10
0.0
 20
0.0
  0
CIRCLE
  5
8C
102
{ACAD_REACTORS
330
8D
102
}
100
AcDbEntity
  8
0
370
              -2
390
0
  6
Continuous
 62
               0
100
AcDbCircle
 10
336.3887817741869
 20
-372.02939680535974
 30
0.0
 40
4.99969482421875
  0
HATCH
  5
8D
100
AcDbEntity
  8
0
370
              -2
390
0
  6
Continuous
 62
               0
100
AcDbHatch
 10
0.0
 20
0.0
 30
0.0
210
0.0
220
0.0
230
1.0
  2
SOLID
 70
               1
 71
               1
 91
        1
 92
        1
 93
        1
 72
               2
 10
336.3887817741869
 20
-372.02939680535974
 40
4.99969482421875
 50
0.0
 51
360.0
 73
               0
 97
        1
330
8C
 75
               0
 76
               1
 98
        1
 10
0.0
 20
0.0
  0
MTEXT
  5
8E
100
AcDbEntity
  8
0
390
0
 62
               0
100
AcDbMText
 10
302.5111645866869
 20
-460.84189848753567
 30
0.0
 40
24.432617187500004
 41
0.0
 71
               1
 72
               1
  1
130
  7
ＭＳ ゴシック
 11
0.0
 21
1.0
 31
0.0
 73
               1
 44
0.7828267384257843
  0
POINT
  5
8F
100
AcDbEntity
  8
Defpoints
370
               0
390
0
 62
               0
100
AcDbPoint
 10
456.43024342413344
 20
-372.02939680535974
 30
0.0
  0
POINT
  5
90
100
AcDbEntity
  8
Defpoints
370
               0
390
0
 62
               0
100
AcDbPoint
 10
456.43024342413344
 20
-502.02939680536065
 30
0.0
  0
POINT
  5
91
100
AcDbEntity
  8
Defpoints
370
               0
390
0
 62
               0
100
AcDbPoint
 10
336.3887817741869
 20
-502.02939680536065
 30
0.0
  0
ENDBLK
  5
92
100
AcDbEntity
  8
notes
390
0
100
AcDbBlockEnd
  0
BLOCK
  5
93
100
AcDbEntity
  8
notes
390
0
100
AcDbBlockBegin
  2
*D6
 70
               1
 10
0.0
 20
0.0
 30
0.0
  3
*D6
  1

  0
LINE
  5
94
100
AcDbEntity
  8
0
370
              -2
390
0
  6
Continuous
 62
               0
100
AcDbLine
 10
431.43024342413344
 20
-372.02939680535974
 30
0.0
 11
336.3887817741869
 21
-372.02939680535974
 31
0.0
  0
LINE
  5
95
100
AcDbEntity
  8
0
370
              -2
390
0
  6
Continuous
 62
               0
100
AcDbLine
 10
431.43024342413344
 20
-82.029396805359596
 30
0.0
 11
336.3887817741869
 21
-82.029396805359596
 31
0.0
  0
LINE
  5
96
100
AcDbEntity
  8
0
370
              -2
390
0
  6
Continuous
 62
               0
100
AcDbLine
 10
336.3887817741869
 20
-372.02939680535974
 30
0.0
 11
336.3887817741869
 21
-82.029396805359596
 31
0.0
  0
CIRCLE
  5
97
102
{ACAD_REACTORS
330
98
102
}
100
AcDbEntity
  8
0
370
              -2
390
0
  6
Continuous
 62
               0
100
AcDbCircle
 10
336.3887817741869
 20
-372.02939680535974
 30
0.0
 40
4.99969482421875
  0
HATCH
  5
98
100
AcDbEntity
  8
0
370
              -2
390
0
  6
Continuous
 62
               0
100
AcDbHatch
 10
0.0
 20
0.0
 30
0.0
210
0.0
220
0.0
230
1.0
  2
SOLID
 70
               1
 71
               1
 91
        1
 92
        1
 93
        1
 72
               2
 10
336.3887817741869
 20
-372.02939680535974
 40
4.99969482421875
 50
0.0
 51
360.0
 73
               0
 97
        1
330
97
 75
               0
 76
               1
 98
        1
 10
0.0
 20
0.0
  0
CIRCLE
  5
99
102
{ACAD_REACTORS
330
9A
102
}
100
AcDbEntity
  8
0
370
              -2
390
0
  6
Continuous
 62
               0
100
AcDbCircle
 10
336.3887817741869
 20
-82.029396805359596
 30
0.0
 40
4.99969482421875
  0
HATCH
  5
9A
100
AcDbEntity
  8
0
370
              -2
390
0
  6
Continuous
 62
               0
100
AcDbHatch
 10
0.0
 20
0.0
 30
0.0
210
0.0
220
0.0
230
1.0
  2
SOLID
 70
               1
 71
               1
 91
        1
 92
        1
 93
        1
 72
               2
 10
336.3887817741869
 20
-82.029396805359596
 40
4.99969482421875
 50
0.0
 51
360.0
 73
               0
 97
        1
330
99
 75
               0
 76
               1
 98
        1
 10
0.0
 20
0.0
  0
MTEXT
  5
9B
100
AcDbEntity
  8
0
390
0
 62
               0
100
AcDbMText
 10
302.5111645866869
 20
-250.84189848753519
 30
0.0
 40
24.432617187500004
 41
0.0
 71
               1
 72
               1
  1
290
  7
ＭＳ ゴシック
 11
0.0
 21
1.0
 31
0.0
 73
               1
 44
0.7828267384257843
  0
POINT
  5
9C
100
AcDbEntity
  8
Defpoints
370
               0
390
0
 62
               0
100
AcDbPoint
 10
456.43024342413344
 20
-82.029396805359596
 30
0.0
  0
POINT
  5
9D
100
AcDbEntity
  8
Defpoints
370
               0
390
0
 62
               0
100
AcDbPoint
 10
456.43024342413344
 20
-372.02939680535974
 30
0.0
  0
POINT
  5
9E
100
AcDbEntity
  8
Defpoints
370
               0
390
0
 62
               0
100
AcDbPoint
 10
336.3887817741869
 20
-372.02939680535974
 30
0.0
  0
ENDBLK
  5
9F
100
AcDbEntity
  8
notes
390
0
100
AcDbBlockEnd
  0
BLOCK
  5
A0
100
AcDbEntity
  8
notes
390
0
100
AcDbBlockBegin
  2
*D7
 70
               1
 10
0.0
 20
0.0
 30
0.0
  3
*D7
  1

  0
LINE
  5
A1
100
AcDbEntity
  8
0
370
              -2
390
0
  6
Continuous
 62
               0
100
AcDbLine
 10
476.43024342413321
 20
-867.02939680536065
 30
0.0
 11
476.43024342413321
 21
-1062.0293968053588
 31
0.0
  0
LINE
  5
A2
100
AcDbEntity
  8
0
370
              -2
390
0
  6
Continuous
 62
               0
100
AcDbLine
 10
436.38878177418695
 20
-963.12939680535908
 30
0.0
 11
436.38878177418695
 21
-1062.0293968053588
 31
0.0
  0
LINE
  5
A3
100
AcDbEntity
  8
0
370
              -2
390
0
  6
Continuous
 62
               0
100
AcDbLine
 10
476.43024342413321
 20
-1062.0293968053588
 30
0.0
 11
436.38878177418695
 21
-1062.0293968053588
 31
0.0
  0
CIRCLE
  5
A4
102
{ACAD_REACTORS
330
A5
102
}
100
AcDbEntity
  8
0
370
              -2
390
0
  6
Continuous
 62
               0
100
AcDbCircle
 10
476.43024342413321
 20
-1062.0293968053588
 30
0.0
 40
4.99969482421875
  0
HATCH
  5
A5
100
AcDbEntity
  8
0
370
              -2
390
0
  6
Continuous
 62
               0
100
AcDbHatch
 10
0.0
 20
0.0
 30
0.0
210
0.0
220
0.0
230
1.0
  2
SOLID
 70
               1
 71
               1
 91
        1
 92
        1
 93
        1
 72
               2
 10
476.43024342413321
 20
-1062.0293968053588
 40
4.99969482421875
 50
0.0
 51
360.0
 73
               0
 97
        1
330
A4
 75
               0
 76
               1
 98
        1
 10
0.0
 20
0.0
  0
CIRCLE
  5
A6
102
{ACAD_REACTORS
330
A7
102
}
100
AcDbEntity
  8
0
370
              -2
390
0
  6
Continuous
 62
               0
100
AcDbCircle
 10
436.38878177418695
 20
-1062.0293968053588
 30
0.0
 40
4.99969482421875
  0
HATCH
  5
A7
100
AcDbEntity
  8
0
370
              -2
390
0
  6
Continuous
 62
               0
100
AcDbHatch
 10
0.0
 20
0.0
 30
0.0
210
0.0
220
0.0
230
1.0
  2
SOLID
 70
               1
 71
               1
 91
        1
 92
        1
 93
        1
 72
               2
 10
436.38878177418695
 20
-1062.0293968053588
 40
4.99969482421875
 50
0.0
 51
360.0
 73
               0
 97
        1
330
A6
 75
               0
 76
               1
 98
        1
 10
0.0
 20
0.0
  0
MTEXT
  5
A8
100
AcDbEntity
  8
0
390
0
 62
               0
100
AcDbMText
 10
440.53451259916005
 20
-1028.1517796178589
 30
0.0
 40
24.432617187500004
 41
0.0
 71
               1
 72
               1
  1
40
  7
ＭＳ ゴシック
 73
               1
 44
0.7828267384257843
  0
POINT
  5
A9
100
AcDbEntity
  8
Defpoints
370
               0
390
0
 62
               0
100
AcDbPoint
 10
436.38878177418695
 20
-938.12939680535908
 30
0.0
  0
POINT
  5
AA
100
AcDbEntity
  8
Defpoints
370
               0
390
0
 62
               0
100
AcDbPoint
 10
476.43024342413321
 20
-842.02939680536065
 30
0.0
  0
POINT
  5
AB
100
AcDbEntity
  8
Defpoints
370
               0
390
0
 62
               0
100
AcDbPoint
 10
476.43024342413321
 20
-1062.0293968053588
 30
0.0
  0
ENDBLK
  5
AC
100
AcDbEntity
  8
notes
390
0
100
AcDbBlockEnd
  0
BLOCK
  5
AD
100
AcDbEntity
  8
notes
390
0
100
AcDbBlockBegin
  2
*D8
 70
               1
 10
0.0
 20
0.0
 30
0.0
  3
*D8
  1

  0
LINE
  5
AE
100
AcDbEntity
  8
0
370
              -2
390
0
  6
Continuous
 62
               0
100
AcDbLine
 10
-683.1023413846043
 20
-942.06986540798414
 30
0.0
 11
-813.10234138460385
 21
-942.06986540798414
 31
0.0
  0
LINE
  5
AF
100
AcDbEntity
  8
0
370
              -2
390
0
  6
Continuous
 62
               0
100
AcDbLine
 10
-683.10234138460385
 20
57.930134592016714
 30
0.0
 11
-813.10234138460385
 21
57.930134592016714
 31
0.0
  0
LINE
  5
B0
100
AcDbEntity
  8
0
370
              -2
390
0
  6
Continuous
 62
               0
100
AcDbLine
 10
-813.10234138460385
 20
-942.06986540798414
 30
0.0
 11
-813.10234138460385
 21
57.930134592016714
 31
0.0
  0
CIRCLE
  5
B1
102
{ACAD_REACTORS
330
B2
102
}
100
AcDbEntity
  8
0
370
              -2
390
0
  6
Continuous
 62
               0
100
AcDbCircle
 10
-813.10234138460385
 20
-942.06986540798414
 30
0.0
 40
4.99969482421875
  0
HATCH
  5
B2
100
AcDbEntity
  8
0
370
              -2
390
0
  6
Continuous
 62
               0
100
AcDbHatch
 10
0.0
 20
0.0
 30
0.0
210
0.0
220
0.0
230
1.0
  2
SOLID
 70
               1
 71
               1
 91
        1
 92
        1
 93
        1
 72
               2
 10
-813.10234138460385
 20
-942.06986540798414
 40
4.99969482421875
 50
0.0
 51
360.0
 73
               0
 97
        1
330
B1
 75
               0
 76
               1
 98
        1
 10
0.0
 20
0.0
  0
CIRCLE
  5
B3
102
{ACAD_REACTORS
330
B4
102
}
100
AcDbEntity
  8
0
370
              -2
390
0
  6
Continuous
 62
               0
100
AcDbCircle
 10
-813.10234138460385
 20
57.930134592016714
 30
0.0
 40
4.99969482421875
  0
HATCH
  5
B4
100
AcDbEntity
  8
0
370
              -2
390
0
  6
Continuous
 62
               0
100
AcDbHatch
 10
0.0
 20
0.0
 30
0.0
210
0.0
220
0.0
230
1.0
  2
SOLID
 70
               1
 71
               1
 91
        1
 92
        1
 93
        1
 72
               2
 10
-813.10234138460385
 20
57.930134592016714
 40
4.99969482421875
 50
0.0
 51
360.0
 73
               0
 97
        1
330
B3
 75
               0
 76
               1
 98
        1
 10
0.0
 20
0.0
  0
MTEXT
  5
B5
100
AcDbEntity
  8
0
390
0
 62
               0
100
AcDbMText
 10
-846.9799585721039
 20
-473.81986540798368
 30
0.0
 40
24.432617187500004
 41
0.0
 71
               1
 72
               1
  1
1000
  7
ＭＳ ゴシック
 11
0.0
 21
1.0
 31
0.0
 73
               1
 44
0.7828267384257843
  0
POINT
  5
B6
100
AcDbEntity
  8
Defpoints
370
               0
390
0
 62
               0
100
AcDbPoint
 10
-658.10234138460385
 20
57.930134592016714
 30
0.0
  0
POINT
  5
B7
100
AcDbEntity
  8
Defpoints
370
               0
390
0
 62
               0
100
AcDbPoint
 10
-658.1023413846043
 20
-942.06986540798414
 30
0.0
  0
POINT
  5
B8
100
AcDbEntity
  8
Defpoints
370
               0
390
0
 62
               0
100
AcDbPoint
 10
-813.10234138460385
 20
-942.06986540798414
 30
0.0
  0
ENDBLK
  5
B9
100
AcDbEntity
  8
notes
390
0
100
AcDbBlockEnd
  0
BLOCK
  5
BA
100
AcDbEntity
  8
notes
390
0
100
AcDbBlockBegin
  2
*D9
 70
               1
 10
0.0
 20
0.0
 30
0.0
  3
*D9
  1

  0
LINE
  5
BB
100
AcDbEntity
  8
0
370
              -2
390
0
  6
Continuous
 62
               0
100
AcDbLine
 10
-138.10234138460163
 20
-667.0924979724258
 30
0.0
 11
-63.10234138460163
 21
-667.0924979724258
 31
0.0
  0
LINE
  5
BC
100
AcDbEntity
  8
0
370
              -2
390
0
  6
Continuous
 62
               0
100
AcDbLine
 10
-138.10234138460163
 20
-217.09249797242487
 30
0.0
 11
-63.10234138460163
 21
-217.09249797242487
 31
0.0
  0
LINE
  5
BD
100
AcDbEntity
  8
0
370
              -2
390
0
  6
Continuous
 62
               0
100
AcDbLine
 10
-63.10234138460163
 20
-667.0924979724258
 30
0.0
 11
-63.10234138460163
 21
-217.09249797242487
 31
0.0
  0
CIRCLE
  5
BE
102
{ACAD_REACTORS
330
BF
102
}
100
AcDbEntity
  8
0
370
              -2
390
0
  6
Continuous
 62
               0
100
AcDbCircle
 10
-63.10234138460163
 20
-667.0924979724258
 30
0.0
 40
4.99969482421875
  0
HATCH
  5
BF
100
AcDbEntity
  8
0
370
              -2
390
0
  6
Continuous
 62
               0
100
AcDbHatch
 10
0.0
 20
0.0
 30
0.0
210
0.0
220
0.0
230
1.0
  2
SOLID
 70
               1
 71
               1
 91
        1
 92
        1
 93
        1
 72
               2
 10
-63.10234138460163
 20
-667.0924979724258
 40
4.99969482421875
 50
0.0
 51
360.0
 73
               0
 97
        1
330
BE
 75
               0
 76
               1
 98
        1
 10
0.0
 20
0.0
  0
CIRCLE
  5
C0
102
{ACAD_REACTORS
330
C1
102
}
100
AcDbEntity
  8
0
370
              -2
390
0
  6
Continuous
 62
               0
100
AcDbCircle
 10
-63.10234138460163
 20
-217.09249797242487
 30
0.0
 40
4.99969482421875
  0
HATCH
  5
C1
100
AcDbEntity
  8
0
370
              -2
390
0
  6
Continuous
 62
               0
100
AcDbHatch
 10
0.0
 20
0.0
 30
0.0
210
0.0
220
0.0
230
1.0
  2
SOLID
 70
               1
 71
               1
 91
        1
 92
        1
 93
        1
 72
               2
 10
-63.10234138460163
 20
-217.09249797242487
 40
4.99969482421875
 50
0.0
 51
360.0
 73
               0
 97
        1
330
C0
 75
               0
 76
               1
 98
        1
 10
0.0
 20
0.0
  0
MTEXT
  5
C2
100
AcDbEntity
  8
0
390
0
 62
               0
100
AcDbMText
 10
-96.979958572101623
 20
-465.90499965460083
 30
0.0
 40
24.432617187500004
 41
0.0
 71
               1
 72
               1
  1
450
  7
ＭＳ ゴシック
 11
0.0
 21
1.0
 31
0.0
 73
               1
 44
0.7828267384257843
  0
POINT
  5
C3
100
AcDbEntity
  8
Defpoints
370
               0
390
0
 62
               0
100
AcDbPoint
 10
-163.10234138460163
 20
-217.09249797242487
 30
0.0
  0
POINT
  5
C4
100
AcDbEntity
  8
Defpoints
370
               0
390
0
 62
               0
100
AcDbPoint
 10
-163.10234138460163
 20
-667.0924979724258
 30
0.0
  0
POINT
  5
C5
100
AcDbEntity
  8
Defpoints
370
               0
390
0
 62
               0
100
AcDbPoint
 10
-63.10234138460163
 20
-667.0924979724258
 30
0.0
  0
ENDBLK
  5
C6
100
AcDbEntity
  8
notes
390
0
100
AcDbBlockEnd
  0
BLOCK
  5
C7
100
AcDbEntity
  8
notes
390
0
100
AcDbBlockBegin
  2
*D10
 70
               1
 10
0.0
 20
0.0
 30
0.0
  3
*D10
  1

  0
LINE
  5
C8
100
AcDbEntity
  8
0
370
              -2
390
0
  6
Continuous
 62
               0
100
AcDbLine
 10
-663.10234138460385
 20
77.930134592016714
 30
0.0
 11
-663.10234138460385
 21
157.93013459201671
 31
0.0
  0
LINE
  5
C9
100
AcDbEntity
  8
0
370
              -2
390
0
  6
Continuous
 62
               0
100
AcDbLine
 10
-163.10234138460163
 20
77.930134592016714
 30
0.0
 11
-163.10234138460163
 21
157.93013459201671
 31
0.0
  0
LINE
  5
CA
100
AcDbEntity
  8
0
370
              -2
390
0
  6
Continuous
 62
               0
100
AcDbLine
 10
-663.10234138460385
 20
157.93013459201671
 30
0.0
 11
-163.10234138460163
 21
157.93013459201671
 31
0.0
  0
CIRCLE
  5
CB
102
{ACAD_REACTORS
330
CC
102
}
100
AcDbEntity
  8
0
370
              -2
390
0
  6
Continuous
 62
               0
100
AcDbCircle
 10
-663.10234138460385
 20
157.93013459201671
 30
0.0
 40
4.99969482421875
  0
HATCH
  5
CC
100
AcDbEntity
  8
0
370
              -2
390
0
  6
Continuous
 62
               0
100
AcDbHatch
 10
0.0
 20
0.0
 30
0.0
210
0.0
220
0.0
230
1.0
  2
SOLID
 70
               1
 71
               1
 91
        1
 92
        1
 93
        1
 72
               2
 10
-663.10234138460385
 20
157.93013459201671
 40
4.99969482421875
 50
0.0
 51
360.0
 73
               0
 97
        1
330
CB
 75
               0
 76
               1
 98
        1
 10
0.0
 20
0.0
  0
CIRCLE
  5
CD
102
{ACAD_REACTORS
330
CE
102
}
100
AcDbEntity
  8
0
370
              -2
390
0
  6
Continuous
 62
               0
100
AcDbCircle
 10
-163.10234138460163
 20
157.93013459201671
 30
0.0
 40
4.99969482421875
  0
HATCH
  5
CE
100
AcDbEntity
  8
0
370
              -2
390
0
  6
Continuous
 62
               0
100
AcDbHatch
 10
0.0
 20
0.0
 30
0.0
210
0.0
220
0.0
230
1.0
  2
SOLID
 70
               1
 71
               1
 91
        1
 92
        1
 93
        1
 72
               2
 10
-163.10234138460163
 20
157.93013459201671
 40
4.99969482421875
 50
0.0
 51
360.0
 73
               0
 97
        1
330
CD
 75
               0
 76
               1
 98
        1
 10
0.0
 20
0.0
  0
MTEXT
  5
CF
100
AcDbEntity
  8
0
390
0
 62
               0
100
AcDbMText
 10
-436.91484306677819
 20
191.80775177951671
 30
0.0
 40
24.432617187500004
 41
0.0
 71
               1
 72
               1
  1
500
  7
ＭＳ ゴシック
 73
               1
 44
0.7828267384257843
  0
POINT
  5
D0
100
AcDbEntity
  8
Defpoints
370
               0
390
0
 62
               0
100
AcDbPoint
 10
-163.10234138460163
 20
52.930134592016714
 30
0.0
  0
POINT
  5
D1
100
AcDbEntity
  8
Defpoints
370
               0
390
0
 62
               0
100
AcDbPoint
 10
-663.10234138460385
 20
52.930134592016714
 30
0.0
  0
POINT
  5
D2
100
AcDbEntity
  8
Defpoints
370
               0
390
0
 62
               0
100
AcDbPoint
 10
-663.10234138460385
 20
157.93013459201671
 30
0.0
  0
ENDBLK
  5
D3
100
AcDbEntity
  8
notes
390
0
100
AcDbBlockEnd
  0
BLOCK
  5
D4
100
AcDbEntity
  8
notes
390
0
100
AcDbBlockBegin
  2
*D11
 70
               1
 10
0.0
 20
0.0
 30
0.0
  3
*D11
  1

  0
LINE
  5
D5
100
AcDbEntity
  8
0
370
              -2
390
0
  6
Continuous
 62
               0
100
AcDbLine
 10
-233.11618004866165
 20
998.85697485806918
 30
0.0
 11
-233.11618004866165
 21
1073.8569748580692
 31
0.0
  0
LINE
  5
D6
100
AcDbEntity
  8
0
370
              -2
390
0
  6
Continuous
 62
               0
100
AcDbLine
 10
-663.11618004866386
 20
998.85697485806918
 30
0.0
 11
-663.11618004866386
 21
1073.8569748580692
 31
0.0
  0
LINE
  5
D7
100
AcDbEntity
  8
0
370
              -2
390
0
  6
Continuous
 62
               0
100
AcDbLine
 10
-233.11618004866165
 20
1073.8569748580692
 30
0.0
 11
-663.11618004866386
 21
1073.8569748580692
 31
0.0
  0
CIRCLE
  5
D8
102
{ACAD_REACTORS
330
D9
102
}
100
AcDbEntity
  8
0
370
              -2
390
0
  6
Continuous
 62
               0
100
AcDbCircle
 10
-233.11618004866165
 20
1073.8569748580692
 30
0.0
 40
4.99969482421875
  0
HATCH
  5
D9
100
AcDbEntity
  8
0
370
              -2
390
0
  6
Continuous
 62
               0
100
AcDbHatch
 10
0.0
 20
0.0
 30
0.0
210
0.0
220
0.0
230
1.0
  2
SOLID
 70
               1
 71
               1
 91
        1
 92
        1
 93
        1
 72
               2
 10
-233.11618004866165
 20
1073.8569748580692
 40
4.99969482421875
 50
0.0
 51
360.0
 73
               0
 97
        1
330
D8
 75
               0
 76
               1
 98
        1
 10
0.0
 20
0.0
  0
CIRCLE
  5
DA
102
{ACAD_REACTORS
330
DB
102
}
100
AcDbEntity
  8
0
370
              -2
390
0
  6
Continuous
 62
               0
100
AcDbCircle
 10
-663.11618004866386
 20
1073.8569748580692
 30
0.0
 40
4.99969482421875
  0
HATCH
  5
DB
100
AcDbEntity
  8
0
370
              -2
390
0
  6
Continuous
 62
               0
100
AcDbHatch
 10
0.0
 20
0.0
 30
0.0
210
0.0
220
0.0
230
1.0
  2
SOLID
 70
               1
 71
               1
 91
        1
 92
        1
 93
        1
 72
               2
 10
-663.11618004866386
 20
1073.8569748580692
 40
4.99969482421875
 50
0.0
 51
360.0
 73
               0
 97
        1
330
DA
 75
               0
 76
               1
 98
        1
 10
0.0
 20
0.0
  0
MTEXT
  5
DC
100
AcDbEntity
  8
0
390
0
 62
               0
100
AcDbMText
 10
-471.92868173083821
 20
1107.7345920455691
 30
0.0
 40
24.432617187500004
 41
0.0
 71
               1
 72
               1
  1
430
  7
ＭＳ ゴシック
 73
               1
 44
0.7828267384257843
  0
POINT
  5
DD
100
AcDbEntity
  8
Defpoints
370
               0
390
0
 62
               0
100
AcDbPoint
 10
-663.11618004866386
 20
973.85697485806918
 30
0.0
  0
POINT
  5
DE
100
AcDbEntity
  8
Defpoints
370
               0
390
0
 62
               0
100
AcDbPoint
 10
-233.11618004866165
 20
973.85697485806918
 30
0.0
  0
POINT
  5
DF
100
AcDbEntity
  8
Defpoints
370
               0
390
0
 62
               0
100
AcDbPoint
 10
-233.11618004866165
 20
1073.8569748580692
 30
0.0
  0
ENDBLK
  5
E0
100
AcDbEntity
  8
notes
390
0
100
AcDbBlockEnd
  0
BLOCK
  5
E1
100
AcDbEntity
  8
notes
390
0
100
AcDbBlockBegin
  2
*D12
 70
               1
 10
0.0
 20
0.0
 30
0.0
  3
*D12
  1

  0
LINE
  5
E2
100
AcDbEntity
  8
0
370
              -2
390
0
  6
Continuous
 62
               0
100
AcDbLine
 10
-208.11618004866165
 20
973.85697485806918
 30
0.0
 11
-63.10234138460163
 21
973.85697485806918
 31
0.0
  0
LINE
  5
E3
100
AcDbEntity
  8
0
370
              -2
390
0
  6
Continuous
 62
               0
100
AcDbLine
 10
-208.11618004866165
 20
593.85697485806975
 30
0.0
 11
-63.10234138460163
 21
593.85697485806975
 31
0.0
  0
LINE
  5
E4
100
AcDbEntity
  8
0
370
              -2
390
0
  6
Continuous
 62
               0
100
AcDbLine
 10
-63.10234138460163
 20
973.85697485806918
 30
0.0
 11
-63.10234138460163
 21
593.85697485806975
 31
0.0
  0
CIRCLE
  5
E5
102
{ACAD_REACTORS
330
E6
102
}
100
AcDbEntity
  8
0
370
              -2
390
0
  6
Continuous
 62
               0
100
AcDbCircle
 10
-63.10234138460163
 20
973.85697485806918
 30
0.0
 40
4.99969482421875
  0
HATCH
  5
E6
100
AcDbEntity
  8
0
370
              -2
390
0
  6
Continuous
 62
               0
100
AcDbHatch
 10
0.0
 20
0.0
 30
0.0
210
0.0
220
0.0
230
1.0
  2
SOLID
 70
               1
 71
               1
 91
        1
 92
        1
 93
        1
 72
               2
 10
-63.10234138460163
 20
973.85697485806918
 40
4.99969482421875
 50
0.0
 51
360.0
 73
               0
 97
        1
330
E5
 75
               0
 76
               1
 98
        1
 10
0.0
 20
0.0
  0
CIRCLE
  5
E7
102
{ACAD_REACTORS
330
E8
102
}
100
AcDbEntity
  8
0
370
              -2
390
0
  6
Continuous
 62
               0
100
AcDbCircle
 10
-63.10234138460163
 20
593.85697485806975
 30
0.0
 40
4.99969482421875
  0
HATCH
  5
E8
100
AcDbEntity
  8
0
370
              -2
390
0
  6
Continuous
 62
               0
100
AcDbHatch
 10
0.0
 20
0.0
 30
0.0
210
0.0
220
0.0
230
1.0
  2
SOLID
 70
               1
 71
               1
 91
        1
 92
        1
 93
        1
 72
               2
 10
-63.10234138460163
 20
593.85697485806975
 40
4.99969482421875
 50
0.0
 51
360.0
 73
               0
 97
        1
330
E7
 75
               0
 76
               1
 98
        1
 10
0.0
 20
0.0
  0
MTEXT
  5
E9
100
AcDbEntity
  8
0
390
0
 62
               0
100
AcDbMText
 10
-96.979958572101623
 20
760.04447317589404
 30
0.0
 40
24.432617187500004
 41
0.0
 71
               1
 72
               1
  1
380
  7
ＭＳ ゴシック
 11
0.0
 21
1.0
 31
0.0
 73
               1
 44
0.7828267384257843
  0
POINT
  5
EA
100
AcDbEntity
  8
Defpoints
370
               0
390
0
 62
               0
100
AcDbPoint
 10
-233.11618004866165
 20
593.85697485806975
 30
0.0
  0
POINT
  5
EB
100
AcDbEntity
  8
Defpoints
370
               0
390
0
 62
               0
100
AcDbPoint
 10
-233.11618004866165
 20
973.85697485806918
 30
0.0
  0
POINT
  5
EC
100
AcDbEntity
  8
Defpoints
370
               0
390
0
 62
               0
100
AcDbPoint
 10
-63.10234138460163
 20
973.85697485806918
 30
0.0
  0
ENDBLK
  5
ED
100
AcDbEntity
  8
notes
390
0
100
AcDbBlockEnd
  0
BLOCK
  5
EE
100
AcDbEntity
  8
notes
390
0
100
AcDbBlockBegin
  2
*D13
 70
               1
 10
0.0
 20
0.0
 30
0.0
  3
*D13
  1

  0
LINE
  5
EF
100
AcDbEntity
  8
0
370
              -2
390
0
  6
Continuous
 62
               0
100
AcDbLine
 10
-388.11618004866182
 20
908.85697485806918
 30
0.0
 11
-313.11618004866182
 21
908.85697485806918
 31
0.0
  0
LINE
  5
F0
100
AcDbEntity
  8
0
370
              -2
390
0
  6
Continuous
 62
               0
100
AcDbLine
 10
-388.11618004866182
 20
658.85697485806918
 30
0.0
 11
-313.11618004866182
 21
658.85697485806918
 31
0.0
  0
LINE
  5
F1
100
AcDbEntity
  8
0
370
              -2
390
0
  6
Continuous
 62
               0
100
AcDbLine
 10
-313.11618004866182
 20
908.85697485806918
 30
0.0
 11
-313.11618004866182
 21
658.85697485806918
 31
0.0
  0
CIRCLE
  5
F2
102
{ACAD_REACTORS
330
F3
102
}
100
AcDbEntity
  8
0
370
              -2
390
0
  6
Continuous
 62
               0
100
AcDbCircle
 10
-313.11618004866182
 20
908.85697485806918
 30
0.0
 40
4.99969482421875
  0
HATCH
  5
F3
100
AcDbEntity
  8
0
370
              -2
390
0
  6
Continuous
 62
               0
100
AcDbHatch
 10
0.0
 20
0.0
 30
0.0
210
0.0
220
0.0
230
1.0
  2
SOLID
 70
               1
 71
               1
 91
        1
 92
        1
 93
        1
 72
               2
 10
-313.11618004866182
 20
908.85697485806918
 40
4.99969482421875
 50
0.0
 51
360.0
 73
               0
 97
        1
330
F2
 75
               0
 76
               1
 98
        1
 10
0.0
 20
0.0
  0
CIRCLE
  5
F4
102
{ACAD_REACTORS
330
F5
102
}
100
AcDbEntity
  8
0
370
              -2
390
0
  6
Continuous
 62
               0
100
AcDbCircle
 10
-313.11618004866182
 20
658.85697485806918
 30
0.0
 40
4.99969482421875
  0
HATCH
  5
F5
100
AcDbEntity
  8
0
370
              -2
390
0
  6
Continuous
 62
               0
100
AcDbHatch
 10
0.0
 20
0.0
 30
0.0
210
0.0
220
0.0
230
1.0
  2
SOLID
 70
               1
 71
               1
 91
        1
 92
        1
 93
        1
 72
               2
 10
-313.11618004866182
 20
658.85697485806918
 40
4.99969482421875
 50
0.0
 51
360.0
 73
               0
 97
        1
330
F4
 75
               0
 76
               1
 98
        1
 10
0.0
 20
0.0
  0
MTEXT
  5
F6
100
AcDbEntity
  8
0
390
0
 62
               0
100
AcDbMText
 10
-346.99379723616181
 20
760.0444731758937
 30
0.0
 40
24.432617187500004
 41
0.0
 71
               1
 72
               1
  1
250
  7
ＭＳ ゴシック
 11
0.0
 21
1.0
 31
0.0
 73
               1
 44
0.7828267384257843
  0
POINT
  5
F7
100
AcDbEntity
  8
Defpoints
370
               0
390
0
 62
               0
100
AcDbPoint
 10
-413.11618004866182
 20
658.85697485806918
 30
0.0
  0
POINT
  5
F8
100
AcDbEntity
  8
Defpoints
370
               0
390
0
 62
               0
100
AcDbPoint
 10
-413.11618004866182
 20
908.85697485806918
 30
0.0
  0
POINT
  5
F9
100
AcDbEntity
  8
Defpoints
370
               0
390
0
 62
               0
100
AcDbPoint
 10
-313.11618004866182
 20
908.85697485806918
 30
0.0
  0
ENDBLK
  5
FA
100
AcDbEntity
  8
notes
390
0
100
AcDbBlockEnd
  0
BLOCK
  5
FB
100
AcDbEntity
  8
notes
390
0
100
AcDbBlockBegin
  2
*D14
 70
               1
 10
0.0
 20
0.0
 30
0.0
  3
*D14
  1

  0
LINE
  5
FC
100
AcDbEntity
  8
0
370
              -2
390
0
  6
Continuous
 62
               0
100
AcDbLine
 10
-413.11618004866182
 20
633.85697485806918
 30
0.0
 11
-413.11618004866182
 21
493.85697485806918
 31
0.0
  0
LINE
  5
FD
100
AcDbEntity
  8
0
370
              -2
390
0
  6
Continuous
 62
               0
100
AcDbLine
 10
-663.11618004866386
 20
637.48202913846626
 30
0.0
 11
-663.11618004866386
 21
493.85697485806918
 31
0.0
  0
LINE
  5
FE
100
AcDbEntity
  8
0
370
              -2
390
0
  6
Continuous
 62
               0
100
AcDbLine
 10
-413.11618004866182
 20
493.85697485806918
 30
0.0
 11
-663.11618004866386
 21
493.85697485806918
 31
0.0
  0
CIRCLE
  5
FF
102
{ACAD_REACTORS
330
100
102
}
100
AcDbEntity
  8
0
370
              -2
390
0
  6
Continuous
 62
               0
100
AcDbCircle
 10
-413.11618004866182
 20
493.85697485806918
 30
0.0
 40
4.99969482421875
  0
HATCH
  5
100
100
AcDbEntity
  8
0
370
              -2
390
0
  6
Continuous
 62
               0
100
AcDbHatch
 10
0.0
 20
0.0
 30
0.0
210
0.0
220
0.0
230
1.0
  2
SOLID
 70
               1
 71
               1
 91
        1
 92
        1
 93
        1
 72
               2
 10
-413.11618004866182
 20
493.85697485806918
 40
4.99969482421875
 50
0.0
 51
360.0
 73
               0
 97
        1
330
FF
 75
               0
 76
               1
 98
        1
 10
0.0
 20
0.0
  0
CIRCLE
  5
101
102
{ACAD_REACTORS
330
102
102
}
100
AcDbEntity
  8
0
370
              -2
390
0
  6
Continuous
 62
               0
100
AcDbCircle
 10
-663.11618004866386
 20
493.85697485806918
 30
0.0
 40
4.99969482421875
  0
HATCH
  5
102
100
AcDbEntity
  8
0
370
              -2
390
0
  6
Continuous
 62
               0
100
AcDbHatch
 10
0.0
 20
0.0
 30
0.0
210
0.0
220
0.0
230
1.0
  2
SOLID
 70
               1
 71
               1
 91
        1
 92
        1
 93
        1
 72
               2
 10
-663.11618004866386
 20
493.85697485806918
 40
4.99969482421875
 50
0.0
 51
360.0
 73
               0
 97
        1
330
101
 75
               0
 76
               1
 98
        1
 10
0.0
 20
0.0
  0
MTEXT
  5
103
100
AcDbEntity
  8
0
390
0
 62
               0
100
AcDbMText
 10
-561.92868173083832
 20
527.73459204556912
 30
0.0
 40
24.432617187500004
 41
0.0
 71
               1
 72
               1
  1
250
  7
ＭＳ ゴシック
 73
               1
 44
0.7828267384257843
  0
POINT
  5
104
100
AcDbEntity
  8
Defpoints
370
               0
390
0
 62
               0
100
AcDbPoint
 10
-663.11618004866386
 20
662.48202913846626
 30
0.0
  0
POINT
  5
105
100
AcDbEntity
  8
Defpoints
370
               0
390
0
 62
               0
100
AcDbPoint
 10
-413.11618004866182
 20
658.85697485806918
 30
0.0
  0
POINT
  5
106
100
AcDbEntity
  8
Defpoints
370
               0
390
0
 62
               0
100
AcDbPoint
 10
-413.11618004866182
 20
493.85697485806918
 30
0.0
  0
ENDBLK
  5
107
100
AcDbEntity
  8
notes
390
0
100
AcDbBlockEnd
  0
BLOCK
  5
108
100
AcDbEntity
  8
notes
390
0
100
AcDbBlockBegin
  2
*D15
 70
               1
 10
0.0
 20
0.0
 30
0.0
  3
*D15
  1

  0
LINE
  5
109
100
AcDbEntity
  8
0
370
              -2
390
0
  6
Continuous
 62
               0
100
AcDbLine
 10
-138.10234138460163
 20
-667.0924979724258
 30
0.0
 11
-63.10234138460163
 21
-667.0924979724258
 31
0.0
  0
LINE
  5
10A
100
AcDbEntity
  8
0
370
              -2
390
0
  6
Continuous
 62
               0
100
AcDbLine
 10
-143.10234138460163
 20
-942.06986540798414
 30
0.0
 11
-63.10234138460163
 21
-942.06986540798414
 31
0.0
  0
LINE
  5
10B
100
AcDbEntity
  8
0
370
              -2
390
0
  6
Continuous
 62
               0
100
AcDbLine
 10
-63.10234138460163
 20
-667.0924979724258
 30
0.0
 11
-63.10234138460163
 21
-942.06986540798414
 31
0.0
  0
CIRCLE
  5
10C
102
{ACAD_REACTORS
330
10D
102
}
100
AcDbEntity
  8
0
370
              -2
390
0
  6
Continuous
 62
               0
100
AcDbCircle
 10
-63.10234138460163
 20
-667.0924979724258
 30
0.0
 40
4.99969482421875
  0
HATCH
  5
10D
100
AcDbEntity
  8
0
370
              -2
390
0
  6
Continuous
 62
               0
100
AcDbHatch
 10
0.0
 20
0.0
 30
0.0
210
0.0
220
0.0
230
1.0
  2
SOLID
 70
               1
 71
               1
 91
        1
 92
        1
 93
        1
 72
               2
 10
-63.10234138460163
 20
-667.0924979724258
 40
4.99969482421875
 50
0.0
 51
360.0
 73
               0
 97
        1
330
10C
 75
               0
 76
               1
 98
        1
 10
0.0
 20
0.0
  0
CIRCLE
  5
10E
102
{ACAD_REACTORS
330
10F
102
}
100
AcDbEntity
  8
0
370
              -2
390
0
  6
Continuous
 62
               0
100
AcDbCircle
 10
-63.10234138460163
 20
-942.06986540798414
 30
0.0
 40
4.99969482421875
  0
HATCH
  5
10F
100
AcDbEntity
  8
0
370
              -2
390
0
  6
Continuous
 62
               0
100
AcDbHatch
 10
0.0
 20
0.0
 30
0.0
210
0.0
220
0.0
230
1.0
  2
SOLID
 70
               1
 71
               1
 91
        1
 92
        1
 93
        1
 72
               2
 10
-63.10234138460163
 20
-942.06986540798414
 40
4.99969482421875
 50
0.0
 51
360.0
 73
               0
 97
        1
330
10E
 75
               0
 76
               1
 98
        1
 10
0.0
 20
0.0
  0
MTEXT
  5
110
100
AcDbEntity
  8
0
390
0
 62
               0
100
AcDbMText
 10
-96.979958572101623
 20
-828.39368337238045
 30
0.0
 40
24.432617187500004
 41
0.0
 71
               1
 72
               1
  1
275
  7
ＭＳ ゴシック
 11
0.0
 21
1.0
 31
0.0
 73
               1
 44
0.7828267384257843
  0
POINT
  5
111
100
AcDbEntity
  8
Defpoints
370
               0
390
0
 62
               0
100
AcDbPoint
 10
-168.10234138460163
 20
-942.06986540798414
 30
0.0
  0
POINT
  5
112
100
AcDbEntity
  8
Defpoints
370
               0
390
0
 62
               0
100
AcDbPoint
 10
-163.10234138460163
 20
-667.0924979724258
 30
0.0
  0
POINT
  5
113
100
AcDbEntity
  8
Defpoints
370
               0
390
0
 62
               0
100
AcDbPoint
 10
-63.10234138460163
 20
-667.0924979724258
 30
0.0
  0
ENDBLK
  5
114
100
AcDbEntity
  8
notes
390
0
100
AcDbBlockEnd
  0
BLOCK
  5
115
100
AcDbEntity
  8
notes
390
0
100
AcDbBlockBegin
  2
*D16
 70
               1
 10
0.0
 20
0.0
 30
0.0
  3
*D16
  1

  0
LINE
  5
116
100
AcDbEntity
  8
0
370
              -2
390
0
  6
Continuous
 62
               0
100
AcDbLine
 10
-641.24170040640877
 20
-541.58178797456264
 30
0.0
 11
-763.1023413846043
 21
-541.58178797456264
 31
0.0
  0
LINE
  5
117
100
AcDbEntity
  8
0
370
              -2
390
0
  6
Continuous
 62
               0
100
AcDbLine
 10
-641.24170040640877
 20
-441.58178797456253
 30
0.0
 11
-763.1023413846043
 21
-441.58178797456253
 31
0.0
  0
LINE
  5
118
100
AcDbEntity
  8
0
370
              -2
390
0
  6
Continuous
 62
               0
100
AcDbLine
 10
-763.1023413846043
 20
-541.58178797456264
 30
0.0
 11
-763.1023413846043
 21
-441.58178797456253
 31
0.0
  0
CIRCLE
  5
119
102
{ACAD_REACTORS
330
11A
102
}
100
AcDbEntity
  8
0
370
              -2
390
0
  6
Continuous
 62
               0
100
AcDbCircle
 10
-763.1023413846043
 20
-541.58178797456264
 30
0.0
 40
4.99969482421875
  0
HATCH
  5
11A
100
AcDbEntity
  8
0
370
              -2
390
0
  6
Continuous
 62
               0
100
AcDbHatch
 10
0.0
 20
0.0
 30
0.0
210
0.0
220
0.0
230
1.0
  2
SOLID
 70
               1
 71
               1
 91
        1
 92
        1
 93
        1
 72
               2
 10
-763.1023413846043
 20
-541.58178797456264
 40
4.99969482421875
 50
0.0
 51
360.0
 73
               0
 97
        1
330
119
 75
               0
 76
               1
 98
        1
 10
0.0
 20
0.0
  0
CIRCLE
  5
11B
102
{ACAD_REACTORS
330
11C
102
}
100
AcDbEntity
  8
0
370
              -2
390
0
  6
Continuous
 62
               0
100
AcDbCircle
 10
-763.1023413846043
 20
-441.58178797456253
 30
0.0
 40
4.99969482421875
  0
HATCH
  5
11C
100
AcDbEntity
  8
0
370
              -2
390
0
  6
Continuous
 62
               0
100
AcDbHatch
 10
0.0
 20
0.0
 30
0.0
210
0.0
220
0.0
230
1.0
  2
SOLID
 70
               1
 71
               1
 91
        1
 92
        1
 93
        1
 72
               2
 10
-763.1023413846043
 20
-441.58178797456253
 40
4.99969482421875
 50
0.0
 51
360.0
 73
               0
 97
        1
330
11B
 75
               0
 76
               1
 98
        1
 10
0.0
 20
0.0
  0
MTEXT
  5
11D
100
AcDbEntity
  8
0
390
0
 62
               0
100
AcDbMText
 10
-796.97995857210435
 20
-515.39428965673812
 30
0.0
 40
24.432617187500004
 41
0.0
 71
               1
 72
               1
  1
100
  7
ＭＳ ゴシック
 11
0.0
 21
1.0
 31
0.0
 73
               1
 44
0.7828267384257843
  0
POINT
  5
11E
100
AcDbEntity
  8
Defpoints
370
               0
390
0
 62
               0
100
AcDbPoint
 10
-616.24170040640877
 20
-441.58178797456253
 30
0.0
  0
POINT
  5
11F
100
AcDbEntity
  8
Defpoints
370
               0
390
0
 62
               0
100
AcDbPoint
 10
-616.24170040640877
 20
-541.58178797456264
 30
0.0
  0
POINT
  5
120
100
AcDbEntity
  8
Defpoints
370
               0
390
0
 62
               0
100
AcDbPoint
 10
-763.1023413846043
 20
-541.58178797456264
 30
0.0
  0
ENDBLK
  5
121
100
AcDbEntity
  8
notes
390
0
100
AcDbBlockEnd
  0
BLOCK
  5
122
100
AcDbEntity
  8
notes
390
0
100
AcDbBlockBegin
  2
*D17
 70
               1
 10
0.0
 20
0.0
 30
0.0
  3
*D17
  1

  0
LINE
  5
123
100
AcDbEntity
  8
0
370
              -2
390
0
  6
Continuous
 62
               0
100
AcDbLine
 10
-641.24170040640877
 20
-441.58178797456253
 30
0.0
 11
-763.1023413846043
 21
-441.58178797456253
 31
0.0
  0
LINE
  5
124
100
AcDbEntity
  8
0
370
              -2
390
0
  6
Continuous
 62
               0
100
AcDbLine
 10
-641.24170040640877
 20
-341.58178797456162
 30
0.0
 11
-763.1023413846043
 21
-341.58178797456162
 31
0.0
  0
LINE
  5
125
100
AcDbEntity
  8
0
370
              -2
390
0
  6
Continuous
 62
               0
100
AcDbLine
 10
-763.1023413846043
 20
-441.58178797456253
 30
0.0
 11
-763.1023413846043
 21
-341.58178797456162
 31
0.0
  0
CIRCLE
  5
126
102
{ACAD_REACTORS
330
127
102
}
100
AcDbEntity
  8
0
370
              -2
390
0
  6
Continuous
 62
               0
100
AcDbCircle
 10
-763.1023413846043
 20
-441.58178797456253
 30
0.0
 40
4.99969482421875
  0
HATCH
  5
127
100
AcDbEntity
  8
0
370
              -2
390
0
  6
Continuous
 62
               0
100
AcDbHatch
 10
0.0
 20
0.0
 30
0.0
210
0.0
220
0.0
230
1.0
  2
SOLID
 70
               1
 71
               1
 91
        1
 92
        1
 93
        1
 72
               2
 10
-763.1023413846043
 20
-441.58178797456253
 40
4.99969482421875
 50
0.0
 51
360.0
 73
               0
 97
        1
330
126
 75
               0
 76
               1
 98
        1
 10
0.0
 20
0.0
  0
CIRCLE
  5
128
102
{ACAD_REACTORS
330
129
102
}
100
AcDbEntity
  8
0
370
              -2
390
0
  6
Continuous
 62
               0
100
AcDbCircle
 10
-763.1023413846043
 20
-341.58178797456162
 30
0.0
 40
4.99969482421875
  0
HATCH
  5
129
100
AcDbEntity
  8
0
370
              -2
390
0
  6
Continuous
 62
               0
100
AcDbHatch
 10
0.0
 20
0.0
 30
0.0
210
0.0
220
0.0
230
1.0
  2
SOLID
 70
               1
 71
               1
 91
        1
 92
        1
 93
        1
 72
               2
 10
-763.1023413846043
 20
-341.58178797456162
 40
4.99969482421875
 50
0.0
 51
360.0
 73
               0
 97
        1
330
128
 75
               0
 76
               1
 98
        1
 10
0.0
 20
0.0
  0
MTEXT
  5
12A
100
AcDbEntity
  8
0
390
0
 62
               0
100
AcDbMText
 10
-796.97995857210435
 20
-415.39428965673756
 30
0.0
 40
24.432617187500004
 41
0.0
 71
               1
 72
               1
  1
100
  7
ＭＳ ゴシック
 11
0.0
 21
1.0
 31
0.0
 73
               1
 44
0.7828267384257843
  0
POINT
  5
12B
100
AcDbEntity
  8
Defpoints
370
               0
390
0
 62
               0
100
AcDbPoint
 10
-616.24170040640877
 20
-341.58178797456162
 30
0.0
  0
POINT
  5
12C
100
AcDbEntity
  8
Defpoints
370
               0
390
0
 62
               0
100
AcDbPoint
 10
-616.24170040640877
 20
-441.58178797456253
 30
0.0
  0
POINT
  5
12D
100
AcDbEntity
  8
Defpoints
370
               0
390
0
 62
               0
100
AcDbPoint
 10
-763.1023413846043
 20
-441.58178797456253
 30
0.0
  0
ENDBLK
  5
12E
100
AcDbEntity
  8
notes
390
0
100
AcDbBlockEnd
  0
BLOCK
  5
12F
100
AcDbEntity
  8
notes
390
0
100
AcDbBlockBegin
  2
*D18
 70
               1
 10
0.0
 20
0.0
 30
0.0
  3
*D18
  1

  0
LINE
  5
130
100
AcDbEntity
  8
0
370
              -2
390
0
  6
Continuous
 62
               0
100
AcDbLine
 10
647.4887817741851
 20
-262.0698654079855
 30
0.0
 11
726.14826926768137
 21
-262.0698654079855
 31
0.0
  0
LINE
  5
131
100
AcDbEntity
  8
0
370
              -2
390
0
  6
Continuous
 62
               0
100
AcDbLine
 10
647.4887817741851
 20
-612.06986540798698
 30
0.0
 11
726.14826926768137
 21
-612.06986540798698
 31
0.0
  0
LINE
  5
132
100
AcDbEntity
  8
0
370
              -2
390
0
  6
Continuous
 62
               0
100
AcDbLine
 10
726.14826926768137
 20
-262.0698654079855
 30
0.0
 11
726.14826926768137
 21
-612.06986540798698
 31
0.0
  0
CIRCLE
  5
133
102
{ACAD_REACTORS
330
134
102
}
100
AcDbEntity
  8
0
370
              -2
390
0
  6
Continuous
 62
               0
100
AcDbCircle
 10
726.14826926768137
 20
-262.0698654079855
 30
0.0
 40
4.99969482421875
  0
HATCH
  5
134
100
AcDbEntity
  8
0
370
              -2
390
0
  6
Continuous
 62
               0
100
AcDbHatch
 10
0.0
 20
0.0
 30
0.0
210
0.0
220
0.0
230
1.0
  2
SOLID
 70
               1
 71
               1
 91
        1
 92
        1
 93
        1
 72
               2
 10
726.14826926768137
 20
-262.0698654079855
 40
4.99969482421875
 50
0.0
 51
360.0
 73
               0
 97
        1
330
133
 75
               0
 76
               1
 98
        1
 10
0.0
 20
0.0
  0
CIRCLE
  5
135
102
{ACAD_REACTORS
330
136
102
}
100
AcDbEntity
  8
0
370
              -2
390
0
  6
Continuous
 62
               0
100
AcDbCircle
 10
726.14826926768137
 20
-612.06986540798698
 30
0.0
 40
4.99969482421875
  0
HATCH
  5
136
100
AcDbEntity
  8
0
370
              -2
390
0
  6
Continuous
 62
               0
100
AcDbHatch
 10
0.0
 20
0.0
 30
0.0
210
0.0
220
0.0
230
1.0
  2
SOLID
 70
               1
 71
               1
 91
        1
 92
        1
 93
        1
 72
               2
 10
726.14826926768137
 20
-612.06986540798698
 40
4.99969482421875
 50
0.0
 51
360.0
 73
               0
 97
        1
330
135
 75
               0
 76
               1
 98
        1
 10
0.0
 20
0.0
  0
MTEXT
  5
137
100
AcDbEntity
  8
0
390
0
 62
               0
100
AcDbMText
 10
692.27065208018132
 20
-460.88236709016167
 30
0.0
 40
24.432617187500004
 41
0.0
 71
               1
 72
               1
  1
350
  7
ＭＳ ゴシック
 11
0.0
 21
1.0
 31
0.0
 73
               1
 44
0.7828267384257843
  0
POINT
  5
138
100
AcDbEntity
  8
Defpoints
370
               0
390
0
 62
               0
100
AcDbPoint
 10
622.4887817741851
 20
-612.06986540798698
 30
0.0
  0
POINT
  5
139
100
AcDbEntity
  8
Defpoints
370
               0
390
0
 62
               0
100
AcDbPoint
 10
622.4887817741851
 20
-262.0698654079855
 30
0.0
  0
POINT
  5
13A
100
AcDbEntity
  8
Defpoints
370
               0
390
0
 62
               0
100
AcDbPoint
 10
726.14826926768137
 20
-262.0698654079855
 30
0.0
  0
ENDBLK
  5
13B
100
AcDbEntity
  8
notes
390
0
100
AcDbBlockEnd
  0
BLOCK
  5
13C
100
AcDbEntity
  8
notes
390
0
100
AcDbBlockBegin
  2
*D19
 70
               1
 10
0.0
 20
0.0
 30
0.0
  3
*D19
  1

  0
LINE
  5
13D
100
AcDbEntity
  8
0
370
              -2
390
0
  6
Continuous
 62
               0
100
AcDbLine
 10
-663.1023413846043
 20
-962.06986540798414
 30
0.0
 11
-663.1023413846043
 21
-1042.0698654079843
 31
0.0
  0
LINE
  5
13E
100
AcDbEntity
  8
0
370
              -2
390
0
  6
Continuous
 62
               0
100
AcDbLine
 10
-533.10234138460339
 20
-967.06986540798414
 30
0.0
 11
-533.10234138460339
 21
-1042.0698654079843
 31
0.0
  0
LINE
  5
13F
100
AcDbEntity
  8
0
370
              -2
390
0
  6
Continuous
 62
               0
100
AcDbLine
 10
-663.1023413846043
 20
-1042.0698654079843
 30
0.0
 11
-533.10234138460339
 21
-1042.0698654079843
 31
0.0
  0
CIRCLE
  5
140
102
{ACAD_REACTORS
330
141
102
}
100
AcDbEntity
  8
0
370
              -2
390
0
  6
Continuous
 62
               0
100
AcDbCircle
 10
-663.1023413846043
 20
-1042.0698654079843
 30
0.0
 40
4.99969482421875
  0
HATCH
  5
141
100
AcDbEntity
  8
0
370
              -2
390
0
  6
Continuous
 62
               0
100
AcDbHatch
 10
0.0
 20
0.0
 30
0.0
210
0.0
220
0.0
230
1.0
  2
SOLID
 70
               1
 71
               1
 91
        1
 92
        1
 93
        1
 72
               2
 10
-663.1023413846043
 20
-1042.0698654079843
 40
4.99969482421875
 50
0.0
 51
360.0
 73
               0
 97
        1
330
140
 75
               0
 76
               1
 98
        1
 10
0.0
 20
0.0
  0
CIRCLE
  5
142
102
{ACAD_REACTORS
330
143
102
}
100
AcDbEntity
  8
0
370
              -2
390
0
  6
Continuous
 62
               0
100
AcDbCircle
 10
-533.10234138460339
 20
-1042.0698654079843
 30
0.0
 40
4.99969482421875
  0
HATCH
  5
143
100
AcDbEntity
  8
0
370
              -2
390
0
  6
Continuous
 62
               0
100
AcDbHatch
 10
0.0
 20
0.0
 30
0.0
210
0.0
220
0.0
230
1.0
  2
SOLID
 70
               1
 71
               1
 91
        1
 92
        1
 93
        1
 72
               2
 10
-533.10234138460339
 20
-1042.0698654079843
 40
4.99969482421875
 50
0.0
 51
360.0
 73
               0
 97
        1
330
142
 75
               0
 76
               1
 98
        1
 10
0.0
 20
0.0
  0
MTEXT
  5
144
100
AcDbEntity
  8
0
390
0
 62
               0
100
AcDbMText
 10
-621.91484306677933
 20
-1008.1922482204842
 30
0.0
 40
24.432617187500004
 41
0.0
 71
               1
 72
               1
  1
130
  7
ＭＳ ゴシック
 73
               1
 44
0.7828267384257843
  0
POINT
  5
145
100
AcDbEntity
  8
Defpoints
370
               0
390
0
 62
               0
100
AcDbPoint
 10
-533.10234138460339
 20
-942.06986540798414
 30
0.0
  0
POINT
  5
146
100
AcDbEntity
  8
Defpoints
370
               0
390
0
 62
               0
100
AcDbPoint
 10
-663.1023413846043
 20
-937.06986540798414
 30
0.0
  0
POINT
  5
147
100
AcDbEntity
  8
Defpoints
370
               0
390
0
 62
               0
100
AcDbPoint
 10
-663.1023413846043
 20
-1042.0698654079843
 30
0.0
  0
ENDBLK
  5
148
100
AcDbEntity
  8
notes
390
0
100
AcDbBlockEnd
  0
BLOCK
  5
149
100
AcDbEntity
  8
notes
390
0
100
AcDbBlockBegin
  2
*D20
 70
               1
 10
0.0
 20
0.0
 30
0.0
  3
*D20
  1

  0
LINE
  5
14A
100
AcDbEntity
  8
0
370
              -2
390
0
  6
Continuous
 62
               0
100
AcDbLine
 10
-533.10234138460339
 20
-687.08112773016535
 30
0.0
 11
-533.10234138460339
 21
-1042.0698654079847
 31
0.0
  0
LINE
  5
14B
100
AcDbEntity
  8
0
370
              -2
390
0
  6
Continuous
 62
               0
100
AcDbLine
 10
-188.10234138460163
 20
-687.08112773016535
 30
0.0
 11
-188.10234138460163
 21
-1042.0698654079847
 31
0.0
  0
LINE
  5
14C
100
AcDbEntity
  8
0
370
              -2
390
0
  6
Continuous
 62
               0
100
AcDbLine
 10
-533.10234138460339
 20
-1042.0698654079847
 30
0.0
 11
-188.10234138460163
 21
-1042.0698654079847
 31
0.0
  0
CIRCLE
  5
14D
102
{ACAD_REACTORS
330
14E
102
}
100
AcDbEntity
  8
0
370
              -2
390
0
  6
Continuous
 62
               0
100
AcDbCircle
 10
-533.10234138460339
 20
-1042.0698654079847
 30
0.0
 40
4.99969482421875
  0
HATCH
  5
14E
100
AcDbEntity
  8
0
370
              -2
390
0
  6
Continuous
 62
               0
100
AcDbHatch
 10
0.0
 20
0.0
 30
0.0
210
0.0
220
0.0
230
1.0
  2
SOLID
 70
               1
 71
               1
 91
        1
 92
        1
 93
        1
 72
               2
 10
-533.10234138460339
 20
-1042.0698654079847
 40
4.99969482421875
 50
0.0
 51
360.0
 73
               0
 97
        1
330
14D
 75
               0
 76
               1
 98
        1
 10
0.0
 20
0.0
  0
CIRCLE
  5
14F
102
{ACAD_REACTORS
330
150
102
}
100
AcDbEntity
  8
0
370
              -2
390
0
  6
Continuous
 62
               0
100
AcDbCircle
 10
-188.10234138460163
 20
-1042.0698654079847
 30
0.0
 40
4.99969482421875
  0
HATCH
  5
150
100
AcDbEntity
  8
0
370
              -2
390
0
  6
Continuous
 62
               0
100
AcDbHatch
 10
0.0
 20
0.0
 30
0.0
210
0.0
220
0.0
230
1.0
  2
SOLID
 70
               1
 71
               1
 91
        1
 92
        1
 93
        1
 72
               2
 10
-188.10234138460163
 20
-1042.0698654079847
 40
4.99969482421875
 50
0.0
 51
360.0
 73
               0
 97
        1
330
14F
 75
               0
 76
               1
 98
        1
 10
0.0
 20
0.0
  0
MTEXT
  5
151
100
AcDbEntity
  8
0
390
0
 62
               0
100
AcDbMText
 10
-384.41484306677802
 20
-1008.1922482204847
 30
0.0
 40
24.432617187500004
 41
0.0
 71
               1
 72
               1
  1
345
  7
ＭＳ ゴシック
 73
               1
 44
0.7828267384257843
  0
POINT
  5
152
100
AcDbEntity
  8
Defpoints
370
               0
390
0
 62
               0
100
AcDbPoint
 10
-188.10234138460163
 20
-662.08112773016535
 30
0.0
  0
POINT
  5
153
100
AcDbEntity
  8
Defpoints
370
               0
390
0
 62
               0
100
AcDbPoint
 10
-533.10234138460339
 20
-662.08112773016535
 30
0.0
  0
POINT
  5
154
100
AcDbEntity
  8
Defpoints
370
               0
390
0
 62
               0
100
AcDbPoint
 10
-533.10234138460339
 20
-1042.0698654079847
 30
0.0
  0
ENDBLK
  5
155
100
AcDbEntity
  8
notes
390
0
100
AcDbBlockEnd
  0
BLOCK
  5
156
100
AcDbEntity
  8
notes
390
0
100
AcDbBlockBegin
  2
*D21
 70
               1
 10
0.0
 20
0.0
 30
0.0
  3
*D21
  1

  0
LINE
  5
157
100
AcDbEntity
  8
0
370
              -2
390
0
  6
Continuous
 62
               0
100
AcDbLine
 10
436.38878177418695
 20
79.030134592016168
 30
0.0
 11
436.38878177418695
 21
157.93013459201626
 31
0.0
  0
LINE
  5
158
100
AcDbEntity
  8
0
370
              -2
390
0
  6
Continuous
 62
               0
100
AcDbLine
 10
626.38878177418474
 20
-240.96986540798562
 30
0.0
 11
626.38878177418474
 21
157.93013459201629
 31
0.0
  0
LINE
  5
159
100
AcDbEntity
  8
0
370
              -2
390
0
  6
Continuous
 62
               0
100
AcDbLine
 10
436.38878177418695
 20
157.93013459201626
 30
0.0
 11
626.38878177418474
 21
157.93013459201629
 31
0.0
  0
CIRCLE
  5
15A
102
{ACAD_REACTORS
330
15B
102
}
100
AcDbEntity
  8
0
370
              -2
390
0
  6
Continuous
 62
               0
100
AcDbCircle
 10
436.38878177418695
 20
157.93013459201626
 30
0.0
 40
4.99969482421875
  0
HATCH
  5
15B
100
AcDbEntity
  8
0
370
              -2
390
0
  6
Continuous
 62
               0
100
AcDbHatch
 10
0.0
 20
0.0
 30
0.0
210
0.0
220
0.0
230
1.0
  2
SOLID
 70
               1
 71
               1
 91
        1
 92
        1
 93
        1
 72
               2
 10
436.38878177418695
 20
157.93013459201626
 40
4.99969482421875
 50
0.0
 51
360.0
 73
               0
 97
        1
330
15A
 75
               0
 76
               1
 98
        1
 10
0.0
 20
0.0
  0
CIRCLE
  5
15C
102
{ACAD_REACTORS
330
15D
102
}
100
AcDbEntity
  8
0
370
              -2
390
0
  6
Continuous
 62
               0
100
AcDbCircle
 10
626.38878177418474
 20
157.93013459201629
 30
0.0
 40
4.99969482421875
  0
HATCH
  5
15D
100
AcDbEntity
  8
0
370
              -2
390
0
  6
Continuous
 62
               0
100
AcDbHatch
 10
0.0
 20
0.0
 30
0.0
210
0.0
220
0.0
230
1.0
  2
SOLID
 70
               1
 71
               1
 91
        1
 92
        1
 93
        1
 72
               2
 10
626.38878177418474
 20
157.93013459201629
 40
4.99969482421875
 50
0.0
 51
360.0
 73
               0
 97
        1
330
15C
 75
               0
 76
               1
 98
        1
 10
0.0
 20
0.0
  0
MTEXT
  5
15E
100
AcDbEntity
  8
0
390
0
 62
               0
100
AcDbMText
 10
507.57628009201034
 20
191.80775177951628
 30
0.0
 40
24.432617187500004
 41
0.0
 71
               1
 72
               1
  1
190
  7
ＭＳ ゴシック
 73
               1
 44
0.7828267384257843
  0
POINT
  5
15F
100
AcDbEntity
  8
Defpoints
370
               0
390
0
 62
               0
100
AcDbPoint
 10
626.38878177418474
 20
-265.96986540798559
 30
0.0
  0
POINT
  5
160
100
AcDbEntity
  8
Defpoints
370
               0
390
0
 62
               0
100
AcDbPoint
 10
436.38878177418695
 20
54.030134592016168
 30
0.0
  0
POINT
  5
161
100
AcDbEntity
  8
Defpoints
370
               0
390
0
 62
               0
100
AcDbPoint
 10
436.38878177418695
 20
157.93013459201626
 30
0.0
  0
ENDBLK
  5
162
100
AcDbEntity
  8
notes
390
0
100
AcDbBlockEnd
  0
BLOCK
  5
163
100
AcDbEntity
  8
notes
390
0
100
AcDbBlockBegin
  2
*D22
 70
               1
 10
0.0
 20
0.0
 30
0.0
  3
*D22
  1

  0
LINE
  5
164
100
AcDbEntity
  8
0
370
              -2
390
0
  6
Continuous
 62
               0
100
AcDbLine
 10
647.47306410091824
 20
1032.7373926564603
 30
0.0
 11
726.47306409796965
 21
1032.7373926564603
 31
0.0
  0
LINE
  5
165
100
AcDbEntity
  8
0
370
              -2
390
0
  6
Continuous
 62
               0
100
AcDbLine
 10
651.38878177418701
 20
832.73739265646032
 30
0.0
 11
726.47306409796965
 21
832.73739265646032
 31
0.0
  0
LINE
  5
166
100
AcDbEntity
  8
0
370
              -2
390
0
  6
Continuous
 62
               0
100
AcDbLine
 10
726.47306409796965
 20
1032.7373926564603
 30
0.0
 11
726.47306409796965
 21
832.73739265646032
 31
0.0
  0
CIRCLE
  5
167
102
{ACAD_REACTORS
330
168
102
}
100
AcDbEntity
  8
0
370
              -2
390
0
  6
Continuous
 62
               0
100
AcDbCircle
 10
726.47306409796965
 20
1032.7373926564603
 30
0.0
 40
4.99969482421875
  0
HATCH
  5
168
100
AcDbEntity
  8
0
370
              -2
390
0
  6
Continuous
 62
               0
100
AcDbHatch
 10
0.0
 20
0.0
 30
0.0
210
0.0
220
0.0
230
1.0
  2
SOLID
 70
               1
 71
               1
 91
        1
 92
        1
 93
        1
 72
               2
 10
726.47306409796965
 20
1032.7373926564603
 40
4.99969482421875
 50
0.0
 51
360.0
 73
               0
 97
        1
330
167
 75
               0
 76
               1
 98
        1
 10
0.0
 20
0.0
  0
CIRCLE
  5
169
102
{ACAD_REACTORS
330
16A
102
}
100
AcDbEntity
  8
0
370
              -2
390
0
  6
Continuous
 62
               0
100
AcDbCircle
 10
726.47306409796965
 20
832.73739265646032
 30
0.0
 40
4.99969482421875
  0
HATCH
  5
16A
100
AcDbEntity
  8
0
370
              -2
390
0
  6
Continuous
 62
               0
100
AcDbHatch
 10
0.0
 20
0.0
 30
0.0
210
0.0
220
0.0
230
1.0
  2
SOLID
 70
               1
 71
               1
 91
        1
 92
        1
 93
        1
 72
               2
 10
726.47306409796965
 20
832.73739265646032
 40
4.99969482421875
 50
0.0
 51
360.0
 73
               0
 97
        1
330
169
 75
               0
 76
               1
 98
        1
 10
0.0
 20
0.0
  0
MTEXT
  5
16B
100
AcDbEntity
  8
0
390
0
 62
               0
100
AcDbMText
 10
692.5954469104696
 20
908.92489097428484
 30
0.0
 40
24.432617187500004
 41
0.0
 71
               1
 72
               1
  1
200
  7
ＭＳ ゴシック
 11
0.0
 21
1.0
 31
0.0
 73
               1
 44
0.7828267384257843
  0
POINT
  5
16C
100
AcDbEntity
  8
Defpoints
370
               0
390
0
 62
               0
100
AcDbPoint
 10
626.38878177418701
 20
832.73739265646032
 30
0.0
  0
POINT
  5
16D
100
AcDbEntity
  8
Defpoints
370
               0
390
0
 62
               0
100
AcDbPoint
 10
622.47306410091824
 20
1032.7373926564603
 30
0.0
  0
POINT
  5
16E
100
AcDbEntity
  8
Defpoints
370
               0
390
0
 62
               0
100
AcDbPoint
 10
726.47306409796965
 20
1032.7373926564603
 30
0.0
  0
ENDBLK
  5
16F
100
AcDbEntity
  8
notes
390
0
100
AcDbBlockEnd
  0
BLOCK
  5
170
100
AcDbEntity
  8
notes
390
0
100
AcDbBlockBegin
  2
*D23
 70
               1
 10
0.0
 20
0.0
 30
0.0
  3
*D23
  1

  0
LINE
  5
171
100
AcDbEntity
  8
0
370
              -2
390
0
  6
Continuous
 62
               0
100
AcDbLine
 10
647.47306410091778
 20
1032.7373926564605
 30
0.0
 11
776.47306409796965
 21
1032.7373926564605
 31
0.0
  0
LINE
  5
172
100
AcDbEntity
  8
0
370
              -2
390
0
  6
Continuous
 62
               0
100
AcDbLine
 10
647.47306410091778
 20
617.73739265646054
 30
0.0
 11
776.47306409796965
 21
617.73739265646054
 31
0.0
  0
LINE
  5
173
100
AcDbEntity
  8
0
370
              -2
390
0
  6
Continuous
 62
               0
100
AcDbLine
 10
776.47306409796965
 20
1032.7373926564605
 30
0.0
 11
776.47306409796965
 21
617.73739265646054
 31
0.0
  0
CIRCLE
  5
174
102
{ACAD_REACTORS
330
175
102
}
100
AcDbEntity
  8
0
370
              -2
390
0
  6
Continuous
 62
               0
100
AcDbCircle
 10
776.47306409796965
 20
1032.7373926564605
 30
0.0
 40
4.99969482421875
  0
HATCH
  5
175
100
AcDbEntity
  8
0
370
              -2
390
0
  6
Continuous
 62
               0
100
AcDbHatch
 10
0.0
 20
0.0
 30
0.0
210
0.0
220
0.0
230
1.0
  2
SOLID
 70
               1
 71
               1
 91
        1
 92
        1
 93
        1
 72
               2
 10
776.47306409796965
 20
1032.7373926564605
 40
4.99969482421875
 50
0.0
 51
360.0
 73
               0
 97
        1
330
174
 75
               0
 76
               1
 98
        1
 10
0.0
 20
0.0
  0
CIRCLE
  5
176
102
{ACAD_REACTORS
330
177
102
}
100
AcDbEntity
  8
0
370
              -2
390
0
  6
Continuous
 62
               0
100
AcDbCircle
 10
776.47306409796965
 20
617.73739265646054
 30
0.0
 40
4.99969482421875
  0
HATCH
  5
177
100
AcDbEntity
  8
0
370
              -2
390
0
  6
Continuous
 62
               0
100
AcDbHatch
 10
0.0
 20
0.0
 30
0.0
210
0.0
220
0.0
230
1.0
  2
SOLID
 70
               1
 71
               1
 91
        1
 92
        1
 93
        1
 72
               2
 10
776.47306409796965
 20
617.73739265646054
 40
4.99969482421875
 50
0.0
 51
360.0
 73
               0
 97
        1
330
176
 75
               0
 76
               1
 98
        1
 10
0.0
 20
0.0
  0
MTEXT
  5
178
100
AcDbEntity
  8
0
390
0
 62
               0
100
AcDbMText
 10
742.5954469104696
 20
801.42489097428506
 30
0.0
 40
24.432617187500004
 41
0.0
 71
               1
 72
               1
  1
415
  7
ＭＳ ゴシック
 11
0.0
 21
1.0
 31
0.0
 73
               1
 44
0.7828267384257843
  0
POINT
  5
179
100
AcDbEntity
  8
Defpoints
370
               0
390
0
 62
               0
100
AcDbPoint
 10
622.47306410091778
 20
617.73739265646054
 30
0.0
  0
POINT
  5
17A
100
AcDbEntity
  8
Defpoints
370
               0
390
0
 62
               0
100
AcDbPoint
 10
622.47306410091778
 20
1032.7373926564605
 30
0.0
  0
POINT
  5
17B
100
AcDbEntity
  8
Defpoints
370
               0
390
0
 62
               0
100
AcDbPoint
 10
776.47306409796965
 20
1032.7373926564605
 30
0.0
  0
ENDBLK
  5
17C
100
AcDbEntity
  8
notes
390
0
100
AcDbBlockEnd
  0
BLOCK
  5
17D
100
AcDbEntity
  8
notes
390
0
100
AcDbBlockBegin
  2
*D24
 70
               1
 10
0.0
 20
0.0
 30
0.0
  3
*D24
  1

  0
LINE
  5
17E
100
AcDbEntity
  8
0
370
              -2
390
0
  6
Continuous
 62
               0
100
AcDbLine
 10
414.47306410091824
 20
1032.7373926564603
 30
0.0
 11
336.47306410091824
 21
1032.7373926564603
 31
0.0
  0
LINE
  5
17F
100
AcDbEntity
  8
0
370
              -2
390
0
  6
Continuous
 62
               0
100
AcDbLine
 10
411.52406651188039
 20
967.77830381029503
 30
0.0
 11
336.47306410091824
 21
967.77830381029503
 31
0.0
  0
LINE
  5
180
100
AcDbEntity
  8
0
370
              -2
390
0
  6
Continuous
 62
               0
100
AcDbLine
 10
336.47306410091824
 20
1032.7373926564603
 30
0.0
 11
336.47306410091824
 21
967.77830381029503
 31
0.0
  0
CIRCLE
  5
181
102
{ACAD_REACTORS
330
182
102
}
100
AcDbEntity
  8
0
370
              -2
390
0
  6
Continuous
 62
               0
100
AcDbCircle
 10
336.47306410091824
 20
1032.7373926564603
 30
0.0
 40
4.99969482421875
  0
HATCH
  5
182
100
AcDbEntity
  8
0
370
              -2
390
0
  6
Continuous
 62
               0
100
AcDbHatch
 10
0.0
 20
0.0
 30
0.0
210
0.0
220
0.0
230
1.0
  2
SOLID
 70
               1
 71
               1
 91
        1
 92
        1
 93
        1
 72
               2
 10
336.47306410091824
 20
1032.7373926564603
 40
4.99969482421875
 50
0.0
 51
360.0
 73
               0
 97
        1
330
181
 75
               0
 76
               1
 98
        1
 10
0.0
 20
0.0
  0
CIRCLE
  5
183
102
{ACAD_REACTORS
330
184
102
}
100
AcDbEntity
  8
0
370
              -2
390
0
  6
Continuous
 62
               0
100
AcDbCircle
 10
336.47306410091824
 20
967.77830381029503
 30
0.0
 40
4.99969482421875
  0
HATCH
  5
184
100
AcDbEntity
  8
0
370
              -2
390
0
  6
Continuous
 62
               0
100
AcDbHatch
 10
0.0
 20
0.0
 30
0.0
210
0.0
220
0.0
230
1.0
  2
SOLID
 70
               1
 71
               1
 91
        1
 92
        1
 93
        1
 72
               2
 10
336.47306410091824
 20
967.77830381029503
 40
4.99969482421875
 50
0.0
 51
360.0
 73
               0
 97
        1
330
183
 75
               0
 76
               1
 98
        1
 10
0.0
 20
0.0
  0
MTEXT
  5
185
100
AcDbEntity
  8
0
390
0
 62
               0
100
AcDbMText
 10
302.59544691341824
 20
984.38284823337767
 30
0.0
 40
24.432617187500004
 41
0.0
 71
               1
 72
               1
  1
65
  7
ＭＳ ゴシック
 11
0.0
 21
1.0
 31
0.0
 73
               1
 44
0.7828267384257843
  0
POINT
  5
186
100
AcDbEntity
  8
Defpoints
370
               0
390
0
 62
               0
100
AcDbPoint
 10
436.52406651188039
 20
967.77830381029503
 30
0.0
  0
POINT
  5
187
100
AcDbEntity
  8
Defpoints
370
               0
390
0
 62
               0
100
AcDbPoint
 10
439.47306410091824
 20
1032.7373926564603
 30
0.0
  0
POINT
  5
188
100
AcDbEntity
  8
Defpoints
370
               0
390
0
 62
               0
100
AcDbPoint
 10
336.47306410091824
 20
1032.7373926564603
 30
0.0
  0
ENDBLK
  5
189
100
AcDbEntity
  8
notes
390
0
100
AcDbBlockEnd
  0
BLOCK
  5
18A
100
AcDbEntity
  8
notes
390
0
100
AcDbBlockBegin
  2
*D25
 70
               1
 10
0.0
 20
0.0
 30
0.0
  3
*D25
  1

  0
LINE
  5
18B
100
AcDbEntity
  8
0
370
              -2
390
0
  6
Continuous
 62
               0
100
AcDbLine
 10
436.54135912005313
 20
796.17068774455606
 30
0.0
 11
436.54135912005313
 21
815.26121331246077
 31
0.0
  0
LINE
  5
18C
100
AcDbEntity
  8
0
370
              -2
390
0
  6
Continuous
 62
               0
100
AcDbLine
 10
576.54135912005313
 20
796.13311412995313
 30
0.0
 11
576.54135912005313
 21
815.26121331246077
 31
0.0
  0
LINE
  5
18D
100
AcDbEntity
  8
0
370
              -2
390
0
  6
Continuous
 62
               0
100
AcDbLine
 10
436.54135912005313
 20
815.26121331246077
 30
0.0
 11
284.20831498099687
 21
815.26121331246077
 31
0.0
  0
LINE
  5
18E
100
AcDbEntity
  8
0
370
              -2
390
0
  6
Continuous
 62
               0
100
AcDbLine
 10
436.54135912005313
 20
815.26121331246077
 30
0.0
 11
576.54135912005313
 21
815.26121331246077
 31
0.0
  0
CIRCLE
  5
18F
102
{ACAD_REACTORS
330
190
102
}
100
AcDbEntity
  8
0
370
              -2
390
0
  6
Continuous
 62
               0
100
AcDbCircle
 10
436.54135912005313
 20
815.26121331246077
 30
0.0
 40
4.99969482421875
  0
HATCH
  5
190
100
AcDbEntity
  8
0
370
              -2
390
0
  6
Continuous
 62
               0
100
AcDbHatch
 10
0.0
 20
0.0
 30
0.0
210
0.0
220
0.0
230
1.0
  2
SOLID
 70
               1
 71
               1
 91
        1
 92
        1
 93
        1
 72
               2
 10
436.54135912005313
 20
815.26121331246077
 40
4.99969482421875
 50
0.0
 51
360.0
 73
               0
 97
        1
330
18F
 75
               0
 76
               1
 98
        1
 10
0.0
 20
0.0
  0
CIRCLE
  5
191
102
{ACAD_REACTORS
330
192
102
}
100
AcDbEntity
  8
0
370
              -2
390
0
  6
Continuous
 62
               0
100
AcDbCircle
 10
576.54135912005313
 20
815.26121331246077
 30
0.0
 40
4.99969482421875
  0
HATCH
  5
192
100
AcDbEntity
  8
0
370
              -2
390
0
  6
Continuous
 62
               0
100
AcDbHatch
 10
0.0
 20
0.0
 30
0.0
210
0.0
220
0.0
230
1.0
  2
SOLID
 70
               1
 71
               1
 91
        1
 92
        1
 93
        1
 72
               2
 10
576.54135912005313
 20
815.26121331246077
 40
4.99969482421875
 50
0.0
 51
360.0
 73
               0
 97
        1
330
191
 75
               0
 76
               1
 98
        1
 10
0.0
 20
0.0
  0
MTEXT
  5
193
100
AcDbEntity
  8
0
390
0
 62
               0
100
AcDbMText
 10
284.20831498099687
 20
849.13883049996082
 30
0.0
 40
24.432617187500004
 41
0.0
 71
               1
 72
               1
  1
140(深さ)
  7
ＭＳ ゴシック
 73
               1
 44
0.7828267384257843
  0
POINT
  5
194
100
AcDbEntity
  8
Defpoints
370
               0
390
0
 62
               0
100
AcDbPoint
 10
576.54135912005313
 20
821.13311412995313
 30
0.0
  0
POINT
  5
195
100
AcDbEntity
  8
Defpoints
370
               0
390
0
 62
               0
100
AcDbPoint
 10
436.54135912005313
 20
821.17068774455606
 30
0.0
  0
POINT
  5
196
100
AcDbEntity
  8
Defpoints
370
               0
390
0
 62
               0
100
AcDbPoint
 10
436.54135912005313
 20
815.26121331246077
 30
0.0
  0
ENDBLK
  5
197
100
AcDbEntity
  8
notes
390
0
100
AcDbBlockEnd
  0
BLOCK
  5
198
100
AcDbEntity
  8
notes
390
0
100
AcDbBlockBegin
  2
*D26
 70
               1
 10
0.0
 20
0.0
 30
0.0
  3
*D26
  1

  0
LINE
  5
199
100
AcDbEntity
  8
0
370
              -2
390
0
  6
Continuous
 62
               0
100
AcDbLine
 10
436.47306410091824
 20
510.23739265646077
 30
0.0
 11
436.47306410091824
 21
432.73739265646077
 31
0.0
  0
LINE
  5
19A
100
AcDbEntity
  8
0
370
              -2
390
0
  6
Continuous
 62
               0
100
AcDbLine
 10
531.47306410091824
 20
510.23739265646077
 30
0.0
 11
531.47306410091824
 21
432.73739265646077
 31
0.0
  0
LINE
  5
19B
100
AcDbEntity
  8
0
370
              -2
390
0
  6
Continuous
 62
               0
100
AcDbLine
 10
436.47306410091824
 20
432.73739265646077
 30
0.0
 11
531.47306410091824
 21
432.73739265646077
 31
0.0
  0
CIRCLE
  5
19C
102
{ACAD_REACTORS
330
19D
102
}
100
AcDbEntity
  8
0
370
              -2
390
0
  6
Continuous
 62
               0
100
AcDbCircle
 10
436.47306410091824
 20
432.73739265646077
 30
0.0
 40
4.99969482421875
  0
HATCH
  5
19D
100
AcDbEntity
  8
0
370
              -2
390
0
  6
Continuous
 62
               0
100
AcDbHatch
 10
0.0
 20
0.0
 30
0.0
210
0.0
220
0.0
230
1.0
  2
SOLID
 70
               1
 71
               1
 91
        1
 92
        1
 93
        1
 72
               2
 10
436.47306410091824
 20
432.73739265646077
 40
4.99969482421875
 50
0.0
 51
360.0
 73
               0
 97
        1
330
19C
 75
               0
 76
               1
 98
        1
 10
0.0
 20
0.0
  0
CIRCLE
  5
19E
102
{ACAD_REACTORS
330
19F
102
}
100
AcDbEntity
  8
0
370
              -2
390
0
  6
Continuous
 62
               0
100
AcDbCircle
 10
531.47306410091824
 20
432.73739265646077
 30
0.0
 40
4.99969482421875
  0
HATCH
  5
19F
100
AcDbEntity
  8
0
370
              -2
390
0
  6
Continuous
 62
               0
100
AcDbHatch
 10
0.0
 20
0.0
 30
0.0
210
0.0
220
0.0
230
1.0
  2
SOLID
 70
               1
 71
               1
 91
        1
 92
        1
 93
        1
 72
               2
 10
531.47306410091824
 20
432.73739265646077
 40
4.99969482421875
 50
0.0
 51
360.0
 73
               0
 97
        1
330
19E
 75
               0
 76
               1
 98
        1
 10
0.0
 20
0.0
  0
MTEXT
  5
1A0
100
AcDbEntity
  8
0
390
0
 62
               0
100
AcDbMText
 10
468.09806410091824
 20
466.61500984396071
 30
0.0
 40
24.432617187500004
 41
0.0
 71
               1
 72
               1
  1
95
  7
ＭＳ ゴシック
 73
               1
 44
0.7828267384257843
  0
POINT
  5
1A1
100
AcDbEntity
  8
Defpoints
370
               0
390
0
 62
               0
100
AcDbPoint
 10
531.47306410091824
 20
535.23739265646077
 30
0.0
  0
POINT
  5
1A2
100
AcDbEntity
  8
Defpoints
370
               0
390
0
 62
               0
100
AcDbPoint
 10
436.47306410091824
 20
535.23739265646077
 30
0.0
  0
POINT
  5
1A3
100
AcDbEntity
  8
Defpoints
370
               0
390
0
 62
               0
100
AcDbPoint
 10
436.47306410091824
 20
432.73739265646077
 30
0.0
  0
ENDBLK
  5
1A4
100
AcDbEntity
  8
notes
390
0
100
AcDbBlockEnd
  0
BLOCK
  5
1A5
100
AcDbEntity
  8
notes
390
0
100
AcDbBlockBegin
  2
*D27
 70
               1
 10
0.0
 20
0.0
 30
0.0
  3
*D27
  1

  0
LINE
  5
1A6
100
AcDbEntity
  8
0
370
              -2
390
0
  6
Continuous
 62
               0
100
AcDbLine
 10
531.47306410091824
 20
510.23739265646077
 30
0.0
 11
531.47306410091824
 21
432.73739265646077
 31
0.0
  0
LINE
  5
1A7
100
AcDbEntity
  8
0
370
              -2
390
0
  6
Continuous
 62
               0
100
AcDbLine
 10
626.47306410091824
 20
597.58428636049189
 30
0.0
 11
626.47306410091824
 21
432.73739265646077
 31
0.0
  0
LINE
  5
1A8
100
AcDbEntity
  8
0
370
              -2
390
0
  6
Continuous
 62
               0
100
AcDbLine
 10
531.47306410091824
 20
432.73739265646077
 30
0.0
 11
626.47306410091824
 21
432.73739265646077
 31
0.0
  0
CIRCLE
  5
1A9
102
{ACAD_REACTORS
330
1AA
102
}
100
AcDbEntity
  8
0
370
              -2
390
0
  6
Continuous
 62
               0
100
AcDbCircle
 10
531.47306410091824
 20
432.73739265646077
 30
0.0
 40
4.99969482421875
  0
HATCH
  5
1AA
100
AcDbEntity
  8
0
370
              -2
390
0
  6
Continuous
 62
               0
100
AcDbHatch
 10
0.0
 20
0.0
 30
0.0
210
0.0
220
0.0
230
1.0
  2
SOLID
 70
               1
 71
               1
 91
        1
 92
        1
 93
        1
 72
               2
 10
531.47306410091824
 20
432.73739265646077
 40
4.99969482421875
 50
0.0
 51
360.0
 73
               0
 97
        1
330
1A9
 75
               0
 76
               1
 98
        1
 10
0.0
 20
0.0
  0
CIRCLE
  5
1AB
102
{ACAD_REACTORS
330
1AC
102
}
100
AcDbEntity
  8
0
370
              -2
390
0
  6
Continuous
 62
               0
100
AcDbCircle
 10
626.47306410091824
 20
432.73739265646077
 30
0.0
 40
4.99969482421875
  0
HATCH
  5
1AC
100
AcDbEntity
  8
0
370
              -2
390
0
  6
Continuous
 62
               0
100
AcDbHatch
 10
0.0
 20
0.0
 30
0.0
210
0.0
220
0.0
230
1.0
  2
SOLID
 70
               1
 71
               1
 91
        1
 92
        1
 93
        1
 72
               2
 10
626.47306410091824
 20
432.73739265646077
 40
4.99969482421875
 50
0.0
 51
360.0
 73
               0
 97
        1
330
1AB
 75
               0
 76
               1
 98
        1
 10
0.0
 20
0.0
  0
MTEXT
  5
1AD
100
AcDbEntity
  8
0
390
0
 62
               0
100
AcDbMText
 10
563.09806410091824
 20
466.61500984396071
 30
0.0
 40
24.432617187500004
 41
0.0
 71
               1
 72
               1
  1
95
  7
ＭＳ ゴシック
 73
               1
 44
0.7828267384257843
  0
POINT
  5
1AE
100
AcDbEntity
  8
Defpoints
370
               0
390
0
 62
               0
100
AcDbPoint
 10
626.47306410091824
 20
622.58428636049189
 30
0.0
  0
POINT
  5
1AF
100
AcDbEntity
  8
Defpoints
370
               0
390
0
 62
               0
100
AcDbPoint
 10
531.47306410091824
 20
535.23739265646077
 30
0.0
  0
POINT
  5
1B0
100
AcDbEntity
  8
Defpoints
370
               0
390
0
 62
               0
100
AcDbPoint
 10
531.47306410091824
 20
432.73739265646077
 30
0.0
  0
ENDBLK
  5
1B1
100
AcDbEntity
  8
notes
390
0
100
AcDbBlockEnd
  0
BLOCK
  5
1B2
100
AcDbEntity
  8
notes
390
0
100
AcDbBlockBegin
  2
*D28
 70
               1
 10
0.0
 20
0.0
 30
0.0
  3
*D28
  1

  0
LINE
  5
1B3
100
AcDbEntity
  8
0
370
              -2
390
0
  6
Continuous
 62
               0
100
AcDbLine
 10
621.38878177274273
 20
801.92282930842089
 30
0.0
 11
621.38878177274273
 21
775.8613552473073
 31
0.0
  0
LINE
  5
1B4
100
AcDbEntity
  8
0
370
              -2
390
0
  6
Continuous
 62
               0
100
AcDbLine
 10
626.38878177418701
 20
802.4863552473073
 30
0.0
 11
626.38878177418701
 21
775.8613552473073
 31
0.0
  0
LINE
  5
1B5
100
AcDbEntity
  8
0
370
              -2
390
0
  6
Continuous
 62
               0
100
AcDbLine
 10
626.38878177418701
 20
775.8613552473073
 30
0.0
 11
662.14959071007434
 21
775.8613552473073
 31
0.0
  0
LINE
  5
1B6
100
AcDbEntity
  8
0
370
              -2
390
0
  6
Continuous
 62
               0
100
AcDbLine
 10
621.38878177274273
 20
775.8613552473073
 30
0.0
 11
626.38878177418701
 21
775.8613552473073
 31
0.0
  0
CIRCLE
  5
1B7
102
{ACAD_REACTORS
330
1B8
102
}
100
AcDbEntity
  8
0
370
              -2
390
0
  6
Continuous
 62
               0
100
AcDbCircle
 10
621.38878177274273
 20
775.8613552473073
 30
0.0
 40
4.99969482421875
  0
HATCH
  5
1B8
100
AcDbEntity
  8
0
370
              -2
390
0
  6
Continuous
 62
               0
100
AcDbHatch
 10
0.0
 20
0.0
 30
0.0
210
0.0
220
0.0
230
1.0
  2
SOLID
 70
               1
 71
               1
 91
        1
 92
        1
 93
        1
 72
               2
 10
621.38878177274273
 20
775.8613552473073
 40
4.99969482421875
 50
0.0
 51
360.0
 73
               0
 97
        1
330
1B7
 75
               0
 76
               1
 98
        1
 10
0.0
 20
0.0
  0
CIRCLE
  5
1B9
102
{ACAD_REACTORS
330
1BA
102
}
100
AcDbEntity
  8
0
370
              -2
390
0
  6
Continuous
 62
               0
100
AcDbCircle
 10
626.38878177418701
 20
775.8613552473073
 30
0.0
 40
4.99969482421875
  0
HATCH
  5
1BA
100
AcDbEntity
  8
0
370
              -2
390
0
  6
Continuous
 62
               0
100
AcDbHatch
 10
0.0
 20
0.0
 30
0.0
210
0.0
220
0.0
230
1.0
  2
SOLID
 70
               1
 71
               1
 91
        1
 92
        1
 93
        1
 72
               2
 10
626.38878177418701
 20
775.8613552473073
 40
4.99969482421875
 50
0.0
 51
360.0
 73
               0
 97
        1
330
1B9
 75
               0
 76
               1
 98
        1
 10
0.0
 20
0.0
  0
MTEXT
  5
1BB
100
AcDbEntity
  8
0
390
0
 62
               0
100
AcDbMText
 10
646.27459071007434
 20
809.73897243480735
 30
0.0
 40
24.432617187500004
 41
0.0
 71
               1
 72
               1
  1
5
  7
ＭＳ ゴシック
 73
               1
 44
0.7828267384257843
  0
POINT
  5
1BC
100
AcDbEntity
  8
Defpoints
370
               0
390
0
 62
               0
100
AcDbPoint
 10
626.38878177418701
 20
827.4863552473073
 30
0.0
  0
POINT
  5
1BD
100
AcDbEntity
  8
Defpoints
370
               0
390
0
 62
               0
100
AcDbPoint
 10
621.38878177274273
 20
826.92282930842089
 30
0.0
  0
POINT
  5
1BE
100
AcDbEntity
  8
Defpoints
370
               0
390
0
 62
               0
100
AcDbPoint
 10
621.38878177274273
 20
775.8613552473073
 30
0.0
  0
ENDBLK
  5
1BF
100
AcDbEntity
  8
notes
390
0
100
AcDbBlockEnd
  0
BLOCK
  5
1C0
100
AcDbEntity
  8
ADF70-0401
390
0
100
AcDbBlockBegin
  2
グループ-1
 70
               0
 10
0.0
 20
0.0
 30
0.0
  3
グループ-1
  1

  0
LINE
  5
1C1
100
AcDbEntity
  8
0
370
              15
390
0
  6
STYLE_23
 62
               7
100
AcDbLine
 10
422.42187104077044
 20
-435.43643612044025
 30
0.0
 11
330.03156303050417
 21
-370.74404609863677
 31
0.0
  0
LINE
  5
1C2
100
AcDbEntity
  8
0
370
              15
390
0
  6
STYLE_23
 62
               7
100
AcDbLine
 10
422.42187104077044
 20
-739.03236829233776
 30
0.0
 11
330.03156303050417
 21
-803.72475831414033
 31
0.0
  0
ENDBLK
  5
1C3
100
AcDbEntity
  8
ADF70-0401
390
0
100
AcDbBlockEnd
  0
BLOCK
  5
1C4
100
AcDbEntity
  8
ADF70-0401
390
0
100
AcDbBlockBegin
  2
グループ-2
 70
               0
 10
0.0
 20
0.0
 30
0.0
  3
グループ-2
  1

  0
ARC
  5
1C5
100
AcDbEntity
  8
0
370
              15
390
0
  6
STYLE_23
 62
               7
100
AcDbCircle
 10
471.43024588034331
 20
-627.89596605135796
 30
0.0
 40
4.9999999823385526
100
AcDbArc
 50
139.99999981292004
 51
175.41634017602269
  0
LINE
  5
1C6
100
AcDbEntity
  8
0
370
              15
390
0
  6
STYLE_23
 62
               7
100
AcDbLine
 10
479.68642222985505
 20
-610.27801913498172
 30
0.0
 11
467.6000236887719
 21
-624.68202800177153
 31
0.0
  0
LINE
  5
1C7
100
AcDbEntity
  8
0
370
              15
390
0
  6
STYLE_23
 62
               7
100
AcDbLine
 10
512.49068432283184
 20
-610.27801913498172
 30
0.0
 11
479.68642222985505
 21
-610.27801913498172
 31
0.0
  0
ENDBLK
  5
1C8
100
AcDbEntity
  8
ADF70-0401
390
0
100
AcDbBlockEnd
  0
BLOCK
  5
1C9
100
AcDbEntity
  8
ADF70-0401
390
0
100
AcDbBlockBegin
  2
グループ-3
 70
               0
 10
0.0
 20
0.0
 30
0.0
  3
グループ-3
  1

  0
ARC
  5
1CA
100
AcDbEntity
  8
0
370
              15
390
0
  6
STYLE_23
 62
               7
100
AcDbCircle
 10
471.38878422992656
 20
-546.65922395650068
 30
0.0
 40
4.9999999823386148
100
AcDbArc
 50
184.58365982398772
 51
220.00000018708016
  0
LINE
  5
1CB
100
AcDbEntity
  8
0
370
              15
390
0
  6
STYLE_23
 62
               7
100
AcDbLine
 10
479.6449605794383
 20
-564.27717087287806
 30
0.0
 11
467.55856203835515
 21
-549.87316200608711
 31
0.0
  0
LINE
  5
1CC
100
AcDbEntity
  8
0
370
              15
390
0
  6
STYLE_23
 62
               7
100
AcDbLine
 10
512.44922267241509
 20
-564.27717087287806
 30
0.0
 11
479.6449605794383
 21
-564.27717087287806
 31
0.0
  0
INSERT
  5
1CD
100
AcDbEntity
  8
0
390
0
 62
               7
100
AcDbBlockReference
  2
グループ-2
 10
0.0
 20
0.0
 30
0.0
  0
LINE
  5
1CE
100
AcDbEntity
  8
0
370
              15
390
0
  6
STYLE_23
 62
               7
100
AcDbLine
 10
479.6449605794383
 20
-564.27717087287806
 30
0.0
 11
479.6449605794383
 21
-610.32743120576617
 31
0.0
  0
ENDBLK
  5
1CF
100
AcDbEntity
  8
ADF70-0401
390
0
100
AcDbBlockEnd
  0
ENDSEC
  0
SECTION
  2
ENTITIES
  0
MTEXT
  5
1D0
100
AcDbEntity
  8
template
390
0
 62
               7
100
AcDbMText
 10
-967.99999999975921
 20
-1147.4176292337004
 30
0.0
 40
16.288411458333332
 41
0.0
 71
               1
 72
               1
  1
品名
  7
ＭＳ ゴシック
 73
               1
 44
0.7828267384257843
  0
MTEXT
  5
1D1
100
AcDbEntity
  8
template
390
0
 62
               7
100
AcDbMText
 10
-967.99999999975921
 20
-1232.4176292337004
 30
0.0
 40
16.288411458333332
 41
0.0
 71
               1
 72
               1
  1
仕様
  7
ＭＳ ゴシック
 73
               1
 44
0.7828267384257843
  0
MTEXT
  5
1D2
100
AcDbEntity
  8
template
390
0
 62
               7
100
AcDbMText
 10
-914.99999999975921
 20
-1176.0000901712006
 30
0.0
 40
24.432617187500004
 41
0.0
 71
               1
 72
               1
  1
洗面器 -CATALANO,Zero-
  7
ＭＳ ゴシック
 73
               1
 44
0.7828267384257843
  0
LINE
  5
1D3
100
AcDbEntity
  8
template
370
               5
390
0
  6
Continuous
 62
               7
100
AcDbLine
 10
974.99999999975876
 20
-1224.0027073587005
 30
0.0
 11
-975.00000000024124
 21
-1224.0027073587005
 31
0.0
  0
LWPOLYLINE
  5
1D4
100
AcDbEntity
  8
template
370
               5
390
0
  6
Continuous
 62
               7
100
AcDbPolyline
 90
        5
 70
             128
 10
975.00000000024124
 20
1405.9972926412995
 10
-974.99999999975921
 20
1405.9972926412995
 10
-974.99999999975921
 20
-1394.0027073587005
 10
975.00000000024124
 20
-1394.0027073587005
 10
975.00000000024124
 20
1405.9972926412995
  0
LINE
  5
1D5
100
AcDbEntity
  8
template
370
               5
390
0
  6
Continuous
 62
               7
100
AcDbLine
 10
974.99999999975876
 20
-1139.0027073587005
 30
0.0
 11
-975.00000000024124
 21
-1139.0027073587005
 31
0.0
  0
LINE
  5
1D6
100
AcDbEntity
  8
template
370
               5
390
0
  6
Continuous
 62
               7
100
AcDbLine
 10
975.00000000024124
 20
-1309.0027073587005
 30
0.0
 11
222.00000000024124
 21
-1309.0027073587005
 31
0.0
  0
MTEXT
  5
1D7
100
AcDbEntity
  8
template
390
0
 62
               7
100
AcDbMText
 10
-974.99999999955594
 20
-1405.8565294155574
 30
0.0
 40
21.717881944444446
 41
0.0
 71
               1
 72
               1
  1
100707SH
  7
ＭＳ ゴシック
 73
               1
 44
0.7828267384257843
  0
MTEXT
  5
1D8
100
AcDbEntity
  8
template
390
0
 62
               7
100
AcDbMText
 10
251.87140625250089
 20
-1338.9131018320081
 30
0.0
 40
24.432617187500004
 41
0.0
 71
               1
 72
               1
  1
大洋金物株式会社 ティーフォルム事業部
  7
ＭＳ ゴシック
 73
               1
 44
0.7828267384257843
  0
INSERT
  5
1D9
100
AcDbEntity
  8
template
390
0
 62
               7
100
AcDbBlockReference
  2
グループ
 10
108.94133543128123
 20
145.20772959594623
 30
0.0
  0
MTEXT
  5
1DA
100
AcDbEntity
  8
template
390
0
 62
               7
100
AcDbMText
 10
784.00000000049999
 20
-1261.0000901712006
 30
0.0
 40
24.432617187500004
 41
0.0
 71
               1
 72
               1
  1
1:10
  7
ＭＳ ゴシック
 73
               1
 44
0.7828267384257843
  0
MTEXT
  5
1DB
100
AcDbEntity
  8
template
390
0
 62
               7
100
AcDbMText
 10
731.00000000049999
 20
-1232.4176292337004
 30
0.0
 40
16.288411458333332
 41
0.0
 71
               1
 72
               1
  1
縮尺
  7
ＭＳ ゴシック
 73
               1
 44
0.7828267384257843
  0
LINE
  5
1DC
100
AcDbEntity
  8
template
370
               5
390
0
  6
Continuous
 62
               7
100
AcDbLine
 10
724.00000000049999
 20
-1309.0027073587005
 30
0.0
 11
724.00000000049999
 21
-1224.0027073587005
 31
0.0
  0
MTEXT
  5
1DD
100
AcDbEntity
  8
template
390
0
 62
               7
100
AcDbMText
 10
480.00000000049999
 20
-1232.4176292337004
 30
0.0
 40
16.288411458333332
 41
0.0
 71
               1
 72
               1
  1
容量
  7
ＭＳ ゴシック
 73
               1
 44
0.7828267384257843
  0
MTEXT
  5
1DE
100
AcDbEntity
  8
template
390
0
 62
               7
100
AcDbMText
 10
533.00000000049999
 20
-1261.0000901712006
 30
0.0
 40
24.432617187500004
 41
0.0
 71
               1
 72
               1
  1
8.5L
  7
ＭＳ ゴシック
 73
               1
 44
0.7828267384257843
  0
LINE
  5
1DF
100
AcDbEntity
  8
template
370
               5
390
0
  6
Continuous
 62
               7
100
AcDbLine
 10
473.00000000049999
 20
-1309.0027073587005
 30
0.0
 11
473.00000000049999
 21
-1224.0027073587005
 31
0.0
  0
MTEXT
  5
1E0
100
AcDbEntity
  8
template
390
0
 62
               7
100
AcDbMText
 10
229.00000000049999
 20
-1147.4176292337004
 30
0.0
 40
16.288411458333332
 41
0.0
 71
               1
 72
               1
  1
品番
  7
ＭＳ ゴシック
 73
               1
 44
0.7828267384257843
  0
MTEXT
  5
1E1
100
AcDbEntity
  8
template
390
0
 62
               7
100
AcDbMText
 10
229.00000000049999
 20
-1232.4176292337004
 30
0.0
 40
16.288411458333332
 41
0.0
 71
               1
 72
               1
  1
重量
  7
ＭＳ ゴシック
 73
               1
 44
0.7828267384257843
  0
MTEXT
  5
1E2
100
AcDbEntity
  8
template
390
0
 62
               7
100
AcDbMText
 10
282.00000000049999
 20
-1176.0000901712006
 30
0.0
 40
24.432617187500004
 41
0.0
 71
               1
 72
               1
  1
ADF70-0401
  7
ＭＳ ゴシック
 73
               1
 44
0.7828267384257843
  0
MTEXT
  5
1E3
100
AcDbEntity
  8
template
390
0
 62
               7
100
AcDbMText
 10
282.00000000049999
 20
-1261.0000901712006
 30
0.0
 40
24.432617187500004
 41
0.0
 71
               1
 72
               1
  1
33kg
  7
ＭＳ ゴシック
 73
               1
 44
0.7828267384257843
  0
LINE
  5
1E4
100
AcDbEntity
  8
template
370
               5
390
0
  6
Continuous
 62
               7
100
AcDbLine
 10
222.00000000049999
 20
-1394.0027073587005
 30
0.0
 11
222.00000000049999
 21
-1139.0027073587005
 31
0.0
  0
MTEXT
  5
1E5
100
AcDbEntity
  8
template
390
0
 62
               7
100
AcDbMText
 10
-914.99999999975921
 20
-1261.0000901712008
 30
0.0
 40
24.432617187500004
 41
0.0
 71
               1
 72
               1
  1
壁掛け,カウンタ ー置き,半埋め込み/オーバーフロー付き/壁取付ボルト付属/\P陶器/ホワイト
  7
ＭＳ ゴシック
 73
               1
 44
1.3047112307096407
  0
MTEXT
  5
1E6
100
AcDbEntity
  8
notes
390
0
 62
               7
100
AcDbMText
 10
8.9562027638381636
 20
-800.17565453634063
 30
0.0
 40
24.432617187500004
 41
832.88315656391467
 71
               1
 72
               1
  1
＝φ30もしくはφ35の水栓取付用穴あけ加工を承ります。\P  必要な場合、ご注文の際にご指示ください。
  7
ＭＳ ゴシック
 11
0.0
 21
1.0
 31
0.0
 73
               1
 44
1.0437689845677123
  0
MTEXT
  5
1E7
100
AcDbEntity
  8
notes
390
0
 62
               7
100
AcDbMText
 10
346.98039484329877
 20
-25.989316806173093
 30
0.0
 40
24.432617187500004
 41
0.0
 71
               1
 72
               1
  1
壁取付ボルト穴(4ヶ所)
  7
ＭＳ ゴシック
 11
0.0
 21
1.0
 31
0.0
 73
               1
 44
0.7828267384257843
  0
MTEXT
  5
1E8
100
AcDbEntity
  8
notes
390
0
 62
               7
100
AcDbMText
 10
-875.27842998000403
 20
651.36114152473601
 30
0.0
 40
24.432617187500004
 41
0.0
 71
               1
 72
               1
  1
カウンター切込寸法
  7
ＭＳ ゴシック
 11
0.0
 21
1.0
 31
0.0
 73
               1
 44
0.7828267384257843
  0
MTEXT
  5
1E9
100
AcDbEntity
  8
notes
390
0
 62
               7
100
AcDbMText
 10
-797.76558028403394
 20
573.77741875413562
 30
0.0
 40
24.432617187500004
 41
0.0
 71
               1
 72
               1
  1
半埋め込み
  7
ＭＳ ゴシック
 11
0.0
 21
1.0
 31
0.0
 73
               1
 44
0.7828267384257843
  0
LINE
  5
1EA
100
AcDbEntity
  8
notes
370
               5
390
0
  6
Continuous
 62
               7
100
AcDbLine
 10
476.43024342413321
 20
-82.029396805359596
 30
0.0
 11
390.29262994911227
 21
-8.4289968094269057
 31
0.0
  0
MTEXT
  5
1EB
100
AcDbEntity
  8
notes
390
0
 62
               7
100
AcDbMText
 10
821.76612272729983
 20
-1011.8369901615682
 30
0.0
 40
24.432617187500004
 41
0.0
 71
               1
 72
               1
  1
半埋め込み
  7
ＭＳ ゴシック
 11
0.0
 21
1.0
 31
0.0
 73
               1
 44
0.7828267384257843
  0
MTEXT
  5
1EC
100
AcDbEntity
  8
notes
390
0
 62
               7
100
AcDbMText
 10
775.77877307094991
 20
-754.87794362669706
 30
0.0
 40
24.432617187500004
 41
0.0
 71
               1
 72
               1
  1
カウンター置き
  7
ＭＳ ゴシック
 11
0.0
 21
1.0
 31
0.0
 73
               1
 44
0.7828267384257843
  0
LINE
  5
1ED
100
AcDbEntity
  8
notes
370
               5
390
0
  6
Continuous
 62
               7
100
AcDbLine
 10
626.3887817741836
 20
-636.12939680536056
 30
0.0
 11
626.3887817741836
 21
-762.8293968053606
 31
0.0
  0
LINE
  5
1EE
100
AcDbEntity
  8
notes
370
               5
390
0
  6
Continuous
 62
               7
100
AcDbLine
 10
531.3887817741861
 20
-993.82939680536072
 30
0.0
 11
813.08381995133618
 21
-993.82939680536072
 31
0.0
  0
LINE
  5
1EF
100
AcDbEntity
  8
notes
370
               5
390
0
  6
Continuous
 62
               7
100
AcDbLine
 10
626.3887817741836
 20
-737.8293968053606
 30
0.0
 11
769.08381995133618
 21
-737.8293968053606
 31
0.0
  0
ARC
  5
1F0
100
AcDbEntity
  8
notes
370
               5
390
0
  6
Continuous
 62
               7
100
AcDbCircle
 10
440.28878177418704
 20
-938.12939680535908
 30
0.0
 40
3.9000000000000909
100
AcDbArc
 50
180.0
 51
270.0
  0
DIMENSION
  5
1F1
100
AcDbEntity
  8
notes
370
               5
390
0
  6
Continuous
 62
               7
100
AcDbDimension
  2
*D4
 10
336.34235830139176
 20
-792.02939680536065
 30
0.0
 11
336.34235830139176
 21
-647.02939680536065
 31
0.0
 71
               5
 72
               1
 41
1.0
 42
0.0
  3
TformSENN
100
AcDbAlignedDimension
 13
456.43024342413344
 23
-502.02939680536065
 33
0.0
 14
456.3838199513383
 24
-792.02939680536065
 34
0.0
 50
90.0
100
AcDbRotatedDimension
1001
ACAD
1000
DSTYLE
1002
{
1070
             279
1070
               2
1070
             340
1005
40
1070
             147
1040
5.0
1002
}
  0
DIMENSION
  5
1F2
100
AcDbEntity
  8
notes
370
               5
390
0
  6
Continuous
 62
               7
100
AcDbDimension
  2
*D5
 10
336.3887817741869
 20
-502.02939680536065
 30
0.0
 11
336.3887817741869
 21
-437.02939680536019
 31
0.0
 71
               5
 72
               1
 41
1.0
 42
0.0
  3
TformSENN
100
AcDbAlignedDimension
 13
456.43024342413344
 23
-372.02939680535974
 33
0.0
 14
456.43024342413344
 24
-502.02939680536065
 34
0.0
 50
90.0
100
AcDbRotatedDimension
1001
ACAD
1000
DSTYLE
1002
{
1070
             279
1070
               2
1070
             340
1005
40
1070
             147
1040
5.0
1002
}
  0
DIMENSION
  5
1F3
100
AcDbEntity
  8
notes
370
               5
390
0
  6
Continuous
 62
               7
100
AcDbDimension
  2
*D6
 10
336.3887817741869
 20
-372.02939680535974
 30
0.0
 11
336.3887817741869
 21
-227.02939680535965
 31
0.0
 71
               5
 72
               1
 41
1.0
 42
0.0
  3
TformSENN
100
AcDbAlignedDimension
 13
456.43024342413344
 23
-82.029396805359596
 33
0.0
 14
456.43024342413344
 24
-372.02939680535974
 34
0.0
 50
90.0
100
AcDbRotatedDimension
1001
ACAD
1000
DSTYLE
1002
{
1070
             279
1070
               2
1070
             340
1005
40
1070
             147
1040
5.0
1002
}
  0
DIMENSION
  5
1F4
100
AcDbEntity
  8
notes
370
               5
390
0
  6
Continuous
 62
               7
100
AcDbDimension
  2
*D7
 10
476.43024342413321
 20
-1062.0293968053588
 30
0.0
 11
456.40951259916005
 21
-1062.0293968053588
 31
0.0
 71
               5
 72
               1
 41
1.0
 42
0.0
  3
TformSENN
100
AcDbAlignedDimension
 13
436.38878177418695
 23
-938.12939680535908
 33
0.0
 14
476.43024342413321
 24
-842.02939680536065
 34
0.0
100
AcDbRotatedDimension
1001
ACAD
1000
DSTYLE
1002
{
1070
             279
1070
               2
1070
             340
1005
40
1070
             147
1040
5.0
1002
}
  0
MTEXT
  5
1F5
100
AcDbEntity
  8
notes
390
0
 62
               7
100
AcDbMText
 10
153.98231145677101
 20
404.97111712756441
 30
0.0
 40
24.432617187500004
 41
0.0
 71
               1
 72
               1
  1
※カウンター置きの場合も壁固定が必要です。
  7
ＭＳ ゴシック
 11
0.0
 21
1.0
 31
0.0
 73
               1
 44
0.7828267384257843
  0
MTEXT
  5
1F6
100
AcDbEntity
  8
notes
390
0
 62
               7
100
AcDbMText
 10
8.956202763838192
 20
404.97111712756441
 30
0.0
 40
24.432617187500004
 41
764.7717154610109
 71
               1
 72
               1
  1
※陶器製品には寸法公差があります。\P  洗面器の収め方をご確認の上、必ず現物を合わせて\P  カウンターに切込を行ってください。
  7
ＭＳ ゴシック
 11
0.0
 21
1.0
 31
0.0
 73
               1
 44
1.0437689845677123
  0
CIRCLE
  5
1F7
100
AcDbEntity
  8
notes
370
              15
390
0
  6
STYLE_23
 62
               7
100
AcDbCircle
 10
20.797101801794511
 20
-827.40032248474256
 30
0.0
 40
17.500000000000114
  0
DIMENSION
  5
1F8
100
AcDbEntity
  8
notes
370
               5
390
0
  6
Continuous
 62
               7
100
AcDbDimension
  2
*D8
 10
-813.10234138460385
 20
-942.06986540798414
 30
0.0
 11
-813.10234138460385
 21
-442.06986540798368
 31
0.0
 71
               5
 72
               1
 41
1.0
 42
0.0
  3
TformSENN
100
AcDbAlignedDimension
 13
-658.10234138460385
 23
57.930134592016714
 33
0.0
 14
-658.1023413846043
 24
-942.06986540798414
 34
0.0
 50
90.0
100
AcDbRotatedDimension
1001
ACAD
1000
DSTYLE
1002
{
1070
             279
1070
               2
1070
             340
1005
40
1070
             147
1040
5.0
1002
}
  0
DIMENSION
  5
1F9
100
AcDbEntity
  8
notes
370
               5
390
0
  6
Continuous
 62
               7
100
AcDbDimension
  2
*D9
 10
-63.10234138460163
 20
-667.0924979724258
 30
0.0
 11
-63.10234138460163
 21
-442.09249797242535
 31
0.0
 71
               5
 72
               1
 41
1.0
 42
0.0
  3
TformSENN
100
AcDbAlignedDimension
 13
-163.10234138460163
 23
-217.09249797242487
 33
0.0
 14
-163.10234138460163
 24
-667.0924979724258
 34
0.0
 50
90.0
100
AcDbRotatedDimension
1001
ACAD
1000
DSTYLE
1002
{
1070
             279
1070
               2
1070
             340
1005
40
1070
             147
1040
5.0
1002
}
  0
DIMENSION
  5
1FA
100
AcDbEntity
  8
notes
370
               5
390
0
  6
Continuous
 62
               7
100
AcDbDimension
  2
*D10
 10
-663.10234138460385
 20
157.93013459201671
 30
0.0
 11
-413.10234138460271
 21
157.93013459201671
 31
0.0
 71
               5
 72
               1
 41
1.0
 42
0.0
  3
TformSENN
100
AcDbAlignedDimension
 13
-163.10234138460163
 23
52.930134592016714
 33
0.0
 14
-663.10234138460385
 24
52.930134592016714
 34
0.0
100
AcDbRotatedDimension
1001
ACAD
1000
DSTYLE
1002
{
1070
             279
1070
               2
1070
             340
1005
40
1070
             147
1040
5.0
1002
}
  0
DIMENSION
  5
1FB
100
AcDbEntity
  8
notes
370
               5
390
0
  6
Continuous
 62
               7
100
AcDbDimension
  2
*D11
 10
-233.11618004866165
 20
1073.8569748580692
 30
0.0
 11
-448.11618004866273
 21
1073.8569748580692
 31
0.0
 71
               5
 72
               1
 41
1.0
 42
0.0
  3
TformSENN
100
AcDbAlignedDimension
 13
-663.11618004866386
 23
973.85697485806918
 33
0.0
 14
-233.11618004866165
 24
973.85697485806918
 34
0.0
100
AcDbRotatedDimension
1001
ACAD
1000
DSTYLE
1002
{
1070
             279
1070
               2
1070
             340
1005
40
1070
             147
1040
5.0
1002
}
  0
DIMENSION
  5
1FC
100
AcDbEntity
  8
notes
370
               5
390
0
  6
Continuous
 62
               7
100
AcDbDimension
  2
*D12
 10
-63.10234138460163
 20
973.85697485806918
 30
0.0
 11
-63.10234138460163
 21
783.85697485806952
 31
0.0
 71
               5
 72
               1
 41
1.0
 42
0.0
  3
TformSENN
100
AcDbAlignedDimension
 13
-233.11618004866165
 23
593.85697485806975
 33
0.0
 14
-233.11618004866165
 24
973.85697485806918
 34
0.0
 50
90.0
100
AcDbRotatedDimension
1001
ACAD
1000
DSTYLE
1002
{
1070
             279
1070
               2
1070
             340
1005
40
1070
             147
1040
5.0
1002
}
  0
DIMENSION
  5
1FD
100
AcDbEntity
  8
notes
370
               5
390
0
  6
Continuous
 62
               7
100
AcDbDimension
  2
*D13
 10
-313.11618004866182
 20
908.85697485806918
 30
0.0
 11
-313.11618004866182
 21
783.85697485806918
 31
0.0
 71
               5
 72
               1
 41
1.0
 42
0.0
  3
TformSENN
100
AcDbAlignedDimension
 13
-413.11618004866182
 23
658.85697485806918
 33
0.0
 14
-413.11618004866182
 24
908.85697485806918
 34
0.0
 50
90.0
100
AcDbRotatedDimension
1001
ACAD
1000
DSTYLE
1002
{
1070
             279
1070
               2
1070
             340
1005
40
1070
             147
1040
5.0
1002
}
  0
DIMENSION
  5
1FE
100
AcDbEntity
  8
notes
370
               5
390
0
  6
Continuous
 62
               7
100
AcDbDimension
  2
*D14
 10
-413.11618004866182
 20
493.85697485806918
 30
0.0
 11
-538.11618004866284
 21
493.85697485806918
 31
0.0
 71
               5
 72
               1
 41
1.0
 42
0.0
  3
TformSENN
100
AcDbAlignedDimension
 13
-663.11618004866386
 23
662.48202913846626
 33
0.0
 14
-413.11618004866182
 24
658.85697485806918
 34
0.0
100
AcDbRotatedDimension
1001
ACAD
1000
DSTYLE
1002
{
1070
             279
1070
               2
1070
             340
1005
40
1070
             147
1040
5.0
1002
}
  0
DIMENSION
  5
1FF
100
AcDbEntity
  8
notes
370
               5
390
0
  6
Continuous
 62
               7
100
AcDbDimension
  2
*D15
 10
-63.10234138460163
 20
-667.0924979724258
 30
0.0
 11
-63.10234138460163
 21
-804.58118169020497
 31
0.0
 71
               5
 72
               1
 41
1.0
 42
0.0
  3
TformSENN
100
AcDbAlignedDimension
 13
-168.10234138460163
 23
-942.06986540798414
 33
0.0
 14
-163.10234138460163
 24
-667.0924979724258
 34
0.0
 50
90.0
100
AcDbRotatedDimension
1001
ACAD
1000
DSTYLE
1002
{
1070
             279
1070
               2
1070
             340
1005
40
1070
             147
1040
5.0
1002
}
  0
DIMENSION
  5
200
100
AcDbEntity
  8
notes
370
               5
390
0
  6
Continuous
 62
               7
100
AcDbDimension
  2
*D16
 10
-763.1023413846043
 20
-541.58178797456264
 30
0.0
 11
-763.1023413846043
 21
-491.58178797456264
 31
0.0
 71
               5
 72
               1
 41
1.0
 42
0.0
  3
TformSENN
100
AcDbAlignedDimension
 13
-616.24170040640877
 23
-441.58178797456253
 33
0.0
 14
-616.24170040640877
 24
-541.58178797456264
 34
0.0
 50
90.0
100
AcDbRotatedDimension
1001
ACAD
1000
DSTYLE
1002
{
1070
             279
1070
               2
1070
             340
1005
40
1070
             147
1040
5.0
1002
}
  0
DIMENSION
  5
201
100
AcDbEntity
  8
notes
370
               5
390
0
  6
Continuous
 62
               7
100
AcDbDimension
  2
*D17
 10
-763.1023413846043
 20
-441.58178797456253
 30
0.0
 11
-763.1023413846043
 21
-391.58178797456208
 31
0.0
 71
               5
 72
               1
 41
1.0
 42
0.0
  3
TformSENN
100
AcDbAlignedDimension
 13
-616.24170040640877
 23
-341.58178797456162
 33
0.0
 14
-616.24170040640877
 24
-441.58178797456253
 34
0.0
 50
90.0
100
AcDbRotatedDimension
1001
ACAD
1000
DSTYLE
1002
{
1070
             279
1070
               2
1070
             340
1005
40
1070
             147
1040
5.0
1002
}
  0
DIMENSION
  5
202
100
AcDbEntity
  8
notes
370
               5
390
0
  6
Continuous
 62
               7
100
AcDbDimension
  2
*D18
 10
726.14826926768137
 20
-262.0698654079855
 30
0.0
 11
726.14826926768137
 21
-437.06986540798619
 31
0.0
 71
               5
 72
               1
 41
1.0
 42
0.0
  3
TformSENN
100
AcDbAlignedDimension
 13
622.4887817741851
 23
-612.06986540798698
 33
0.0
 14
622.4887817741851
 24
-262.0698654079855
 34
0.0
 50
90.0
100
AcDbRotatedDimension
1001
ACAD
1000
DSTYLE
1002
{
1070
             279
1070
               2
1070
             340
1005
40
1070
             147
1040
5.0
1002
}
  0
DIMENSION
  5
203
100
AcDbEntity
  8
notes
370
               5
390
0
  6
Continuous
 62
               7
100
AcDbDimension
  2
*D19
 10
-663.1023413846043
 20
-1042.0698654079843
 30
0.0
 11
-598.10234138460385
 21
-1042.0698654079843
 31
0.0
 71
               5
 72
               1
 41
1.0
 42
0.0
  3
TformSENN
100
AcDbAlignedDimension
 13
-533.10234138460339
 23
-942.06986540798414
 33
0.0
 14
-663.1023413846043
 24
-937.06986540798414
 34
0.0
100
AcDbRotatedDimension
1001
ACAD
1000
DSTYLE
1002
{
1070
             279
1070
               2
1070
             340
1005
40
1070
             147
1040
5.0
1002
}
  0
DIMENSION
  5
204
100
AcDbEntity
  8
notes
370
               5
390
0
  6
Continuous
 62
               7
100
AcDbDimension
  2
*D20
 10
-533.10234138460339
 20
-1042.0698654079847
 30
0.0
 11
-360.60234138460248
 21
-1042.0698654079847
 31
0.0
 71
               5
 72
               1
 41
1.0
 42
0.0
  3
TformSENN
100
AcDbAlignedDimension
 13
-188.10234138460163
 23
-662.08112773016535
 33
0.0
 14
-533.10234138460339
 24
-662.08112773016535
 34
0.0
100
AcDbRotatedDimension
1001
ACAD
1000
DSTYLE
1002
{
1070
             279
1070
               2
1070
             340
1005
40
1070
             147
1040
5.0
1002
}
  0
DIMENSION
  5
205
100
AcDbEntity
  8
notes
370
               5
390
0
  6
Continuous
 62
               7
100
AcDbDimension
  2
*D21
 10
436.38878177418695
 20
157.93013459201626
 30
0.0
 11
531.38878177418587
 21
157.93013459201626
 31
0.0
 71
               5
 72
               1
 41
1.0
 42
0.0
  3
TformSENN
100
AcDbAlignedDimension
 13
626.38878177418474
 23
-265.96986540798559
 33
0.0
 14
436.38878177418695
 24
54.030134592016168
 34
0.0
100
AcDbRotatedDimension
1001
ACAD
1000
DSTYLE
1002
{
1070
             279
1070
               2
1070
             340
1005
40
1070
             147
1040
5.0
1002
}
  0
LINE
  5
206
100
AcDbEntity
  8
notes
370
               5
390
0
  6
Continuous
 62
               7
100
AcDbLine
 10
531.38878177418587
 20
-959.92128468098224
 30
0.0
 11
531.38878177418587
 21
-1024.321284680982
 31
0.0
  0
LINE
  5
207
100
AcDbEntity
  8
notes
370
               5
390
0
  6
Continuous
 62
               7
100
AcDbLine
 10
-663.61440406962333
 20
597.48202913846683
 30
0.0
 11
-756.91618004866382
 21
597.48202913846683
 31
0.0
  0
MTEXT
  5
208
100
AcDbEntity
  8
notes
390
0
 62
               7
100
AcDbMText
 10
-738.04379723616375
 20
648.07092619500349
 30
0.0
 40
24.432617187500004
 41
0.0
 71
               1
 72
               1
  1
カウンター置き
  7
ＭＳ ゴシック
 11
0.0
 21
1.0
 31
0.0
 73
               1
 44
0.7828267384257843
  0
LINE
  5
209
100
AcDbEntity
  8
notes
370
               5
390
0
  6
STYLE_24
 62
               7
100
AcDbLine
 10
-663.11618004866386
 20
662.48202913846626
 30
0.0
 11
-698.91618004866382
 21
662.48202913846626
 31
0.0
  0
DIMENSION
  5
20A
100
AcDbEntity
  8
notes
370
               5
390
0
  6
Continuous
 62
               7
100
AcDbDimension
  2
*D22
 10
726.47306409796965
 20
1032.7373926564603
 30
0.0
 11
726.47306409796965
 21
932.73739265646032
 31
0.0
 71
               5
 72
               1
 41
1.0
 42
0.0
  3
tfrom線あり
100
AcDbAlignedDimension
 13
626.38878177418701
 23
832.73739265646032
 33
0.0
 14
622.47306410091824
 24
1032.7373926564603
 34
0.0
 50
90.0
100
AcDbRotatedDimension
1001
ACAD
1000
DSTYLE
1002
{
1070
             279
1070
               2
1070
             340
1005
40
1070
             147
1040
5.0
1002
}
  0
DIMENSION
  5
20B
100
AcDbEntity
  8
notes
370
               5
390
0
  6
Continuous
 62
               7
100
AcDbDimension
  2
*D23
 10
776.47306409796965
 20
1032.7373926564605
 30
0.0
 11
776.47306409796965
 21
825.23739265646054
 31
0.0
 71
               5
 72
               1
 41
1.0
 42
0.0
  3
tfrom線あり
100
AcDbAlignedDimension
 13
622.47306410091778
 23
617.73739265646054
 33
0.0
 14
622.47306410091778
 24
1032.7373926564605
 34
0.0
 50
90.0
100
AcDbRotatedDimension
1001
ACAD
1000
DSTYLE
1002
{
1070
             279
1070
               2
1070
             340
1005
40
1070
             147
1040
5.0
1002
}
  0
DIMENSION
  5
20C
100
AcDbEntity
  8
notes
370
               5
390
0
  6
Continuous
 62
               7
100
AcDbDimension
  2
*D24
 10
336.47306410091824
 20
1032.7373926564603
 30
0.0
 11
336.47306410091824
 21
1000.2578482333777
 31
0.0
 71
               5
 72
               1
 41
1.0
 42
0.0
  3
tfrom線あり
100
AcDbAlignedDimension
 13
436.52406651188039
 23
967.77830381029503
 33
0.0
 14
439.47306410091824
 24
1032.7373926564603
 34
0.0
 50
90.0
100
AcDbRotatedDimension
1001
ACAD
1000
DSTYLE
1002
{
1070
             279
1070
               2
1070
             340
1005
40
1070
             147
1040
5.0
1002
}
  0
DIMENSION
  5
20D
100
AcDbEntity
  8
notes
370
               5
390
0
  6
Continuous
 62
               7
100
AcDbDimension
  2
*D25
 10
436.54135912005313
 20
815.26121331246077
 30
0.0
 11
427.08331498099687
 21
820.26121331246077
 31
0.0
 70
             128
 71
               5
 72
               1
 41
1.0
 42
0.0
  3
tfrom線あり
100
AcDbAlignedDimension
 13
576.54135912005313
 23
821.13311412995313
 33
0.0
 14
436.54135912005313
 24
821.17068774455606
 34
0.0
100
AcDbRotatedDimension
1001
ACAD
1000
DSTYLE
1002
{
1070
             279
1070
               2
1070
             340
1005
40
1070
               3
1000
<>(深さ)
1070
             174
1070
               0
1070
             147
1040
5.0
1002
}
  0
DIMENSION
  5
20E
100
AcDbEntity
  8
notes
370
               5
390
0
  6
Continuous
 62
               7
100
AcDbDimension
  2
*D26
 10
436.47306410091824
 20
432.73739265646077
 30
0.0
 11
483.97306410091824
 21
432.73739265646077
 31
0.0
 71
               5
 72
               1
 41
1.0
 42
0.0
  3
tfrom線あり
100
AcDbAlignedDimension
 13
531.47306410091824
 23
535.23739265646077
 33
0.0
 14
436.47306410091824
 24
535.23739265646077
 34
0.0
100
AcDbRotatedDimension
1001
ACAD
1000
DSTYLE
1002
{
1070
             279
1070
               2
1070
             340
1005
40
1070
             147
1040
5.0
1002
}
  0
DIMENSION
  5
20F
100
AcDbEntity
  8
notes
370
               5
390
0
  6
Continuous
 62
               7
100
AcDbDimension
  2
*D27
 10
531.47306410091824
 20
432.73739265646077
 30
0.0
 11
578.97306410091824
 21
432.73739265646077
 31
0.0
 71
               5
 72
               1
 41
1.0
 42
0.0
  3
tfrom線あり
100
AcDbAlignedDimension
 13
626.47306410091824
 23
622.58428636049189
 33
0.0
 14
531.47306410091824
 24
535.23739265646077
 34
0.0
100
AcDbRotatedDimension
1001
ACAD
1000
DSTYLE
1002
{
1070
             279
1070
               2
1070
             340
1005
40
1070
             147
1040
5.0
1002
}
  0
DIMENSION
  5
210
100
AcDbEntity
  8
notes
370
               5
390
0
  6
Continuous
 62
               7
100
AcDbDimension
  2
*D28
 10
621.38878177274273
 20
775.8613552473073
 30
0.0
 11
646.27459071007434
 21
780.8613552473073
 31
0.0
 70
             128
 71
               5
 72
               1
 41
1.0
 42
0.0
  3
tfrom線あり
100
AcDbAlignedDimension
 13
626.38878177418701
 23
827.4863552473073
 33
0.0
 14
621.38878177274273
 24
826.92282930842089
 34
0.0
100
AcDbRotatedDimension
1001
ACAD
1000
DSTYLE
1002
{
1070
             279
1070
               2
1070
             340
1005
40
1070
             174
1070
               0
1070
             147
1040
5.0
1002
}
  0
LINE
  5
211
100
AcDbEntity
  8
ADF70-0401
370
              15
390
0
  6
Continuous
 62
               7
100
AcDbLine
 10
-663.1023413846043
 20
235.35496929519471
 30
0.0
 11
-663.1023413846043
 21
1335.354969295194
 31
0.0
  0
LINE
  5
212
100
AcDbEntity
  8
ADF70-0401
370
              15
390
0
  6
Continuous
 62
               7
100
AcDbLine
 10
-663.1023413846043
 20
1244.054969295194
 30
0.0
 11
-700.1023413846043
 21
1281.054969295194
 31
0.0
  0
LINE
  5
213
100
AcDbEntity
  8
ADF70-0401
370
              15
390
0
  6
Continuous
 62
               7
100
AcDbLine
 10
-663.1023413846043
 20
1264.054969295194
 30
0.0
 11
-700.1023413846043
 21
1301.054969295194
 31
0.0
  0
LINE
  5
214
100
AcDbEntity
  8
ADF70-0401
370
              15
390
0
  6
Continuous
 62
               7
100
AcDbLine
 10
-663.1023413846043
 20
1284.054969295194
 30
0.0
 11
-700.1023413846043
 21
1321.054969295194
 31
0.0
  0
LWPOLYLINE
  5
215
100
AcDbEntity
  8
ADF70-0401
370
              15
390
0
  6
Continuous
 62
               7
100
AcDbPolyline
 90
        8
 70
             129
 10
-663.10234138460385
 20
52.930134592016714
 42
-0.4142135623730967
 10
-658.10234138460385
 20
57.930134592016714
 10
-168.10234138460163
 20
57.930134592016714
 42
-0.414213562373095
 10
-163.10234138460163
 20
52.930134592016714
 10
-163.10234138460163
 20
-937.06986540798414
 42
-0.414213562373095
 10
-168.10234138460163
 20
-942.06986540798414
 10
-658.1023413846043
 20
-942.06986540798414
 42
-0.414213562373095
 10
-663.1023413846043
 20
-937.06986540798414
  0
LINE
  5
216
100
AcDbEntity
  8
ADF70-0401
370
              15
390
0
  6
Continuous
 62
               7
100
AcDbLine
 10
440.28878177418704
 20
57.930134592016714
 30
0.0
 11
527.48878177418635
 21
57.930134592016714
 31
0.0
  0
LINE
  5
217
100
AcDbEntity
  8
ADF70-0401
370
              15
390
0
  6
Continuous
 62
               7
100
AcDbLine
 10
531.38878177418587
 20
-938.16987343364588
 30
0.0
 11
531.38878177418587
 21
54.030134592016168
 31
0.0
  0
LINE
  5
218
100
AcDbEntity
  8
ADF70-0401
370
              15
390
0
  6
Continuous
 62
               7
100
AcDbLine
 10
436.38878177418695
 20
-938.16987343364588
 30
0.0
 11
436.38878177418695
 21
54.030134592016168
 31
0.0
  0
LINE
  5
219
100
AcDbEntity
  8
ADF70-0401
370
              15
390
0
  6
Continuous
 62
               7
100
AcDbLine
 10
626.38878177418474
 20
-265.96986540798559
 30
0.0
 11
626.38878177418474
 21
-608.16986540798644
 31
0.0
  0
POLYLINE
  5
21A
100
AcDbEntity
  8
ADF70-0401
370
              15
390
0
  6
Continuous
 62
               7
100
AcDb2dPolyline
 66
               1
 10
0.0
 20
0.0
 30
0.0
 75
               5
  0
VERTEX
  5
21B
100
AcDbEntity
  8
ADF70-0401
370
              15
390
0
  6
Continuous
 62
               7
100
AcDbVertex
100
AcDb2dVertex
 10
622.4887817741851
 20
-612.06986540798698
 30
0.0
  0
VERTEX
  5
21C
100
AcDbEntity
  8
ADF70-0401
370
              15
390
0
  6
Continuous
 62
               7
100
AcDbVertex
100
AcDb2dVertex
 10
531.38878177418587
 20
-612.06986540798698
 30
0.0
  0
VERTEX
  5
21D
100
AcDbEntity
  8
ADF70-0401
370
              15
390
0
  6
Continuous
 62
               7
100
AcDbVertex
100
AcDb2dVertex
 10
531.38878177418587
 20
-262.06986540798596
 30
0.0
  0
VERTEX
  5
21E
100
AcDbEntity
  8
ADF70-0401
370
              15
390
0
  6
Continuous
 62
               7
100
AcDbVertex
100
AcDb2dVertex
 10
622.4887817741851
 20
-262.06986540798596
 30
0.0
  0
SEQEND
  5
21F
100
AcDbEntity
  8
ADF70-0401
370
              15
390
0
  6
Continuous
 62
               7
  0
ARC
  5
220
100
AcDbEntity
  8
ADF70-0401
370
              15
390
0
  6
Continuous
 62
               7
100
AcDbCircle
 10
527.48878177418635
 20
-938.1698654079845
 30
0.0
 40
3.8999999999996362
100
AcDbArc
 50
270.0
 51
0.0
  0
ARC
  5
221
100
AcDbEntity
  8
ADF70-0401
370
              15
390
0
  6
Continuous
 62
               7
100
AcDbCircle
 10
440.28878177418704
 20
54.030134592016168
 30
0.0
 40
3.9000000000005457
100
AcDbArc
 50
90.0
 51
180.0
  0
ARC
  5
222
100
AcDbEntity
  8
ADF70-0401
370
              15
390
0
  6
Continuous
 62
               7
100
AcDbCircle
 10
527.4887817741859
 20
54.030134592016168
 30
0.0
 40
3.9000000000000341
100
AcDbArc
 50
0.0
 51
89.999999999993349
  0
ARC
  5
223
100
AcDbEntity
  8
ADF70-0401
370
              15
390
0
  6
Continuous
 62
               7
100
AcDbCircle
 10
622.48878177418464
 20
-265.96986540798559
 30
0.0
 40
3.9000000000000909
100
AcDbArc
 50
0.0
 51
89.999999999993349
  0
ARC
  5
224
100
AcDbEntity
  8
ADF70-0401
370
              15
390
0
  6
Continuous
 62
               7
100
AcDbCircle
 10
622.4887817741851
 20
-608.16986540798644
 30
0.0
 40
3.9000000000005457
100
AcDbArc
 50
270.0
 51
0.0
  0
LINE
  5
225
100
AcDbEntity
  8
ADF70-0401
370
              15
390
0
  6
Continuous
 62
               7
100
AcDbLine
 10
440.28878177418704
 20
-942.06986540798414
 30
0.0
 11
527.48878177418635
 21
-942.06986540798414
 31
0.0
  0
LINE
  5
226
100
AcDbEntity
  8
ADF70-0401
370
              15
390
0
  6
Continuous
 62
               7
100
AcDbLine
 10
441.41435707632121
 20
57.930134592016714
 30
0.0
 11
526.36320647205173
 21
57.930134592016714
 31
0.0
  0
ARC
  5
227
100
AcDbEntity
  8
ADF70-0401
370
              15
390
0
  6
STYLE_23
 62
               7
100
AcDbCircle
 10
442.41435706567148
 20
-220.62140424000009
 30
0.0
 40
5.9999999893502718
100
AcDbArc
 50
180.00000005294399
 51
235.00000009456511
  0
LINE
  5
228
100
AcDbEntity
  8
ADF70-0401
370
              15
390
0
  6
STYLE_23
 62
               7
100
AcDbLine
 10
555.91482544388464
 20
-307.41993517605385
 30
0.0
 11
531.36320647205162
 21
-290.22870652449399
 31
0.0
  0
ARC
  5
229
100
AcDbEntity
  8
ADF70-0401
370
              15
390
0
  6
STYLE_23
 62
               7
100
AcDbCircle
 10
535.83965013839202
 20
-336.09025679094464
 30
0.0
 40
35.000000072107284
100
AcDbArc
 50
4.5021894685028663
 51
55.000000016293704
  0
LINE
  5
22A
100
AcDbEntity
  8
ADF70-0401
370
              15
390
0
  6
STYLE_23
 62
               7
100
AcDbLine
 10
575.34611112960647
 20
-401.85106760829683
 30
0.0
 11
570.73165192875808
 21
-333.3428550895909
 31
0.0
  0
ARC
  5
22B
100
AcDbEntity
  8
ADF70-0401
370
              15
390
0
  6
STYLE_23
 62
               7
100
AcDbCircle
 10
442.41435706567148
 20
-663.43194098088543
 30
0.0
 40
5.9999999893512834
100
AcDbArc
 50
124.99999990543
 51
179.99999994705601
  0
LINE
  5
22C
100
AcDbEntity
  8
ADF70-0401
370
              15
390
0
  6
STYLE_23
 62
               7
100
AcDbLine
 10
555.91482544388464
 20
-576.63341004483163
 30
0.0
 11
531.36320647205162
 21
-593.8246386963915
 31
0.0
  0
ARC
  5
22D
100
AcDbEntity
  8
ADF70-0401
370
              15
390
0
  6
STYLE_23
 62
               7
100
AcDbCircle
 10
535.83965013839202
 20
-547.96308842994085
 30
0.0
 40
35.000000072107632
100
AcDbArc
 50
304.99999998370629
 51
355.49781053149707
  0
LINE
  5
22E
100
AcDbEntity
  8
ADF70-0401
370
              15
390
0
  6
STYLE_23
 62
               7
100
AcDbLine
 10
575.38757278002322
 20
-482.2886632076702
 30
0.0
 11
570.73165192875808
 21
-550.71049013129459
 31
0.0
  0
INSERT
  5
22F
100
AcDbEntity
  8
ADF70-0401
390
0
 62
               7
100
AcDbBlockReference
  2
グループ-1
 10
108.94133543128123
 20
145.20772959594623
 30
0.0
  0
INSERT
  5
230
100
AcDbEntity
  8
ADF70-0401
390
0
 62
               7
100
AcDbBlockReference
  2
グループ-3
 10
108.94133543128123
 20
145.20772959594623
 30
0.0
  0
LINE
  5
231
100
AcDbEntity
  8
ADF70-0401
370
              15
390
0
  6
STYLE_23
 62
               7
100
AcDbLine
 10
576.54135912005313
 20
-480.51749120336899
 30
0.0
 11
576.54135912005313
 21
-405.75803727846812
 31
0.0
  0
LINE
  5
232
100
AcDbEntity
  8
ADF70-0401
370
              15
390
0
  6
STYLE_24
 62
               7
100
AcDbLine
 10
436.38878177418695
 20
-938.12939680535908
 30
0.0
 11
436.3887817741869
 21
54.580983788586053
 31
0.0
  0
CIRCLE
  5
233
100
AcDbEntity
  8
ADF70-0401
370
              15
390
0
  6
STYLE_23
 62
               7
100
AcDbCircle
 10
-463.10234138460237
 20
785.35496929519411
 30
0.0
 40
23.0
  0
CIRCLE
  5
234
100
AcDbEntity
  8
ADF70-0401
370
              15
390
0
  6
STYLE_23
 62
               7
100
AcDbCircle
 10
-598.14170040640875
 20
685.35517929305786
 30
0.0
 40
17.5
  0
CIRCLE
  5
235
100
AcDbEntity
  8
ADF70-0401
370
              15
390
0
  6
STYLE_23
 62
               7
100
AcDbCircle
 10
-598.14170040640875
 20
785.35517929305786
 30
0.0
 40
17.5
  0
CIRCLE
  5
236
100
AcDbEntity
  8
ADF70-0401
370
              15
390
0
  6
STYLE_23
 62
               7
100
AcDbCircle
 10
-598.14170040640875
 20
885.35517929305786
 30
0.0
 40
17.5
  0
LWPOLYLINE
  5
237
100
AcDbEntity
  8
ADF70-0401
370
               5
390
0
  6
STYLE_23
 62
               7
100
AcDbPolyline
 90
        8
 70
             129
 10
-663.10234138460385
 20
1278.8861792930584
 42
-0.414213562373095
 10
-658.10234138460385
 20
1283.8861792930584
 10
-168.10234138460163
 20
1283.8861792930584
 42
-0.4142135623730917
 10
-163.10234138460163
 20
1278.8861792930584
 10
-163.10234138460163
 20
288.88617929305929
 42
-0.414213562373095
 10
-168.10234138460163
 20
283.88617929305929
 10
-658.1023413846043
 20
283.88617929305929
 42
-0.4142135623730884
 10
-663.1023413846043
 20
288.88617929305929
  0
POLYLINE
  5
238
100
AcDbEntity
  8
ADF70-0401
370
              15
390
0
  6
Continuous
 62
               7
100
AcDb2dPolyline
 66
               1
 10
0.0
 20
0.0
 30
0.0
 70
               1
 75
               5
  0
VERTEX
  5
239
100
AcDbEntity
  8
ADF70-0401
370
              15
390
0
  6
Continuous
 62
               7
100
AcDbVertex
100
AcDb2dVertex
 10
-663.11618004866386
 20
973.85697485806918
 30
0.0
  0
VERTEX
  5
23A
100
AcDbEntity
  8
ADF70-0401
370
              15
390
0
  6
Continuous
 62
               7
100
AcDbVertex
100
AcDb2dVertex
 10
-233.11618004866165
 20
973.85697485806918
 30
0.0
  0
VERTEX
  5
23B
100
AcDbEntity
  8
ADF70-0401
370
              15
390
0
  6
Continuous
 62
               7
100
AcDbVertex
100
AcDb2dVertex
 10
-233.11618004866165
 20
593.85697485806975
 30
0.0
  0
VERTEX
  5
23C
100
AcDbEntity
  8
ADF70-0401
370
              15
390
0
  6
Continuous
 62
               7
100
AcDbVertex
100
AcDb2dVertex
 10
-663.11618004866386
 20
593.85697485806975
 30
0.0
  0
SEQEND
  5
23D
100
AcDbEntity
  8
ADF70-0401
370
              15
390
0
  6
Continuous
 62
               7
  0
POLYLINE
  5
23E
100
AcDbEntity
  8
ADF70-0401
370
              15
390
0
  6
Continuous
 62
               7
100
AcDb2dPolyline
 66
               1
 10
0.0
 20
0.0
 30
0.0
 70
               1
 75
               5
  0
VERTEX
  5
23F
100
AcDbEntity
  8
ADF70-0401
370
              15
390
0
  6
Continuous
 62
               7
100
AcDbVertex
100
AcDb2dVertex
 10
-663.11618004866386
 20
908.85697485806918
 30
0.0
  0
VERTEX
  5
240
100
AcDbEntity
  8
ADF70-0401
370
              15
390
0
  6
Continuous
 62
               7
100
AcDbVertex
100
AcDb2dVertex
 10
-413.11618004866182
 20
908.85697485806918
 30
0.0
  0
VERTEX
  5
241
100
AcDbEntity
  8
ADF70-0401
370
              15
390
0
  6
Continuous
 62
               7
100
AcDbVertex
100
AcDb2dVertex
 10
-413.11618004866182
 20
658.85697485806918
 30
0.0
  0
VERTEX
  5
242
100
AcDbEntity
  8
ADF70-0401
370
              15
390
0
  6
Continuous
 62
               7
100
AcDbVertex
100
AcDb2dVertex
 10
-663.11618004866386
 20
658.85697485806918
 30
0.0
  0
SEQEND
  5
243
100
AcDbEntity
  8
ADF70-0401
370
              15
390
0
  6
Continuous
 62
               7
  0
SPLINE
  5
244
100
AcDbEntity
  8
ADF70-0401
370
              15
390
0
  6
Continuous
 62
               7
100
AcDbSpline
210
0.0
220
0.0
230
1.0
 70
               8
 71
               2
 72
              30
 73
              27
 74
               0
 42
0.000001
 43
0.000001
 40
0.0
 40
0.0
 40
0.0
 40
1.0
 40
1.0
 40
2.0
 40
3.0
 40
4.0
 40
5.0
 40
6.0
 40
7.0
 40
8.0
 40
9.0
 40
10.0
 40
11.0
 40
12.0
 40
13.0
 40
14.0
 40
15.0
 40
16.0
 40
17.0
 40
18.0
 40
19.0
 40
20.0
 40
21.0
 40
22.0
 40
22.0
 40
23.0
 40
23.0
 40
23.0
 10
-526.26481681892164
 20
-429.08199797242617
 30
0.0
 10
-526.3405781650747
 20
-429.08199797242617
 30
0.0
 10
-526.41633951122776
 20
-429.08199797242617
 30
0.0
 10
-527.22108765409394
 20
-429.40039903239142
 30
0.0
 10
-528.13316047992384
 20
-431.69043700662007
 30
0.0
 10
-528.63878160120294
 20
-433.7973337748241
 30
0.0
 10
-529.00619857537231
 20
-436.30338684455614
 30
0.0
 10
-529.31583103688718
 20
-440.29854838530969
 30
0.0
 10
-529.21734322956627
 20
-444.17778510876428
 30
0.0
 10
-529.00620402089999
 20
-446.86055199624286
 30
0.0
 10
-528.63879612069604
 20
-449.36661271924993
 30
0.0
 10
-528.13314216044455
 20
-451.47352002044215
 30
0.0
 10
-527.20987205142592
 20
-453.75814253967189
 30
0.0
 10
-526.26483189590454
 20
-454.14793566966898
 30
0.0
 10
-525.30924462836811
 20
-453.76403487039158
 30
0.0
 10
-524.39651521377255
 20
-451.47359785577726
 30
0.0
 10
-523.89085619768719
 20
-449.36671162061236
 30
0.0
 10
-523.5234422838106
 20
-446.86066620421832
 30
0.0
 10
-523.21380386962016
 20
-442.86551111329914
 30
0.0
 10
-523.31228744179032
 20
-438.986272338341
 30
0.0
 10
-523.52342239574079
 20
-436.30350105283173
 30
0.0
 10
-523.89083335621933
 20
-433.79743267635934
 30
0.0
 10
-524.39644942163977
 20
-431.69051484370686
 30
0.0
 10
-525.31570411969369
 20
-429.40514166712239
 30
0.0
 10
-526.11326413088591
 20
-429.08200428559906
 30
0.0
 10
-526.1890254770351
 20
-429.08200112932502
 30
0.0
 10
-526.26478682318429
 20
-429.08199797305099
 30
0.0
  0
CIRCLE
  5
245
100
AcDbEntity
  8
ADF70-0401
370
              15
390
0
  6
Continuous
 62
               7
100
AcDbCircle
 10
-463.10234138460237
 20
-441.58199797242628
 30
0.0
 40
37.500000000000455
  0
CIRCLE
  5
246
100
AcDbEntity
  8
ADF70-0401
370
              15
390
0
  6
Continuous
 62
               7
100
AcDbCircle
 10
-463.10234138460237
 20
-441.58199797242628
 30
0.0
 40
23.000000000000341
  0
CIRCLE
  5
247
100
AcDbEntity
  8
ADF70-0401
370
              15
390
0
  6
STYLE_23
 62
               7
100
AcDbCircle
 10
-598.1023413846043
 20
-541.58178797456264
 30
0.0
 40
17.5
  0
CIRCLE
  5
248
100
AcDbEntity
  8
ADF70-0401
370
              15
390
0
  6
STYLE_23
 62
               7
100
AcDbCircle
 10
-598.1023413846043
 20
-441.58178797456253
 30
0.0
 40
17.500000000000227
  0
CIRCLE
  5
249
100
AcDbEntity
  8
ADF70-0401
370
              15
390
0
  6
STYLE_23
 62
               7
100
AcDbCircle
 10
-598.1023413846043
 20
-341.58178797456162
 30
0.0
 40
17.5
  0
LWPOLYLINE
  5
24A
100
AcDbEntity
  8
ADF70-0401
370
              15
390
0
  6
Continuous
 62
               7
100
AcDbPolyline
 90
        8
 70
             128
 10
-278.1021485991775
 20
-317.98678797456137
 10
-278.1021485991775
 20
-568.11478797456209
 10
-278.1021485991775
 20
-571.58219075785007
 42
-0.414213562373095
 10
-283.1021485991775
 20
-576.58219075785007
 10
-508.05414859917869
 20
-576.58219075785007
 42
-0.414213562373095
 10
-513.05414859917869
 20
-571.58219075785007
 10
-513.05414859917869
 20
-568.11478797456209
 10
-513.05414859917869
 20
-317.98678797456137
  0
LINE
  5
24B
100
AcDbEntity
  8
ADF70-0401
370
              15
390
0
  6
Continuous
 62
               7
100
AcDbLine
 10
-193.10234138460163
 20
-661.58199797242639
 30
0.0
 11
-274.97248225804123
 21
-579.71185709898589
 31
0.0
  0
LINE
  5
24C
100
AcDbEntity
  8
ADF70-0401
370
              15
390
0
  6
Continuous
 62
               7
100
AcDbLine
 10
-528.10234138460328
 20
-661.58199797242639
 30
0.0
 11
-512.07084072845532
 21
-581.56409529595282
 31
0.0
  0
LINE
  5
24D
100
AcDbEntity
  8
ADF70-0401
370
              15
390
0
  6
Continuous
 62
               7
100
AcDbLine
 10
-193.10234138460163
 20
-222.60299797242519
 30
0.0
 11
-275.40684005704651
 21
-304.90749664487043
 31
0.0
  0
LWPOLYLINE
  5
24E
100
AcDbEntity
  8
ADF70-0401
370
              15
390
0
  6
Continuous
 62
               7
100
AcDbPolyline
 90
       15
 70
             128
 10
-188.10234138460163
 20
-318.72788738030681
 10
-188.10234138460163
 20
-222.10386821468623
 10
-188.10234138460163
 20
-222.09249797242487
 42
0.414213562373095
 10
-193.10234138460163
 20
-217.09249797242487
 10
-528.10234138460339
 20
-217.09249797242487
 42
0.4142135623730984
 10
-533.10234138460339
 20
-222.09249797242487
 10
-533.10234138460339
 20
-222.10386821468623
 10
-533.10234138460339
 20
-662.08112773016535
 10
-533.10234138460339
 20
-662.0924979724258
 42
0.414213562373095
 10
-528.10234138460328
 20
-667.0924979724258
 10
-193.10234138460163
 20
-667.0924979724258
 42
0.414213562373095
 10
-188.10234138460163
 20
-662.0924979724258
 10
-188.10234138460163
 20
-662.08112773016535
 10
-188.10234138460163
 20
-568.4013687680789
 10
-188.10234138460163
 20
-317.70456557683679
  0
LINE
  5
24F
100
AcDbEntity
  8
ADF70-0401
370
              15
390
0
  6
Continuous
 62
               7
100
AcDbLine
 10
-528.10234138460328
 20
-222.60299797242519
 30
0.0
 11
-512.62512601548201
 21
-302.27365985785832
 31
0.0
  0
LWPOLYLINE
  5
250
100
AcDbEntity
  8
ADF70-0401
370
              15
390
0
  6
Continuous
 62
               7
100
AcDbPolyline
 90
        6
 70
             128
 10
-513.05414859917869
 20
-319.0077879745611
 10
-513.05414859917869
 20
-312.60280518700051
 42
-0.4142135623730984
 10
-508.05414859917869
 20
-307.60280518700051
 10
-283.1021485991775
 20
-307.60280518700051
 42
-0.414213562373095
 10
-278.1021485991775
 20
-312.60280518700051
 10
-278.1021485991775
 20
-319.0077879745611
  0
LINE
  5
251
100
AcDbEntity
  8
ADF70-0401
370
              15
390
0
  6
STYLE_23
 62
               7
100
AcDbLine
 10
496.38381995133778
 20
-792.02939680536065
 30
0.0
 11
456.3838199513383
 21
-792.02939680536065
 31
0.0
  0
LINE
  5
252
100
AcDbEntity
  8
ADF70-0401
370
              15
390
0
  6
STYLE_23
 62
               7
100
AcDbLine
 10
476.38381995133807
 20
-772.02939680536065
 30
0.0
 11
476.38381995133807
 21
-812.02939680536065
 31
0.0
  0
CIRCLE
  5
253
100
AcDbEntity
  8
ADF70-0401
370
              15
390
0
  6
STYLE_23
 62
               7
100
AcDbCircle
 10
476.38381995133807
 20
-792.02939680536065
 30
0.0
 40
9.9999999999998863
  0
LINE
  5
254
100
AcDbEntity
  8
ADF70-0401
370
              15
390
0
  6
STYLE_23
 62
               7
100
AcDbLine
 10
496.38381995133778
 20
-502.02939680536065
 30
0.0
 11
456.3838199513383
 21
-502.02939680536065
 31
0.0
  0
LINE
  5
255
100
AcDbEntity
  8
ADF70-0401
370
              15
390
0
  6
STYLE_23
 62
               7
100
AcDbLine
 10
476.38381995133807
 20
-482.02939680536065
 30
0.0
 11
476.38381995133807
 21
-522.02939680536065
 31
0.0
  0
CIRCLE
  5
256
100
AcDbEntity
  8
ADF70-0401
370
              15
390
0
  6
STYLE_23
 62
               7
100
AcDbCircle
 10
476.38381995133807
 20
-502.02939680536065
 30
0.0
 40
9.9999999999998863
  0
LINE
  5
257
100
AcDbEntity
  8
ADF70-0401
370
              15
390
0
  6
STYLE_23
 62
               7
100
AcDbLine
 10
496.38381995133778
 20
-372.02939680535974
 30
0.0
 11
456.3838199513383
 21
-372.02939680535974
 31
0.0
  0
LINE
  5
258
100
AcDbEntity
  8
ADF70-0401
370
              15
390
0
  6
STYLE_23
 62
               7
100
AcDbLine
 10
476.38381995133807
 20
-352.02939680535962
 30
0.0
 11
476.38381995133807
 21
-392.02939680535997
 31
0.0
  0
CIRCLE
  5
259
100
AcDbEntity
  8
ADF70-0401
370
              15
390
0
  6
STYLE_23
 62
               7
100
AcDbCircle
 10
476.38381995133807
 20
-372.02939680535974
 30
0.0
 40
9.9999999999998863
  0
LINE
  5
25A
100
AcDbEntity
  8
ADF70-0401
370
              15
390
0
  6
STYLE_23
 62
               7
100
AcDbLine
 10
496.38381995133778
 20
-82.029396805359596
 30
0.0
 11
456.3838199513383
 21
-82.029396805359596
 31
0.0
  0
LINE
  5
25B
100
AcDbEntity
  8
ADF70-0401
370
              15
390
0
  6
STYLE_23
 62
               7
100
AcDbLine
 10
476.38381995133807
 20
-62.029396805359596
 30
0.0
 11
476.38381995133807
 21
-102.0293968053596
 31
0.0
  0
CIRCLE
  5
25C
100
AcDbEntity
  8
ADF70-0401
370
              15
390
0
  6
STYLE_23
 62
               7
100
AcDbCircle
 10
476.38381995133807
 20
-82.029396805359596
 30
0.0
 40
9.9999999999998863
  0
ARC
  5
25D
100
AcDbEntity
  8
ADF70-0401
370
              15
390
0
  6
Continuous
 62
               7
100
AcDbCircle
 10
622.53116715197734
 20
1028.8776658303423
 30
0.0
 40
3.8601641334013896
100
AcDbArc
 50
357.91748992096706
 51
90.862446571307984
  0
LINE
  5
25E
100
AcDbEntity
  8
ADF70-0401
370
              15
390
0
  6
STYLE_23
 62
               7
100
AcDbLine
 10
576.54135912005313
 20
795.23739265646077
 30
0.0
 11
576.54135912005313
 21
870.23739265646032
 31
0.0
  0
LINE
  5
25F
100
AcDbEntity
  8
ADF70-0401
370
              15
390
0
  6
STYLE_23
 62
               7
100
AcDbLine
 10
588.69587906389916
 20
855.7521998710356
 30
0.0
 11
588.72076208645194
 21
809.75223988080165
 31
0.0
  0
POLYLINE
  5
260
100
AcDbEntity
  8
ADF70-0401
370
              15
390
0
  6
STYLE_23
 62
               7
100
AcDb2dPolyline
 66
               1
 10
0.0
 20
0.0
 30
0.0
 70
               1
 75
               5
  0
VERTEX
  5
261
100
AcDbEntity
  8
ADF70-0401
370
              15
390
0
  6
STYLE_23
 62
               7
100
AcDbVertex
100
AcDb2dVertex
 10
621.38878177274273
 20
809.75223988080165
 30
0.0
  0
VERTEX
  5
262
100
AcDbEntity
  8
ADF70-0401
370
              15
390
0
  6
STYLE_23
 62
               7
100
AcDbVertex
100
AcDb2dVertex
 10
588.72076208645194
 20
809.75223988080165
 30
0.0
  0
VERTEX
  5
263
100
AcDbEntity
  8
ADF70-0401
370
              15
390
0
  6
STYLE_23
 62
               7
100
AcDbVertex
100
AcDb2dVertex
 10
588.72076208645194
 20
809.75223988080165
 30
0.0
  0
VERTEX
  5
264
100
AcDbEntity
  8
ADF70-0401
370
              15
390
0
  6
STYLE_23
 62
               7
100
AcDbVertex
100
AcDb2dVertex
 10
588.72076208645194
 20
809.75223988080165
 30
0.0
  0
VERTEX
  5
265
100
AcDbEntity
  8
ADF70-0401
370
              15
390
0
  6
STYLE_23
 62
               7
100
AcDbVertex
100
AcDb2dVertex
 10
621.38878177274273
 20
809.75223988080165
 30
0.0
  0
SEQEND
  5
266
100
AcDbEntity
  8
ADF70-0401
370
              15
390
0
  6
STYLE_23
 62
               7
  0
LINE
  5
267
100
AcDbEntity
  8
ADF70-0401
370
              15
390
0
  6
STYLE_23
 62
               7
100
AcDbLine
 10
588.69587906389916
 20
855.75219987103583
 30
0.0
 11
621.38878177274273
 21
855.75219987103583
 31
0.0
  0
LINE
  5
268
100
AcDbEntity
  8
ADF70-0401
370
              15
390
0
  6
STYLE_23
 62
               7
100
AcDbLine
 10
576.63436354523674
 20
870.12655431300504
 30
0.0
 11
588.69587906389916
 21
855.75219987103583
 31
0.0
  0
ARC
  5
269
100
AcDbEntity
  8
ADF70-0401
370
              15
390
0
  6
STYLE_23
 62
               7
100
AcDbCircle
 10
580.46458574846883
 20
873.34049236231908
 30
0.0
 40
4.9999999910959714
100
AcDbArc
 50
184.58365973569136
 51
220.00000009880748
  0
LINE
  5
26A
100
AcDbEntity
  8
ADF70-0401
370
              15
390
0
  6
STYLE_23
 62
               7
100
AcDbLine
 10
575.08855147821851
 20
877.83078512449197
 30
0.0
 11
575.48057720752195
 21
872.94091912155818
 31
0.0
  0
ARC
  5
26B
100
AcDbEntity
  8
ADF70-0401
370
              15
390
0
  6
STYLE_23
 62
               7
100
AcDbCircle
 10
555.15251727009013
 20
876.23249222296226
 30
0.0
 40
20.000000003668852
100
AcDbArc
 50
4.5836595498710402
 51
86.50986487526572
  0
LINE
  5
26C
100
AcDbEntity
  8
ADF70-0401
370
              15
390
0
  6
STYLE_23
 62
               7
100
AcDbLine
 10
442.15904836513619
 20
902.43940284973064
 30
0.0
 11
556.37005097466135
 21
896.19539811927348
 31
0.0
  0
LINE
  5
26D
100
AcDbEntity
  8
ADF70-0401
370
              15
390
0
  6
Continuous
 62
               7
100
AcDbLine
 10
626.38878177418701
 20
1028.7373926564603
 30
0.0
 11
626.38878177418701
 21
622.58428636049189
 31
0.0
  0
ARC
  5
26E
100
AcDbEntity
  8
ADF70-0401
370
              15
390
0
  6
Continuous
 62
               7
100
AcDbCircle
 10
623.47306410331294
 20
622.58428636276494
 30
0.0
 40
2.9999999976051375
100
AcDbArc
 50
272.99999997270254
 51
359.99999995658777
  0
LINE
  5
26F
100
AcDbEntity
  8
ADF70-0401
370
              15
390
0
  6
Continuous
 62
               7
100
AcDbLine
 10
550.72338231741651
 20
615.76752004071909
 30
0.0
 11
623.6300719704891
 21
619.588397760818
 31
0.0
  0
ARC
  5
270
100
AcDbEntity
  8
ADF70-0401
370
              15
390
0
  6
Continuous
 62
               7
100
AcDbCircle
 10
551.77010144142469
 20
595.7949293597519
 30
0.0
 40
19.999999985850984
100
AcDbArc
 50
92.99999999968324
 51
180.00000000052566
  0
LINE
  5
271
100
AcDbEntity
  8
ADF70-0401
370
              15
390
0
  6
Continuous
 62
               7
100
AcDbLine
 10
531.77010145557369
 20
537.73739265646077
 30
0.0
 11
531.77010145557369
 21
1032.7373926564603
 31
0.0
  0
ARC
  5
272
100
AcDbEntity
  8
ADF70-0401
370
              15
390
0
  6
Continuous
 62
               7
100
AcDbCircle
 10
526.77010145557369
 20
537.73739265646077
 30
0.0
 40
5.0
100
AcDbArc
 50
270.0
 51
0.0
  0
LINE
  5
273
100
AcDbEntity
  8
ADF70-0401
370
              15
390
0
  6
Continuous
 62
               7
100
AcDbLine
 10
441.38878177418701
 20
532.73739265646077
 30
0.0
 11
526.77010145557369
 21
532.73739265646077
 31
0.0
  0
LWPOLYLINE
  5
274
100
AcDbEntity
  8
ADF70-0401
370
              15
390
0
  6
STYLE_23
 62
               7
100
AcDbPolyline
 90
        8
 70
             128
 10
588.65246706731705
 20
809.75223988080165
 10
576.47306410091824
 20
795.23739265646077
 10
576.56606852621189
 20
795.34823101401048
 42
0.1557749061972058
 10
575.41228218618699
 20
792.53386621217237
 10
565.79035895335664
 20
670.33544120551528
 42
-0.2239746283263843
 10
550.97353246848297
 20
644.41252129197824
 10
439.03160548638289
 20
562.52890261861535
 42
0.2446984434215701
 10
436.47306410091824
 20
557.61399036146895
 42
0.2446984434215701
  0
LINE
  5
275
100
AcDbEntity
  8
ADF70-0401
370
              15
390
0
  6
Continuous
 62
               7
100
AcDbLine
 10
436.575068922843
 20
951.25988614075845
 30
0.0
 11
451.575068922843
 21
951.25988614075845
 31
0.0
  0
ARC
  5
276
100
AcDbEntity
  8
ADF70-0401
370
              15
390
0
  6
STYLE_23
 62
               7
100
AcDbCircle
 10
442.47306410417332
 20
908.43118006143459
 30
0.0
 40
6.0000000032548542
100
AcDbArc
 50
179.99999997050779
 51
266.99999998652754
  0
LINE
  5
277
100
AcDbEntity
  8
ADF70-0401
370
              15
390
0
  6
Continuous
 62
               7
100
AcDbLine
 10
436.47306410091824
 20
986.26019987103587
 30
0.0
 11
451.47306410091824
 21
986.26019987103587
 31
0.0
  0
LINE
  5
278
100
AcDbEntity
  8
ADF70-0401
370
              15
390
0
  6
Continuous
 62
               7
100
AcDbLine
 10
622.47306410091824
 20
1032.7373926564603
 30
0.0
 11
439.38878177418701
 21
1032.7373926564603
 31
0.0
  0
LINE
  5
279
100
AcDbEntity
  8
ADF70-0401
370
              15
390
0
  6
Continuous
 62
               7
100
AcDbLine
 10
436.38878177418701
 20
1029.7373926564603
 30
0.0
 11
436.38878177418701
 21
537.73739265646077
 31
0.0
  0
ARC
  5
27A
100
AcDbEntity
  8
ADF70-0401
370
              15
390
0
  6
Continuous
 62
               7
100
AcDbCircle
 10
439.38878177418724
 20
1029.7373926564603
 30
0.0
 40
3.0
100
AcDbArc
 50
90.0
 51
180.0
  0
ARC
  5
27B
100
AcDbEntity
  8
ADF70-0401
370
              15
390
0
  6
Continuous
 62
               7
100
AcDbCircle
 10
441.38878177418701
 20
537.73739265646077
 30
0.0
 40
5.0
100
AcDbArc
 50
180.0
 51
270.0
  0
LINE
  5
27C
100
AcDbEntity
  8
ADF70-0401
370
              15
390
0
  6
STYLE_23
 62
               7
100
AcDbLine
 10
621.38878177274273
 20
809.75223988080165
 30
0.0
 11
621.38878177274273
 21
855.75219987103583
 31
0.0
  0
LINE
  5
27D
100
AcDbEntity
  8
ADF70-0401
370
              15
390
0
  6
STYLE_23
 62
               7
100
AcDbLine
 10
621.39055810369632
 20
-419.0694412769318
 30
0.0
 11
621.43201975411307
 21
-465.07028953903546
 31
0.0
  0
ENDSEC
  0
SECTION
  2
OBJECTS
  0
DICTIONARY
  5
19
100
AcDbDictionary
280
               0
281
               1
  3
ACAD_GROUP
350
1A
  3
ACAD_MLINESTYLE
350
1B
  3
ACAD_LAYOUT
350
1E
  3
ACAD_PLOTSETTINGS
350
22
  3
ACAD_PLOTSTYLENAME
350
1F
  0
DICTIONARY
  5
1A
102
{ACAD_REACTORS
330
19
102
}
100
AcDbDictionary
280
               0
281
               1
  0
DICTIONARY
  5
1B
102
{ACAD_REACTORS
330
19
102
}
100
AcDbDictionary
280
               0
281
               1
  3
Standard
350
1C
  0
MLINESTYLE
  5
1C
102
{ACAD_REACTORS
330
1B
102
}
100
AcDbMlineStyle
  2
Standard
 70
               0
  3

 62
               0
 51
90.0
 52
90.0
 71
               2
 49
0.5
 62
             256
  6
ByLayer
 49
-0.5
 62
             256
  6
ByLayer
  0
ACDBDICTIONARYWDFLT
  5
1F
102
{ACAD_REACTORS
330
19
102
}
100
AcDbDictionary
281
               1
  3
Normal
350
1D
100
AcDbDictionaryWithDefault
340
1D
  0
ACDBPLACEHOLDER
  5
1D
102
{ACAD_REACTORS
330
1F
102
}
  0
LAYOUT
  5
20
102
{ACAD_REACTORS
330
1E
102
}
100
AcDbPlotSettings
  1

  2

  4

  6

 40
0.0
 41
0.0
 42
0.0
 43
0.0
 44
0.0
 45
0.0
 46
0.0
 47
0.0
 48
0.0
 49
0.0
140
0.0
141
0.0
142
1.0
143
1.0
 70
            1024
 72
               0
 73
               0
 74
               0
  7

 75
               0
147
1.0
148
0.0
149
0.0
100
AcDbLayout
  1
Model
 70
               0
 71
               0
 10
0.0
 20
0.0
 11
0.0
 21
0.0
 12
0.0
 22
0.0
 32
0.0
 14
0.0
 24
0.0
 34
0.0
 15
0.0
 25
0.0
 35
0.0
146
0.0
 13
0.0
 23
0.0
 33
0.0
 16
0.0
 26
0.0
 36
0.0
 17
0.0
 27
0.0
 37
0.0
 76
               0
330
A
331
0
345
0
346
0
  0
LAYOUT
  5
21
102
{ACAD_REACTORS
330
1E
102
}
100
AcDbPlotSettings
  1

  2

  4

  6

 40
0.0
 41
0.0
 42
0.0
 43
0.0
 44
0.0
 45
0.0
 46
0.0
 47
0.0
 48
0.0
 49
0.0
140
0.0
141
0.0
142
1.0
143
1.0
 70
               0
 72
               0
 73
               0
 74
               0
  7

 75
               0
147
1.0
148
0.0
149
0.0
100
AcDbLayout
  1
Layout1
 70
               0
 71
               0
 10
0.0
 20
0.0
 11
0.0
 21
0.0
 12
0.0
 22
0.0
 32
0.0
 14
0.0
 24
0.0
 34
0.0
 15
0.0
 25
0.0
 35
0.0
146
0.0
 13
0.0
 23
0.0
 33
0.0
 16
0.0
 26
0.0
 36
0.0
 17
0.0
 27
0.0
 37
0.0
 76
               0
330
B
331
0
345
0
346
0
  0
DICTIONARY
  5
1E
102
{ACAD_REACTORS
330
19
102
}
100
AcDbDictionary
280
               0
281
               1
  3
Layout1
350
21
  3
Model
350
20
  0
DICTIONARY
  5
22
102
{ACAD_REACTORS
330
19
102
}
100
AcDbDictionary
280
               0
281
               1
  0
ENDSEC
  0
EOF
