  0
SECTION
  2
HEADER
  9
$ACADVER
  1
AC1015
  9
$ACADMAINTVER
 70
               6
  9
$DWGCODEPAGE
  3
ANSI_932
  9
$INSBASE
 10
0.0
 20
0.0
 30
0.0
  9
$EXTMIN
 10
-975.00000000024102
 20
-1431.5255224711129
 30
-14.834305555555556
  9
$EXTMAX
 10
975.00000000024102
 20
1405.9972926412993
 30
14.834305555555556
  9
$LIMMIN
 10
0.0
 20
0.0
  9
$LIMMAX
 10
0.0
 20
0.0
  9
$ORTHOMODE
 70
               0
  9
$REGENMODE
 70
               1
  9
$FILLMODE
 70
               1
  9
$QTEXTMODE
 70
               0
  9
$MIRRTEXT
 70
               1
  9
$LTSCALE
 40
50.799999999999997
  9
$ATTMODE
 70
               1
  9
$TEXTSIZE
 40
0.2
  9
$TRACEWID
 40
1.0
  9
$TEXTSTYLE
  7
Standard
  9
$CLAYER
  8
ADF70-1205
  9
$CELTYPE
  6
Continuous
  9
$CECOLOR
 62
             256
  9
$CELTSCALE
 40
1.0
  9
$DISPSILH
 70
               0
  9
$DIMSCALE
 40
1.0
  9
$DIMASZ
 40
9.9993896484374982
  9
$DIMEXO
 40
24.999999999999996
  9
$DIMDLI
 40
0.9999999999999999
  9
$DIMRND
 40
0.0
  9
$DIMDLE
 40
0.0
  9
$DIMEXE
 40
0.0
  9
$DIMTP
 40
0.0
  9
$DIMTM
 40
0.0
  9
$DIMTXT
 40
24.432617187500004
  9
$DIMCEN
 40
0.0
  9
$DIMTSZ
 40
0.0
  9
$DIMTOL
 70
               0
  9
$DIMLIM
 70
               0
  9
$DIMTIH
 70
               0
  9
$DIMTOH
 70
               0
  9
$DIMSE1
 70
               0
  9
$DIMSE2
 70
               0
  9
$DIMTAD
 70
               1
  9
$DIMZIN
 70
              11
  9
$DIMBLK
  1
_DOT
  9
$DIMASO
 70
               1
  9
$DIMSHO
 70
               1
  9
$DIMPOST
  1
<>
  9
$DIMAPOST
  1
[]
  9
$DIMALT
 70
               0
  9
$DIMALTD
 70
               1
  9
$DIMALTF
 40
1.0
  9
$DIMLFAC
 40
1.0
  9
$DIMTOFL
 70
               0
  9
$DIMTVP
 40
0.0
  9
$DIMTIX
 70
               1
  9
$DIMSOXD
 70
               0
  9
$DIMSAH
 70
               0
  9
$DIMBLK1
  1

  9
$DIMBLK2
  1

  9
$DIMSTYLE
  2
tform線あり
  9
$DIMCLRD
 70
               0
  9
$DIMCLRE
 70
               0
  9
$DIMCLRT
 70
               0
  9
$DIMTFAC
 40
1.0
  9
$DIMGAP
 40
0.4999999999999999
  9
$DIMJUST
 70
               0
  9
$DIMSD1
 70
               0
  9
$DIMSD2
 70
               0
  9
$DIMTOLJ
 70
               1
  9
$DIMTZIN
 70
              11
  9
$DIMALTZ
 70
              11
  9
$DIMALTTZ
 70
              11
  9
$DIMUPT
 70
               0
  9
$DIMDEC
 70
               1
  9
$DIMTDEC
 70
               1
  9
$DIMALTU
 70
               2
  9
$DIMALTTD
 70
               2
  9
$DIMTXSTY
  7
ＭＳ ゴシック
  9
$DIMAUNIT
 70
               0
  9
$DIMADEC
 70
               2
  9
$DIMALTRND
 40
0.0
  9
$DIMAZIN
 70
               0
  9
$DIMDSEP
 70
              46
  9
$DIMATFIT
 70
               0
  9
$DIMFRAC
 70
               2
  9
$DIMLDRBLK
  1

  9
$DIMLUNIT
 70
               2
  9
$DIMLWD
 70
              -2
  9
$DIMLWE
 70
              -2
  9
$DIMTMOVE
 70
               0
  9
$LUNITS
 70
               2
  9
$LUPREC
 70
               4
  9
$SKETCHINC
 40
0.1
  9
$FILLETRAD
 40
0.0
  9
$AUNITS
 70
               0
  9
$AUPREC
 70
               0
  9
$MENU
  1
acad
  9
$ELEVATION
 40
0.0
  9
$PELEVATION
 40
0.0
  9
$THICKNESS
 40
0.0
  9
$LIMCHECK
 70
               0
  9
$CHAMFERA
 40
0.0
  9
$CHAMFERB
 40
0.0
  9
$CHAMFERC
 40
0.0
  9
$CHAMFERD
 40
0.0
  9
$SKPOLY
 70
               0
  9
$TDCREATE
 40
2456041.703935185
  9
$TDUCREATE
 40
0.000000000
  9
$TDUPDATE
 40
2456041.703935185
  9
$TDUUPDATE
 40
0.000000000
  9
$TDINDWG
 40
0.0000000000
  9
$TDUSRTIMER
 40
0.0000000000
  9
$USRTIMER
 70
               1
  9
$ANGBASE
 50
0.0
  9
$ANGDIR
 70
               0
  9
$PDMODE
 70
               1
  9
$PDSIZE
 40
-2.0
  9
$PLINEWID
 40
0.0
  9
$SPLFRAME
 70
               0
  9
$SPLINETYPE
 70
               6
  9
$SPLINESEGS
 70
               8
  9
$HANDSEED
  5
178
  9
$SURFTAB1
 70
               6
  9
$SURFTAB2
 70
               6
  9
$SURFTYPE
 70
               6
  9
$SURFU
 70
               6
  9
$SURFV
 70
               6
  9
$UCSBASE
  2

  9
$UCSNAME
  2

  9
$UCSORG
 10
0.0
 20
0.0
 30
0.0
  9
$UCSXDIR
 10
1.0
 20
0.0
 30
0.0
  9
$UCSYDIR
 10
0.0
 20
1.0
 30
0.0
  9
$UCSORTHOREF
  2

  9
$UCSORTHOVIEW
 70
               0
  9
$UCSORGTOP
 10
0.0
 20
0.0
 30
0.0
  9
$UCSORGBOTTOM
 10
0.0
 20
0.0
 30
0.0
  9
$UCSORGLEFT
 10
0.0
 20
0.0
 30
0.0
  9
$UCSORGRIGHT
 10
0.0
 20
0.0
 30
0.0
  9
$UCSORGFRONT
 10
0.0
 20
0.0
 30
0.0
  9
$UCSORGBACK
 10
0.0
 20
0.0
 30
0.0
  9
$PUCSBASE
  2

  9
$PUCSNAME
  2

  9
$PUCSORG
 10
0.0
 20
0.0
 30
0.0
  9
$PUCSXDIR
 10
1.0
 20
0.0
 30
0.0
  9
$PUCSYDIR
 10
0.0
 20
1.0
 30
0.0
  9
$PUCSORTHOREF
  2

  9
$PUCSORTHOVIEW
 70
               0
  9
$PUCSORGTOP
 10
0.0
 20
0.0
 30
0.0
  9
$PUCSORGBOTTOM
 10
0.0
 20
0.0
 30
0.0
  9
$PUCSORGLEFT
 10
0.0
 20
0.0
 30
0.0
  9
$PUCSORGRIGHT
 10
0.0
 20
0.0
 30
0.0
  9
$PUCSORGFRONT
 10
0.0
 20
0.0
 30
0.0
  9
$PUCSORGBACK
 10
0.0
 20
0.0
 30
0.0
  9
$USERI1
 70
               0
  9
$USERI2
 70
               0
  9
$USERI3
 70
               0
  9
$USERI4
 70
               0
  9
$USERI5
 70
               0
  9
$USERR1
 40
0.0
  9
$USERR2
 40
0.0
  9
$USERR3
 40
0.0
  9
$USERR4
 40
0.0
  9
$USERR5
 40
0.0
  9
$WORLDVIEW
 70
               1
  9
$SHADEDGE
 70
               3
  9
$SHADEDIF
 70
              70
  9
$TILEMODE
 70
               1
  9
$MAXACTVP
 70
              64
  9
$PINSBASE
 10
0.0
 20
0.0
 30
0.0
  9
$PLIMCHECK
 70
               0
  9
$PEXTMIN
 10
1.0000000000000000E+20
 20
1.0000000000000000E+20
 30
1.0000000000000000E+20
  9
$PEXTMAX
 10
-1.0000000000000000E+20
 20
-1.0000000000000000E+20
 30
-1.0000000000000000E+20
  9
$PLIMMIN
 10
0.0
 20
0.0
  9
$PLIMMAX
 10
12.0
 20
9.0
  9
$UNITMODE
 70
               0
  9
$VISRETAIN
 70
               0
  9
$PLINEGEN
 70
               1
  9
$PSLTSCALE
 70
               0
  9
$TREEDEPTH
 70
            3020
  9
$CMLSTYLE
  2
Standard
  9
$CMLJUST
 70
               0
  9
$CMLSCALE
 40
1.0
  9
$PROXYGRAPHICS
 70
               0
  9
$MEASUREMENT
 70
               1
  9
$CELWEIGHT
370
               0
  9
$ENDCAPS
280
               0
  9
$JOINSTYLE
280
               0
  9
$LWDISPLAY
290
               1
  9
$INSUNITS
 70
               4
  9
$HYPERLINKBASE
  1

  9
$STYLESHEET
  1

  9
$XEDIT
290
               1
  9
$CEPSNTYPE
380
               0
  9
$PSTYLEMODE
290
               1
  9
$FINGERPRINTGUID
  2

  9
$VERSIONGUID
  2

  9
$EXTNAMES
290
               1
  9
$PSVPSCALE
 40
0.0
  0
ENDSEC
  0
SECTION
  2
CLASSES
  0
CLASS
  1
LWPOLYLINE
  2
AcDbPolyline
  3
AutoCAD 2000
 90
        0
280
               0
281
               1
  0
CLASS
  1
IMAGE
  2
AcDbRasterImage
  3
ISM
 90
      127
280
               0
281
               1
  0
CLASS
  1
OLE2FRAME
  2
AcDbOle2Frame
  3
AutoCAD 2000
 90
        0
280
               0
281
               1
  0
CLASS
  1
HATCH
  2
AcDbHatch
  3
AutoCAD 2000
 90
        0
280
               0
281
               1
  0
CLASS
  1
DICTIONARYVAR
  2
AcDbDictionaryVar
  3
AutoCAD 2000
 90
        0
280
               0
281
               0
  0
CLASS
  1
RASTERVARIABLES
  2
AcDbRasterVariables
  3
ISM
 90
        0
280
               0
281
               0
  0
CLASS
  1
IMAGEDEF
  2
AcDbRasterImageDef
  3
ISM
 90
        0
280
               0
281
               0
  0
CLASS
  1
IMAGEDEF_REACTOR
  2
AcDbRasterImageDefReactor
  3
ISM
 90
        1
280
               0
281
               0
  0
CLASS
  1
IDBUFFER
  2
AcDbIdBuffer
  3
AutoCAD 2000
 90
        0
280
               0
281
               0
  0
CLASS
  1
SPATIAL_FILTER
  2
AcDbSpatialFilter
  3
AutoCAD 2000
 90
        0
280
               0
281
               0
  0
CLASS
  1
XRECORD
  2
AcDbXrecord
  3
AutoCAD 2000
 90
        0
280
               0
281
               0
  0
CLASS
  1
SORTENTSTABLE
  2
AcDbSortentsTable
  3
AutoCAD 2000
 90
        0
280
               0
281
               0
  0
CLASS
  1
LAYER_INDEX
  2
AcDbLayerIndex
  3
AutoCAD 2000
 90
        0
280
               0
281
               0
  0
CLASS
  1
SPATIAL_INDEX
  2
AcDbSpatialIndex
  3
AutoCAD 2000
 90
        0
280
               0
281
               0
  0
CLASS
  1
OBJECT_PTR
  2
CAseDLPNTableRecord
  3
"ASE-LPNTableRecord"
 90
        1
280
               0
281
               0
  0
CLASS
  1
LAYOUT
  2
AcDbLayout
  3
AutoCAD 2000
 90
        0
280
               0
281
               0
  0
CLASS
  1
PLOTSETTINGS
  2
AcDbPlotSettings
  3
AutoCAD 2000
 90
        0
280
               0
281
               0
  0
CLASS
  1
ACDBDICTIONARYWDFLT
  2
AcDbDictionaryWithDefault
  3
AutoCAD 2000
 90
        0
280
               0
281
               0
  0
CLASS
  1
ACDBPLACEHOLDER
  2
AcDbPlaceHolder
  3
AutoCAD 2000
 90
        0
280
               0
281
               0
  0
ENDSEC
  0
SECTION
  2
TABLES
  0
TABLE
  2
VPORT
  5
7
100
AcDbSymbolTable
 70
               1
  0
VPORT
  5
15
100
AcDbSymbolTableRecord
100
AcDbViewportTableRecord
  2
*ACTIVE
 70
               0
 10
0.0
 20
0.0
 11
1.0
 21
1.0
 12
0.0
 22
-12.764114914906941
 13
0.0
 23
0.0
 14
1.0
 24
1.0
 15
0.0
 25
0.0
 16
0.0
 26
0.0
 36
1.0
 17
0.0
 27
0.0
 37
0.0
 40
2837.522815112412
 41
0.688564
 42
50.0
 43
0.0
 44
0.0
 50
0.0
 51
0.0
 71
               0
 72
            2000
 73
               1
 74
               1
 75
               0
 76
               0
 77
               0
 78
               0
281
               0
 65
               0
110
0.0
120
0.0
130
0.0
111
1.0
121
0.0
131
0.0
112
0.0
122
1.0
132
0.0
345
0
346
0
 79
               0
146
0.0
  0
ENDTAB
  0
TABLE
  2
LTYPE
  5
4
100
AcDbSymbolTable
 70
              15
  0
LTYPE
  5
11
100
AcDbSymbolTableRecord
100
AcDbLinetypeTableRecord
  2
ByBlock
 70
              64
  3

 72
              65
 73
               0
 40
0.0
  0
LTYPE
  5
12
100
AcDbSymbolTableRecord
100
AcDbLinetypeTableRecord
  2
ByLayer
 70
              64
  3

 72
              65
 73
               0
 40
0.0
  0
LTYPE
  5
13
100
AcDbSymbolTableRecord
100
AcDbLinetypeTableRecord
  2
Continuous
 70
              64
  3
Solid line
 72
              65
 73
               0
 40
0.0
  0
LTYPE
  5
32
100
AcDbSymbolTableRecord
100
AcDbLinetypeTableRecord
  2
STYLE_01
 70
               0
  3

 72
              65
 73
               2
 40
0.375
 49
0.25
 74
               0
 49
-0.125
 74
               0
  0
LTYPE
  5
33
100
AcDbSymbolTableRecord
100
AcDbLinetypeTableRecord
  2
STYLE_02
 70
               0
  3

 72
              65
 73
               4
 40
0.0393700787401575
 49
0.0196850393700787
 74
               0
 49
-0.0098425196850394
 74
               0
 49
0.0005
 74
               0
 49
-0.0093425196850394
 74
               0
  0
LTYPE
  5
34
100
AcDbSymbolTableRecord
100
AcDbLinetypeTableRecord
  2
STYLE_03
 70
               0
  3

 72
              65
 73
               2
 40
1.25
 49
1.0416400000000001
 74
               0
 49
-0.2083599999999999
 74
               0
  0
LTYPE
  5
35
100
AcDbSymbolTableRecord
100
AcDbLinetypeTableRecord
  2
STYLE_04
 70
               0
  3

 72
              65
 73
               2
 40
1.5277099999999999
 49
1.3194249999999998
 74
               0
 49
-0.208285
 74
               0
  0
LTYPE
  5
36
100
AcDbSymbolTableRecord
100
AcDbLinetypeTableRecord
  2
STYLE_05
 70
               0
  3

 72
              65
 73
               2
 40
0.20828
 49
0.069425
 74
               0
 49
-0.138855
 74
               0
  0
LTYPE
  5
37
100
AcDbSymbolTableRecord
100
AcDbLinetypeTableRecord
  2
STYLE_06
 70
               0
  3

 72
              65
 73
               4
 40
1.0416400000000001
 49
0.625
 74
               0
 49
-0.20828
 74
               0
 49
0.06943
 74
               0
 49
-0.13893
 74
               0
  0
LTYPE
  5
38
100
AcDbSymbolTableRecord
100
AcDbLinetypeTableRecord
  2
STYLE_07
 70
               0
  3

 72
              65
 73
               6
 40
1.875
 49
0.625
 74
               0
 49
-0.20828
 74
               0
 49
0.6250000000000001
 74
               0
 49
-0.2083599999999999
 74
               0
 49
0.06943
 74
               0
 49
-0.1389299999999999
 74
               0
  0
LTYPE
  5
39
100
AcDbSymbolTableRecord
100
AcDbLinetypeTableRecord
  2
STYLE_08
 70
               0
  3

 72
              65
 73
               6
 40
1.25
 49
0.625
 74
               0
 49
-0.20828
 74
               0
 49
0.06943
 74
               0
 49
-0.13893
 74
               0
 49
0.0694299999999999
 74
               0
 49
-0.13893
 74
               0
  0
LTYPE
  5
3A
100
AcDbSymbolTableRecord
100
AcDbLinetypeTableRecord
  2
STYLE_09
 70
               0
  3

 72
              65
 73
               4
 40
5.0
 49
3.75
 74
               0
 49
-0.2777849999999998
 74
               0
 49
0.6944300000000003
 74
               0
 49
-0.2777849999999998
 74
               0
  0
LTYPE
  5
3B
100
AcDbSymbolTableRecord
100
AcDbLinetypeTableRecord
  2
STYLE_10
 70
               0
  3

 72
              65
 73
               6
 40
5.9375
 49
3.75
 74
               0
 49
-0.2777849999999998
 74
               0
 49
0.6944300000000003
 74
               0
 49
-0.2777849999999998
 74
               0
 49
0.625
 74
               0
 49
-0.3125
 74
               0
  0
LTYPE
  5
3C
100
AcDbSymbolTableRecord
100
AcDbLinetypeTableRecord
  2
STYLE_11
 70
               0
  3

 72
              65
 73
               2
 40
0.0694444881889764
 49
0.0347222440944882
 74
               0
 49
-0.0347222440944882
 74
               0
  0
LTYPE
  5
3D
100
AcDbSymbolTableRecord
100
AcDbLinetypeTableRecord
  2
STYLE_12
 70
               0
  3

 72
              65
 73
               2
 40
0.3937007874015748
 49
0.1968503937007874
 74
               0
 49
-0.1968503937007874
 74
               0
  0
ENDTAB
  0
TABLE
  2
LAYER
  5
2
100
AcDbSymbolTable
 70
               5
  0
LAYER
  5
14
100
AcDbSymbolTableRecord
100
AcDbLayerTableRecord
  2
0
 70
               0
 62
               7
  6
Continuous
290
               1
370
              -3
390
1D
  0
LAYER
  5
3E
100
AcDbSymbolTableRecord
100
AcDbLayerTableRecord
  2
Defpoints
 70
               0
 62
               7
  6
Continuous
290
               0
370
              -3
390
1D
  0
LAYER
  5
3F
100
AcDbSymbolTableRecord
100
AcDbLayerTableRecord
  2
template
 70
               0
 62
               7
  6
Continuous
290
               1
370
              -3
390
1D
  0
LAYER
  5
40
100
AcDbSymbolTableRecord
100
AcDbLayerTableRecord
  2
notes
 70
               0
 62
               7
  6
Continuous
290
               1
370
              -3
390
1D
  0
LAYER
  5
41
100
AcDbSymbolTableRecord
100
AcDbLayerTableRecord
  2
ADF70-1205
 70
               0
 62
               7
  6
Continuous
290
               1
370
              -3
390
1D
  0
ENDTAB
  0
TABLE
  2
STYLE
  5
3
100
AcDbSymbolTable
 70
               2
  0
STYLE
  5
17
100
AcDbSymbolTableRecord
100
AcDbTextStyleTableRecord
  2
Standard
 70
               0
 40
0.0
 41
1.0
 50
0.0
 71
               0
 42
0.0
  3
txt
  4
BIGFONT.SHX
  0
STYLE
  5
31
100
AcDbSymbolTableRecord
100
AcDbTextStyleTableRecord
  2
ＭＳ ゴシック
 70
               0
 40
0.0
 41
1.0
 50
0.0
 71
               0
 42
0.0
  3

  4
ＭＳ ゴシック
1001
ACAD
1000
ＭＳ ゴシック
1071
        0
  0
ENDTAB
  0
TABLE
  2
VIEW
  5
5
100
AcDbSymbolTable
 70
               0
  0
ENDTAB
  0
TABLE
  2
UCS
  5
6
100
AcDbSymbolTable
 70
               0
  0
ENDTAB
  0
TABLE
  2
APPID
  5
8
100
AcDbSymbolTable
 70
               1
  0
APPID
  5
16
100
AcDbSymbolTableRecord
100
AcDbRegAppTableRecord
  2
ACAD
 70
               0
  0
ENDTAB
  0
TABLE
  2
DIMSTYLE
  5
9
100
AcDbSymbolTable
 70
               2
100
AcDbDimStyleTable
 71
               0
  0
DIMSTYLE
105
18
100
AcDbSymbolTableRecord
100
AcDbDimStyleTableRecord
  2
Standard
 70
               0
  3

  4

 40
1.0
 41
0.18
 42
0.0625
 43
0.38
 44
0.18
 45
0.0
 46
0.0
 47
0.0
 48
0.0
 71
               0
 72
               0
 73
               1
 74
               1
 75
               0
 76
               0
 77
               0
 78
               0
 79
               0
140
0.18
141
0.09
142
0.0
143
25.399999999999999
144
1.0
145
0.0
146
1.0
147
0.09
148
0.0
170
               0
171
               2
172
               0
173
               0
174
               0
175
               0
176
               0
177
               0
178
               0
179
               0
271
               4
272
               4
273
               2
274
               2
275
               0
276
               0
277
               2
278
              46
279
               0
280
               0
281
               0
282
               0
283
               1
284
               0
285
               0
286
               0
288
               0
289
               3
340
17
341
0
342
0
343
0
344
0
371
              -2
372
              -2
  0
DIMSTYLE
105
4A
100
AcDbSymbolTableRecord
100
AcDbDimStyleTableRecord
  2
tform線あり
 70
               0
  3
<>
  4
[]
 40
1.0
 41
9.9993896484374982
 42
24.999999999999996
 43
0.9999999999999999
 44
0.0
 45
0.0
 46
0.0
 47
0.0
 48
0.0
 71
               0
 72
               0
 73
               0
 74
               0
 75
               0
 76
               0
 77
               1
 78
              11
 79
               0
140
24.432617187500004
141
0.0
142
0.0
143
1.0
144
1.0
145
0.0
146
1.0
147
0.4999999999999999
148
0.0
170
               0
171
               1
172
               0
173
               0
174
               1
175
               0
176
               0
177
               0
178
               0
179
               2
271
               1
272
               1
273
               2
274
               2
275
               0
276
               2
277
               2
278
              46
279
               0
280
               0
281
               0
282
               0
283
               1
284
              11
285
              11
286
              11
288
               0
289
               0
340
31
341
42
342
42
343
0
344
0
371
              -2
372
              -2
  0
ENDTAB
  0
TABLE
  2
BLOCK_RECORD
  5
1
100
AcDbSymbolTable
 70
              15
  0
BLOCK_RECORD
  5
A
100
AcDbSymbolTableRecord
100
AcDbBlockTableRecord
  2
*MODEL_SPACE
340
20
  0
BLOCK_RECORD
  5
B
100
AcDbSymbolTableRecord
100
AcDbBlockTableRecord
  2
*PAPER_SPACE
340
21
  0
BLOCK_RECORD
  5
42
100
AcDbSymbolTableRecord
100
AcDbBlockTableRecord
  2
_DOT
340
0
  0
BLOCK_RECORD
  5
23
100
AcDbSymbolTableRecord
100
AcDbBlockTableRecord
  2
グループ
340
0
102
{BLKREFS
331
106
102
}
  0
BLOCK_RECORD
  5
24
100
AcDbSymbolTableRecord
100
AcDbBlockTableRecord
  2
*D2
340
0
  0
BLOCK_RECORD
  5
25
100
AcDbSymbolTableRecord
100
AcDbBlockTableRecord
  2
*D3
340
0
  0
BLOCK_RECORD
  5
26
100
AcDbSymbolTableRecord
100
AcDbBlockTableRecord
  2
*D4
340
0
  0
BLOCK_RECORD
  5
27
100
AcDbSymbolTableRecord
100
AcDbBlockTableRecord
  2
*D5
340
0
  0
BLOCK_RECORD
  5
28
100
AcDbSymbolTableRecord
100
AcDbBlockTableRecord
  2
*D6
340
0
  0
BLOCK_RECORD
  5
29
100
AcDbSymbolTableRecord
100
AcDbBlockTableRecord
  2
*D7
340
0
  0
BLOCK_RECORD
  5
2A
100
AcDbSymbolTableRecord
100
AcDbBlockTableRecord
  2
*D8
340
0
  0
BLOCK_RECORD
  5
2B
100
AcDbSymbolTableRecord
100
AcDbBlockTableRecord
  2
*D9
340
0
  0
BLOCK_RECORD
  5
2C
100
AcDbSymbolTableRecord
100
AcDbBlockTableRecord
  2
*D10
340
0
  0
BLOCK_RECORD
  5
2D
100
AcDbSymbolTableRecord
100
AcDbBlockTableRecord
  2
*D11
340
0
  0
BLOCK_RECORD
  5
2E
100
AcDbSymbolTableRecord
100
AcDbBlockTableRecord
  2
*D12
340
0
  0
BLOCK_RECORD
  5
2F
100
AcDbSymbolTableRecord
100
AcDbBlockTableRecord
  2
*D13
340
0
  0
BLOCK_RECORD
  5
30
100
AcDbSymbolTableRecord
100
AcDbBlockTableRecord
  2
*D14
340
0
  0
ENDTAB
  0
ENDSEC
  0
SECTION
  2
BLOCKS
  0
BLOCK
  5
D
100
AcDbEntity
  8
0
390
0
100
AcDbBlockBegin
  2
*MODEL_SPACE
 70
               0
 10
0.0
 20
0.0
 30
0.0
  3
*MODEL_SPACE
  1

  0
ENDBLK
  5
E
100
AcDbEntity
  8
0
390
0
100
AcDbBlockEnd
  0
BLOCK
  5
F
100
AcDbEntity
 67
               1
  8
0
390
0
100
AcDbBlockBegin
  2
*PAPER_SPACE
 70
               0
 10
0.0
 20
0.0
 30
0.0
  3
*PAPER_SPACE
  1

  0
ENDBLK
  5
10
100
AcDbEntity
 67
               1
  8
0
390
0
100
AcDbBlockEnd
  0
BLOCK
  5
43
100
AcDbEntity
  8
0
390
0
100
AcDbBlockBegin
  2
_DOT
 70
               0
 10
0.0
 20
0.0
 30
0.0
  3
_DOT
  1

  0
POLYLINE
  5
44
100
AcDbEntity
  8
0
370
              -2
390
0
  6
ByBlock
 62
               0
100
AcDb2dPolyline
 66
               1
 10
0.0
 20
0.0
 30
0.0
 70
               1
 40
0.5
 41
0.5
  0
VERTEX
  5
45
100
AcDbEntity
  8
0
370
              -2
390
0
  6
ByBlock
 62
               0
100
AcDbVertex
100
AcDb2dVertex
 10
-0.25
 20
0.0
 30
0.0
 42
1.0
  0
VERTEX
  5
46
100
AcDbEntity
  8
0
370
              -2
390
0
  6
ByBlock
 62
               0
100
AcDbVertex
100
AcDb2dVertex
 10
0.25
 20
0.0
 30
0.0
 42
1.0
  0
SEQEND
  5
47
100
AcDbEntity
  8
0
390
0
  0
LINE
  5
48
100
AcDbEntity
  8
0
370
              -2
390
0
  6
ByBlock
 62
               0
100
AcDbLine
 10
-0.5
 20
0.0
 30
0.0
 11
-1.0
 21
0.0
 31
0.0
  0
ENDBLK
  5
49
100
AcDbEntity
  8
0
390
0
100
AcDbBlockEnd
  0
BLOCK
  5
4B
100
AcDbEntity
  8
template
390
0
100
AcDbBlockBegin
  2
グループ
 70
               0
 10
0.0
 20
0.0
 30
0.0
  3
グループ
  1

  0
LWPOLYLINE
  5
4C
100
AcDbEntity
  8
0
370
              15
390
0
  6
Continuous
 62
               7
100
AcDbPolyline
 90
        8
 70
             129
 10
-5862.4229768850437
 20
-262.10446993247388
 10
-5862.4229768850437
 20
-268.10185862604976
 10
-5871.9241738030478
 20
-268.10185862604976
 10
-5871.9241738030478
 20
-292.55282188955857
 10
-5880.2795510648302
 20
-292.55282188955857
 10
-5880.2795510648302
 20
-268.10185862604976
 10
-5889.6125080111397
 20
-268.10185862604976
 10
-5889.6125080111397
 20
-262.10446993247388
  0
LWPOLYLINE
  5
4D
100
AcDbEntity
  8
0
370
              15
390
0
  6
Continuous
 62
               7
100
AcDbPolyline
 90
      101
 70
             128
 10
-5849.6946850544873
 20
-262.83271842541035
 10
-5849.6793350257012
 20
-262.82835766872495
 42
-0.0222221607815278
 10
-5849.3893304490311
 20
-262.75973320348066
 10
-5849.3735366850378
 20
-262.75672978038364
 42
-0.0146883565568362
 10
-5849.1108339798129
 20
-262.71472659343431
 42
-0.0127458844166242
 10
-5848.8461950126602
 20
-262.68718962536184
 10
-5848.7837399343471
 20
-262.68229620277361
 42
-0.0198099018572079
 10
-5848.3928908248727
 20
-262.66721104537697
 10
-5848.3410793554267
 20
-262.66726482104207
 42
-0.0147617382754604
 10
-5847.8464558944515
 20
-262.68238484628699
 10
-5847.7737644395766
 20
-262.68675745317472
 42
-0.0162624548993166
 10
-5847.3836108101132
 20
-262.72299032844694
 10
-5847.2620784188475
 20
-262.73827688744433
 42
-0.0080020874655486
 10
-5847.1164993877628
 20
-262.75895973471188
 10
-5847.0781799171455
 20
-262.76503101252644
 42
-0.0053821929651189
 10
-5847.0096958118529
 20
-262.77663853634454
 10
-5847.7361015110509
 20
-264.95756699205845
 42
0.0108667757421667
 10
-5847.803418581183
 20
-264.94437987683841
 10
-5847.8408866043719
 20
-264.93788213424409
 42
0.0170663203322951
 10
-5847.9841033912871
 20
-264.91805253695236
 10
-5848.05197872397
 20
-264.91100536636486
 42
0.0220162375260461
 10
-5848.3323581318264
 20
-264.89432300559469
 10
-5848.4102136988759
 20
-264.89312363832823
 42
0.0282606915776545
 10
-5848.7458500224557
 20
-264.90692691529728
 10
-5848.7897632962295
 20
-264.91122690530108
 42
0.0169677213677822
 10
-5849.0356877911872
 20
-264.9437639548529
 42
0.0190576269876506
 10
-5849.2785957537671
 20
-264.99391082695934
 10
-5849.2848549418777
 20
-264.99545380106861
 42
0.0213685642847391
 10
-5849.5352394263564
 20
-265.06865408617392
 10
-5849.5407293212711
 20
-265.07051708223241
 42
0.0237595297583424
 10
-5849.7942242061754
 20
-265.17020160413063
 10
-5849.7993262801992
 20
-265.17249337960618
 42
0.0261857468832714
 10
-5850.0514970564336
 20
-265.3020297169827
 10
-5850.0619232455128
 20
-265.3080951914468
 42
0.0272553062034519
 10
-5850.2983530207548
 20
-265.4634673973934
 10
-5850.333116034265
 20
-265.48912854548581
 42
0.0325996893208712
 10
-5850.483271377916
 20
-265.61587641845699
 10
-5850.5069808070184
 20
-265.6386944469495
 42
0.0138050960593848
 10
-5850.5988639632496
 20
-265.73214410852154
 42
0.0125280103821254
 10
-5850.6857064960632
 20
-265.83030743509858
 10
-5850.709386940991
 20
-265.85846593330893
 42
0.0205218024763357
 10
-5850.834487016502
 20
-266.02025924753491
 10
-5850.8569533569917
 20
-266.05191897736495
 42
0.0163110129578396
 10
-5851.0126637362328
 20
-266.28724941241722
 10
-5851.0153876322947
 20
-266.29167317442034
 42
0.0131897341868628
 10
-5851.1621881531846
 20
-266.54480526675627
 10
-5851.1638882485668
 20
-266.54792350592049
 42
0.0107895576076806
 10
-5851.301664950779
 20
-266.81413871555907
 10
-5851.3023978403025
 20
-266.81563294820216
 42
0.0091371507207799
 10
-5851.4308777889382
 20
-267.09015814593232
 10
-5851.4606234203611
 20
-267.15686465312058
 42
0.0135418326352529
 10
-5851.6323373594432
 20
-267.57180243841412
 10
-5851.6659421678751
 20
-267.65966858069021
 42
0.0092834542417062
 10
-5851.8371712277885
 20
-268.13356707897594
 10
-5851.8627883555437
 20
-268.20880814888108
 42
0.0054261043606738
 10
-5851.970426503799
 20
-268.53657212183441
 10
-5851.9879524898934
 20
-268.59196028380308
 42
0.0008225090818364
 10
-5852.0566225418061
 20
-268.81022904221368
 10
-5853.04131167374
 20
-271.83512033547026
 10
-5849.8086878336653
 20
-271.83512033547026
 10
-5850.3128802635192
 20
-273.73959863382265
 10
-5853.5689365455028
 20
-273.73959863382265
 10
-5859.3980855778564
 20
-292.55282169982752
 10
-5861.2231831881663
 20
-292.55282169982752
 10
-5855.3885051526659
 20
-273.73959863382265
 10
-5857.793621521706
 20
-273.73959863382265
 10
-5857.289429091853
 20
-271.83512033547026
 10
-5854.8608802809031
 20
-271.83512033547026
 10
-5854.0007253627136
 20
-269.19870733477137
 42
-0.0005863560647659
 10
-5853.9639906846232
 20
-269.08188091483601
 10
-5853.88790285085
 20
-268.84088861509417
 42
-0.0087522378923592
 10
-5853.6884347073856
 20
-268.24561252792546
 10
-5853.5961704319734
 20
-267.9854723594143
 42
-0.0077400953829002
 10
-5853.3382367728482
 20
-267.29246768188648
 10
-5853.3224718012689
 20
-267.25203679849955
 42
-0.008236994633388
 10
-5853.0753873306576
 20
-266.64795773230469
 42
-0.0085725238362675
 10
-5852.808141234651
 20
-266.05253169301005
 10
-5852.706511633658
 20
-265.83611059105431
 42
-0.0168109410602982
 10
-5852.4195672049173
 20
-265.27490306492814
 10
-5852.293723814485
 20
-265.04793903197879
 42
-0.0007817726900365
 10
-5852.2394394644016
 20
-264.95039478689966
 10
-5852.2393111584124
 20
-264.95016507821305
 42
-0.0036626142192231
 10
-5852.184423294364
 20
-264.8535671981947
 42
-0.0080221150632301
 10
-5852.1272990389243
 20
-264.75828796338959
 10
-5852.0965990875957
 20
-264.70889701431963
 42
-0.0202139325566626
 10
-5851.9689433477906
 20
-264.52091541363961
 10
-5851.9148758826013
 20
-264.44783654939738
 42
-0.0249323791805687
 10
-5851.6557130888859
 20
-264.13179130724757
 10
-5851.6315732747553
 20
-264.1051770343305
 42
-0.0242132121520799
 10
-5851.2918925332087
 20
-263.76529354812232
 10
-5851.2439809604648
 20
-263.72178441194228
 42
-0.025101752787463
 10
-5850.9599992598214
 20
-263.48879166617564
 10
-5850.9585537830189
 20
-263.48772240860524
 42
-0.0130868069037626
 10
-5850.6602931330508
 20
-263.27894194005421
 10
-5850.6587313139153
 20
-263.27790849978368
 42
-0.0290329526390924
 10
-5850.3476201725143
 20
-263.09708299814986
 10
-5850.3177746105275
 20
-263.08198061530993
 42
-0.0160250190059669
 10
-5850.051870196764
 20
-262.95796450509704
 42
-0.0267600374785445
 10
-5849.7765941192974
 20
-262.85721618454915
 10
-5849.7498581997743
 20
-262.84902362572279
 42
-0.004998158762865
 10
-5849.6946850544873
 20
-262.83271842541035
 42
-0.004998158762865
  0
LWPOLYLINE
  5
4E
100
AcDbEntity
  8
0
370
              15
390
0
  6
Continuous
 62
               7
100
AcDbPolyline
 90
      118
 70
             128
 10
-5829.8803174900404
 20
-271.90910366329763
 10
-5828.0051955655408
 20
-271.90910366329763
 10
-5828.8432344711409
 20
-274.59067018969768
 42
-0.0010587229202115
 10
-5828.8117786555558
 20
-274.5537656563273
 10
-5828.7535845649363
 20
-274.48578340016661
 42
-0.0071874740403168
 10
-5828.6032093468193
 20
-274.31514270811601
 10
-5828.4614865735766
 20
-274.15890656682438
 42
-0.0148118053519523
 10
-5828.0113572808659
 20
-273.69129272081403
 10
-5827.9241349459571
 20
-273.60589539995334
 42
-0.0086273358685968
 10
-5827.5885861449533
 20
-273.28851976594137
 10
-5827.5447524287156
 20
-273.24847012159768
 42
-0.0103138323118075
 10
-5827.2867287264944
 20
-273.02230698427002
 10
-5827.240954320152
 20
-272.98382493699734
 42
-0.0060206748547998
 10
-5827.0681062560543
 20
-272.84203028625541
 10
-5827.0660751251608
 20
-272.84040458061821
 42
-0.0067069027327751
 10
-5826.8937823105061
 20
-272.70625394682918
 10
-5826.8912335445921
 20
-272.70432377696278
 42
-0.0076184352048413
 10
-5826.7203282787086
 20
-272.57894890171008
 42
-0.008965286166753
 10
-5826.5453673159609
 20
-272.45931564136811
 10
-5826.5090155958314
 20
-272.43540442789578
 42
-0.0156916245934911
 10
-5826.3130560986701
 20
-272.31514194142017
 42
-0.0023299011054474
 10
-5826.1127940546439
 20
-272.20196400185358
 10
-5826.0974099223095
 20
-272.19336400681459
 42
-0.0107669341482151
 10
-5825.8631730972229
 20
-272.06896387347228
 10
-5825.8409082961334
 20
-272.05774712351513
 42
-0.0078058045902381
 10
-5825.5573181782047
 20
-271.92038566788796
 10
-5825.5474110904715
 20
-271.91577654000821
 42
-0.0181829330471811
 10
-5825.2371016858597
 20
-271.78491279891375
 10
-5825.1830462432918
 20
-271.76439767896994
 42
-0.020841153603915
 10
-5824.8339612758391
 20
-271.64830721647593
 10
-5824.8196051757113
 20
-271.64418877152224
 42
-0.0222799817145365
 10
-5824.4908853817942
 20
-271.56554720538213
 10
-5824.4819964185563
 20
-271.56383519479687
 42
-0.0215509523866168
 10
-5824.1655254502784
 20
-271.51691950626275
 10
-5824.1230434892295
 20
-271.51248197947189
 42
-0.0182545924883783
 10
-5823.888934709923
 20
-271.49663815408098
 10
-5823.8495336935794
 20
-271.4954136090019
 42
-0.0072962856526001
 10
-5823.6936108138862
 20
-271.49284428047963
 10
-5823.6645111433127
 20
-271.49278944507586
 42
-0.005922751626242
 10
-5823.5667616441697
 20
-271.49376315686629
 10
-5823.5375194266735
 20
-271.4944009234701
 42
-0.0011833111802811
 10
-5823.4982681429647
 20
-271.49534992777967
 10
-5824.2936547385725
 20
-274.03408387287868
 42
0.0143932051722806
 10
-5824.3200561209305
 20
-274.0238849028305
 10
-5824.3273280933399
 20
-274.02131368397602
 42
0.0234388603551495
 10
-5824.3691589592727
 20
-274.00869444826054
 10
-5824.3778406221845
 20
-274.0065134862557
 42
0.0199162742940761
 10
-5824.4381294562681
 20
-273.99389675092004
 10
-5824.458943394071
 20
-273.99039955149215
 42
0.0293643550692942
 10
-5824.5620182528291
 20
-273.97924950583905
 10
-5824.5867034335506
 20
-273.97803788882038
 42
0.0214606686891099
 10
-5824.7398443495031
 20
-273.97709932840297
 10
-5824.7492162603212
 20
-273.9774442399472
 42
0.0167564054176136
 10
-5824.9207364514314
 20
-273.98952128231531
 10
-5824.9291962441894
 20
-273.99040262274241
 42
0.0137677553225891
 10
-5825.1165495574542
 20
-274.01515193128586
 10
-5825.1239012969618
 20
-274.01632985125389
 42
0.0118497261478516
 10
-5825.3243990610645
 20
-274.05334720144333
 10
-5825.3305490683097
 20
-274.05463406416311
 42
0.0106421143885021
 10
-5825.5414299555996
 20
-274.10346643973907
 10
-5825.5463387639838
 20
-274.104713782423
 42
0.0099746379687197
 10
-5825.7647972331479
 20
-274.16488831073798
 10
-5825.8263452733172
 20
-274.18317018936841
 42
0.0191613675870435
 10
-5826.1623297358365
 20
-274.29714756965689
 10
-5826.2503895085792
 20
-274.33083447998024
 42
0.0205274080146339
 10
-5826.6356962804784
 20
-274.496662887806
 10
-5826.6933455624576
 20
-274.52433085237715
 42
0.0181256912180876
 10
-5826.9516225031275
 20
-274.66001467135618
 10
-5827.0045778864369
 20
-274.69033228456834
 42
0.0140709242413829
 10
-5827.1495328210694
 20
-274.77882695800531
 10
-5827.1757816896898
 20
-274.79588377672218
 42
0.0086667884372874
 10
-5827.2647078512309
 20
-274.85588644460358
 42
0.0036408192032319
 10
-5827.3521410892581
 20
-274.91806730239188
 10
-5827.3873679637327
 20
-274.94350824830872
 42
0.0052260781295652
 10
-5827.5435966611631
 20
-275.05884063497257
 10
-5827.5598035173834
 20
-275.07106874556109
 42
0.0050024435893114
 10
-5827.7458068604574
 20
-275.21435131383504
 10
-5827.7611250169575
 20
-275.22639733626909
 42
0.0136138710272226
 10
-5827.9715662852714
 20
-275.40136384117261
 10
-5828.0052341610763
 20
-275.43094281389665
 42
0.0172815186900535
 10
-5828.2696377027241
 20
-275.67993948650548
 10
-5828.272200048581
 20
-275.68252530366715
 42
0.0189403857988413
 10
-5828.5227818471549
 20
-275.9553305684658
 10
-5828.5554133407022
 20
-275.99367449997612
 42
0.0185044199514434
 10
-5828.7473697796759
 20
-276.2369230810915
 42
0.0088565243914469
 10
-5828.9258298863197
 20
-276.49043950126264
 10
-5828.9350078659536
 20
-276.50398088100155
 42
0.0157195347228218
 10
-5829.1182284722954
 20
-276.79350309033168
 10
-5829.1643114141925
 20
-276.87165528729497
 42
0.0095451879767627
 10
-5829.3293969643564
 20
-277.16424992969462
 10
-5829.34054488327
 20
-277.18492060179602
 42
0.0100351706226827
 10
-5829.472588632445
 20
-277.44197616231736
 42
0.0086935915419417
 10
-5829.5949197842383
 20
-277.70380930772006
 10
-5829.5982405256536
 20
-277.7112516306936
 42
0.0072580174861735
 10
-5829.7185869775958
 20
-277.99184362226947
 10
-5829.721848610905
 20
-277.99976364829456
 42
0.0060005122585928
 10
-5829.8410492792354
 20
-278.29937331886924
 10
-5829.8442602575888
 20
-278.30773484680446
 42
0.0049017786991696
 10
-5829.9631604164488
 20
-278.62666382741588
 10
-5829.9663262228369
 20
-278.63541676463922
 42
0.0039415167581332
 10
-5830.0857625008603
 20
-278.97395882695383
 10
-5830.0888936035462
 20
-278.98306202792855
 42
0.0031035838760269
 10
-5830.2096983892452
 20
-279.34150188972114
 10
-5830.2128084337692
 20
-279.35092251107687
 42
0.002507074713826
 10
-5830.335709785073
 20
-279.72956972798312
 10
-5830.3730036815105
 20
-279.84646139327378
 42
0.00290819102751
 10
-5830.565021979286
 20
-280.46062505145028
 10
-5830.605825147838
 20
-280.59384829384135
 42
0.0009266453732041
 10
-5830.8742425220589
 20
-281.47607275345621
 10
-5830.8951299950268
 20
-281.54518463377531
 42
-0.000580999365962
 10
-5831.1724666753844
 20
-282.45899273963971
 10
-5831.238748473721
 20
-282.67647767200918
 42
-0.0012018708158448
 10
-5831.3857327830865
 20
-283.15464033632009
 10
-5831.4380526342311
 20
-283.32339947583137
 42
-0.000269105961516
 10
-5831.4816221158208
 20
-283.46366709752783
 10
-5834.3145780141094
 20
-292.55282169982752
 10
-5836.132566906088
 20
-292.55282169982752
 10
-5829.8803174900404
 20
-271.90910366329763
  0
SPLINE
  5
4F
100
AcDbEntity
  8
0
370
              15
390
0
  6
Continuous
 62
               7
100
AcDbSpline
210
0.0
220
0.0
230
1.0
 70
              13
 71
               2
 72
             782
 73
             779
 74
               0
 42
0.000001
 43
0.000001
 40
0.0
 40
0.0
 40
0.0
 40
1.0
 40
1.0
 40
2.0
 40
2.0
 40
3.0
 40
3.0
 40
4.0
 40
4.0
 40
5.0
 40
5.0
 40
6.0
 40
6.0
 40
7.0
 40
7.0
 40
8.0
 40
8.0
 40
9.0
 40
9.0
 40
10.0
 40
10.0
 40
11.0
 40
11.0
 40
12.0
 40
12.0
 40
13.0
 40
13.0
 40
14.0
 40
14.0
 40
15.0
 40
15.0
 40
16.0
 40
16.0
 40
17.0
 40
17.0
 40
18.0
 40
18.0
 40
19.0
 40
19.0
 40
20.0
 40
20.0
 40
21.0
 40
21.0
 40
22.0
 40
22.0
 40
23.0
 40
23.0
 40
24.0
 40
24.0
 40
25.0
 40
25.0
 40
26.0
 40
26.0
 40
27.0
 40
27.0
 40
28.0
 40
28.0
 40
29.0
 40
29.0
 40
30.0
 40
30.0
 40
31.0
 40
31.0
 40
32.0
 40
32.0
 40
33.0
 40
33.0
 40
34.0
 40
34.0
 40
35.0
 40
35.0
 40
36.0
 40
36.0
 40
37.0
 40
37.0
 40
38.0
 40
38.0
 40
39.0
 40
39.0
 40
40.0
 40
40.0
 40
41.0
 40
41.0
 40
42.0
 40
42.0
 40
43.0
 40
43.0
 40
44.0
 40
44.0
 40
45.0
 40
45.0
 40
46.0
 40
46.0
 40
47.0
 40
47.0
 40
48.0
 40
48.0
 40
49.0
 40
49.0
 40
50.0
 40
50.0
 40
51.0
 40
51.0
 40
52.0
 40
52.0
 40
53.0
 40
53.0
 40
54.0
 40
54.0
 40
55.0
 40
55.0
 40
56.0
 40
56.0
 40
57.0
 40
57.0
 40
58.0
 40
58.0
 40
59.0
 40
59.0
 40
60.0
 40
60.0
 40
61.0
 40
61.0
 40
62.0
 40
62.0
 40
63.0
 40
63.0
 40
64.0
 40
64.0
 40
65.0
 40
65.0
 40
66.0
 40
66.0
 40
67.0
 40
67.0
 40
68.0
 40
68.0
 40
69.0
 40
69.0
 40
70.0
 40
70.0
 40
71.0
 40
71.0
 40
72.0
 40
72.0
 40
73.0
 40
73.0
 40
74.0
 40
74.0
 40
75.0
 40
75.0
 40
76.0
 40
76.0
 40
77.0
 40
77.0
 40
78.0
 40
78.0
 40
79.0
 40
79.0
 40
80.0
 40
80.0
 40
81.0
 40
81.0
 40
82.0
 40
82.0
 40
83.0
 40
83.0
 40
84.0
 40
84.0
 40
85.0
 40
85.0
 40
86.0
 40
86.0
 40
87.0
 40
87.0
 40
88.0
 40
88.0
 40
89.0
 40
89.0
 40
90.0
 40
90.0
 40
91.0
 40
91.0
 40
92.0
 40
92.0
 40
93.0
 40
93.0
 40
94.0
 40
94.0
 40
95.0
 40
95.0
 40
96.0
 40
96.0
 40
97.0
 40
97.0
 40
98.0
 40
98.0
 40
99.0
 40
99.0
 40
100.0
 40
100.0
 40
101.0
 40
101.0
 40
102.0
 40
102.0
 40
103.0
 40
103.0
 40
104.0
 40
104.0
 40
105.0
 40
105.0
 40
106.0
 40
106.0
 40
107.0
 40
107.0
 40
108.0
 40
108.0
 40
109.0
 40
109.0
 40
110.0
 40
110.0
 40
111.0
 40
111.0
 40
112.0
 40
112.0
 40
113.0
 40
113.0
 40
114.0
 40
114.0
 40
115.0
 40
115.0
 40
116.0
 40
116.0
 40
117.0
 40
117.0
 40
118.0
 40
118.0
 40
119.0
 40
119.0
 40
120.0
 40
120.0
 40
121.0
 40
121.0
 40
122.0
 40
122.0
 40
123.0
 40
123.0
 40
124.0
 40
124.0
 40
125.0
 40
125.0
 40
126.0
 40
126.0
 40
127.0
 40
127.0
 40
128.0
 40
128.0
 40
129.0
 40
129.0
 40
130.0
 40
130.0
 40
131.0
 40
131.0
 40
132.0
 40
132.0
 40
133.0
 40
133.0
 40
134.0
 40
134.0
 40
135.0
 40
135.0
 40
136.0
 40
136.0
 40
137.0
 40
137.0
 40
138.0
 40
138.0
 40
139.0
 40
139.0
 40
140.0
 40
140.0
 40
141.0
 40
141.0
 40
142.0
 40
142.0
 40
143.0
 40
143.0
 40
144.0
 40
144.0
 40
145.0
 40
145.0
 40
146.0
 40
146.0
 40
147.0
 40
147.0
 40
148.0
 40
148.0
 40
149.0
 40
149.0
 40
150.0
 40
150.0
 40
151.0
 40
151.0
 40
152.0
 40
152.0
 40
153.0
 40
153.0
 40
154.0
 40
154.0
 40
155.0
 40
155.0
 40
156.0
 40
156.0
 40
157.0
 40
157.0
 40
158.0
 40
158.0
 40
159.0
 40
159.0
 40
160.0
 40
160.0
 40
161.0
 40
161.0
 40
162.0
 40
162.0
 40
163.0
 40
163.0
 40
164.0
 40
164.0
 40
165.0
 40
165.0
 40
166.0
 40
166.0
 40
167.0
 40
167.0
 40
168.0
 40
168.0
 40
169.0
 40
169.0
 40
170.0
 40
170.0
 40
171.0
 40
171.0
 40
172.0
 40
172.0
 40
173.0
 40
173.0
 40
174.0
 40
174.0
 40
175.0
 40
175.0
 40
176.0
 40
176.0
 40
177.0
 40
177.0
 40
178.0
 40
178.0
 40
179.0
 40
179.0
 40
180.0
 40
180.0
 40
181.0
 40
181.0
 40
182.0
 40
182.0
 40
183.0
 40
183.0
 40
184.0
 40
184.0
 40
185.0
 40
185.0
 40
186.0
 40
186.0
 40
187.0
 40
187.0
 40
188.0
 40
188.0
 40
189.0
 40
189.0
 40
190.0
 40
190.0
 40
191.0
 40
191.0
 40
192.0
 40
192.0
 40
193.0
 40
193.0
 40
194.0
 40
194.0
 40
195.0
 40
195.0
 40
196.0
 40
196.0
 40
197.0
 40
197.0
 40
198.0
 40
198.0
 40
199.0
 40
199.0
 40
200.0
 40
200.0
 40
201.0
 40
201.0
 40
202.0
 40
202.0
 40
203.0
 40
203.0
 40
204.0
 40
204.0
 40
205.0
 40
205.0
 40
206.0
 40
206.0
 40
207.0
 40
207.0
 40
208.0
 40
208.0
 40
209.0
 40
209.0
 40
210.0
 40
210.0
 40
211.0
 40
211.0
 40
212.0
 40
212.0
 40
213.0
 40
213.0
 40
214.0
 40
214.0
 40
215.0
 40
215.0
 40
216.0
 40
216.0
 40
217.0
 40
217.0
 40
218.0
 40
218.0
 40
219.0
 40
219.0
 40
220.0
 40
220.0
 40
221.0
 40
221.0
 40
222.0
 40
222.0
 40
223.0
 40
223.0
 40
224.0
 40
224.0
 40
225.0
 40
225.0
 40
226.0
 40
226.0
 40
227.0
 40
227.0
 40
228.0
 40
228.0
 40
229.0
 40
229.0
 40
230.0
 40
230.0
 40
231.0
 40
231.0
 40
232.0
 40
232.0
 40
233.0
 40
233.0
 40
234.0
 40
234.0
 40
235.0
 40
235.0
 40
236.0
 40
236.0
 40
237.0
 40
237.0
 40
238.0
 40
238.0
 40
239.0
 40
239.0
 40
240.0
 40
240.0
 40
241.0
 40
241.0
 40
242.0
 40
242.0
 40
243.0
 40
243.0
 40
244.0
 40
244.0
 40
245.0
 40
245.0
 40
246.0
 40
246.0
 40
247.0
 40
247.0
 40
248.0
 40
248.0
 40
249.0
 40
249.0
 40
250.0
 40
250.0
 40
251.0
 40
251.0
 40
252.0
 40
252.0
 40
253.0
 40
253.0
 40
254.0
 40
254.0
 40
255.0
 40
255.0
 40
256.0
 40
256.0
 40
257.0
 40
257.0
 40
258.0
 40
258.0
 40
259.0
 40
259.0
 40
260.0
 40
260.0
 40
261.0
 40
261.0
 40
262.0
 40
262.0
 40
263.0
 40
263.0
 40
264.0
 40
264.0
 40
265.0
 40
265.0
 40
266.0
 40
266.0
 40
267.0
 40
267.0
 40
268.0
 40
268.0
 40
269.0
 40
269.0
 40
270.0
 40
270.0
 40
271.0
 40
271.0
 40
272.0
 40
272.0
 40
273.0
 40
273.0
 40
274.0
 40
274.0
 40
275.0
 40
275.0
 40
276.0
 40
276.0
 40
277.0
 40
277.0
 40
278.0
 40
278.0
 40
279.0
 40
279.0
 40
280.0
 40
280.0
 40
281.0
 40
281.0
 40
282.0
 40
282.0
 40
283.0
 40
283.0
 40
284.0
 40
284.0
 40
285.0
 40
285.0
 40
286.0
 40
286.0
 40
287.0
 40
287.0
 40
288.0
 40
288.0
 40
289.0
 40
289.0
 40
290.0
 40
290.0
 40
291.0
 40
291.0
 40
292.0
 40
292.0
 40
293.0
 40
293.0
 40
294.0
 40
294.0
 40
295.0
 40
295.0
 40
296.0
 40
296.0
 40
297.0
 40
297.0
 40
298.0
 40
298.0
 40
299.0
 40
299.0
 40
300.0
 40
300.0
 40
301.0
 40
301.0
 40
302.0
 40
302.0
 40
303.0
 40
303.0
 40
304.0
 40
304.0
 40
305.0
 40
305.0
 40
306.0
 40
306.0
 40
307.0
 40
307.0
 40
308.0
 40
308.0
 40
309.0
 40
309.0
 40
310.0
 40
310.0
 40
311.0
 40
311.0
 40
312.0
 40
312.0
 40
313.0
 40
313.0
 40
314.0
 40
314.0
 40
315.0
 40
315.0
 40
316.0
 40
316.0
 40
317.0
 40
317.0
 40
318.0
 40
318.0
 40
319.0
 40
319.0
 40
320.0
 40
320.0
 40
321.0
 40
321.0
 40
322.0
 40
322.0
 40
323.0
 40
323.0
 40
324.0
 40
324.0
 40
325.0
 40
325.0
 40
326.0
 40
326.0
 40
327.0
 40
327.0
 40
328.0
 40
328.0
 40
329.0
 40
329.0
 40
330.0
 40
330.0
 40
331.0
 40
331.0
 40
332.0
 40
332.0
 40
333.0
 40
333.0
 40
334.0
 40
334.0
 40
335.0
 40
335.0
 40
336.0
 40
336.0
 40
337.0
 40
337.0
 40
338.0
 40
338.0
 40
339.0
 40
339.0
 40
340.0
 40
340.0
 40
341.0
 40
341.0
 40
342.0
 40
342.0
 40
343.0
 40
343.0
 40
344.0
 40
344.0
 40
345.0
 40
345.0
 40
346.0
 40
346.0
 40
347.0
 40
347.0
 40
348.0
 40
348.0
 40
349.0
 40
349.0
 40
350.0
 40
350.0
 40
351.0
 40
351.0
 40
352.0
 40
352.0
 40
353.0
 40
353.0
 40
354.0
 40
354.0
 40
355.0
 40
355.0
 40
356.0
 40
356.0
 40
357.0
 40
357.0
 40
358.0
 40
358.0
 40
359.0
 40
359.0
 40
360.0
 40
360.0
 40
361.0
 40
361.0
 40
362.0
 40
362.0
 40
363.0
 40
363.0
 40
364.0
 40
364.0
 40
365.0
 40
365.0
 40
366.0
 40
366.0
 40
367.0
 40
367.0
 40
368.0
 40
368.0
 40
369.0
 40
369.0
 40
370.0
 40
370.0
 40
371.0
 40
371.0
 40
372.0
 40
372.0
 40
373.0
 40
373.0
 40
374.0
 40
374.0
 40
375.0
 40
375.0
 40
376.0
 40
376.0
 40
377.0
 40
377.0
 40
378.0
 40
378.0
 40
379.0
 40
379.0
 40
380.0
 40
380.0
 40
381.0
 40
381.0
 40
382.0
 40
382.0
 40
383.0
 40
383.0
 40
384.0
 40
384.0
 40
385.0
 40
385.0
 40
386.0
 40
386.0
 40
387.0
 40
387.0
 40
388.0
 40
388.0
 40
389.0
 40
389.0
 40
389.0
 10
-5819.551613039308
 20
-271.89817729993524
 30
0.0
 41
1.0
 10
-5818.7331889305879
 20
-271.89817729993524
 30
0.0
 41
1.0
 10
-5817.9147648218668
 20
-271.89817729993524
 30
0.0
 41
1.0
 10
-5818.3285185573841
 20
-273.24080356418494
 30
0.0
 41
1.0
 10
-5818.7422722929005
 20
-274.58342982843465
 30
0.0
 41
1.0
 10
-5818.7239327976995
 20
-274.55472905547208
 30
0.0
 41
0.9999957264388834
 10
-5818.7054258008293
 20
-274.5261360052603
 30
0.0
 41
1.0
 10
-5818.6749964767278
 20
-274.47912312694052
 30
0.0
 41
1.0
 10
-5818.6445671526271
 20
-274.4321102486208
 30
0.0
 41
1.0
 10
-5818.5652015075184
 20
-274.30949144171484
 30
0.0
 41
0.9995394069082344
 10
-5818.4785431159689
 20
-274.19191337997592
 30
0.0
 41
1.0
 10
-5818.4427862537068
 20
-274.1433984873795
 30
0.0
 41
1.0
 10
-5818.4070293914456
 20
-274.09488359478314
 30
0.0
 41
1.0
 10
-5818.2733027236318
 20
-273.91344331966246
 30
0.0
 41
0.9994460617143877
 10
-5818.127802242343
 20
-273.74130092201233
 30
0.0
 41
1.0
 10
-5818.1234140613669
 20
-273.73610924162904
 30
0.0
 41
1.0
 10
-5818.1190258803917
 20
-273.73091756124569
 30
0.0
 41
1.0
 10
-5817.9823017610543
 20
-273.56915852436134
 30
0.0
 41
0.9994359394934061
 10
-5817.8350275307039
 20
-273.4169423231981
 30
0.0
 41
1.0
 10
-5817.8326441767567
 20
-273.41447899283139
 30
0.0
 41
1.0
 10
-5817.8302608228096
 20
-273.41201566246474
 30
0.0
 41
1.0
 10
-5817.6877533003562
 20
-273.26472612203611
 30
0.0
 41
0.9995293688567262
 10
-5817.5364816193705
 20
-273.12645290986927
 30
0.0
 41
1.0
 10
-5817.5171878601186
 20
-273.10881702422841
 30
0.0
 41
1.0
 10
-5817.4978941008667
 20
-273.0911811385875
 30
0.0
 41
1.0
 10
-5817.3852099383967
 20
-272.98817969771142
 30
0.0
 41
0.9997087614802778
 10
-5817.2676870494333
 20
-272.89073541690732
 30
0.0
 41
1.0
 10
-5817.2485209762744
 20
-272.87484383841263
 30
0.0
 41
1.0
 10
-5817.2293549031147
 20
-272.858952259918
 30
0.0
 41
1.0
 10
-5817.1501641604964
 20
-272.79329113612448
 30
0.0
 41
0.9999595338701111
 10
-5817.0698048896229
 20
-272.72906540545443
 30
0.0
 41
1.0
 10
-5816.9894456187631
 20
-272.66483967479655
 30
0.0
 41
0.9999749417511714
 10
-5816.9081850844386
 20
-272.60175812086442
 30
0.0
 41
1.0
 10
-5816.8871989382678
 20
-272.58546683355576
 30
0.0
 41
1.0
 10
-5816.8662127920961
 20
-272.56917554624704
 30
0.0
 41
1.0
 10
-5816.7816449068059
 20
-272.50352653641482
 30
0.0
 41
0.9999792037115861
 10
-5816.6962373070219
 20
-272.43897375476047
 30
0.0
 41
1.0
 10
-5816.675412481296
 20
-272.4232339326428
 30
0.0
 41
1.0
 10
-5816.6545876555692
 20
-272.40749411052519
 30
0.0
 41
1.0
 10
-5816.6108297073615
 20
-272.37442097319911
 30
0.0
 41
0.9999993374020658
 10
-5816.5671480211095
 20
-272.34124717769282
 30
0.0
 41
1.0
 10
-5816.5234663349565
 20
-272.3080733822614
 30
0.0
 41
0.9999160953816179
 10
-5816.4789399240208
 20
-272.2760423170522
 30
0.0
 41
1.0
 10
-5816.4461180366143
 20
-272.25243116147647
 30
0.0
 41
1.0
 10
-5816.4132961492069
 20
-272.22882000590073
 30
0.0
 41
1.0
 10
-5816.3031259634499
 20
-272.14956662953381
 30
0.0
 41
0.9980964527231588
 10
-5816.1840369699466
 20
-272.08447915667603
 30
0.0
 41
1.0
 10
-5816.1470043630216
 20
-272.06423917708469
 30
0.0
 41
1.0
 10
-5816.1099717560974
 20
-272.04399919749329
 30
0.0
 41
1.0
 10
-5815.9306447428207
 20
-271.94598894679029
 30
0.0
 41
0.9984572810573156
 10
-5815.7415561764601
 20
-271.86846668544297
 30
0.0
 41
1.0
 10
-5815.7379099070677
 20
-271.86697179310619
 30
0.0
 41
1.0
 10
-5815.7342636376743
 20
-271.86547690076941
 30
0.0
 41
1.0
 10
-5815.5524676101022
 20
-271.79094442409632
 30
0.0
 41
0.9987838528032701
 10
-5815.3642149515417
 20
-271.7346787839308
 30
0.0
 41
1.0
 10
-5815.3599770023457
 20
-271.73341213024133
 30
0.0
 41
1.0
 10
-5815.3557390531496
 20
-271.73214547655186
 30
0.0
 41
1.0
 10
-5815.1759622929812
 20
-271.67841314376483
 30
0.0
 41
0.9990652816207729
 10
-5814.9922163612664
 20
-271.64040946422301
 30
0.0
 41
1.0
 10
-5814.9870279602346
 20
-271.63933636111648
 30
0.0
 41
1.0
 10
-5814.9818395592029
 20
-271.63826325800994
 30
0.0
 41
1.0
 10
-5814.8084704295543
 20
-271.60240578468165
 30
0.0
 41
0.9992909934270264
 10
-5814.6328946630929
 20
-271.57969535221446
 30
0.0
 41
1.0
 10
-5814.4573188966306
 20
-271.55698491974726
 30
0.0
 41
0.9994553539447557
 10
-5814.2806274635404
 20
-271.54590561554164
 30
0.0
 41
1.0
 10
-5814.2451930557454
 20
-271.54368372749383
 30
0.0
 41
1.0
 10
-5814.2097586479495
 20
-271.54146183944601
 30
0.0
 41
1.0
 10
-5814.0435328813819
 20
-271.53103877703398
 30
0.0
 41
0.9990928098291827
 10
-5813.8770230894779
 20
-271.53479841826891
 30
0.0
 41
1.0
 10
-5813.838461254205
 20
-271.53566910980192
 30
0.0
 41
1.0
 10
-5813.7998994189329
 20
-271.53653980133487
 30
0.0
 41
1.0
 10
-5813.7105132975703
 20
-271.53855805950337
 30
0.0
 41
0.9998382089205224
 10
-5813.6212576147891
 20
-271.54379018603152
 30
0.0
 41
1.0
 10
-5813.6208277085698
 20
-271.54381538693372
 30
0.0
 41
1.0
 10
-5813.6203978023505
 20
-271.54384058783597
 30
0.0
 41
1.0
 10
-5813.5320019320116
 20
-271.54902231255852
 30
0.0
 41
0.9997558016757072
 10
-5813.4439213548021
 20
-271.55810482792606
 30
0.0
 41
1.0
 10
-5813.4434452163714
 20
-271.55815392540865
 30
0.0
 41
1.0
 10
-5813.4429690779416
 20
-271.55820302289129
 30
0.0
 41
1.0
 10
-5813.3558407776036
 20
-271.56718734329263
 30
0.0
 41
0.9996565144182722
 10
-5813.2693029242591
 20
-271.58072464998156
 30
0.0
 41
1.0
 10
-5813.2688369988828
 20
-271.5807975357128
 30
0.0
 41
1.0
 10
-5813.2683710735055
 20
-271.5808704214441
 30
0.0
 41
1.0
 10
-5813.182765070912
 20
-271.59426195667186
 30
0.0
 41
0.9995321806868399
 10
-5813.0981379905888
 20
-271.61286244509984
 30
0.0
 41
1.0
 10
-5813.0977487960172
 20
-271.61294798756569
 30
0.0
 41
1.0
 10
-5813.0973596014455
 20
-271.61303353003149
 30
0.0
 41
1.0
 10
-5813.0135109102666
 20
-271.63146293352747
 30
0.0
 41
0.9993819199218406
 10
-5812.9311643760648
 20
-271.65573831678978
 30
0.0
 41
1.0
 10
-5812.93092594257
 20
-271.65580860589813
 30
0.0
 41
1.0
 10
-5812.9306875090751
 20
-271.65587889500648
 30
0.0
 41
1.0
 10
-5812.8488178418675
 20
-271.68001370005044
 30
0.0
 41
0.9992088568504366
 10
-5812.7691253228804
 20
-271.71057893584486
 30
0.0
 41
1.0
 10
-5812.6894443319998
 20
-271.741138536579
 30
0.0
 41
0.9990226101773791
 10
-5812.6127736620947
 20
-271.77861596819264
 30
0.0
 41
1.0
 10
-5812.5361145202969
 20
-271.81608776474576
 30
0.0
 41
0.998842427397055
 10
-5812.4634108930823
 20
-271.86075254000025
 30
0.0
 41
1.0
 10
-5812.4631431847038
 20
-271.86091700407184
 30
0.0
 41
1.0
 10
-5812.4628754763253
 20
-271.86108146814342
 30
0.0
 41
1.0
 10
-5812.3896364323537
 20
-271.90607517154172
 30
0.0
 41
0.9986928844493378
 10
-5812.3213735656382
 20
-271.95831090582533
 30
0.0
 41
1.0
 10
-5812.3207922734182
 20
-271.95875571905077
 30
0.0
 41
1.0
 10
-5812.3202109811991
 20
-271.95920053227621
 30
0.0
 41
1.0
 10
-5812.2507855300446
 20
-272.01232589301054
 30
0.0
 41
0.9986007262277465
 10
-5812.1873593602777
 20
-272.07248666270397
 30
0.0
 41
1.0
 10
-5812.1864649448198
 20
-272.07333503053962
 30
0.0
 41
1.0
 10
-5812.1855705293619
 20
-272.07418339837534
 30
0.0
 41
1.0
 10
-5812.1203555286793
 20
-272.13604090374173
 30
0.0
 41
0.9985581491382984
 10
-5812.0621479169758
 20
-272.20453339401564
 30
0.0
 41
1.0
 10
-5812.0528894633826
 20
-272.21542775171486
 30
0.0
 41
1.0
 10
-5812.0436310097884
 20
-272.22632210941413
 30
0.0
 41
1.0
 10
-5811.9669064908958
 20
-272.31660331508681
 30
0.0
 41
0.9970460233517915
 10
-5811.9049145897379
 20
-272.41757039926665
 30
0.0
 41
1.0
 10
-5811.8904452246588
 20
-272.44113685834702
 30
0.0
 41
1.0
 10
-5811.8759758595797
 20
-272.46470331742745
 30
0.0
 41
1.0
 10
-5811.8362391595647
 20
-272.52942304146313
 30
0.0
 41
0.9988468816636789
 10
-5811.8028927888126
 20
-272.59765549389272
 30
0.0
 41
1.0
 10
-5811.79585676631
 20
-272.61205241505309
 30
0.0
 41
1.0
 10
-5811.7888207438073
 20
-272.62644933621351
 30
0.0
 41
1.0
 10
-5811.7695464180515
 20
-272.66588794634168
 30
0.0
 41
0.9998431189999573
 10
-5811.7516810905663
 20
-272.70598450076113
 30
0.0
 41
1.0
 10
-5811.7338157629838
 20
-272.74608105539909
 30
0.0
 41
0.9999989989784736
 10
-5811.7158370394282
 20
-272.78612689327849
 30
0.0
 41
1.0
 10
-5811.709664727945
 20
-272.79987510984472
 30
0.0
 41
1.0
 10
-5811.7034924164609
 20
-272.81362332641095
 30
0.0
 41
1.0
 10
-5811.6731690698607
 20
-272.8811655975959
 30
0.0
 41
0.9998790356319489
 10
-5811.6449611897297
 20
-272.94961834951471
 30
0.0
 41
1.0
 10
-5811.6381260084399
 20
-272.96620545095675
 30
0.0
 41
1.0
 10
-5811.6312908271493
 20
-272.98279255239885
 30
0.0
 41
1.0
 10
-5811.6077331647648
 20
-273.03996050729353
 30
0.0
 41
0.9998227574561263
 10
-5811.5863444163733
 20
-273.09797481557496
 30
0.0
 41
1.0
 10
-5811.5649556679828
 20
-273.15598912385832
 30
0.0
 41
0.9996797971042843
 10
-5811.5465293830221
 20
-273.21501124298061
 30
0.0
 41
1.0
 10
-5811.5426255802977
 20
-273.22751570114451
 30
0.0
 41
1.0
 10
-5811.5387217775742
 20
-273.24002015930841
 30
0.0
 41
1.0
 10
-5811.5124878871648
 20
-273.32405119476192
 30
0.0
 41
0.9979274938733574
 10
-5811.4972633636853
 20
-273.41075555342059
 30
0.0
 41
1.0
 10
-5811.4950396764216
 20
-273.42341955425803
 30
0.0
 41
1.0
 10
-5811.4928159891579
 20
-273.43608355509548
 30
0.0
 41
1.0
 10
-5811.4818860494624
 20
-273.49833006237208
 30
0.0
 41
0.9994985982140637
 10
-5811.4749178842867
 20
-273.56114356349929
 30
0.0
 41
1.0
 10
-5811.46794971911
 20
-273.62395706463542
 30
0.0
 41
0.9996372611201806
 10
-5811.4643738533432
 20
-273.68705464331316
 30
0.0
 41
1.0
 10
-5811.4642052758536
 20
-273.69002926040048
 30
0.0
 41
1.0
 10
-5811.464036698364
 20
-273.69300387748785
 30
0.0
 41
1.0
 10
-5811.460123677618
 20
-273.76205069031874
 30
0.0
 41
0.9997730630735813
 10
-5811.4591553641303
 20
-273.83120151433695
 30
0.0
 41
1.0
 10
-5811.459098257712
 20
-273.83527969349439
 30
0.0
 41
1.0
 10
-5811.4590411512936
 20
-273.83935787265182
 30
0.0
 41
1.0
 10
-5811.4579586249683
 20
-273.91666505491588
 30
0.0
 41
0.9998772614069653
 10
-5811.4592987116994
 20
-273.99396820142641
 30
0.0
 41
1.0
 10
-5811.4593879748991
 20
-273.99911736531521
 30
0.0
 41
1.0
 10
-5811.4594772380988
 20
-274.00426652920396
 30
0.0
 41
1.0
 10
-5811.4609958512283
 20
-274.09186800345174
 30
0.0
 41
0.9999415567320614
 10
-5811.4644081614742
 20
-274.17941616514048
 30
0.0
 41
1.0
 10
-5811.4646494821491
 20
-274.18560762486425
 30
0.0
 41
1.0
 10
-5811.4648908028239
 20
-274.19179908458796
 30
0.0
 41
1.0
 10
-5811.4687857544186
 20
-274.29173016569933
 30
0.0
 41
0.9999716810426413
 10
-5811.474184337535
 20
-274.39159130388913
 30
0.0
 41
1.0
 10
-5811.4773971363302
 20
-274.45102055366016
 30
0.0
 41
1.0
 10
-5811.4806099351244
 20
-274.51044980343119
 30
0.0
 41
1.0
 10
-5811.4886838442735
 20
-274.65979820463531
 30
0.0
 41
0.9999819129904061
 10
-5811.4985536358854
 20
-274.80903868227347
 30
0.0
 41
1.0
 10
-5811.5084234275027
 20
-274.95827915998484
 30
0.0
 41
1.0
 10
-5811.5108627480668
 20
-274.99547220583418
 30
0.0
 41
1.0
 10
-5811.4881645141159
 20
-274.95673120830304
 30
0.0
 41
0.9999982128047611
 10
-5811.4653199552713
 20
-274.91807631419232
 30
0.0
 41
1.0
 10
-5811.4384103954908
 20
-274.87254310031426
 30
0.0
 41
1.0
 10
-5811.4115008357112
 20
-274.82700988643614
 30
0.0
 41
1.0
 10
-5811.334837157181
 20
-274.69728856436029
 30
0.0
 41
0.9998609190058597
 10
-5811.2538898443136
 20
-274.57019618242094
 30
0.0
 41
1.0
 10
-5811.2242415228384
 20
-274.52364644947477
 30
0.0
 41
1.0
 10
-5811.1945932013632
 20
-274.47709671652865
 30
0.0
 41
1.0
 10
-5811.1123209811249
 20
-274.34792414653168
 30
0.0
 41
0.9999067609730816
 10
-5811.0265519716577
 20
-274.22104645708635
 30
0.0
 41
1.0
 10
-5811.0241472684393
 20
-274.21748919100582
 30
0.0
 41
1.0
 10
-5811.0217425652208
 20
-274.21393192492536
 30
0.0
 41
1.0
 10
-5810.9407829621759
 20
-274.09416876761975
 30
0.0
 41
0.9998784952149786
 10
-5810.8561293525127
 20
-273.97698755093631
 30
0.0
 41
1.0
 10
-5810.7714757428266
 20
-273.8598063342219
 30
0.0
 41
0.9998532968283586
 10
-5810.6828581219925
 20
-273.74559342573622
 30
0.0
 41
1.0
 10
-5810.6628963330095
 20
-273.71986610472732
 30
0.0
 41
1.0
 10
-5810.6429345440274
 20
-273.69413878371836
 30
0.0
 41
1.0
 10
-5810.5244504942684
 20
-273.54143317274975
 30
0.0
 41
0.9991551975795463
 10
-5810.3938260446439
 20
-273.39897361066483
 30
0.0
 41
1.0
 10
-5810.390316428663
 20
-273.39514600903914
 30
0.0
 41
1.0
 10
-5810.3868068126822
 20
-273.39131840741345
 30
0.0
 41
1.0
 10
-5810.2632015950203
 20
-273.25651404858166
 30
0.0
 41
0.9997418144181135
 10
-5810.1335994553201
 20
-273.12746463796884
 30
0.0
 41
1.0
 10
-5810.0039973156236
 20
-272.99841522735943
 30
0.0
 41
0.9989238204631977
 10
-5809.8629947673771
 20
-272.88193026532457
 30
0.0
 41
1.0
 10
-5809.8177470892297
 20
-272.8445502737095
 30
0.0
 41
1.0
 10
-5809.7724994110831
 20
-272.80717028209449
 30
0.0
 41
1.0
 10
-5809.6322593538671
 20
-272.69131522880906
 30
0.0
 41
0.9990825084097339
 10
-5809.4826194212637
 20
-272.5878862309761
 30
0.0
 41
1.0
 10
-5809.4725740572057
 20
-272.58094301789583
 30
0.0
 41
1.0
 10
-5809.4625286931478
 20
-272.57399980481551
 30
0.0
 41
1.0
 10
-5809.332979488664
 20
-272.48445723314614
 30
0.0
 41
0.9998164899826669
 10
-5809.2000952852832
 20
-272.39994299162674
 30
0.0
 41
1.0
 10
-5809.1882497247643
 20
-272.39240922510555
 30
0.0
 41
1.0
 10
-5809.1764041642455
 20
-272.38487545858436
 30
0.0
 41
1.0
 10
-5809.067211081916
 20
-272.31542875011513
 30
0.0
 41
0.9997473449131156
 10
-5808.9550071246576
 20
-272.25095979229468
 30
0.0
 41
1.0
 10
-5808.8428031673857
 20
-272.18649083446638
 30
0.0
 41
0.9999327861145654
 10
-5808.7291345566055
 20
-272.1246408427761
 30
0.0
 41
1.0
 10
-5808.7285825540639
 20
-272.12434048410768
 30
0.0
 41
1.0
 10
-5808.7280305515233
 20
-272.12404012543925
 30
0.0
 41
1.0
 10
-5808.6132579356408
 20
-272.06158941640058
 30
0.0
 41
0.99969564204838
 10
-5808.4955446098047
 20
-272.00487594942774
 30
0.0
 41
1.0
 10
-5808.4651042049136
 20
-271.99020997269861
 30
0.0
 41
1.0
 10
-5808.4346638000234
 20
-271.97554399596942
 30
0.0
 41
1.0
 10
-5808.3316866932691
 20
-271.92593033752144
 30
0.0
 41
0.9998070570176926
 10
-5808.226840304329
 20
-271.88039975062031
 30
0.0
 41
1.0
 10
-5808.1219939153962
 20
-271.834869163723
 30
0.0
 41
0.999782743614815
 10
-5808.0153409787836
 20
-271.79374799240981
 30
0.0
 41
1.0
 10
-5807.9961181291492
 20
-271.78633641877627
 30
0.0
 41
1.0
 10
-5807.9768952795148
 20
-271.77892484514268
 30
0.0
 41
1.0
 10
-5807.8317966436398
 20
-271.72298052656532
 30
0.0
 41
0.9988031841977231
 10
-5807.6819262810368
 20
-271.68148046239793
 30
0.0
 41
1.0
 10
-5807.657009032675
 20
-271.67458071659161
 30
0.0
 41
1.0
 10
-5807.6320917843141
 20
-271.66768097078528
 30
0.0
 41
1.0
 10
-5807.4648217586664
 20
-271.62136282837832
 30
0.0
 41
0.9984748040550464
 10
-5807.293464850015
 20
-271.5937685961128
 30
0.0
 41
1.0
 10
-5807.2887257137654
 20
-271.59300543559925
 30
0.0
 41
1.0
 10
-5807.2839865775159
 20
-271.59224227508577
 30
0.0
 41
1.0
 10
-5807.1221079413681
 20
-271.56617436384829
 30
0.0
 41
0.9984436495480081
 10
-5806.958333197641
 20
-271.55829641002924
 30
0.0
 41
1.0
 10
-5806.9366359895084
 20
-271.5572527228295
 30
0.0
 41
1.0
 10
-5806.9149387813768
 20
-271.55620903562982
 30
0.0
 41
1.0
 10
-5806.7945584539148
 20
-271.55041845621065
 30
0.0
 41
0.9987954789335911
 10
-5806.6741902090071
 20
-271.55645498395279
 30
0.0
 41
1.0
 10
-5806.6542254165106
 20
-271.55745622829147
 30
0.0
 41
1.0
 10
-5806.6342606240132
 20
-271.55845747263021
 30
0.0
 41
1.0
 10
-5806.5538219640885
 20
-271.56249151169578
 30
0.0
 41
0.9997941595877483
 10
-5806.4736131860027
 20
-271.56978557761613
 30
0.0
 41
1.0
 10
-5806.3934044079097
 20
-271.5770796435371
 30
0.0
 41
0.9998589466236831
 10
-5806.313485861051
 20
-271.58706349798751
 30
0.0
 41
1.0
 10
-5806.2810796592439
 20
-271.59111185490661
 30
0.0
 41
1.0
 10
-5806.2486734574359
 20
-271.59516021182571
 30
0.0
 41
1.0
 10
-5806.1039425069621
 20
-271.61324078011455
 30
0.0
 41
0.9993495063249064
 10
-5805.9608912631993
 20
-271.64170648985584
 30
0.0
 41
1.0
 10
-5805.9279575660421
 20
-271.64825995307172
 30
0.0
 41
1.0
 10
-5805.8950238688849
 20
-271.65481341628765
 30
0.0
 41
1.0
 10
-5805.7857300456762
 20
-271.67656175042481
 30
0.0
 41
0.9996788715562336
 10
-5805.677678473734
 20
-271.70381954978393
 30
0.0
 41
1.0
 10
-5805.6756154711939
 20
-271.70433997635712
 30
0.0
 41
1.0
 10
-5805.6735524686537
 20
-271.70486040293036
 30
0.0
 41
1.0
 10
-5805.5696269017808
 20
-271.73107734914646
 30
0.0
 41
0.9995480654493515
 10
-5805.467464666548
 20
-271.76349230577136
 30
0.0
 41
1.0
 10
-5805.4657750244205
 20
-271.76402841068477
 30
0.0
 41
1.0
 10
-5805.464085382293
 20
-271.76456451559818
 30
0.0
 41
1.0
 10
-5805.3653024313171
 20
-271.79590726239684
 30
0.0
 41
0.9993867959456795
 10
-5805.2689552728771
 20
-271.83408663168552
 30
0.0
 41
1.0
 10
-5805.2677123237891
 20
-271.83457917358294
 30
0.0
 41
1.0
 10
-5805.266469374701
 20
-271.83507171548041
 30
0.0
 41
1.0
 10
-5805.1726081144325
 20
-271.87226600097574
 30
0.0
 41
0.9992050256521621
 10
-5805.0820084394009
 20
-271.91681990021402
 30
0.0
 41
1.0
 10
-5805.0812737566848
 20
-271.91718119267688
 30
0.0
 41
1.0
 10
-5805.0805390739679
 20
-271.91754248513973
 30
0.0
 41
1.0
 10
-5804.9914087643674
 20
-271.96137379945236
 30
0.0
 41
0.9990222350739653
 10
-5804.9064987029742
 20
-272.0129070671511
 30
0.0
 41
1.0
 10
-5804.906314817692
 20
-272.013018670056
 30
0.0
 41
1.0
 10
-5804.9061309324088
 20
-272.01313027296095
 30
0.0
 41
1.0
 10
-5804.821588641581
 20
-272.0644403348486
 30
0.0
 41
0.9988642743803132
 10
-5804.7423141069612
 20
-272.12356452237464
 30
0.0
 41
1.0
 10
-5804.6630395723396
 20
-272.18268870990266
 30
0.0
 41
0.9987681233312495
 10
-5804.5900157880596
 20
-272.24937940130667
 30
0.0
 41
1.0
 10
-5804.5896868600976
 20
-272.24967980251785
 30
0.0
 41
1.0
 10
-5804.5893579321346
 20
-272.24998020372902
 30
0.0
 41
1.0
 10
-5804.5156762919205
 20
-272.31727169756471
 30
0.0
 41
0.9987496570900537
 10
-5804.4490824865925
 20
-272.39158451165292
 30
0.0
 41
1.0
 10
-5804.448310316835
 20
-272.3924461850068
 30
0.0
 41
1.0
 10
-5804.4475381470784
 20
-272.39330785836069
 30
0.0
 41
1.0
 10
-5804.3794000022299
 20
-272.46934401916326
 30
0.0
 41
0.9988147669826838
 10
-5804.3189777480047
 20
-272.55164502600593
 30
0.0
 41
1.0
 10
-5804.3178584219277
 20
-272.55316965735824
 30
0.0
 41
1.0
 10
-5804.3167390958497
 20
-272.55469428871061
 30
0.0
 41
1.0
 10
-5804.2540781894695
 20
-272.64004455825818
 30
0.0
 41
0.9989452636214777
 10
-5804.1995112765089
 20
-272.73078324741545
 30
0.0
 41
1.0
 10
-5804.1981625504231
 20
-272.73302602844183
 30
0.0
 41
1.0
 10
-5804.1968138243374
 20
-272.73526880946827
 30
0.0
 41
1.0
 10
-5804.1395494592007
 20
-272.83049306068574
 30
0.0
 41
0.999104643607167
 10
-5804.0905402458766
 20
-272.9302174937157
 30
0.0
 41
1.0
 10
-5804.089076384289
 20
-272.93319617378233
 30
0.0
 41
1.0
 10
-5804.0876125227023
 20
-272.93617485384891
 30
0.0
 41
1.0
 10
-5804.0356755862013
 20
-273.04185664701606
 30
0.0
 41
0.9992763831100074
 10
-5803.9919224576479
 20
-273.15118070896858
 30
0.0
 41
1.0
 10
-5803.9904431879831
 20
-273.15487689650553
 30
0.0
 41
1.0
 10
-5803.9889639183184
 20
-273.15857308404247
 30
0.0
 41
1.0
 10
-5803.9422522504374
 20
-273.27528952106576
 30
0.0
 41
0.9994163472884917
 10
-5803.903619219248
 20
-273.39492310952841
 30
0.0
 41
1.0
 10
-5803.9023810670005
 20
-273.39875725331092
 30
0.0
 41
1.0
 10
-5803.901142914754
 20
-273.40259139709349
 30
0.0
 41
1.0
 10
-5803.8612593537364
 20
-273.5260974585733
 30
0.0
 41
0.9997268055890662
 10
-5803.8271912978244
 20
-273.65133249052428
 30
0.0
 41
1.0
 10
-5803.8262611175551
 20
-273.65475185663144
 30
0.0
 41
1.0
 10
-5803.8253309372858
 20
-273.65817122273859
 30
0.0
 41
1.0
 10
-5803.7931232419132
 20
-273.77656752247253
 30
0.0
 41
0.9996701319000193
 10
-5803.7670376251426
 20
-273.89646147573842
 30
0.0
 41
1.0
 10
-5803.7409520083711
 20
-274.01635542900584
 30
0.0
 41
0.9995785451109006
 10
-5803.7218684310319
 20
-274.13756119003955
 30
0.0
 41
1.0
 10
-5803.7176486488588
 20
-274.16436234479727
 30
0.0
 41
1.0
 10
-5803.7134288666866
 20
-274.19116349955499
 30
0.0
 41
1.0
 10
-5803.6868538907456
 20
-274.35994947326219
 30
0.0
 41
0.9979925101213009
 10
-5803.6818283048196
 20
-274.53074080135821
 30
0.0
 41
1.0
 10
-5803.6810034923947
 20
-274.55877152485027
 30
0.0
 41
1.0
 10
-5803.6801786799697
 20
-274.58680224834228
 30
0.0
 41
1.0
 10
-5803.6768027188937
 20
-274.70153212946025
 30
0.0
 41
0.9995314902264549
 10
-5803.6804529110323
 20
-274.81625361320187
 30
0.0
 41
1.0
 10
-5803.6841031031718
 20
-274.93097509696975
 30
0.0
 41
0.9996245486943899
 10
-5803.6940321983038
 20
-275.04532436811013
 30
0.0
 41
1.0
 10
-5803.6941952462967
 20
-275.04720212422922
 30
0.0
 41
1.0
 10
-5803.6943582942895
 20
-275.04907988034824
 30
0.0
 41
1.0
 10
-5803.7046134854063
 20
-275.16718466372538
 30
0.0
 41
0.9997286095000514
 10
-5803.720358808976
 20
-275.28468357260198
 30
0.0
 41
1.0
 10
-5803.7207523016286
 20
-275.2876199973216
 30
0.0
 41
1.0
 10
-5803.7211457942813
 20
-275.29055642204116
 30
0.0
 41
1.0
 10
-5803.7376781031508
 20
-275.41392818032176
 30
0.0
 41
0.9998265533969946
 10
-5803.7587935618794
 20
-275.53659865509258
 30
0.0
 41
1.0
 10
-5803.7594701040198
 20
-275.54052903361782
 30
0.0
 41
1.0
 10
-5803.7601466461601
 20
-275.54445941214306
 30
0.0
 41
1.0
 10
-5803.7826151891686
 20
-275.67499064395395
 30
0.0
 41
0.9999022530854854
 10
-5803.8087246537798
 20
-275.80484261259909
 30
0.0
 41
1.0
 10
-5803.8097032949436
 20
-275.80970975497928
 30
0.0
 41
1.0
 10
-5803.8106819361074
 20
-275.81457689735953
 30
0.0
 41
1.0
 10
-5803.8387486830434
 20
-275.95416315074851
 30
0.0
 41
0.9999524761939738
 10
-5803.8695316518706
 20
-276.09317564388203
 30
0.0
 41
1.0
 10
-5803.8708077590527
 20
-276.09893840321206
 30
0.0
 41
1.0
 10
-5803.8720838662339
 20
-276.10470116254203
 30
0.0
 41
1.0
 10
-5803.905419049418
 20
-276.25523917430235
 30
0.0
 41
0.9999813588723341
 10
-5803.9405900502124
 20
-276.40535888695604
 30
0.0
 41
1.0
 10
-5803.9421439756698
 20
-276.41199147738394
 30
0.0
 41
1.0
 10
-5803.943697901128
 20
-276.41862406781183
 30
0.0
 41
1.0
 10
-5803.9819767528452
 20
-276.58200896134701
 30
0.0
 41
0.9999955237742529
 10
-5804.021232630841
 20
-276.74516186501535
 30
0.0
 41
1.0
 10
-5804.0335142664644
 20
-276.79620605549025
 30
0.0
 41
1.0
 10
-5804.0457959020869
 20
-276.84725024596514
 30
0.0
 41
1.0
 10
-5804.1096150512403
 20
-277.11249153022197
 30
0.0
 41
0.999999360429691
 10
-5804.1740339983335
 20
-277.37758778059867
 30
0.0
 41
1.0
 10
-5804.1787528339664
 20
-277.39700668899059
 30
0.0
 41
1.0
 10
-5804.1834716695985
 20
-277.4164255973825
 30
0.0
 41
1.0
 10
-5804.2573282878739
 20
-277.72035966420043
 30
0.0
 41
0.9999659914731591
 10
-5804.3361878837759
 20
-278.02303421082291
 30
0.0
 41
1.0
 10
-5804.3411405726911
 20
-278.04204334794429
 30
0.0
 41
1.0
 10
-5804.3460932616053
 20
-278.0610524850656
 30
0.0
 41
1.0
 10
-5804.4348582353468
 20
-278.40174530597255
 30
0.0
 41
0.9999441976027435
 10
-5804.530801268309
 20
-278.74048673126708
 30
0.0
 41
1.0
 10
-5804.5475017867375
 20
-278.7994504438031
 30
0.0
 41
1.0
 10
-5804.5642023051651
 20
-278.85841415633911
 30
0.0
 41
1.0
 10
-5804.6935463749796
 20
-279.31508300669401
 30
0.0
 41
0.9999625120736252
 10
-5804.8307791423022
 20
-279.76944354068524
 30
0.0
 41
1.0
 10
-5804.8665690853722
 20
-279.88793956726778
 30
0.0
 41
1.0
 10
-5804.9023590284414
 20
-280.00643559385031
 30
0.0
 41
1.0
 10
-5804.9768792324967
 20
-280.25316267200185
 30
0.0
 41
0.9999793386321233
 10
-5805.0545652556484
 20
-280.49891131128174
 30
0.0
 41
1.0
 10
-5805.1322512787856
 20
-280.74465995051787
 30
0.0
 41
1.0
 10
-5805.1430308376557
 20
-280.77867785489252
 30
0.0
 41
1.0
 10
-5806.993403890925
 20
-286.66574977736002
 30
0.0
 41
1.0
 10
-5808.8437769441944
 20
-292.55282169982752
 30
0.0
 41
1.0
 10
-5809.8050336342185
 20
-292.55282169982752
 30
0.0
 41
1.0
 10
-5810.7662903242417
 20
-292.55282169982752
 30
0.0
 41
1.0
 10
-5809.1473455455634
 20
-287.40479319803808
 30
0.0
 41
1.0
 10
-5807.5284007668843
 20
-282.25676469624864
 30
0.0
 41
1.0
 10
-5807.4832349436947
 20
-282.11273347392824
 30
0.0
 41
1.0
 10
-5807.4380691205042
 20
-281.96870225160785
 30
0.0
 41
1.0
 10
-5807.2677647031614
 20
-281.42561122251021
 30
0.0
 41
0.999991165791268
 10
-5807.1020318914925
 20
-280.88110769118271
 30
0.0
 41
1.0
 10
-5807.0723359480344
 20
-280.78354375127054
 30
0.0
 41
1.0
 10
-5807.0426400045753
 20
-280.68597981135838
 30
0.0
 41
1.0
 10
-5806.9362990798572
 20
-280.33660415996508
 30
0.0
 41
0.9999952428171908
 10
-5806.8321154904879
 20
-279.98657913546947
 30
0.0
 41
1.0
 10
-5806.8270560201654
 20
-279.96958086122771
 30
0.0
 41
1.0
 10
-5806.8219965498429
 20
-279.95258258698595
 30
0.0
 41
1.0
 10
-5806.7279319011668
 20
-279.63655411113064
 30
0.0
 41
0.9999931687500894
 10
-5806.6362060632891
 20
-279.31983889784942
 30
0.0
 41
1.0
 10
-5806.6312707988227
 20
-279.30279818855388
 30
0.0
 41
1.0
 10
-5806.6263355343563
 20
-279.28575747925828
 30
0.0
 41
1.0
 10
-5806.5444802254087
 20
-279.00312368455729
 30
0.0
 41
0.999989384082387
 10
-5806.4652329989585
 20
-278.71974755533233
 30
0.0
 41
1.0
 10
-5806.3859857724874
 20
-278.43637142603257
 30
0.0
 41
0.99998339800612
 10
-5806.3100095317368
 20
-278.1521008429732
 30
0.0
 41
1.0
 10
-5806.3010055950263
 20
-278.11841196453844
 30
0.0
 41
1.0
 10
-5806.2920016583157
 20
-278.08472308610368
 30
0.0
 41
1.0
 10
-5806.2230371094483
 20
-277.82668725380233
 30
0.0
 41
0.999923365806494
 10
-5806.160482138228
 20
-277.56702309507932
 30
0.0
 41
1.0
 10
-5806.0979271670076
 20
-277.30735893635688
 30
0.0
 41
1.0
 10
-5806.0584437481502
 20
-277.14355227193073
 30
0.0
 41
1.0
 10
-5806.0534651441685
 20
-277.12289731004336
 30
0.0
 41
1.0
 10
-5806.0484865401877
 20
-277.10224234815598
 30
0.0
 41
1.0
 10
-5806.0189603292874
 20
-276.97974560748179
 30
0.0
 41
0.9999868670841458
 10
-5805.9906912452971
 20
-276.85695266185917
 30
0.0
 41
1.0
 10
-5805.9867937581403
 20
-276.84002307444848
 30
0.0
 41
1.0
 10
-5805.9828962709844
 20
-276.8230934870378
 30
0.0
 41
1.0
 10
-5805.9624221613012
 20
-276.73415971621603
 30
0.0
 41
0.9999778173347363
 10
-5805.9431345631856
 20
-276.64496109898323
 30
0.0
 41
1.0
 10
-5805.9238469650745
 20
-276.55576248177533
 30
0.0
 41
0.9999602692861291
 10
-5805.9061526064452
 20
-276.46623419335606
 30
0.0
 41
1.0
 10
-5805.9029487743646
 20
-276.45002373845557
 30
0.0
 41
1.0
 10
-5805.8997449422841
 20
-276.43381328355508
 30
0.0
 41
1.0
 10
-5805.8756429194955
 20
-276.31186408534751
 30
0.0
 41
0.9995617985318891
 10
-5805.8587995722755
 20
-276.18870233762937
 30
0.0
 41
1.0
 10
-5805.8563350823715
 20
-276.17068152027741
 30
0.0
 41
1.0
 10
-5805.8538705924666
 20
-276.15266070292552
 30
0.0
 41
1.0
 10
-5805.833587331419
 20
-276.00434565322217
 30
0.0
 41
0.9991121410640899
 10
-5805.8258619778298
 20
-275.85484955441268
 30
0.0
 41
1.0
 10
-5805.8249431878048
 20
-275.83706971783346
 30
0.0
 41
1.0
 10
-5805.8240243977807
 20
-275.81928988125424
 30
0.0
 41
1.0
 10
-5805.8181366242416
 20
-275.70535345560347
 30
0.0
 41
0.9989792494904562
 10
-5805.8225557163587
 20
-275.59135061970812
 30
0.0
 41
1.0
 10
-5805.8232036882273
 20
-275.57463437377373
 30
0.0
 41
1.0
 10
-5805.8238516600968
 20
-275.5579181278394
 30
0.0
 41
1.0
 10
-5805.8269748084767
 20
-275.47734778380232
 30
0.0
 41
0.9997820295394472
 10
-5805.8334588058524
 20
-275.39697806206573
 30
0.0
 41
1.0
 10
-5805.839942803229
 20
-275.31660834030549
 30
0.0
 41
0.9998335105975018
 10
-5805.8493549987434
 20
-275.23652872383764
 30
0.0
 41
1.0
 10
-5805.8509499234178
 20
-275.22295899337161
 30
0.0
 41
1.0
 10
-5805.8525448480923
 20
-275.20938926290557
 30
0.0
 41
1.0
 10
-5805.8651468929538
 20
-275.10217018551378
 30
0.0
 41
0.999687645788009
 10
-5805.8830908057471
 20
-274.99571475782091
 30
0.0
 41
1.0
 10
-5805.8853224688955
 20
-274.98247502255987
 30
0.0
 41
1.0
 10
-5805.887554132044
 20
-274.96923528729883
 30
0.0
 41
1.0
 10
-5805.9013499534658
 20
-274.88738914333601
 30
0.0
 41
0.9995547496495076
 10
-5805.9200032753597
 20
-274.80651164614028
 30
0.0
 41
1.0
 10
-5805.9203772322344
 20
-274.80489023542299
 30
0.0
 41
1.0
 10
-5805.9207511891082
 20
-274.8032688247057
 30
0.0
 41
1.0
 10
-5805.9386565972545
 20
-274.72563414893841
 30
0.0
 41
0.9994899427173645
 10
-5805.9614815059304
 20
-274.64930086611469
 30
0.0
 41
1.0
 10
-5805.9619400326719
 20
-274.64776741632443
 30
0.0
 41
1.0
 10
-5805.9623985594126
 20
-274.64623396653417
 30
0.0
 41
1.0
 10
-5805.9843064146107
 20
-274.57296758327743
 30
0.0
 41
0.9993784877589701
 10
-5806.0113220497169
 20
-274.50142687812126
 30
0.0
 41
1.0
 10
-5806.0118537406943
 20
-274.50001889539908
 30
0.0
 41
1.0
 10
-5806.0123854316716
 20
-274.49861091267684
 30
0.0
 41
1.0
 10
-5806.0383376848249
 20
-274.42988617295867
 30
0.0
 41
0.9992430832257438
 10
-5806.0695542199828
 20
-274.36338702089392
 30
0.0
 41
1.0
 10
-5806.0701363360413
 20
-274.36214696577315
 30
0.0
 41
1.0
 10
-5806.0707184520998
 20
-274.36090691065232
 30
0.0
 41
1.0
 10
-5806.1007707551444
 20
-274.29688786882235
 30
0.0
 41
0.999078963279935
 10
-5806.1362013819189
 20
-274.23568125707607
 30
0.0
 41
1.0
 10
-5806.1367970881001
 20
-274.2346521712177
 30
0.0
 41
1.0
 10
-5806.1373927942823
 20
-274.23362308535934
 30
0.0
 41
1.0
 10
-5806.1716320086953
 20
-274.17447464532603
 30
0.0
 41
0.9988874801117164
 10
-5806.2112912847278
 20
-274.11881493290855
 30
0.0
 41
1.0
 10
-5806.211846810791
 20
-274.11803528123545
 30
0.0
 41
1.0
 10
-5806.2124023368542
 20
-274.11725562956235
 30
0.0
 41
1.0
 10
-5806.2509505607595
 20
-274.0631552204901
 30
0.0
 41
0.9986762060690477
 10
-5806.2948530320355
 20
-274.01330150605156
 30
0.0
 41
1.0
 10
-5806.2952969923699
 20
-274.01279736423203
 30
0.0
 41
1.0
 10
-5806.2957409527053
 20
-274.01229322241255
 30
0.0
 41
1.0
 10
-5806.338755503315
 20
-273.96344779160995
 30
0.0
 41
0.998462164248844
 10
-5806.3869130600906
 20
-273.91966449114125
 30
0.0
 41
1.0
 10
-5806.3871596946065
 20
-273.91944025897868
 30
0.0
 41
1.0
 10
-5806.3874063291214
 20
-273.91921602681612
 30
0.0
 41
1.0
 10
-5806.4350706168671
 20
-273.87588119067158
 30
0.0
 41
0.9982724693853033
 10
-5806.4874892487096
 20
-273.83843684015244
 30
0.0
 41
1.0
 10
-5806.5399078805485
 20
-273.80099248963558
 30
0.0
 41
0.9981399180157687
 10
-5806.5964939439391
 20
-273.77020597019339
 30
0.0
 41
1.0
 10
-5806.5965396060201
 20
-273.77018112703519
 30
0.0
 41
1.0
 10
-5806.5965852681002
 20
-273.77015628387699
 30
0.0
 41
1.0
 10
-5806.6532626556491
 20
-273.73932007812039
 30
0.0
 41
0.9980927086840993
 10
-5806.7133080067197
 20
-273.71570326926576
 30
0.0
 41
1.0
 10
-5806.7137481764303
 20
-273.71553014339122
 30
0.0
 41
1.0
 10
-5806.7141883461409
 20
-273.71535701751668
 30
0.0
 41
1.0
 10
-5806.775114036629
 20
-273.69139395691445
 30
0.0
 41
0.998141135656048
 10
-5806.8385025580283
 20
-273.67502131540891
 30
0.0
 41
1.0
 10
-5806.8393846747304
 20
-273.67479347320329
 30
0.0
 41
1.0
 10
-5806.8402667914324
 20
-273.67456563099768
 30
0.0
 41
1.0
 10
-5806.905419546235
 20
-273.65773730508141
 30
0.0
 41
0.9983031812936994
 10
-5806.97208697523
 20
-273.64859794390492
 30
0.0
 41
1.0
 10
-5806.9809580006331
 20
-273.64738182523365
 30
0.0
 41
1.0
 10
-5806.9898290260371
 20
-273.64616570656239
 30
0.0
 41
1.0
 10
-5807.0441786685451
 20
-273.6387149765705
 30
0.0
 41
0.9983887708258646
 10
-5807.0990225178348
 20
-273.63747030293791
 30
0.0
 41
1.0
 10
-5807.1070859230531
 20
-273.63728730506307
 30
0.0
 41
1.0
 10
-5807.1151493282705
 20
-273.63710430718822
 30
0.0
 41
1.0
 10
-5807.1538663671327
 20
-273.63622562930459
 30
0.0
 41
0.9998869563079625
 10
-5807.1925923203307
 20
-273.63651149866428
 30
0.0
 41
1.0
 10
-5807.2313182735197
 20
-273.63679736802385
 30
0.0
 41
0.9999972320161531
 10
-5807.2700424527393
 20
-273.63726546755294
 30
0.0
 41
1.0
 10
-5807.2893954693209
 20
-273.63749940764239
 30
0.0
 41
1.0
 10
-5807.3087484859034
 20
-273.6377333477318
 30
0.0
 41
1.0
 10
-5807.3861786982716
 20
-273.63866932743952
 30
0.0
 41
0.9997304945087897
 10
-5807.4634820045139
 20
-273.64319842122575
 30
0.0
 41
1.0
 10
-5807.4725316462172
 20
-273.64372862721564
 30
0.0
 41
1.0
 10
-5807.4815812879206
 20
-273.64425883320553
 30
0.0
 41
1.0
 10
-5807.5769838775614
 20
-273.64984833897103
 30
0.0
 41
0.999788830641516
 10
-5807.6720762134055
 20
-273.65935330346025
 30
0.0
 41
1.0
 10
-5807.6807972749793
 20
-273.66022501809255
 30
0.0
 41
1.0
 10
-5807.6895183365541
 20
-273.66109673272479
 30
0.0
 41
1.0
 10
-5807.8020527955405
 20
-273.67234512647821
 30
0.0
 41
0.9984170238193361
 10
-5807.9126119428956
 20
-273.69616120841414
 30
0.0
 41
1.0
 10
-5807.94899307388
 20
-273.70399824421992
 30
0.0
 41
1.0
 10
-5807.9853742048645
 20
-273.7118352800257
 30
0.0
 41
1.0
 10
-5808.1005652732856
 20
-273.7366491465354
 30
0.0
 41
0.9976592854201078
 10
-5808.2112934396937
 20
-273.77694782368292
 30
0.0
 41
1.0
 10
-5808.3220216060972
 20
-273.81724650082919
 30
0.0
 41
0.9993255074351143
 10
-5808.4294934048903
 20
-273.86556339932287
 30
0.0
 41
1.0
 10
-5808.434118583813
 20
-273.86764277552243
 30
0.0
 41
1.0
 10
-5808.4387437627356
 20
-273.86972215172193
 30
0.0
 41
1.0
 10
-5808.555465919374
 20
-273.92219780261468
 30
0.0
 41
0.997647507827707
 10
-5808.6639132636874
 20
-273.99014579227401
 30
0.0
 41
1.0
 10
-5808.6822556578227
 20
-274.00163827108872
 30
0.0
 41
1.0
 10
-5808.7005980519571
 20
-274.01313074990344
 30
0.0
 41
1.0
 10
-5808.784800243513
 20
-274.06588787067437
 30
0.0
 41
0.9995131336406027
 10
-5808.8655479584631
 20
-274.12379408262291
 30
0.0
 41
1.0
 10
-5808.9462956734324
 20
-274.18170029458446
 30
0.0
 41
0.9995810107604661
 10
-5809.0235573211639
 20
-274.2441819770541
 30
0.0
 41
1.0
 10
-5809.0265273523664
 20
-274.24658384851261
 30
0.0
 41
1.0
 10
-5809.0294973835689
 20
-274.24898571997107
 30
0.0
 41
1.0
 10
-5809.1126990937173
 20
-274.31627114536582
 30
0.0
 41
0.9996617837954366
 10
-5809.192289780849
 20
-274.38779160092253
 30
0.0
 41
1.0
 10
-5809.2044205317361
 20
-274.39869233392204
 30
0.0
 41
1.0
 10
-5809.2165512826232
 20
-274.40959306692156
 30
0.0
 41
1.0
 10
-5809.2848268100133
 20
-274.47094568238833
 30
0.0
 41
0.9997267750051915
 10
-5809.3501603182885
 20
-274.53542221890586
 30
0.0
 41
1.0
 10
-5809.4154938265574
 20
-274.59989875541527
 30
0.0
 41
0.9999667288956798
 10
-5809.4797667697057
 20
-274.66543256231211
 30
0.0
 41
1.0
 10
-5809.5485942174873
 20
-274.73561022107708
 30
0.0
 41
1.0
 10
-5809.6174216652689
 20
-274.80578787984211
 30
0.0
 41
1.0
 10
-5809.8193495039604
 20
-275.01167700424679
 30
0.0
 41
0.9988205335175584
 10
-5810.0003551209356
 20
-275.23618123630104
 30
0.0
 41
1.0
 10
-5810.0309950858455
 20
-275.27418448673723
 30
0.0
 41
1.0
 10
-5810.0616350507553
 20
-275.31218773717342
 30
0.0
 41
1.0
 10
-5810.3039205975401
 20
-275.61269847008964
 30
0.0
 41
0.9997077826755954
 10
-5810.5313985486455
 20
-275.92456826430447
 30
0.0
 41
1.0
 10
-5810.5331219637774
 20
-275.92693104768694
 30
0.0
 41
1.0
 10
-5810.5348453789102
 20
-275.92929383106934
 30
0.0
 41
1.0
 10
-5810.7657701602748
 20
-276.24588919204132
 30
0.0
 41
0.9989147567078397
 10
-5810.9662336631536
 20
-276.5825986532198
 30
0.0
 41
1.0
 10
-5810.9909748084547
 20
-276.62415523376228
 30
0.0
 41
1.0
 10
-5811.0157159537557
 20
-276.6657118143047
 30
0.0
 41
1.0
 10
-5811.1709272524031
 20
-276.92641319877373
 30
0.0
 41
0.9997476598182875
 10
-5811.3142722399207
 20
-277.19382294736965
 30
0.0
 41
1.0
 10
-5811.4576172274301
 20
-277.4612326959537
 30
0.0
 41
0.9996258967110091
 10
-5811.5861254793617
 20
-277.73608063257649
 30
0.0
 41
1.0
 10
-5811.5993253888219
 20
-277.76431203269419
 30
0.0
 41
1.0
 10
-5811.612525298282
 20
-277.79254343281195
 30
0.0
 41
1.0
 10
-5811.7527340192719
 20
-278.09241583074379
 30
0.0
 41
0.9998735413943661
 10
-5811.8833353659811
 20
-278.39659543018854
 30
0.0
 41
1.0
 10
-5811.8867781940444
 20
-278.40461401565938
 30
0.0
 41
1.0
 10
-5811.8902210221077
 20
-278.41263260113021
 30
0.0
 41
1.0
 10
-5812.0139367127058
 20
-278.70077502966524
 30
0.0
 41
0.9999377418863448
 10
-5812.1311915148763
 20
-278.99160649733119
 30
0.0
 41
1.0
 10
-5812.2484463170558
 20
-279.28243796501675
 30
0.0
 41
0.9999508299508009
 10
-5812.3599102604348
 20
-279.57553764184178
 30
0.0
 41
1.0
 10
-5812.3629910290947
 20
-279.58363866779905
 30
0.0
 41
1.0
 10
-5812.3660717977546
 20
-279.59173969375627
 30
0.0
 41
1.0
 10
-5812.4836972784506
 20
-279.90104142248776
 30
0.0
 41
0.9999609228433959
 10
-5812.5958358813186
 20
-280.21237443848582
 30
0.0
 41
1.0
 10
-5812.5987918916744
 20
-280.22058127891285
 30
0.0
 41
1.0
 10
-5812.6017479020302
 20
-280.22878811933981
 30
0.0
 41
1.0
 10
-5812.7197985256098
 20
-280.55653481619265
 30
0.0
 41
0.9999674607399555
 10
-5812.8325460516844
 20
-280.88614343620895
 30
0.0
 41
1.0
 10
-5812.8839444422301
 20
-281.03640263185224
 30
0.0
 41
1.0
 10
-5812.9353428327768
 20
-281.18666182749553
 30
0.0
 41
1.0
 10
-5813.0513534395441
 20
-281.52580981002637
 30
0.0
 41
0.9999287532307535
 10
-5813.1592348435252
 20
-281.86763054903201
 30
0.0
 41
1.0
 10
-5813.2057120996114
 20
-282.01489309323654
 30
0.0
 41
1.0
 10
-5813.2521893556977
 20
-282.162155637441
 30
0.0
 41
1.0
 10
-5813.2671162474526
 20
-282.20945128787241
 30
0.0
 41
0.9999998223237231
 10
-5813.2819867562257
 20
-282.25676469624864
 30
0.0
 41
1.0
 10
-5814.902642893021
 20
-287.40479319803808
 30
0.0
 41
1.0
 10
-5816.5232990298173
 20
-292.55282169982752
 30
0.0
 41
1.0
 10
-5817.4286074737083
 20
-292.55282169982752
 30
0.0
 41
1.0
 10
-5818.3339159175985
 20
-292.55282169982752
 30
0.0
 41
1.0
 10
-5816.481831506213
 20
-286.66574977736002
 30
0.0
 41
1.0
 10
-5814.6297470948266
 20
-280.77867785489252
 30
0.0
 41
1.0
 10
-5814.6196253365242
 20
-280.74663464144282
 30
0.0
 41
1.0
 10
-5814.5470176676745
 20
-280.51633509961698
 30
0.0
 41
1.0
 10
-5814.4744099988211
 20
-280.28603555777897
 30
0.0
 41
0.9999825681972138
 10
-5814.4045269596036
 20
-280.05489466269557
 30
0.0
 41
1.0
 10
-5814.3562358974468
 20
-279.89517007921222
 30
0.0
 41
1.0
 10
-5814.3079448352901
 20
-279.73544549572881
 30
0.0
 41
1.0
 10
-5814.2107924819766
 20
-279.41411027396646
 30
0.0
 41
0.9999672528964377
 10
-5814.118853676352
 20
-279.09124472837618
 30
0.0
 41
1.0
 10
-5814.1160647926718
 20
-279.08145088294992
 30
0.0
 41
1.0
 10
-5814.1132759089915
 20
-279.07165703752366
 30
0.0
 41
1.0
 10
-5814.0269148707148
 20
-278.76837918274123
 30
0.0
 41
0.9999899749163473
 10
-5813.943273261194
 20
-278.46434009433744
 30
0.0
 41
1.0
 10
-5813.933167342173
 20
-278.42760485664724
 30
0.0
 41
1.0
 10
-5813.9230614231528
 20
-278.39086961895703
 30
0.0
 41
1.0
 10
-5813.8596316516569
 20
-278.16030100587534
 30
0.0
 41
0.9999214200502731
 10
-5813.8020022232813
 20
-277.9282146636757
 30
0.0
 41
1.0
 10
-5813.7892363711053
 20
-277.87680377829929
 30
0.0
 41
1.0
 10
-5813.7764705189302
 20
-277.82539289292293
 30
0.0
 41
1.0
 10
-5813.7443727949076
 20
-277.69612832148266
 30
0.0
 41
0.9999828681651812
 10
-5813.7137905429081
 20
-277.56649684699892
 30
0.0
 41
1.0
 10
-5813.6832082909023
 20
-277.43686537248465
 30
0.0
 41
0.9999389844479116
 10
-5813.6554973021039
 20
-277.30658991653837
 30
0.0
 41
1.0
 10
-5813.6483595583941
 20
-277.27303381274749
 30
0.0
 41
1.0
 10
-5813.6412218146834
 20
-277.23947770895654
 30
0.0
 41
1.0
 10
-5813.5992353384563
 20
-277.04209004539268
 30
0.0
 41
0.9998933699439729
 10
-5813.5630310740544
 20
-276.8435604376395
 30
0.0
 41
1.0
 10
-5813.5616582488365
 20
-276.8360324169347
 30
0.0
 41
1.0
 10
-5813.5602854236186
 20
-276.82850439622985
 30
0.0
 41
1.0
 10
-5813.5213355087844
 20
-276.61491874708327
 30
0.0
 41
0.9996850305193952
 10
-5813.4931518325266
 20
-276.39964774165253
 30
0.0
 41
1.0
 10
-5813.4911567991576
 20
-276.38440938753382
 30
0.0
 41
1.0
 10
-5813.4891617657886
 20
-276.36917103341511
 30
0.0
 41
1.0
 10
-5813.4617539033288
 20
-276.15982580625086
 30
0.0
 41
0.9994697936707214
 10
-5813.4480293441084
 20
-275.9491406109122
 30
0.0
 41
1.0
 10
-5813.4475522748589
 20
-275.94181713870648
 30
0.0
 41
1.0
 10
-5813.4470752056095
 20
-275.93449366650071
 30
0.0
 41
1.0
 10
-5813.4343047848879
 20
-275.73845541558694
 30
0.0
 41
0.9991804893137171
 10
-5813.4374331011604
 20
-275.54202656560801
 30
0.0
 41
1.0
 10
-5813.4375169799823
 20
-275.53675976420163
 30
0.0
 41
1.0
 10
-5813.4376008588042
 20
-275.5314929627952
 30
0.0
 41
1.0
 10
-5813.4405614174339
 20
-275.34559771564096
 30
0.0
 41
0.9988448329323268
 10
-5813.4613529630578
 20
-275.16084512580119
 30
0.0
 41
1.0
 10
-5813.4629470367618
 20
-275.14668027002449
 30
0.0
 41
1.0
 10
-5813.4645411104648
 20
-275.13251541424773
 30
0.0
 41
1.0
 10
-5813.4821445086827
 20
-274.97609253596295
 30
0.0
 41
0.9985503209459096
 10
-5813.5164607809811
 20
-274.82246835187857
 30
0.0
 41
1.0
 10
-5813.5240467730519
 20
-274.78850802447982
 30
0.0
 41
1.0
 10
-5813.5316327651226
 20
-274.75454769708114
 30
0.0
 41
1.0
 10
-5813.5507770532795
 20
-274.66884416779124
 30
0.0
 41
0.9991036781370655
 10
-5813.5771019149315
 20
-274.58506708046434
 30
0.0
 41
1.0
 10
-5813.5810841403927
 20
-274.57239391793541
 30
0.0
 41
1.0
 10
-5813.5850663658548
 20
-274.55972075540654
 30
0.0
 41
1.0
 10
-5813.6034267765881
 20
-274.50128999312227
 30
0.0
 41
0.9998874504367178
 10
-5813.6235319842617
 20
-274.44343639091608
 30
0.0
 41
1.0
 10
-5813.6436371919417
 20
-274.38558278868794
 30
0.0
 41
0.9994041637544318
 10
-5813.6676858048768
 20
-274.32925408479514
 30
0.0
 41
1.0
 10
-5813.6718825891003
 20
-274.3194240203137
 30
0.0
 41
1.0
 10
-5813.6760793733247
 20
-274.30959395583233
 30
0.0
 41
1.0
 10
-5813.703958204318
 20
-274.24429378986719
 30
0.0
 41
0.9991846840700767
 10
-5813.7370145610093
 20
-274.18145575859171
 30
0.0
 41
1.0
 10
-5813.7381511674012
 20
-274.17929514214342
 30
0.0
 41
1.0
 10
-5813.739287773793
 20
-274.17713452569512
 30
0.0
 41
1.0
 10
-5813.7700709177007
 20
-274.1186177273155
 30
0.0
 41
0.9989253167923125
 10
-5813.8061403417578
 20
-274.06320279892122
 30
0.0
 41
1.0
 10
-5813.8071944664334
 20
-274.06158330415622
 30
0.0
 41
1.0
 10
-5813.80824859111
 20
-274.05996380939126
 30
0.0
 41
1.0
 10
-5813.8422097658149
 20
-274.00778787052786
 30
0.0
 41
0.9986467172836808
 10
-5813.88140691845
 20
-273.95942183690147
 30
0.0
 41
1.0
 10
-5813.882281047152
 20
-273.95834323462105
 30
0.0
 41
1.0
 10
-5813.8831551758549
 20
-273.95726463234064
 30
0.0
 41
1.0
 10
-5813.9206040710897
 20
-273.91105580326956
 30
0.0
 41
0.9984001104267978
 10
-5813.9630308016049
 20
-273.86937069590306
 30
0.0
 41
1.0
 10
-5813.9636179397148
 20
-273.86879382102177
 30
0.0
 41
1.0
 10
-5813.9642050778239
 20
-273.86821694614048
 30
0.0
 41
1.0
 10
-5814.005457532121
 20
-273.82768558853473
 30
0.0
 41
0.9982442159079927
 10
-5814.0512136334573
 20
-273.79231702727407
 30
0.0
 41
1.0
 10
-5814.0514284289202
 20
-273.79215099462965
 30
0.0
 41
1.0
 10
-5814.051643224384
 20
-273.79198496198524
 30
0.0
 41
1.0
 10
-5814.0969697347919
 20
-273.75694846601436
 30
0.0
 41
0.9982450060836198
 10
-5814.1461207138645
 20
-273.72751668298031
 30
0.0
 41
1.0
 10
-5814.1952716929363
 20
-273.69808489994659
 30
0.0
 41
0.9983922639632749
 10
-5814.2474379990954
 20
-273.67440526529521
 30
0.0
 41
1.0
 10
-5814.2476648764223
 20
-273.67430227981254
 30
0.0
 41
1.0
 10
-5814.2478917537501
 20
-273.67419929432981
 30
0.0
 41
1.0
 10
-5814.3005118145611
 20
-273.6503136887145
 30
0.0
 41
0.9986517147153429
 10
-5814.3553247874333
 20
-273.63201256959064
 30
0.0
 41
1.0
 10
-5814.3560027088606
 20
-273.63178622315945
 30
0.0
 41
1.0
 10
-5814.3566806302879
 20
-273.63155987672826
 30
0.0
 41
1.0
 10
-5814.4128494460074
 20
-273.61280606474514
 30
0.0
 41
0.9989435598959137
 10
-5814.4705028331582
 20
-273.59928836251009
 30
0.0
 41
1.0
 10
-5814.4715829527422
 20
-273.59903511225662
 30
0.0
 41
1.0
 10
-5814.4726630723262
 20
-273.59878186200308
 30
0.0
 41
1.0
 10
-5814.5324766986432
 20
-273.58475765926261
 30
0.0
 41
0.9992249241242917
 10
-5814.5932082075369
 20
-273.57548231654755
 30
0.0
 41
1.0
 10
-5814.5946218958288
 20
-273.57526640813961
 30
0.0
 41
1.0
 10
-5814.5960355841207
 20
-273.57505049973167
 30
0.0
 41
1.0
 10
-5814.6595944695973
 20
-273.56534334020114
 30
0.0
 41
0.9994396597833897
 10
-5814.7236604061363
 20
-273.55991041785512
 30
0.0
 41
1.0
 10
-5814.7428010736148
 20
-273.55828725013646
 30
0.0
 41
1.0
 10
-5814.7619417410924
 20
-273.5566640824178
 30
0.0
 41
1.0
 10
-5814.8642890125875
 20
-273.54798482463445
 30
0.0
 41
0.998769340312009
 10
-5814.9669926361712
 20
-273.54948788808747
 30
0.0
 41
1.0
 10
-5814.9772469703985
 20
-273.54963795986168
 30
0.0
 41
1.0
 10
-5814.9875013046258
 20
-273.54978803163584
 30
0.0
 41
1.0
 10
-5815.097057070805
 20
-273.55139137592295
 30
0.0
 41
0.998975364496497
 10
-5815.2060190708216
 20
-273.56289438284841
 30
0.0
 41
1.0
 10
-5815.3149810708419
 20
-273.57439738977428
 30
0.0
 41
0.9983190067307206
 10
-5815.4218798818038
 20
-273.59843238156026
 30
0.0
 41
1.0
 10
-5815.4307808334106
 20
-273.60043366012303
 30
0.0
 41
1.0
 10
-5815.4396817850175
 20
-273.60243493868575
 30
0.0
 41
1.0
 10
-5815.5643824991967
 20
-273.6304724875979
 30
0.0
 41
0.9985539388301139
 10
-5815.6853522528745
 20
-273.6717361636442
 30
0.0
 41
1.0
 10
-5815.6876976838339
 20
-273.67253620745964
 30
0.0
 41
1.0
 10
-5815.6900431147933
 20
-273.67333625127515
 30
0.0
 41
1.0
 10
-5815.8157037303872
 20
-273.71620001495035
 30
0.0
 41
0.998846874649336
 10
-5815.9366740726882
 20
-273.77091810001315
 30
0.0
 41
1.0
 10
-5815.939856894679
 20
-273.77235777457395
 30
0.0
 41
1.0
 10
-5815.9430397166698
 20
-273.77379744913469
 30
0.0
 41
1.0
 10
-5816.0703757029532
 20
-273.83139488331881
 30
0.0
 41
0.9991322885916697
 10
-5816.1924762870067
 20
-273.89939021550038
 30
0.0
 41
1.0
 10
-5816.2100782980451
 20
-273.90919241748691
 30
0.0
 41
1.0
 10
-5816.2276803090826
 20
-273.91899461947338
 30
0.0
 41
1.0
 10
-5816.3298569901444
 20
-273.97589473525653
 30
0.0
 41
0.9993860037849658
 10
-5816.4277979942226
 20
-274.03981075084766
 30
0.0
 41
1.0
 10
-5816.4334163070762
 20
-274.04347724554384
 30
0.0
 41
1.0
 10
-5816.4390346199307
 20
-274.04714374023996
 30
0.0
 41
1.0
 10
-5816.5257389982944
 20
-274.10372676643516
 30
0.0
 41
0.9998821494953416
 10
-5816.610665374109
 20
-274.16294499651292
 30
0.0
 41
1.0
 10
-5816.6955917499236
 20
-274.22216322659102
 30
0.0
 41
0.9997976482744904
 10
-5816.77806738034
 20
-274.28474963464237
 30
0.0
 41
1.0
 10
-5816.7927036451383
 20
-274.29585632441672
 30
0.0
 41
1.0
 10
-5816.8073399099358
 20
-274.30696301419107
 30
0.0
 41
1.0
 10
-5816.9190880699434
 20
-274.39176280178833
 30
0.0
 41
0.9998091630799579
 10
-5817.02743834797
 20
-274.48086315248878
 30
0.0
 41
1.0
 10
-5817.0404441004503
 20
-274.49155825293735
 30
0.0
 41
1.0
 10
-5817.0534498529305
 20
-274.50225335338598
 30
0.0
 41
1.0
 10
-5817.187811635913
 20
-274.61274390497942
 30
0.0
 41
0.999503511231674
 10
-5817.3149475136752
 20
-274.73147772199286
 30
0.0
 41
1.0
 10
-5817.3245948240565
 20
-274.74048746814572
 30
0.0
 41
1.0
 10
-5817.3342421344387
 20
-274.74949721429851
 30
0.0
 41
1.0
 10
-5817.4576651972093
 20
-274.86476358605938
 30
0.0
 41
0.9994630424299531
 10
-5817.5732736030004
 20
-274.98786632930114
 30
0.0
 41
1.0
 10
-5817.5769564417751
 20
-274.99178790881712
 30
0.0
 41
1.0
 10
-5817.5806392805489
 20
-274.99570948833309
 30
0.0
 41
1.0
 10
-5817.6888820087852
 20
-275.11096907253756
 30
0.0
 41
0.9995160693749533
 10
-5817.7897480383162
 20
-275.23273649040891
 30
0.0
 41
1.0
 10
-5817.7916817583919
 20
-275.23507091461045
 30
0.0
 41
1.0
 10
-5817.7936154784666
 20
-275.23740533881198
 30
0.0
 41
1.0
 10
-5817.8906140678437
 20
-275.35450390827651
 30
0.0
 41
0.9996561470515825
 10
-5817.9813402865148
 20
-275.47652667073066
 30
0.0
 41
1.0
 10
-5817.9874979524084
 20
-275.48480845976144
 30
0.0
 41
1.0
 10
-5817.9936556183011
 20
-275.49309024879227
 30
0.0
 41
1.0
 10
-5818.072066505174
 20
-275.598549433171
 30
0.0
 41
0.9998349055173627
 10
-5818.1465937871126
 20
-275.70678801684323
 30
0.0
 41
1.0
 10
-5818.2211210690812
 20
-275.81502660055889
 30
0.0
 41
0.9999728109562867
 10
-5818.2940439650129
 20
-275.92435252614774
 30
0.0
 41
1.0
 10
-5818.2953591803962
 20
-275.92632429560729
 30
0.0
 41
1.0
 10
-5818.2966743957786
 20
-275.92829606506689
 30
0.0
 41
1.0
 10
-5818.3722277224751
 20
-276.04156552957215
 30
0.0
 41
0.9999972147381225
 10
-5818.4472455327696
 20
-276.15519037228603
 30
0.0
 41
1.0
 10
-5818.4522170754499
 20
-276.1627204608468
 30
0.0
 41
1.0
 10
-5818.4571886181311
 20
-276.17025054940757
 30
0.0
 41
1.0
 10
-5818.5421495137471
 20
-276.29893556918375
 30
0.0
 41
0.9999371979002629
 10
-5818.6242048631502
 20
-276.42949248296009
 30
0.0
 41
1.0
 10
-5818.6277137475136
 20
-276.43507541102815
 30
0.0
 41
1.0
 10
-5818.6312226318778
 20
-276.44065833909622
 30
0.0
 41
1.0
 10
-5818.7202957499912
 20
-276.58238110898179
 30
0.0
 41
0.9998272025611457
 10
-5818.8040391408649
 20
-276.7273169857072
 30
0.0
 41
1.0
 10
-5818.8192543129007
 20
-276.7536501001839
 30
0.0
 41
1.0
 10
-5818.8344694849366
 20
-276.77998321466055
 30
0.0
 41
1.0
 10
-5818.9486432198692
 20
-276.97758532031941
 30
0.0
 41
0.9995217214837679
 10
-5819.0503829094268
 20
-277.18186764818768
 30
0.0
 41
1.0
 10
-5819.058026472052
 20
-277.19721509787087
 30
0.0
 41
1.0
 10
-5819.0656700346772
 20
-277.212562547554
 30
0.0
 41
1.0
 10
-5819.1525753272717
 20
-277.38705900564622
 30
0.0
 41
0.9998269762608089
 10
-5819.2329297935539
 20
-277.56466729238923
 30
0.0
 41
1.0
 10
-5819.3132842598261
 20
-277.74227557911308
 30
0.0
 41
0.9998944747387444
 10
-5819.3884450543937
 20
-277.92214330474872
 30
0.0
 41
1.0
 10
-5819.3933987239798
 20
-277.93399795965297
 30
0.0
 41
1.0
 10
-5819.3983523935649
 20
-277.94585261455723
 30
0.0
 41
1.0
 10
-5819.4789994541243
 20
-278.13884955459139
 30
0.0
 41
0.9999506734408121
 10
-5819.5557969830297
 20
-278.33341035945216
 30
0.0
 41
1.0
 10
-5819.5703969483084
 20
-278.37039828127797
 30
0.0
 41
1.0
 10
-5819.584996913587
 20
-278.40738620310378
 30
0.0
 41
1.0
 10
-5819.6325945119388
 20
-278.52797116432038
 30
0.0
 41
0.9999912393922645
 10
-5819.6791809559563
 20
-278.64895036700409
 30
0.0
 41
1.0
 10
-5819.7257673999848
 20
-278.76992956971515
 30
0.0
 41
0.9999927113944693
 10
-5819.7714286943983
 20
-278.89126097726967
 30
0.0
 41
1.0
 10
-5819.7853971257828
 20
-278.92837795923469
 30
0.0
 41
1.0
 10
-5819.7993655571681
 20
-278.96549494119972
 30
0.0
 41
1.0
 10
-5819.8729637143642
 20
-279.16106031271477
 30
0.0
 41
0.9999487550946286
 10
-5819.9425873393411
 20
-279.35807567791295
 30
0.0
 41
1.0
 10
-5819.9661809492791
 20
-279.4248389882091
 30
0.0
 41
1.0
 10
-5819.989774559217
 20
-279.49160229850531
 30
0.0
 41
1.0
 10
-5820.084460193576
 20
-279.75953613329818
 30
0.0
 41
0.9999808436929742
 10
-5820.1758217822153
 20
-280.02862156455694
 30
0.0
 41
1.0
 10
-5820.2671833708446
 20
-280.29770699578546
 30
0.0
 41
0.9999873932892168
 10
-5820.3558380795494
 20
-280.5676963507608
 30
0.0
 41
1.0
 10
-5820.3759304364312
 20
-280.62888568355072
 30
0.0
 41
1.0
 10
-5820.396022793313
 20
-280.69007501634064
 30
0.0
 41
1.0
 10
-5820.5248622157815
 20
-281.08244303689355
 30
0.0
 41
0.9999794883041324
 10
-5820.648665000751
 20
-281.47642924320752
 30
0.0
 41
1.0
 10
-5820.6598172601589
 20
-281.51191985335049
 30
0.0
 41
1.0
 10
-5820.6709695195668
 20
-281.54741046349341
 30
0.0
 41
1.0
 10
-5820.8135276834837
 20
-282.00108321564124
 30
0.0
 41
0.9999982761851964
 10
-5820.9544001235163
 20
-282.45528223782094
 30
0.0
 41
1.0
 10
-5822.5425404560883
 20
-287.50405196882423
 30
0.0
 41
1.0
 10
-5824.1306807886613
 20
-292.55282169982752
 30
0.0
 41
1.0
 10
-5825.0794314001378
 20
-292.55282169982752
 30
0.0
 41
1.0
 10
-5826.0281820116143
 20
-292.55282169982752
 30
0.0
 41
1.0
 10
-5822.7898975254611
 20
-282.22549949988138
 30
0.0
 41
1.0
 10
-5819.551613039308
 20
-271.89817729993524
 30
0.0
 41
1.0
  0
LWPOLYLINE
  5
50
100
AcDbEntity
  8
0
370
              15
390
0
  6
Continuous
 62
               7
100
AcDbPolyline
 90
      232
 70
             128
 10
-5845.2551588131346
 20
-272.98252013145043
 42
0.0004370800769908
 10
-5845.3080359873911
 20
-273.05118677094629
 10
-5845.3473202183341
 20
-273.10229388360324
 42
0.0030481992193291
 10
-5845.4776589354578
 20
-273.27401557595385
 10
-5845.516170607204
 20
-273.32540235973556
 42
0.0042058245753209
 10
-5845.7201556578939
 20
-273.60240810483651
 10
-5845.772560780375
 20
-273.67484095159
 42
0.0120948898735891
 10
-5846.0686046971368
 20
-274.10559055614016
 10
-5846.1647971962675
 20
-274.25307129137929
 42
0.0141601263953148
 10
-5846.4684412431798
 20
-274.74874062809931
 10
-5846.5079785106373
 20
-274.81758459558682
 42
0.0071131081326083
 10
-5846.7132508338436
 20
-275.1870873943692
 42
0.0068458791009368
 10
-5846.9081303607072
 20
-275.56217895788467
 10
-5846.9149422231449
 20
-275.57574067156895
 42
0.0064120880276787
 10
-5847.1130844731615
 20
-275.98316514642858
 10
-5847.1206191587062
 20
-275.99917700320907
 42
0.0058857236440666
 10
-5847.3233745505713
 20
-276.44355311422902
 10
-5847.3315494768722
 20
-276.46204326787802
 42
0.005318974189784
 10
-5847.5402537895607
 20
-276.94800674184802
 10
-5847.54900159522
 20
-276.96898861999205
 42
0.0047503650419223
 10
-5847.7649753213855
 20
-277.5011880532353
 10
-5847.7742435697201
 20
-277.52466442930961
 42
0.0042071762171209
 10
-5847.9987909534411
 20
-278.10775802336207
 10
-5848.008540355796
 20
-278.13372419824907
 42
0.0036680086480172
 10
-5848.2429949990928
 20
-278.77235958273917
 10
-5848.2532027789557
 20
-278.8008081171248
 42
0.0032573142625719
 10
-5848.4988350649201
 20
-279.49966077686946
 10
-5848.5674855858242
 20
-279.69912386110758
 42
0.0026133366649377
 10
-5848.9159307845212
 20
-280.72898714460302
 10
-5848.979187572043
 20
-280.91921798006098
 42
0.0020592950746877
 10
-5849.193050640989
 20
-281.57132163260917
 10
-5849.1961024320926
 20
-281.5807581208349
 42
0.0025609928521708
 10
-5849.3979229336383
 20
-282.21590334338475
 10
-5849.4005143007589
 20
-282.22420568430601
 42
0.0031362356231114
 10
-5849.590005086442
 20
-282.84496854050485
 10
-5849.5921361294213
 20
-282.85210984688899
 42
0.0037229918037709
 10
-5849.7689365162951
 20
-283.46109514869011
 10
-5849.7706151054972
 20
-283.46704203884826
 42
0.0043077623710665
 10
-5849.9343559075669
 20
-284.06686077063353
 42
0.0047654161820661
 10
-5850.0871846300633
 20
-284.66954685945666
 10
-5850.1216492389212
 20
-284.81110863668562
 42
0.0112969368448994
 10
-5850.3175135970678
 20
-285.7028007973222
 10
-5850.3455199861619
 20
-285.84562884340767
 42
0.0130056762571312
 10
-5850.5463572298086
 20
-287.03256991505259
 10
-5850.5668969799572
 20
-287.17664802853983
 42
0.0138721532144951
 10
-5850.6705999844935
 20
-288.08347751435531
 10
-5850.6898954723983
 20
-288.30697523624553
 42
0.0071254697008807
 10
-5850.7232421183235
 20
-288.77016224512761
 10
-5850.7282030924871
 20
-288.85616623969679
 42
0.0028881799209084
 10
-5850.7433413857771
 20
-289.14790794953035
 42
0.0060297297130761
 10
-5850.753273585553
 20
-289.43985688564834
 10
-5850.7543358672201
 20
-289.48824925756804
 42
0.0229523164138674
 10
-5850.7466048394344
 20
-289.81100410386182
 10
-5850.7423790659113
 20
-289.87140763790984
 42
0.0123673300710527
 10
-5850.7233004193959
 20
-290.07252836305281
 42
0.0128577674472514
 10
-5850.6941050289897
 20
-290.27242621297665
 10
-5850.6869791556019
 20
-290.31375502757658
 42
0.0285717853748908
 10
-5850.6224851539137
 20
-290.59187117886535
 10
-5850.6088166302407
 20
-290.63852594836709
 42
0.0316283099154642
 10
-5850.4930060503257
 20
-290.95754045019294
 10
-5850.4899573585717
 20
-290.96452682251515
 42
0.033898482422437
 10
-5850.3405256476035
 20
-291.25209278670764
 10
-5850.3382169182423
 20
-291.25588381596975
 42
0.0350228718338946
 10
-5850.1558566275598
 20
-291.51293580066044
 10
-5850.1549713757931
 20
-291.51401487841446
 42
0.0347476747518972
 10
-5849.9405466885446
 20
-291.74119992564454
 42
0.0331337701885968
 10
-5849.6973033628046
 20
-291.93732858771779
 10
-5849.6962032642823
 20
-291.93810129089445
 42
0.0305233319071446
 10
-5849.4276585687121
 20
-292.10322946098415
 10
-5849.4244285242075
 20
-292.10495347284848
 42
0.0273744481149662
 10
-5849.1318748126359
 20
-292.24109161673789
 10
-5849.1267702774958
 20
-292.24313520120859
 42
0.0240964406192186
 10
-5848.811293201853
 20
-292.35211892748896
 10
-5848.8047098726402
 20
-292.354043667165
 42
0.0209636179808392
 10
-5848.4673097199875
 20
-292.43751181509703
 10
-5848.4596772595387
 20
-292.43906372809852
 42
0.0181388704683305
 10
-5848.1013548675437
 20
-292.49847982131195
 10
-5848.0930740191616
 20
-292.49954600512956
 42
0.0156086547579576
 10
-5847.7148866549705
 20
-292.53628219170639
 10
-5847.6716914026456
 20
-292.53912069418521
 42
0.0137148329026341
 10
-5847.3440182573468
 20
-292.55164094943655
 10
-5847.2980820674047
 20
-292.55213538255174
 42
0.0051057823911715
 10
-5847.061936480829
 20
-292.5522656369609
 42
0.0052256693322641
 10
-5846.8258391970476
 20
-292.54751681249667
 10
-5846.7556124133007
 20
-292.54536984648257
 42
0.0161507179034552
 10
-5846.3798753352012
 20
-292.52171947615608
 10
-5846.3598623748276
 20
-292.51980928086846
 42
0.0101216737826389
 10
-5845.9458351533349
 20
-292.47181635050276
 10
-5845.9117818639097
 20
-292.46716865369331
 42
0.024529177639161
 10
-5845.4349922083566
 20
-292.37809357561673
 10
-5845.3501688928336
 20
-292.35789765527096
 42
0.0143509212553297
 10
-5844.9935377888942
 20
-292.26209302149243
 42
0.0156557857058325
 10
-5844.6433217241593
 20
-292.14508180567043
 10
-5844.6358205096731
 20
-292.14231164391947
 42
0.0170137333640517
 10
-5844.2792245139808
 20
-291.99665402904333
 10
-5844.2721205915841
 20
-291.99346619348466
 42
0.0183105364420381
 10
-5843.9127709234335
 20
-291.81613115166886
 10
-5843.9058241587791
 20
-291.8123807167882
 42
0.0194899958157255
 10
-5843.5473434177902
 20
-291.60040173489398
 10
-5843.5403295384585
 20
-291.59587639260246
 42
0.0204869852952518
 10
-5843.1863152363749
 20
-291.34635637752461
 10
-5843.1790496277772
 20
-291.34077631216826
 42
0.0212516938552554
 10
-5842.833059696678
 20
-291.05087231528103
 10
-5842.7865430025877
 20
-291.00840500517467
 42
0.0215248918252414
 10
-5842.5265168337064
 20
-290.74964072618548
 10
-5842.4814870993123
 20
-290.70079660482065
 42
0.0114578554994633
 10
-5842.3266949456483
 20
-290.52497367137732
 10
-5842.3155004096625
 20
-290.51165490783268
 42
0.0061531305140528
 10
-5842.1890257636669
 20
-290.35736537452624
 42
0.000632558711306
 10
-5842.0646472796243
 20
-290.20136199898798
 10
-5842.0416071444633
 20
-290.17238847819112
 42
0.004189776153236
 10
-5841.8731517405031
 20
-289.95686910214476
 10
-5841.814689620599
 20
-289.88076775514412
 42
0.0092993880048934
 10
-5841.5380776933534
 20
-289.50648899122945
 10
-5841.4556832001699
 20
-289.39055198768273
 42
0.0159321727092391
 10
-5841.1090767175338
 20
-288.86837776693551
 10
-5841.0647205821633
 20
-288.79669820271624
 42
0.0085547317004726
 10
-5840.8302088168184
 20
-288.40282325346084
 42
0.0084601156886063
 10
-5840.6092326393855
 20
-288.00119640444461
 10
-5840.6011171655464
 20
-287.98583672215568
 42
0.0081429654285819
 10
-5840.3778678950994
 20
-287.54611520959571
 10
-5840.3690077309247
 20
-287.52793636759554
 42
0.0076574581335421
 10
-5840.142600220368
 20
-287.04475349236429
 10
-5840.1331205796341
 20
-287.02368901403941
 42
0.0070682724203438
 10
-5839.9026756718076
 20
-286.49165170921168
 10
-5839.8926853878456
 20
-286.46766252024656
 42
0.0064559514443985
 10
-5839.6573521796654
 20
-285.88135025373288
 10
-5839.6469428214987
 20
-285.85441532828543
 42
0.0058311413903756
 10
-5839.4058960847315
 20
-285.2083832338875
 10
-5839.3951410073496
 20
-285.17849889274123
 42
0.005231242581785
 10
-5839.1475597293329
 20
-284.46729647897962
 10
-5839.1365158929284
 20
-284.43446976683697
 42
0.0046680544792635
 10
-5838.8815874652255
 20
-283.65264345118163
 10
-5838.8395953151312
 20
-283.51966021372891
 42
0.0041666856452052
 10
-5838.6363093027558
 20
-282.85669143878454
 10
-5838.5986468620922
 20
-282.73011033113164
 42
0.0015170975164639
 10
-5838.4774602836787
 20
-282.31824197963715
 42
-0.0004887993129378
 10
-5838.3571205109292
 20
-281.90612356887431
 10
-5838.2806432530597
 20
-281.64516618165408
 42
0.0002583378924359
 10
-5838.0074286833506
 20
-280.71110947968725
 10
-5837.9256558333709
 20
-280.43101021872371
 42
0.0006636169672675
 10
-5837.7317880734081
 20
-279.76365729530494
 10
-5837.726691419095
 20
-279.74602571254138
 42
0.0010589131327521
 10
-5837.5452427181444
 20
-279.11329436937604
 10
-5837.5402606476837
 20
-279.09578146242529
 42
0.0015655524451998
 10
-5837.3719904404807
 20
-278.49716478315509
 10
-5837.3671602400682
 20
-278.47977262422665
 42
0.0021640440485046
 10
-5837.2128702680802
 20
-277.91474560620111
 10
-5837.208236048662
 20
-277.89748087624997
 42
0.0028763871855862
 10
-5837.068720330597
 20
-277.36551292536024
 10
-5837.064334466414
 20
-277.34838894714363
 42
0.0037310511949192
 10
-5836.9403777745929
 20
-276.84894135318189
 10
-5836.9363025543107
 20
-276.83198108196348
 42
0.0047652197776546
 10
-5836.8286786537956
 20
-276.3645033136313
 10
-5836.8249880544745
 20
-276.34774375849082
 42
0.0060276699299536
 10
-5836.7344579553192
 20
-275.91166796333709
 10
-5836.7312392650429
 20
-275.89516674909487
 42
0.0075824337749933
 10
-5836.658549955614
 20
-275.48989958460174
 10
-5836.6559045782315
 20
-275.47374463713925
 42
0.0095130624612872
 10
-5836.6017893426033
 20
-275.09865528407943
 10
-5836.5948031187154
 20
-275.0427217259184
 42
0.0121054653255465
 10
-5836.5682117881424
 20
-274.77782589748904
 10
-5836.567345298381
 20
-274.76642245453746
 42
0.0069050827392238
 10
-5836.552256480345
 20
-274.52348122771571
 10
-5836.551121180677
 20
-274.49995497067755
 42
0.0169063976708932
 10
-5836.5482939016965
 20
-274.30376224337022
 10
-5836.549464553229
 20
-274.24342648194948
 42
0.0052007732983249
 10
-5836.5517180018205
 20
-274.16783309186894
 42
0.0054038123255797
 10
-5836.5716815136466
 20
-274.0478147959285
 10
-5836.57676736953
 20
-274.01915630927783
 42
0.011205046052174
 10
-5836.6121517316042
 20
-273.84282987086328
 10
-5836.6299766936281
 20
-273.76328828421799
 42
0.0240764468010446
 10
-5836.7208740597798
 20
-273.43305124870136
 10
-5836.739432822591
 20
-273.37643108371378
 42
0.0256812331846892
 10
-5836.8827957427784
 20
-273.00470687746565
 10
-5836.8882051685941
 20
-272.99257554248771
 42
0.0268360501197696
 10
-5837.0576324094491
 20
-272.66158240845493
 10
-5837.0631688170797
 20
-272.65206273815022
 42
0.0274670231715102
 10
-5837.2553697934982
 20
-272.35977536322537
 10
-5837.2607510934631
 20
-272.35249621568073
 42
0.0275035967113141
 10
-5837.472323973022
 20
-272.09698032537995
 10
-5837.4773934739878
 20
-272.09150123775026
 42
0.026955767353622
 10
-5837.7047970174281
 20
-271.87085895178723
 10
-5837.7095400752132
 20
-271.86672899732417
 42
0.0259124802208921
 10
-5837.9490949066421
 20
-271.67903847017408
 10
-5837.953625751833
 20
-271.67585296783739
 42
0.0245162153010055
 10
-5838.2015421049182
 20
-271.51911995873331
 10
-5838.206068651255
 20
-271.51655976152546
 42
0.0229282588855291
 10
-5838.458488208069
 20
-271.38869156903354
 10
-5838.4632687019057
 20
-271.38653926927151
 42
0.0212984135693558
 10
-5838.7163066543681
 20
-271.28534035202927
 10
-5838.7216109393366
 20
-271.28347678926951
 42
0.0197555462350725
 10
-5838.9713892770606
 20
-271.20666137130445
 42
0.0183511896773425
 10
-5839.2263180025284
 20
-271.149078464338
 10
-5839.3126831992477
 20
-271.13287567395372
 42
0.0338057877161208
 10
-5839.5981905485078
 20
-271.09906726881366
 10
-5839.6891959535496
 20
-271.09448761355213
 42
0.0091990524479195
 10
-5839.7950430621831
 20
-271.09111175763019
 42
0.0028333980787866
 10
-5839.9009569781747
 20
-271.09028365011346
 10
-5839.9018724312255
 20
-271.09028168028942
 42
-0.0023619827827749
 10
-5840.0096184463346
 20
-271.08954083921088
 10
-5840.0460236165072
 20
-271.08911853274788
 42
0.000882459846163
 10
-5840.2265796063375
 20
-271.08734275450979
 10
-5840.2704410387632
 20
-271.08698879298402
 42
0.0038132665768656
 10
-5840.5387239346401
 20
-271.08686985691742
 10
-5840.5552575894353
 20
-271.08698862306096
 42
0.0060665569320719
 10
-5840.8565380810323
 20
-271.09280892248194
 10
-5840.8707884130527
 20
-271.09325723044935
 42
0.0080356953327091
 10
-5841.200247129389
 20
-271.10892495251608
 10
-5841.2123171444782
 20
-271.1096935354567
 42
0.0098996399118055
 10
-5841.5650802291302
 20
-271.13917876465496
 10
-5841.5751259385042
 20
-271.14021906085304
 42
0.0117740981359767
 10
-5841.9462827968482
 20
-271.18751130838228
 10
-5841.9545054933351
 20
-271.18875642495368
 42
0.0137435215122823
 10
-5842.3390943128243
 20
-271.25785339851626
 10
-5842.3457513519434
 20
-271.25923929474891
 42
0.0158359869390616
 10
-5842.7387484457486
 20
-271.35413138323048
 10
-5842.7441616326132
 20
-271.35562132410018
 42
0.0180554124030559
 10
-5843.1404766772239
 20
-271.48025934033819
 10
-5843.1450334653091
 20
-271.48187537660522
 42
0.0203657431287716
 10
-5843.5395109831306
 20
-271.64013571812558
 10
-5843.5436545221273
 20
-271.64199733956286
 42
0.0226819684662417
 10
-5843.9310905783314
 20
-271.83763991823378
 10
-5843.9352903693498
 20
-271.84000551015367
 42
0.0248634984607323
 10
-5844.3104723105362
 20
-272.0766321561041
 10
-5844.3586672393185
 20
-272.11048919792853
 42
0.0267044190887924
 10
-5844.6329599362316
 20
-272.32592957379472
 42
0.0139303002208612
 10
-5844.8891271021821
 20
-272.56316841471852
 10
-5844.893980487891
 20
-272.56792107756678
 42
0.0283460963442799
 10
-5845.1380530821198
 20
-272.83565173801321
 10
-5845.1777215872753
 20
-272.88445331548496
 42
0.0070695364840304
 10
-5845.2551588131346
 20
-272.98252013145043
 42
0.0070695364840304
  0
LWPOLYLINE
  5
51
100
AcDbEntity
  8
0
370
              15
390
0
  6
Continuous
 62
               7
100
AcDbPolyline
 90
      226
 70
             128
 10
-5848.783979250381
 20
-288.70410893763437
 42
-0.0026277636835529
 10
-5848.7840571341812
 20
-288.63733701221855
 10
-5848.7838397759497
 20
-288.58418179444823
 42
-0.0088680296770775
 10
-5848.7800631596592
 20
-288.41116601212417
 10
-5848.7777168005432
 20
-288.35188598659158
 42
-0.0077381705604194
 10
-5848.7616706897779
 20
-288.06062549075642
 10
-5848.7608027786073
 20
-288.0483372571083
 42
-0.0068872530540017
 10
-5848.7341706988627
 20
-287.73311550507361
 10
-5848.732966474673
 20
-287.72087452602057
 42
-0.006213002148551
 10
-5848.6953727578466
 20
-287.38200483479318
 10
-5848.6938688543105
 20
-287.36983096286554
 42
-0.0056726929655808
 10
-5848.6449469948075
 20
-287.00763574074711
 10
-5848.6431735491633
 20
-286.99554194050677
 42
-0.0052341884480038
 10
-5848.5825629628953
 20
-286.61034868494016
 10
-5848.5805449741265
 20
-286.59834375499645
 42
-0.0049768450173262
 10
-5848.5078062927105
 20
-286.19049918761738
 10
-5848.4835572779784
 20
-286.06195120455789
 42
-0.0089029805625983
 10
-5848.3464764261871
 20
-285.40017575714973
 10
-5848.3137310508655
 20
-285.25514432661203
 42
-0.0080318257098037
 10
-5848.0841824365189
 20
-284.30943469473505
 10
-5848.0721975100769
 20
-284.26330405956821
 42
-0.0074265721321581
 10
-5847.7881859712379
 20
-283.23323948122402
 10
-5847.7683064281127
 20
-283.16510542060757
 42
-0.0069711922703539
 10
-5847.4410018496037
 20
-282.09883768027032
 10
-5847.3810499024848
 20
-281.91281632185832
 42
-0.0052070422879857
 10
-5847.1516246772389
 20
-281.22554424486839
 10
-5847.1343434849186
 20
-281.17551696382293
 42
-0.0009167004440521
 10
-5846.9312515977772
 20
-280.59106111609719
 42
-0.0025162726946054
 10
-5846.7241539675315
 20
-280.00801985198262
 10
-5846.6869293557293
 20
-279.90487030608756
 42
-0.0028212681468798
 10
-5846.4387534367452
 20
-279.22913967385819
 10
-5846.4289226739829
 20
-279.20283222914941
 42
-0.0031964916823217
 10
-5846.1926304163326
 20
-278.58262746705441
 10
-5846.1829959623128
 20
-278.55781747685842
 42
-0.0036281836445233
 10
-5845.957890001233
 20
-277.99037679601804
 10
-5845.9484515910572
 20
-277.96707936447046
 42
-0.0041269166837524
 10
-5845.7338338944155
 20
-277.44963846853693
 10
-5845.701200937996
 20
-277.37276002217811
 42
-0.0047472213053845
 10
-5845.5441561324415
 20
-277.01233855429246
 10
-5845.5372620512435
 20
-276.99691795698402
 42
-0.0025651659995288
 10
-5845.3889040173835
 20
-276.66958990121202
 42
-0.005714463498634
 10
-5845.2351543236109
 20
-276.34478022784731
 10
-5845.2071236182137
 20
-276.28727184546142
 42
-0.0065388068368118
 10
-5845.0236565904706
 20
-275.92303934879033
 10
-5845.0151981346808
 20
-275.9067797693998
 42
-0.0074510843030274
 10
-5844.8390158888142
 20
-275.58009148829808
 10
-5844.8308362182615
 20
-275.56545071099112
 42
-0.008464897986188
 10
-5844.6612023651833
 20
-275.27354170006811
 10
-5844.6533462387079
 20
-275.26053470843863
 42
-0.0095638542833712
 10
-5844.4895107911016
 20
-275.00064583643871
 10
-5844.4820358474462
 20
-274.98927647500898
 42
-0.0107191626809324
 10
-5844.3232342670417
 20
-274.7586652404392
 10
-5844.3162175333146
 20
-274.74892914808009
 42
-0.0118458573916447
 10
-5844.1616694347977
 20
-274.54485695276389
 42
-0.0129184518184083
 10
-5843.997216811189
 20
-274.34869643658573
 10
-5843.9670720388294
 20
-274.31457035769029
 42
-0.0217742579623753
 10
-5843.7904597164979
 20
-274.13136358744384
 10
-5843.7797141720321
 20
-274.12114675423533
 42
-0.0097266568660889
 10
-5843.6136565531815
 20
-273.96929917980356
 42
-0.0187720905716397
 10
-5843.4393089772893
 20
-273.8272303264124
 10
-5843.4086029866212
 20
-273.80407124402024
 42
-0.0179428207537092
 10
-5843.1761822666222
 20
-273.64151906690654
 10
-5843.1725299397031
 20
-273.63915513201641
 42
-0.0170047877680358
 10
-5842.9367663021758
 20
-273.4976946178673
 10
-5842.9329833134352
 20
-273.49559631283427
 42
-0.0160190788379776
 10
-5842.696074765794
 20
-273.37394501084293
 42
-0.0151102861482957
 10
-5842.4520429833465
 20
-273.26726223478767
 10
-5842.3996564811359
 20
-273.24622210189364
 42
-0.0271945441877127
 10
-5842.040993922079
 20
-273.12435729118818
 10
-5841.9719291215906
 20
-273.10500774992187
 42
-0.0237596594033659
 10
-5841.5561322745671
 20
-273.00955703793977
 10
-5841.4880694208377
 20
-272.9973023498132
 42
-0.0213715440566579
 10
-5841.2021944893913
 20
-272.95835531830312
 10
-5841.1420473231756
 20
-272.95276560360242
 42
-0.0101465655813806
 10
-5840.9745547911789
 20
-272.94062206033811
 10
-5840.9652144049796
 20
-272.94013514534083
 42
-0.0100375910913299
 10
-5840.816060304418
 20
-272.93535932741565
 10
-5840.8058010347359
 20
-272.93523688840116
 42
-0.010362563336328
 10
-5840.6770930400835
 20
-272.93636832192783
 10
-5840.6548273888129
 20
-272.93702568039282
 42
-0.0115689250251691
 10
-5840.5707766512878
 20
-272.94145518663788
 42
-0.0072438037415922
 10
-5840.4869383718515
 20
-272.94904438638684
 10
-5840.4701378623759
 20
-272.95081092911141
 42
-0.0217917313093983
 10
-5840.3535680990608
 20
-272.96823082183283
 10
-5840.2879680084916
 20
-272.98097743024766
 42
-0.0332943556757788
 10
-5840.0835758434678
 20
-273.03501772155403
 10
-5840.0534032749201
 20
-273.04518579867141
 42
-0.0184824084802149
 10
-5839.9148982184524
 20
-273.097636814059
 42
-0.0198002050696864
 10
-5839.7808238779453
 20
-273.16052087426215
 10
-5839.7789372405759
 20
-273.16149866113824
 42
-0.0212242342962977
 10
-5839.6467982981812
 20
-273.23726139992641
 10
-5839.6449830026304
 20
-273.23840720213968
 42
-0.0226090605787701
 10
-5839.5164791014122
 20
-273.32788684570124
 10
-5839.5146346596712
 20
-273.32929909869165
 42
-0.0238457052212291
 10
-5839.3914525783748
 20
-273.43329499455706
 10
-5839.389499849819
 20
-273.43510987232014
 42
-0.0248160564130231
 10
-5839.2732983425176
 20
-273.55438447352861
 10
-5839.2711947091157
 20
-273.55676980723331
 42
-0.0254109591460036
 10
-5839.163589491247
 20
-273.69205819320274
 10
-5839.1613414693365
 20
-273.69519974159823
 42
-0.0255528488294523
 10
-5839.0638947905354
 20
-273.84722679583967
 10
-5839.0615636906232
 20
-273.85130840744011
 42
-0.0252146793202725
 10
-5838.9757826646128
 20
-274.02081065343998
 10
-5838.9734804254567
 20
-274.02599273534997
 42
-0.0244265635945477
 10
-5838.9008257316955
 20
-274.21373930739441
 10
-5838.8915793302267
 20
-274.24160472573499
 42
-0.0231319612917536
 10
-5838.8456565512352
 20
-274.40490577253604
 42
-0.0112130424379359
 10
-5838.8110205286985
 20
-274.57110937271301
 10
-5838.809818003584
 20
-274.57760595961201
 42
-0.0210527881227854
 10
-5838.7841315282139
 20
-274.75866160504233
 10
-5838.7806209333912
 20
-274.79406715360051
 42
-0.0190029892447075
 10
-5838.7651794598469
 20
-275.04760299984349
 10
-5838.7643694834023
 20
-275.0830786142418
 42
-0.0137974553666219
 10
-5838.7659183362384
 20
-275.40811002097843
 10
-5838.7667637911918
 20
-275.43422876550437
 42
-0.0081336634240066
 10
-5838.781623126416
 20
-275.73957623316733
 42
-0.0073526923603856
 10
-5838.8059316597855
 20
-276.04432447738884
 10
-5838.807193083574
 20
-276.0576611521185
 42
-0.0066886138693779
 10
-5838.8429286696201
 20
-276.38824719561467
 10
-5838.8445857590905
 20
-276.40186881460716
 42
-0.0061359187359509
 10
-5838.8924363611422
 20
-276.75863279471787
 10
-5838.894473862214
 20
-276.7725275975364
 42
-0.0056698610076839
 10
-5838.9551241929703
 20
-277.15580616631479
 10
-5838.9575296263038
 20
-277.16996528560514
 42
-0.0052721077271245
 10
-5839.0316618271081
 20
-277.58009262530555
 10
-5839.0344249759455
 20
-277.59450926066904
 42
-0.0049289272194609
 10
-5839.122719094039
 20
-278.03181777176155
 10
-5839.125831588728
 20
-278.04648662460727
 42
-0.0047415956710986
 10
-5839.2290695802676
 20
-278.51128338205007
 10
-5839.2638377906196
 20
-278.6610904774011
 42
-0.0084404470906414
 10
-5839.4538542341934
 20
-279.42131450193909
 10
-5839.4599809221772
 20
-279.44417862608566
 42
-0.0039635940262107
 10
-5839.6814346064348
 20
-280.24516749023786
 10
-5839.6948114016413
 20
-280.29209910692487
 42
-0.0072475040841647
 10
-5839.9622582895008
 20
-281.18131882330613
 10
-5840.0324706163337
 20
-281.4030591732963
 42
-0.0051345458821152
 10
-5840.3192299883904
 20
-282.27738436109826
 10
-5840.3407562551556
 20
-282.34081062822059
 42
-0.0019150016605656
 10
-5840.596289662024
 20
-283.08435974845429
 10
-5840.6027572663752
 20
-283.1029472132455
 42
-0.0021524362752655
 10
-5840.8512353174847
 20
-283.80727303508377
 10
-5840.8604457381789
 20
-283.83302661337899
 42
-0.0024331286825604
 10
-5841.0967009972173
 20
-284.4836259215034
 10
-5841.1057489498107
 20
-284.50816922797418
 42
-0.0027449721787262
 10
-5841.330363520603
 20
-285.10729910678219
 10
-5841.3392535279354
 20
-285.13062169647634
 42
-0.0031083229777643
 10
-5841.5527960146055
 20
-285.68054573421409
 10
-5841.5615321462501
 20
-285.70263544999307
 42
-0.003531134329278
 10
-5841.7645733318732
 20
-286.20561857580196
 10
-5841.7731586710406
 20
-286.22646129936084
 42
-0.004024564095486
 10
-5841.9662704748152
 20
-286.6847706219047
 10
-5841.9747065883985
 20
-286.70434998993079
 42
-0.0046015135857344
 10
-5842.1584628815817
 20
-287.12025501961898
 10
-5842.1667490593827
 20
-287.13855215901049
 42
-0.005276863828294
 10
-5842.3417265783655
 20
-287.51432504334139
 10
-5842.349858788999
 20
-287.53131838189893
 42
-0.0060672675639549
 10
-5842.5166384017584
 20
-287.86923400499882
 10
-5842.5246078822556
 20
-287.88489926402724
 42
-0.0069904648868009
 10
-5842.6837762762416
 20
-288.18723507065977
 10
-5842.6915676758563
 20
-288.20154561989381
 42
-0.0080637022771769
 10
-5842.8437195361985
 20
-288.47058092304019
 10
-5842.8513085688055
 20
-288.48350878859964
 42
-0.0093006455689769
 10
-5842.9970492453604
 20
-288.72152318714404
 10
-5843.0043999121217
 20
-288.73304115634483
 42
-0.0107060778039391
 10
-5843.1443484555421
 20
-288.94231147369624
 10
-5843.151410223827
 20
-288.95239701626963
 42
-0.0122723111413802
 10
-5843.2862039420206
 20
-289.13519034575108
 10
-5843.2865301655747
 20
-289.13561073356118
 42
-0.0141836319606908
 10
-5843.4301117685482
 20
-289.31018049139027
 10
-5843.4370595242053
 20
-289.31815549166066
 42
-0.0175957477189291
 10
-5843.5769656922348
 20
-289.46777638005983
 42
-0.0080466359656988
 10
-5843.7244294572401
 20
-289.61009890818707
 10
-5843.7704640017837
 20
-289.65311934630222
 42
-0.0269600260392459
 10
-5844.0237442477674
 20
-289.86544260481213
 10
-5844.0903113840604
 20
-289.91539401943311
 42
-0.0178362839764666
 10
-5844.3302558737187
 20
-290.08241194568768
 10
-5844.337500844721
 20
-290.0870804578941
 42
-0.0174650732647241
 10
-5844.5738370421604
 20
-290.2279414228517
 42
-0.0169240130143576
 10
-5844.8193032880172
 20
-290.35223368262859
 10
-5844.8652894435763
 20
-290.37359563819632
 42
-0.031888303683844
 10
-5845.2156402991959
 20
-290.50993394770666
 10
-5845.284005834359
 20
-290.53163456818157
 42
-0.0284435909901847
 10
-5845.6600559606513
 20
-290.62785200365659
 10
-5845.6952141211495
 20
-290.63474559948492
 42
-0.0243909341026639
 10
-5846.0086575820696
 20
-290.68046663051518
 10
-5846.05893830884
 20
-290.68531217741679
 42
-0.0196639292899868
 10
-5846.2745338863679
 20
-290.69756046293037
 10
-5846.3263579575296
 20
-290.69846372366709
 42
-0.0100501510712997
 10
-5846.438781239196
 20
-290.698163325314
 10
-5846.4704411005405
 20
-290.69744225342868
 42
-0.0019752031192052
 10
-5846.5195334372211
 20
-290.69613009321904
 10
-5846.5222937404433
 20
-290.69604540139272
 42
0.0065378752039374
 10
-5846.5658703151985
 20
-290.69527851017779
 42
-0.0167974694659368
 10
-5846.6094011381301
 20
-290.69361861165169
 10
-5846.6134804773919
 20
-290.69332560075679
 42
-0.0081283276174623
 10
-5846.6650402751229
 20
-290.68877860711962
 10
-5846.6767798490082
 20
-290.68755068954056
 42
-0.0126703440218331
 10
-5846.751498144803
 20
-290.67781589846885
 10
-5846.7742860124781
 20
-290.67425764255381
 42
-0.0117852088445578
 10
-5846.8938249983066
 20
-290.65269464739754
 10
-5846.9492054500743
 20
-290.64135110716211
 42
-0.0251774592301205
 10
-5847.1760494890859
 20
-290.58285309772776
 10
-5847.2207686789325
 20
-290.56888627839402
 42
-0.0146525199878386
 10
-5847.4071616664714
 20
-290.50461975119572
 42
-0.0166929435820348
 10
-5847.5891393226102
 20
-290.42881261813568
 10
-5847.5937959538714
 20
-290.4266877175271
 42
-0.0191684358452099
 10
-5847.7789795851131
 20
-290.33345163374156
 10
-5847.782312170878
 20
-290.3316103861838
 42
-0.0221181781812962
 10
-5847.9656224747705
 20
-290.21947688781955
 10
-5847.9679722787887
 20
-290.21789258982199
 42
-0.0254984685371102
 10
-5848.1442624291867
 20
-290.08548143984206
 10
-5848.1667445768853
 20
-290.06672913090785
 42
-0.0292492648794943
 10
-5848.2915135157182
 20
-289.94963633127304
 42
-0.0159048957495905
 10
-5848.4053535131725
 20
-289.82161633967007
 10
-5848.4066723037486
 20
-289.82003472665394
 42
-0.0343813379527728
 10
-5848.509309565381
 20
-289.67816340087398
 10
-5848.5408010967358
 20
-289.62766000878929
 42
-0.0369117275698273
 10
-5848.6266935986323
 20
-289.46418276784198
 42
-0.0191751379897082
 10
-5848.6938869841897
 20
-289.29177816183636
 10
-5848.6956503079491
 20
-289.28668481716113
 42
-0.0378178042213213
 10
-5848.7454450267323
 20
-289.09774404108208
 10
-5848.7514403224641
 20
-289.06518342288103
 42
-0.0184846046454809
 10
-5848.7721575217583
 20
-288.92343060233793
 42
-0.0179866351259859
 10
-5848.7824905268326
 20
-288.78053978923248
 10
-5848.7825469692771
 20
-288.77898210264425
 42
-0.0085497186139072
 10
-5848.783979250381
 20
-288.70410893763437
 42
-0.0085497186139072
  0
ENDBLK
  5
52
100
AcDbEntity
  8
template
390
0
100
AcDbBlockEnd
  0
BLOCK
  5
53
100
AcDbEntity
  8
notes
390
0
100
AcDbBlockBegin
  2
*D2
 70
               1
 10
0.0
 20
0.0
 30
0.0
  3
*D2
  1

  0
LINE
  5
54
100
AcDbEntity
  8
0
370
              -2
390
0
  6
Continuous
 62
               0
100
AcDbLine
 10
-702.71160288752344
 20
834.24278010839362
 30
0.0
 11
-782.71160288752799
 21
834.24278010839362
 31
0.0
  0
LINE
  5
55
100
AcDbEntity
  8
0
370
              -2
390
0
  6
Continuous
 62
               0
100
AcDbLine
 10
-707.71160288752799
 20
704.24278010839407
 30
0.0
 11
-782.71160288752799
 21
704.24278010839407
 31
0.0
  0
LINE
  5
56
100
AcDbEntity
  8
0
370
              -2
390
0
  6
Continuous
 62
               0
100
AcDbLine
 10
-782.71160288752799
 20
834.24278010839362
 30
0.0
 11
-782.71160288752799
 21
704.24278010839407
 31
0.0
  0
CIRCLE
  5
57
102
{ACAD_REACTORS
330
58
102
}
100
AcDbEntity
  8
0
370
              -2
390
0
  6
Continuous
 62
               0
100
AcDbCircle
 10
-782.71160288752799
 20
834.24278010839362
 30
0.0
 40
4.99969482421875
  0
HATCH
  5
58
100
AcDbEntity
  8
0
370
              -2
390
0
  6
Continuous
 62
               0
100
AcDbHatch
 10
0.0
 20
0.0
 30
0.0
210
0.0
220
0.0
230
1.0
  2
SOLID
 70
               1
 71
               1
 91
        1
 92
        1
 93
        1
 72
               2
 10
-782.71160288752799
 20
834.24278010839362
 40
4.99969482421875
 50
0.0
 51
360.0
 73
               0
 97
        1
330
57
 75
               0
 76
               1
 98
        1
 10
0.0
 20
0.0
  0
CIRCLE
  5
59
102
{ACAD_REACTORS
330
5A
102
}
100
AcDbEntity
  8
0
370
              -2
390
0
  6
Continuous
 62
               0
100
AcDbCircle
 10
-782.71160288752799
 20
704.24278010839407
 30
0.0
 40
4.99969482421875
  0
HATCH
  5
5A
100
AcDbEntity
  8
0
370
              -2
390
0
  6
Continuous
 62
               0
100
AcDbHatch
 10
0.0
 20
0.0
 30
0.0
210
0.0
220
0.0
230
1.0
  2
SOLID
 70
               1
 71
               1
 91
        1
 92
        1
 93
        1
 72
               2
 10
-782.71160288752799
 20
704.24278010839407
 40
4.99969482421875
 50
0.0
 51
360.0
 73
               0
 97
        1
330
59
 75
               0
 76
               1
 98
        1
 10
0.0
 20
0.0
  0
MTEXT
  5
5B
100
AcDbEntity
  8
0
390
0
 62
               0
100
AcDbMText
 10
-816.5892200750277
 20
745.43027842621836
 30
0.0
 40
24.432617187500004
 41
0.0
 71
               1
 72
               1
  1
130
  7
ＭＳ ゴシック
 11
0.0
 21
1.0
 31
0.0
 73
               1
 44
0.7828267384257843
  0
POINT
  5
5C
100
AcDbEntity
  8
Defpoints
370
               0
390
0
 62
               0
100
AcDbPoint
 10
-682.71160288752799
 20
704.24278010839407
 30
0.0
  0
POINT
  5
5D
100
AcDbEntity
  8
Defpoints
370
               0
390
0
 62
               0
100
AcDbPoint
 10
-677.71160288752344
 20
834.24278010839362
 30
0.0
  0
POINT
  5
5E
100
AcDbEntity
  8
Defpoints
370
               0
390
0
 62
               0
100
AcDbPoint
 10
-782.71160288752799
 20
834.24278010839362
 30
0.0
  0
ENDBLK
  5
5F
100
AcDbEntity
  8
notes
390
0
100
AcDbBlockEnd
  0
BLOCK
  5
60
100
AcDbEntity
  8
notes
390
0
100
AcDbBlockBegin
  2
*D3
 70
               1
 10
0.0
 20
0.0
 30
0.0
  3
*D3
  1

  0
LINE
  5
61
100
AcDbEntity
  8
0
370
              -2
390
0
  6
Continuous
 62
               0
100
AcDbLine
 10
-707.71160288752799
 20
704.24278010839407
 30
0.0
 11
-782.71160288752799
 21
704.24278010839407
 31
0.0
  0
LINE
  5
62
100
AcDbEntity
  8
0
370
              -2
390
0
  6
Continuous
 62
               0
100
AcDbLine
 10
-707.71160288752799
 20
379.24278010839407
 30
0.0
 11
-782.71160288752799
 21
379.24278010839407
 31
0.0
  0
LINE
  5
63
100
AcDbEntity
  8
0
370
              -2
390
0
  6
Continuous
 62
               0
100
AcDbLine
 10
-782.71160288752799
 20
704.24278010839407
 30
0.0
 11
-782.71160288752799
 21
379.24278010839407
 31
0.0
  0
CIRCLE
  5
64
102
{ACAD_REACTORS
330
65
102
}
100
AcDbEntity
  8
0
370
              -2
390
0
  6
Continuous
 62
               0
100
AcDbCircle
 10
-782.71160288752799
 20
704.24278010839407
 30
0.0
 40
4.99969482421875
  0
HATCH
  5
65
100
AcDbEntity
  8
0
370
              -2
390
0
  6
Continuous
 62
               0
100
AcDbHatch
 10
0.0
 20
0.0
 30
0.0
210
0.0
220
0.0
230
1.0
  2
SOLID
 70
               1
 71
               1
 91
        1
 92
        1
 93
        1
 72
               2
 10
-782.71160288752799
 20
704.24278010839407
 40
4.99969482421875
 50
0.0
 51
360.0
 73
               0
 97
        1
330
64
 75
               0
 76
               1
 98
        1
 10
0.0
 20
0.0
  0
CIRCLE
  5
66
102
{ACAD_REACTORS
330
67
102
}
100
AcDbEntity
  8
0
370
              -2
390
0
  6
Continuous
 62
               0
100
AcDbCircle
 10
-782.71160288752799
 20
379.24278010839407
 30
0.0
 40
4.99969482421875
  0
HATCH
  5
67
100
AcDbEntity
  8
0
370
              -2
390
0
  6
Continuous
 62
               0
100
AcDbHatch
 10
0.0
 20
0.0
 30
0.0
210
0.0
220
0.0
230
1.0
  2
SOLID
 70
               1
 71
               1
 91
        1
 92
        1
 93
        1
 72
               2
 10
-782.71160288752799
 20
379.24278010839407
 40
4.99969482421875
 50
0.0
 51
360.0
 73
               0
 97
        1
330
66
 75
               0
 76
               1
 98
        1
 10
0.0
 20
0.0
  0
MTEXT
  5
68
100
AcDbEntity
  8
0
390
0
 62
               0
100
AcDbMText
 10
-816.5892200750277
 20
517.93027842621859
 30
0.0
 40
24.432617187500004
 41
0.0
 71
               1
 72
               1
  1
325
  7
ＭＳ ゴシック
 11
0.0
 21
1.0
 31
0.0
 73
               1
 44
0.7828267384257843
  0
POINT
  5
69
100
AcDbEntity
  8
Defpoints
370
               0
390
0
 62
               0
100
AcDbPoint
 10
-682.71160288752799
 20
379.24278010839407
 30
0.0
  0
POINT
  5
6A
100
AcDbEntity
  8
Defpoints
370
               0
390
0
 62
               0
100
AcDbPoint
 10
-682.71160288752799
 20
704.24278010839407
 30
0.0
  0
POINT
  5
6B
100
AcDbEntity
  8
Defpoints
370
               0
390
0
 62
               0
100
AcDbPoint
 10
-782.71160288752799
 20
704.24278010839407
 30
0.0
  0
ENDBLK
  5
6C
100
AcDbEntity
  8
notes
390
0
100
AcDbBlockEnd
  0
BLOCK
  5
6D
100
AcDbEntity
  8
notes
390
0
100
AcDbBlockBegin
  2
*D4
 70
               1
 10
0.0
 20
0.0
 30
0.0
  3
*D4
  1

  0
LINE
  5
6E
100
AcDbEntity
  8
0
370
              -2
390
0
  6
Continuous
 62
               0
100
AcDbLine
 10
-707.71160288752799
 20
-399.10953205107967
 30
0.0
 11
-782.71160288752799
 21
-399.10953205107967
 31
0.0
  0
LINE
  5
6F
100
AcDbEntity
  8
0
370
              -2
390
0
  6
Continuous
 62
               0
100
AcDbLine
 10
-597.71160288752526
 20
-439.10953205107967
 30
0.0
 11
-782.71160288752799
 21
-439.10953205107967
 31
0.0
  0
LINE
  5
70
100
AcDbEntity
  8
0
370
              -2
390
0
  6
Continuous
 62
               0
100
AcDbLine
 10
-782.71160288752799
 20
-399.10953205107967
 30
0.0
 11
-782.71160288752799
 21
-439.10953205107967
 31
0.0
  0
CIRCLE
  5
71
102
{ACAD_REACTORS
330
72
102
}
100
AcDbEntity
  8
0
370
              -2
390
0
  6
Continuous
 62
               0
100
AcDbCircle
 10
-782.71160288752799
 20
-399.10953205107967
 30
0.0
 40
4.99969482421875
  0
HATCH
  5
72
100
AcDbEntity
  8
0
370
              -2
390
0
  6
Continuous
 62
               0
100
AcDbHatch
 10
0.0
 20
0.0
 30
0.0
210
0.0
220
0.0
230
1.0
  2
SOLID
 70
               1
 71
               1
 91
        1
 92
        1
 93
        1
 72
               2
 10
-782.71160288752799
 20
-399.10953205107967
 40
4.99969482421875
 50
0.0
 51
360.0
 73
               0
 97
        1
330
71
 75
               0
 76
               1
 98
        1
 10
0.0
 20
0.0
  0
CIRCLE
  5
73
102
{ACAD_REACTORS
330
74
102
}
100
AcDbEntity
  8
0
370
              -2
390
0
  6
Continuous
 62
               0
100
AcDbCircle
 10
-782.71160288752799
 20
-439.10953205107967
 30
0.0
 40
4.99969482421875
  0
HATCH
  5
74
100
AcDbEntity
  8
0
370
              -2
390
0
  6
Continuous
 62
               0
100
AcDbHatch
 10
0.0
 20
0.0
 30
0.0
210
0.0
220
0.0
230
1.0
  2
SOLID
 70
               1
 71
               1
 91
        1
 92
        1
 93
        1
 72
               2
 10
-782.71160288752799
 20
-439.10953205107967
 40
4.99969482421875
 50
0.0
 51
360.0
 73
               0
 97
        1
330
73
 75
               0
 76
               1
 98
        1
 10
0.0
 20
0.0
  0
MTEXT
  5
75
100
AcDbEntity
  8
0
390
0
 62
               0
100
AcDbMText
 10
-816.5892200750277
 20
-434.98453205107967
 30
0.0
 40
24.432617187500004
 41
0.0
 71
               1
 72
               1
  1
40
  7
ＭＳ ゴシック
 11
0.0
 21
1.0
 31
0.0
 73
               1
 44
0.7828267384257843
  0
POINT
  5
76
100
AcDbEntity
  8
Defpoints
370
               0
390
0
 62
               0
100
AcDbPoint
 10
-572.71160288752526
 20
-439.10953205107967
 30
0.0
  0
POINT
  5
77
100
AcDbEntity
  8
Defpoints
370
               0
390
0
 62
               0
100
AcDbPoint
 10
-682.71160288752799
 20
-399.10953205107967
 30
0.0
  0
POINT
  5
78
100
AcDbEntity
  8
Defpoints
370
               0
390
0
 62
               0
100
AcDbPoint
 10
-782.71160288752799
 20
-399.10953205107967
 30
0.0
  0
ENDBLK
  5
79
100
AcDbEntity
  8
notes
390
0
100
AcDbBlockEnd
  0
BLOCK
  5
7A
100
AcDbEntity
  8
notes
390
0
100
AcDbBlockBegin
  2
*D5
 70
               1
 10
0.0
 20
0.0
 30
0.0
  3
*D5
  1

  0
LINE
  5
7B
100
AcDbEntity
  8
0
370
              -2
390
0
  6
Continuous
 62
               0
100
AcDbLine
 10
-682.71160288752344
 20
854.24278010839362
 30
0.0
 11
-682.71160288752344
 21
934.24278010839362
 31
0.0
  0
LINE
  5
7C
100
AcDbEntity
  8
0
370
              -2
390
0
  6
Continuous
 62
               0
100
AcDbLine
 10
-82.71160288752526
 20
854.24278010839544
 30
0.0
 11
-82.71160288752526
 21
934.24278010839362
 31
0.0
  0
LINE
  5
7D
100
AcDbEntity
  8
0
370
              -2
390
0
  6
Continuous
 62
               0
100
AcDbLine
 10
-682.71160288752344
 20
934.24278010839362
 30
0.0
 11
-82.71160288752526
 21
934.24278010839362
 31
0.0
  0
CIRCLE
  5
7E
102
{ACAD_REACTORS
330
7F
102
}
100
AcDbEntity
  8
0
370
              -2
390
0
  6
Continuous
 62
               0
100
AcDbCircle
 10
-682.71160288752344
 20
934.24278010839362
 30
0.0
 40
4.99969482421875
  0
HATCH
  5
7F
100
AcDbEntity
  8
0
370
              -2
390
0
  6
Continuous
 62
               0
100
AcDbHatch
 10
0.0
 20
0.0
 30
0.0
210
0.0
220
0.0
230
1.0
  2
SOLID
 70
               1
 71
               1
 91
        1
 92
        1
 93
        1
 72
               2
 10
-682.71160288752344
 20
934.24278010839362
 40
4.99969482421875
 50
0.0
 51
360.0
 73
               0
 97
        1
330
7E
 75
               0
 76
               1
 98
        1
 10
0.0
 20
0.0
  0
CIRCLE
  5
80
102
{ACAD_REACTORS
330
81
102
}
100
AcDbEntity
  8
0
370
              -2
390
0
  6
Continuous
 62
               0
100
AcDbCircle
 10
-82.71160288752526
 20
934.24278010839362
 30
0.0
 40
4.99969482421875
  0
HATCH
  5
81
100
AcDbEntity
  8
0
370
              -2
390
0
  6
Continuous
 62
               0
100
AcDbHatch
 10
0.0
 20
0.0
 30
0.0
210
0.0
220
0.0
230
1.0
  2
SOLID
 70
               1
 71
               1
 91
        1
 92
        1
 93
        1
 72
               2
 10
-82.71160288752526
 20
934.24278010839362
 40
4.99969482421875
 50
0.0
 51
360.0
 73
               0
 97
        1
330
80
 75
               0
 76
               1
 98
        1
 10
0.0
 20
0.0
  0
MTEXT
  5
82
100
AcDbEntity
  8
0
390
0
 62
               0
100
AcDbMText
 10
-406.52410456970028
 20
968.12039729589355
 30
0.0
 40
24.432617187500004
 41
0.0
 71
               1
 72
               1
  1
600
  7
ＭＳ ゴシック
 73
               1
 44
0.7828267384257843
  0
POINT
  5
83
100
AcDbEntity
  8
Defpoints
370
               0
390
0
 62
               0
100
AcDbPoint
 10
-82.71160288752526
 20
829.24278010839544
 30
0.0
  0
POINT
  5
84
100
AcDbEntity
  8
Defpoints
370
               0
390
0
 62
               0
100
AcDbPoint
 10
-682.71160288752344
 20
829.24278010839362
 30
0.0
  0
POINT
  5
85
100
AcDbEntity
  8
Defpoints
370
               0
390
0
 62
               0
100
AcDbPoint
 10
-682.71160288752344
 20
934.24278010839362
 30
0.0
  0
ENDBLK
  5
86
100
AcDbEntity
  8
notes
390
0
100
AcDbBlockEnd
  0
BLOCK
  5
87
100
AcDbEntity
  8
notes
390
0
100
AcDbBlockBegin
  2
*D6
 70
               1
 10
0.0
 20
0.0
 30
0.0
  3
*D6
  1

  0
LINE
  5
88
100
AcDbEntity
  8
0
370
              -2
390
0
  6
Continuous
 62
               0
100
AcDbLine
 10
-62.71160288752526
 20
834.24278010839544
 30
0.0
 11
17.28839711247474
 21
834.24278010839544
 31
0.0
  0
LINE
  5
89
100
AcDbEntity
  8
0
370
              -2
390
0
  6
Continuous
 62
               0
100
AcDbLine
 10
-62.71160288752526
 20
354.24278010839362
 30
0.0
 11
17.28839711247474
 21
354.24278010839362
 31
0.0
  0
LINE
  5
8A
100
AcDbEntity
  8
0
370
              -2
390
0
  6
Continuous
 62
               0
100
AcDbLine
 10
17.28839711247474
 20
834.24278010839544
 30
0.0
 11
17.28839711247474
 21
354.24278010839362
 31
0.0
  0
CIRCLE
  5
8B
102
{ACAD_REACTORS
330
8C
102
}
100
AcDbEntity
  8
0
370
              -2
390
0
  6
Continuous
 62
               0
100
AcDbCircle
 10
17.28839711247474
 20
834.24278010839544
 30
0.0
 40
4.99969482421875
  0
HATCH
  5
8C
100
AcDbEntity
  8
0
370
              -2
390
0
  6
Continuous
 62
               0
100
AcDbHatch
 10
0.0
 20
0.0
 30
0.0
210
0.0
220
0.0
230
1.0
  2
SOLID
 70
               1
 71
               1
 91
        1
 92
        1
 93
        1
 72
               2
 10
17.28839711247474
 20
834.24278010839544
 40
4.99969482421875
 50
0.0
 51
360.0
 73
               0
 97
        1
330
8B
 75
               0
 76
               1
 98
        1
 10
0.0
 20
0.0
  0
CIRCLE
  5
8D
102
{ACAD_REACTORS
330
8E
102
}
100
AcDbEntity
  8
0
370
              -2
390
0
  6
Continuous
 62
               0
100
AcDbCircle
 10
17.28839711247474
 20
354.24278010839362
 30
0.0
 40
4.99969482421875
  0
HATCH
  5
8E
100
AcDbEntity
  8
0
370
              -2
390
0
  6
Continuous
 62
               0
100
AcDbHatch
 10
0.0
 20
0.0
 30
0.0
210
0.0
220
0.0
230
1.0
  2
SOLID
 70
               1
 71
               1
 91
        1
 92
        1
 93
        1
 72
               2
 10
17.28839711247474
 20
354.24278010839362
 40
4.99969482421875
 50
0.0
 51
360.0
 73
               0
 97
        1
330
8D
 75
               0
 76
               1
 98
        1
 10
0.0
 20
0.0
  0
MTEXT
  5
8F
100
AcDbEntity
  8
0
390
0
 62
               0
100
AcDbMText
 10
-16.589220075024969
 20
570.43027842621905
 30
0.0
 40
24.432617187500004
 41
0.0
 71
               1
 72
               1
  1
480
  7
ＭＳ ゴシック
 11
0.0
 21
1.0
 31
0.0
 73
               1
 44
0.7828267384257843
  0
POINT
  5
90
100
AcDbEntity
  8
Defpoints
370
               0
390
0
 62
               0
100
AcDbPoint
 10
-87.71160288752526
 20
354.24278010839362
 30
0.0
  0
POINT
  5
91
100
AcDbEntity
  8
Defpoints
370
               0
390
0
 62
               0
100
AcDbPoint
 10
-87.71160288752526
 20
834.24278010839544
 30
0.0
  0
POINT
  5
92
100
AcDbEntity
  8
Defpoints
370
               0
390
0
 62
               0
100
AcDbPoint
 10
17.28839711247474
 20
834.24278010839544
 30
0.0
  0
ENDBLK
  5
93
100
AcDbEntity
  8
notes
390
0
100
AcDbBlockEnd
  0
BLOCK
  5
94
100
AcDbEntity
  8
notes
390
0
100
AcDbBlockBegin
  2
*D7
 70
               1
 10
0.0
 20
0.0
 30
0.0
  3
*D7
  1

  0
LINE
  5
95
100
AcDbEntity
  8
0
370
              -2
390
0
  6
Continuous
 62
               0
100
AcDbLine
 10
-617.71160288752526
 20
329.24278010839362
 30
0.0
 11
-617.71160288752526
 21
254.24278010839362
 31
0.0
  0
LINE
  5
96
100
AcDbEntity
  8
0
370
              -2
390
0
  6
Continuous
 62
               0
100
AcDbLine
 10
-147.71160288752526
 20
329.24278010839362
 30
0.0
 11
-147.71160288752526
 21
254.24278010839362
 31
0.0
  0
LINE
  5
97
100
AcDbEntity
  8
0
370
              -2
390
0
  6
Continuous
 62
               0
100
AcDbLine
 10
-617.71160288752526
 20
254.24278010839362
 30
0.0
 11
-147.71160288752526
 21
254.24278010839362
 31
0.0
  0
CIRCLE
  5
98
102
{ACAD_REACTORS
330
99
102
}
100
AcDbEntity
  8
0
370
              -2
390
0
  6
Continuous
 62
               0
100
AcDbCircle
 10
-617.71160288752526
 20
254.24278010839362
 30
0.0
 40
4.99969482421875
  0
HATCH
  5
99
100
AcDbEntity
  8
0
370
              -2
390
0
  6
Continuous
 62
               0
100
AcDbHatch
 10
0.0
 20
0.0
 30
0.0
210
0.0
220
0.0
230
1.0
  2
SOLID
 70
               1
 71
               1
 91
        1
 92
        1
 93
        1
 72
               2
 10
-617.71160288752526
 20
254.24278010839362
 40
4.99969482421875
 50
0.0
 51
360.0
 73
               0
 97
        1
330
98
 75
               0
 76
               1
 98
        1
 10
0.0
 20
0.0
  0
CIRCLE
  5
9A
102
{ACAD_REACTORS
330
9B
102
}
100
AcDbEntity
  8
0
370
              -2
390
0
  6
Continuous
 62
               0
100
AcDbCircle
 10
-147.71160288752526
 20
254.24278010839362
 30
0.0
 40
4.99969482421875
  0
HATCH
  5
9B
100
AcDbEntity
  8
0
370
              -2
390
0
  6
Continuous
 62
               0
100
AcDbHatch
 10
0.0
 20
0.0
 30
0.0
210
0.0
220
0.0
230
1.0
  2
SOLID
 70
               1
 71
               1
 91
        1
 92
        1
 93
        1
 72
               2
 10
-147.71160288752526
 20
254.24278010839362
 40
4.99969482421875
 50
0.0
 51
360.0
 73
               0
 97
        1
330
9A
 75
               0
 76
               1
 98
        1
 10
0.0
 20
0.0
  0
MTEXT
  5
9C
100
AcDbEntity
  8
0
390
0
 62
               0
100
AcDbMText
 10
-406.52410456970119
 20
288.12039729589355
 30
0.0
 40
24.432617187500004
 41
0.0
 71
               1
 72
               1
  1
470
  7
ＭＳ ゴシック
 73
               1
 44
0.7828267384257843
  0
POINT
  5
9D
100
AcDbEntity
  8
Defpoints
370
               0
390
0
 62
               0
100
AcDbPoint
 10
-147.71160288752526
 20
354.24278010839362
 30
0.0
  0
POINT
  5
9E
100
AcDbEntity
  8
Defpoints
370
               0
390
0
 62
               0
100
AcDbPoint
 10
-617.71160288752526
 20
354.24278010839362
 30
0.0
  0
POINT
  5
9F
100
AcDbEntity
  8
Defpoints
370
               0
390
0
 62
               0
100
AcDbPoint
 10
-617.71160288752526
 20
254.24278010839362
 30
0.0
  0
ENDBLK
  5
A0
100
AcDbEntity
  8
notes
390
0
100
AcDbBlockEnd
  0
BLOCK
  5
A1
100
AcDbEntity
  8
notes
390
0
100
AcDbBlockBegin
  2
*D8
 70
               1
 10
0.0
 20
0.0
 30
0.0
  3
*D8
  1

  0
LINE
  5
A2
100
AcDbEntity
  8
0
370
              -2
390
0
  6
Continuous
 62
               0
100
AcDbLine
 10
-522.71160288752526
 20
-394.10953205107967
 30
0.0
 11
-522.71160288752526
 21
-299.10953205107967
 31
0.0
  0
LINE
  5
A3
100
AcDbEntity
  8
0
370
              -2
390
0
  6
Continuous
 62
               0
100
AcDbLine
 10
-242.71160288752526
 20
-394.10953205107967
 30
0.0
 11
-242.71160288752526
 21
-299.10953205107967
 31
0.0
  0
LINE
  5
A4
100
AcDbEntity
  8
0
370
              -2
390
0
  6
Continuous
 62
               0
100
AcDbLine
 10
-522.71160288752526
 20
-299.10953205107967
 30
0.0
 11
-242.71160288752526
 21
-299.10953205107967
 31
0.0
  0
CIRCLE
  5
A5
102
{ACAD_REACTORS
330
A6
102
}
100
AcDbEntity
  8
0
370
              -2
390
0
  6
Continuous
 62
               0
100
AcDbCircle
 10
-522.71160288752526
 20
-299.10953205107967
 30
0.0
 40
4.99969482421875
  0
HATCH
  5
A6
100
AcDbEntity
  8
0
370
              -2
390
0
  6
Continuous
 62
               0
100
AcDbHatch
 10
0.0
 20
0.0
 30
0.0
210
0.0
220
0.0
230
1.0
  2
SOLID
 70
               1
 71
               1
 91
        1
 92
        1
 93
        1
 72
               2
 10
-522.71160288752526
 20
-299.10953205107967
 40
4.99969482421875
 50
0.0
 51
360.0
 73
               0
 97
        1
330
A5
 75
               0
 76
               1
 98
        1
 10
0.0
 20
0.0
  0
CIRCLE
  5
A7
102
{ACAD_REACTORS
330
A8
102
}
100
AcDbEntity
  8
0
370
              -2
390
0
  6
Continuous
 62
               0
100
AcDbCircle
 10
-242.71160288752526
 20
-299.10953205107967
 30
0.0
 40
4.99969482421875
  0
HATCH
  5
A8
100
AcDbEntity
  8
0
370
              -2
390
0
  6
Continuous
 62
               0
100
AcDbHatch
 10
0.0
 20
0.0
 30
0.0
210
0.0
220
0.0
230
1.0
  2
SOLID
 70
               1
 71
               1
 91
        1
 92
        1
 93
        1
 72
               2
 10
-242.71160288752526
 20
-299.10953205107967
 40
4.99969482421875
 50
0.0
 51
360.0
 73
               0
 97
        1
330
A7
 75
               0
 76
               1
 98
        1
 10
0.0
 20
0.0
  0
MTEXT
  5
A9
100
AcDbEntity
  8
0
390
0
 62
               0
100
AcDbMText
 10
-406.52410456970119
 20
-265.23191486357962
 30
0.0
 40
24.432617187500004
 41
0.0
 71
               1
 72
               1
  1
280
  7
ＭＳ ゴシック
 73
               1
 44
0.7828267384257843
  0
POINT
  5
AA
100
AcDbEntity
  8
Defpoints
370
               0
390
0
 62
               0
100
AcDbPoint
 10
-242.71160288752526
 20
-419.10953205107967
 30
0.0
  0
POINT
  5
AB
100
AcDbEntity
  8
Defpoints
370
               0
390
0
 62
               0
100
AcDbPoint
 10
-522.71160288752526
 20
-419.10953205107967
 30
0.0
  0
POINT
  5
AC
100
AcDbEntity
  8
Defpoints
370
               0
390
0
 62
               0
100
AcDbPoint
 10
-522.71160288752526
 20
-299.10953205107967
 30
0.0
  0
ENDBLK
  5
AD
100
AcDbEntity
  8
notes
390
0
100
AcDbBlockEnd
  0
BLOCK
  5
AE
100
AcDbEntity
  8
notes
390
0
100
AcDbBlockBegin
  2
*D9
 70
               1
 10
0.0
 20
0.0
 30
0.0
  3
*D9
  1

  0
LINE
  5
AF
100
AcDbEntity
  8
0
370
              -2
390
0
  6
Continuous
 62
               0
100
AcDbLine
 10
-57.71160288752526
 20
-399.10953205107967
 30
0.0
 11
16.41339711247474
 21
-399.10953205107967
 31
0.0
  0
LINE
  5
B0
100
AcDbEntity
  8
0
370
              -2
390
0
  6
Continuous
 62
               0
100
AcDbLine
 10
-57.71160288752526
 20
-449.10953205107967
 30
0.0
 11
16.41339711247474
 21
-449.10953205107967
 31
0.0
  0
LINE
  5
B1
100
AcDbEntity
  8
0
370
              -2
390
0
  6
Continuous
 62
               0
100
AcDbLine
 10
16.41339711247474
 20
-399.10953205107967
 30
0.0
 11
16.41339711247474
 21
-449.10953205107967
 31
0.0
  0
CIRCLE
  5
B2
102
{ACAD_REACTORS
330
B3
102
}
100
AcDbEntity
  8
0
370
              -2
390
0
  6
Continuous
 62
               0
100
AcDbCircle
 10
16.41339711247474
 20
-399.10953205107967
 30
0.0
 40
4.99969482421875
  0
HATCH
  5
B3
100
AcDbEntity
  8
0
370
              -2
390
0
  6
Continuous
 62
               0
100
AcDbHatch
 10
0.0
 20
0.0
 30
0.0
210
0.0
220
0.0
230
1.0
  2
SOLID
 70
               1
 71
               1
 91
        1
 92
        1
 93
        1
 72
               2
 10
16.41339711247474
 20
-399.10953205107967
 40
4.99969482421875
 50
0.0
 51
360.0
 73
               0
 97
        1
330
B2
 75
               0
 76
               1
 98
        1
 10
0.0
 20
0.0
  0
CIRCLE
  5
B4
102
{ACAD_REACTORS
330
B5
102
}
100
AcDbEntity
  8
0
370
              -2
390
0
  6
Continuous
 62
               0
100
AcDbCircle
 10
16.41339711247474
 20
-449.10953205107967
 30
0.0
 40
4.99969482421875
  0
HATCH
  5
B5
100
AcDbEntity
  8
0
370
              -2
390
0
  6
Continuous
 62
               0
100
AcDbHatch
 10
0.0
 20
0.0
 30
0.0
210
0.0
220
0.0
230
1.0
  2
SOLID
 70
               1
 71
               1
 91
        1
 92
        1
 93
        1
 72
               2
 10
16.41339711247474
 20
-449.10953205107967
 40
4.99969482421875
 50
0.0
 51
360.0
 73
               0
 97
        1
330
B4
 75
               0
 76
               1
 98
        1
 10
0.0
 20
0.0
  0
MTEXT
  5
B6
100
AcDbEntity
  8
0
390
0
 62
               0
100
AcDbMText
 10
-17.464220075024969
 20
-439.98453205107967
 30
0.0
 40
24.432617187500004
 41
0.0
 71
               1
 72
               1
  1
50
  7
ＭＳ ゴシック
 11
0.0
 21
1.0
 31
0.0
 73
               1
 44
0.7828267384257843
  0
POINT
  5
B7
100
AcDbEntity
  8
Defpoints
370
               0
390
0
 62
               0
100
AcDbPoint
 10
-82.71160288752526
 20
-449.10953205107967
 30
0.0
  0
POINT
  5
B8
100
AcDbEntity
  8
Defpoints
370
               0
390
0
 62
               0
100
AcDbPoint
 10
-82.71160288752526
 20
-399.10953205107967
 30
0.0
  0
POINT
  5
B9
100
AcDbEntity
  8
Defpoints
370
               0
390
0
 62
               0
100
AcDbPoint
 10
16.41339711247474
 20
-399.10953205107967
 30
0.0
  0
ENDBLK
  5
BA
100
AcDbEntity
  8
notes
390
0
100
AcDbBlockEnd
  0
BLOCK
  5
BB
100
AcDbEntity
  8
notes
390
0
100
AcDbBlockBegin
  2
*D10
 70
               1
 10
0.0
 20
0.0
 30
0.0
  3
*D10
  1

  0
LINE
  5
BC
100
AcDbEntity
  8
0
370
              -2
390
0
  6
Continuous
 62
               0
100
AcDbLine
 10
-57.71160288752526
 20
-449.10953205107967
 30
0.0
 11
16.41339711247474
 21
-449.10953205107967
 31
0.0
  0
LINE
  5
BD
100
AcDbEntity
  8
0
370
              -2
390
0
  6
Continuous
 62
               0
100
AcDbLine
 10
-183.31312215049547
 20
-589.10953205107819
 30
0.0
 11
16.41339711247474
 21
-589.10953205107819
 31
0.0
  0
LINE
  5
BE
100
AcDbEntity
  8
0
370
              -2
390
0
  6
Continuous
 62
               0
100
AcDbLine
 10
16.41339711247474
 20
-449.10953205107967
 30
0.0
 11
16.41339711247474
 21
-589.10953205107819
 31
0.0
  0
CIRCLE
  5
BF
102
{ACAD_REACTORS
330
C0
102
}
100
AcDbEntity
  8
0
370
              -2
390
0
  6
Continuous
 62
               0
100
AcDbCircle
 10
16.41339711247474
 20
-449.10953205107967
 30
0.0
 40
4.99969482421875
  0
HATCH
  5
C0
100
AcDbEntity
  8
0
370
              -2
390
0
  6
Continuous
 62
               0
100
AcDbHatch
 10
0.0
 20
0.0
 30
0.0
210
0.0
220
0.0
230
1.0
  2
SOLID
 70
               1
 71
               1
 91
        1
 92
        1
 93
        1
 72
               2
 10
16.41339711247474
 20
-449.10953205107967
 40
4.99969482421875
 50
0.0
 51
360.0
 73
               0
 97
        1
330
BF
 75
               0
 76
               1
 98
        1
 10
0.0
 20
0.0
  0
CIRCLE
  5
C1
102
{ACAD_REACTORS
330
C2
102
}
100
AcDbEntity
  8
0
370
              -2
390
0
  6
Continuous
 62
               0
100
AcDbCircle
 10
16.41339711247474
 20
-589.10953205107819
 30
0.0
 40
4.99969482421875
  0
HATCH
  5
C2
100
AcDbEntity
  8
0
370
              -2
390
0
  6
Continuous
 62
               0
100
AcDbHatch
 10
0.0
 20
0.0
 30
0.0
210
0.0
220
0.0
230
1.0
  2
SOLID
 70
               1
 71
               1
 91
        1
 92
        1
 93
        1
 72
               2
 10
16.41339711247474
 20
-589.10953205107819
 40
4.99969482421875
 50
0.0
 51
360.0
 73
               0
 97
        1
330
C1
 75
               0
 76
               1
 98
        1
 10
0.0
 20
0.0
  0
MTEXT
  5
C3
100
AcDbEntity
  8
0
390
0
 62
               0
100
AcDbMText
 10
-17.464220075024969
 20
-542.92203373325447
 30
0.0
 40
24.432617187500004
 41
0.0
 71
               1
 72
               1
  1
140
  7
ＭＳ ゴシック
 11
0.0
 21
1.0
 31
0.0
 73
               1
 44
0.7828267384257843
  0
POINT
  5
C4
100
AcDbEntity
  8
Defpoints
370
               0
390
0
 62
               0
100
AcDbPoint
 10
-208.31312215049547
 20
-589.10953205107819
 30
0.0
  0
POINT
  5
C5
100
AcDbEntity
  8
Defpoints
370
               0
390
0
 62
               0
100
AcDbPoint
 10
-82.71160288752526
 20
-449.10953205107967
 30
0.0
  0
POINT
  5
C6
100
AcDbEntity
  8
Defpoints
370
               0
390
0
 62
               0
100
AcDbPoint
 10
16.41339711247474
 20
-449.10953205107967
 30
0.0
  0
ENDBLK
  5
C7
100
AcDbEntity
  8
notes
390
0
100
AcDbBlockEnd
  0
BLOCK
  5
C8
100
AcDbEntity
  8
notes
390
0
100
AcDbBlockBegin
  2
*D11
 70
               1
 10
0.0
 20
0.0
 30
0.0
  3
*D11
  1

  0
LINE
  5
C9
100
AcDbEntity
  8
0
370
              -2
390
0
  6
Continuous
 62
               0
100
AcDbLine
 10
839.16625892957018
 20
-609.10953205107819
 30
0.0
 11
839.16625892957018
 21
-689.10953205107819
 31
0.0
  0
LINE
  5
CA
100
AcDbEntity
  8
0
370
              -2
390
0
  6
Continuous
 62
               0
100
AcDbLine
 10
549.16625892957018
 20
-609.10953205107819
 30
0.0
 11
549.16625892957018
 21
-689.10953205107819
 31
0.0
  0
LINE
  5
CB
100
AcDbEntity
  8
0
370
              -2
390
0
  6
Continuous
 62
               0
100
AcDbLine
 10
839.16625892957018
 20
-689.10953205107819
 30
0.0
 11
549.16625892957018
 21
-689.10953205107819
 31
0.0
  0
CIRCLE
  5
CC
102
{ACAD_REACTORS
330
CD
102
}
100
AcDbEntity
  8
0
370
              -2
390
0
  6
Continuous
 62
               0
100
AcDbCircle
 10
839.16625892957018
 20
-689.10953205107819
 30
0.0
 40
4.99969482421875
  0
HATCH
  5
CD
100
AcDbEntity
  8
0
370
              -2
390
0
  6
Continuous
 62
               0
100
AcDbHatch
 10
0.0
 20
0.0
 30
0.0
210
0.0
220
0.0
230
1.0
  2
SOLID
 70
               1
 71
               1
 91
        1
 92
        1
 93
        1
 72
               2
 10
839.16625892957018
 20
-689.10953205107819
 40
4.99969482421875
 50
0.0
 51
360.0
 73
               0
 97
        1
330
CC
 75
               0
 76
               1
 98
        1
 10
0.0
 20
0.0
  0
CIRCLE
  5
CE
102
{ACAD_REACTORS
330
CF
102
}
100
AcDbEntity
  8
0
370
              -2
390
0
  6
Continuous
 62
               0
100
AcDbCircle
 10
549.16625892957018
 20
-689.10953205107819
 30
0.0
 40
4.99969482421875
  0
HATCH
  5
CF
100
AcDbEntity
  8
0
370
              -2
390
0
  6
Continuous
 62
               0
100
AcDbHatch
 10
0.0
 20
0.0
 30
0.0
210
0.0
220
0.0
230
1.0
  2
SOLID
 70
               1
 71
               1
 91
        1
 92
        1
 93
        1
 72
               2
 10
549.16625892957018
 20
-689.10953205107819
 40
4.99969482421875
 50
0.0
 51
360.0
 73
               0
 97
        1
330
CE
 75
               0
 76
               1
 98
        1
 10
0.0
 20
0.0
  0
MTEXT
  5
D0
100
AcDbEntity
  8
0
390
0
 62
               0
100
AcDbMText
 10
670.35375724739424
 20
-655.23191486357814
 30
0.0
 40
24.432617187500004
 41
0.0
 71
               1
 72
               1
  1
290
  7
ＭＳ ゴシック
 73
               1
 44
0.7828267384257843
  0
POINT
  5
D1
100
AcDbEntity
  8
Defpoints
370
               0
390
0
 62
               0
100
AcDbPoint
 10
549.16625892957018
 20
-584.10953205107819
 30
0.0
  0
POINT
  5
D2
100
AcDbEntity
  8
Defpoints
370
               0
390
0
 62
               0
100
AcDbPoint
 10
839.16625892957018
 20
-584.10953205107819
 30
0.0
  0
POINT
  5
D3
100
AcDbEntity
  8
Defpoints
370
               0
390
0
 62
               0
100
AcDbPoint
 10
839.16625892957018
 20
-689.10953205107819
 30
0.0
  0
ENDBLK
  5
D4
100
AcDbEntity
  8
notes
390
0
100
AcDbBlockEnd
  0
BLOCK
  5
D5
100
AcDbEntity
  8
notes
390
0
100
AcDbBlockBegin
  2
*D12
 70
               1
 10
0.0
 20
0.0
 30
0.0
  3
*D12
  1

  0
LINE
  5
D6
100
AcDbEntity
  8
0
370
              -2
390
0
  6
Continuous
 62
               0
100
AcDbLine
 10
839.1662589295729
 20
-379.10953205107967
 30
0.0
 11
839.1662589295729
 21
-299.10953205107967
 31
0.0
  0
LINE
  5
D7
100
AcDbEntity
  8
0
370
              -2
390
0
  6
Continuous
 62
               0
100
AcDbLine
 10
774.1662589295729
 20
-374.10953205107967
 30
0.0
 11
774.1662589295729
 21
-299.10953205107967
 31
0.0
  0
LINE
  5
D8
100
AcDbEntity
  8
0
370
              -2
390
0
  6
Continuous
 62
               0
100
AcDbLine
 10
839.1662589295729
 20
-299.10953205107967
 30
0.0
 11
774.1662589295729
 21
-299.10953205107967
 31
0.0
  0
CIRCLE
  5
D9
102
{ACAD_REACTORS
330
DA
102
}
100
AcDbEntity
  8
0
370
              -2
390
0
  6
Continuous
 62
               0
100
AcDbCircle
 10
839.1662589295729
 20
-299.10953205107967
 30
0.0
 40
4.99969482421875
  0
HATCH
  5
DA
100
AcDbEntity
  8
0
370
              -2
390
0
  6
Continuous
 62
               0
100
AcDbHatch
 10
0.0
 20
0.0
 30
0.0
210
0.0
220
0.0
230
1.0
  2
SOLID
 70
               1
 71
               1
 91
        1
 92
        1
 93
        1
 72
               2
 10
839.1662589295729
 20
-299.10953205107967
 40
4.99969482421875
 50
0.0
 51
360.0
 73
               0
 97
        1
330
D9
 75
               0
 76
               1
 98
        1
 10
0.0
 20
0.0
  0
CIRCLE
  5
DB
102
{ACAD_REACTORS
330
DC
102
}
100
AcDbEntity
  8
0
370
              -2
390
0
  6
Continuous
 62
               0
100
AcDbCircle
 10
774.1662589295729
 20
-299.10953205107967
 30
0.0
 40
4.99969482421875
  0
HATCH
  5
DC
100
AcDbEntity
  8
0
370
              -2
390
0
  6
Continuous
 62
               0
100
AcDbHatch
 10
0.0
 20
0.0
 30
0.0
210
0.0
220
0.0
230
1.0
  2
SOLID
 70
               1
 71
               1
 91
        1
 92
        1
 93
        1
 72
               2
 10
774.1662589295729
 20
-299.10953205107967
 40
4.99969482421875
 50
0.0
 51
360.0
 73
               0
 97
        1
330
DB
 75
               0
 76
               1
 98
        1
 10
0.0
 20
0.0
  0
MTEXT
  5
DD
100
AcDbEntity
  8
0
390
0
 62
               0
100
AcDbMText
 10
790.7912589295729
 20
-265.23191486357962
 30
0.0
 40
24.432617187500004
 41
0.0
 71
               1
 72
               1
  1
65
  7
ＭＳ ゴシック
 73
               1
 44
0.7828267384257843
  0
POINT
  5
DE
100
AcDbEntity
  8
Defpoints
370
               0
390
0
 62
               0
100
AcDbPoint
 10
774.1662589295729
 20
-399.10953205107967
 30
0.0
  0
POINT
  5
DF
100
AcDbEntity
  8
Defpoints
370
               0
390
0
 62
               0
100
AcDbPoint
 10
839.1662589295729
 20
-404.10953205107967
 30
0.0
  0
POINT
  5
E0
100
AcDbEntity
  8
Defpoints
370
               0
390
0
 62
               0
100
AcDbPoint
 10
839.1662589295729
 20
-299.10953205107967
 30
0.0
  0
ENDBLK
  5
E1
100
AcDbEntity
  8
notes
390
0
100
AcDbBlockEnd
  0
BLOCK
  5
E2
100
AcDbEntity
  8
notes
390
0
100
AcDbBlockBegin
  2
*D13
 70
               1
 10
0.0
 20
0.0
 30
0.0
  3
*D13
  1

  0
LINE
  5
E3
100
AcDbEntity
  8
0
370
              -2
390
0
  6
Continuous
 62
               0
100
AcDbLine
 10
539.69786932205352
 20
-534.10953205107978
 30
0.0
 11
543.07792559623704
 21
-534.10953205107978
 31
0.0
  0
LINE
  5
E4
100
AcDbEntity
  8
0
370
              -2
390
0
  6
Continuous
 62
               0
100
AcDbLine
 10
539.69786932205352
 20
-399.10953205107967
 30
0.0
 11
543.07792559623704
 21
-399.10953205107967
 31
0.0
  0
LINE
  5
E5
100
AcDbEntity
  8
0
370
              -2
390
0
  6
Continuous
 62
               0
100
AcDbLine
 10
543.07792559623704
 20
-399.10953205107967
 30
0.0
 11
543.07792559623704
 21
-249.95795354807706
 31
0.0
  0
LINE
  5
E6
100
AcDbEntity
  8
0
370
              -2
390
0
  6
Continuous
 62
               0
100
AcDbLine
 10
543.07792559623704
 20
-534.10953205107978
 30
0.0
 11
543.07792559623704
 21
-399.10953205107967
 31
0.0
  0
CIRCLE
  5
E7
102
{ACAD_REACTORS
330
E8
102
}
100
AcDbEntity
  8
0
370
              -2
390
0
  6
Continuous
 62
               0
100
AcDbCircle
 10
543.07792559623704
 20
-534.10953205107978
 30
0.0
 40
4.99969482421875
  0
HATCH
  5
E8
100
AcDbEntity
  8
0
370
              -2
390
0
  6
Continuous
 62
               0
100
AcDbHatch
 10
0.0
 20
0.0
 30
0.0
210
0.0
220
0.0
230
1.0
  2
SOLID
 70
               1
 71
               1
 91
        1
 92
        1
 93
        1
 72
               2
 10
543.07792559623704
 20
-534.10953205107978
 40
4.99969482421875
 50
0.0
 51
360.0
 73
               0
 97
        1
330
E7
 75
               0
 76
               1
 98
        1
 10
0.0
 20
0.0
  0
CIRCLE
  5
E9
102
{ACAD_REACTORS
330
EA
102
}
100
AcDbEntity
  8
0
370
              -2
390
0
  6
Continuous
 62
               0
100
AcDbCircle
 10
543.07792559623704
 20
-399.10953205107967
 30
0.0
 40
4.99969482421875
  0
HATCH
  5
EA
100
AcDbEntity
  8
0
370
              -2
390
0
  6
Continuous
 62
               0
100
AcDbHatch
 10
0.0
 20
0.0
 30
0.0
210
0.0
220
0.0
230
1.0
  2
SOLID
 70
               1
 71
               1
 91
        1
 92
        1
 93
        1
 72
               2
 10
543.07792559623704
 20
-399.10953205107967
 40
4.99969482421875
 50
0.0
 51
360.0
 73
               0
 97
        1
330
E9
 75
               0
 76
               1
 98
        1
 10
0.0
 20
0.0
  0
MTEXT
  5
EB
100
AcDbEntity
  8
0
390
0
 62
               0
100
AcDbMText
 10
509.20030840873733
 20
-392.83295354807706
 30
0.0
 40
24.432617187500004
 41
0.0
 71
               1
 72
               1
  1
135(深さ)
  7
ＭＳ ゴシック
 11
0.0
 21
1.0
 31
0.0
 73
               1
 44
0.7828267384257843
  0
POINT
  5
EC
100
AcDbEntity
  8
Defpoints
370
               0
390
0
 62
               0
100
AcDbPoint
 10
564.69786932205352
 20
-399.10953205107967
 30
0.0
  0
POINT
  5
ED
100
AcDbEntity
  8
Defpoints
370
               0
390
0
 62
               0
100
AcDbPoint
 10
564.69786932205352
 20
-534.10953205107978
 30
0.0
  0
POINT
  5
EE
100
AcDbEntity
  8
Defpoints
370
               0
390
0
 62
               0
100
AcDbPoint
 10
543.07792559623704
 20
-534.10953205107978
 30
0.0
  0
ENDBLK
  5
EF
100
AcDbEntity
  8
notes
390
0
100
AcDbBlockEnd
  0
BLOCK
  5
F0
100
AcDbEntity
  8
notes
390
0
100
AcDbBlockBegin
  2
*D14
 70
               1
 10
0.0
 20
0.0
 30
0.0
  3
*D14
  1

  0
LINE
  5
F1
100
AcDbEntity
  8
0
370
              -2
390
0
  6
Continuous
 62
               0
100
AcDbLine
 10
339.21728465125307
 20
-399.10953205107967
 30
0.0
 11
259.21832599251138
 21
-399.10953205107967
 31
0.0
  0
LINE
  5
F2
100
AcDbEntity
  8
0
370
              -2
390
0
  6
Continuous
 62
               0
100
AcDbLine
 10
419.5570024569879
 20
-589.10953205107819
 30
0.0
 11
259.21832599251138
 21
-589.10953205107819
 31
0.0
  0
LINE
  5
F3
100
AcDbEntity
  8
0
370
              -2
390
0
  6
Continuous
 62
               0
100
AcDbLine
 10
259.21832599251138
 20
-399.10953205107967
 30
0.0
 11
259.21832599251138
 21
-589.10953205107819
 31
0.0
  0
CIRCLE
  5
F4
102
{ACAD_REACTORS
330
F5
102
}
100
AcDbEntity
  8
0
370
              -2
390
0
  6
Continuous
 62
               0
100
AcDbCircle
 10
259.21832599251138
 20
-399.10953205107967
 30
0.0
 40
4.99969482421875
  0
HATCH
  5
F5
100
AcDbEntity
  8
0
370
              -2
390
0
  6
Continuous
 62
               0
100
AcDbHatch
 10
0.0
 20
0.0
 30
0.0
210
0.0
220
0.0
230
1.0
  2
SOLID
 70
               1
 71
               1
 91
        1
 92
        1
 93
        1
 72
               2
 10
259.21832599251138
 20
-399.10953205107967
 40
4.99969482421875
 50
0.0
 51
360.0
 73
               0
 97
        1
330
F4
 75
               0
 76
               1
 98
        1
 10
0.0
 20
0.0
  0
CIRCLE
  5
F6
102
{ACAD_REACTORS
330
F7
102
}
100
AcDbEntity
  8
0
370
              -2
390
0
  6
Continuous
 62
               0
100
AcDbCircle
 10
259.21832599251138
 20
-589.10953205107819
 30
0.0
 40
4.99969482421875
  0
HATCH
  5
F7
100
AcDbEntity
  8
0
370
              -2
390
0
  6
Continuous
 62
               0
100
AcDbHatch
 10
0.0
 20
0.0
 30
0.0
210
0.0
220
0.0
230
1.0
  2
SOLID
 70
               1
 71
               1
 91
        1
 92
        1
 93
        1
 72
               2
 10
259.21832599251138
 20
-589.10953205107819
 40
4.99969482421875
 50
0.0
 51
360.0
 73
               0
 97
        1
330
F6
 75
               0
 76
               1
 98
        1
 10
0.0
 20
0.0
  0
MTEXT
  5
F8
100
AcDbEntity
  8
0
390
0
 62
               0
100
AcDbMText
 10
225.34070880501167
 20
-517.92203373325447
 30
0.0
 40
24.432617187500004
 41
0.0
 71
               1
 72
               1
  1
190
  7
ＭＳ ゴシック
 11
0.0
 21
1.0
 31
0.0
 73
               1
 44
0.7828267384257843
  0
POINT
  5
F9
100
AcDbEntity
  8
Defpoints
370
               0
390
0
 62
               0
100
AcDbPoint
 10
444.5570024569879
 20
-589.10953205107819
 30
0.0
  0
POINT
  5
FA
100
AcDbEntity
  8
Defpoints
370
               0
390
0
 62
               0
100
AcDbPoint
 10
364.21728465125307
 20
-399.10953205107967
 30
0.0
  0
POINT
  5
FB
100
AcDbEntity
  8
Defpoints
370
               0
390
0
 62
               0
100
AcDbPoint
 10
259.21832599251138
 20
-399.10953205107967
 30
0.0
  0
ENDBLK
  5
FC
100
AcDbEntity
  8
notes
390
0
100
AcDbBlockEnd
  0
ENDSEC
  0
SECTION
  2
ENTITIES
  0
MTEXT
  5
FD
100
AcDbEntity
  8
template
390
0
 62
               7
100
AcDbMText
 10
-967.99999999975898
 20
-1147.4176292337006
 30
0.0
 40
16.288411458333332
 41
0.0
 71
               1
 72
               1
  1
品名
  7
ＭＳ ゴシック
 73
               1
 44
0.7828267384257843
  0
MTEXT
  5
FE
100
AcDbEntity
  8
template
390
0
 62
               7
100
AcDbMText
 10
-967.99999999975898
 20
-1232.4176292337006
 30
0.0
 40
16.288411458333332
 41
0.0
 71
               1
 72
               1
  1
仕様
  7
ＭＳ ゴシック
 73
               1
 44
0.7828267384257843
  0
MTEXT
  5
FF
100
AcDbEntity
  8
template
390
0
 62
               7
100
AcDbMText
 10
-914.99999999975898
 20
-1176.0000901712006
 30
0.0
 40
24.432617187500004
 41
0.0
 71
               1
 72
               1
  1
洗面器 -CATALANO,C-
  7
ＭＳ ゴシック
 73
               1
 44
0.7828267384257843
  0
LINE
  5
100
100
AcDbEntity
  8
template
370
               5
390
0
  6
Continuous
 62
               7
100
AcDbLine
 10
974.99999999975898
 20
-1224.0027073587005
 30
0.0
 11
-975.00000000024102
 21
-1224.0027073587005
 31
0.0
  0
LWPOLYLINE
  5
101
100
AcDbEntity
  8
template
370
               5
390
0
  6
Continuous
 62
               7
100
AcDbPolyline
 90
        5
 70
             128
 10
975.00000000024102
 20
1405.9972926412993
 10
-974.99999999975898
 20
1405.9972926412993
 10
-974.99999999975898
 20
-1394.0027073587005
 10
975.00000000024102
 20
-1394.0027073587005
 10
975.00000000024102
 20
1405.9972926412993
  0
LINE
  5
102
100
AcDbEntity
  8
template
370
               5
390
0
  6
Continuous
 62
               7
100
AcDbLine
 10
974.99999999975898
 20
-1139.0027073587005
 30
0.0
 11
-975.00000000024102
 21
-1139.0027073587005
 31
0.0
  0
LINE
  5
103
100
AcDbEntity
  8
template
370
               5
390
0
  6
Continuous
 62
               7
100
AcDbLine
 10
975.00000000024102
 20
-1309.0027073587005
 30
0.0
 11
222.00000000024102
 21
-1309.0027073587005
 31
0.0
  0
MTEXT
  5
104
100
AcDbEntity
  8
template
390
0
 62
               7
100
AcDbMText
 10
-974.99999999955617
 20
-1405.8565294155574
 30
0.0
 40
21.717881944444446
 41
0.0
 71
               1
 72
               1
  1
100707SH
  7
ＭＳ ゴシック
 73
               1
 44
0.7828267384257843
  0
MTEXT
  5
105
100
AcDbEntity
  8
template
390
0
 62
               7
100
AcDbMText
 10
251.87140625250049
 20
-1338.9131018320081
 30
0.0
 40
24.432617187500004
 41
0.0
 71
               1
 72
               1
  1
大洋金物株式会社 ティーフォルム事業部
  7
ＭＳ ゴシック
 73
               1
 44
0.7828267384257843
  0
INSERT
  5
106
100
AcDbEntity
  8
template
390
0
 62
               7
100
AcDbBlockReference
  2
グループ
 10
6749.8514846881189
 20
-1072.385251091212
 30
0.0
  0
MTEXT
  5
107
100
AcDbEntity
  8
template
390
0
 62
               7
100
AcDbMText
 10
784.00000000050022
 20
-1261.0000901712006
 30
0.0
 40
24.432617187500004
 41
0.0
 71
               1
 72
               1
  1
1:10
  7
ＭＳ ゴシック
 73
               1
 44
0.7828267384257843
  0
MTEXT
  5
108
100
AcDbEntity
  8
template
390
0
 62
               7
100
AcDbMText
 10
731.00000000050022
 20
-1232.4176292337006
 30
0.0
 40
16.288411458333332
 41
0.0
 71
               1
 72
               1
  1
縮尺
  7
ＭＳ ゴシック
 73
               1
 44
0.7828267384257843
  0
LINE
  5
109
100
AcDbEntity
  8
template
370
               5
390
0
  6
Continuous
 62
               7
100
AcDbLine
 10
724.00000000050022
 20
-1309.0027073587005
 30
0.0
 11
724.00000000050022
 21
-1224.0027073587005
 31
0.0
  0
MTEXT
  5
10A
100
AcDbEntity
  8
template
390
0
 62
               7
100
AcDbMText
 10
480.00000000050022
 20
-1232.4176292337006
 30
0.0
 40
16.288411458333332
 41
0.0
 71
               1
 72
               1
  1
容量
  7
ＭＳ ゴシック
 73
               1
 44
0.7828267384257843
  0
MTEXT
  5
10B
100
AcDbEntity
  8
template
390
0
 62
               7
100
AcDbMText
 10
533.00000000050022
 20
-1261.0000901712006
 30
0.0
 40
24.432617187500004
 41
0.0
 71
               1
 72
               1
  1
7L
  7
ＭＳ ゴシック
 73
               1
 44
0.7828267384257843
  0
LINE
  5
10C
100
AcDbEntity
  8
template
370
               5
390
0
  6
Continuous
 62
               7
100
AcDbLine
 10
473.00000000050022
 20
-1309.0027073587005
 30
0.0
 11
473.00000000050022
 21
-1224.0027073587005
 31
0.0
  0
MTEXT
  5
10D
100
AcDbEntity
  8
template
390
0
 62
               7
100
AcDbMText
 10
229.00000000050022
 20
-1147.4176292337006
 30
0.0
 40
16.288411458333332
 41
0.0
 71
               1
 72
               1
  1
品番
  7
ＭＳ ゴシック
 73
               1
 44
0.7828267384257843
  0
MTEXT
  5
10E
100
AcDbEntity
  8
template
390
0
 62
               7
100
AcDbMText
 10
229.00000000050022
 20
-1232.4176292337006
 30
0.0
 40
16.288411458333332
 41
0.0
 71
               1
 72
               1
  1
重量
  7
ＭＳ ゴシック
 73
               1
 44
0.7828267384257843
  0
MTEXT
  5
10F
100
AcDbEntity
  8
template
390
0
 62
               7
100
AcDbMText
 10
282.00000000050022
 20
-1176.0000901712006
 30
0.0
 40
24.432617187500004
 41
0.0
 71
               1
 72
               1
  1
ADF70-1205
  7
ＭＳ ゴシック
 73
               1
 44
0.7828267384257843
  0
MTEXT
  5
110
100
AcDbEntity
  8
template
390
0
 62
               7
100
AcDbMText
 10
282.00000000050022
 20
-1261.0000901712006
 30
0.0
 40
24.432617187500004
 41
0.0
 71
               1
 72
               1
  1
19kg
  7
ＭＳ ゴシック
 73
               1
 44
0.7828267384257843
  0
LINE
  5
111
100
AcDbEntity
  8
template
370
               5
390
0
  6
Continuous
 62
               7
100
AcDbLine
 10
222.00000000050022
 20
-1394.0027073587005
 30
0.0
 11
222.00000000050022
 21
-1139.0027073587005
 31
0.0
  0
MTEXT
  5
112
100
AcDbEntity
  8
template
390
0
 62
               7
100
AcDbMText
 10
-914.99999999975989
 20
-1261.0000901712006
 30
0.0
 40
24.432617187500004
 41
0.0
 71
               1
 72
               1
  1
壁掛け/オーバーフロー付き/壁取付ボルト付属/\P陶器/ホワイト
  7
ＭＳ ゴシック
 73
               1
 44
1.3047112307096407
  0
MTEXT
  5
113
100
AcDbEntity
  8
notes
390
0
 62
               7
100
AcDbMText
 10
-752.44355970728247
 20
216.76020726301135
 30
0.0
 40
24.432617187500004
 41
873.73195681975824
 71
               1
 72
               1
  1
＝φ30もしくはφ35の水栓取付用穴あけ加工を承ります。\P  必要な場合、ご注文の際にご指示ください。
  7
ＭＳ ゴシック
 73
               1
 44
1.0437689845677123
  0
MTEXT
  5
114
100
AcDbEntity
  8
notes
390
0
 62
               7
100
AcDbMText
 10
-167.13438581956507
 20
-316.93843660574612
 30
0.0
 40
24.432617187500004
 41
0.0
 71
               1
 72
               1
  1
壁取付ボルト位置
  7
ＭＳ ゴシック
 73
               1
 44
0.7828267384257843
  0
LINE
  5
115
100
AcDbEntity
  8
notes
370
               5
390
0
  6
Continuous
 62
               7
100
AcDbLine
 10
-242.71160288752526
 20
-439.10953205107967
 30
0.0
 11
-154.58364314916616
 21
-350.98157231272035
 31
0.0
  0
DIMENSION
  5
116
100
AcDbEntity
  8
notes
370
               5
390
0
  6
Continuous
 62
               7
100
AcDbDimension
  2
*D2
 10
-782.71160288752799
 20
834.24278010839362
 30
0.0
 11
-782.71160288752799
 21
769.24278010839384
 31
0.0
 71
               5
 72
               1
 41
1.0
 42
0.0
  3
tform線あり
100
AcDbAlignedDimension
 13
-682.71160288752799
 23
704.24278010839407
 33
0.0
 14
-677.71160288752344
 24
834.24278010839362
 34
0.0
 50
90.0
100
AcDbRotatedDimension
1001
ACAD
1000
DSTYLE
1002
{
1070
             279
1070
               2
1070
             340
1005
31
1070
             147
1040
5.0
1002
}
  0
DIMENSION
  5
117
100
AcDbEntity
  8
notes
370
               5
390
0
  6
Continuous
 62
               7
100
AcDbDimension
  2
*D3
 10
-782.71160288752799
 20
704.24278010839407
 30
0.0
 11
-782.71160288752799
 21
541.74278010839407
 31
0.0
 71
               5
 72
               1
 41
1.0
 42
0.0
  3
tform線あり
100
AcDbAlignedDimension
 13
-682.71160288752799
 23
379.24278010839407
 33
0.0
 14
-682.71160288752799
 24
704.24278010839407
 34
0.0
 50
90.0
100
AcDbRotatedDimension
1001
ACAD
1000
DSTYLE
1002
{
1070
             279
1070
               2
1070
             340
1005
31
1070
             147
1040
5.0
1002
}
  0
DIMENSION
  5
118
100
AcDbEntity
  8
notes
370
               5
390
0
  6
Continuous
 62
               7
100
AcDbDimension
  2
*D4
 10
-782.71160288752799
 20
-399.10953205107967
 30
0.0
 11
-782.71160288752799
 21
-419.10953205107967
 31
0.0
 71
               5
 72
               1
 41
1.0
 42
0.0
  3
tform線あり
100
AcDbAlignedDimension
 13
-572.71160288752526
 23
-439.10953205107967
 33
0.0
 14
-682.71160288752799
 24
-399.10953205107967
 34
0.0
 50
90.0
100
AcDbRotatedDimension
1001
ACAD
1000
DSTYLE
1002
{
1070
             279
1070
               2
1070
             340
1005
31
1070
             147
1040
5.0
1002
}
  0
CIRCLE
  5
119
100
AcDbEntity
  8
notes
370
              15
390
0
  6
STYLE_12
 62
               7
100
AcDbCircle
 10
-773.71160288752435
 20
205.7073768646103
 30
0.0
 40
17.5
  0
DIMENSION
  5
11A
100
AcDbEntity
  8
notes
370
               5
390
0
  6
Continuous
 62
               7
100
AcDbDimension
  2
*D5
 10
-682.71160288752344
 20
934.24278010839362
 30
0.0
 11
-382.71160288752435
 21
934.24278010839362
 31
0.0
 71
               5
 72
               1
 41
1.0
 42
0.0
  3
tform線あり
100
AcDbAlignedDimension
 13
-82.71160288752526
 23
829.24278010839544
 33
0.0
 14
-682.71160288752344
 24
829.24278010839362
 34
0.0
100
AcDbRotatedDimension
1001
ACAD
1000
DSTYLE
1002
{
1070
             279
1070
               2
1070
             340
1005
31
1070
             147
1040
5.0
1002
}
  0
DIMENSION
  5
11B
100
AcDbEntity
  8
notes
370
               5
390
0
  6
Continuous
 62
               7
100
AcDbDimension
  2
*D6
 10
17.28839711247474
 20
834.24278010839544
 30
0.0
 11
17.28839711247474
 21
594.24278010839453
 31
0.0
 71
               5
 72
               1
 41
1.0
 42
0.0
  3
tform線あり
100
AcDbAlignedDimension
 13
-87.71160288752526
 23
354.24278010839362
 33
0.0
 14
-87.71160288752526
 24
834.24278010839544
 34
0.0
 50
90.0
100
AcDbRotatedDimension
1001
ACAD
1000
DSTYLE
1002
{
1070
             279
1070
               2
1070
             340
1005
31
1070
             147
1040
5.0
1002
}
  0
DIMENSION
  5
11C
100
AcDbEntity
  8
notes
370
               5
390
0
  6
Continuous
 62
               7
100
AcDbDimension
  2
*D7
 10
-617.71160288752526
 20
254.24278010839362
 30
0.0
 11
-382.71160288752526
 21
254.24278010839362
 31
0.0
 71
               5
 72
               1
 41
1.0
 42
0.0
  3
tform線あり
100
AcDbAlignedDimension
 13
-147.71160288752526
 23
354.24278010839362
 33
0.0
 14
-617.71160288752526
 24
354.24278010839362
 34
0.0
100
AcDbRotatedDimension
1001
ACAD
1000
DSTYLE
1002
{
1070
             279
1070
               2
1070
             340
1005
31
1070
             147
1040
5.0
1002
}
  0
DIMENSION
  5
11D
100
AcDbEntity
  8
notes
370
               5
390
0
  6
Continuous
 62
               7
100
AcDbDimension
  2
*D8
 10
-522.71160288752526
 20
-299.10953205107967
 30
0.0
 11
-382.71160288752526
 21
-299.10953205107967
 31
0.0
 71
               5
 72
               1
 41
1.0
 42
0.0
  3
tform線あり
100
AcDbAlignedDimension
 13
-242.71160288752526
 23
-419.10953205107967
 33
0.0
 14
-522.71160288752526
 24
-419.10953205107967
 34
0.0
100
AcDbRotatedDimension
1001
ACAD
1000
DSTYLE
1002
{
1070
             279
1070
               2
1070
             340
1005
31
1070
             147
1040
5.0
1002
}
  0
DIMENSION
  5
11E
100
AcDbEntity
  8
notes
370
               5
390
0
  6
Continuous
 62
               7
100
AcDbDimension
  2
*D9
 10
16.41339711247474
 20
-399.10953205107967
 30
0.0
 11
16.41339711247474
 21
-424.10953205107967
 31
0.0
 71
               5
 72
               1
 41
1.0
 42
0.0
  3
tform線あり
100
AcDbAlignedDimension
 13
-82.71160288752526
 23
-449.10953205107967
 33
0.0
 14
-82.71160288752526
 24
-399.10953205107967
 34
0.0
 50
90.0
100
AcDbRotatedDimension
1001
ACAD
1000
DSTYLE
1002
{
1070
             279
1070
               2
1070
             340
1005
31
1070
             147
1040
5.0
1002
}
  0
DIMENSION
  5
11F
100
AcDbEntity
  8
notes
370
               5
390
0
  6
Continuous
 62
               7
100
AcDbDimension
  2
*D10
 10
16.41339711247474
 20
-449.10953205107967
 30
0.0
 11
16.41339711247474
 21
-519.10953205107899
 31
0.0
 71
               5
 72
               1
 41
1.0
 42
0.0
  3
tform線あり
100
AcDbAlignedDimension
 13
-208.31312215049547
 23
-589.10953205107819
 33
0.0
 14
-82.71160288752526
 24
-449.10953205107967
 34
0.0
 50
90.0
100
AcDbRotatedDimension
1001
ACAD
1000
DSTYLE
1002
{
1070
             279
1070
               2
1070
             340
1005
31
1070
             147
1040
5.0
1002
}
  0
DIMENSION
  5
120
100
AcDbEntity
  8
notes
370
               5
390
0
  6
Continuous
 62
               7
100
AcDbDimension
  2
*D11
 10
839.16625892957018
 20
-689.10953205107819
 30
0.0
 11
694.16625892957018
 21
-689.10953205107819
 31
0.0
 71
               5
 72
               1
 41
1.0
 42
0.0
  3
tform線あり
100
AcDbAlignedDimension
 13
549.16625892957018
 23
-584.10953205107819
 33
0.0
 14
839.16625892957018
 24
-584.10953205107819
 34
0.0
100
AcDbRotatedDimension
1001
ACAD
1000
DSTYLE
1002
{
1070
             279
1070
               2
1070
             340
1005
31
1070
             147
1040
5.0
1002
}
  0
DIMENSION
  5
121
100
AcDbEntity
  8
notes
370
               5
390
0
  6
Continuous
 62
               7
100
AcDbDimension
  2
*D12
 10
839.1662589295729
 20
-299.10953205107967
 30
0.0
 11
806.6662589295729
 21
-299.10953205107967
 31
0.0
 71
               5
 72
               1
 41
1.0
 42
0.0
  3
tform線あり
100
AcDbAlignedDimension
 13
774.1662589295729
 23
-399.10953205107967
 33
0.0
 14
839.1662589295729
 24
-404.10953205107967
 34
0.0
100
AcDbRotatedDimension
1001
ACAD
1000
DSTYLE
1002
{
1070
             279
1070
               2
1070
             340
1005
31
1070
             147
1040
5.0
1002
}
  0
DIMENSION
  5
122
100
AcDbEntity
  8
notes
370
               5
390
0
  6
Continuous
 62
               7
100
AcDbDimension
  2
*D13
 10
543.07792559623704
 20
-534.10953205107978
 30
0.0
 11
538.07792559623704
 21
-392.83295354807706
 31
0.0
 70
             128
 71
               5
 72
               1
 41
1.0
 42
0.0
  3
tform線あり
100
AcDbAlignedDimension
 13
564.69786932205352
 23
-399.10953205107967
 33
0.0
 14
564.69786932205352
 24
-534.10953205107978
 34
0.0
 50
90.0
100
AcDbRotatedDimension
1001
ACAD
1000
DSTYLE
1002
{
1070
             279
1070
               2
1070
             340
1005
31
1070
               3
1000
<>(深さ)
1070
             174
1070
               0
1070
             147
1040
5.0
1002
}
  0
DIMENSION
  5
123
100
AcDbEntity
  8
notes
370
               5
390
0
  6
Continuous
 62
               7
100
AcDbDimension
  2
*D14
 10
259.21832599251138
 20
-399.10953205107967
 30
0.0
 11
259.21832599251138
 21
-494.10953205107899
 31
0.0
 71
               5
 72
               1
 41
1.0
 42
0.0
  3
tform線あり
100
AcDbAlignedDimension
 13
444.5570024569879
 23
-589.10953205107819
 33
0.0
 14
364.21728465125307
 24
-399.10953205107967
 34
0.0
 50
90.0
100
AcDbRotatedDimension
1001
ACAD
1000
DSTYLE
1002
{
1070
             279
1070
               2
1070
             340
1005
31
1070
             147
1040
5.0
1002
}
  0
CIRCLE
  5
124
100
AcDbEntity
  8
ADF70-1205
370
              15
390
0
  6
Continuous
 62
               7
100
AcDbCircle
 10
-382.71160288752526
 20
541.74278010839453
 30
0.0
 40
22.5
  0
CIRCLE
  5
125
100
AcDbEntity
  8
ADF70-1205
370
              15
390
0
  6
Continuous
 62
               7
100
AcDbCircle
 10
-382.71160288752526
 20
541.74278010839453
 30
0.0
 40
39.0
  0
LINE
  5
126
100
AcDbEntity
  8
ADF70-1205
370
              15
390
0
  6
Continuous
 62
               7
100
AcDbLine
 10
-682.71160288752799
 20
359.24278010839589
 30
0.0
 11
-682.71160288752344
 21
829.24278010839362
 31
0.0
  0
LINE
  5
127
100
AcDbEntity
  8
ADF70-1205
370
              15
390
0
  6
Continuous
 62
               7
100
AcDbLine
 10
-677.71160288752344
 20
834.24278010839362
 30
0.0
 11
-87.71160288752526
 21
834.24278010839544
 31
0.0
  0
LINE
  5
128
100
AcDbEntity
  8
ADF70-1205
370
              15
390
0
  6
Continuous
 62
               7
100
AcDbLine
 10
-82.71160288752526
 20
829.24278010839544
 30
0.0
 11
-82.71160288752526
 21
359.24278010839362
 31
0.0
  0
LINE
  5
129
100
AcDbEntity
  8
ADF70-1205
370
              15
390
0
  6
Continuous
 62
               7
100
AcDbLine
 10
-87.71160288752526
 20
354.24278010839362
 30
0.0
 11
-677.71160288752799
 21
354.24278010839589
 31
0.0
  0
SPLINE
  5
12A
100
AcDbEntity
  8
ADF70-1205
370
              15
390
0
  6
Continuous
 62
               7
100
AcDbSpline
210
0.0
220
0.0
230
1.0
 70
               9
 71
               2
 72
              30
 73
              27
 74
               0
 42
0.000001
 43
0.000001
 40
0.0
 40
0.0
 40
0.0
 40
1.0
 40
1.0
 40
2.0
 40
3.0
 40
4.0
 40
5.0
 40
6.0
 40
7.0
 40
8.0
 40
9.0
 40
10.0
 40
11.0
 40
12.0
 40
13.0
 40
14.0
 40
15.0
 40
16.0
 40
17.0
 40
18.0
 40
19.0
 40
20.0
 40
21.0
 40
22.0
 40
22.0
 40
23.0
 40
23.0
 40
23.0
 10
-395.21160288752526
 20
692.24278010839453
 30
0.0
 10
-395.21160288752526
 20
692.12223098921436
 30
0.0
 10
-395.21160288752526
 20
692.00168187003419
 30
0.0
 10
-394.89320105277056
 20
690.72119117690136
 30
0.0
 10
-392.60315600671129
 20
689.26992897096943
 30
0.0
 10
-390.49625282931174
 20
688.46540079445231
 30
0.0
 10
-387.99019284035876
 20
687.88077953938046
 30
0.0
 10
-383.9950223572223
 20
687.38810492341418
 30
0.0
 10
-380.11578153332084
 20
687.54481962024738
 30
0.0
 10
-377.43301293469085
 20
687.88078095213905
 30
0.0
 10
-374.92695294573787
 20
688.46539255335938
 30
0.0
 10
-371.74156640860656
 20
689.70058541306662
 30
0.0
 10
-370.40941649247361
 20
691.25148752159066
 30
0.0
 10
-369.98428874903766
 20
692.72735859357044
 30
0.0
 10
-371.28917251288294
 20
694.25856870668258
 30
0.0
 10
-372.82004976834014
 20
695.2155832120211
 30
0.0
 10
-374.92695294573878
 20
696.02016766342967
 30
0.0
 10
-377.43301293469358
 20
696.60477926465001
 30
0.0
 10
-380.11578153331811
 20
696.94074059654167
 30
0.0
 10
-383.98053114982122
 20
697.10308774814712
 30
0.0
 10
-387.99019284035876
 20
696.6047806774086
 30
0.0
 10
-390.49625282930992
 20
696.02015942233675
 30
0.0
 10
-392.6031560067122
 20
695.21563124581962
 30
0.0
 10
-394.88849792492874
 20
693.75293269887652
 30
0.0
 10
-395.21160288752526
 20
692.48387834675486
 30
0.0
 10
-395.21160288752526
 20
692.3633292275747
 30
0.0
 10
-395.21160288752526
 20
692.24278010839453
 30
0.0
  0
ARC
  5
12B
100
AcDbEntity
  8
ADF70-1205
370
              15
390
0
  6
Continuous
 62
               7
100
AcDbCircle
 10
-310.22200657253779
 20
541.74278010839407
 30
0.0
 40
162.5
100
AcDbArc
 50
270.0
 51
90.0
  0
ARC
  5
12C
100
AcDbEntity
  8
ADF70-1205
370
              15
390
0
  6
Continuous
 62
               7
100
AcDbCircle
 10
-455.20119920251364
 20
541.74278010839407
 30
0.0
 40
162.5
100
AcDbArc
 50
90.0
 51
270.0
  0
LINE
  5
12D
100
AcDbEntity
  8
ADF70-1205
370
              15
390
0
  6
Continuous
 62
               7
100
AcDbLine
 10
-455.20119920251364
 20
704.24278010839407
 30
0.0
 11
-310.22200657253779
 21
704.24278010839407
 31
0.0
  0
LINE
  5
12E
100
AcDbEntity
  8
ADF70-1205
370
              15
390
0
  6
Continuous
 62
               7
100
AcDbLine
 10
-455.20119920251364
 20
379.24278010839407
 30
0.0
 11
-310.22200657253779
 21
379.24278010839407
 31
0.0
  0
ARC
  5
12F
100
AcDbEntity
  8
ADF70-1205
370
              15
390
0
  6
Continuous
 62
               7
100
AcDbCircle
 10
-677.71160288752344
 20
829.24278010839362
 30
0.0
 40
5.0
100
AcDbArc
 50
90.0
 51
180.0
  0
ARC
  5
130
100
AcDbEntity
  8
ADF70-1205
370
              15
390
0
  6
Continuous
 62
               7
100
AcDbCircle
 10
-677.71160288752799
 20
359.24278010839589
 30
0.0
 40
5.0
100
AcDbArc
 50
180.0
 51
270.0
  0
ARC
  5
131
100
AcDbEntity
  8
ADF70-1205
370
              15
390
0
  6
Continuous
 62
               7
100
AcDbCircle
 10
-87.71160288752526
 20
359.24278010839362
 30
0.0
 40
5.0
100
AcDbArc
 50
270.0
 51
0.0
  0
ARC
  5
132
100
AcDbEntity
  8
ADF70-1205
370
              15
390
0
  6
Continuous
 62
               7
100
AcDbCircle
 10
-87.71160288752526
 20
829.24278010839544
 30
0.0
 40
5.0
100
AcDbArc
 50
0.0
 51
90.0
  0
CIRCLE
  5
133
100
AcDbEntity
  8
ADF70-1205
370
              15
390
0
  6
STYLE_12
 62
               7
100
AcDbCircle
 10
-382.71160288752435
 20
769.27456897448064
 30
0.0
 40
17.5
  0
LINE
  5
134
100
AcDbEntity
  8
ADF70-1205
370
              15
390
0
  6
STYLE_12
 62
               7
100
AcDbLine
 10
507.66625892957109
 20
-534.10953205107978
 30
0.0
 11
585.66625892957109
 21
-534.10953205107978
 31
0.0
  0
LINE
  5
135
100
AcDbEntity
  8
ADF70-1205
370
              15
390
0
  6
STYLE_12
 62
               7
100
AcDbLine
 10
569.16625892957109
 20
-584.10953205107819
 30
0.0
 11
524.16625892957109
 21
-584.10953205107819
 31
0.0
  0
LINE
  5
136
100
AcDbEntity
  8
ADF70-1205
370
              15
390
0
  6
STYLE_12
 62
               7
100
AcDbLine
 10
586.66625892957109
 20
-534.10953205107978
 30
0.0
 11
506.66625892957109
 21
-534.10953205107978
 31
0.0
  0
LINE
  5
137
100
AcDbEntity
  8
ADF70-1205
370
              15
390
0
  6
STYLE_12
 62
               7
100
AcDbLine
 10
569.16625892957109
 20
-546.10953205107955
 30
0.0
 11
524.16625892957109
 21
-546.10953205107955
 31
0.0
  0
LINE
  5
138
100
AcDbEntity
  8
ADF70-1205
370
              15
390
0
  6
Continuous
 62
               7
100
AcDbLine
 10
839.16625892957109
 20
-522.9713206689662
 30
0.0
 11
839.16625892957018
 21
-584.10953205107819
 31
0.0
  0
LINE
  5
139
100
AcDbEntity
  8
ADF70-1205
370
              15
390
0
  6
Continuous
 62
               7
100
AcDbLine
 10
819.494810686866
 20
-589.10953205107819
 30
0.0
 11
834.16625892957018
 21
-589.10953205107819
 31
0.0
  0
ARC
  5
13A
100
AcDbEntity
  8
ADF70-1205
370
              15
390
0
  6
Continuous
 62
               7
100
AcDbCircle
 10
834.16625892957018
 20
-584.10953205107819
 30
0.0
 40
5.0
100
AcDbArc
 50
270.0
 51
0.0
  0
LINE
  5
13B
100
AcDbEntity
  8
ADF70-1205
370
              15
390
0
  6
Continuous
 62
               7
100
AcDbLine
 10
444.5570024569879
 20
-589.10953205107819
 30
0.0
 11
819.494810686866
 21
-589.10953205107819
 31
0.0
  0
ARC
  5
13C
100
AcDbEntity
  8
ADF70-1205
370
              15
390
0
  6
STYLE_12
 62
               7
100
AcDbCircle
 10
573.39860604819114
 20
-398.86744448159902
 30
0.0
 40
135.52167749009413
100
AcDbArc
 50
338.64324416041848
 51
350.88394725333734
  0
LINE
  5
13D
100
AcDbEntity
  8
ADF70-1205
370
              15
390
0
  6
STYLE_12
 62
               7
100
AcDbLine
 10
524.16625892957109
 20
-546.10953205107955
 30
0.0
 11
524.16625892957109
 21
-584.10953205107819
 31
0.0
  0
LINE
  5
13E
100
AcDbEntity
  8
ADF70-1205
370
              15
390
0
  6
STYLE_12
 62
               7
100
AcDbLine
 10
508.03683829144938
 20
-535.04935789922479
 30
0.0
 11
524.16625892957109
 21
-546.10953205107955
 31
0.0
  0
ARC
  5
13F
100
AcDbEntity
  8
ADF70-1205
370
              15
390
0
  6
STYLE_12
 62
               7
100
AcDbCircle
 10
502.38155473592906
 20
-543.29664641769432
 30
0.0
 40
10.000000000011179
100
AcDbArc
 50
55.561010691192578
 51
78.799397958568747
  0
ARC
  5
140
100
AcDbEntity
  8
ADF70-1205
370
              15
390
0
  6
STYLE_12
 62
               7
100
AcDbCircle
 10
519.88746571119191
 20
-398.89472457251554
 30
0.0
 40
135.48923595081581
100
AcDbArc
 50
182.01269809174877
 51
263.40395148310904
  0
ARC
  5
141
100
AcDbEntity
  8
ADF70-1205
370
              15
390
0
  6
STYLE_12
 62
               7
100
AcDbCircle
 10
379.5026811973994
 20
-404.10953205107865
 30
0.0
 40
4.9999999999982458
100
AcDbArc
 50
5.2360077006203758
 51
90.000000000020847
  0
LINE
  5
142
100
AcDbEntity
  8
ADF70-1205
370
              15
390
0
  6
Continuous
 62
               7
100
AcDbLine
 10
364.21728465125307
 20
-399.10953205107967
 30
0.0
 11
834.16625892957109
 21
-399.10953205107967
 31
0.0
  0
ARC
  5
143
100
AcDbEntity
  8
ADF70-1205
370
              15
390
0
  6
Continuous
 62
               7
100
AcDbCircle
 10
364.21728465125307
 20
-404.10953205107944
 30
0.0
 40
4.9999999999997726
100
AcDbArc
 50
90.0
 51
181.16938280561908
  0
LINE
  5
144
100
AcDbEntity
  8
ADF70-1205
370
              15
390
0
  6
Continuous
 62
               7
100
AcDbLine
 10
359.21832599251229
 20
-444.10953205107967
 30
0.0
 11
359.21832599251229
 21
-404.2115728674064
 31
0.0
  0
ARC
  5
145
100
AcDbEntity
  8
ADF70-1205
370
              15
390
0
  6
Continuous
 62
               7
100
AcDbCircle
 10
364.21832599251411
 20
-444.10953205107944
 30
0.0
 40
5.000000000001819
100
AcDbArc
 50
180.0
 51
224.99999999996132
  0
ARC
  5
146
100
AcDbEntity
  8
ADF70-1205
370
              15
390
0
  6
Continuous
 62
               7
100
AcDbCircle
 10
605.92614461421999
 20
-399.10953215951758
 30
0.0
 40
250.00000000000955
100
AcDbArc
 50
191.19461388206261
 51
229.20788921770344
  0
ARC
  5
147
100
AcDbEntity
  8
ADF70-1205
370
              15
390
0
  6
Continuous
 62
               7
100
AcDbCircle
 10
444.5570024569879
 20
-586.10953205107944
 30
0.0
 40
2.9999999999988192
100
AcDbArc
 50
229.20788921769042
 51
270.0
  0
LINE
  5
148
100
AcDbEntity
  8
ADF70-1205
370
              15
390
0
  6
STYLE_12
 62
               7
100
AcDbLine
 10
585.29567956769279
 20
-535.04935789922388
 30
0.0
 11
569.16625892957018
 21
-546.10953205107955
 31
0.0
  0
ARC
  5
149
100
AcDbEntity
  8
ADF70-1205
370
              15
390
0
  6
STYLE_12
 62
               7
100
AcDbCircle
 10
590.95096312320038
 20
-543.29664641766522
 30
0.0
 40
9.9999999999801901
100
AcDbArc
 50
101.20060204137113
 51
124.43898930882706
  0
ARC
  5
14A
100
AcDbEntity
  8
ADF70-1205
370
              15
390
0
  6
STYLE_12
 62
               7
100
AcDbCircle
 10
573.39860604819205
 20
-398.86744448159789
 30
0.0
 40
135.52167749009411
100
AcDbArc
 50
276.61423016058853
 51
338.6432441604365
  0
LINE
  5
14B
100
AcDbEntity
  8
ADF70-1205
370
              15
390
0
  6
STYLE_12
 62
               7
100
AcDbLine
 10
569.16625892957018
 20
-546.10953205107955
 30
0.0
 11
569.16625892957109
 21
-584.10953205107819
 31
0.0
  0
ARC
  5
14C
100
AcDbEntity
  8
ADF70-1205
370
              15
390
0
  6
STYLE_12
 62
               7
100
AcDbCircle
 10
573.39860604821297
 20
-398.86744448167008
 30
0.0
 40
135.52167749006867
100
AcDbArc
 50
350.88394725334211
 51
357.86211490746825
  0
ARC
  5
14D
100
AcDbEntity
  8
ADF70-1205
370
              15
390
0
  6
STYLE_12
 62
               7
100
AcDbCircle
 10
713.82247283210108
 20
-404.1095320510849
 30
0.0
 40
5.0000000000052296
100
AcDbArc
 50
90.0
 51
177.8621149073648
  0
ARC
  5
14E
100
AcDbEntity
  8
ADF70-1205
370
              15
390
0
  6
Continuous
 62
               7
100
AcDbCircle
 10
834.1662589295729
 20
-404.10953205107967
 30
0.0
 40
5.0
100
AcDbArc
 50
0.0
 51
90.000000000020862
  0
LINE
  5
14F
100
AcDbEntity
  8
ADF70-1205
370
              15
390
0
  6
Continuous
 62
               7
100
AcDbLine
 10
839.16625892957109
 20
-522.9713206689662
 30
0.0
 11
839.1662589295729
 21
-404.10953205107967
 31
0.0
  0
POLYLINE
  5
150
100
AcDbEntity
  8
ADF70-1205
370
              15
390
0
  6
Continuous
 62
               7
100
AcDb2dPolyline
 66
               1
 10
0.0
 20
0.0
 30
0.0
 70
               1
 75
               5
  0
VERTEX
  5
151
100
AcDbEntity
  8
ADF70-1205
370
              15
390
0
  6
Continuous
 62
               7
100
AcDbVertex
100
AcDb2dVertex
 10
-682.71160288752799
 20
-399.10953205107967
 30
0.0
  0
VERTEX
  5
152
100
AcDbEntity
  8
ADF70-1205
370
              15
390
0
  6
Continuous
 62
               7
100
AcDbVertex
100
AcDb2dVertex
 10
-82.71160288752526
 20
-399.10953205107967
 30
0.0
  0
VERTEX
  5
153
100
AcDbEntity
  8
ADF70-1205
370
              15
390
0
  6
Continuous
 62
               7
100
AcDbVertex
100
AcDb2dVertex
 10
-82.71160288752526
 20
-449.10953205107967
 30
0.0
  0
VERTEX
  5
154
100
AcDbEntity
  8
ADF70-1205
370
              15
390
0
  6
Continuous
 62
               7
100
AcDbVertex
100
AcDb2dVertex
 10
-682.71160288752799
 20
-449.10953205107967
 30
0.0
  0
SEQEND
  5
155
100
AcDbEntity
  8
ADF70-1205
370
              15
390
0
  6
Continuous
 62
               7
  0
LINE
  5
156
100
AcDbEntity
  8
ADF70-1205
370
              15
390
0
  6
STYLE_12
 62
               7
100
AcDbLine
 10
-382.71160288752526
 20
-584.10953205107819
 30
0.0
 11
-360.21160288752526
 21
-584.10953205107819
 31
0.0
  0
LINE
  5
157
100
AcDbEntity
  8
ADF70-1205
370
              15
390
0
  6
STYLE_12
 62
               7
100
AcDbLine
 10
-382.71160288752526
 20
-534.10953205107978
 30
0.0
 11
-342.71160288752526
 21
-534.10953205107978
 31
0.0
  0
LINE
  5
158
100
AcDbEntity
  8
ADF70-1205
370
              15
390
0
  6
STYLE_12
 62
               7
100
AcDbLine
 10
-382.71160288752526
 20
-546.10953205107955
 30
0.0
 11
-360.21160288752526
 21
-546.10953205107955
 31
0.0
  0
LINE
  5
159
100
AcDbEntity
  8
ADF70-1205
370
              15
390
0
  6
STYLE_12
 62
               7
100
AcDbLine
 10
-360.21160288752526
 20
-546.10953205107955
 30
0.0
 11
-360.21160288752526
 21
-584.10953205107819
 31
0.0
  0
LINE
  5
15A
100
AcDbEntity
  8
ADF70-1205
370
              15
390
0
  6
STYLE_12
 62
               7
100
AcDbLine
 10
-344.08218224940356
 20
-535.04935789922479
 30
0.0
 11
-360.21160288752526
 21
-546.10953205107955
 31
0.0
  0
ARC
  5
15B
100
AcDbEntity
  8
ADF70-1205
370
              15
390
0
  6
STYLE_12
 62
               7
100
AcDbCircle
 10
-338.42689869388323
 20
-543.29664641768613
 30
0.0
 40
10.000000000003714
100
AcDbArc
 50
101.20060204143476
 51
124.43898930881703
  0
ARC
  5
15C
100
AcDbEntity
  8
ADF70-1205
370
              15
390
0
  6
STYLE_12
 62
               7
100
AcDbCircle
 10
-286.14358540470221
 20
-398.89472457251509
 30
0.0
 40
135.48923595081726
100
AcDbArc
 50
293.61079459640445
 51
357.98730190825114
  0
ARC
  5
15D
100
AcDbEntity
  8
ADF70-1205
370
              15
390
0
  6
STYLE_12
 62
               7
100
AcDbCircle
 10
-145.75880089090606
 20
-404.10953205107967
 30
0.0
 40
5.0
100
AcDbArc
 50
90.0
 51
174.76399229938025
  0
ARC
  5
15E
100
AcDbEntity
  8
ADF70-1205
370
              15
390
0
  6
Continuous
 62
               7
100
AcDbCircle
 10
-208.31312215049547
 20
-586.10953205108035
 30
0.0
 40
2.99999999999784
100
AcDbArc
 50
270.0
 51
310.79211078230776
  0
LINE
  5
15F
100
AcDbEntity
  8
ADF70-1205
370
              15
390
0
  6
Continuous
 62
               7
100
AcDbLine
 10
-382.71160288752526
 20
-589.10953205107819
 30
0.0
 11
-208.31312215049547
 21
-589.10953205107819
 31
0.0
  0
LINE
  5
160
100
AcDbEntity
  8
ADF70-1205
370
              15
390
0
  6
STYLE_12
 62
               7
100
AcDbLine
 10
-382.71160288752526
 20
-584.10953205107819
 30
0.0
 11
-405.21160288752526
 21
-584.10953205107819
 31
0.0
  0
LINE
  5
161
100
AcDbEntity
  8
ADF70-1205
370
              15
390
0
  6
STYLE_12
 62
               7
100
AcDbLine
 10
-382.71160288752526
 20
-534.10953205107978
 30
0.0
 11
-422.71160288752526
 21
-534.10953205107978
 31
0.0
  0
LINE
  5
162
100
AcDbEntity
  8
ADF70-1205
370
              15
390
0
  6
STYLE_12
 62
               7
100
AcDbLine
 10
-382.71160288752526
 20
-546.10953205107955
 30
0.0
 11
-405.21160288752526
 21
-546.10953205107955
 31
0.0
  0
LINE
  5
163
100
AcDbEntity
  8
ADF70-1205
370
              15
390
0
  6
STYLE_12
 62
               7
100
AcDbLine
 10
-405.21160288752526
 20
-546.10953205107955
 30
0.0
 11
-405.21160288752526
 21
-584.10953205107819
 31
0.0
  0
LINE
  5
164
100
AcDbEntity
  8
ADF70-1205
370
              15
390
0
  6
STYLE_12
 62
               7
100
AcDbLine
 10
-421.34102352564696
 20
-535.04935789922479
 30
0.0
 11
-405.21160288752526
 21
-546.10953205107955
 31
0.0
  0
ARC
  5
165
100
AcDbEntity
  8
ADF70-1205
370
              15
390
0
  6
STYLE_12
 62
               7
100
AcDbCircle
 10
-426.99630708116729
 20
-543.29664641768613
 30
0.0
 40
10.000000000003915
100
AcDbArc
 50
55.561010691183
 51
78.799397958565265
  0
ARC
  5
166
100
AcDbEntity
  8
ADF70-1205
370
              15
390
0
  6
STYLE_12
 62
               7
100
AcDbCircle
 10
-479.27962037034831
 20
-398.89472457251509
 30
0.0
 40
135.48923595081763
100
AcDbArc
 50
182.01269809174894
 51
246.38920540359558
  0
ARC
  5
167
100
AcDbEntity
  8
ADF70-1205
370
              15
390
0
  6
STYLE_12
 62
               7
100
AcDbCircle
 10
-619.66440488414446
 20
-404.10953205107967
 30
0.0
 40
5.0000000000000675
100
AcDbArc
 50
5.2360077006197718
 51
89.999999999999986
  0
ARC
  5
168
100
AcDbEntity
  8
ADF70-1205
370
              15
390
0
  6
Continuous
 62
               7
100
AcDbCircle
 10
-556.97200830235488
 20
-586.10953205108035
 30
0.0
 40
2.9999999999981308
100
AcDbArc
 50
229.20788921767905
 51
270.0
  0
LINE
  5
169
100
AcDbEntity
  8
ADF70-1205
370
              15
390
0
  6
Continuous
 62
               7
100
AcDbLine
 10
-382.71160288752526
 20
-589.10953205107819
 30
0.0
 11
-556.97200830235488
 21
-589.10953205107819
 31
0.0
  0
ARC
  5
16A
100
AcDbEntity
  8
ADF70-1205
370
              15
390
0
  6
STYLE_12
 62
               7
100
AcDbCircle
 10
-444.03257916590337
 20
-161.95421376160846
 30
0.0
 40
372.01732307611633
100
AcDbArc
 50
256.07708475245363
 51
272.92425283543531
  0
ARC
  5
16B
100
AcDbEntity
  8
ADF70-1205
370
              15
390
0
  6
STYLE_12
 62
               7
100
AcDbCircle
 10
-321.56442343791059
 20
-161.9790064991796
 30
0.0
 40
372.01732307611616
100
AcDbArc
 50
267.07574716456469
 51
283.92291524754643
  0
LINE
  5
16C
100
AcDbEntity
  8
ADF70-1205
370
              15
390
0
  6
STYLE_12
 62
               7
100
AcDbLine
 10
-522.71160288752526
 20
-459.10953205107967
 30
0.0
 11
-522.71160288752526
 21
-419.10953205107967
 31
0.0
  0
ARC
  5
16D
100
AcDbEntity
  8
ADF70-1205
370
              15
390
0
  6
Continuous
 62
               7
100
AcDbCircle
 10
-374.42715582076653
 20
-392.68951410347677
 30
0.0
 40
257.96111725160193
100
AcDbArc
 50
310.65839667609146
 51
347.36641814514007
  0
ARC
  5
16E
100
AcDbEntity
  8
ADF70-1205
370
              15
390
0
  6
Continuous
 62
               7
100
AcDbCircle
 10
-390.85252822760322
 20
-392.68951410347677
 30
0.0
 40
257.9611172516029
100
AcDbArc
 50
192.63358185485987
 51
229.34160332390854
  0
LINE
  5
16F
100
AcDbEntity
  8
ADF70-1205
370
              15
390
0
  6
STYLE_12
 62
               7
100
AcDbLine
 10
-502.71160288752526
 20
-439.10953205107967
 30
0.0
 11
-542.71160288752526
 21
-439.10953205107967
 31
0.0
  0
CIRCLE
  5
170
100
AcDbEntity
  8
ADF70-1205
370
              15
390
0
  6
STYLE_12
 62
               7
100
AcDbCircle
 10
-522.71160288752526
 20
-439.10953205107967
 30
0.0
 40
10.0
  0
LINE
  5
171
100
AcDbEntity
  8
ADF70-1205
370
              15
390
0
  6
STYLE_12
 62
               7
100
AcDbLine
 10
-242.71160288752526
 20
-459.10953205107967
 30
0.0
 11
-242.71160288752526
 21
-419.10953205107967
 31
0.0
  0
LINE
  5
172
100
AcDbEntity
  8
ADF70-1205
370
              15
390
0
  6
STYLE_12
 62
               7
100
AcDbLine
 10
-222.71160288752526
 20
-439.10953205107967
 30
0.0
 11
-262.71160288752526
 21
-439.10953205107967
 31
0.0
  0
CIRCLE
  5
173
100
AcDbEntity
  8
ADF70-1205
370
              15
390
0
  6
STYLE_12
 62
               7
100
AcDbCircle
 10
-242.71160288752526
 20
-439.10953205107967
 30
0.0
 40
10.0
  0
LINE
  5
174
100
AcDbEntity
  8
ADF70-1205
370
               5
390
0
  6
Continuous
 62
               7
100
AcDbLine
 10
791.6662589295729
 20
-399.10953205107967
 30
0.0
 11
791.6662589295729
 21
-414.10953205107967
 31
0.0
  0
LINE
  5
175
100
AcDbEntity
  8
ADF70-1205
370
               5
390
0
  6
Continuous
 62
               7
100
AcDbLine
 10
756.6662589295729
 20
-399.10953205107967
 30
0.0
 11
756.6662589295729
 21
-414.10953205107967
 31
0.0
  0
LINE
  5
176
100
AcDbEntity
  8
ADF70-1205
370
               5
390
0
  6
Continuous
 62
               7
100
AcDbLine
 10
756.6662589295729
 20
-399.10953205107967
 30
0.0
 11
756.6662589295729
 21
-414.10953205107967
 31
0.0
  0
LINE
  5
177
100
AcDbEntity
  8
ADF70-1205
370
              15
390
0
  6
Continuous
 62
               7
100
AcDbLine
 10
360.97717031374668
 20
-449.10953205107967
 30
0.0
 11
839.16625892957109
 21
-449.10953205107967
 31
0.0
  0
ENDSEC
  0
SECTION
  2
OBJECTS
  0
DICTIONARY
  5
19
100
AcDbDictionary
280
               0
281
               1
  3
ACAD_GROUP
350
1A
  3
ACAD_MLINESTYLE
350
1B
  3
ACAD_LAYOUT
350
1E
  3
ACAD_PLOTSETTINGS
350
22
  3
ACAD_PLOTSTYLENAME
350
1F
  0
DICTIONARY
  5
1A
102
{ACAD_REACTORS
330
19
102
}
100
AcDbDictionary
280
               0
281
               1
  0
DICTIONARY
  5
1B
102
{ACAD_REACTORS
330
19
102
}
100
AcDbDictionary
280
               0
281
               1
  3
Standard
350
1C
  0
MLINESTYLE
  5
1C
102
{ACAD_REACTORS
330
1B
102
}
100
AcDbMlineStyle
  2
Standard
 70
               0
  3

 62
               0
 51
90.0
 52
90.0
 71
               2
 49
0.5
 62
             256
  6
ByLayer
 49
-0.5
 62
             256
  6
ByLayer
  0
ACDBDICTIONARYWDFLT
  5
1F
102
{ACAD_REACTORS
330
19
102
}
100
AcDbDictionary
281
               1
  3
Normal
350
1D
100
AcDbDictionaryWithDefault
340
1D
  0
ACDBPLACEHOLDER
  5
1D
102
{ACAD_REACTORS
330
1F
102
}
  0
LAYOUT
  5
20
102
{ACAD_REACTORS
330
1E
102
}
100
AcDbPlotSettings
  1

  2

  4

  6

 40
0.0
 41
0.0
 42
0.0
 43
0.0
 44
0.0
 45
0.0
 46
0.0
 47
0.0
 48
0.0
 49
0.0
140
0.0
141
0.0
142
1.0
143
1.0
 70
            1024
 72
               0
 73
               0
 74
               0
  7

 75
               0
147
1.0
148
0.0
149
0.0
100
AcDbLayout
  1
Model
 70
               0
 71
               0
 10
0.0
 20
0.0
 11
0.0
 21
0.0
 12
0.0
 22
0.0
 32
0.0
 14
0.0
 24
0.0
 34
0.0
 15
0.0
 25
0.0
 35
0.0
146
0.0
 13
0.0
 23
0.0
 33
0.0
 16
0.0
 26
0.0
 36
0.0
 17
0.0
 27
0.0
 37
0.0
 76
               0
330
A
331
0
345
0
346
0
  0
LAYOUT
  5
21
102
{ACAD_REACTORS
330
1E
102
}
100
AcDbPlotSettings
  1

  2

  4

  6

 40
0.0
 41
0.0
 42
0.0
 43
0.0
 44
0.0
 45
0.0
 46
0.0
 47
0.0
 48
0.0
 49
0.0
140
0.0
141
0.0
142
1.0
143
1.0
 70
               0
 72
               0
 73
               0
 74
               0
  7

 75
               0
147
1.0
148
0.0
149
0.0
100
AcDbLayout
  1
Layout1
 70
               0
 71
               0
 10
0.0
 20
0.0
 11
0.0
 21
0.0
 12
0.0
 22
0.0
 32
0.0
 14
0.0
 24
0.0
 34
0.0
 15
0.0
 25
0.0
 35
0.0
146
0.0
 13
0.0
 23
0.0
 33
0.0
 16
0.0
 26
0.0
 36
0.0
 17
0.0
 27
0.0
 37
0.0
 76
               0
330
B
331
0
345
0
346
0
  0
DICTIONARY
  5
1E
102
{ACAD_REACTORS
330
19
102
}
100
AcDbDictionary
280
               0
281
               1
  3
Layout1
350
21
  3
Model
350
20
  0
DICTIONARY
  5
22
102
{ACAD_REACTORS
330
19
102
}
100
AcDbDictionary
280
               0
281
               1
  0
ENDSEC
  0
EOF
