  0
SECTION
  2
HEADER
  9
$ACADVER
  1
AC1015
  9
$ACADMAINTVER
 70
               6
  9
$DWGCODEPAGE
  3
ANSI_932
  9
$INSBASE
 10
0.0
 20
0.0
 30
0.0
  9
$EXTMIN
 10
-975.00000000024011
 20
-1431.5255224711129
 30
-14.834305555555554
  9
$EXTMAX
 10
975.00000000024193
 20
1405.9972926412995
 30
14.834305555555554
  9
$LIMMIN
 10
0.0
 20
0.0
  9
$LIMMAX
 10
0.0
 20
0.0
  9
$ORTHOMODE
 70
               0
  9
$REGENMODE
 70
               1
  9
$FILLMODE
 70
               1
  9
$QTEXTMODE
 70
               0
  9
$MIRRTEXT
 70
               1
  9
$LTSCALE
 40
50.799999999999997
  9
$ATTMODE
 70
               1
  9
$TEXTSIZE
 40
0.2
  9
$TRACEWID
 40
1.0
  9
$TEXTSTYLE
  7
Standard
  9
$CLAYER
  8
notes
  9
$CELTYPE
  6
Continuous
  9
$CECOLOR
 62
             256
  9
$CELTSCALE
 40
1.0
  9
$DISPSILH
 70
               0
  9
$DIMSCALE
 40
1.0
  9
$DIMASZ
 40
31.75
  9
$DIMEXO
 40
0.0
  9
$DIMDLI
 40
6.9999999999999396
  9
$DIMRND
 40
0.0
  9
$DIMDLE
 40
0.0
  9
$DIMEXE
 40
19.999999999996199
  9
$DIMTP
 40
0.0
  9
$DIMTM
 40
0.0
  9
$DIMTXT
 40
24.432617187500004
  9
$DIMCEN
 40
0.0
  9
$DIMTSZ
 40
0.0
  9
$DIMTOL
 70
               0
  9
$DIMLIM
 70
               0
  9
$DIMTIH
 70
               0
  9
$DIMTOH
 70
               0
  9
$DIMSE1
 70
               0
  9
$DIMSE2
 70
               0
  9
$DIMTAD
 70
               1
  9
$DIMZIN
 70
              11
  9
$DIMBLK
  1
VW_FILLEDARROW
  9
$DIMASO
 70
               1
  9
$DIMSHO
 70
               1
  9
$DIMPOST
  1
<>
  9
$DIMAPOST
  1
[]
  9
$DIMALT
 70
               0
  9
$DIMALTD
 70
               1
  9
$DIMALTF
 40
1.0
  9
$DIMLFAC
 40
1.0
  9
$DIMTOFL
 70
               0
  9
$DIMTVP
 40
0.0
  9
$DIMTIX
 70
               1
  9
$DIMSOXD
 70
               0
  9
$DIMSAH
 70
               0
  9
$DIMBLK1
  1

  9
$DIMBLK2
  1

  9
$DIMSTYLE
  2
JIS
  9
$DIMCLRD
 70
               0
  9
$DIMCLRE
 70
               0
  9
$DIMCLRT
 70
               0
  9
$DIMTFAC
 40
1.0
  9
$DIMGAP
 40
1.00000000000108
  9
$DIMJUST
 70
               0
  9
$DIMSD1
 70
               0
  9
$DIMSD2
 70
               0
  9
$DIMTOLJ
 70
               1
  9
$DIMTZIN
 70
              11
  9
$DIMALTZ
 70
              11
  9
$DIMALTTZ
 70
              11
  9
$DIMUPT
 70
               0
  9
$DIMDEC
 70
               1
  9
$DIMTDEC
 70
               1
  9
$DIMALTU
 70
               2
  9
$DIMALTTD
 70
               2
  9
$DIMTXSTY
  7
ＭＳゴシック
  9
$DIMAUNIT
 70
               0
  9
$DIMADEC
 70
               2
  9
$DIMALTRND
 40
0.0
  9
$DIMAZIN
 70
               0
  9
$DIMDSEP
 70
              46
  9
$DIMATFIT
 70
               0
  9
$DIMFRAC
 70
               2
  9
$DIMLDRBLK
  1

  9
$DIMLUNIT
 70
               2
  9
$DIMLWD
 70
              -2
  9
$DIMLWE
 70
              -2
  9
$DIMTMOVE
 70
               0
  9
$LUNITS
 70
               2
  9
$LUPREC
 70
               4
  9
$SKETCHINC
 40
0.1
  9
$FILLETRAD
 40
0.0
  9
$AUNITS
 70
               0
  9
$AUPREC
 70
               0
  9
$MENU
  1
acad
  9
$ELEVATION
 40
0.0
  9
$PELEVATION
 40
0.0
  9
$THICKNESS
 40
0.0
  9
$LIMCHECK
 70
               0
  9
$CHAMFERA
 40
0.0
  9
$CHAMFERB
 40
0.0
  9
$CHAMFERC
 40
0.0
  9
$CHAMFERD
 40
0.0
  9
$SKPOLY
 70
               0
  9
$TDCREATE
 40
2456036.722129630
  9
$TDUCREATE
 40
0.000000000
  9
$TDUPDATE
 40
2456036.722129630
  9
$TDUUPDATE
 40
0.000000000
  9
$TDINDWG
 40
0.0000000000
  9
$TDUSRTIMER
 40
0.0000000000
  9
$USRTIMER
 70
               1
  9
$ANGBASE
 50
0.0
  9
$ANGDIR
 70
               0
  9
$PDMODE
 70
               1
  9
$PDSIZE
 40
-2.0
  9
$PLINEWID
 40
0.0
  9
$SPLFRAME
 70
               0
  9
$SPLINETYPE
 70
               6
  9
$SPLINESEGS
 70
               8
  9
$HANDSEED
  5
1D2
  9
$SURFTAB1
 70
               6
  9
$SURFTAB2
 70
               6
  9
$SURFTYPE
 70
               6
  9
$SURFU
 70
               6
  9
$SURFV
 70
               6
  9
$UCSBASE
  2

  9
$UCSNAME
  2

  9
$UCSORG
 10
0.0
 20
0.0
 30
0.0
  9
$UCSXDIR
 10
1.0
 20
0.0
 30
0.0
  9
$UCSYDIR
 10
0.0
 20
1.0
 30
0.0
  9
$UCSORTHOREF
  2

  9
$UCSORTHOVIEW
 70
               0
  9
$UCSORGTOP
 10
0.0
 20
0.0
 30
0.0
  9
$UCSORGBOTTOM
 10
0.0
 20
0.0
 30
0.0
  9
$UCSORGLEFT
 10
0.0
 20
0.0
 30
0.0
  9
$UCSORGRIGHT
 10
0.0
 20
0.0
 30
0.0
  9
$UCSORGFRONT
 10
0.0
 20
0.0
 30
0.0
  9
$UCSORGBACK
 10
0.0
 20
0.0
 30
0.0
  9
$PUCSBASE
  2

  9
$PUCSNAME
  2

  9
$PUCSORG
 10
0.0
 20
0.0
 30
0.0
  9
$PUCSXDIR
 10
1.0
 20
0.0
 30
0.0
  9
$PUCSYDIR
 10
0.0
 20
1.0
 30
0.0
  9
$PUCSORTHOREF
  2

  9
$PUCSORTHOVIEW
 70
               0
  9
$PUCSORGTOP
 10
0.0
 20
0.0
 30
0.0
  9
$PUCSORGBOTTOM
 10
0.0
 20
0.0
 30
0.0
  9
$PUCSORGLEFT
 10
0.0
 20
0.0
 30
0.0
  9
$PUCSORGRIGHT
 10
0.0
 20
0.0
 30
0.0
  9
$PUCSORGFRONT
 10
0.0
 20
0.0
 30
0.0
  9
$PUCSORGBACK
 10
0.0
 20
0.0
 30
0.0
  9
$USERI1
 70
               0
  9
$USERI2
 70
               0
  9
$USERI3
 70
               0
  9
$USERI4
 70
               0
  9
$USERI5
 70
               0
  9
$USERR1
 40
0.0
  9
$USERR2
 40
0.0
  9
$USERR3
 40
0.0
  9
$USERR4
 40
0.0
  9
$USERR5
 40
0.0
  9
$WORLDVIEW
 70
               1
  9
$SHADEDGE
 70
               3
  9
$SHADEDIF
 70
              70
  9
$TILEMODE
 70
               1
  9
$MAXACTVP
 70
              64
  9
$PINSBASE
 10
0.0
 20
0.0
 30
0.0
  9
$PLIMCHECK
 70
               0
  9
$PEXTMIN
 10
1.0000000000000000E+20
 20
1.0000000000000000E+20
 30
1.0000000000000000E+20
  9
$PEXTMAX
 10
-1.0000000000000000E+20
 20
-1.0000000000000000E+20
 30
-1.0000000000000000E+20
  9
$PLIMMIN
 10
0.0
 20
0.0
  9
$PLIMMAX
 10
12.0
 20
9.0
  9
$UNITMODE
 70
               0
  9
$VISRETAIN
 70
               0
  9
$PLINEGEN
 70
               1
  9
$PSLTSCALE
 70
               0
  9
$TREEDEPTH
 70
            3020
  9
$CMLSTYLE
  2
Standard
  9
$CMLJUST
 70
               0
  9
$CMLSCALE
 40
1.0
  9
$PROXYGRAPHICS
 70
               0
  9
$MEASUREMENT
 70
               1
  9
$CELWEIGHT
370
               0
  9
$ENDCAPS
280
               0
  9
$JOINSTYLE
280
               0
  9
$LWDISPLAY
290
               1
  9
$INSUNITS
 70
               4
  9
$HYPERLINKBASE
  1

  9
$STYLESHEET
  1

  9
$XEDIT
290
               1
  9
$CEPSNTYPE
380
               0
  9
$PSTYLEMODE
290
               1
  9
$FINGERPRINTGUID
  2

  9
$VERSIONGUID
  2

  9
$EXTNAMES
290
               1
  9
$PSVPSCALE
 40
0.0
  0
ENDSEC
  0
SECTION
  2
CLASSES
  0
CLASS
  1
LWPOLYLINE
  2
AcDbPolyline
  3
AutoCAD 2000
 90
        0
280
               0
281
               1
  0
CLASS
  1
IMAGE
  2
AcDbRasterImage
  3
ISM
 90
      127
280
               0
281
               1
  0
CLASS
  1
OLE2FRAME
  2
AcDbOle2Frame
  3
AutoCAD 2000
 90
        0
280
               0
281
               1
  0
CLASS
  1
HATCH
  2
AcDbHatch
  3
AutoCAD 2000
 90
        0
280
               0
281
               1
  0
CLASS
  1
DICTIONARYVAR
  2
AcDbDictionaryVar
  3
AutoCAD 2000
 90
        0
280
               0
281
               0
  0
CLASS
  1
RASTERVARIABLES
  2
AcDbRasterVariables
  3
ISM
 90
        0
280
               0
281
               0
  0
CLASS
  1
IMAGEDEF
  2
AcDbRasterImageDef
  3
ISM
 90
        0
280
               0
281
               0
  0
CLASS
  1
IMAGEDEF_REACTOR
  2
AcDbRasterImageDefReactor
  3
ISM
 90
        1
280
               0
281
               0
  0
CLASS
  1
IDBUFFER
  2
AcDbIdBuffer
  3
AutoCAD 2000
 90
        0
280
               0
281
               0
  0
CLASS
  1
SPATIAL_FILTER
  2
AcDbSpatialFilter
  3
AutoCAD 2000
 90
        0
280
               0
281
               0
  0
CLASS
  1
XRECORD
  2
AcDbXrecord
  3
AutoCAD 2000
 90
        0
280
               0
281
               0
  0
CLASS
  1
SORTENTSTABLE
  2
AcDbSortentsTable
  3
AutoCAD 2000
 90
        0
280
               0
281
               0
  0
CLASS
  1
LAYER_INDEX
  2
AcDbLayerIndex
  3
AutoCAD 2000
 90
        0
280
               0
281
               0
  0
CLASS
  1
SPATIAL_INDEX
  2
AcDbSpatialIndex
  3
AutoCAD 2000
 90
        0
280
               0
281
               0
  0
CLASS
  1
OBJECT_PTR
  2
CAseDLPNTableRecord
  3
"ASE-LPNTableRecord"
 90
        1
280
               0
281
               0
  0
CLASS
  1
LAYOUT
  2
AcDbLayout
  3
AutoCAD 2000
 90
        0
280
               0
281
               0
  0
CLASS
  1
PLOTSETTINGS
  2
AcDbPlotSettings
  3
AutoCAD 2000
 90
        0
280
               0
281
               0
  0
CLASS
  1
ACDBDICTIONARYWDFLT
  2
AcDbDictionaryWithDefault
  3
AutoCAD 2000
 90
        0
280
               0
281
               0
  0
CLASS
  1
ACDBPLACEHOLDER
  2
AcDbPlaceHolder
  3
AutoCAD 2000
 90
        0
280
               0
281
               0
  0
ENDSEC
  0
SECTION
  2
TABLES
  0
TABLE
  2
VPORT
  5
7
100
AcDbSymbolTable
 70
               1
  0
VPORT
  5
15
100
AcDbSymbolTableRecord
100
AcDbViewportTableRecord
  2
*ACTIVE
 70
               0
 10
0.0
 20
0.0
 11
1.0
 21
1.0
 12
0.0000000000009095
 22
-12.764114914906713
 13
0.0
 23
0.0
 14
1.0
 24
1.0
 15
0.0
 25
0.0
 16
0.0
 26
0.0
 36
1.0
 17
0.0
 27
0.0
 37
0.0
 40
2837.5228151124124
 41
0.688564
 42
50.0
 43
0.0
 44
0.0
 50
0.0
 51
0.0
 71
               0
 72
            2000
 73
               1
 74
               1
 75
               0
 76
               0
 77
               0
 78
               0
281
               0
 65
               0
110
0.0
120
0.0
130
0.0
111
1.0
121
0.0
131
0.0
112
0.0
122
1.0
132
0.0
345
0
346
0
 79
               0
146
0.0
  0
ENDTAB
  0
TABLE
  2
LTYPE
  5
4
100
AcDbSymbolTable
 70
              15
  0
LTYPE
  5
11
100
AcDbSymbolTableRecord
100
AcDbLinetypeTableRecord
  2
ByBlock
 70
              64
  3

 72
              65
 73
               0
 40
0.0
  0
LTYPE
  5
12
100
AcDbSymbolTableRecord
100
AcDbLinetypeTableRecord
  2
ByLayer
 70
              64
  3

 72
              65
 73
               0
 40
0.0
  0
LTYPE
  5
13
100
AcDbSymbolTableRecord
100
AcDbLinetypeTableRecord
  2
Continuous
 70
              64
  3
Solid line
 72
              65
 73
               0
 40
0.0
  0
LTYPE
  5
3A
100
AcDbSymbolTableRecord
100
AcDbLinetypeTableRecord
  2
STYLE_01
 70
               0
  3

 72
              65
 73
               2
 40
9.375
 49
6.25
 74
               0
 49
-3.125
 74
               0
  0
LTYPE
  5
3B
100
AcDbSymbolTableRecord
100
AcDbLinetypeTableRecord
  2
STYLE_02
 70
               0
  3

 72
              65
 73
               4
 40
0.984251968503937
 49
0.4921259842519685
 74
               0
 49
-0.2460629921259843
 74
               0
 49
0.0004999999999999
 74
               0
 49
-0.2455629921259843
 74
               0
  0
LTYPE
  5
3C
100
AcDbSymbolTableRecord
100
AcDbLinetypeTableRecord
  2
STYLE_03
 70
               0
  3

 72
              65
 73
               2
 40
1.25
 49
1.0416400000000001
 74
               0
 49
-0.2083599999999999
 74
               0
  0
LTYPE
  5
3D
100
AcDbSymbolTableRecord
100
AcDbLinetypeTableRecord
  2
STYLE_04
 70
               0
  3

 72
              65
 73
               2
 40
1.5277099999999999
 49
1.3194249999999998
 74
               0
 49
-0.208285
 74
               0
  0
LTYPE
  5
3E
100
AcDbSymbolTableRecord
100
AcDbLinetypeTableRecord
  2
STYLE_05
 70
               0
  3

 72
              65
 73
               2
 40
0.20828
 49
0.069425
 74
               0
 49
-0.138855
 74
               0
  0
LTYPE
  5
3F
100
AcDbSymbolTableRecord
100
AcDbLinetypeTableRecord
  2
STYLE_06
 70
               0
  3

 72
              65
 73
               4
 40
1.0416400000000001
 49
0.625
 74
               0
 49
-0.20828
 74
               0
 49
0.06943
 74
               0
 49
-0.13893
 74
               0
  0
LTYPE
  5
40
100
AcDbSymbolTableRecord
100
AcDbLinetypeTableRecord
  2
STYLE_07
 70
               0
  3

 72
              65
 73
               6
 40
1.875
 49
0.625
 74
               0
 49
-0.20828
 74
               0
 49
0.6250000000000001
 74
               0
 49
-0.2083599999999999
 74
               0
 49
0.06943
 74
               0
 49
-0.1389299999999999
 74
               0
  0
LTYPE
  5
41
100
AcDbSymbolTableRecord
100
AcDbLinetypeTableRecord
  2
STYLE_08
 70
               0
  3

 72
              65
 73
               6
 40
1.25
 49
0.625
 74
               0
 49
-0.20828
 74
               0
 49
0.06943
 74
               0
 49
-0.13893
 74
               0
 49
0.0694299999999999
 74
               0
 49
-0.13893
 74
               0
  0
LTYPE
  5
42
100
AcDbSymbolTableRecord
100
AcDbLinetypeTableRecord
  2
STYLE_09
 70
               0
  3

 72
              65
 73
               4
 40
5.0
 49
3.75
 74
               0
 49
-0.2777849999999998
 74
               0
 49
0.6944300000000003
 74
               0
 49
-0.2777849999999998
 74
               0
  0
LTYPE
  5
43
100
AcDbSymbolTableRecord
100
AcDbLinetypeTableRecord
  2
STYLE_10
 70
               0
  3

 72
              65
 73
               6
 40
5.9375
 49
3.75
 74
               0
 49
-0.2777849999999998
 74
               0
 49
0.6944300000000003
 74
               0
 49
-0.2777849999999998
 74
               0
 49
0.625
 74
               0
 49
-0.3125
 74
               0
  0
LTYPE
  5
44
100
AcDbSymbolTableRecord
100
AcDbLinetypeTableRecord
  2
STYLE_11
 70
               0
  3

 72
              65
 73
               2
 40
0.0694444881889764
 49
0.0347222440944882
 74
               0
 49
-0.0347222440944882
 74
               0
  0
LTYPE
  5
45
100
AcDbSymbolTableRecord
100
AcDbLinetypeTableRecord
  2
STYLE_12
 70
               0
  3

 72
              65
 73
               2
 40
0.3937007874015748
 49
0.1968503937007874
 74
               0
 49
-0.1968503937007874
 74
               0
  0
ENDTAB
  0
TABLE
  2
LAYER
  5
2
100
AcDbSymbolTable
 70
               5
  0
LAYER
  5
14
100
AcDbSymbolTableRecord
100
AcDbLayerTableRecord
  2
0
 70
               0
 62
               7
  6
Continuous
290
               1
370
              -3
390
1D
  0
LAYER
  5
46
100
AcDbSymbolTableRecord
100
AcDbLayerTableRecord
  2
Defpoints
 70
               0
 62
               7
  6
Continuous
290
               0
370
              -3
390
1D
  0
LAYER
  5
47
100
AcDbSymbolTableRecord
100
AcDbLayerTableRecord
  2
template
 70
               0
 62
               7
  6
Continuous
290
               1
370
              -3
390
1D
  0
LAYER
  5
48
100
AcDbSymbolTableRecord
100
AcDbLayerTableRecord
  2
notes
 70
               0
 62
               7
  6
Continuous
290
               1
370
              -3
390
1D
  0
LAYER
  5
49
100
AcDbSymbolTableRecord
100
AcDbLayerTableRecord
  2
ADF70-1303
 70
               0
 62
               7
  6
Continuous
290
               1
370
              -3
390
1D
  0
ENDTAB
  0
TABLE
  2
STYLE
  5
3
100
AcDbSymbolTable
 70
               3
  0
STYLE
  5
17
100
AcDbSymbolTableRecord
100
AcDbTextStyleTableRecord
  2
Standard
 70
               0
 40
0.0
 41
1.0
 50
0.0
 71
               0
 42
0.0
  3
txt
  4
BIGFONT.SHX
  0
STYLE
  5
38
100
AcDbSymbolTableRecord
100
AcDbTextStyleTableRecord
  2
ＭＳ ゴシック
 70
               0
 40
0.0
 41
1.0
 50
0.0
 71
               0
 42
0.0
  3

  4
ＭＳ ゴシック
1001
ACAD
1000
ＭＳ ゴシック
1071
        0
  0
STYLE
  5
39
100
AcDbSymbolTableRecord
100
AcDbTextStyleTableRecord
  2
ＭＳゴシック
 70
               0
 40
0.0
 41
1.0
 50
0.0
 71
               0
 42
0.0
  3

  4
ＭＳゴシック
1001
ACAD
1000
ＭＳゴシック
1071
        0
  0
ENDTAB
  0
TABLE
  2
VIEW
  5
5
100
AcDbSymbolTable
 70
               0
  0
ENDTAB
  0
TABLE
  2
UCS
  5
6
100
AcDbSymbolTable
 70
               0
  0
ENDTAB
  0
TABLE
  2
APPID
  5
8
100
AcDbSymbolTable
 70
               1
  0
APPID
  5
16
100
AcDbSymbolTableRecord
100
AcDbRegAppTableRecord
  2
ACAD
 70
               0
  0
ENDTAB
  0
TABLE
  2
DIMSTYLE
  5
9
100
AcDbSymbolTable
 70
               3
100
AcDbDimStyleTable
 71
               0
  0
DIMSTYLE
105
18
100
AcDbSymbolTableRecord
100
AcDbDimStyleTableRecord
  2
Standard
 70
               0
  3

  4

 40
1.0
 41
0.18
 42
0.0625
 43
0.38
 44
0.18
 45
0.0
 46
0.0
 47
0.0
 48
0.0
 71
               0
 72
               0
 73
               1
 74
               1
 75
               0
 76
               0
 77
               0
 78
               0
 79
               0
140
0.18
141
0.09
142
0.0
143
25.399999999999999
144
1.0
145
0.0
146
1.0
147
0.09
148
0.0
170
               0
171
               2
172
               0
173
               0
174
               0
175
               0
176
               0
177
               0
178
               0
179
               0
271
               4
272
               4
273
               2
274
               2
275
               0
276
               0
277
               2
278
              46
279
               0
280
               0
281
               0
282
               0
283
               1
284
               0
285
               0
286
               0
288
               0
289
               3
340
17
341
0
342
0
343
0
344
0
371
              -2
372
              -2
  0
DIMSTYLE
105
52
100
AcDbSymbolTableRecord
100
AcDbDimStyleTableRecord
  2
tform線あり
 70
               0
  3
<>
  4
[]
 40
1.0
 41
9.9993896484374982
 42
24.999999999999996
 43
0.9999999999999999
 44
0.0
 45
0.0
 46
0.0
 47
0.0
 48
0.0
 71
               0
 72
               0
 73
               0
 74
               0
 75
               0
 76
               0
 77
               1
 78
              11
 79
               0
140
24.432617187500004
141
0.0
142
0.0
143
1.0
144
1.0
145
0.0
146
1.0
147
0.4999999999999999
148
0.0
170
               0
171
               1
172
               0
173
               0
174
               1
175
               0
176
               0
177
               0
178
               0
179
               2
271
               1
272
               1
273
               2
274
               2
275
               0
276
               2
277
               2
278
              46
279
               0
280
               0
281
               0
282
               0
283
               1
284
              11
285
              11
286
              11
288
               0
289
               0
340
39
341
4A
342
4A
343
0
344
0
371
              -2
372
              -2
  0
DIMSTYLE
105
57
100
AcDbSymbolTableRecord
100
AcDbDimStyleTableRecord
  2
JIS
 70
               0
  3
<>
  4
[]
 40
1.0
 41
31.75
 42
0.0
 43
6.9999999999999396
 44
19.999999999996199
 45
0.0
 46
0.0
 47
0.0
 48
0.0
 71
               0
 72
               0
 73
               0
 74
               0
 75
               0
 76
               0
 77
               1
 78
              11
 79
               0
140
24.432617187500004
141
0.0
142
0.0
143
1.0
144
1.0
145
0.0
146
1.0
147
1.00000000000108
148
0.0
170
               0
171
               1
172
               0
173
               0
174
               1
175
               0
176
               0
177
               0
178
               0
179
               2
271
               1
272
               1
273
               2
274
               2
275
               0
276
               2
277
               2
278
              46
279
               0
280
               0
281
               0
282
               0
283
               1
284
              11
285
              11
286
              11
288
               0
289
               0
340
39
341
53
342
53
343
0
344
0
371
              -2
372
              -2
  0
ENDTAB
  0
TABLE
  2
BLOCK_RECORD
  5
1
100
AcDbSymbolTable
 70
              23
  0
BLOCK_RECORD
  5
A
100
AcDbSymbolTableRecord
100
AcDbBlockTableRecord
  2
*MODEL_SPACE
340
20
  0
BLOCK_RECORD
  5
B
100
AcDbSymbolTableRecord
100
AcDbBlockTableRecord
  2
*PAPER_SPACE
340
21
  0
BLOCK_RECORD
  5
4A
100
AcDbSymbolTableRecord
100
AcDbBlockTableRecord
  2
_DOT
340
0
  0
BLOCK_RECORD
  5
53
100
AcDbSymbolTableRecord
100
AcDbBlockTableRecord
  2
VW_FILLEDARROW
340
0
  0
BLOCK_RECORD
  5
23
100
AcDbSymbolTableRecord
100
AcDbBlockTableRecord
  2
グループ
340
0
102
{BLKREFS
331
15E
102
}
  0
BLOCK_RECORD
  5
24
100
AcDbSymbolTableRecord
100
AcDbBlockTableRecord
  2
*D3
340
0
  0
BLOCK_RECORD
  5
25
100
AcDbSymbolTableRecord
100
AcDbBlockTableRecord
  2
*D4
340
0
  0
BLOCK_RECORD
  5
26
100
AcDbSymbolTableRecord
100
AcDbBlockTableRecord
  2
*D5
340
0
  0
BLOCK_RECORD
  5
27
100
AcDbSymbolTableRecord
100
AcDbBlockTableRecord
  2
*D6
340
0
  0
BLOCK_RECORD
  5
28
100
AcDbSymbolTableRecord
100
AcDbBlockTableRecord
  2
*D7
340
0
  0
BLOCK_RECORD
  5
29
100
AcDbSymbolTableRecord
100
AcDbBlockTableRecord
  2
*D8
340
0
  0
BLOCK_RECORD
  5
2A
100
AcDbSymbolTableRecord
100
AcDbBlockTableRecord
  2
*D9
340
0
  0
BLOCK_RECORD
  5
2B
100
AcDbSymbolTableRecord
100
AcDbBlockTableRecord
  2
*D10
340
0
  0
BLOCK_RECORD
  5
2C
100
AcDbSymbolTableRecord
100
AcDbBlockTableRecord
  2
*D11
340
0
  0
BLOCK_RECORD
  5
2D
100
AcDbSymbolTableRecord
100
AcDbBlockTableRecord
  2
*D12
340
0
  0
BLOCK_RECORD
  5
2E
100
AcDbSymbolTableRecord
100
AcDbBlockTableRecord
  2
*D13
340
0
  0
BLOCK_RECORD
  5
2F
100
AcDbSymbolTableRecord
100
AcDbBlockTableRecord
  2
*D14
340
0
  0
BLOCK_RECORD
  5
30
100
AcDbSymbolTableRecord
100
AcDbBlockTableRecord
  2
*D15
340
0
  0
BLOCK_RECORD
  5
31
100
AcDbSymbolTableRecord
100
AcDbBlockTableRecord
  2
*D16
340
0
  0
BLOCK_RECORD
  5
32
100
AcDbSymbolTableRecord
100
AcDbBlockTableRecord
  2
*D17
340
0
  0
BLOCK_RECORD
  5
33
100
AcDbSymbolTableRecord
100
AcDbBlockTableRecord
  2
*D18
340
0
  0
BLOCK_RECORD
  5
34
100
AcDbSymbolTableRecord
100
AcDbBlockTableRecord
  2
*D19
340
0
  0
BLOCK_RECORD
  5
35
100
AcDbSymbolTableRecord
100
AcDbBlockTableRecord
  2
グループ-1
340
0
102
{BLKREFS
331
181
102
}
  0
BLOCK_RECORD
  5
36
100
AcDbSymbolTableRecord
100
AcDbBlockTableRecord
  2
*D21
340
0
  0
BLOCK_RECORD
  5
37
100
AcDbSymbolTableRecord
100
AcDbBlockTableRecord
  2
グループ-2
340
0
102
{BLKREFS
331
1C6
102
}
  0
ENDTAB
  0
ENDSEC
  0
SECTION
  2
BLOCKS
  0
BLOCK
  5
D
100
AcDbEntity
  8
0
390
0
100
AcDbBlockBegin
  2
*MODEL_SPACE
 70
               0
 10
0.0
 20
0.0
 30
0.0
  3
*MODEL_SPACE
  1

  0
ENDBLK
  5
E
100
AcDbEntity
  8
0
390
0
100
AcDbBlockEnd
  0
BLOCK
  5
F
100
AcDbEntity
 67
               1
  8
0
390
0
100
AcDbBlockBegin
  2
*PAPER_SPACE
 70
               0
 10
0.0
 20
0.0
 30
0.0
  3
*PAPER_SPACE
  1

  0
ENDBLK
  5
10
100
AcDbEntity
 67
               1
  8
0
390
0
100
AcDbBlockEnd
  0
BLOCK
  5
4B
100
AcDbEntity
  8
0
390
0
100
AcDbBlockBegin
  2
_DOT
 70
               0
 10
0.0
 20
0.0
 30
0.0
  3
_DOT
  1

  0
POLYLINE
  5
4C
100
AcDbEntity
  8
0
370
              -2
390
0
  6
ByBlock
 62
               0
100
AcDb2dPolyline
 66
               1
 10
0.0
 20
0.0
 30
0.0
 70
               1
 40
0.5
 41
0.5
  0
VERTEX
  5
4D
100
AcDbEntity
  8
0
370
              -2
390
0
  6
ByBlock
 62
               0
100
AcDbVertex
100
AcDb2dVertex
 10
-0.25
 20
0.0
 30
0.0
 42
1.0
  0
VERTEX
  5
4E
100
AcDbEntity
  8
0
370
              -2
390
0
  6
ByBlock
 62
               0
100
AcDbVertex
100
AcDb2dVertex
 10
0.25
 20
0.0
 30
0.0
 42
1.0
  0
SEQEND
  5
4F
100
AcDbEntity
  8
0
390
0
  0
LINE
  5
50
100
AcDbEntity
  8
0
370
              -2
390
0
  6
ByBlock
 62
               0
100
AcDbLine
 10
-0.5
 20
0.0
 30
0.0
 11
-1.0
 21
0.0
 31
0.0
  0
ENDBLK
  5
51
100
AcDbEntity
  8
0
390
0
100
AcDbBlockEnd
  0
BLOCK
  5
54
100
AcDbEntity
  8
0
370
              -2
390
0
  6
ByBlock
 62
               0
100
AcDbBlockBegin
  2
VW_FILLEDARROW
 70
               0
 10
0.0
 20
0.0
 30
0.0
  3
VW_FILLEDARROW
  1

  0
SOLID
  5
55
100
AcDbEntity
  8
0
370
              -2
390
0
 62
               0
100
AcDbTrace
 10
0.0
 20
0.0
 30
0.0
 11
-0.9921874999999999
 21
-0.2658558393652545
 31
0.0
 12
-0.9921874999999999
 22
0.2658558393652548
 32
0.0
 13
-0.9921874999999999
 23
0.2658558393652548
 33
0.0
  0
ENDBLK
  5
56
100
AcDbEntity
  8
0
390
0
100
AcDbBlockEnd
  0
BLOCK
  5
58
100
AcDbEntity
  8
template
390
0
100
AcDbBlockBegin
  2
グループ
 70
               0
 10
0.0
 20
0.0
 30
0.0
  3
グループ
  1

  0
LWPOLYLINE
  5
59
100
AcDbEntity
  8
0
370
              15
390
0
  6
Continuous
 62
               7
100
AcDbPolyline
 90
        8
 70
             129
 10
-16026.554563603515
 20
498.17187555665009
 10
-16026.554563603515
 20
492.17448686307421
 10
-16036.055760521518
 20
492.17448686307421
 10
-16036.055760521518
 20
467.7235235995654
 10
-16044.411137783301
 20
467.7235235995654
 10
-16044.411137783301
 20
492.17448686307421
 10
-16053.744094729611
 20
492.17448686307421
 10
-16053.744094729611
 20
498.17187555665009
  0
LWPOLYLINE
  5
5A
100
AcDbEntity
  8
0
370
              15
390
0
  6
Continuous
 62
               7
100
AcDbPolyline
 90
      101
 70
             128
 10
-16013.826271772958
 20
497.44362706371362
 10
-16013.810921744178
 20
497.44798782039709
 42
-0.0222221607823259
 10
-16013.520917167501
 20
497.5166122856433
 10
-16013.505123403504
 20
497.51961570874101
 42
-0.0146883565619776
 10
-16013.242420698283
 20
497.56161889568966
 42
-0.0127458844175928
 10
-16012.977781731139
 20
497.58915586376162
 10
-16012.915326652819
 20
497.59404928635036
 42
-0.0198099018567486
 10
-16012.524477543337
 20
497.609134443747
 10
-16012.472666073898
 20
497.6090806680819
 42
-0.0147617382765561
 10
-16011.978042612927
 20
497.59396064283709
 10
-16011.90535115805
 20
497.5895880359493
 42
-0.0162624548991577
 10
-16011.515197528584
 20
497.55335516067703
 10
-16011.393665137306
 20
497.53806860167794
 42
-0.0080020874653092
 10
-16011.248086106232
 20
497.51738575441209
 10
-16011.20976663566
 20
497.51131447660464
 42
-0.0053821929643491
 10
-16011.141282530323
 20
497.49970695277943
 10
-16011.867688229522
 20
495.31877849706552
 42
0.0108667757349401
 10
-16011.935005299656
 20
495.33196561228579
 10
-16011.972473322843
 20
495.33846335487988
 42
0.0170663203328923
 10
-16012.115690109758
 20
495.35829295217161
 10
-16012.183565442441
 20
495.36534012275911
 42
0.0220162375247952
 10
-16012.463944850291
 20
495.38202248352917
 10
-16012.541800417344
 20
495.38322185079568
 42
0.0282606915758944
 10
-16012.877436740928
 20
495.36941857382669
 10
-16012.921350014714
 20
495.36511858382153
 42
0.0169677213662734
 10
-16013.167274509658
 20
495.33258153427107
 42
0.0190576269849119
 10
-16013.410182472255
 20
495.28243466216071
 10
-16013.416441660349
 20
495.28089168805536
 42
0.0213685642897269
 10
-16013.666826144825
 20
495.2076914029505
 10
-16013.672316039741
 20
495.20582840689156
 42
0.0237595297593277
 10
-16013.925810924642
 20
495.10614388499533
 10
-16013.93091299867
 20
495.10385210951779
 42
0.0261857468825858
 10
-16014.183083774909
 20
494.97431577213831
 10
-16014.193509964003
 20
494.96825029766637
 42
0.0272553062054684
 10
-16014.429939739226
 20
494.81287809173057
 10
-16014.464702752754
 20
494.78721694362559
 42
0.0325996893172378
 10
-16014.614858096387
 20
494.66046907066698
 10
-16014.638567525517
 20
494.6376510421477
 42
0.013805096068765
 10
-16014.73045068172
 20
494.54420138060243
 42
0.0125280103797361
 10
-16014.817293214508
 20
494.44603805405683
 10
-16014.840973659462
 20
494.41787955581503
 42
0.0205218024721624
 10
-16014.96607373498
 20
494.25608624157758
 10
-16014.988540075463
 20
494.22442651175902
 42
0.0163110129597832
 10
-16015.144250454727
 20
493.98909607666866
 10
-16015.146974350766
 20
493.98467231470363
 42
0.0131897341919573
 10
-16015.293774871696
 20
493.7315402222963
 10
-16015.295474967039
 20
493.72842198320348
 42
0.0107895576035164
 10
-16015.433251669274
 20
493.46220677352005
 10
-16015.433984558775
 20
493.4607125409218
 42
0.0091371507231204
 10
-16015.562464507466
 20
493.18618734306881
 10
-16015.592210138833
 20
493.11948083600339
 42
0.0135418326374809
 10
-16015.763924077934
 20
492.70454305065971
 10
-16015.797528886309
 20
492.61667690853363
 42
0.0092834542393689
 10
-16015.968757946259
 20
492.14277841014803
 10
-16015.994375073975
 20
492.06753734035971
 42
0.0054261043604897
 10
-16016.102013222269
 20
491.73977336728956
 10
-16016.119539208603
 20
491.6843852045651
 42
0.0008225090864595
 10
-16016.188209260277
 20
491.46611644691029
 10
-16017.172898392211
 20
488.4412251536537
 10
-16013.940274552137
 20
488.4412251536537
 10
-16014.44446698199
 20
486.53674685530132
 10
-16017.700523263973
 20
486.53674685530132
 10
-16023.529672296328
 20
467.72352378929645
 10
-16025.354769906638
 20
467.72352378929645
 10
-16019.520091871136
 20
486.53674685530132
 10
-16021.925208240178
 20
486.53674685530132
 10
-16021.421015810323
 20
488.4412251536537
 10
-16018.992466999374
 20
488.4412251536537
 10
-16018.132312081185
 20
491.0776381543526
 42
-0.0005863560563283
 10
-16018.095577402626
 20
491.194464575773
 10
-16018.01948956932
 20
491.4354568740298
 42
-0.0087522378964648
 10
-16017.820021425905
 20
492.03073296105805
 10
-16017.72775715046
 20
492.29087312965999
 42
-0.0077400953837826
 10
-16017.469823491319
 20
492.98387780723749
 10
-16017.454058519717
 20
493.02430869068121
 42
-0.008236994633495
 10
-16017.206974049128
 20
493.62838775681928
 42
-0.0085725238368804
 10
-16016.939727953146
 20
494.22381379606639
 10
-16016.838098352122
 20
494.44023489808552
 42
-0.0168109410598549
 10
-16016.551153923388
 20
495.00144242419583
 10
-16016.425310532748
 20
495.22840645752098
 42
-0.0007817726799624
 10
-16016.371026182873
 20
495.3259507022243
 10
-16016.37089787681
 20
495.32618041104354
 42
-0.0036626142173323
 10
-16016.316010012833
 20
495.42277829092927
 42
-0.0080221150693695
 10
-16016.258885757437
 20
495.51805752566599
 10
-16016.228185806067
 20
495.56744847480434
 42
-0.0202139325617252
 10
-16016.100530066282
 20
495.75543007545474
 10
-16016.046462601073
 20
495.82850893972659
 42
-0.0249323791808446
 10
-16015.787299807358
 20
496.14455418187288
 10
-16015.763159993225
 20
496.17116845479347
 42
-0.0242132121532432
 10
-16015.423479251673
 20
496.51105194100796
 10
-16015.375567678921
 20
496.5545610771951
 42
-0.025101752785338
 10
-16015.091585978293
 20
496.78755382294833
 10
-16015.090140501523
 20
496.7886230804952
 42
-0.0130868069067291
 10
-16014.79187985152
 20
496.99740354906976
 10
-16014.790318032385
 20
496.99843698933967
 42
-0.0290329526421478
 10
-16014.479206890985
 20
497.17926249097411
 10
-16014.449361329009
 20
497.19436487380909
 42
-0.0160250190063748
 10
-16014.183456915234
 20
497.31838098402693
 42
-0.0267600374797917
 10
-16013.908180837763
 20
497.41912930457607
 10
-16013.881444918245
 20
497.42732186340118
 42
-0.0049981587637384
 10
-16013.826271772958
 20
497.44362706371362
 42
-0.0049981587637384
  0
LWPOLYLINE
  5
5B
100
AcDbEntity
  8
0
370
              15
390
0
  6
Continuous
 62
               7
100
AcDbPolyline
 90
      118
 70
             128
 10
-15994.011904208512
 20
488.36724182582634
 10
-15992.136782284011
 20
488.36724182582634
 10
-15992.974821189611
 20
485.68567529942629
 42
-0.001058722913107
 10
-15992.94336537394
 20
485.72257983290052
 10
-15992.885171283408
 20
485.79056208895736
 42
-0.007187474036153
 10
-15992.734796065302
 20
485.96120278099477
 10
-15992.593073292046
 20
486.11743892229958
 42
-0.014811805351098
 10
-15992.142943999284
 20
486.58505276836092
 10
-15992.055721664421
 20
486.67045008917677
 42
-0.0086273358690538
 10
-15991.720172863425
 20
486.9878257231826
 10
-15991.676339147187
 20
487.02787536752618
 42
-0.010313832311798
 10
-15991.418315444966
 20
487.25403850485395
 10
-15991.372541038685
 20
487.2925205520761
 42
-0.0060206748562302
 10
-15991.199692974526
 20
487.43431520286856
 10
-15991.19766184364
 20
487.43594090849905
 42
-0.0067069027329158
 10
-15991.025369028977
 20
487.57009154229479
 10
-15991.022820263037
 20
487.57202171218057
 42
-0.0076184352064283
 10
-15990.85191499718
 20
487.69739658741389
 42
-0.0089652861622834
 10
-15990.676954034394
 20
487.81702984778093
 10
-15990.640602314306
 20
487.84094106122586
 42
-0.0156916245961939
 10
-15990.444642817141
 20
487.9612035477038
 42
-0.002329901106737
 10
-15990.244380773214
 20
488.07438148721491
 10
-15990.228996640781
 20
488.08298148230938
 42
-0.0107669341533178
 10
-15989.994759815707
 20
488.20738161564543
 10
-15989.972495014605
 20
488.21859836560884
 42
-0.0078058045902372
 10
-15989.688904896584
 20
488.35595982127904
 10
-15989.678997808944
 20
488.36056894911576
 42
-0.0181829330504842
 10
-15989.368688404331
 20
488.49143269020993
 10
-15989.314632961752
 20
488.51194781015801
 42
-0.0208411536044466
 10
-15988.96554799431
 20
488.62803827264804
 10
-15988.951191894175
 20
488.63215671760378
 42
-0.0222799817136877
 10
-15988.622472100265
 20
488.71079828374184
 10
-15988.613583137032
 20
488.71251029432608
 42
-0.0215509523888826
 10
-15988.297112168748
 20
488.75942598286122
 10
-15988.254630207699
 20
488.76386350965208
 42
-0.0182545924844316
 10
-15988.020521428394
 20
488.77970733504299
 10
-15987.981120412052
 20
488.78093188012207
 42
-0.007296285652505
 10
-15987.825197532358
 20
488.78350120864434
 10
-15987.796097861787
 20
488.78355604404805
 42
-0.0059227516355374
 10
-15987.698348362641
 20
488.78258233225768
 10
-15987.669106145155
 20
488.78194456565404
 42
-0.0011833111712036
 10
-15987.629854861436
 20
488.7809955613443
 10
-15988.425241457044
 20
486.24226161624529
 42
0.0143932051075375
 10
-15988.45164283938
 20
486.25246058628619
 10
-15988.45891481181
 20
486.25503180514795
 42
0.0234388603316617
 10
-15988.50074567774
 20
486.26765104086269
 10
-15988.509427340656
 20
486.26983200286827
 42
0.0199162742968597
 10
-15988.569716174739
 20
486.28244873820387
 10
-15988.590530112542
 20
486.28594593763182
 42
0.0293643550718456
 10
-15988.693604971306
 20
486.2970959832852
 10
-15988.718290152021
 20
486.29830760030359
 42
0.0214606686840582
 10
-15988.87143106797
 20
486.29924616072117
 10
-15988.880802978792
 20
486.29890124917677
 42
0.0167564054177252
 10
-15989.052323169915
 20
486.28682420680741
 10
-15989.060782962661
 20
486.28594286638156
 42
0.013767755326484
 10
-15989.248136275919
 20
486.26119355783874
 10
-15989.255488015431
 20
486.26001563787008
 42
0.0118497261494195
 10
-15989.455985779528
 20
486.222998287682
 10
-15989.46213578678
 20
486.22171142496086
 42
0.0106421143942888
 10
-15989.673016674076
 20
486.17287904938308
 10
-15989.677925482454
 20
486.17163170670096
 42
0.0099746379693523
 10
-15989.896383951605
 20
486.1114571783898
 10
-15989.957931991787
 20
486.09317529975556
 42
0.0191613675874224
 10
-15990.293916454304
 20
485.9791979194685
 10
-15990.38197622705
 20
485.94551100914367
 42
0.0205274080138511
 10
-15990.76728299895
 20
485.77968260131797
 10
-15990.824932280933
 20
485.75201463674449
 42
0.0181256912219558
 10
-15991.083209221597
 20
485.61633081776779
 10
-15991.136164604919
 20
485.58601320454795
 42
0.0140709242421232
 10
-15991.281119539541
 20
485.49751853111866
 10
-15991.307368408205
 20
485.48046171237411
 42
0.0086667884382589
 10
-15991.396294569702
 20
485.42045904452038
 42
0.0036408191927129
 10
-15991.483727807594
 20
485.3582781868289
 10
-15991.518954682204
 20
485.33283724081525
 42
0.0052260781250916
 10
-15991.675183379588
 20
485.21750485418602
 10
-15991.691390235854
 20
485.20527674356288
 42
0.0050024435933816
 10
-15991.877393578869
 20
485.06199417533554
 10
-15991.892711735429
 20
485.04994815285488
 42
0.0136138710302116
 10
-15992.103153003744
 20
484.87498164795079
 10
-15992.136820879547
 20
484.84540267522732
 42
0.0172815186905777
 10
-15992.401224421206
 20
484.59640600260775
 10
-15992.403786767052
 20
484.59382018545682
 42
0.0189403857979495
 10
-15992.654368565616
 20
484.3210149206692
 10
-15992.687000059181
 20
484.28267098913909
 42
0.0185044199524655
 10
-15992.878956498147
 20
484.03942240803246
 42
0.0088565243915911
 10
-15993.057416604739
 20
483.78590598793329
 10
-15993.066594584423
 20
483.77236460812242
 42
0.015719534726377
 10
-15993.249815190793
 20
483.48284239874744
 10
-15993.295898132659
 20
483.40469020183781
 42
0.0095451879761184
 10
-15993.460983682828
 20
483.11209555942935
 10
-15993.472131601786
 20
483.09142488724302
 42
0.0100351706257361
 10
-15993.604175350916
 20
482.83436932680661
 42
0.0086935915391353
 10
-15993.726506502702
 20
482.57253618141954
 10
-15993.729827244124
 20
482.56509385843037
 42
0.0072580174888098
 10
-15993.850173696123
 20
482.2845018667204
 10
-15993.853435329376
 20
482.27658184082941
 42
0.0060005122579868
 10
-15993.972635997654
 20
481.97697217039087
 10
-15993.97584697606
 20
481.9686106423195
 42
0.0049017786993976
 10
-15994.09474713495
 20
481.64968166162538
 10
-15994.097912941308
 20
481.64092872448475
 42
0.003941516765709
 10
-15994.217349219447
 20
481.30238666182697
 10
-15994.220480322016
 20
481.29328346119541
 42
0.0031035838778178
 10
-15994.34128510779
 20
480.93484359917954
 10
-15994.34439515224
 20
480.9254229780471
 42
0.0025070747143906
 10
-15994.467296503472
 20
480.54677576136783
 10
-15994.504590399982
 20
480.42988409585018
 42
0.002908191026861
 10
-15994.696608697703
 20
479.81572043785042
 10
-15994.73741186631
 20
479.68249719528262
 42
0.0009266453741775
 10
-15995.005829240901
 20
478.80027273443881
 10
-15995.026716712535
 20
478.73116085853826
 42
-0.0005809993687208
 10
-15995.304053393855
 20
477.81735274948426
 10
-15995.37033519213
 20
477.59986781731959
 42
-0.0012018708188759
 10
-15995.517319501558
 20
477.12170515280388
 10
-15995.56963935382
 20
476.95294600969817
 42
-0.0002691059568489
 10
-15995.613208834291
 20
476.81267839159614
 10
-15998.446164732581
 20
467.72352378929645
 10
-16000.264153624559
 20
467.72352378929645
 10
-15994.011904208512
 20
488.36724182582634
  0
SPLINE
  5
5C
100
AcDbEntity
  8
0
370
              15
390
0
  6
Continuous
 62
               7
100
AcDbSpline
210
0.0
220
0.0
230
1.0
 70
              13
 71
               2
 72
             782
 73
             779
 74
               0
 42
0.000001
 43
0.000001
 40
0.0
 40
0.0
 40
0.0
 40
1.0
 40
1.0
 40
2.0
 40
2.0
 40
3.0
 40
3.0
 40
4.0
 40
4.0
 40
5.0
 40
5.0
 40
6.0
 40
6.0
 40
7.0
 40
7.0
 40
8.0
 40
8.0
 40
9.0
 40
9.0
 40
10.0
 40
10.0
 40
11.0
 40
11.0
 40
12.0
 40
12.0
 40
13.0
 40
13.0
 40
14.0
 40
14.0
 40
15.0
 40
15.0
 40
16.0
 40
16.0
 40
17.0
 40
17.0
 40
18.0
 40
18.0
 40
19.0
 40
19.0
 40
20.0
 40
20.0
 40
21.0
 40
21.0
 40
22.0
 40
22.0
 40
23.0
 40
23.0
 40
24.0
 40
24.0
 40
25.0
 40
25.0
 40
26.0
 40
26.0
 40
27.0
 40
27.0
 40
28.0
 40
28.0
 40
29.0
 40
29.0
 40
30.0
 40
30.0
 40
31.0
 40
31.0
 40
32.0
 40
32.0
 40
33.0
 40
33.0
 40
34.0
 40
34.0
 40
35.0
 40
35.0
 40
36.0
 40
36.0
 40
37.0
 40
37.0
 40
38.0
 40
38.0
 40
39.0
 40
39.0
 40
40.0
 40
40.0
 40
41.0
 40
41.0
 40
42.0
 40
42.0
 40
43.0
 40
43.0
 40
44.0
 40
44.0
 40
45.0
 40
45.0
 40
46.0
 40
46.0
 40
47.0
 40
47.0
 40
48.0
 40
48.0
 40
49.0
 40
49.0
 40
50.0
 40
50.0
 40
51.0
 40
51.0
 40
52.0
 40
52.0
 40
53.0
 40
53.0
 40
54.0
 40
54.0
 40
55.0
 40
55.0
 40
56.0
 40
56.0
 40
57.0
 40
57.0
 40
58.0
 40
58.0
 40
59.0
 40
59.0
 40
60.0
 40
60.0
 40
61.0
 40
61.0
 40
62.0
 40
62.0
 40
63.0
 40
63.0
 40
64.0
 40
64.0
 40
65.0
 40
65.0
 40
66.0
 40
66.0
 40
67.0
 40
67.0
 40
68.0
 40
68.0
 40
69.0
 40
69.0
 40
70.0
 40
70.0
 40
71.0
 40
71.0
 40
72.0
 40
72.0
 40
73.0
 40
73.0
 40
74.0
 40
74.0
 40
75.0
 40
75.0
 40
76.0
 40
76.0
 40
77.0
 40
77.0
 40
78.0
 40
78.0
 40
79.0
 40
79.0
 40
80.0
 40
80.0
 40
81.0
 40
81.0
 40
82.0
 40
82.0
 40
83.0
 40
83.0
 40
84.0
 40
84.0
 40
85.0
 40
85.0
 40
86.0
 40
86.0
 40
87.0
 40
87.0
 40
88.0
 40
88.0
 40
89.0
 40
89.0
 40
90.0
 40
90.0
 40
91.0
 40
91.0
 40
92.0
 40
92.0
 40
93.0
 40
93.0
 40
94.0
 40
94.0
 40
95.0
 40
95.0
 40
96.0
 40
96.0
 40
97.0
 40
97.0
 40
98.0
 40
98.0
 40
99.0
 40
99.0
 40
100.0
 40
100.0
 40
101.0
 40
101.0
 40
102.0
 40
102.0
 40
103.0
 40
103.0
 40
104.0
 40
104.0
 40
105.0
 40
105.0
 40
106.0
 40
106.0
 40
107.0
 40
107.0
 40
108.0
 40
108.0
 40
109.0
 40
109.0
 40
110.0
 40
110.0
 40
111.0
 40
111.0
 40
112.0
 40
112.0
 40
113.0
 40
113.0
 40
114.0
 40
114.0
 40
115.0
 40
115.0
 40
116.0
 40
116.0
 40
117.0
 40
117.0
 40
118.0
 40
118.0
 40
119.0
 40
119.0
 40
120.0
 40
120.0
 40
121.0
 40
121.0
 40
122.0
 40
122.0
 40
123.0
 40
123.0
 40
124.0
 40
124.0
 40
125.0
 40
125.0
 40
126.0
 40
126.0
 40
127.0
 40
127.0
 40
128.0
 40
128.0
 40
129.0
 40
129.0
 40
130.0
 40
130.0
 40
131.0
 40
131.0
 40
132.0
 40
132.0
 40
133.0
 40
133.0
 40
134.0
 40
134.0
 40
135.0
 40
135.0
 40
136.0
 40
136.0
 40
137.0
 40
137.0
 40
138.0
 40
138.0
 40
139.0
 40
139.0
 40
140.0
 40
140.0
 40
141.0
 40
141.0
 40
142.0
 40
142.0
 40
143.0
 40
143.0
 40
144.0
 40
144.0
 40
145.0
 40
145.0
 40
146.0
 40
146.0
 40
147.0
 40
147.0
 40
148.0
 40
148.0
 40
149.0
 40
149.0
 40
150.0
 40
150.0
 40
151.0
 40
151.0
 40
152.0
 40
152.0
 40
153.0
 40
153.0
 40
154.0
 40
154.0
 40
155.0
 40
155.0
 40
156.0
 40
156.0
 40
157.0
 40
157.0
 40
158.0
 40
158.0
 40
159.0
 40
159.0
 40
160.0
 40
160.0
 40
161.0
 40
161.0
 40
162.0
 40
162.0
 40
163.0
 40
163.0
 40
164.0
 40
164.0
 40
165.0
 40
165.0
 40
166.0
 40
166.0
 40
167.0
 40
167.0
 40
168.0
 40
168.0
 40
169.0
 40
169.0
 40
170.0
 40
170.0
 40
171.0
 40
171.0
 40
172.0
 40
172.0
 40
173.0
 40
173.0
 40
174.0
 40
174.0
 40
175.0
 40
175.0
 40
176.0
 40
176.0
 40
177.0
 40
177.0
 40
178.0
 40
178.0
 40
179.0
 40
179.0
 40
180.0
 40
180.0
 40
181.0
 40
181.0
 40
182.0
 40
182.0
 40
183.0
 40
183.0
 40
184.0
 40
184.0
 40
185.0
 40
185.0
 40
186.0
 40
186.0
 40
187.0
 40
187.0
 40
188.0
 40
188.0
 40
189.0
 40
189.0
 40
190.0
 40
190.0
 40
191.0
 40
191.0
 40
192.0
 40
192.0
 40
193.0
 40
193.0
 40
194.0
 40
194.0
 40
195.0
 40
195.0
 40
196.0
 40
196.0
 40
197.0
 40
197.0
 40
198.0
 40
198.0
 40
199.0
 40
199.0
 40
200.0
 40
200.0
 40
201.0
 40
201.0
 40
202.0
 40
202.0
 40
203.0
 40
203.0
 40
204.0
 40
204.0
 40
205.0
 40
205.0
 40
206.0
 40
206.0
 40
207.0
 40
207.0
 40
208.0
 40
208.0
 40
209.0
 40
209.0
 40
210.0
 40
210.0
 40
211.0
 40
211.0
 40
212.0
 40
212.0
 40
213.0
 40
213.0
 40
214.0
 40
214.0
 40
215.0
 40
215.0
 40
216.0
 40
216.0
 40
217.0
 40
217.0
 40
218.0
 40
218.0
 40
219.0
 40
219.0
 40
220.0
 40
220.0
 40
221.0
 40
221.0
 40
222.0
 40
222.0
 40
223.0
 40
223.0
 40
224.0
 40
224.0
 40
225.0
 40
225.0
 40
226.0
 40
226.0
 40
227.0
 40
227.0
 40
228.0
 40
228.0
 40
229.0
 40
229.0
 40
230.0
 40
230.0
 40
231.0
 40
231.0
 40
232.0
 40
232.0
 40
233.0
 40
233.0
 40
234.0
 40
234.0
 40
235.0
 40
235.0
 40
236.0
 40
236.0
 40
237.0
 40
237.0
 40
238.0
 40
238.0
 40
239.0
 40
239.0
 40
240.0
 40
240.0
 40
241.0
 40
241.0
 40
242.0
 40
242.0
 40
243.0
 40
243.0
 40
244.0
 40
244.0
 40
245.0
 40
245.0
 40
246.0
 40
246.0
 40
247.0
 40
247.0
 40
248.0
 40
248.0
 40
249.0
 40
249.0
 40
250.0
 40
250.0
 40
251.0
 40
251.0
 40
252.0
 40
252.0
 40
253.0
 40
253.0
 40
254.0
 40
254.0
 40
255.0
 40
255.0
 40
256.0
 40
256.0
 40
257.0
 40
257.0
 40
258.0
 40
258.0
 40
259.0
 40
259.0
 40
260.0
 40
260.0
 40
261.0
 40
261.0
 40
262.0
 40
262.0
 40
263.0
 40
263.0
 40
264.0
 40
264.0
 40
265.0
 40
265.0
 40
266.0
 40
266.0
 40
267.0
 40
267.0
 40
268.0
 40
268.0
 40
269.0
 40
269.0
 40
270.0
 40
270.0
 40
271.0
 40
271.0
 40
272.0
 40
272.0
 40
273.0
 40
273.0
 40
274.0
 40
274.0
 40
275.0
 40
275.0
 40
276.0
 40
276.0
 40
277.0
 40
277.0
 40
278.0
 40
278.0
 40
279.0
 40
279.0
 40
280.0
 40
280.0
 40
281.0
 40
281.0
 40
282.0
 40
282.0
 40
283.0
 40
283.0
 40
284.0
 40
284.0
 40
285.0
 40
285.0
 40
286.0
 40
286.0
 40
287.0
 40
287.0
 40
288.0
 40
288.0
 40
289.0
 40
289.0
 40
290.0
 40
290.0
 40
291.0
 40
291.0
 40
292.0
 40
292.0
 40
293.0
 40
293.0
 40
294.0
 40
294.0
 40
295.0
 40
295.0
 40
296.0
 40
296.0
 40
297.0
 40
297.0
 40
298.0
 40
298.0
 40
299.0
 40
299.0
 40
300.0
 40
300.0
 40
301.0
 40
301.0
 40
302.0
 40
302.0
 40
303.0
 40
303.0
 40
304.0
 40
304.0
 40
305.0
 40
305.0
 40
306.0
 40
306.0
 40
307.0
 40
307.0
 40
308.0
 40
308.0
 40
309.0
 40
309.0
 40
310.0
 40
310.0
 40
311.0
 40
311.0
 40
312.0
 40
312.0
 40
313.0
 40
313.0
 40
314.0
 40
314.0
 40
315.0
 40
315.0
 40
316.0
 40
316.0
 40
317.0
 40
317.0
 40
318.0
 40
318.0
 40
319.0
 40
319.0
 40
320.0
 40
320.0
 40
321.0
 40
321.0
 40
322.0
 40
322.0
 40
323.0
 40
323.0
 40
324.0
 40
324.0
 40
325.0
 40
325.0
 40
326.0
 40
326.0
 40
327.0
 40
327.0
 40
328.0
 40
328.0
 40
329.0
 40
329.0
 40
330.0
 40
330.0
 40
331.0
 40
331.0
 40
332.0
 40
332.0
 40
333.0
 40
333.0
 40
334.0
 40
334.0
 40
335.0
 40
335.0
 40
336.0
 40
336.0
 40
337.0
 40
337.0
 40
338.0
 40
338.0
 40
339.0
 40
339.0
 40
340.0
 40
340.0
 40
341.0
 40
341.0
 40
342.0
 40
342.0
 40
343.0
 40
343.0
 40
344.0
 40
344.0
 40
345.0
 40
345.0
 40
346.0
 40
346.0
 40
347.0
 40
347.0
 40
348.0
 40
348.0
 40
349.0
 40
349.0
 40
350.0
 40
350.0
 40
351.0
 40
351.0
 40
352.0
 40
352.0
 40
353.0
 40
353.0
 40
354.0
 40
354.0
 40
355.0
 40
355.0
 40
356.0
 40
356.0
 40
357.0
 40
357.0
 40
358.0
 40
358.0
 40
359.0
 40
359.0
 40
360.0
 40
360.0
 40
361.0
 40
361.0
 40
362.0
 40
362.0
 40
363.0
 40
363.0
 40
364.0
 40
364.0
 40
365.0
 40
365.0
 40
366.0
 40
366.0
 40
367.0
 40
367.0
 40
368.0
 40
368.0
 40
369.0
 40
369.0
 40
370.0
 40
370.0
 40
371.0
 40
371.0
 40
372.0
 40
372.0
 40
373.0
 40
373.0
 40
374.0
 40
374.0
 40
375.0
 40
375.0
 40
376.0
 40
376.0
 40
377.0
 40
377.0
 40
378.0
 40
378.0
 40
379.0
 40
379.0
 40
380.0
 40
380.0
 40
381.0
 40
381.0
 40
382.0
 40
382.0
 40
383.0
 40
383.0
 40
384.0
 40
384.0
 40
385.0
 40
385.0
 40
386.0
 40
386.0
 40
387.0
 40
387.0
 40
388.0
 40
388.0
 40
389.0
 40
389.0
 40
389.0
 10
-15983.683199757779
 20
488.37816818918873
 30
0.0
 41
1.0
 10
-15982.864775649057
 20
488.37816818918873
 30
0.0
 41
1.0
 10
-15982.046351540337
 20
488.37816818918873
 30
0.0
 41
1.0
 10
-15982.460105275855
 20
487.03554192493903
 30
0.0
 41
1.0
 10
-15982.873859011372
 20
485.69291566068932
 30
0.0
 41
1.0
 10
-15982.855519516364
 20
485.72161643335227
 30
0.0
 41
0.9999957264434283
 10
-15982.83701251962
 20
485.75020948337004
 30
0.0
 41
1.0
 10
-15982.806583195359
 20
485.79722236193663
 30
0.0
 41
1.0
 10
-15982.776153871098
 20
485.84423524050317
 30
0.0
 41
1.0
 10
-15982.696788225985
 20
485.96685404741561
 30
0.0
 41
0.9995394069081658
 10
-15982.610129834426
 20
486.08443210916766
 30
0.0
 41
1.0
 10
-15982.574372972183
 20
486.1329470017364
 30
0.0
 41
1.0
 10
-15982.538616109943
 20
486.18146189430513
 30
0.0
 41
1.0
 10
-15982.40488944211
 20
486.36290216945326
 30
0.0
 41
0.9994460617141585
 10
-15982.259388960814
 20
486.53504456711164
 30
0.0
 41
1.0
 10
-15982.255000779824
 20
486.54023624751312
 30
0.0
 41
1.0
 10
-15982.250612598833
 20
486.5454279279146
 30
0.0
 41
1.0
 10
-15982.113888479516
 20
486.70718696477343
 30
0.0
 41
0.9994359394934158
 10
-15981.966614249175
 20
486.85940316592587
 30
0.0
 41
1.0
 10
-15981.964230895232
 20
486.86186649628962
 30
0.0
 41
1.0
 10
-15981.961847541286
 20
486.86432982665343
 30
0.0
 41
1.0
 10
-15981.819340018828
 20
487.01161936708587
 30
0.0
 41
0.9995293688566771
 10
-15981.66806833784
 20
487.1498925792547
 30
0.0
 41
1.0
 10
-15981.648774578585
 20
487.16752846489879
 30
0.0
 41
1.0
 10
-15981.629480819329
 20
487.18516435054289
 30
0.0
 41
1.0
 10
-15981.516796656862
 20
487.28816579141534
 30
0.0
 41
0.9997087614803178
 10
-15981.399273767904
 20
487.38561007221665
 30
0.0
 41
1.0
 10
-15981.380107694742
 20
487.40150165071265
 30
0.0
 41
1.0
 10
-15981.360941621582
 20
487.41739322920864
 30
0.0
 41
1.0
 10
-15981.281750878994
 20
487.48305435297823
 30
0.0
 41
0.999959533869221
 10
-15981.201391608094
 20
487.54728008366953
 30
0.0
 41
1.0
 10
-15981.121032337242
 20
487.61150581432219
 30
0.0
 41
0.9999749417509294
 10
-15981.039771802965
 20
487.67458736821726
 30
0.0
 41
1.0
 10
-15981.018785656725
 20
487.69087865557998
 30
0.0
 41
1.0
 10
-15980.997799510482
 20
487.7071699429427
 30
0.0
 41
1.0
 10
-15980.913231625203
 20
487.77281895276371
 30
0.0
 41
0.99997920371159
 10
-15980.827824025493
 20
487.8373717343635
 30
0.0
 41
1.0
 10
-15980.806999199438
 20
487.85311155673048
 30
0.0
 41
1.0
 10
-15980.786174373381
 20
487.86885137909752
 30
0.0
 41
1.0
 10
-15980.742416425412
 20
487.90192451624318
 30
0.0
 41
0.9999993373959744
 10
-15980.698734739581
 20
487.93509831143115
 30
0.0
 41
1.0
 10
-15980.655053053444
 20
487.96827210684984
 30
0.0
 41
0.9999160953815975
 10
-15980.610526642517
 20
488.00030317205341
 30
0.0
 41
1.0
 10
-15980.577704755098
 20
488.02391432763829
 30
0.0
 41
1.0
 10
-15980.544882867678
 20
488.04752548322324
 30
0.0
 41
1.0
 10
-15980.434712681925
 20
488.12677885958959
 30
0.0
 41
0.9980964527229207
 10
-15980.315623688437
 20
488.19186633243822
 30
0.0
 41
1.0
 10
-15980.278591081489
 20
488.21210631204178
 30
0.0
 41
1.0
 10
-15980.241558474541
 20
488.2323462916454
 30
0.0
 41
1.0
 10
-15980.062231461283
 20
488.33035654233737
 30
0.0
 41
0.998457281057482
 10
-15979.873142894932
 20
488.407878803681
 30
0.0
 41
1.0
 10
-15979.869496625539
 20
488.40937369601829
 30
0.0
 41
1.0
 10
-15979.865850356144
 20
488.41086858835564
 30
0.0
 41
1.0
 10
-15979.684054328573
 20
488.48540106502793
 30
0.0
 41
0.9987838528032946
 10
-15979.495801670013
 20
488.54166670519317
 30
0.0
 41
1.0
 10
-15979.491563720809
 20
488.54293335888502
 30
0.0
 41
1.0
 10
-15979.487325771604
 20
488.54420001257688
 30
0.0
 41
1.0
 10
-15979.307549011446
 20
488.59793234536107
 30
0.0
 41
0.9990652816206503
 10
-15979.123803079738
 20
488.63593602490096
 30
0.0
 41
1.0
 10
-15979.118614678709
 20
488.63700912800675
 30
0.0
 41
1.0
 10
-15979.113426277681
 20
488.63808223111261
 30
0.0
 41
1.0
 10
-15978.940057148022
 20
488.67393970444374
 30
0.0
 41
0.9992909934268816
 10
-15978.764481381564
 20
488.69665013690951
 30
0.0
 41
1.0
 10
-15978.588905615114
 20
488.71936056937608
 30
0.0
 41
0.9994553539446938
 10
-15978.41221418201
 20
488.73043987358244
 30
0.0
 41
1.0
 10
-15978.376779774215
 20
488.7326617616302
 30
0.0
 41
1.0
 10
-15978.341345366422
 20
488.7348836496779
 30
0.0
 41
1.0
 10
-15978.175119599859
 20
488.7453067120901
 30
0.0
 41
0.9990928098291453
 10
-15978.008609807948
 20
488.74154707085506
 30
0.0
 41
1.0
 10
-15977.97004797268
 20
488.74067637932217
 30
0.0
 41
1.0
 10
-15977.931486137411
 20
488.73980568778927
 30
0.0
 41
1.0
 10
-15977.842100016051
 20
488.73778742962111
 30
0.0
 41
0.9998382089204626
 10
-15977.752844333259
 20
488.73255530309245
 30
0.0
 41
1.0
 10
-15977.752414427039
 20
488.73253010219014
 30
0.0
 41
1.0
 10
-15977.751984520819
 20
488.73250490128788
 30
0.0
 41
1.0
 10
-15977.663588650481
 20
488.72732317656425
 30
0.0
 41
0.9997558016759617
 10
-15977.575508073274
 20
488.71824066119791
 30
0.0
 41
1.0
 10
-15977.575031934841
 20
488.71819156371481
 30
0.0
 41
1.0
 10
-15977.574555796406
 20
488.71814246623171
 30
0.0
 41
1.0
 10
-15977.487427496053
 20
488.70915814582884
 30
0.0
 41
0.9996565144181386
 10
-15977.400889642729
 20
488.69562083914241
 30
0.0
 41
1.0
 10
-15977.400423717347
 20
488.69554795341043
 30
0.0
 41
1.0
 10
-15977.399957791966
 20
488.69547506767844
 30
0.0
 41
1.0
 10
-15977.314351789386
 20
488.68208353245257
 30
0.0
 41
0.9995321806867942
 10
-15977.229724709061
 20
488.66348304402413
 30
0.0
 41
1.0
 10
-15977.229335514487
 20
488.66339750155743
 30
0.0
 41
1.0
 10
-15977.22894631991
 20
488.66331195909072
 30
0.0
 41
1.0
 10
-15977.145097628734
 20
488.64488255559553
 30
0.0
 41
0.9993819199217856
 10
-15977.062751094536
 20
488.62060717233419
 30
0.0
 41
1.0
 10
-15977.062512661043
 20
488.62053688322641
 30
0.0
 41
1.0
 10
-15977.06227422755
 20
488.62046659411862
 30
0.0
 41
1.0
 10
-15976.980404560354
 20
488.59633178907933
 30
0.0
 41
0.9992088568501634
 10
-15976.900712041352
 20
488.5657665532791
 30
0.0
 41
1.0
 10
-15976.821031050469
 20
488.53520695254366
 30
0.0
 41
0.9990226101774828
 10
-15976.744360380566
 20
488.49772952093133
 30
0.0
 41
1.0
 10
-15976.667701238757
 20
488.46025772437162
 30
0.0
 41
0.9988424273974118
 10
-15976.594997611543
 20
488.41559294911701
 30
0.0
 41
1.0
 10
-15976.594729903169
 20
488.41542848504878
 30
0.0
 41
1.0
 10
-15976.594462194797
 20
488.41526402098054
 30
0.0
 41
1.0
 10
-15976.521223150834
 20
488.37027031759146
 30
0.0
 41
0.9986928844480884
 10
-15976.452960284143
 20
488.31803458332416
 30
0.0
 41
1.0
 10
-15976.452378991908
 20
488.31758977008599
 30
0.0
 41
1.0
 10
-15976.45179769967
 20
488.31714495684776
 30
0.0
 41
1.0
 10
-15976.382372248521
 20
488.26401959611803
 30
0.0
 41
0.9986007262278287
 10
-15976.318946078756
 20
488.20385882642597
 30
0.0
 41
1.0
 10
-15976.318051663297
 20
488.2030104585873
 30
0.0
 41
1.0
 10
-15976.317157247835
 20
488.20216209074863
 30
0.0
 41
1.0
 10
-15976.251942247165
 20
488.14030458539918
 30
0.0
 41
0.9985581491368997
 10
-15976.19373463547
 20
488.07181209513425
 30
0.0
 41
1.0
 10
-15976.184476181865
 20
488.06091773742207
 30
0.0
 41
1.0
 10
-15976.17521772826
 20
488.05002337970984
 30
0.0
 41
1.0
 10
-15976.098493209369
 20
487.95974217403813
 30
0.0
 41
0.9970460233519622
 10
-15976.036501308214
 20
487.85877508986215
 30
0.0
 41
1.0
 10
-15976.022031943136
 20
487.83520863078331
 30
0.0
 41
1.0
 10
-15976.007562578056
 20
487.81164217170442
 30
0.0
 41
1.0
 10
-15975.967825878039
 20
487.74692244766692
 30
0.0
 41
0.9988468816635725
 10
-15975.934479507283
 20
487.67868999523125
 30
0.0
 41
1.0
 10
-15975.927443484785
 20
487.66429307407901
 30
0.0
 41
1.0
 10
-15975.920407462287
 20
487.64989615292677
 30
0.0
 41
1.0
 10
-15975.901133136522
 20
487.61045754278018
 30
0.0
 41
0.9998431190002084
 10
-15975.883267809037
 20
487.57036098836284
 30
0.0
 41
1.0
 10
-15975.865402481555
 20
487.53026443394782
 30
0.0
 41
0.9999989989698424
 10
-15975.847423758052
 20
487.49021859618693
 30
0.0
 41
1.0
 10
-15975.841251446493
 20
487.47647037945001
 30
0.0
 41
1.0
 10
-15975.835079134933
 20
487.46272216271302
 30
0.0
 41
1.0
 10
-15975.804755788302
 20
487.39517989145401
 30
0.0
 41
0.9998790356324031
 10
-15975.77654790815
 20
487.32672713948671
 30
0.0
 41
1.0
 10
-15975.769712726871
 20
487.31014003807229
 30
0.0
 41
1.0
 10
-15975.762877545592
 20
487.29355293665782
 30
0.0
 41
1.0
 10
-15975.739319883223
 20
487.2363849817969
 30
0.0
 41
0.9998227574563795
 10
-15975.717931134845
 20
487.17837067354901
 30
0.0
 41
1.0
 10
-15975.696542386462
 20
487.12035636528589
 30
0.0
 41
0.999679797104268
 10
-15975.678116101504
 20
487.06133424617349
 30
0.0
 41
1.0
 10
-15975.674212298774
 20
487.04882978799452
 30
0.0
 41
1.0
 10
-15975.670308496046
 20
487.03632532981555
 30
0.0
 41
1.0
 10
-15975.644074605634
 20
486.95229429434414
 30
0.0
 41
0.9979274938745981
 10
-15975.62885008215
 20
486.86558993566797
 30
0.0
 41
1.0
 10
-15975.626626394889
 20
486.85292593484877
 30
0.0
 41
1.0
 10
-15975.624402707628
 20
486.84026193402957
 30
0.0
 41
1.0
 10
-15975.613472767933
 20
486.77801542675479
 30
0.0
 41
0.9994985982137746
 10
-15975.606504602758
 20
486.71520192562468
 30
0.0
 41
1.0
 10
-15975.599536437583
 20
486.6523884245251
 30
0.0
 41
0.9996372611197896
 10
-15975.595960571818
 20
486.58929084588499
 30
0.0
 41
1.0
 10
-15975.595791994327
 20
486.58631622876055
 30
0.0
 41
1.0
 10
-15975.595623416835
 20
486.58334161163611
 30
0.0
 41
1.0
 10
-15975.591710396089
 20
486.51429479883467
 30
0.0
 41
0.9997730630730101
 10
-15975.590742082604
 20
486.4451439748467
 30
0.0
 41
1.0
 10
-15975.590684976185
 20
486.44106579565943
 30
0.0
 41
1.0
 10
-15975.590627869766
 20
486.43698761647215
 30
0.0
 41
1.0
 10
-15975.589545343439
 20
486.35968043422326
 30
0.0
 41
0.9998772614067731
 10
-15975.590885430171
 20
486.28237728772802
 30
0.0
 41
1.0
 10
-15975.59097469337
 20
486.27722812382399
 30
0.0
 41
1.0
 10
-15975.59106395657
 20
486.27207895992001
 30
0.0
 41
1.0
 10
-15975.592582569705
 20
486.1844774855424
 30
0.0
 41
0.9999415567329416
 10
-15975.595994879957
 20
486.09692932372292
 30
0.0
 41
1.0
 10
-15975.596236200627
 20
486.09073786412944
 30
0.0
 41
1.0
 10
-15975.596477521296
 20
486.08454640453601
 30
0.0
 41
1.0
 10
-15975.6003724729
 20
485.98461532325211
 30
0.0
 41
0.9999716810431925
 10
-15975.605771056025
 20
485.88475418488702
 30
0.0
 41
1.0
 10
-15975.608983854801
 20
485.82532493545068
 30
0.0
 41
1.0
 10
-15975.612196653577
 20
485.7658956860144
 30
0.0
 41
1.0
 10
-15975.620270562735
 20
485.61654728465106
 30
0.0
 41
0.9999819129900694
 10
-15975.630140354357
 20
485.4673068068505
 30
0.0
 41
1.0
 10
-15975.640010145973
 20
485.31806632913913
 30
0.0
 41
1.0
 10
-15975.642449466537
 20
485.28087328328979
 30
0.0
 41
1.0
 10
-15975.619751232562
 20
485.3196142808647
 30
0.0
 41
0.9999982128213267
 10
-15975.596906673638
 20
485.35826917510769
 30
0.0
 41
1.0
 10
-15975.569997113911
 20
485.40380238889776
 30
0.0
 41
1.0
 10
-15975.543087554182
 20
485.44933560268782
 30
0.0
 41
1.0
 10
-15975.466423875649
 20
485.57905692476891
 30
0.0
 41
0.9998609190059701
 10
-15975.385476562793
 20
485.70614930669024
 30
0.0
 41
1.0
 10
-15975.355828241325
 20
485.75269903962641
 30
0.0
 41
1.0
 10
-15975.326179919855
 20
485.79924877256258
 30
0.0
 41
1.0
 10
-15975.243907699609
 20
485.92842134257575
 30
0.0
 41
0.9999067609735931
 10
-15975.158138690131
 20
486.05529903203762
 30
0.0
 41
1.0
 10
-15975.155733986949
 20
486.05885629806426
 30
0.0
 41
1.0
 10
-15975.153329283767
 20
486.06241356409083
 30
0.0
 41
1.0
 10
-15975.072369680691
 20
486.18217672144419
 30
0.0
 41
0.9998784952150722
 10
-15974.987716070984
 20
486.29935793818765
 30
0.0
 41
1.0
 10
-15974.903062461302
 20
486.41653915489474
 30
0.0
 41
0.9998532968284796
 10
-15974.814444840475
 20
486.53075206337411
 30
0.0
 41
1.0
 10
-15974.794483051473
 20
486.556479384407
 30
0.0
 41
1.0
 10
-15974.774521262472
 20
486.58220670543989
 30
0.0
 41
1.0
 10
-15974.65603721273
 20
486.73491231638701
 30
0.0
 41
0.9991551975796379
 10
-15974.525412763116
 20
486.87737187845914
 30
0.0
 41
1.0
 10
-15974.521903147128
 20
486.88119948009131
 30
0.0
 41
1.0
 10
-15974.518393531142
 20
486.88502708172348
 30
0.0
 41
1.0
 10
-15974.394788313477
 20
487.01983144055691
 30
0.0
 41
0.9997418144181188
 10
-15974.26518617379
 20
487.14888085115513
 30
0.0
 41
1.0
 10
-15974.135584034104
 20
487.277930261758
 30
0.0
 41
0.9989238204628511
 10
-15973.994581485875
 20
487.3944152237774
 30
0.0
 41
1.0
 10
-15973.949333807708
 20
487.43179521540929
 30
0.0
 41
1.0
 10
-15973.90408612954
 20
487.46917520704119
 30
0.0
 41
1.0
 10
-15973.76384607233
 20
487.58503026032224
 30
0.0
 41
0.9990825084096476
 10
-15973.614206139735
 20
487.68845925814787
 30
0.0
 41
1.0
 10
-15973.604160775703
 20
487.69540247121017
 30
0.0
 41
1.0
 10
-15973.594115411672
 20
487.70234568427253
 30
0.0
 41
1.0
 10
-15973.464566207153
 20
487.79188825596646
 30
0.0
 41
0.9998164899826143
 10
-15973.331682003754
 20
487.87640249749722
 30
0.0
 41
1.0
 10
-15973.319836443208
 20
487.88393626403547
 30
0.0
 41
1.0
 10
-15973.307990882662
 20
487.89147003057377
 30
0.0
 41
1.0
 10
-15973.198797800367
 20
487.96091673901901
 30
0.0
 41
0.9997473449132952
 10
-15973.086593843129
 20
488.02538569682929
 30
0.0
 41
1.0
 10
-15972.974389885885
 20
488.08985465464167
 30
0.0
 41
0.9999327861143567
 10
-15972.860721275159
 20
488.15170464630279
 30
0.0
 41
1.0
 10
-15972.860169272577
 20
488.15200500499373
 30
0.0
 41
1.0
 10
-15972.859617269994
 20
488.15230536368472
 30
0.0
 41
1.0
 10
-15972.744844654097
 20
488.21475607273101
 30
0.0
 41
0.9996956420484587
 10
-15972.62713132825
 20
488.27146953970828
 30
0.0
 41
1.0
 10
-15972.596690923368
 20
488.28613551643298
 30
0.0
 41
1.0
 10
-15972.566250518486
 20
488.30080149315768
 30
0.0
 41
1.0
 10
-15972.463273411744
 20
488.35041515160191
 30
0.0
 41
0.9998070570174853
 10
-15972.3584270228
 20
488.39594573850366
 30
0.0
 41
1.0
 10
-15972.253580633826
 20
488.44147632541814
 30
0.0
 41
0.9997827436149246
 10
-15972.146927697215
 20
488.48259749672985
 30
0.0
 41
1.0
 10
-15972.1277048476
 20
488.49000907035554
 30
0.0
 41
1.0
 10
-15972.108481997986
 20
488.49742064398129
 30
0.0
 41
1.0
 10
-15971.963383362106
 20
488.55336496255899
 30
0.0
 41
0.9988031841980173
 10
-15971.813512999503
 20
488.59486502672706
 30
0.0
 41
1.0
 10
-15971.788595751143
 20
488.60176477253322
 30
0.0
 41
1.0
 10
-15971.763678502781
 20
488.60866451833942
 30
0.0
 41
1.0
 10
-15971.596408477137
 20
488.65498266074678
 30
0.0
 41
0.9984748040547468
 10
-15971.425051568487
 20
488.68257689301117
 30
0.0
 41
1.0
 10
-15971.420312432238
 20
488.6833400535246
 30
0.0
 41
1.0
 10
-15971.41557329599
 20
488.68410321403809
 30
0.0
 41
1.0
 10
-15971.253694659832
 20
488.71017112527687
 30
0.0
 41
0.9984436495479198
 10
-15971.089919916112
 20
488.71804907909473
 30
0.0
 41
1.0
 10
-15971.06822270798
 20
488.71909276629447
 30
0.0
 41
1.0
 10
-15971.046525499847
 20
488.72013645349415
 30
0.0
 41
1.0
 10
-15970.926145172398
 20
488.725927032914
 30
0.0
 41
0.9987954789333177
 10
-15970.805776927478
 20
488.71989050517118
 30
0.0
 41
1.0
 10
-15970.785812134985
 20
488.71888926083261
 30
0.0
 41
1.0
 10
-15970.765847342491
 20
488.71788801649404
 30
0.0
 41
1.0
 10
-15970.685408682592
 20
488.71385397743114
 30
0.0
 41
0.9997941595876283
 10
-15970.605199904472
 20
488.70655991150784
 30
0.0
 41
1.0
 10
-15970.524991126385
 20
488.69926584558738
 30
0.0
 41
0.9998589466238602
 10
-15970.44507257952
 20
488.68928199113628
 30
0.0
 41
1.0
 10
-15970.412666377713
 20
488.6852336342173
 30
0.0
 41
1.0
 10
-15970.380260175907
 20
488.68118527729825
 30
0.0
 41
1.0
 10
-15970.235529225429
 20
488.66310470900902
 30
0.0
 41
0.9993495063248177
 10
-15970.092477981674
 20
488.6346389992687
 30
0.0
 41
1.0
 10
-15970.059544284517
 20
488.62808553605282
 30
0.0
 41
1.0
 10
-15970.02661058736
 20
488.62153207283694
 30
0.0
 41
1.0
 10
-15969.91731676416
 20
488.59978373870337
 30
0.0
 41
0.9996788715559577
 10
-15969.809265192205
 20
488.57252593934004
 30
0.0
 41
1.0
 10
-15969.807202189679
 20
488.57200551277026
 30
0.0
 41
1.0
 10
-15969.805139187152
 20
488.57148508620048
 30
0.0
 41
1.0
 10
-15969.701213620257
 20
488.54526813997967
 30
0.0
 41
0.9995480654492057
 10
-15969.599051385019
 20
488.5128531833526
 30
0.0
 41
1.0
 10
-15969.597361742894
 20
488.51231707843976
 30
0.0
 41
1.0
 10
-15969.595672100768
 20
488.51178097352687
 30
0.0
 41
1.0
 10
-15969.496889149801
 20
488.48043822673344
 30
0.0
 41
0.999386795945251
 10
-15969.400541991348
 20
488.44225885743845
 30
0.0
 41
1.0
 10
-15969.39929904227
 20
488.44176631554484
 30
0.0
 41
1.0
 10
-15969.398056093192
 20
488.44127377365123
 30
0.0
 41
1.0
 10
-15969.304194832917
 20
488.40407948815505
 30
0.0
 41
0.9992050256518036
 10
-15969.213595157871
 20
488.35952558890995
 30
0.0
 41
1.0
 10
-15969.212860475156
 20
488.35916429644766
 30
0.0
 41
1.0
 10
-15969.212125792441
 20
488.35880300398537
 30
0.0
 41
1.0
 10
-15969.12299548284
 20
488.3149716896732
 30
0.0
 41
0.9990222350737233
 10
-15969.038085421445
 20
488.26343842197286
 30
0.0
 41
1.0
 10
-15969.03790153617
 20
488.26332681907257
 30
0.0
 41
1.0
 10
-15969.037717650896
 20
488.26321521617228
 30
0.0
 41
1.0
 10
-15968.953175360053
 20
488.21190515427571
 30
0.0
 41
0.9988642743805962
 10
-15968.873900825432
 20
488.15278096674933
 30
0.0
 41
1.0
 10
-15968.794626290806
 20
488.09365677921704
 30
0.0
 41
0.9987681233315632
 10
-15968.72160250653
 20
488.02696608781707
 30
0.0
 41
1.0
 10
-15968.721273578569
 20
488.02666568660601
 30
0.0
 41
1.0
 10
-15968.720944650606
 20
488.02636528539495
 30
0.0
 41
1.0
 10
-15968.647263010416
 20
487.95907379158461
 30
0.0
 41
0.9987496570896733
 10
-15968.580669205101
 20
487.88476097751385
 30
0.0
 41
1.0
 10
-15968.579897035324
 20
487.88389930413859
 30
0.0
 41
1.0
 10
-15968.57912486555
 20
487.88303763076328
 30
0.0
 41
1.0
 10
-15968.510986720699
 20
487.80700146995861
 30
0.0
 41
0.9988147669826299
 10
-15968.450564466473
 20
487.72470046311361
 30
0.0
 41
1.0
 10
-15968.449445140397
 20
487.72317583176346
 30
0.0
 41
1.0
 10
-15968.448325814321
 20
487.72165120041336
 30
0.0
 41
1.0
 10
-15968.385664907937
 20
487.63630093085879
 30
0.0
 41
0.9989452636219734
 10
-15968.331097994971
 20
487.54556224169511
 30
0.0
 41
1.0
 10
-15968.329749268889
 20
487.54331946067543
 30
0.0
 41
1.0
 10
-15968.328400542807
 20
487.5410766796557
 30
0.0
 41
1.0
 10
-15968.271136177678
 20
487.44585242845193
 30
0.0
 41
0.9991046436069307
 10
-15968.222126964358
 20
487.34612799542765
 30
0.0
 41
1.0
 10
-15968.220663102766
 20
487.34314931535135
 30
0.0
 41
1.0
 10
-15968.219199241174
 20
487.34017063527506
 30
0.0
 41
1.0
 10
-15968.167262304667
 20
487.23448884208915
 30
0.0
 41
0.9992763831102617
 10
-15968.123509176108
 20
487.12516478012338
 30
0.0
 41
1.0
 10
-15968.12202990645
 20
487.12146859260247
 30
0.0
 41
1.0
 10
-15968.120550636791
 20
487.1177724050815
 30
0.0
 41
1.0
 10
-15968.073838968901
 20
487.00105596803786
 30
0.0
 41
0.9994163472886368
 10
-15968.035205937704
 20
486.88142237955265
 30
0.0
 41
1.0
 10
-15968.033967785475
 20
486.87758823582521
 30
0.0
 41
1.0
 10
-15968.032729633247
 20
486.87375409209784
 30
0.0
 41
1.0
 10
-15967.992846072219
 20
486.75024803059028
 30
0.0
 41
0.9997268055890146
 10
-15967.958778016295
 20
486.62501299859969
 30
0.0
 41
1.0
 10
-15967.957847836038
 20
486.62159363253704
 30
0.0
 41
1.0
 10
-15967.956917655782
 20
486.61817426647445
 30
0.0
 41
1.0
 10
-15967.924709960394
 20
486.49977796670026
 30
0.0
 41
0.9996701318998494
 10
-15967.898624343612
 20
486.37988401338555
 30
0.0
 41
1.0
 10
-15967.872538726844
 20
486.25999006013512
 30
0.0
 41
0.9995785451108503
 10
-15967.853455149507
 20
486.13878429911477
 30
0.0
 41
1.0
 10
-15967.849235367328
 20
486.11198314431374
 30
0.0
 41
1.0
 10
-15967.845015585148
 20
486.08518198951265
 30
0.0
 41
1.0
 10
-15967.818440609217
 20
485.91639601583239
 30
0.0
 41
0.9979925101221957
 10
-15967.813415023291
 20
485.74560468776576
 30
0.0
 41
1.0
 10
-15967.812590210866
 20
485.71757396425983
 30
0.0
 41
1.0
 10
-15967.811765398441
 20
485.68954324075395
 30
0.0
 41
1.0
 10
-15967.808389437365
 20
485.57481335964985
 30
0.0
 41
0.9995314902264553
 10
-15967.812039629503
 20
485.4600918759221
 30
0.0
 41
1.0
 10
-15967.815689821642
 20
485.3453703921698
 30
0.0
 41
0.999624548694412
 10
-15967.825618916773
 20
485.23102112104414
 30
0.0
 41
1.0
 10
-15967.825781964766
 20
485.22914336490993
 30
0.0
 41
1.0
 10
-15967.825945012761
 20
485.22726560877572
 30
0.0
 41
1.0
 10
-15967.836200203881
 20
485.10916082536266
 30
0.0
 41
0.9997286095002348
 10
-15967.851945527455
 20
484.99166191645082
 30
0.0
 41
1.0
 10
-15967.852339020103
 20
484.98872549176679
 30
0.0
 41
1.0
 10
-15967.852732512751
 20
484.98578906708281
 30
0.0
 41
1.0
 10
-15967.86926482162
 20
484.86241730879988
 30
0.0
 41
0.9998265533970028
 10
-15967.890380280351
 20
484.73974683403247
 30
0.0
 41
1.0
 10
-15967.891056822491
 20
484.73581645550667
 30
0.0
 41
1.0
 10
-15967.891733364631
 20
484.73188607698091
 30
0.0
 41
1.0
 10
-15967.914201907628
 20
484.60135484523562
 30
0.0
 41
0.9999022530852846
 10
-15967.940311372227
 20
484.47150287664999
 30
0.0
 41
1.0
 10
-15967.941290013405
 20
484.46663573420722
 30
0.0
 41
1.0
 10
-15967.94226865458
 20
484.46176859176444
 30
0.0
 41
1.0
 10
-15967.970335401487
 20
484.32218233849835
 30
0.0
 41
0.9999524761930565
 10
-15968.00111837029
 20
484.18316984547624
 30
0.0
 41
1.0
 10
-15968.002394477498
 20
484.17740708602912
 30
0.0
 41
1.0
 10
-15968.003670584705
 20
484.17164432658194
 30
0.0
 41
1.0
 10
-15968.037005767896
 20
484.02110631479917
 30
0.0
 41
0.9999813588725549
 10
-15968.072176768694
 20
483.87098660213309
 30
0.0
 41
1.0
 10
-15968.073730694148
 20
483.86435401172264
 30
0.0
 41
1.0
 10
-15968.075284619601
 20
483.85772142131214
 30
0.0
 41
1.0
 10
-15968.113563471265
 20
483.6943365279958
 30
0.0
 41
0.9999955237656847
 10
-15968.152819349205
 20
483.53118362455416
 30
0.0
 41
1.0
 10
-15968.165100984881
 20
483.48013943385649
 30
0.0
 41
1.0
 10
-15968.177382620557
 20
483.42909524315883
 30
0.0
 41
1.0
 10
-15968.241201769739
 20
483.16385395879178
 30
0.0
 41
0.9999993604492261
 10
-15968.305620716876
 20
482.89875770824165
 30
0.0
 41
1.0
 10
-15968.310339552474
 20
482.87933879999156
 30
0.0
 41
1.0
 10
-15968.315058388071
 20
482.85991989174147
 30
0.0
 41
1.0
 10
-15968.388915006311
 20
482.55598582504985
 30
0.0
 41
0.9999659914725476
 10
-15968.467774602184
 20
482.25331127854247
 30
0.0
 41
1.0
 10
-15968.47272729113
 20
482.23430214130042
 30
0.0
 41
1.0
 10
-15968.477679980077
 20
482.21529300405837
 30
0.0
 41
1.0
 10
-15968.566444953836
 20
481.87460018308741
 30
0.0
 41
0.9999441976029816
 10
-15968.662387986817
 20
481.53585875773479
 30
0.0
 41
1.0
 10
-15968.679088505227
 20
481.47689504525982
 30
0.0
 41
1.0
 10
-15968.695789023637
 20
481.41793133278486
 30
0.0
 41
1.0
 10
-15968.825133093445
 20
480.96126248245014
 30
0.0
 41
0.9999625120730431
 10
-15968.962365860756
 20
480.50690194849113
 30
0.0
 41
1.0
 10
-15968.99815580378
 20
480.38840592206151
 30
0.0
 41
1.0
 10
-15969.033945746802
 20
480.26990989563188
 30
0.0
 41
1.0
 10
-15969.108465950903
 20
480.02318281732425
 30
0.0
 41
0.9999793386315024
 10
-15969.186151974118
 20
479.77743417784222
 30
0.0
 41
1.0
 10
-15969.263837997256
 20
479.5316855386061
 30
0.0
 41
1.0
 10
-15969.274617556128
 20
479.49766763423145
 30
0.0
 41
1.0
 10
-15971.124990609396
 20
473.61059571176395
 30
0.0
 41
1.0
 10
-15972.975363662665
 20
467.72352378929645
 30
0.0
 41
1.0
 10
-15973.936620352688
 20
467.72352378929645
 30
0.0
 41
1.0
 10
-15974.897877042713
 20
467.72352378929645
 30
0.0
 41
1.0
 10
-15973.278932264035
 20
472.87155229108589
 30
0.0
 41
1.0
 10
-15971.659987485356
 20
478.01958079287533
 30
0.0
 41
1.0
 10
-15971.61482166222
 20
478.16361201501809
 30
0.0
 41
1.0
 10
-15971.569655839086
 20
478.30764323716079
 30
0.0
 41
1.0
 10
-15971.399351421685
 20
478.85073426644965
 30
0.0
 41
0.9999911657885711
 10
-15971.233618609964
 20
479.39523779794126
 30
0.0
 41
1.0
 10
-15971.203922666416
 20
479.49280173814441
 30
0.0
 41
1.0
 10
-15971.174226722871
 20
479.59036567834755
 30
0.0
 41
1.0
 10
-15971.067885798242
 20
479.93974132944288
 30
0.0
 41
0.999995242818955
 10
-15970.963702208959
 20
480.2897663536545
 30
0.0
 41
1.0
 10
-15970.958642738638
 20
480.30676462788608
 30
0.0
 41
1.0
 10
-15970.95358326832
 20
480.32376290211772
 30
0.0
 41
1.0
 10
-15970.859518619643
 20
480.6397913779723
 30
0.0
 41
0.9999931687558884
 10
-15970.76779278176
 20
480.95650659127455
 30
0.0
 41
1.0
 10
-15970.762857517248
 20
480.97354730073062
 30
0.0
 41
1.0
 10
-15970.757922252735
 20
480.99058801018663
 30
0.0
 41
1.0
 10
-15970.676066943835
 20
481.27322180472174
 30
0.0
 41
0.9999893840811692
 10
-15970.59681971743
 20
481.55659793379164
 30
0.0
 41
1.0
 10
-15970.517572490991
 20
481.83997406296862
 30
0.0
 41
0.9999833980060712
 10
-15970.441596250277
 20
482.12424464589031
 30
0.0
 41
1.0
 10
-15970.432592313522
 20
482.15793352449623
 30
0.0
 41
1.0
 10
-15970.423588376765
 20
482.19162240310209
 30
0.0
 41
1.0
 10
-15970.35462382791
 20
482.44965823535324
 30
0.0
 41
0.9999233658066888
 10
-15970.292068856699
 20
482.70932239404465
 30
0.0
 41
1.0
 10
-15970.229513885479
 20
482.96898655276709
 30
0.0
 41
1.0
 10
-15970.190030466621
 20
483.13279321719324
 30
0.0
 41
1.0
 10
-15970.185051862665
 20
483.15344817897596
 30
0.0
 41
1.0
 10
-15970.180073258709
 20
483.17410314075863
 30
0.0
 41
1.0
 10
-15970.15054704778
 20
483.29659988155299
 30
0.0
 41
0.9999868670847848
 10
-15970.122277963768
 20
483.4193928272648
 30
0.0
 41
1.0
 10
-15970.118380476648
 20
483.4363224145236
 30
0.0
 41
1.0
 10
-15970.114482989526
 20
483.45325200178246
 30
0.0
 41
1.0
 10
-15970.094008879807
 20
483.54218577275725
 30
0.0
 41
0.9999778173356134
 10
-15970.074721281657
 20
483.63138439014074
 30
0.0
 41
1.0
 10
-15970.055433683505
 20
483.72058300753781
 30
0.0
 41
0.9999602692862735
 10
-15970.037739324842
 20
483.81011129614143
 30
0.0
 41
1.0
 10
-15970.034535492799
 20
483.82632175085519
 30
0.0
 41
1.0
 10
-15970.031331660755
 20
483.84253220556889
 30
0.0
 41
1.0
 10
-15970.007229637964
 20
483.9644814037901
 30
0.0
 41
0.9995617985320549
 10
-15969.990386290743
 20
484.08764315151757
 30
0.0
 41
1.0
 10
-15969.987921800843
 20
484.10566396883706
 30
0.0
 41
1.0
 10
-15969.985457310944
 20
484.12368478615656
 30
0.0
 41
1.0
 10
-15969.965174049892
 20
484.27199983588139
 30
0.0
 41
0.9991121410639616
 10
-15969.957448696301
 20
484.42149593471129
 30
0.0
 41
1.0
 10
-15969.956529906276
 20
484.43927577129114
 30
0.0
 41
1.0
 10
-15969.955611116251
 20
484.45705560787098
 30
0.0
 41
1.0
 10
-15969.949723342714
 20
484.57099203352118
 30
0.0
 41
0.9989792494906451
 10
-15969.954142434832
 20
484.68499486941585
 30
0.0
 41
1.0
 10
-15969.9547904067
 20
484.70171111533631
 30
0.0
 41
1.0
 10
-15969.955438378569
 20
484.71842736125677
 30
0.0
 41
1.0
 10
-15969.958561526948
 20
484.79899770530744
 30
0.0
 41
0.9997820295391474
 10
-15969.965045524325
 20
484.87936742705824
 30
0.0
 41
1.0
 10
-15969.971529521701
 20
484.95973714883388
 30
0.0
 41
0.999833510597132
 10
-15969.980941717218
 20
485.0398167653164
 30
0.0
 41
1.0
 10
-15969.982536641892
 20
485.05338649576743
 30
0.0
 41
1.0
 10
-15969.984131566564
 20
485.06695622621839
 30
0.0
 41
1.0
 10
-15969.996733611426
 20
485.17417530361973
 30
0.0
 41
0.9996876457879502
 10
-15970.014677524221
 20
485.28063073131835
 30
0.0
 41
1.0
 10
-15970.016909187372
 20
485.2938704665907
 30
0.0
 41
1.0
 10
-15970.019140850522
 20
485.30711020186305
 30
0.0
 41
1.0
 10
-15970.03293667194
 20
485.38895634580717
 30
0.0
 41
0.9995547496496758
 10
-15970.051589993829
 20
485.46983384298369
 30
0.0
 41
1.0
 10
-15970.051963950697
 20
485.4714552536683
 30
0.0
 41
1.0
 10
-15970.052337907562
 20
485.4730766643529
 30
0.0
 41
1.0
 10
-15970.070243315717
 20
485.55071134015299
 30
0.0
 41
0.9994899427177673
 10
-15970.093068224402
 20
485.62704462300928
 30
0.0
 41
1.0
 10
-15970.093526751138
 20
485.6285780727801
 30
0.0
 41
1.0
 10
-15970.093985277872
 20
485.63011152255086
 30
0.0
 41
1.0
 10
-15970.115893133074
 20
485.70337790582215
 30
0.0
 41
0.9993784877594006
 10
-15970.142908768188
 20
485.7749186110027
 30
0.0
 41
1.0
 10
-15970.143440459178
 20
485.77632659376025
 30
0.0
 41
1.0
 10
-15970.14397215017
 20
485.77773457651773
 30
0.0
 41
1.0
 10
-15970.16992440331
 20
485.8464593162023
 30
0.0
 41
0.9992430832248058
 10
-15970.201140938454
 20
485.91295846823004
 30
0.0
 41
1.0
 10
-15970.201723054521
 20
485.91419852336628
 30
0.0
 41
1.0
 10
-15970.202305170586
 20
485.91543857850252
 30
0.0
 41
1.0
 10
-15970.232357473624
 20
485.97945762032282
 30
0.0
 41
0.9990789632783598
 10
-15970.267788100391
 20
486.0406642320479
 30
0.0
 41
1.0
 10
-15970.268383806579
 20
486.041693317919
 30
0.0
 41
1.0
 10
-15970.268979512768
 20
486.04272240379004
 30
0.0
 41
1.0
 10
-15970.303218727171
 20
486.1018708438055
 30
0.0
 41
0.9988874801117348
 10
-15970.342878003199
 20
486.15753055621542
 30
0.0
 41
1.0
 10
-15970.343433529266
 20
486.15831020789471
 30
0.0
 41
1.0
 10
-15970.343989055335
 20
486.15908985957401
 30
0.0
 41
1.0
 10
-15970.382537279234
 20
486.21319026863739
 30
0.0
 41
0.9986762060689822
 10
-15970.426439750507
 20
486.26304398307241
 30
0.0
 41
1.0
 10
-15970.426883710843
 20
486.26354812489228
 30
0.0
 41
1.0
 10
-15970.427327671177
 20
486.26405226671216
 30
0.0
 41
1.0
 10
-15970.470342221786
 20
486.31289769751595
 30
0.0
 41
0.9984621642477067
 10
-15970.518499778562
 20
486.35668099798272
 30
0.0
 41
1.0
 10
-15970.518746413089
 20
486.35690523015523
 30
0.0
 41
1.0
 10
-15970.518993047615
 20
486.35712946232769
 30
0.0
 41
1.0
 10
-15970.566657335346
 20
486.40046429845933
 30
0.0
 41
0.9982724693845947
 10
-15970.619075967181
 20
486.43790864897153
 30
0.0
 41
1.0
 10
-15970.671494599017
 20
486.47535299948458
 30
0.0
 41
0.9981399180171724
 10
-15970.728080662397
 20
486.50613951892296
 30
0.0
 41
1.0
 10
-15970.728126324484
 20
486.50616436208497
 30
0.0
 41
1.0
 10
-15970.728171986571
 20
486.50618920524698
 30
0.0
 41
1.0
 10
-15970.784849374118
 20
486.5370254110037
 30
0.0
 41
0.998092708683257
 10
-15970.844894725189
 20
486.56064221985736
 30
0.0
 41
1.0
 10
-15970.845334894901
 20
486.56081534573229
 30
0.0
 41
1.0
 10
-15970.845775064612
 20
486.56098847160729
 30
0.0
 41
1.0
 10
-15970.906700755095
 20
486.58495153220741
 30
0.0
 41
0.9981411356561331
 10
-15970.970089276498
 20
486.60132417371426
 30
0.0
 41
1.0
 10
-15970.970971393202
 20
486.60155201592028
 30
0.0
 41
1.0
 10
-15970.971853509905
 20
486.60177985812629
 30
0.0
 41
1.0
 10
-15971.037006264713
 20
486.61860818404466
 30
0.0
 41
0.9983031812927227
 10
-15971.103673693708
 20
486.6277475452199
 30
0.0
 41
1.0
 10
-15971.112544719104
 20
486.6289636638902
 30
0.0
 41
1.0
 10
-15971.121415744501
 20
486.6301797825605
 30
0.0
 41
1.0
 10
-15971.175765387014
 20
486.63763051255313
 30
0.0
 41
0.9983887708259399
 10
-15971.230609236305
 20
486.63887518618606
 30
0.0
 41
1.0
 10
-15971.238672641524
 20
486.6390581840609
 30
0.0
 41
1.0
 10
-15971.246736046744
 20
486.6392411819358
 30
0.0
 41
1.0
 10
-15971.285453085573
 20
486.64011985981875
 30
0.0
 41
0.9998869563081407
 10
-15971.324179038802
 20
486.63983399045969
 30
0.0
 41
1.0
 10
-15971.362904991973
 20
486.63954812110114
 30
0.0
 41
0.9999972320106371
 10
-15971.401629171221
 20
486.63908002157092
 30
0.0
 41
1.0
 10
-15971.420982187798
 20
486.63884608148157
 30
0.0
 41
1.0
 10
-15971.440335204374
 20
486.63861214139217
 30
0.0
 41
1.0
 10
-15971.517765416764
 20
486.63767616168423
 30
0.0
 41
0.9997304945085838
 10
-15971.595068722982
 20
486.63314706789845
 30
0.0
 41
1.0
 10
-15971.604118364687
 20
486.63261686190845
 30
0.0
 41
1.0
 10
-15971.613168006392
 20
486.63208665591844
 30
0.0
 41
1.0
 10
-15971.708570596036
 20
486.62649715015181
 30
0.0
 41
0.9997888306417617
 10
-15971.803662931878
 20
486.61699218566389
 30
0.0
 41
1.0
 10
-15971.812383993452
 20
486.61612047103154
 30
0.0
 41
1.0
 10
-15971.821105055027
 20
486.61524875639918
 30
0.0
 41
1.0
 10
-15971.933639514009
 20
486.60400036264588
 30
0.0
 41
0.9984170238194002
 10
-15972.044198661368
 20
486.58018428070949
 30
0.0
 41
1.0
 10
-15972.080579792349
 20
486.57234724490468
 30
0.0
 41
1.0
 10
-15972.116960923329
 20
486.56451020909981
 30
0.0
 41
1.0
 10
-15972.23215199175
 20
486.53969634258965
 30
0.0
 41
0.9976592854206573
 10
-15972.342880158165
 20
486.49939766544105
 30
0.0
 41
1.0
 10
-15972.453608324555
 20
486.45909898829882
 30
0.0
 41
0.9993255074356472
 10
-15972.561080123342
 20
486.41078208980997
 30
0.0
 41
1.0
 10
-15972.565705302273
 20
486.40870271360598
 30
0.0
 41
1.0
 10
-15972.570330481207
 20
486.40662333740204
 30
0.0
 41
1.0
 10
-15972.687052637844
 20
486.35414768651054
 30
0.0
 41
0.9976475078271772
 10
-15972.795499982154
 20
486.28619969685195
 30
0.0
 41
1.0
 10
-15972.813842376274
 20
486.27470721804718
 30
0.0
 41
1.0
 10
-15972.832184770394
 20
486.26321473924241
 30
0.0
 41
1.0
 10
-15972.916386961964
 20
486.21045761846307
 30
0.0
 41
0.9995131336407752
 10
-15972.997134676934
 20
486.15255140650106
 30
0.0
 41
1.0
 10
-15973.077882391895
 20
486.09464519454377
 30
0.0
 41
0.9995810107608071
 10
-15973.155144039622
 20
486.03216351208152
 30
0.0
 41
1.0
 10
-15973.158114070831
 20
486.02976164061721
 30
0.0
 41
1.0
 10
-15973.161084102041
 20
486.02735976915289
 30
0.0
 41
1.0
 10
-15973.244285812207
 20
485.96007434374241
 30
0.0
 41
0.9996617837955309
 10
-15973.323876499342
 20
485.88855388818195
 30
0.0
 41
1.0
 10
-15973.336007250218
 20
485.87765315519158
 30
0.0
 41
1.0
 10
-15973.348138001094
 20
485.86675242220122
 30
0.0
 41
1.0
 10
-15973.416413528475
 20
485.80539980674337
 30
0.0
 41
0.9997267750052121
 10
-15973.48174703676
 20
485.7409232702181
 30
0.0
 41
1.0
 10
-15973.547080545095
 20
485.67644673364293
 30
0.0
 41
0.9999667288961087
 10
-15973.611353488239
 20
485.61091292674934
 30
0.0
 41
1.0
 10
-15973.680180935989
 20
485.54073526801562
 30
0.0
 41
1.0
 10
-15973.74900838374
 20
485.47055760928185
 30
0.0
 41
1.0
 10
-15973.950936222425
 20
485.26466848488434
 30
0.0
 41
0.9988205335174824
 10
-15974.131941839394
 20
485.0401642528376
 30
0.0
 41
1.0
 10
-15974.16258180431
 20
485.00216100239408
 30
0.0
 41
1.0
 10
-15974.193221769227
 20
484.96415775195055
 30
0.0
 41
1.0
 10
-15974.435507316002
 20
484.6636470190453
 30
0.0
 41
0.9997077826755435
 10
-15974.662985267103
 20
484.35177722483741
 30
0.0
 41
1.0
 10
-15974.664708682241
 20
484.34941444144602
 30
0.0
 41
1.0
 10
-15974.666432097381
 20
484.34705165805462
 30
0.0
 41
1.0
 10
-15974.897356878739
 20
484.03045629709294
 30
0.0
 41
0.9989147567080242
 10
-15975.097820381612
 20
483.69374683592849
 30
0.0
 41
1.0
 10
-15975.122561526936
 20
483.652190255346
 30
0.0
 41
1.0
 10
-15975.147302672262
 20
483.61063367476345
 30
0.0
 41
1.0
 10
-15975.302513970893
 20
483.34993229031863
 30
0.0
 41
0.9997476598181134
 10
-15975.445858958392
 20
483.08252254175432
 30
0.0
 41
1.0
 10
-15975.589203945898
 20
482.81511279317652
 30
0.0
 41
0.9996258967110249
 10
-15975.717712197824
 20
482.540264856568
 30
0.0
 41
1.0
 10
-15975.730912107279
 20
482.51203345645848
 30
0.0
 41
1.0
 10
-15975.744112016737
 20
482.48380205634896
 30
0.0
 41
1.0
 10
-15975.884320737736
 20
482.18392965839416
 30
0.0
 41
0.9998735413947015
 10
-15976.014922084452
 20
481.87975005893543
 30
0.0
 41
1.0
 10
-15976.018364912547
 20
481.87173147339251
 30
0.0
 41
1.0
 10
-15976.021807740641
 20
481.8637128878496
 30
0.0
 41
1.0
 10
-15976.145523431211
 20
481.57557045938017
 30
0.0
 41
0.9999377418856185
 10
-15976.262778233347
 20
481.28473899179278
 30
0.0
 41
1.0
 10
-15976.380033035481
 20
480.99390752422323
 30
0.0
 41
0.9999508299505528
 10
-15976.491496978819
 20
480.7008078475094
 30
0.0
 41
1.0
 10
-15976.494577747522
 20
480.69270682143855
 30
0.0
 41
1.0
 10
-15976.497658516226
 20
480.6846057953677
 30
0.0
 41
1.0
 10
-15976.615283996965
 20
480.37530406651888
 30
0.0
 41
0.9999609228431018
 10
-15976.72742259987
 20
480.06397105041475
 30
0.0
 41
1.0
 10
-15976.730378610186
 20
480.05576421009948
 30
0.0
 41
1.0
 10
-15976.733334620501
 20
480.04755736978416
 30
0.0
 41
1.0
 10
-15976.851385244103
 20
479.71981067287197
 30
0.0
 41
0.9999674607404221
 10
-15976.964132770199
 20
479.39020205278939
 30
0.0
 41
1.0
 10
-15977.015531160761
 20
479.23994285709745
 30
0.0
 41
1.0
 10
-15977.066929551323
 20
479.0896836614055
 30
0.0
 41
1.0
 10
-15977.182940158054
 20
478.75053567898465
 30
0.0
 41
0.999928753230415
 10
-15977.290821561997
 20
478.40871494009195
 30
0.0
 41
1.0
 10
-15977.337298817991
 20
478.26145239617915
 30
0.0
 41
1.0
 10
-15977.383776073986
 20
478.11418985226635
 30
0.0
 41
1.0
 10
-15977.398702965871
 20
478.06689420142186
 30
0.0
 41
0.9999998224890736
 10
-15977.413573474698
 20
478.01958079287533
 30
0.0
 41
1.0
 10
-15979.034229611494
 20
472.87155229108589
 30
0.0
 41
1.0
 10
-15980.654885748289
 20
467.72352378929645
 30
0.0
 41
1.0
 10
-15981.56019419218
 20
467.72352378929645
 30
0.0
 41
1.0
 10
-15982.465502636071
 20
467.72352378929645
 30
0.0
 41
1.0
 10
-15980.613418224684
 20
473.61059571176395
 30
0.0
 41
1.0
 10
-15978.761333813298
 20
479.49766763423145
 30
0.0
 41
1.0
 10
-15978.751212054995
 20
479.52971084768114
 30
0.0
 41
1.0
 10
-15978.678604386145
 20
479.76001038950699
 30
0.0
 41
1.0
 10
-15978.605996717257
 20
479.99030993145391
 30
0.0
 41
0.9999825681966901
 10
-15978.536113678014
 20
480.22145082662718
 30
0.0
 41
1.0
 10
-15978.487822615891
 20
480.38117540999707
 30
0.0
 41
1.0
 10
-15978.439531553769
 20
480.54089999336696
 30
0.0
 41
1.0
 10
-15978.342379200449
 20
480.86223521515865
 30
0.0
 41
0.9999672528957185
 10
-15978.250440394822
 20
481.18510076074779
 30
0.0
 41
1.0
 10
-15978.247651511147
 20
481.19489460616001
 30
0.0
 41
1.0
 10
-15978.244862627471
 20
481.20468845157228
 30
0.0
 41
1.0
 10
-15978.158501589189
 20
481.50796630637285
 30
0.0
 41
0.999989974915845
 10
-15978.074859979664
 20
481.81200539478652
 30
0.0
 41
1.0
 10
-15978.064754060646
 20
481.84874063246986
 30
0.0
 41
1.0
 10
-15978.054648141628
 20
481.88547587015319
 30
0.0
 41
1.0
 10
-15977.991218370127
 20
482.11604448324999
 30
0.0
 41
0.9999214200504953
 10
-15977.933588941753
 20
482.34813082544827
 30
0.0
 41
1.0
 10
-15977.920823089582
 20
482.39954171079984
 30
0.0
 41
1.0
 10
-15977.908057237413
 20
482.45095259615141
 30
0.0
 41
1.0
 10
-15977.875959513382
 20
482.58021716762431
 30
0.0
 41
0.9999828681674319
 10
-15977.845377261379
 20
482.70984864212505
 30
0.0
 41
1.0
 10
-15977.814795009393
 20
482.8394801165565
 30
0.0
 41
0.9999389844480131
 10
-15977.787084020611
 20
482.9697555724191
 30
0.0
 41
1.0
 10
-15977.779946276882
 20
483.00331167629327
 30
0.0
 41
1.0
 10
-15977.772808533155
 20
483.03686778016743
 30
0.0
 41
1.0
 10
-15977.730822056925
 20
483.23425544374618
 30
0.0
 41
0.9998933699442507
 10
-15977.69461779252
 20
483.43278505151358
 30
0.0
 41
1.0
 10
-15977.693244967304
 20
483.44031307220382
 30
0.0
 41
1.0
 10
-15977.69187214209
 20
483.44784109289412
 30
0.0
 41
1.0
 10
-15977.652922227253
 20
483.66142674205162
 30
0.0
 41
0.9996850305193327
 10
-15977.624738550994
 20
483.8766977474944
 30
0.0
 41
1.0
 10
-15977.622743517628
 20
483.89193610159509
 30
0.0
 41
1.0
 10
-15977.620748484262
 20
483.90717445569572
 30
0.0
 41
1.0
 10
-15977.593340621801
 20
484.11651968286606
 30
0.0
 41
0.9994697936707673
 10
-15977.57961606258
 20
484.32720487821177
 30
0.0
 41
1.0
 10
-15977.579138993333
 20
484.33452835037463
 30
0.0
 41
1.0
 10
-15977.578661924086
 20
484.34185182253742
 30
0.0
 41
1.0
 10
-15977.565891503364
 20
484.53789007349428
 30
0.0
 41
0.99918048931424
 10
-15977.569019819632
 20
484.73431892351596
 30
0.0
 41
1.0
 10
-15977.569103698454
 20
484.7395857248793
 30
0.0
 41
1.0
 10
-15977.569187577274
 20
484.74485252624265
 30
0.0
 41
1.0
 10
-15977.572148135905
 20
484.93074777343952
 30
0.0
 41
0.9988448329327992
 10
-15977.59293968153
 20
485.11550036332278
 30
0.0
 41
1.0
 10
-15977.594533755233
 20
485.12966521908891
 30
0.0
 41
1.0
 10
-15977.596127828934
 20
485.14383007485509
 30
0.0
 41
1.0
 10
-15977.613731227153
 20
485.30025295315136
 30
0.0
 41
0.9985503209458587
 10
-15977.648047499453
 20
485.4538771372454
 30
0.0
 41
1.0
 10
-15977.655633491526
 20
485.4878374646521
 30
0.0
 41
1.0
 10
-15977.663219483598
 20
485.52179779205875
 30
0.0
 41
1.0
 10
-15977.682363771753
 20
485.60750132133938
 30
0.0
 41
0.9991036781365357
 10
-15977.708688633404
 20
485.69127840865963
 30
0.0
 41
1.0
 10
-15977.712670858869
 20
485.70395157120004
 30
0.0
 41
1.0
 10
-15977.716653084333
 20
485.7166247337405
 30
0.0
 41
1.0
 10
-15977.735013495065
 20
485.77505549601784
 30
0.0
 41
0.9998874504368356
 10
-15977.755118702731
 20
485.83290909820789
 30
0.0
 41
1.0
 10
-15977.77522391041
 20
485.89076270043256
 30
0.0
 41
0.999404163754601
 10
-15977.799272523349
 20
485.94709140433321
 30
0.0
 41
1.0
 10
-15977.803469307562
 20
485.95692146878912
 30
0.0
 41
1.0
 10
-15977.807666091776
 20
485.96675153324497
 30
0.0
 41
1.0
 10
-15977.835544922778
 20
486.03205169923007
 30
0.0
 41
0.9991846840708428
 10
-15977.868601279481
 20
486.09488973053226
 30
0.0
 41
1.0
 10
-15977.869737885878
 20
486.09705034699044
 30
0.0
 41
1.0
 10
-15977.870874492275
 20
486.09921096344863
 30
0.0
 41
1.0
 10
-15977.901657636177
 20
486.15772776182075
 30
0.0
 41
0.9989253167915039
 10
-15977.937727060229
 20
486.21314269020274
 30
0.0
 41
1.0
 10
-15977.938781184908
 20
486.21476218497457
 30
0.0
 41
1.0
 10
-15977.939835309589
 20
486.21638167974635
 30
0.0
 41
1.0
 10
-15977.973796484288
 20
486.26855761859798
 30
0.0
 41
0.9986467172838667
 10
-15978.012993636921
 20
486.3169236522225
 30
0.0
 41
1.0
 10
-15978.013867765625
 20
486.31800225450309
 30
0.0
 41
1.0
 10
-15978.014741894327
 20
486.31908085678367
 30
0.0
 41
1.0
 10
-15978.052190789558
 20
486.36528968585247
 30
0.0
 41
0.9984001104267527
 10
-15978.094617520075
 20
486.40697479322091
 30
0.0
 41
1.0
 10
-15978.095204658184
 20
486.40755166810203
 30
0.0
 41
1.0
 10
-15978.095791796293
 20
486.40812854298315
 30
0.0
 41
1.0
 10
-15978.13704425059
 20
486.44865990058707
 30
0.0
 41
0.9982442159080324
 10
-15978.182800351929
 20
486.4840284618499
 30
0.0
 41
1.0
 10
-15978.183015147399
 20
486.48419449449869
 30
0.0
 41
1.0
 10
-15978.183229942868
 20
486.48436052714749
 30
0.0
 41
1.0
 10
-15978.228556453267
 20
486.51939702311267
 30
0.0
 41
0.9982450060826722
 10
-15978.277707432337
 20
486.54882880614366
 30
0.0
 41
1.0
 10
-15978.326858411399
 20
486.57826058917215
 30
0.0
 41
0.9983922639637038
 10
-15978.379024717566
 20
486.60194022382768
 30
0.0
 41
1.0
 10
-15978.379251594895
 20
486.60204320931092
 30
0.0
 41
1.0
 10
-15978.379478472223
 20
486.60214619479416
 30
0.0
 41
1.0
 10
-15978.43209853304
 20
486.62603180041219
 30
0.0
 41
0.9986517147150048
 10
-15978.486911505914
 20
486.6443329195364
 30
0.0
 41
1.0
 10
-15978.487589427335
 20
486.64455926596605
 30
0.0
 41
1.0
 10
-15978.488267348759
 20
486.64478561239571
 30
0.0
 41
1.0
 10
-15978.544436164484
 20
486.66353942438036
 30
0.0
 41
0.9989435598956015
 10
-15978.602089551623
 20
486.67705712661194
 30
0.0
 41
1.0
 10
-15978.603169671211
 20
486.67731037686644
 30
0.0
 41
1.0
 10
-15978.604249790798
 20
486.67756362712089
 30
0.0
 41
1.0
 10
-15978.664063417118
 20
486.69158782986329
 30
0.0
 41
0.9992249241236341
 10
-15978.724794926009
 20
486.7008631725767
 30
0.0
 41
1.0
 10
-15978.7262086143
 20
486.70107908098453
 30
0.0
 41
1.0
 10
-15978.727622302591
 20
486.7012949893923
 30
0.0
 41
1.0
 10
-15978.791181188073
 20
486.7110021489226
 30
0.0
 41
0.9994396597837663
 10
-15978.855247124602
 20
486.71643507126828
 30
0.0
 41
1.0
 10
-15978.874387792082
 20
486.71805823898723
 30
0.0
 41
1.0
 10
-15978.893528459565
 20
486.71968140670617
 30
0.0
 41
1.0
 10
-15978.995875731054
 20
486.72836066448826
 30
0.0
 41
0.9987693403125094
 10
-15979.098579354642
 20
486.72685760103656
 30
0.0
 41
1.0
 10
-15979.108833688872
 20
486.72670752926228
 30
0.0
 41
1.0
 10
-15979.119088023101
 20
486.72655745748807
 30
0.0
 41
1.0
 10
-15979.228643789282
 20
486.72495411319977
 30
0.0
 41
0.9989753644968886
 10
-15979.337605789293
 20
486.71345110627556
 30
0.0
 41
1.0
 10
-15979.446567789302
 20
486.70194809935185
 30
0.0
 41
0.9983190067305698
 10
-15979.553466600271
 20
486.67791310756456
 30
0.0
 41
1.0
 10
-15979.56236755188
 20
486.67591182900139
 30
0.0
 41
1.0
 10
-15979.571268503489
 20
486.67391055043822
 30
0.0
 41
1.0
 10
-15979.695969217662
 20
486.64587300152641
 30
0.0
 41
0.9985539388307807
 10
-15979.81693897134
 20
486.60460932548199
 30
0.0
 41
1.0
 10
-15979.819284402303
 20
486.60380928166541
 30
0.0
 41
1.0
 10
-15979.821629833265
 20
486.60300923784882
 30
0.0
 41
1.0
 10
-15979.947290448865
 20
486.5601454741705
 30
0.0
 41
0.998846874649569
 10
-15980.068260791179
 20
486.50542738910229
 30
0.0
 41
1.0
 10
-15980.07144361316
 20
486.50398771454581
 30
0.0
 41
1.0
 10
-15980.07462643514
 20
486.50254803998928
 30
0.0
 41
1.0
 10
-15980.201962421406
 20
486.44495060581232
 30
0.0
 41
0.9991322885921724
 10
-15980.324063005464
 20
486.37695527363178
 30
0.0
 41
1.0
 10
-15980.341665016509
 20
486.36715307164195
 30
0.0
 41
1.0
 10
-15980.359267027552
 20
486.35735086965207
 30
0.0
 41
1.0
 10
-15980.461443708609
 20
486.30045075387068
 30
0.0
 41
0.999386003785248
 10
-15980.559384712695
 20
486.2365347382763
 30
0.0
 41
1.0
 10
-15980.565003025557
 20
486.23286824357581
 30
0.0
 41
1.0
 10
-15980.570621338416
 20
486.22920174887537
 30
0.0
 41
1.0
 10
-15980.657325716782
 20
486.17261872267784
 30
0.0
 41
0.9998821494953378
 10
-15980.742252092579
 20
486.11340049261105
 30
0.0
 41
1.0
 10
-15980.827178468377
 20
486.05418226254483
 30
0.0
 41
0.9997976482745202
 10
-15980.909654098783
 20
485.99159585450332
 30
0.0
 41
1.0
 10
-15980.924290363595
 20
485.98048916471811
 30
0.0
 41
1.0
 10
-15980.938926628407
 20
485.9693824749329
 30
0.0
 41
1.0
 10
-15981.050674788426
 20
485.88458268732853
 30
0.0
 41
0.9998091630798816
 10
-15981.159025066456
 20
485.79548233662268
 30
0.0
 41
1.0
 10
-15981.172030818929
 20
485.78478723618036
 30
0.0
 41
1.0
 10
-15981.185036571402
 20
485.77409213573799
 30
0.0
 41
1.0
 10
-15981.319398354382
 20
485.66360158414619
 30
0.0
 41
0.9995035112316577
 10
-15981.446534232144
 20
485.54486776713389
 30
0.0
 41
1.0
 10
-15981.456181542553
 20
485.53585802095517
 30
0.0
 41
1.0
 10
-15981.465828852963
 20
485.52684827477651
 30
0.0
 41
1.0
 10
-15981.589251915706
 20
485.41158190304071
 30
0.0
 41
0.9994630424298001
 10
-15981.704860321472
 20
485.28847915982283
 30
0.0
 41
1.0
 10
-15981.708543160254
 20
485.2845575802973
 30
0.0
 41
1.0
 10
-15981.712225999037
 20
485.28063600077178
 30
0.0
 41
1.0
 10
-15981.820468727265
 20
485.16537641657851
 30
0.0
 41
0.9995160693747285
 10
-15981.921334756787
 20
485.04360899871506
 30
0.0
 41
1.0
 10
-15981.92326847687
 20
485.04127457450397
 30
0.0
 41
1.0
 10
-15981.925202196953
 20
485.03894015029294
 30
0.0
 41
1.0
 10
-15982.022200786318
 20
484.92184158084621
 30
0.0
 41
0.9996561470514193
 10
-15982.112927004986
 20
484.79981881839331
 30
0.0
 41
1.0
 10
-15982.119084670905
 20
484.79153702932808
 30
0.0
 41
1.0
 10
-15982.125242336824
 20
484.78325524026286
 30
0.0
 41
1.0
 10
-15982.203653223669
 20
484.67779605592062
 30
0.0
 41
0.9998349055175198
 10
-15982.278180505584
 20
484.56955747228074
 30
0.0
 41
1.0
 10
-15982.352707787504
 20
484.46131888863579
 30
0.0
 41
0.9999728109562315
 10
-15982.425630683425
 20
484.3519929630645
 30
0.0
 41
1.0
 10
-15982.426945898838
 20
484.35002119356079
 30
0.0
 41
1.0
 10
-15982.42826111425
 20
484.34804942405708
 30
0.0
 41
1.0
 10
-15982.503814440977
 20
484.23477995950304
 30
0.0
 41
0.9999972147466327
 10
-15982.578832251311
 20
484.12115511672874
 30
0.0
 41
1.0
 10
-15982.583803793956
 20
484.1136250282226
 30
0.0
 41
1.0
 10
-15982.588775336601
 20
484.1060949397164
 30
0.0
 41
1.0
 10
-15982.673736232191
 20
483.9774099199779
 30
0.0
 41
0.9999371979007518
 10
-15982.755791581583
 20
483.8468530062234
 30
0.0
 41
1.0
 10
-15982.759300465965
 20
483.8412700781256
 30
0.0
 41
1.0
 10
-15982.762809350348
 20
483.83568715002775
 30
0.0
 41
1.0
 10
-15982.851882468465
 20
483.69396438014178
 30
0.0
 41
0.999827202561044
 10
-15982.935625859331
 20
483.54902850342728
 30
0.0
 41
1.0
 10
-15982.950841031368
 20
483.52269538894535
 30
0.0
 41
1.0
 10
-15982.966056203408
 20
483.49636227446342
 30
0.0
 41
1.0
 10
-15983.080229938349
 20
483.29876016878825
 30
0.0
 41
0.9995217214837386
 10
-15983.181969627907
 20
483.09447784091628
 30
0.0
 41
1.0
 10
-15983.189613190536
 20
483.07913039122582
 30
0.0
 41
1.0
 10
-15983.197256753165
 20
483.06378294153535
 30
0.0
 41
1.0
 10
-15983.284162045757
 20
482.88928648345052
 30
0.0
 41
0.9998269762608778
 10
-15983.364516512025
 20
482.71167819673474
 30
0.0
 41
1.0
 10
-15983.444870978314
 20
482.53406990997428
 30
0.0
 41
0.9998944747389492
 10
-15983.520031772887
 20
482.35420218432529
 30
0.0
 41
1.0
 10
-15983.524985442442
 20
482.34234752949237
 30
0.0
 41
1.0
 10
-15983.529939111997
 20
482.33049287465951
 30
0.0
 41
1.0
 10
-15983.61058617257
 20
482.13749593459573
 30
0.0
 41
0.9999506734411602
 10
-15983.687383701501
 20
481.94293512967181
 30
0.0
 41
1.0
 10
-15983.70198366681
 20
481.90594720777017
 30
0.0
 41
1.0
 10
-15983.716583632118
 20
481.86895928586858
 30
0.0
 41
1.0
 10
-15983.764181230448
 20
481.74837432470201
 30
0.0
 41
0.9999912393950398
 10
-15983.810767674426
 20
481.62739512211988
 30
0.0
 41
1.0
 10
-15983.857354118349
 20
481.50641591968406
 30
0.0
 41
0.9999927113952283
 10
-15983.903015412634
 20
481.38508451247537
 30
0.0
 41
1.0
 10
-15983.916983844138
 20
481.34796753019981
 30
0.0
 41
1.0
 10
-15983.930952275639
 20
481.31085054792425
 30
0.0
 41
1.0
 10
-15984.004550432815
 20
481.11528517646042
 30
0.0
 41
0.9999487550947827
 10
-15984.074174057778
 20
480.91826981130629
 30
0.0
 41
1.0
 10
-15984.097767667765
 20
480.85150650087036
 30
0.0
 41
1.0
 10
-15984.121361277752
 20
480.78474319043443
 30
0.0
 41
1.0
 10
-15984.216046912075
 20
480.51680935574393
 30
0.0
 41
0.9999808436948068
 10
-15984.307408500687
 20
480.24772392456703
 30
0.0
 41
1.0
 10
-15984.398770089363
 20
479.9786384931997
 30
0.0
 41
0.9999873932911395
 10
-15984.487424798097
 20
479.70864913813114
 30
0.0
 41
1.0
 10
-15984.50751715494
 20
479.64745980545723
 30
0.0
 41
1.0
 10
-15984.527609511784
 20
479.58627047278333
 30
0.0
 41
1.0
 10
-15984.656448934233
 20
479.19390245229249
 30
0.0
 41
0.9999794883036673
 10
-15984.780251719196
 20
478.7999162459983
 30
0.0
 41
1.0
 10
-15984.791403978521
 20
478.76442563612011
 30
0.0
 41
1.0
 10
-15984.802556237846
 20
478.72893502624191
 30
0.0
 41
1.0
 10
-15984.945114401831
 20
478.27526227387318
 30
0.0
 41
0.9999982761710594
 10
-15985.085986841987
 20
477.82106325130303
 30
0.0
 41
1.0
 10
-15986.67412717456
 20
472.77229352029974
 30
0.0
 41
1.0
 10
-15988.262267507132
 20
467.72352378929645
 30
0.0
 41
1.0
 10
-15989.211018118609
 20
467.72352378929645
 30
0.0
 41
1.0
 10
-15990.159768730085
 20
467.72352378929645
 30
0.0
 41
1.0
 10
-15986.921484243932
 20
478.05084598924259
 30
0.0
 41
1.0
 10
-15983.683199757779
 20
488.37816818918873
 30
0.0
 41
1.0
  0
LWPOLYLINE
  5
5D
100
AcDbEntity
  8
0
370
              15
390
0
  6
Continuous
 62
               7
100
AcDbPolyline
 90
      232
 70
             128
 10
-16009.386745531607
 20
487.29382535767354
 42
0.0004370800743078
 10
-16009.43962270577
 20
487.22515871829665
 10
-16009.478906936805
 20
487.17405160552073
 42
0.0030481992164516
 10
-16009.609245653854
 20
487.0023299132701
 10
-16009.647757325674
 20
486.95094312938841
 42
0.0042058245753556
 10
-16009.851742376351
 20
486.67393738430434
 10
-16009.904147498844
 20
486.60150453753397
 42
0.0120948898748164
 10
-16010.200191415599
 20
486.17075493299774
 10
-16010.296383914731
 20
486.02327419775736
 42
0.0141601263956797
 10
-16010.600027961651
 20
485.52760486102466
 10
-16010.639565229105
 20
485.45876089354243
 42
0.0071131081325332
 10
-16010.844837552315
 20
485.08925809475477
 42
0.0068458790996463
 10
-16011.039717079098
 20
484.71416653140062
 10
-16011.046528941617
 20
484.70060481755502
 42
0.006412088029208
 10
-16011.244671191625
 20
484.29318034270864
 10
-16011.252205877177
 20
484.2771684859149
 42
0.0058857236417509
 10
-16011.454961269041
 20
483.83279237490046
 10
-16011.463136195343
 20
483.81430222124595
 42
0.0053189741890521
 10
-16011.67184050801
 20
483.32833874732762
 10
-16011.680588313691
 20
483.30735686913192
 42
0.0047503650431304
 10
-16011.896562039849
 20
482.77515743590811
 10
-16011.905830288191
 20
482.75168105981436
 42
0.004207176215511
 10
-16012.130377671885
 20
482.16858746583671
 10
-16012.140127074268
 20
482.1426212908749
 42
0.0036680086456051
 10
-16012.374581717486
 20
481.50398590660484
 10
-16012.384789497428
 20
481.47553737199917
 42
0.0032573142634113
 10
-16012.630421783473
 20
480.77668471201571
 10
-16012.699072304193
 20
480.57722162831595
 42
0.0026133366647598
 10
-16013.047517502993
 20
479.54735834452094
 10
-16013.110774290566
 20
479.35712750891179
 42
0.0020592950734038
 10
-16013.324637359459
 20
478.7050238565148
 10
-16013.32768915061
 20
478.69558736814548
 42
0.0025609928545335
 10
-16013.529509652109
 20
478.06044214573922
 10
-16013.532101019269
 20
478.05213980469512
 42
0.0031362356247045
 10
-16013.721591804911
 20
477.43137694861912
 10
-16013.723722847855
 20
477.4242356423531
 42
0.0037229918033962
 10
-16013.900523234766
 20
476.81525034043386
 10
-16013.902201823988
 20
476.80930345020505
 42
0.0043077623708765
 10
-16014.065942626039
 20
476.20948471849044
 42
0.0047654161804482
 10
-16014.218771348518
 20
475.60679862973404
 10
-16014.253235957392
 20
475.46523685243835
 42
0.0112969368446732
 10
-16014.449100315549
 20
474.57354469176596
 10
-16014.477106704635
 20
474.4307166457163
 42
0.0130056762563881
 10
-16014.677943948282
 20
473.24377557407138
 10
-16014.698483698432
 20
473.09969746057146
 42
0.0138721532142122
 10
-16014.802186702966
 20
472.19286797476866
 10
-16014.821482190871
 20
471.96937025287974
 42
0.0071254696988294
 10
-16014.854828836797
 20
471.50618324399636
 10
-16014.859789810955
 20
471.42017924951597
 42
0.0028881799189286
 10
-16014.874928104247
 20
471.12843753959362
 42
0.0060297297123303
 10
-16014.884860304021
 20
470.83648860362257
 10
-16014.885922585689
 20
470.78809623161544
 42
0.0229523164118312
 10
-16014.878191557906
 20
470.46534138526215
 10
-16014.873965784385
 20
470.40493785124511
 42
0.0123673300697878
 10
-16014.854887137866
 20
470.20381712607116
 42
0.0128577674503738
 10
-16014.825691747461
 20
470.00391927614857
 10
-16014.818565874073
 20
469.96259046154739
 42
0.0285717853834103
 10
-16014.75407187237
 20
469.68447431020991
 10
-16014.740403348727
 20
469.6378195408069
 42
0.0316283099099646
 10
-16014.624592768796
 20
469.31880503893103
 10
-16014.621544077041
 20
469.31181866660654
 42
0.0338984824229762
 10
-16014.472112366075
 20
469.02425270241633
 10
-16014.469803636699
 20
469.02046167313108
 42
0.0350228718355891
 10
-16014.287443346031
 20
468.76340968846353
 10
-16014.286558094251
 20
468.76233061069388
 42
0.0347476747509664
 10
-16014.072133407015
 20
468.53514556347943
 42
0.0331337701948499
 10
-16013.828890081266
 20
468.33901690139987
 10
-16013.827789982754
 20
468.33824419822952
 42
0.0305233319086363
 10
-16013.559245287162
 20
468.17311602812907
 10
-16013.556015242679
 20
468.17139201627549
 42
0.027374448118255
 10
-16013.263461531094
 20
468.03525387238039
 10
-16013.258356995968
 20
468.03321028791538
 42
0.0240964406174181
 10
-16012.942879920327
 20
467.92422656163575
 10
-16012.936296591111
 20
467.92230182195897
 42
0.0209636179838715
 10
-16012.59889643846
 20
467.83883367402677
 10
-16012.591263978011
 20
467.83728176102545
 42
0.0181388704703986
 10
-16012.232941586009
 20
467.77786566781123
 10
-16012.224660737633
 20
467.77679948399441
 42
0.0156086547566021
 10
-16011.846473373444
 20
467.74006329741769
 10
-16011.803278121117
 20
467.73722479493875
 42
0.0137148329000271
 10
-16011.475604975818
 20
467.72470453968742
 10
-16011.42966878588
 20
467.72421010657223
 42
0.005105782389111
 10
-16011.193523199301
 20
467.72407985216307
 42
0.0052256693302256
 10
-16010.957425915514
 20
467.72882867662747
 10
-16010.887199131772
 20
467.7309756426414
 42
0.0161507179044573
 10
-16010.51146205367
 20
467.75462601296795
 10
-16010.491449093297
 20
467.75653620825551
 42
0.010121673784049
 10
-16010.0774218718
 20
467.80452913862212
 10
-16010.043368582381
 20
467.80917683543066
 42
0.0245291776422385
 10
-16009.566578926824
 20
467.89825191350809
 10
-16009.48175561131
 20
467.91844783385176
 42
0.0143509212541528
 10
-16009.125124507365
 20
468.01425246763154
 42
0.0156557857032017
 10
-16008.774908442665
 20
468.13126368344092
 10
-16008.767407228144
 20
468.1340338452045
 42
0.0170137333629598
 10
-16008.410811232465
 20
468.27969146007439
 10
-16008.403707310055
 20
468.2828792956393
 42
0.0183105364441024
 10
-16008.044357641847
 20
468.46021433748587
 10
-16008.03741087725
 20
468.46396477233577
 42
0.01948999581757
 10
-16007.678930136237
 20
468.6759437542454
 10
-16007.67191625693
 20
468.68046909652151
 42
0.0204869852955893
 10
-16007.317901954799
 20
468.92998911163482
 10
-16007.310636346248
 20
468.93556917695571
 42
0.0212516938574643
 10
-16006.964646415128
 20
469.22547317386096
 10
-16006.918129721067
 20
469.26794048394112
 42
0.0215248918244786
 10
-16006.658103552178
 20
469.52670476293849
 10
-16006.613073817769
 20
469.57554888431798
 42
0.0114578554974105
 10
-16006.45828166412
 20
469.75137181774664
 10
-16006.447087128241
 20
469.76469058116282
 42
0.0061531305127039
 10
-16006.320612482137
 20
469.91898011459773
 42
0.0006325587169334
 10
-16006.196233997332
 20
470.07498349109454
 10
-16006.173193862935
 20
470.10395701093285
 42
0.0041897761536219
 10
-16006.004738458923
 20
470.31947638704435
 10
-16005.946276339069
 20
470.39557773397985
 42
0.009299388002884
 10
-16005.669664411822
 20
470.76985649789913
 10
-16005.587269918649
 20
470.88579350143073
 42
0.0159321727088249
 10
-16005.240663436005
 20
471.40796772218846
 10
-16005.196307300654
 20
471.47964728637612
 42
0.0085547316993513
 10
-16004.96179553529
 20
471.87352223566313
 42
0.0084601156867382
 10
-16004.740819357876
 20
472.27514908464087
 10
-16004.732703884018
 20
472.29050876696829
 42
0.0081429654296405
 10
-16004.509454613581
 20
472.73023027951143
 10
-16004.500594449397
 20
472.74840912152843
 42
0.0076574581338792
 10
-16004.274186938825
 20
473.23159199679083
 10
-16004.264707298105
 20
473.25265647508456
 42
0.0070682724229556
 10
-16004.034262390194
 20
473.78469378011425
 10
-16004.024272106317
 20
473.80868296887741
 42
0.0064559514441061
 10
-16003.788938898146
 20
474.39499523536824
 10
-16003.77852953997
 20
474.42193016083854
 42
0.0058311413905708
 10
-16003.537482803238
 20
475.06796225513705
 10
-16003.526727725821
 20
475.09784659638274
 42
0.0052312425831248
 10
-16003.279146447741
 20
475.80904901033279
 10
-16003.268102611401
 20
475.841875722287
 42
0.0046680544801019
 10
-16003.013174183709
 20
476.62370203790709
 10
-16002.971182033536
 20
476.75668527560657
 42
0.0041666856454517
 10
-16002.767896021227
 20
477.41965405033943
 10
-16002.730233580438
 20
477.54623515841558
 42
0.0015170975183803
 10
-16002.60904700215
 20
477.95810350948682
 42
-0.0004887993134347
 10
-16002.488707229117
 20
478.37022192121867
 10
-16002.412229971531
 20
478.63117930746989
 42
0.0002583378929999
 10
-16002.13901540105
 20
479.56523601207965
 10
-16002.057242551949
 20
479.84533527003066
 42
0.000663616966776
 10
-16001.863374791879
 20
480.51268819381903
 10
-16001.858278137486
 20
480.53031977686038
 42
0.0010589131333288
 10
-16001.676829436616
 20
481.16305111974793
 10
-16001.671847366068
 20
481.18056402700563
 42
0.001565552447119
 10
-16001.503577158954
 20
481.77918070596888
 10
-16001.498746958563
 20
481.79657286481819
 42
0.0021640440480749
 10
-16001.344456986551
 20
482.36159988292286
 10
-16001.339822767124
 20
482.37886461290464
 42
0.0028763871852629
 10
-16001.200307049068
 20
482.91083256376373
 10
-16001.195921184859
 20
482.92795654208311
 42
0.0037310511962769
 10
-16001.071964493065
 20
483.42740413594208
 10
-16001.067889272792
 20
483.44436440712479
 42
0.004765219778556
 10
-16000.960265372267
 20
483.91184217549267
 10
-16000.956574772932
 20
483.92860173069192
 42
0.0060276699300825
 10
-16000.86604467379
 20
484.36467752578687
 10
-16000.862825983539
 20
484.38117873989995
 42
0.0075824337689731
 10
-16000.790136674084
 20
484.78644590452222
 10
-16000.787491296694
 20
484.80260085202957
 42
0.0095130624638622
 10
-16000.733376061075
 20
485.17769020504454
 10
-16000.726389837193
 20
485.23362376314856
 42
0.0121054653214635
 10
-16000.699798506614
 20
485.49851959163493
 10
-16000.698932016854
 20
485.50992303455882
 42
0.0069050827380439
 10
-16000.683843198816
 20
485.75286426140826
 10
-16000.68270789915
 20
485.77639051838969
 42
0.0169063976589348
 10
-16000.679880620166
 20
485.97258324575375
 10
-16000.681051271704
 20
486.03291900737963
 42
0.0052007733159756
 10
-16000.683304720291
 20
486.10851239725503
 42
0.0054038123381445
 10
-16000.703268232142
 20
486.22853069332797
 10
-16000.708354088001
 20
486.25718917984614
 42
0.0112050460451375
 10
-16000.743738450044
 20
486.43351561811733
 10
-16000.761563412099
 20
486.51305720490598
 42
0.0240764467975724
 10
-16000.852460778246
 20
486.84329424040283
 10
-16000.871019541059
 20
486.89991440539552
 42
0.0256812331844345
 10
-16001.01438246125
 20
487.27163861165832
 10
-16001.019791887074
 20
487.28376994665661
 42
0.0268360501243428
 10
-16001.18921912792
 20
487.61476308066904
 10
-16001.194755535549
 20
487.62428275096994
 42
0.0274670231715459
 10
-16001.386956511969
 20
487.9165701258986
 10
-16001.392337811931
 20
487.92384927343903
 42
0.0275035967076258
 10
-16001.603910691494
 20
488.17936516374402
 10
-16001.608980192443
 20
488.18484425135608
 42
0.0269557673489925
 10
-16001.836383735899
 20
488.40548653733674
 10
-16001.841126793704
 20
488.4096164918173
 42
0.0259124802274999
 10
-16002.080681625113
 20
488.59730701894989
 10
-16002.085212470274
 20
488.60049252126527
 42
0.0245162152966965
 10
-16002.333128823389
 20
488.75722553039066
 10
-16002.337655369694
 20
488.75978572758083
 42
0.0229282588840383
 10
-16002.590074926542
 20
488.88765392009043
 10
-16002.594855420382
 20
488.88980621985377
 42
0.0212984135734497
 10
-16002.84789337284
 20
488.9910051370947
 10
-16002.85319765782
 20
488.99286869985826
 42
0.0197555462385527
 10
-16003.102975995533
 20
489.06968411781952
 42
0.0183511896817304
 10
-16003.35790472099
 20
489.12726702478381
 10
-16003.44426991772
 20
489.14346981517031
 42
0.0338057877158029
 10
-16003.729777266977
 20
489.17727822031031
 10
-16003.820782672023
 20
489.18185787557189
 42
0.0091990524568973
 10
-16003.926629780653
 20
489.18523373149378
 42
0.0028333980701219
 10
-16004.03254369664
 20
489.18606183901051
 10
-16004.033459149696
 20
489.18606380883455
 42
-0.0023619827741172
 10
-16004.141205164808
 20
489.18680464991309
 10
-16004.177610334978
 20
489.18722695637609
 42
0.0008824598531219
 10
-16004.358166324788
 20
489.18900273461401
 10
-16004.402027757234
 20
489.18935669613995
 42
0.0038132665803104
 10
-16004.670310653109
 20
489.18947563220661
 10
-16004.686844307907
 20
489.18935686606301
 42
0.0060665569348506
 10
-16004.988124799511
 20
489.18353656664186
 10
-16005.002375131524
 20
489.18308825867462
 42
0.0080356953348037
 10
-16005.331833847849
 20
489.16742053660857
 10
-16005.343903862949
 20
489.16665195366727
 42
0.0098996399134253
 10
-16005.696666947599
 20
489.13716672446907
 10
-16005.706712656975
 20
489.13612642827093
 42
0.0117740981390023
 10
-16006.077869515331
 20
489.08883418073992
 10
-16006.086092211806
 20
489.08758906417029
 42
0.0137435215122666
 10
-16006.470681031296
 20
489.01849209060754
 10
-16006.477338070414
 20
489.01710619437506
 42
0.0158359869361501
 10
-16006.87033516422
 20
488.922214105894
 10
-16006.875748351085
 20
488.92072416502378
 42
0.0180554124017025
 10
-16007.272063395707
 20
488.79608614878157
 10
-16007.27662018378
 20
488.79447011251875
 42
0.0203657431283249
 10
-16007.671097701583
 20
488.63620977100715
 10
-16007.675241240599
 20
488.63434814956111
 42
0.0226819684641473
 10
-16008.062677296781
 20
488.43870557090338
 10
-16008.066877087822
 20
488.4363399789703
 42
0.0248634984571809
 10
-16008.442059028979
 20
488.19971333303874
 10
-16008.490253957785
 20
488.16585629119839
 42
0.0267044190860299
 10
-16008.764546654704
 20
487.95041591532924
 42
0.0139303002175507
 10
-16009.020713820624
 20
487.71317707443313
 10
-16009.025567206361
 20
487.70842441155719
 42
0.0283460963428872
 10
-16009.269639800597
 20
487.44069375110405
 10
-16009.309308305747
 20
487.39189217363901
 42
0.0070695364836515
 10
-16009.386745531607
 20
487.29382535767354
 42
0.0070695364836515
  0
LWPOLYLINE
  5
5E
100
AcDbEntity
  8
0
370
              15
390
0
  6
Continuous
 62
               7
100
AcDbPolyline
 90
      226
 70
             128
 10
-16012.915565968853
 20
471.5722365514896
 42
-0.0026277636570087
 10
-16012.915643852653
 20
471.63900847728513
 10
-16012.915426494421
 20
471.69216369467574
 42
-0.0088680296693428
 10
-16012.911649878131
 20
471.86517947703021
 10
-16012.909303519016
 20
471.92445950253239
 42
-0.0077381705598992
 10
-16012.893257408252
 20
472.21571999833981
 10
-16012.892389497079
 20
472.22800823201567
 42
-0.0068872530502672
 10
-16012.865757417328
 20
472.54322998409532
 10
-16012.864553193143
 20
472.5554709631034
 42
-0.0062130021486638
 10
-16012.826959476301
 20
472.89434065447756
 10
-16012.825455572782
 20
472.90651452625843
 42
-0.0056726929638876
 10
-16012.776533713275
 20
473.26870974840733
 10
-16012.774760267635
 20
473.2808035486172
 42
-0.0052341884503532
 10
-16012.7141496814
 20
473.66599680398218
 10
-16012.712131692599
 20
473.67800173412752
 42
-0.0049768450179718
 10
-16012.639393011183
 20
474.08584630149358
 10
-16012.615143996449
 20
474.21439428456608
 42
-0.0089029805635534
 10
-16012.478063144661
 20
474.87616973196037
 10
-16012.445317769336
 20
475.02120116251194
 42
-0.0080318257113583
 10
-16012.21576915502
 20
475.96691079427427
 10
-16012.203784228548
 20
476.01304142955576
 42
-0.0074265721315142
 10
-16011.919772689684
 20
477.04310600798783
 10
-16011.899893146589
 20
477.11124006850298
 42
-0.0069711922704515
 10
-16011.572588568075
 20
478.17750780885365
 10
-16011.512636620992
 20
478.36352916715703
 42
-0.0052070422898089
 10
-16011.28321139571
 20
479.05080124425558
 10
-16011.265930203757
 20
479.10082852423795
 42
-0.0009167004460277
 10
-16011.062838316248
 20
479.68528437302678
 42
-0.0025162726957581
 10
-16010.855740686049
 20
480.26832563701504
 10
-16010.818516074032
 20
480.37147518350855
 42
-0.0028212681447326
 10
-16010.570340155216
 20
481.04720581526578
 10
-16010.560509392606
 20
481.07351325956722
 42
-0.00319649168507
 10
-16010.324217134803
 20
481.69371802206956
 10
-16010.314582680701
 20
481.71852801247616
 42
-0.0036281836449
 10
-16010.089476719702
 20
482.28596869310593
 10
-16010.080038309467
 20
482.30926612480118
 42
-0.0041269166828629
 10
-16009.865420612887
 20
482.82670702058704
 10
-16009.83278765638
 20
482.90358546715066
 42
-0.0047472213056608
 10
-16009.675742850912
 20
483.26400693483151
 10
-16009.668848769765
 20
483.27942753202848
 42
-0.0025651660004079
 10
-16009.520490735855
 20
483.60675558791195
 42
-0.0057144635002589
 10
-16009.366741042058
 20
483.93156526132526
 10
-16009.338710336662
 20
483.98907364370751
 42
-0.0065388068355944
 10
-16009.155243308942
 20
484.35330614033364
 10
-16009.146784853134
 20
484.36956571975918
 42
-0.0074510843018118
 10
-16008.970602607285
 20
484.69625400082589
 10
-16008.962422936665
 20
484.71089477825274
 42
-0.0084648979807779
 10
-16008.792789083654
 20
485.00280378905586
 10
-16008.784932957138
 20
485.01581078075361
 42
-0.00956385427965
 10
-16008.621097509573
 20
485.27569965268526
 10
-16008.613622565854
 20
485.28706901421327
 42
-0.0107191626767584
 10
-16008.454820985513
 20
485.51768024868477
 10
-16008.447804251826
 20
485.52741634098834
 42
-0.0118458573931351
 10
-16008.293256153269
 20
485.73148853636008
 42
-0.0129184518173252
 10
-16008.128803529622
 20
485.92764905258247
 10
-16008.098658757313
 20
485.96177513142089
 42
-0.0217742579658669
 10
-16007.922046434971
 20
486.14498190168013
 10
-16007.911300890459
 20
486.15519873493173
 42
-0.0097266568652504
 10
-16007.745243271653
 20
486.30704630932041
 42
-0.0187720905725178
 10
-16007.570895695768
 20
486.4491151627056
 10
-16007.5401897051
 20
486.47227424509725
 42
-0.0179428207518296
 10
-16007.307768985094
 20
486.63482642221743
 10
-16007.304116658186
 20
486.63719035709971
 42
-0.0170047877677842
 10
-16007.068353020648
 20
486.77865087125667
 10
-16007.064570031906
 20
486.78074917629095
 42
-0.0160190788357579
 10
-16006.827661484265
 20
486.90240047828104
 42
-0.0151102861501687
 10
-16006.583629701825
 20
487.00908325433335
 10
-16006.531243199606
 20
487.03012338723033
 42
-0.0271945441857138
 10
-16006.17258064053
 20
487.15198819794171
 10
-16006.103515840059
 20
487.17133773920358
 42
-0.0237596594002345
 10
-16005.687718993038
 20
487.2667884511842
 10
-16005.61965613931
 20
487.27904313931049
 42
-0.0213715440545404
 10
-16005.333781207863
 20
487.31799017082085
 10
-16005.273634041641
 20
487.32357988552212
 42
-0.0101465655767981
 10
-16005.106141509652
 20
487.33572342878585
 10
-16005.096801123451
 20
487.33621034378325
 42
-0.0100375910884979
 10
-16004.947647022891
 20
487.34098616170832
 10
-16004.937387753202
 20
487.34110860072286
 42
-0.0103625633325411
 10
-16004.808679758555
 20
487.33997716719614
 10
-16004.786414107279
 20
487.33931980873098
 42
-0.011568925013608
 10
-16004.702363369761
 20
487.33489030248609
 42
-0.0072438037504442
 10
-16004.61852509032
 20
487.32730110273673
 10
-16004.601724580847
 20
487.32553456001256
 42
-0.0217917313079847
 10
-16004.48515481753
 20
487.30811466729085
 10
-16004.419554726961
 20
487.29536805887597
 42
-0.0332943556707405
 10
-16004.215162561937
 20
487.24132776756994
 10
-16004.184989993359
 20
487.23115969044176
 42
-0.0184824084781577
 10
-16004.046484936924
 20
487.17870867506497
 42
-0.0198002050676222
 10
-16003.912410596418
 20
487.11582461486341
 10
-16003.910523959046
 20
487.11484682798573
 42
-0.0212242343075226
 10
-16003.778385016665
 20
487.03908408920569
 10
-16003.776569721102
 20
487.03793828698429
 42
-0.0226090605760696
 10
-16003.648065819896
 20
486.94845864343131
 10
-16003.646221378143
 20
486.94704639043232
 42
-0.0238457052260624
 10
-16003.523039296844
 20
486.84305049456401
 10
-16003.521086568291
 20
486.84123561680383
 42
-0.0248160564154074
 10
-16003.404885060994
 20
486.72196101560036
 10
-16003.402781427587
 20
486.71957568189066
 42
-0.0254109591528079
 10
-16003.295176209733
 20
486.58428729594101
 10
-16003.292928187808
 20
486.58114574752574
 42
-0.025552848823496
 10
-16003.195481509008
 20
486.42911869328788
 10
-16003.193150409094
 20
486.42503708168385
 42
-0.0252146793234891
 10
-16003.107369383093
 20
486.25553483570843
 10
-16003.105067143926
 20
486.250352753774
 42
-0.0244265635969319
 10
-16003.032412450171
 20
486.06260618174173
 10
-16003.023166048701
 20
486.03474076339739
 42
-0.0231319612987191
 10
-16002.977243269706
 20
485.87143971658793
 42
-0.0112130424357868
 10
-16002.94260724716
 20
485.70523611635355
 10
-16002.941404722056
 20
485.69873952951195
 42
-0.0210527881194562
 10
-16002.915718246681
 20
485.51768388403872
 10
-16002.912207651862
 20
485.48227833552346
 42
-0.0190029892390842
 10
-16002.896766178317
 20
485.22874248920908
 10
-16002.895956201874
 20
485.19326687488217
 42
-0.0137974553654266
 10
-16002.897505054711
 20
484.86823546811786
 10
-16002.898350509668
 20
484.84211672347533
 42
-0.0081336634182552
 10
-16002.913209844888
 20
484.53676925595664
 42
-0.0073526923562663
 10
-16002.937518378261
 20
484.23202101167823
 10
-16002.938779802045
 20
484.21868433700547
 42
-0.0066886138658387
 10
-16002.974515388109
 20
483.88809829336549
 10
-16002.976172477562
 20
483.87447667451681
 42
-0.0061359187334084
 10
-16003.024023079623
 20
483.51771269434943
 10
-16003.026060580685
 20
483.50381789158757
 42
-0.0056698610071111
 10
-16003.086710911441
 20
483.12053932281015
 10
-16003.089116344774
 20
483.10638020351882
 42
-0.0052721077277616
 10
-16003.163248545539
 20
482.69625286402317
 10
-16003.166011694417
 20
482.68183622845493
 42
-0.0049289272136546
 10
-16003.254305812567
 20
482.24452771709434
 10
-16003.257418307199
 20
482.2298588645167
 42
-0.0047415956664445
 10
-16003.360656298797
 20
481.76506210681362
 10
-16003.39542450909
 20
481.61525501172287
 42
-0.0084404470898667
 10
-16003.585440952646
 20
480.85503098725093
 10
-16003.591567640648
 20
480.83216686303831
 42
-0.0039635940243286
 10
-16003.813021324971
 20
480.03117799865504
 10
-16003.826398120113
 20
479.9842463821991
 42
-0.0072475040854977
 10
-16004.09384500793
 20
479.09502666595682
 10
-16004.164057334792
 20
478.87328631587366
 42
-0.0051345458832424
 10
-16004.450816706862
 20
477.99896112802571
 10
-16004.472342973701
 20
477.93553486068566
 42
-0.0019150016593699
 10
-16004.727876380495
 20
477.19198574066968
 10
-16004.734343984894
 20
477.17339827574284
 42
-0.0021524362758877
 10
-16004.982822035956
 20
476.4690724540402
 10
-16004.992032456446
 20
476.44331887631449
 42
-0.0024331286846223
 10
-16005.228287715687
 20
475.79271956762057
 10
-16005.237335668293
 20
475.76817626111369
 42
-0.0027449721769743
 10
-16005.461950239074
 20
475.16904638234178
 10
-16005.470840246448
 20
475.14572379253929
 42
-0.0031083229773267
 10
-16005.684382733078
 20
474.59579975490988
 10
-16005.69311886487
 20
474.57371003875608
 42
-0.0035311343259412
 10
-16005.896160050343
 20
474.07072691332201
 10
-16005.904745389591
 20
474.04988418956509
 42
-0.0040245640934325
 10
-16006.097857193286
 20
473.59157486721926
 10
-16006.106293306832
 20
473.57199549928248
 42
-0.004601513586511
 10
-16006.290049600053
 20
473.15609046950499
 10
-16006.298335777845
 20
473.13779333013343
 42
-0.0052768638261688
 10
-16006.473313296836
 20
472.76202044578258
 10
-16006.48144550747
 20
472.74502710722544
 42
-0.006067267561777
 10
-16006.648225120229
 20
472.40711148412515
 10
-16006.65619460071
 20
472.39144622512754
 42
-0.0069904648843854
 10
-16006.815362994712
 20
472.0891104184642
 10
-16006.823154394284
 20
472.07479986930809
 42
-0.0080637022780488
 10
-16006.97530625467
 20
471.80576456608378
 10
-16006.982895287336
 20
471.79283670042309
 42
-0.009300645564384
 10
-16007.128635963832
 20
471.55482230197993
 10
-16007.135986630561
 20
471.54330433282973
 42
-0.0107060778046251
 10
-16007.275935174013
 20
471.33403401542773
 10
-16007.282996942293
 20
471.32394847286355
 42
-0.0122723111439181
 10
-16007.417790660493
 20
471.14115514337288
 10
-16007.418116884073
 20
471.14073475552931
 42
-0.0141836319628618
 10
-16007.561698487021
 20
470.9661649977337
 10
-16007.568646242653
 20
470.95818999749213
 42
-0.0175957477207667
 10
-16007.708552410706
 20
470.80856910906414
 42
-0.0080466359644714
 10
-16007.856016175785
 20
470.66624658086801
 10
-16007.902050720255
 20
470.62322614282175
 42
-0.0269600260408333
 10
-16008.155330966239
 20
470.41090288431047
 10
-16008.221898102527
 20
470.36095146969353
 42
-0.0178362839768047
 10
-16008.461842592191
 20
470.19393354343629
 10
-16008.469087563213
 20
470.18926503121673
 42
-0.017465073260891
 10
-16008.705423760632
 20
470.04840406627227
 42
-0.016924013018019
 10
-16008.950890006481
 20
469.92411180649844
 10
-16008.996876162048
 20
469.90274985092765
 42
-0.0318883036828297
 10
-16009.347227017666
 20
469.76641154141771
 10
-16009.415592552828
 20
469.74471092094302
 42
-0.0284435909897738
 10
-16009.791642679123
 20
469.64849348546738
 10
-16009.826800839626
 20
469.64159988963814
 42
-0.0243909341008839
 10
-16010.140244300539
 20
469.59587885860878
 10
-16010.190525027308
 20
469.59103331170724
 42
-0.0196639292898136
 10
-16010.406120604839
 20
469.5787850261936
 10
-16010.457944675998
 20
469.57788176545694
 42
-0.010050151063483
 10
-16010.570367957665
 20
469.57818216380997
 10
-16010.602027819003
 20
469.57890323569512
 42
-0.0019752031213938
 10
-16010.651120155693
 20
469.58021539590493
 10
-16010.653880458918
 20
469.58030008773136
 42
0.0065378752054606
 10
-16010.697457033668
 20
469.58106697894618
 42
-0.0167974694674273
 10
-16010.7409878566
 20
469.58272687747228
 10
-16010.745067195861
 20
469.58301988836718
 42
-0.0081283276360524
 10
-16010.796626993595
 20
469.58756688200464
 10
-16010.808366567479
 20
469.58879479958341
 42
-0.0126703440091858
 10
-16010.883084863281
 20
469.59852959065609
 10
-16010.905872730949
 20
469.60208784657016
 42
-0.0117852088400805
 10
-16011.025411716784
 20
469.62365084172751
 10
-16011.080792168545
 20
469.63499438196186
 42
-0.0251774592320117
 10
-16011.307636207546
 20
469.69349239139279
 10
-16011.35235539739
 20
469.70745921072586
 42
-0.0146525199927593
 10
-16011.538748384943
 20
469.77172573792825
 42
-0.0166929435840881
 10
-16011.720726041069
 20
469.84753287098283
 10
-16011.725382672343
 20
469.84965777159687
 42
-0.0191684358458062
 10
-16011.910566303599
 20
469.9428938553898
 10
-16011.91389888935
 20
469.94473510294017
 42
-0.0221181781808512
 10
-16012.097209193254
 20
470.05686860131357
 10
-16012.099558997259
 20
470.05845289930198
 42
-0.0254984685384435
 10
-16012.275849147654
 20
470.19086404927793
 10
-16012.298331295329
 20
470.20961635819253
 42
-0.0292492648773405
 10
-16012.423100234191
 20
470.32670915785093
 42
-0.0159048957490472
 10
-16012.536940231645
 20
470.45472914945469
 10
-16012.53825902222
 20
470.45631076247003
 42
-0.0343813379522363
 10
-16012.640896283845
 20
470.59818208823731
 10
-16012.672387815197
 20
470.64868548031814
 42
-0.0369117275766478
 10
-16012.758280317104
 20
470.81216272128199
 42
-0.0191751379922958
 10
-16012.825473702673
 20
470.98456732732484
 10
-16012.82723702642
 20
470.98966067196284
 42
-0.0378178042194751
 10
-16012.877031745205
 20
471.1786014480499
 10
-16012.883027040933
 20
471.21116206622946
 42
-0.0184846046481005
 10
-16012.90374424023
 20
471.35291488678604
 42
-0.0179866351165699
 10
-16012.914077245305
 20
471.4958056998928
 10
-16012.914133687749
 20
471.49736338647972
 42
-0.0085497186018434
 10
-16012.915565968853
 20
471.5722365514896
 42
-0.0085497186018434
  0
ENDBLK
  5
5F
100
AcDbEntity
  8
template
390
0
100
AcDbBlockEnd
  0
BLOCK
  5
60
100
AcDbEntity
  8
notes
390
0
100
AcDbBlockBegin
  2
*D3
 70
               1
 10
0.0
 20
0.0
 30
0.0
  3
*D3
  1

  0
LINE
  5
61
100
AcDbEntity
  8
0
370
              -2
390
0
  6
Continuous
 62
               0
100
AcDbLine
 10
-776.78755656955036
 20
847.13893352559103
 30
0.0
 11
-776.78755656955036
 21
977.1398873326068
 31
0.0
  0
LINE
  5
62
100
AcDbEntity
  8
0
370
              -2
390
0
  6
Continuous
 62
               0
100
AcDbLine
 10
-76.787556569550361
 20
847.13893352559103
 30
0.0
 11
-76.787556569550361
 21
977.1398873326068
 31
0.0
  0
LINE
  5
63
100
AcDbEntity
  8
0
370
              -2
390
0
  6
Continuous
 62
               0
100
AcDbLine
 10
-776.78755656955036
 20
977.1398873326068
 30
0.0
 11
-76.787556569550361
 21
977.1398873326068
 31
0.0
  0
CIRCLE
  5
64
102
{ACAD_REACTORS
330
65
102
}
100
AcDbEntity
  8
0
370
              -2
390
0
  6
Continuous
 62
               0
100
AcDbCircle
 10
-776.78755656955036
 20
977.1398873326068
 30
0.0
 40
4.99969482421875
  0
HATCH
  5
65
100
AcDbEntity
  8
0
370
              -2
390
0
  6
Continuous
 62
               0
100
AcDbHatch
 10
0.0
 20
0.0
 30
0.0
210
0.0
220
0.0
230
1.0
  2
SOLID
 70
               1
 71
               1
 91
        1
 92
        1
 93
        1
 72
               2
 10
-776.78755656955036
 20
977.1398873326068
 40
4.99969482421875
 50
0.0
 51
360.0
 73
               0
 97
        1
330
64
 75
               0
 76
               1
 98
        1
 10
0.0
 20
0.0
  0
CIRCLE
  5
66
102
{ACAD_REACTORS
330
67
102
}
100
AcDbEntity
  8
0
370
              -2
390
0
  6
Continuous
 62
               0
100
AcDbCircle
 10
-76.787556569550361
 20
977.1398873326068
 30
0.0
 40
4.99969482421875
  0
HATCH
  5
67
100
AcDbEntity
  8
0
370
              -2
390
0
  6
Continuous
 62
               0
100
AcDbHatch
 10
0.0
 20
0.0
 30
0.0
210
0.0
220
0.0
230
1.0
  2
SOLID
 70
               1
 71
               1
 91
        1
 92
        1
 93
        1
 72
               2
 10
-76.787556569550361
 20
977.1398873326068
 40
4.99969482421875
 50
0.0
 51
360.0
 73
               0
 97
        1
330
66
 75
               0
 76
               1
 98
        1
 10
0.0
 20
0.0
  0
MTEXT
  5
68
100
AcDbEntity
  8
0
390
0
 62
               0
100
AcDbMText
 10
-450.6000582517263
 20
1011.017504520107
 30
0.0
 40
24.432617187500004
 41
0.0
 71
               1
 72
               1
  1
700
  7
ＭＳゴシック
 73
               1
 44
0.7828267384257843
  0
POINT
  5
69
100
AcDbEntity
  8
Defpoints
370
               0
390
0
 62
               0
100
AcDbPoint
 10
-76.787556569550361
 20
822.13893352559103
 30
0.0
  0
POINT
  5
6A
100
AcDbEntity
  8
Defpoints
370
               0
390
0
 62
               0
100
AcDbPoint
 10
-776.78755656955036
 20
822.13893352559103
 30
0.0
  0
POINT
  5
6B
100
AcDbEntity
  8
Defpoints
370
               0
390
0
 62
               0
100
AcDbPoint
 10
-776.78755656955036
 20
977.1398873326068
 30
0.0
  0
ENDBLK
  5
6C
100
AcDbEntity
  8
notes
390
0
100
AcDbBlockEnd
  0
BLOCK
  5
6D
100
AcDbEntity
  8
notes
390
0
100
AcDbBlockBegin
  2
*D4
 70
               1
 10
0.0
 20
0.0
 30
0.0
  3
*D4
  1

  0
LINE
  5
6E
100
AcDbEntity
  8
0
370
              -2
390
0
  6
Continuous
 62
               0
100
AcDbLine
 10
-286.91353407118731
 20
-433.55775625251295
 30
0.0
 11
-286.91353407118731
 21
-359.85775625251313
 31
0.0
  0
LINE
  5
6F
100
AcDbEntity
  8
0
370
              -2
390
0
  6
Continuous
 62
               0
100
AcDbLine
 10
-566.91353407118731
 20
-433.55775625251295
 30
0.0
 11
-566.91353407118731
 21
-359.85775625251313
 31
0.0
  0
LINE
  5
70
100
AcDbEntity
  8
0
370
              -2
390
0
  6
Continuous
 62
               0
100
AcDbLine
 10
-286.91353407118731
 20
-359.85775625251313
 30
0.0
 11
-566.91353407118731
 21
-359.85775625251313
 31
0.0
  0
CIRCLE
  5
71
102
{ACAD_REACTORS
330
72
102
}
100
AcDbEntity
  8
0
370
              -2
390
0
  6
Continuous
 62
               0
100
AcDbCircle
 10
-286.91353407118731
 20
-359.85775625251313
 30
0.0
 40
4.99969482421875
  0
HATCH
  5
72
100
AcDbEntity
  8
0
370
              -2
390
0
  6
Continuous
 62
               0
100
AcDbHatch
 10
0.0
 20
0.0
 30
0.0
210
0.0
220
0.0
230
1.0
  2
SOLID
 70
               1
 71
               1
 91
        1
 92
        1
 93
        1
 72
               2
 10
-286.91353407118731
 20
-359.85775625251313
 40
4.99969482421875
 50
0.0
 51
360.0
 73
               0
 97
        1
330
71
 75
               0
 76
               1
 98
        1
 10
0.0
 20
0.0
  0
CIRCLE
  5
73
102
{ACAD_REACTORS
330
74
102
}
100
AcDbEntity
  8
0
370
              -2
390
0
  6
Continuous
 62
               0
100
AcDbCircle
 10
-566.91353407118731
 20
-359.85775625251313
 30
0.0
 40
4.99969482421875
  0
HATCH
  5
74
100
AcDbEntity
  8
0
370
              -2
390
0
  6
Continuous
 62
               0
100
AcDbHatch
 10
0.0
 20
0.0
 30
0.0
210
0.0
220
0.0
230
1.0
  2
SOLID
 70
               1
 71
               1
 91
        1
 92
        1
 93
        1
 72
               2
 10
-566.91353407118731
 20
-359.85775625251313
 40
4.99969482421875
 50
0.0
 51
360.0
 73
               0
 97
        1
330
73
 75
               0
 76
               1
 98
        1
 10
0.0
 20
0.0
  0
MTEXT
  5
75
100
AcDbEntity
  8
0
390
0
 62
               0
100
AcDbMText
 10
-450.72603575336325
 20
-325.98013906501319
 30
0.0
 40
24.432617187500004
 41
0.0
 71
               1
 72
               1
  1
280
  7
ＭＳゴシック
 73
               1
 44
0.7828267384257843
  0
POINT
  5
76
100
AcDbEntity
  8
Defpoints
370
               0
390
0
 62
               0
100
AcDbPoint
 10
-566.91353407118731
 20
-458.55775625251295
 30
0.0
  0
POINT
  5
77
100
AcDbEntity
  8
Defpoints
370
               0
390
0
 62
               0
100
AcDbPoint
 10
-286.91353407118731
 20
-458.55775625251295
 30
0.0
  0
POINT
  5
78
100
AcDbEntity
  8
Defpoints
370
               0
390
0
 62
               0
100
AcDbPoint
 10
-286.91353407118731
 20
-359.85775625251313
 30
0.0
  0
ENDBLK
  5
79
100
AcDbEntity
  8
notes
390
0
100
AcDbBlockEnd
  0
BLOCK
  5
7A
100
AcDbEntity
  8
notes
390
0
100
AcDbBlockBegin
  2
*D5
 70
               1
 10
0.0
 20
0.0
 30
0.0
  3
*D5
  1

  0
LINE
  5
7B
100
AcDbEntity
  8
0
370
              -2
390
0
  6
Continuous
 62
               0
100
AcDbLine
 10
-661.78755656955036
 20
-478.55775625251295
 30
0.0
 11
-876.78755656955036
 21
-478.55775625251295
 31
0.0
  0
LINE
  5
7C
100
AcDbEntity
  8
0
370
              -2
390
0
  6
Continuous
 62
               0
100
AcDbLine
 10
-796.78859791081049
 20
-438.60475990797909
 30
0.0
 11
-876.78755656955036
 21
-438.60475990797909
 31
0.0
  0
LINE
  5
7D
100
AcDbEntity
  8
0
370
              -2
390
0
  6
Continuous
 62
               0
100
AcDbLine
 10
-876.78755656955036
 20
-478.55775625251295
 30
0.0
 11
-876.78755656955036
 21
-438.60475990797909
 31
0.0
  0
CIRCLE
  5
7E
102
{ACAD_REACTORS
330
7F
102
}
100
AcDbEntity
  8
0
370
              -2
390
0
  6
Continuous
 62
               0
100
AcDbCircle
 10
-876.78755656955036
 20
-478.55775625251295
 30
0.0
 40
4.99969482421875
  0
HATCH
  5
7F
100
AcDbEntity
  8
0
370
              -2
390
0
  6
Continuous
 62
               0
100
AcDbHatch
 10
0.0
 20
0.0
 30
0.0
210
0.0
220
0.0
230
1.0
  2
SOLID
 70
               1
 71
               1
 91
        1
 92
        1
 93
        1
 72
               2
 10
-876.78755656955036
 20
-478.55775625251295
 40
4.99969482421875
 50
0.0
 51
360.0
 73
               0
 97
        1
330
7E
 75
               0
 76
               1
 98
        1
 10
0.0
 20
0.0
  0
CIRCLE
  5
80
102
{ACAD_REACTORS
330
81
102
}
100
AcDbEntity
  8
0
370
              -2
390
0
  6
Continuous
 62
               0
100
AcDbCircle
 10
-876.78755656955036
 20
-438.60475990797909
 30
0.0
 40
4.99969482421875
  0
HATCH
  5
81
100
AcDbEntity
  8
0
370
              -2
390
0
  6
Continuous
 62
               0
100
AcDbHatch
 10
0.0
 20
0.0
 30
0.0
210
0.0
220
0.0
230
1.0
  2
SOLID
 70
               1
 71
               1
 91
        1
 92
        1
 93
        1
 72
               2
 10
-876.78755656955036
 20
-438.60475990797909
 40
4.99969482421875
 50
0.0
 51
360.0
 73
               0
 97
        1
330
80
 75
               0
 76
               1
 98
        1
 10
0.0
 20
0.0
  0
MTEXT
  5
82
100
AcDbEntity
  8
0
390
0
 62
               0
100
AcDbMText
 10
-910.66517375705007
 20
-474.45625808024602
 30
0.0
 40
24.432617187500004
 41
0.0
 71
               1
 72
               1
  1
40
  7
ＭＳゴシック
 11
0.0
 21
1.0
 31
0.0
 73
               1
 44
0.7828267384257843
  0
POINT
  5
83
100
AcDbEntity
  8
Defpoints
370
               0
390
0
 62
               0
100
AcDbPoint
 10
-771.78859791081049
 20
-438.60475990797909
 30
0.0
  0
POINT
  5
84
100
AcDbEntity
  8
Defpoints
370
               0
390
0
 62
               0
100
AcDbPoint
 10
-636.78755656955036
 20
-478.55775625251295
 30
0.0
  0
POINT
  5
85
100
AcDbEntity
  8
Defpoints
370
               0
390
0
 62
               0
100
AcDbPoint
 10
-876.78755656955036
 20
-478.55775625251295
 30
0.0
  0
ENDBLK
  5
86
100
AcDbEntity
  8
notes
390
0
100
AcDbBlockEnd
  0
BLOCK
  5
87
100
AcDbEntity
  8
notes
390
0
100
AcDbBlockBegin
  2
*D6
 70
               1
 10
0.0
 20
0.0
 30
0.0
  3
*D6
  1

  0
LINE
  5
88
100
AcDbEntity
  8
0
370
              -2
390
0
  6
Continuous
 62
               0
100
AcDbLine
 10
-56.786515228293865
 20
-438.60475990797909
 30
0.0
 11
23.16499209554604
 21
-438.60475990797909
 31
0.0
  0
LINE
  5
89
100
AcDbEntity
  8
0
370
              -2
390
0
  6
Continuous
 62
               0
100
AcDbLine
 10
-129.05080576189357
 20
-618.60475990794293
 30
0.0
 11
23.16499209554604
 21
-618.60475990794293
 31
0.0
  0
LINE
  5
8A
100
AcDbEntity
  8
0
370
              -2
390
0
  6
Continuous
 62
               0
100
AcDbLine
 10
23.16499209554604
 20
-438.60475990797909
 30
0.0
 11
23.16499209554604
 21
-618.60475990794293
 31
0.0
  0
CIRCLE
  5
8B
102
{ACAD_REACTORS
330
8C
102
}
100
AcDbEntity
  8
0
370
              -2
390
0
  6
Continuous
 62
               0
100
AcDbCircle
 10
23.16499209554604
 20
-438.60475990797909
 30
0.0
 40
4.99969482421875
  0
HATCH
  5
8C
100
AcDbEntity
  8
0
370
              -2
390
0
  6
Continuous
 62
               0
100
AcDbHatch
 10
0.0
 20
0.0
 30
0.0
210
0.0
220
0.0
230
1.0
  2
SOLID
 70
               1
 71
               1
 91
        1
 92
        1
 93
        1
 72
               2
 10
23.16499209554604
 20
-438.60475990797909
 40
4.99969482421875
 50
0.0
 51
360.0
 73
               0
 97
        1
330
8B
 75
               0
 76
               1
 98
        1
 10
0.0
 20
0.0
  0
CIRCLE
  5
8D
102
{ACAD_REACTORS
330
8E
102
}
100
AcDbEntity
  8
0
370
              -2
390
0
  6
Continuous
 62
               0
100
AcDbCircle
 10
23.16499209554604
 20
-618.60475990794293
 30
0.0
 40
4.99969482421875
  0
HATCH
  5
8E
100
AcDbEntity
  8
0
370
              -2
390
0
  6
Continuous
 62
               0
100
AcDbHatch
 10
0.0
 20
0.0
 30
0.0
210
0.0
220
0.0
230
1.0
  2
SOLID
 70
               1
 71
               1
 91
        1
 92
        1
 93
        1
 72
               2
 10
23.16499209554604
 20
-618.60475990794293
 40
4.99969482421875
 50
0.0
 51
360.0
 73
               0
 97
        1
330
8D
 75
               0
 76
               1
 98
        1
 10
0.0
 20
0.0
  0
MTEXT
  5
8F
100
AcDbEntity
  8
0
390
0
 62
               0
100
AcDbMText
 10
-10.712625091953669
 20
-552.41726159013638
 30
0.0
 40
24.432617187500004
 41
0.0
 71
               1
 72
               1
  1
180
  7
ＭＳゴシック
 11
0.0
 21
1.0
 31
0.0
 73
               1
 44
0.7828267384257843
  0
POINT
  5
90
100
AcDbEntity
  8
Defpoints
370
               0
390
0
 62
               0
100
AcDbPoint
 10
-154.05080576189357
 20
-618.60475990794293
 30
0.0
  0
POINT
  5
91
100
AcDbEntity
  8
Defpoints
370
               0
390
0
 62
               0
100
AcDbPoint
 10
-81.786515228293865
 20
-438.60475990797909
 30
0.0
  0
POINT
  5
92
100
AcDbEntity
  8
Defpoints
370
               0
390
0
 62
               0
100
AcDbPoint
 10
23.16499209554604
 20
-438.60475990797909
 30
0.0
  0
ENDBLK
  5
93
100
AcDbEntity
  8
notes
390
0
100
AcDbBlockEnd
  0
BLOCK
  5
94
100
AcDbEntity
  8
notes
390
0
100
AcDbBlockBegin
  2
*D7
 70
               1
 10
0.0
 20
0.0
 30
0.0
  3
*D7
  1

  0
LINE
  5
95
100
AcDbEntity
  8
0
370
              -2
390
0
  6
Continuous
 62
               0
100
AcDbLine
 10
711.92281643131355
 20
-637.60475990797909
 30
0.0
 11
711.92281643131355
 21
-718.60475990794271
 31
0.0
  0
LINE
  5
96
100
AcDbEntity
  8
0
370
              -2
390
0
  6
Continuous
 62
               0
100
AcDbLine
 10
436.92281643131355
 20
-638.60475990795726
 30
0.0
 11
436.92281643131355
 21
-718.60475990794271
 31
0.0
  0
LINE
  5
97
100
AcDbEntity
  8
0
370
              -2
390
0
  6
Continuous
 62
               0
100
AcDbLine
 10
711.92281643131355
 20
-718.60475990794271
 30
0.0
 11
436.92281643131355
 21
-718.60475990794271
 31
0.0
  0
CIRCLE
  5
98
102
{ACAD_REACTORS
330
99
102
}
100
AcDbEntity
  8
0
370
              -2
390
0
  6
Continuous
 62
               0
100
AcDbCircle
 10
711.92281643131355
 20
-718.60475990794271
 30
0.0
 40
4.99969482421875
  0
HATCH
  5
99
100
AcDbEntity
  8
0
370
              -2
390
0
  6
Continuous
 62
               0
100
AcDbHatch
 10
0.0
 20
0.0
 30
0.0
210
0.0
220
0.0
230
1.0
  2
SOLID
 70
               1
 71
               1
 91
        1
 92
        1
 93
        1
 72
               2
 10
711.92281643131355
 20
-718.60475990794271
 40
4.99969482421875
 50
0.0
 51
360.0
 73
               0
 97
        1
330
98
 75
               0
 76
               1
 98
        1
 10
0.0
 20
0.0
  0
CIRCLE
  5
9A
102
{ACAD_REACTORS
330
9B
102
}
100
AcDbEntity
  8
0
370
              -2
390
0
  6
Continuous
 62
               0
100
AcDbCircle
 10
436.92281643131355
 20
-718.60475990794271
 30
0.0
 40
4.99969482421875
  0
HATCH
  5
9B
100
AcDbEntity
  8
0
370
              -2
390
0
  6
Continuous
 62
               0
100
AcDbHatch
 10
0.0
 20
0.0
 30
0.0
210
0.0
220
0.0
230
1.0
  2
SOLID
 70
               1
 71
               1
 91
        1
 92
        1
 93
        1
 72
               2
 10
436.92281643131355
 20
-718.60475990794271
 40
4.99969482421875
 50
0.0
 51
360.0
 73
               0
 97
        1
330
9A
 75
               0
 76
               1
 98
        1
 10
0.0
 20
0.0
  0
MTEXT
  5
9C
100
AcDbEntity
  8
0
390
0
 62
               0
100
AcDbMText
 10
550.61031474913761
 20
-684.72714272044277
 30
0.0
 40
24.432617187500004
 41
0.0
 71
               1
 72
               1
  1
275
  7
ＭＳゴシック
 73
               1
 44
0.7828267384257843
  0
POINT
  5
9D
100
AcDbEntity
  8
Defpoints
370
               0
390
0
 62
               0
100
AcDbPoint
 10
436.92281643131355
 20
-613.60475990795726
 30
0.0
  0
POINT
  5
9E
100
AcDbEntity
  8
Defpoints
370
               0
390
0
 62
               0
100
AcDbPoint
 10
711.92281643131355
 20
-612.60475990797909
 30
0.0
  0
POINT
  5
9F
100
AcDbEntity
  8
Defpoints
370
               0
390
0
 62
               0
100
AcDbPoint
 10
711.92281643131355
 20
-718.60475990794271
 30
0.0
  0
ENDBLK
  5
A0
100
AcDbEntity
  8
notes
390
0
100
AcDbBlockEnd
  0
BLOCK
  5
A1
100
AcDbEntity
  8
notes
390
0
100
AcDbBlockBegin
  2
*D8
 70
               1
 10
0.0
 20
0.0
 30
0.0
  3
*D8
  1

  0
LINE
  5
A2
100
AcDbEntity
  8
0
370
              -2
390
0
  6
Continuous
 62
               0
100
AcDbLine
 10
-56.787556569550361
 20
827.13988733260726
 30
0.0
 11
23.212443430449639
 21
827.13988733260726
 31
0.0
  0
LINE
  5
A3
100
AcDbEntity
  8
0
370
              -2
390
0
  6
Continuous
 62
               0
100
AcDbLine
 10
-208.6981555587663
 20
377.13992006073227
 30
0.0
 11
23.212443430449639
 21
377.13992006073227
 31
0.0
  0
LINE
  5
A4
100
AcDbEntity
  8
0
370
              -2
390
0
  6
Continuous
 62
               0
100
AcDbLine
 10
23.212443430449639
 20
827.13988733260726
 30
0.0
 11
23.212443430449639
 21
377.13992006073227
 31
0.0
  0
CIRCLE
  5
A5
102
{ACAD_REACTORS
330
A6
102
}
100
AcDbEntity
  8
0
370
              -2
390
0
  6
Continuous
 62
               0
100
AcDbCircle
 10
23.212443430449639
 20
827.13988733260726
 30
0.0
 40
4.99969482421875
  0
HATCH
  5
A6
100
AcDbEntity
  8
0
370
              -2
390
0
  6
Continuous
 62
               0
100
AcDbHatch
 10
0.0
 20
0.0
 30
0.0
210
0.0
220
0.0
230
1.0
  2
SOLID
 70
               1
 71
               1
 91
        1
 92
        1
 93
        1
 72
               2
 10
23.212443430449639
 20
827.13988733260726
 40
4.99969482421875
 50
0.0
 51
360.0
 73
               0
 97
        1
330
A5
 75
               0
 76
               1
 98
        1
 10
0.0
 20
0.0
  0
CIRCLE
  5
A7
102
{ACAD_REACTORS
330
A8
102
}
100
AcDbEntity
  8
0
370
              -2
390
0
  6
Continuous
 62
               0
100
AcDbCircle
 10
23.212443430449639
 20
377.13992006073227
 30
0.0
 40
4.99969482421875
  0
HATCH
  5
A8
100
AcDbEntity
  8
0
370
              -2
390
0
  6
Continuous
 62
               0
100
AcDbHatch
 10
0.0
 20
0.0
 30
0.0
210
0.0
220
0.0
230
1.0
  2
SOLID
 70
               1
 71
               1
 91
        1
 92
        1
 93
        1
 72
               2
 10
23.212443430449639
 20
377.13992006073227
 40
4.99969482421875
 50
0.0
 51
360.0
 73
               0
 97
        1
330
A7
 75
               0
 76
               1
 98
        1
 10
0.0
 20
0.0
  0
MTEXT
  5
A9
100
AcDbEntity
  8
0
390
0
 62
               0
100
AcDbMText
 10
-10.66517375705007
 20
578.32740201449428
 30
0.0
 40
24.432617187500004
 41
0.0
 71
               1
 72
               1
  1
450
  7
ＭＳゴシック
 11
0.0
 21
1.0
 31
0.0
 73
               1
 44
0.7828267384257843
  0
POINT
  5
AA
100
AcDbEntity
  8
Defpoints
370
               0
390
0
 62
               0
100
AcDbPoint
 10
-233.6981555587663
 20
377.13992006073227
 30
0.0
  0
POINT
  5
AB
100
AcDbEntity
  8
Defpoints
370
               0
390
0
 62
               0
100
AcDbPoint
 10
-81.787556569550361
 20
827.13988733260726
 30
0.0
  0
POINT
  5
AC
100
AcDbEntity
  8
Defpoints
370
               0
390
0
 62
               0
100
AcDbPoint
 10
23.212443430449639
 20
827.13988733260726
 30
0.0
  0
ENDBLK
  5
AD
100
AcDbEntity
  8
notes
390
0
100
AcDbBlockEnd
  0
BLOCK
  5
AE
100
AcDbEntity
  8
notes
390
0
100
AcDbBlockBegin
  2
*D9
 70
               1
 10
0.0
 20
0.0
 30
0.0
  3
*D9
  1

  0
LINE
  5
AF
100
AcDbEntity
  8
0
370
              -2
390
0
  6
Continuous
 62
               0
100
AcDbLine
 10
-741.78755656955036
 20
428.7720219381124
 30
0.0
 11
-741.78755656955036
 21
277.1398873326068
 31
0.0
  0
LINE
  5
B0
100
AcDbEntity
  8
0
370
              -2
390
0
  6
Continuous
 62
               0
100
AcDbLine
 10
-111.78755656955036
 20
428.7720219381174
 30
0.0
 11
-111.78755656955036
 21
277.1398873326068
 31
0.0
  0
LINE
  5
B1
100
AcDbEntity
  8
0
370
              -2
390
0
  6
Continuous
 62
               0
100
AcDbLine
 10
-741.78755656955036
 20
277.1398873326068
 30
0.0
 11
-111.78755656955036
 21
277.1398873326068
 31
0.0
  0
CIRCLE
  5
B2
102
{ACAD_REACTORS
330
B3
102
}
100
AcDbEntity
  8
0
370
              -2
390
0
  6
Continuous
 62
               0
100
AcDbCircle
 10
-741.78755656955036
 20
277.1398873326068
 30
0.0
 40
4.99969482421875
  0
HATCH
  5
B3
100
AcDbEntity
  8
0
370
              -2
390
0
  6
Continuous
 62
               0
100
AcDbHatch
 10
0.0
 20
0.0
 30
0.0
210
0.0
220
0.0
230
1.0
  2
SOLID
 70
               1
 71
               1
 91
        1
 92
        1
 93
        1
 72
               2
 10
-741.78755656955036
 20
277.1398873326068
 40
4.99969482421875
 50
0.0
 51
360.0
 73
               0
 97
        1
330
B2
 75
               0
 76
               1
 98
        1
 10
0.0
 20
0.0
  0
CIRCLE
  5
B4
102
{ACAD_REACTORS
330
B5
102
}
100
AcDbEntity
  8
0
370
              -2
390
0
  6
Continuous
 62
               0
100
AcDbCircle
 10
-111.78755656955036
 20
277.1398873326068
 30
0.0
 40
4.99969482421875
  0
HATCH
  5
B5
100
AcDbEntity
  8
0
370
              -2
390
0
  6
Continuous
 62
               0
100
AcDbHatch
 10
0.0
 20
0.0
 30
0.0
210
0.0
220
0.0
230
1.0
  2
SOLID
 70
               1
 71
               1
 91
        1
 92
        1
 93
        1
 72
               2
 10
-111.78755656955036
 20
277.1398873326068
 40
4.99969482421875
 50
0.0
 51
360.0
 73
               0
 97
        1
330
B4
 75
               0
 76
               1
 98
        1
 10
0.0
 20
0.0
  0
MTEXT
  5
B6
100
AcDbEntity
  8
0
390
0
 62
               0
100
AcDbMText
 10
-450.6000582517263
 20
311.01750452010697
 30
0.0
 40
24.432617187500004
 41
0.0
 71
               1
 72
               1
  1
630
  7
ＭＳゴシック
 73
               1
 44
0.7828267384257843
  0
POINT
  5
B7
100
AcDbEntity
  8
Defpoints
370
               0
390
0
 62
               0
100
AcDbPoint
 10
-111.78755656955036
 20
453.7720219381174
 30
0.0
  0
POINT
  5
B8
100
AcDbEntity
  8
Defpoints
370
               0
390
0
 62
               0
100
AcDbPoint
 10
-741.78755656955036
 20
453.7720219381124
 30
0.0
  0
POINT
  5
B9
100
AcDbEntity
  8
Defpoints
370
               0
390
0
 62
               0
100
AcDbPoint
 10
-741.78755656955036
 20
277.1398873326068
 30
0.0
  0
ENDBLK
  5
BA
100
AcDbEntity
  8
notes
390
0
100
AcDbBlockEnd
  0
BLOCK
  5
BB
100
AcDbEntity
  8
notes
390
0
100
AcDbBlockBegin
  2
*D10
 70
               1
 10
0.0
 20
0.0
 30
0.0
  3
*D10
  1

  0
LINE
  5
BC
100
AcDbEntity
  8
0
370
              -2
390
0
  6
Continuous
 62
               0
100
AcDbLine
 10
-526.78755656955036
 20
804.63988733260635
 30
0.0
 11
-526.78755656955036
 21
927.13988733260635
 31
0.0
  0
LINE
  5
BD
100
AcDbEntity
  8
0
370
              -2
390
0
  6
Continuous
 62
               0
100
AcDbLine
 10
-426.787556569554
 20
804.63988733260635
 30
0.0
 11
-426.787556569554
 21
927.13988733260635
 31
0.0
  0
LINE
  5
BE
100
AcDbEntity
  8
0
370
              -2
390
0
  6
Continuous
 62
               0
100
AcDbLine
 10
-526.78755656955036
 20
927.13988733260635
 30
0.0
 11
-426.787556569554
 21
927.13988733260635
 31
0.0
  0
CIRCLE
  5
BF
102
{ACAD_REACTORS
330
C0
102
}
100
AcDbEntity
  8
0
370
              -2
390
0
  6
Continuous
 62
               0
100
AcDbCircle
 10
-526.78755656955036
 20
927.13988733260635
 30
0.0
 40
4.99969482421875
  0
HATCH
  5
C0
100
AcDbEntity
  8
0
370
              -2
390
0
  6
Continuous
 62
               0
100
AcDbHatch
 10
0.0
 20
0.0
 30
0.0
210
0.0
220
0.0
230
1.0
  2
SOLID
 70
               1
 71
               1
 91
        1
 92
        1
 93
        1
 72
               2
 10
-526.78755656955036
 20
927.13988733260635
 40
4.99969482421875
 50
0.0
 51
360.0
 73
               0
 97
        1
330
BF
 75
               0
 76
               1
 98
        1
 10
0.0
 20
0.0
  0
CIRCLE
  5
C1
102
{ACAD_REACTORS
330
C2
102
}
100
AcDbEntity
  8
0
370
              -2
390
0
  6
Continuous
 62
               0
100
AcDbCircle
 10
-426.787556569554
 20
927.13988733260635
 30
0.0
 40
4.99969482421875
  0
HATCH
  5
C2
100
AcDbEntity
  8
0
370
              -2
390
0
  6
Continuous
 62
               0
100
AcDbHatch
 10
0.0
 20
0.0
 30
0.0
210
0.0
220
0.0
230
1.0
  2
SOLID
 70
               1
 71
               1
 91
        1
 92
        1
 93
        1
 72
               2
 10
-426.787556569554
 20
927.13988733260635
 40
4.99969482421875
 50
0.0
 51
360.0
 73
               0
 97
        1
330
C1
 75
               0
 76
               1
 98
        1
 10
0.0
 20
0.0
  0
MTEXT
  5
C3
100
AcDbEntity
  8
0
390
0
 62
               0
100
AcDbMText
 10
-505.6000582517263
 20
961.01750452010651
 30
0.0
 40
24.432617187500004
 41
0.0
 71
               1
 72
               1
  1
100
  7
ＭＳゴシック
 73
               1
 44
0.7828267384257843
  0
POINT
  5
C4
100
AcDbEntity
  8
Defpoints
370
               0
390
0
 62
               0
100
AcDbPoint
 10
-426.787556569554
 20
779.63988733260635
 30
0.0
  0
POINT
  5
C5
100
AcDbEntity
  8
Defpoints
370
               0
390
0
 62
               0
100
AcDbPoint
 10
-526.78755656955036
 20
779.63988733260635
 30
0.0
  0
POINT
  5
C6
100
AcDbEntity
  8
Defpoints
370
               0
390
0
 62
               0
100
AcDbPoint
 10
-526.78755656955036
 20
927.13988733260635
 30
0.0
  0
ENDBLK
  5
C7
100
AcDbEntity
  8
notes
390
0
100
AcDbBlockEnd
  0
BLOCK
  5
C8
100
AcDbEntity
  8
notes
390
0
100
AcDbBlockBegin
  2
*D11
 70
               1
 10
0.0
 20
0.0
 30
0.0
  3
*D11
  1

  0
LINE
  5
C9
100
AcDbEntity
  8
0
370
              -2
390
0
  6
Continuous
 62
               0
100
AcDbLine
 10
-426.787556569554
 20
804.63988733260635
 30
0.0
 11
-426.787556569554
 21
927.13988733260635
 31
0.0
  0
LINE
  5
CA
100
AcDbEntity
  8
0
370
              -2
390
0
  6
Continuous
 62
               0
100
AcDbLine
 10
-326.78755656955036
 20
804.63988733260635
 30
0.0
 11
-326.78755656955036
 21
927.13988733260635
 31
0.0
  0
LINE
  5
CB
100
AcDbEntity
  8
0
370
              -2
390
0
  6
Continuous
 62
               0
100
AcDbLine
 10
-426.787556569554
 20
927.13988733260635
 30
0.0
 11
-326.78755656955036
 21
927.13988733260635
 31
0.0
  0
CIRCLE
  5
CC
102
{ACAD_REACTORS
330
CD
102
}
100
AcDbEntity
  8
0
370
              -2
390
0
  6
Continuous
 62
               0
100
AcDbCircle
 10
-426.787556569554
 20
927.13988733260635
 30
0.0
 40
4.99969482421875
  0
HATCH
  5
CD
100
AcDbEntity
  8
0
370
              -2
390
0
  6
Continuous
 62
               0
100
AcDbHatch
 10
0.0
 20
0.0
 30
0.0
210
0.0
220
0.0
230
1.0
  2
SOLID
 70
               1
 71
               1
 91
        1
 92
        1
 93
        1
 72
               2
 10
-426.787556569554
 20
927.13988733260635
 40
4.99969482421875
 50
0.0
 51
360.0
 73
               0
 97
        1
330
CC
 75
               0
 76
               1
 98
        1
 10
0.0
 20
0.0
  0
CIRCLE
  5
CE
102
{ACAD_REACTORS
330
CF
102
}
100
AcDbEntity
  8
0
370
              -2
390
0
  6
Continuous
 62
               0
100
AcDbCircle
 10
-326.78755656955036
 20
927.13988733260635
 30
0.0
 40
4.99969482421875
  0
HATCH
  5
CF
100
AcDbEntity
  8
0
370
              -2
390
0
  6
Continuous
 62
               0
100
AcDbHatch
 10
0.0
 20
0.0
 30
0.0
210
0.0
220
0.0
230
1.0
  2
SOLID
 70
               1
 71
               1
 91
        1
 92
        1
 93
        1
 72
               2
 10
-326.78755656955036
 20
927.13988733260635
 40
4.99969482421875
 50
0.0
 51
360.0
 73
               0
 97
        1
330
CE
 75
               0
 76
               1
 98
        1
 10
0.0
 20
0.0
  0
MTEXT
  5
D0
100
AcDbEntity
  8
0
390
0
 62
               0
100
AcDbMText
 10
-400.6000582517263
 20
961.01750452010651
 30
0.0
 40
24.432617187500004
 41
0.0
 71
               1
 72
               1
  1
100
  7
ＭＳゴシック
 73
               1
 44
0.7828267384257843
  0
POINT
  5
D1
100
AcDbEntity
  8
Defpoints
370
               0
390
0
 62
               0
100
AcDbPoint
 10
-326.78755656955036
 20
779.63988733260635
 30
0.0
  0
POINT
  5
D2
100
AcDbEntity
  8
Defpoints
370
               0
390
0
 62
               0
100
AcDbPoint
 10
-426.787556569554
 20
779.63988733260635
 30
0.0
  0
POINT
  5
D3
100
AcDbEntity
  8
Defpoints
370
               0
390
0
 62
               0
100
AcDbPoint
 10
-426.787556569554
 20
927.13988733260635
 30
0.0
  0
ENDBLK
  5
D4
100
AcDbEntity
  8
notes
390
0
100
AcDbBlockEnd
  0
BLOCK
  5
D5
100
AcDbEntity
  8
notes
390
0
100
AcDbBlockBegin
  2
*D12
 70
               1
 10
0.0
 20
0.0
 30
0.0
  3
*D12
  1

  0
LINE
  5
D6
100
AcDbEntity
  8
0
370
              -2
390
0
  6
Continuous
 62
               0
100
AcDbLine
 10
-796.78755656955036
 20
827.13988733260726
 30
0.0
 11
-876.78755656955036
 21
827.13988733260726
 31
0.0
  0
LINE
  5
D7
100
AcDbEntity
  8
0
370
              -2
390
0
  6
Continuous
 62
               0
100
AcDbLine
 10
-796.78755656955036
 20
702.13988733260726
 30
0.0
 11
-876.78755656955036
 21
702.13988733260726
 31
0.0
  0
LINE
  5
D8
100
AcDbEntity
  8
0
370
              -2
390
0
  6
Continuous
 62
               0
100
AcDbLine
 10
-876.78755656955036
 20
827.13988733260726
 30
0.0
 11
-876.78755656955036
 21
702.13988733260726
 31
0.0
  0
CIRCLE
  5
D9
102
{ACAD_REACTORS
330
DA
102
}
100
AcDbEntity
  8
0
370
              -2
390
0
  6
Continuous
 62
               0
100
AcDbCircle
 10
-876.78755656955036
 20
827.13988733260726
 30
0.0
 40
4.99969482421875
  0
HATCH
  5
DA
100
AcDbEntity
  8
0
370
              -2
390
0
  6
Continuous
 62
               0
100
AcDbHatch
 10
0.0
 20
0.0
 30
0.0
210
0.0
220
0.0
230
1.0
  2
SOLID
 70
               1
 71
               1
 91
        1
 92
        1
 93
        1
 72
               2
 10
-876.78755656955036
 20
827.13988733260726
 40
4.99969482421875
 50
0.0
 51
360.0
 73
               0
 97
        1
330
D9
 75
               0
 76
               1
 98
        1
 10
0.0
 20
0.0
  0
CIRCLE
  5
DB
102
{ACAD_REACTORS
330
DC
102
}
100
AcDbEntity
  8
0
370
              -2
390
0
  6
Continuous
 62
               0
100
AcDbCircle
 10
-876.78755656955036
 20
702.13988733260726
 30
0.0
 40
4.99969482421875
  0
HATCH
  5
DC
100
AcDbEntity
  8
0
370
              -2
390
0
  6
Continuous
 62
               0
100
AcDbHatch
 10
0.0
 20
0.0
 30
0.0
210
0.0
220
0.0
230
1.0
  2
SOLID
 70
               1
 71
               1
 91
        1
 92
        1
 93
        1
 72
               2
 10
-876.78755656955036
 20
702.13988733260726
 40
4.99969482421875
 50
0.0
 51
360.0
 73
               0
 97
        1
330
DB
 75
               0
 76
               1
 98
        1
 10
0.0
 20
0.0
  0
MTEXT
  5
DD
100
AcDbEntity
  8
0
390
0
 62
               0
100
AcDbMText
 10
-910.66517375705007
 20
728.1635046331196
 30
0.0
 40
24.432617187500004
 41
0.0
 71
               1
 72
               1
  1
125
  7
ＭＳゴシック
 11
0.0
 21
1.0
 31
0.0
 73
               1
 44
0.7828267384257843
  0
POINT
  5
DE
100
AcDbEntity
  8
Defpoints
370
               0
390
0
 62
               0
100
AcDbPoint
 10
-771.78755656955036
 20
702.13988733260726
 30
0.0
  0
POINT
  5
DF
100
AcDbEntity
  8
Defpoints
370
               0
390
0
 62
               0
100
AcDbPoint
 10
-771.78755656955036
 20
827.13988733260726
 30
0.0
  0
POINT
  5
E0
100
AcDbEntity
  8
Defpoints
370
               0
390
0
 62
               0
100
AcDbPoint
 10
-876.78755656955036
 20
827.13988733260726
 30
0.0
  0
ENDBLK
  5
E1
100
AcDbEntity
  8
notes
390
0
100
AcDbBlockEnd
  0
BLOCK
  5
E2
100
AcDbEntity
  8
notes
390
0
100
AcDbBlockBegin
  2
*D13
 70
               1
 10
0.0
 20
0.0
 30
0.0
  3
*D13
  1

  0
LINE
  5
E3
100
AcDbEntity
  8
0
370
              -2
390
0
  6
Continuous
 62
               0
100
AcDbLine
 10
-801.78755656955036
 20
702.1208325154364
 30
0.0
 11
-876.78755656955036
 21
702.1208325154364
 31
0.0
  0
LINE
  5
E4
100
AcDbEntity
  8
0
370
              -2
390
0
  6
Continuous
 62
               0
100
AcDbLine
 10
-704.6981555587663
 20
402.1208325154364
 30
0.0
 11
-876.78755656955036
 21
402.1208325154364
 31
0.0
  0
LINE
  5
E5
100
AcDbEntity
  8
0
370
              -2
390
0
  6
Continuous
 62
               0
100
AcDbLine
 10
-876.78755656955036
 20
702.1208325154364
 30
0.0
 11
-876.78755656955036
 21
402.1208325154364
 31
0.0
  0
CIRCLE
  5
E6
102
{ACAD_REACTORS
330
E7
102
}
100
AcDbEntity
  8
0
370
              -2
390
0
  6
Continuous
 62
               0
100
AcDbCircle
 10
-876.78755656955036
 20
702.1208325154364
 30
0.0
 40
4.99969482421875
  0
HATCH
  5
E7
100
AcDbEntity
  8
0
370
              -2
390
0
  6
Continuous
 62
               0
100
AcDbHatch
 10
0.0
 20
0.0
 30
0.0
210
0.0
220
0.0
230
1.0
  2
SOLID
 70
               1
 71
               1
 91
        1
 92
        1
 93
        1
 72
               2
 10
-876.78755656955036
 20
702.1208325154364
 40
4.99969482421875
 50
0.0
 51
360.0
 73
               0
 97
        1
330
E6
 75
               0
 76
               1
 98
        1
 10
0.0
 20
0.0
  0
CIRCLE
  5
E8
102
{ACAD_REACTORS
330
E9
102
}
100
AcDbEntity
  8
0
370
              -2
390
0
  6
Continuous
 62
               0
100
AcDbCircle
 10
-876.78755656955036
 20
402.1208325154364
 30
0.0
 40
4.99969482421875
  0
HATCH
  5
E9
100
AcDbEntity
  8
0
370
              -2
390
0
  6
Continuous
 62
               0
100
AcDbHatch
 10
0.0
 20
0.0
 30
0.0
210
0.0
220
0.0
230
1.0
  2
SOLID
 70
               1
 71
               1
 91
        1
 92
        1
 93
        1
 72
               2
 10
-876.78755656955036
 20
402.1208325154364
 40
4.99969482421875
 50
0.0
 51
360.0
 73
               0
 97
        1
330
E8
 75
               0
 76
               1
 98
        1
 10
0.0
 20
0.0
  0
MTEXT
  5
EA
100
AcDbEntity
  8
0
390
0
 62
               0
100
AcDbMText
 10
-910.66517375705007
 20
528.30833083326092
 30
0.0
 40
24.432617187500004
 41
0.0
 71
               1
 72
               1
  1
300
  7
ＭＳゴシック
 11
0.0
 21
1.0
 31
0.0
 73
               1
 44
0.7828267384257843
  0
POINT
  5
EB
100
AcDbEntity
  8
Defpoints
370
               0
390
0
 62
               0
100
AcDbPoint
 10
-679.6981555587663
 20
402.1208325154364
 30
0.0
  0
POINT
  5
EC
100
AcDbEntity
  8
Defpoints
370
               0
390
0
 62
               0
100
AcDbPoint
 10
-776.78755656955036
 20
702.1208325154364
 30
0.0
  0
POINT
  5
ED
100
AcDbEntity
  8
Defpoints
370
               0
390
0
 62
               0
100
AcDbPoint
 10
-876.78755656955036
 20
702.1208325154364
 30
0.0
  0
ENDBLK
  5
EE
100
AcDbEntity
  8
notes
390
0
100
AcDbBlockEnd
  0
BLOCK
  5
EF
100
AcDbEntity
  8
notes
390
0
100
AcDbBlockBegin
  2
*D14
 70
               1
 10
0.0
 20
0.0
 30
0.0
  3
*D14
  1

  0
LINE
  5
F0
100
AcDbEntity
  8
0
370
              -2
390
0
  6
Continuous
 62
               0
100
AcDbLine
 10
711.92281643131355
 20
-417.60475990797909
 30
0.0
 11
711.92281643131355
 21
-338.60475990797909
 31
0.0
  0
LINE
  5
F1
100
AcDbEntity
  8
0
370
              -2
390
0
  6
Continuous
 62
               0
100
AcDbLine
 10
646.92281643345996
 20
-413.60475990797909
 30
0.0
 11
646.92281643345996
 21
-338.60475990797909
 31
0.0
  0
LINE
  5
F2
100
AcDbEntity
  8
0
370
              -2
390
0
  6
Continuous
 62
               0
100
AcDbLine
 10
711.92281643131355
 20
-338.60475990797909
 30
0.0
 11
646.92281643345996
 21
-338.60475990797909
 31
0.0
  0
CIRCLE
  5
F3
102
{ACAD_REACTORS
330
F4
102
}
100
AcDbEntity
  8
0
370
              -2
390
0
  6
Continuous
 62
               0
100
AcDbCircle
 10
711.92281643131355
 20
-338.60475990797909
 30
0.0
 40
4.99969482421875
  0
HATCH
  5
F4
100
AcDbEntity
  8
0
370
              -2
390
0
  6
Continuous
 62
               0
100
AcDbHatch
 10
0.0
 20
0.0
 30
0.0
210
0.0
220
0.0
230
1.0
  2
SOLID
 70
               1
 71
               1
 91
        1
 92
        1
 93
        1
 72
               2
 10
711.92281643131355
 20
-338.60475990797909
 40
4.99969482421875
 50
0.0
 51
360.0
 73
               0
 97
        1
330
F3
 75
               0
 76
               1
 98
        1
 10
0.0
 20
0.0
  0
CIRCLE
  5
F5
102
{ACAD_REACTORS
330
F6
102
}
100
AcDbEntity
  8
0
370
              -2
390
0
  6
Continuous
 62
               0
100
AcDbCircle
 10
646.92281643345996
 20
-338.60475990797909
 30
0.0
 40
4.99969482421875
  0
HATCH
  5
F6
100
AcDbEntity
  8
0
370
              -2
390
0
  6
Continuous
 62
               0
100
AcDbHatch
 10
0.0
 20
0.0
 30
0.0
210
0.0
220
0.0
230
1.0
  2
SOLID
 70
               1
 71
               1
 91
        1
 92
        1
 93
        1
 72
               2
 10
646.92281643345996
 20
-338.60475990797909
 40
4.99969482421875
 50
0.0
 51
360.0
 73
               0
 97
        1
330
F5
 75
               0
 76
               1
 98
        1
 10
0.0
 20
0.0
  0
MTEXT
  5
F7
100
AcDbEntity
  8
0
390
0
 62
               0
100
AcDbMText
 10
663.54781643238675
 20
-304.72714272047915
 30
0.0
 40
24.432617187500004
 41
0.0
 71
               1
 72
               1
  1
65
  7
ＭＳゴシック
 73
               1
 44
0.7828267384257843
  0
POINT
  5
F8
100
AcDbEntity
  8
Defpoints
370
               0
390
0
 62
               0
100
AcDbPoint
 10
646.92281643345996
 20
-438.60475990797909
 30
0.0
  0
POINT
  5
F9
100
AcDbEntity
  8
Defpoints
370
               0
390
0
 62
               0
100
AcDbPoint
 10
711.92281643131355
 20
-442.60475990797909
 30
0.0
  0
POINT
  5
FA
100
AcDbEntity
  8
Defpoints
370
               0
390
0
 62
               0
100
AcDbPoint
 10
711.92281643131355
 20
-338.60475990797909
 30
0.0
  0
ENDBLK
  5
FB
100
AcDbEntity
  8
notes
390
0
100
AcDbBlockEnd
  0
BLOCK
  5
FC
100
AcDbEntity
  8
notes
390
0
100
AcDbBlockBegin
  2
*D15
 70
               1
 10
0.0
 20
0.0
 30
0.0
  3
*D15
  1

  0
LINE
  5
FD
100
AcDbEntity
  8
0
370
              -2
390
0
  6
Continuous
 62
               0
100
AcDbLine
 10
459.34900006367388
 20
-438.60475990797909
 30
0.0
 11
436.11257456609019
 21
-438.60475990797909
 31
0.0
  0
LINE
  5
FE
100
AcDbEntity
  8
0
370
              -2
390
0
  6
Continuous
 62
               0
100
AcDbLine
 10
459.42338511321941
 20
-563.60475990795726
 30
0.0
 11
436.11257456609019
 21
-563.60475990795726
 31
0.0
  0
LINE
  5
FF
100
AcDbEntity
  8
0
370
              -2
390
0
  6
Continuous
 62
               0
100
AcDbLine
 10
436.11257456609019
 20
-438.60475990797909
 30
0.0
 11
436.11257456609019
 21
-277.96840188777401
 31
0.0
  0
LINE
  5
100
100
AcDbEntity
  8
0
370
              -2
390
0
  6
Continuous
 62
               0
100
AcDbLine
 10
436.11257456609019
 20
-438.60475990797909
 30
0.0
 11
436.11257456609019
 21
-563.60475990795726
 31
0.0
  0
CIRCLE
  5
101
102
{ACAD_REACTORS
330
102
102
}
100
AcDbEntity
  8
0
370
              -2
390
0
  6
Continuous
 62
               0
100
AcDbCircle
 10
436.11257456609019
 20
-438.60475990797909
 30
0.0
 40
4.99969482421875
  0
HATCH
  5
102
100
AcDbEntity
  8
0
370
              -2
390
0
  6
Continuous
 62
               0
100
AcDbHatch
 10
0.0
 20
0.0
 30
0.0
210
0.0
220
0.0
230
1.0
  2
SOLID
 70
               1
 71
               1
 91
        1
 92
        1
 93
        1
 72
               2
 10
436.11257456609019
 20
-438.60475990797909
 40
4.99969482421875
 50
0.0
 51
360.0
 73
               0
 97
        1
330
101
 75
               0
 76
               1
 98
        1
 10
0.0
 20
0.0
  0
CIRCLE
  5
103
102
{ACAD_REACTORS
330
104
102
}
100
AcDbEntity
  8
0
370
              -2
390
0
  6
Continuous
 62
               0
100
AcDbCircle
 10
436.11257456609019
 20
-563.60475990795726
 30
0.0
 40
4.99969482421875
  0
HATCH
  5
104
100
AcDbEntity
  8
0
370
              -2
390
0
  6
Continuous
 62
               0
100
AcDbHatch
 10
0.0
 20
0.0
 30
0.0
210
0.0
220
0.0
230
1.0
  2
SOLID
 70
               1
 71
               1
 91
        1
 92
        1
 93
        1
 72
               2
 10
436.11257456609019
 20
-563.60475990795726
 40
4.99969482421875
 50
0.0
 51
360.0
 73
               0
 97
        1
330
103
 75
               0
 76
               1
 98
        1
 10
0.0
 20
0.0
  0
MTEXT
  5
105
100
AcDbEntity
  8
0
390
0
 62
               0
100
AcDbMText
 10
402.23495737859048
 20
-420.84340188777401
 30
0.0
 40
24.432617187500004
 41
0.0
 71
               1
 72
               1
  1
125(深さ)
  7
ＭＳゴシック
 11
0.0
 21
1.0
 31
0.0
 73
               1
 44
0.7828267384257843
  0
POINT
  5
106
100
AcDbEntity
  8
Defpoints
370
               0
390
0
 62
               0
100
AcDbPoint
 10
434.42338511321941
 20
-563.60475990795726
 30
0.0
  0
POINT
  5
107
100
AcDbEntity
  8
Defpoints
370
               0
390
0
 62
               0
100
AcDbPoint
 10
434.34900006367388
 20
-438.60475990797909
 30
0.0
  0
POINT
  5
108
100
AcDbEntity
  8
Defpoints
370
               0
390
0
 62
               0
100
AcDbPoint
 10
436.11257456609019
 20
-438.60475990797909
 30
0.0
  0
ENDBLK
  5
109
100
AcDbEntity
  8
notes
390
0
100
AcDbBlockEnd
  0
BLOCK
  5
10A
100
AcDbEntity
  8
notes
390
0
100
AcDbBlockBegin
  2
*D16
 70
               1
 10
0.0
 20
0.0
 30
0.0
  3
*D16
  1

  0
LINE
  5
10B
100
AcDbEntity
  8
0
370
              -2
390
0
  6
Continuous
 62
               0
100
AcDbLine
 10
-706.79815555876485
 20
-643.60475990794293
 30
0.0
 11
-706.79815555876485
 21
-718.60475990794293
 31
0.0
  0
LINE
  5
10C
100
AcDbEntity
  8
0
370
              -2
390
0
  6
Continuous
 62
               0
100
AcDbLine
 10
-146.79815555876485
 20
-643.60475990794293
 30
0.0
 11
-146.79815555876485
 21
-718.60475990794293
 31
0.0
  0
LINE
  5
10D
100
AcDbEntity
  8
0
370
              -2
390
0
  6
Continuous
 62
               0
100
AcDbLine
 10
-706.79815555876485
 20
-718.60475990794293
 30
0.0
 11
-146.79815555876485
 21
-718.60475990794293
 31
0.0
  0
CIRCLE
  5
10E
102
{ACAD_REACTORS
330
10F
102
}
100
AcDbEntity
  8
0
370
              -2
390
0
  6
Continuous
 62
               0
100
AcDbCircle
 10
-706.79815555876485
 20
-718.60475990794293
 30
0.0
 40
4.99969482421875
  0
HATCH
  5
10F
100
AcDbEntity
  8
0
370
              -2
390
0
  6
Continuous
 62
               0
100
AcDbHatch
 10
0.0
 20
0.0
 30
0.0
210
0.0
220
0.0
230
1.0
  2
SOLID
 70
               1
 71
               1
 91
        1
 92
        1
 93
        1
 72
               2
 10
-706.79815555876485
 20
-718.60475990794293
 40
4.99969482421875
 50
0.0
 51
360.0
 73
               0
 97
        1
330
10E
 75
               0
 76
               1
 98
        1
 10
0.0
 20
0.0
  0
CIRCLE
  5
110
102
{ACAD_REACTORS
330
111
102
}
100
AcDbEntity
  8
0
370
              -2
390
0
  6
Continuous
 62
               0
100
AcDbCircle
 10
-146.79815555876485
 20
-718.60475990794293
 30
0.0
 40
4.99969482421875
  0
HATCH
  5
111
100
AcDbEntity
  8
0
370
              -2
390
0
  6
Continuous
 62
               0
100
AcDbHatch
 10
0.0
 20
0.0
 30
0.0
210
0.0
220
0.0
230
1.0
  2
SOLID
 70
               1
 71
               1
 91
        1
 92
        1
 93
        1
 72
               2
 10
-146.79815555876485
 20
-718.60475990794293
 40
4.99969482421875
 50
0.0
 51
360.0
 73
               0
 97
        1
330
110
 75
               0
 76
               1
 98
        1
 10
0.0
 20
0.0
  0
MTEXT
  5
112
100
AcDbEntity
  8
0
390
0
 62
               0
100
AcDbMText
 10
-450.61065724094078
 20
-684.727142720443
 30
0.0
 40
24.432617187500004
 41
0.0
 71
               1
 72
               1
  1
560
  7
ＭＳゴシック
 73
               1
 44
0.7828267384257843
  0
POINT
  5
113
100
AcDbEntity
  8
Defpoints
370
               0
390
0
 62
               0
100
AcDbPoint
 10
-146.79815555876485
 20
-618.60475990794293
 30
0.0
  0
POINT
  5
114
100
AcDbEntity
  8
Defpoints
370
               0
390
0
 62
               0
100
AcDbPoint
 10
-706.79815555876485
 20
-618.60475990794293
 30
0.0
  0
POINT
  5
115
100
AcDbEntity
  8
Defpoints
370
               0
390
0
 62
               0
100
AcDbPoint
 10
-706.79815555876485
 20
-718.60475990794293
 30
0.0
  0
ENDBLK
  5
116
100
AcDbEntity
  8
notes
390
0
100
AcDbBlockEnd
  0
BLOCK
  5
117
100
AcDbEntity
  8
notes
390
0
100
AcDbBlockBegin
  2
*D17
 70
               1
 10
0.0
 20
0.0
 30
0.0
  3
*D17
  1

  0
LINE
  5
118
100
AcDbEntity
  8
0
370
              -2
390
0
  6
Continuous
 62
               0
100
AcDbLine
 10
711.92281643131355
 20
-637.60475990797909
 30
0.0
 11
711.92281643131355
 21
-768.60475990794271
 31
0.0
  0
LINE
  5
119
100
AcDbEntity
  8
0
370
              -2
390
0
  6
Continuous
 62
               0
100
AcDbLine
 10
326.92281643131355
 20
-637.60475990797909
 30
0.0
 11
326.92281643131355
 21
-768.60475990794271
 31
0.0
  0
LINE
  5
11A
100
AcDbEntity
  8
0
370
              -2
390
0
  6
Continuous
 62
               0
100
AcDbLine
 10
711.92281643131355
 20
-768.60475990794271
 30
0.0
 11
326.92281643131355
 21
-768.60475990794271
 31
0.0
  0
CIRCLE
  5
11B
102
{ACAD_REACTORS
330
11C
102
}
100
AcDbEntity
  8
0
370
              -2
390
0
  6
Continuous
 62
               0
100
AcDbCircle
 10
711.92281643131355
 20
-768.60475990794271
 30
0.0
 40
4.99969482421875
  0
HATCH
  5
11C
100
AcDbEntity
  8
0
370
              -2
390
0
  6
Continuous
 62
               0
100
AcDbHatch
 10
0.0
 20
0.0
 30
0.0
210
0.0
220
0.0
230
1.0
  2
SOLID
 70
               1
 71
               1
 91
        1
 92
        1
 93
        1
 72
               2
 10
711.92281643131355
 20
-768.60475990794271
 40
4.99969482421875
 50
0.0
 51
360.0
 73
               0
 97
        1
330
11B
 75
               0
 76
               1
 98
        1
 10
0.0
 20
0.0
  0
CIRCLE
  5
11D
102
{ACAD_REACTORS
330
11E
102
}
100
AcDbEntity
  8
0
370
              -2
390
0
  6
Continuous
 62
               0
100
AcDbCircle
 10
326.92281643131355
 20
-768.60475990794271
 30
0.0
 40
4.99969482421875
  0
HATCH
  5
11E
100
AcDbEntity
  8
0
370
              -2
390
0
  6
Continuous
 62
               0
100
AcDbHatch
 10
0.0
 20
0.0
 30
0.0
210
0.0
220
0.0
230
1.0
  2
SOLID
 70
               1
 71
               1
 91
        1
 92
        1
 93
        1
 72
               2
 10
326.92281643131355
 20
-768.60475990794271
 40
4.99969482421875
 50
0.0
 51
360.0
 73
               0
 97
        1
330
11D
 75
               0
 76
               1
 98
        1
 10
0.0
 20
0.0
  0
MTEXT
  5
11F
100
AcDbEntity
  8
0
390
0
 62
               0
100
AcDbMText
 10
495.61031474913761
 20
-734.72714272044277
 30
0.0
 40
24.432617187500004
 41
0.0
 71
               1
 72
               1
  1
385
  7
ＭＳゴシック
 73
               1
 44
0.7828267384257843
  0
POINT
  5
120
100
AcDbEntity
  8
Defpoints
370
               0
390
0
 62
               0
100
AcDbPoint
 10
326.92281643131355
 20
-612.60475990797909
 30
0.0
  0
POINT
  5
121
100
AcDbEntity
  8
Defpoints
370
               0
390
0
 62
               0
100
AcDbPoint
 10
711.92281643131355
 20
-612.60475990797909
 30
0.0
  0
POINT
  5
122
100
AcDbEntity
  8
Defpoints
370
               0
390
0
 62
               0
100
AcDbPoint
 10
711.92281643131355
 20
-768.60475990794271
 30
0.0
  0
ENDBLK
  5
123
100
AcDbEntity
  8
notes
390
0
100
AcDbBlockEnd
  0
BLOCK
  5
124
100
AcDbEntity
  8
notes
390
0
100
AcDbBlockBegin
  2
*D18
 70
               1
 10
0.0
 20
0.0
 30
0.0
  3
*D18
  1

  0
LINE
  5
125
100
AcDbEntity
  8
0
370
              -2
390
0
  6
Continuous
 62
               0
100
AcDbLine
 10
687.6541100971117
 20
497.13988733260726
 30
0.0
 11
762.6541100971117
 21
497.13988733260726
 31
0.0
  0
LINE
  5
126
100
AcDbEntity
  8
0
370
              -2
390
0
  6
Continuous
 62
               0
100
AcDbLine
 10
687.6541100971117
 20
827.13988733260726
 30
0.0
 11
762.6541100971117
 21
827.13988733260726
 31
0.0
  0
LINE
  5
127
100
AcDbEntity
  8
0
370
              -2
390
0
  6
Continuous
 62
               0
100
AcDbLine
 10
762.6541100971117
 20
497.13988733260726
 30
0.0
 11
762.6541100971117
 21
827.13988733260726
 31
0.0
  0
CIRCLE
  5
128
102
{ACAD_REACTORS
330
129
102
}
100
AcDbEntity
  8
0
370
              -2
390
0
  6
Continuous
 62
               0
100
AcDbCircle
 10
762.6541100971117
 20
497.13988733260726
 30
0.0
 40
4.99969482421875
  0
HATCH
  5
129
100
AcDbEntity
  8
0
370
              -2
390
0
  6
Continuous
 62
               0
100
AcDbHatch
 10
0.0
 20
0.0
 30
0.0
210
0.0
220
0.0
230
1.0
  2
SOLID
 70
               1
 71
               1
 91
        1
 92
        1
 93
        1
 72
               2
 10
762.6541100971117
 20
497.13988733260726
 40
4.99969482421875
 50
0.0
 51
360.0
 73
               0
 97
        1
330
128
 75
               0
 76
               1
 98
        1
 10
0.0
 20
0.0
  0
CIRCLE
  5
12A
102
{ACAD_REACTORS
330
12B
102
}
100
AcDbEntity
  8
0
370
              -2
390
0
  6
Continuous
 62
               0
100
AcDbCircle
 10
762.6541100971117
 20
827.13988733260726
 30
0.0
 40
4.99969482421875
  0
HATCH
  5
12B
100
AcDbEntity
  8
0
370
              -2
390
0
  6
Continuous
 62
               0
100
AcDbHatch
 10
0.0
 20
0.0
 30
0.0
210
0.0
220
0.0
230
1.0
  2
SOLID
 70
               1
 71
               1
 91
        1
 92
        1
 93
        1
 72
               2
 10
762.6541100971117
 20
827.13988733260726
 40
4.99969482421875
 50
0.0
 51
360.0
 73
               0
 97
        1
330
12A
 75
               0
 76
               1
 98
        1
 10
0.0
 20
0.0
  0
MTEXT
  5
12C
100
AcDbEntity
  8
0
390
0
 62
               0
100
AcDbMText
 10
728.77649290961199
 20
638.32738565043178
 30
0.0
 40
24.432617187500004
 41
0.0
 71
               1
 72
               1
  1
330
  7
ＭＳゴシック
 11
0.0
 21
1.0
 31
0.0
 73
               1
 44
0.7828267384257843
  0
POINT
  5
12D
100
AcDbEntity
  8
Defpoints
370
               0
390
0
 62
               0
100
AcDbPoint
 10
662.6541100971117
 20
827.13988733260726
 30
0.0
  0
POINT
  5
12E
100
AcDbEntity
  8
Defpoints
370
               0
390
0
 62
               0
100
AcDbPoint
 10
662.6541100971117
 20
497.13988733260726
 30
0.0
  0
POINT
  5
12F
100
AcDbEntity
  8
Defpoints
370
               0
390
0
 62
               0
100
AcDbPoint
 10
762.6541100971117
 20
497.13988733260726
 30
0.0
  0
ENDBLK
  5
130
100
AcDbEntity
  8
notes
390
0
100
AcDbBlockEnd
  0
BLOCK
  5
131
100
AcDbEntity
  8
notes
390
0
100
AcDbBlockBegin
  2
*D19
 70
               1
 10
0.0
 20
0.0
 30
0.0
  3
*D19
  1

  0
LINE
  5
132
100
AcDbEntity
  8
0
370
              -2
390
0
  6
Continuous
 62
               0
100
AcDbLine
 10
662.6541100971117
 20
472.13988733260726
 30
0.0
 11
662.6541100971117
 21
397.13988733260726
 31
0.0
  0
LINE
  5
133
100
AcDbEntity
  8
0
370
              -2
390
0
  6
Continuous
 62
               0
100
AcDbLine
 10
312.6541100971117
 20
472.13988733260726
 30
0.0
 11
312.6541100971117
 21
397.13988733260726
 31
0.0
  0
LINE
  5
134
100
AcDbEntity
  8
0
370
              -2
390
0
  6
Continuous
 62
               0
100
AcDbLine
 10
662.6541100971117
 20
397.13988733260726
 30
0.0
 11
312.6541100971117
 21
397.13988733260726
 31
0.0
  0
CIRCLE
  5
135
102
{ACAD_REACTORS
330
136
102
}
100
AcDbEntity
  8
0
370
              -2
390
0
  6
Continuous
 62
               0
100
AcDbCircle
 10
662.6541100971117
 20
397.13988733260726
 30
0.0
 40
4.99969482421875
  0
HATCH
  5
136
100
AcDbEntity
  8
0
370
              -2
390
0
  6
Continuous
 62
               0
100
AcDbHatch
 10
0.0
 20
0.0
 30
0.0
210
0.0
220
0.0
230
1.0
  2
SOLID
 70
               1
 71
               1
 91
        1
 92
        1
 93
        1
 72
               2
 10
662.6541100971117
 20
397.13988733260726
 40
4.99969482421875
 50
0.0
 51
360.0
 73
               0
 97
        1
330
135
 75
               0
 76
               1
 98
        1
 10
0.0
 20
0.0
  0
CIRCLE
  5
137
102
{ACAD_REACTORS
330
138
102
}
100
AcDbEntity
  8
0
370
              -2
390
0
  6
Continuous
 62
               0
100
AcDbCircle
 10
312.6541100971117
 20
397.13988733260726
 30
0.0
 40
4.99969482421875
  0
HATCH
  5
138
100
AcDbEntity
  8
0
370
              -2
390
0
  6
Continuous
 62
               0
100
AcDbHatch
 10
0.0
 20
0.0
 30
0.0
210
0.0
220
0.0
230
1.0
  2
SOLID
 70
               1
 71
               1
 91
        1
 92
        1
 93
        1
 72
               2
 10
312.6541100971117
 20
397.13988733260726
 40
4.99969482421875
 50
0.0
 51
360.0
 73
               0
 97
        1
330
137
 75
               0
 76
               1
 98
        1
 10
0.0
 20
0.0
  0
MTEXT
  5
139
100
AcDbEntity
  8
0
390
0
 62
               0
100
AcDbMText
 10
463.84160841493576
 20
431.01750452010742
 30
0.0
 40
24.432617187500004
 41
0.0
 71
               1
 72
               1
  1
350
  7
ＭＳゴシック
 73
               1
 44
0.7828267384257843
  0
POINT
  5
13A
100
AcDbEntity
  8
Defpoints
370
               0
390
0
 62
               0
100
AcDbPoint
 10
312.6541100971117
 20
497.13988733260726
 30
0.0
  0
POINT
  5
13B
100
AcDbEntity
  8
Defpoints
370
               0
390
0
 62
               0
100
AcDbPoint
 10
662.6541100971117
 20
497.13988733260726
 30
0.0
  0
POINT
  5
13C
100
AcDbEntity
  8
Defpoints
370
               0
390
0
 62
               0
100
AcDbPoint
 10
662.6541100971117
 20
397.13988733260726
 30
0.0
  0
ENDBLK
  5
13D
100
AcDbEntity
  8
notes
390
0
100
AcDbBlockEnd
  0
BLOCK
  5
13E
100
AcDbEntity
  8
notes
390
0
100
AcDbBlockBegin
  2
グループ-1
 70
               0
 10
0.0
 20
0.0
 30
0.0
  3
グループ-1
  1

  0
MTEXT
  5
13F
100
AcDbEntity
  8
0
390
0
 62
               7
100
AcDbMText
 10
-16840.832074375528
 20
1897.5062549975353
 30
0.0
 40
24.432617187500004
 41
0.0
 71
               1
 72
               1
  1
※カウンター置きの場合も壁固定が必要です。\P
  7
ＭＳ ゴシック
 73
               1
 44
0.7828267384257843
  0
MTEXT
  5
140
100
AcDbEntity
  8
0
390
0
 62
               7
100
AcDbMText
 10
-16840.832074375528
 20
2042.5323636904682
 30
0.0
 40
24.432617187500004
 41
764.7717154610109
 71
               1
 72
               1
  1
※陶器製品には寸法公差があります。\P  洗面器の収め方をご確認の上、必ず現物を合わせて\P  カウンターに切込を行ってください。
  7
ＭＳ ゴシック
 73
               1
 44
1.0437689845677123
  0
ENDBLK
  5
141
100
AcDbEntity
  8
notes
390
0
100
AcDbBlockEnd
  0
BLOCK
  5
142
100
AcDbEntity
  8
notes
390
0
100
AcDbBlockBegin
  2
*D21
 70
               1
 10
0.0
 20
0.0
 30
0.0
  3
*D21
  1

  0
LINE
  5
143
100
AcDbEntity
  8
0
370
              -2
390
0
  6
Continuous
 62
               0
100
AcDbLine
 10
401.14349036122439
 20
-608.60475990794271
 30
0.0
 11
382.0
 21
-608.60475990794271
 31
0.0
  0
LINE
  5
144
100
AcDbEntity
  8
0
370
              -2
390
0
  6
Continuous
 62
               0
100
AcDbLine
 10
401.14349036122439
 20
-618.60475990794271
 30
0.0
 11
382.0
 21
-618.60475990794271
 31
0.0
  0
LINE
  5
145
100
AcDbEntity
  8
0
370
              -2
390
0
  6
Continuous
 62
               0
100
AcDbLine
 10
382.0
 20
-618.60475990794271
 30
0.0
 11
382.0
 21
-656.75
 31
0.0
  0
LINE
  5
146
100
AcDbEntity
  8
0
370
              -2
390
0
  6
Continuous
 62
               0
100
AcDbLine
 10
382.0
 20
-608.60475990794271
 30
0.0
 11
382.0
 21
-618.60475990794271
 31
0.0
  0
CIRCLE
  5
147
102
{ACAD_REACTORS
330
148
102
}
100
AcDbEntity
  8
0
370
              -2
390
0
  6
Continuous
 62
               0
100
AcDbCircle
 10
382.0
 20
-608.60475990794271
 30
0.0
 40
4.99969482421875
  0
HATCH
  5
148
100
AcDbEntity
  8
0
370
              -2
390
0
  6
Continuous
 62
               0
100
AcDbHatch
 10
0.0
 20
0.0
 30
0.0
210
0.0
220
0.0
230
1.0
  2
SOLID
 70
               1
 71
               1
 91
        1
 92
        1
 93
        1
 72
               2
 10
382.0
 20
-608.60475990794271
 40
4.99969482421875
 50
0.0
 51
360.0
 73
               0
 97
        1
330
147
 75
               0
 76
               1
 98
        1
 10
0.0
 20
0.0
  0
CIRCLE
  5
149
102
{ACAD_REACTORS
330
14A
102
}
100
AcDbEntity
  8
0
370
              -2
390
0
  6
Continuous
 62
               0
100
AcDbCircle
 10
382.0
 20
-618.60475990794271
 30
0.0
 40
4.99969482421875
  0
HATCH
  5
14A
100
AcDbEntity
  8
0
370
              -2
390
0
  6
Continuous
 62
               0
100
AcDbHatch
 10
0.0
 20
0.0
 30
0.0
210
0.0
220
0.0
230
1.0
  2
SOLID
 70
               1
 71
               1
 91
        1
 92
        1
 93
        1
 72
               2
 10
382.0
 20
-618.60475990794271
 40
4.99969482421875
 50
0.0
 51
360.0
 73
               0
 97
        1
330
149
 75
               0
 76
               1
 98
        1
 10
0.0
 20
0.0
  0
MTEXT
  5
14B
100
AcDbEntity
  8
0
390
0
 62
               0
100
AcDbMText
 10
348.12238281250029
 20
-656.75
 30
0.0
 40
24.432617187500004
 41
0.0
 71
               1
 72
               1
  1
10
  7
ＭＳゴシック
 11
0.0
 21
1.0
 31
0.0
 73
               1
 44
0.7828267384257843
  0
POINT
  5
14C
100
AcDbEntity
  8
Defpoints
370
               0
390
0
 62
               0
100
AcDbPoint
 10
426.14349036122439
 20
-618.60475990794271
 30
0.0
  0
POINT
  5
14D
100
AcDbEntity
  8
Defpoints
370
               0
390
0
 62
               0
100
AcDbPoint
 10
426.14349036122439
 20
-608.60475990794271
 30
0.0
  0
POINT
  5
14E
100
AcDbEntity
  8
Defpoints
370
               0
390
0
 62
               0
100
AcDbPoint
 10
382.0
 20
-608.60475990794271
 30
0.0
  0
ENDBLK
  5
14F
100
AcDbEntity
  8
notes
390
0
100
AcDbBlockEnd
  0
BLOCK
  5
150
100
AcDbEntity
  8
ADF70-1303
390
0
100
AcDbBlockBegin
  2
グループ-2
 70
               0
 10
0.0
 20
0.0
 30
0.0
  3
グループ-2
  1

  0
LINE
  5
151
100
AcDbEntity
  8
0
370
               5
390
0
  6
Continuous
 62
               7
100
AcDbLine
 10
-16056.518799511139
 20
2696.8014839129432
 30
0.0
 11
-16093.518799511139
 21
2659.8014839129432
 31
0.0
  0
LINE
  5
152
100
AcDbEntity
  8
0
370
               5
390
0
  6
Continuous
 62
               7
100
AcDbLine
 10
-16076.518799511139
 20
2696.8014839129432
 30
0.0
 11
-16113.518799511139
 21
2659.8014839129432
 31
0.0
  0
LINE
  5
153
100
AcDbEntity
  8
0
370
               5
390
0
  6
Continuous
 62
               7
100
AcDbLine
 10
-16096.518799511139
 20
2696.8014839129432
 30
0.0
 11
-16133.518799511139
 21
2659.8014839129432
 31
0.0
  0
ENDBLK
  5
154
100
AcDbEntity
  8
ADF70-1303
390
0
100
AcDbBlockEnd
  0
ENDSEC
  0
SECTION
  2
ENTITIES
  0
MTEXT
  5
155
100
AcDbEntity
  8
template
390
0
 62
               7
100
AcDbMText
 10
-967.99999999975989
 20
-1147.4176292337006
 30
0.0
 40
16.288411458333332
 41
0.0
 71
               1
 72
               1
  1
品名
  7
ＭＳ ゴシック
 73
               1
 44
0.7828267384257843
  0
MTEXT
  5
156
100
AcDbEntity
  8
template
390
0
 62
               7
100
AcDbMText
 10
-967.99999999975989
 20
-1232.4176292337006
 30
0.0
 40
16.288411458333332
 41
0.0
 71
               1
 72
               1
  1
仕様
  7
ＭＳ ゴシック
 73
               1
 44
0.7828267384257843
  0
MTEXT
  5
157
100
AcDbEntity
  8
template
390
0
 62
               7
100
AcDbMText
 10
-914.99999999975989
 20
-1176.0000901712006
 30
0.0
 40
24.432617187500004
 41
0.0
 71
               1
 72
               1
  1
洗面器 -CATALANO,C-
  7
ＭＳ ゴシック
 73
               1
 44
0.7828267384257843
  0
LINE
  5
158
100
AcDbEntity
  8
template
370
               5
390
0
  6
Continuous
 62
               7
100
AcDbLine
 10
974.99999999975807
 20
-1224.0027073587005
 30
0.0
 11
-975.00000000024011
 21
-1224.0027073587005
 31
0.0
  0
LWPOLYLINE
  5
159
100
AcDbEntity
  8
template
370
               5
390
0
  6
Continuous
 62
               7
100
AcDbPolyline
 90
        5
 70
             128
 10
975.00000000024193
 20
1405.9972926412995
 10
-974.99999999975989
 20
1405.9972926412995
 10
-974.99999999975989
 20
-1394.0027073587005
 10
975.00000000024193
 20
-1394.0027073587005
 10
975.00000000024193
 20
1405.9972926412995
  0
LINE
  5
15A
100
AcDbEntity
  8
template
370
               5
390
0
  6
Continuous
 62
               7
100
AcDbLine
 10
974.99999999975807
 20
-1139.0027073587005
 30
0.0
 11
-975.00000000024011
 21
-1139.0027073587005
 31
0.0
  0
LINE
  5
15B
100
AcDbEntity
  8
template
370
               5
390
0
  6
Continuous
 62
               7
100
AcDbLine
 10
975.00000000024193
 20
-1309.0027073587005
 30
0.0
 11
222.00000000024011
 21
-1309.0027073587005
 31
0.0
  0
MTEXT
  5
15C
100
AcDbEntity
  8
template
390
0
 62
               7
100
AcDbMText
 10
-974.99999999955617
 20
-1405.8565294155574
 30
0.0
 40
21.717881944444446
 41
0.0
 71
               1
 72
               1
  1
100707SH
  7
ＭＳ ゴシック
 73
               1
 44
0.7828267384257843
  0
MTEXT
  5
15D
100
AcDbEntity
  8
template
390
0
 62
               7
100
AcDbMText
 10
251.87140625249958
 20
-1338.9131018320081
 30
0.0
 40
24.432617187500004
 41
0.0
 71
               1
 72
               1
  1
大洋金物株式会社 ティーフォルム事業部
  7
ＭＳ ゴシック
 73
               1
 44
0.7828267384257843
  0
INSERT
  5
15E
100
AcDbEntity
  8
template
390
0
 62
               7
100
AcDbBlockReference
  2
グループ
 10
16913.98307140659
 20
-1832.661596580336
 30
0.0
  0
MTEXT
  5
15F
100
AcDbEntity
  8
template
390
0
 62
               7
100
AcDbMText
 10
784.00000000050022
 20
-1261.0000901712006
 30
0.0
 40
24.432617187500004
 41
0.0
 71
               1
 72
               1
  1
1:10
  7
ＭＳ ゴシック
 73
               1
 44
0.7828267384257843
  0
MTEXT
  5
160
100
AcDbEntity
  8
template
390
0
 62
               7
100
AcDbMText
 10
731.00000000050022
 20
-1232.4176292337006
 30
0.0
 40
16.288411458333332
 41
0.0
 71
               1
 72
               1
  1
縮尺
  7
ＭＳ ゴシック
 73
               1
 44
0.7828267384257843
  0
LINE
  5
161
100
AcDbEntity
  8
template
370
               5
390
0
  6
Continuous
 62
               7
100
AcDbLine
 10
724.00000000050022
 20
-1309.0027073587005
 30
0.0
 11
724.00000000050022
 21
-1224.0027073587005
 31
0.0
  0
MTEXT
  5
162
100
AcDbEntity
  8
template
390
0
 62
               7
100
AcDbMText
 10
480.0000000004984
 20
-1232.4176292337006
 30
0.0
 40
16.288411458333332
 41
0.0
 71
               1
 72
               1
  1
容量
  7
ＭＳ ゴシック
 73
               1
 44
0.7828267384257843
  0
MTEXT
  5
163
100
AcDbEntity
  8
template
390
0
 62
               7
100
AcDbMText
 10
533.00000000050022
 20
-1261.0000901712006
 30
0.0
 40
24.432617187500004
 41
0.0
 71
               1
 72
               1
  1
9L
  7
ＭＳ ゴシック
 73
               1
 44
0.7828267384257843
  0
LINE
  5
164
100
AcDbEntity
  8
template
370
               5
390
0
  6
Continuous
 62
               7
100
AcDbLine
 10
473.0000000004984
 20
-1309.0027073587005
 30
0.0
 11
473.0000000004984
 21
-1224.0027073587005
 31
0.0
  0
MTEXT
  5
165
100
AcDbEntity
  8
template
390
0
 62
               7
100
AcDbMText
 10
229.0000000004984
 20
-1147.4176292337006
 30
0.0
 40
16.288411458333332
 41
0.0
 71
               1
 72
               1
  1
品番
  7
ＭＳ ゴシック
 73
               1
 44
0.7828267384257843
  0
MTEXT
  5
166
100
AcDbEntity
  8
template
390
0
 62
               7
100
AcDbMText
 10
229.0000000004984
 20
-1232.4176292337006
 30
0.0
 40
16.288411458333332
 41
0.0
 71
               1
 72
               1
  1
重量
  7
ＭＳ ゴシック
 73
               1
 44
0.7828267384257843
  0
MTEXT
  5
167
100
AcDbEntity
  8
template
390
0
 62
               7
100
AcDbMText
 10
282.0000000004984
 20
-1176.0000901712006
 30
0.0
 40
24.432617187500004
 41
0.0
 71
               1
 72
               1
  1
ADF70-1303
  7
ＭＳ ゴシック
 73
               1
 44
0.7828267384257843
  0
MTEXT
  5
168
100
AcDbEntity
  8
template
390
0
 62
               7
100
AcDbMText
 10
282.0000000004984
 20
-1261.0000901712006
 30
0.0
 40
24.432617187500004
 41
0.0
 71
               1
 72
               1
  1
22kg
  7
ＭＳ ゴシック
 73
               1
 44
0.7828267384257843
  0
LINE
  5
169
100
AcDbEntity
  8
template
370
               5
390
0
  6
Continuous
 62
               7
100
AcDbLine
 10
222.0000000004984
 20
-1394.0027073587005
 30
0.0
 11
222.0000000004984
 21
-1139.0027073587005
 31
0.0
  0
MTEXT
  5
16A
100
AcDbEntity
  8
template
390
0
 62
               7
100
AcDbMText
 10
-914.99999999975989
 20
-1261.0000901712006
 30
0.0
 40
24.432617187500004
 41
0.0
 71
               1
 72
               1
  1
壁掛け,カウンタ ー置き/オーバーフロー付き/壁取付ボルト付属/\P陶器/ホワイト
  7
ＭＳ ゴシック
 73
               1
 44
1.3047112307096407
  0
MTEXT
  5
16B
100
AcDbEntity
  8
notes
390
0
 62
               7
100
AcDbMText
 10
-797.27869630190253
 20
209.87076711013219
 30
0.0
 40
24.432617187500004
 41
835.58054074313645
 71
               1
 72
               1
  1
＝φ30もしくはφ35の水栓取付用穴あけ加工を承ります。\P   必要な場合、ご注文の際にご指示ください。
  7
ＭＳゴシック
 73
               1
 44
1.0437689845677123
  0
MTEXT
  5
16C
100
AcDbEntity
  8
notes
390
0
 62
               7
100
AcDbMText
 10
-214.35917636930026
 20
-353.84646779604304
 30
0.0
 40
24.432617187500004
 41
0.0
 71
               1
 72
               1
  1
壁取付ボルト位置(2ヶ所)
  7
ＭＳ ゴシック
 73
               1
 44
0.7828267384257843
  0
MTEXT
  5
16D
100
AcDbEntity
  8
notes
390
0
 62
               7
100
AcDbMText
 10
350.99929871120548
 20
1075.94529446722
 30
0.0
 40
24.432617187500004
 41
0.0
 71
               1
 72
               1
  1
カウンター切込寸法
  7
ＭＳゴシック
 73
               1
 44
0.7828267384257843
  0
LINE
  5
16E
100
AcDbEntity
  8
notes
370
               5
390
0
  6
Continuous
 62
               7
100
AcDbLine
 10
-286.91353407118731
 20
-478.55775625251295
 30
0.0
 11
-196.44038877310959
 21
-388.08461095443363
 31
0.0
  0
DIMENSION
  5
16F
100
AcDbEntity
  8
notes
370
               5
390
0
  6
Continuous
 62
               7
100
AcDbDimension
  2
*D3
 10
-776.78755656955036
 20
977.1398873326068
 30
0.0
 11
-426.78755656955036
 21
977.1398873326068
 31
0.0
 71
               5
 72
               1
 41
1.0
 42
0.0
  3
tform線あり
100
AcDbAlignedDimension
 13
-76.787556569550361
 23
822.13893352559103
 33
0.0
 14
-776.78755656955036
 24
822.13893352559103
 34
0.0
100
AcDbRotatedDimension
1001
ACAD
1000
DSTYLE
1002
{
1070
             279
1070
               2
1070
             340
1005
38
1070
             147
1040
5.0
1002
}
  0
DIMENSION
  5
170
100
AcDbEntity
  8
notes
370
               5
390
0
  6
Continuous
 62
               7
100
AcDbDimension
  2
*D4
 10
-286.91353407118731
 20
-359.85775625251313
 30
0.0
 11
-426.91353407118731
 21
-354.85775625251313
 31
0.0
 70
             128
 71
               5
 72
               1
 41
1.0
 42
0.0
  3
tform線あり
100
AcDbAlignedDimension
 13
-566.91353407118731
 23
-458.55775625251295
 33
0.0
 14
-286.91353407118731
 24
-458.55775625251295
 34
0.0
100
AcDbRotatedDimension
1001
ACAD
1000
DSTYLE
1002
{
1070
             279
1070
               2
1070
             340
1005
38
1070
             147
1040
5.0
1002
}
  0
DIMENSION
  5
171
100
AcDbEntity
  8
notes
370
               5
390
0
  6
Continuous
 62
               7
100
AcDbDimension
  2
*D5
 10
-876.78755656955036
 20
-478.55775625251295
 30
0.0
 11
-876.78755656955036
 21
-458.58125808024602
 31
0.0
 71
               5
 72
               1
 41
1.0
 42
0.0
  3
tform線あり
100
AcDbAlignedDimension
 13
-771.78859791081049
 23
-438.60475990797909
 33
0.0
 14
-636.78755656955036
 24
-478.55775625251295
 34
0.0
 50
90.0
100
AcDbRotatedDimension
1001
ACAD
1000
DSTYLE
1002
{
1070
             279
1070
               2
1070
             340
1005
38
1070
             147
1040
5.0
1002
}
  0
DIMENSION
  5
172
100
AcDbEntity
  8
notes
370
               5
390
0
  6
Continuous
 62
               7
100
AcDbDimension
  2
*D6
 10
23.16499209554604
 20
-438.60475990797909
 30
0.0
 11
23.16499209554604
 21
-528.6047599079609
 31
0.0
 71
               5
 72
               1
 41
1.0
 42
0.0
  3
tform線あり
100
AcDbAlignedDimension
 13
-154.05080576189357
 23
-618.60475990794293
 33
0.0
 14
-81.786515228293865
 24
-438.60475990797909
 34
0.0
 50
90.0
100
AcDbRotatedDimension
1001
ACAD
1000
DSTYLE
1002
{
1070
             279
1070
               2
1070
             340
1005
38
1070
             147
1040
5.0
1002
}
  0
DIMENSION
  5
173
100
AcDbEntity
  8
notes
370
               5
390
0
  6
Continuous
 62
               7
100
AcDbDimension
  2
*D7
 10
711.92281643131355
 20
-718.60475990794271
 30
0.0
 11
574.42281643131355
 21
-713.60475990794271
 31
0.0
 70
             128
 71
               5
 72
               1
 41
1.0
 42
0.0
  3
tform線あり
100
AcDbAlignedDimension
 13
436.92281643131355
 23
-613.60475990795726
 33
0.0
 14
711.92281643131355
 24
-612.60475990797909
 34
0.0
100
AcDbRotatedDimension
1001
ACAD
1000
DSTYLE
1002
{
1070
             279
1070
               2
1070
             340
1005
38
1070
             147
1040
5.0
1002
}
  0
DIMENSION
  5
174
100
AcDbEntity
  8
notes
370
               5
390
0
  6
Continuous
 62
               7
100
AcDbDimension
  2
*D8
 10
23.212443430449639
 20
827.13988733260726
 30
0.0
 11
23.212443430449639
 21
602.13990369666976
 31
0.0
 71
               5
 72
               1
 41
1.0
 42
0.0
  3
tform線あり
100
AcDbAlignedDimension
 13
-233.6981555587663
 23
377.13992006073227
 33
0.0
 14
-81.787556569550361
 24
827.13988733260726
 34
0.0
 50
90.0
100
AcDbRotatedDimension
1001
ACAD
1000
DSTYLE
1002
{
1070
             279
1070
               2
1070
             340
1005
38
1070
             147
1040
5.0
1002
}
  0
DIMENSION
  5
175
100
AcDbEntity
  8
notes
370
               5
390
0
  6
Continuous
 62
               7
100
AcDbDimension
  2
*D9
 10
-741.78755656955036
 20
277.1398873326068
 30
0.0
 11
-426.78755656955036
 21
277.1398873326068
 31
0.0
 71
               5
 72
               1
 41
1.0
 42
0.0
  3
tform線あり
100
AcDbAlignedDimension
 13
-111.78755656955036
 23
453.7720219381174
 33
0.0
 14
-741.78755656955036
 24
453.7720219381124
 34
0.0
100
AcDbRotatedDimension
1001
ACAD
1000
DSTYLE
1002
{
1070
             279
1070
               2
1070
             340
1005
38
1070
             147
1040
5.0
1002
}
  0
DIMENSION
  5
176
100
AcDbEntity
  8
notes
370
               5
390
0
  6
Continuous
 62
               7
100
AcDbDimension
  2
*D10
 10
-526.78755656955036
 20
927.13988733260635
 30
0.0
 11
-481.78755656955036
 21
932.13988733260635
 31
0.0
 70
             128
 71
               5
 72
               1
 41
1.0
 42
0.0
  3
tform線あり
100
AcDbAlignedDimension
 13
-426.787556569554
 23
779.63988733260635
 33
0.0
 14
-526.78755656955036
 24
779.63988733260635
 34
0.0
100
AcDbRotatedDimension
1001
ACAD
1000
DSTYLE
1002
{
1070
             279
1070
               2
1070
             340
1005
38
1070
             147
1040
5.0
1002
}
  0
DIMENSION
  5
177
100
AcDbEntity
  8
notes
370
               5
390
0
  6
Continuous
 62
               7
100
AcDbDimension
  2
*D11
 10
-426.787556569554
 20
927.13988733260635
 30
0.0
 11
-376.78755656955036
 21
932.13988733260635
 31
0.0
 70
             128
 71
               5
 72
               1
 41
1.0
 42
0.0
  3
tform線あり
100
AcDbAlignedDimension
 13
-326.78755656955036
 23
779.63988733260635
 33
0.0
 14
-426.787556569554
 24
779.63988733260635
 34
0.0
100
AcDbRotatedDimension
1001
ACAD
1000
DSTYLE
1002
{
1070
             279
1070
               2
1070
             340
1005
38
1070
             147
1040
5.0
1002
}
  0
DIMENSION
  5
178
100
AcDbEntity
  8
notes
370
               5
390
0
  6
Continuous
 62
               7
100
AcDbDimension
  2
*D12
 10
-876.78755656955036
 20
827.13988733260726
 30
0.0
 11
-881.78755656955036
 21
751.97600631529508
 31
0.0
 70
             128
 71
               5
 72
               1
 41
1.0
 42
0.0
  3
tform線あり
100
AcDbAlignedDimension
 13
-771.78755656955036
 23
702.13988733260726
 33
0.0
 14
-771.78755656955036
 24
827.13988733260726
 34
0.0
 50
90.0
100
AcDbRotatedDimension
1001
ACAD
1000
DSTYLE
1002
{
1070
             279
1070
               2
1070
             340
1005
38
1070
             147
1040
5.0
1002
}
  0
DIMENSION
  5
179
100
AcDbEntity
  8
notes
370
               5
390
0
  6
Continuous
 62
               7
100
AcDbDimension
  2
*D13
 10
-876.78755656955036
 20
702.1208325154364
 30
0.0
 11
-876.78755656955036
 21
552.1208325154364
 31
0.0
 71
               5
 72
               1
 41
1.0
 42
0.0
  3
tform線あり
100
AcDbAlignedDimension
 13
-679.6981555587663
 23
402.1208325154364
 33
0.0
 14
-776.78755656955036
 24
702.1208325154364
 34
0.0
 50
90.0
100
AcDbRotatedDimension
1001
ACAD
1000
DSTYLE
1002
{
1070
             279
1070
               2
1070
             340
1005
38
1070
             147
1040
5.0
1002
}
  0
DIMENSION
  5
17A
100
AcDbEntity
  8
notes
370
               5
390
0
  6
Continuous
 62
               7
100
AcDbDimension
  2
*D14
 10
711.92281643131355
 20
-338.60475990797909
 30
0.0
 11
679.42281643238675
 21
-333.60475990797909
 31
0.0
 70
             128
 71
               5
 72
               1
 41
1.0
 42
0.0
  3
tform線あり
100
AcDbAlignedDimension
 13
646.92281643345996
 23
-438.60475990797909
 33
0.0
 14
711.92281643131355
 24
-442.60475990797909
 34
0.0
100
AcDbRotatedDimension
1001
ACAD
1000
DSTYLE
1002
{
1070
             279
1070
               2
1070
             340
1005
38
1070
             147
1040
5.0
1002
}
  0
DIMENSION
  5
17B
100
AcDbEntity
  8
notes
370
               5
390
0
  6
Continuous
 62
               7
100
AcDbDimension
  2
*D15
 10
436.11257456609019
 20
-438.60475990797909
 30
0.0
 11
441.11257456609019
 21
-420.84340188777401
 31
0.0
 70
             128
 71
               5
 72
               1
 41
1.0
 42
0.0
  3
tform線あり
100
AcDbAlignedDimension
 13
434.42338511321941
 23
-563.60475990795726
 33
0.0
 14
434.34900006367388
 24
-438.60475990797909
 34
0.0
 50
90.0
100
AcDbRotatedDimension
1001
ACAD
1000
DSTYLE
1002
{
1070
             279
1070
               2
1070
             340
1005
38
1070
               3
1000
<>(深さ)
1070
             174
1070
               0
1070
             147
1040
5.0
1002
}
  0
CIRCLE
  5
17C
100
AcDbEntity
  8
notes
370
              15
390
0
  6
STYLE_12
 62
               7
100
AcDbCircle
 10
-816.6981555587663
 20
195.26476130604351
 30
0.0
 40
17.5
  0
DIMENSION
  5
17D
100
AcDbEntity
  8
notes
370
               5
390
0
  6
Continuous
 62
               7
100
AcDbDimension
  2
*D16
 10
-706.79815555876485
 20
-718.60475990794293
 30
0.0
 11
-426.79815555876485
 21
-718.60475990794293
 31
0.0
 71
               5
 72
               1
 41
1.0
 42
0.0
  3
tform線あり
100
AcDbAlignedDimension
 13
-146.79815555876485
 23
-618.60475990794293
 33
0.0
 14
-706.79815555876485
 24
-618.60475990794293
 34
0.0
100
AcDbRotatedDimension
1001
ACAD
1000
DSTYLE
1002
{
1070
             279
1070
               2
1070
             340
1005
38
1070
             147
1040
5.0
1002
}
  0
DIMENSION
  5
17E
100
AcDbEntity
  8
notes
370
               5
390
0
  6
Continuous
 62
               7
100
AcDbDimension
  2
*D17
 10
711.92281643131355
 20
-768.60475990794271
 30
0.0
 11
519.42281643131355
 21
-768.60475990794271
 31
0.0
 71
               5
 72
               1
 41
1.0
 42
0.0
  3
tform線あり
100
AcDbAlignedDimension
 13
326.92281643131355
 23
-612.60475990797909
 33
0.0
 14
711.92281643131355
 24
-612.60475990797909
 34
0.0
100
AcDbRotatedDimension
1001
ACAD
1000
DSTYLE
1002
{
1070
             279
1070
               2
1070
             340
1005
38
1070
             147
1040
5.0
1002
}
  0
DIMENSION
  5
17F
100
AcDbEntity
  8
notes
370
               5
390
0
  6
Continuous
 62
               7
100
AcDbDimension
  2
*D18
 10
762.6541100971117
 20
497.13988733260726
 30
0.0
 11
762.6541100971117
 21
662.13988733260726
 31
0.0
 71
               5
 72
               1
 41
1.0
 42
0.0
  3
tform線あり
100
AcDbAlignedDimension
 13
662.6541100971117
 23
827.13988733260726
 33
0.0
 14
662.6541100971117
 24
497.13988733260726
 34
0.0
 50
90.0
100
AcDbRotatedDimension
1001
ACAD
1000
DSTYLE
1002
{
1070
             279
1070
               2
1070
             340
1005
38
1070
             147
1040
5.0
1002
}
  0
DIMENSION
  5
180
100
AcDbEntity
  8
notes
370
               5
390
0
  6
Continuous
 62
               7
100
AcDbDimension
  2
*D19
 10
662.6541100971117
 20
397.13988733260726
 30
0.0
 11
487.6541100971117
 21
397.13988733260726
 31
0.0
 71
               5
 72
               1
 41
1.0
 42
0.0
  3
tform線あり
100
AcDbAlignedDimension
 13
312.6541100971117
 23
497.13988733260726
 33
0.0
 14
662.6541100971117
 24
497.13988733260726
 34
0.0
100
AcDbRotatedDimension
1001
ACAD
1000
DSTYLE
1002
{
1070
             279
1070
               2
1070
             340
1005
38
1070
             147
1040
5.0
1002
}
  0
INSERT
  5
181
100
AcDbEntity
  8
notes
390
0
 62
               7
100
AcDbBlockReference
  2
グループ-1
 10
16913.98307140659
 20
-1832.661596580336
 30
0.0
  0
DIMENSION
  5
182
100
AcDbEntity
  8
notes
370
               5
390
0
  6
Continuous
 62
               7
100
AcDbDimension
  2
*D21
 10
382.0
 20
-608.60475990794271
 30
0.0
 11
377.0
 21
-625.0
 31
0.0
 70
             128
 71
               5
 72
               1
 41
1.0
 42
0.0
  3
tform線あり
100
AcDbAlignedDimension
 13
426.14349036122439
 23
-618.60475990794271
 33
0.0
 14
426.14349036122439
 24
-608.60475990794271
 34
0.0
 50
90.0
100
AcDbRotatedDimension
1001
ACAD
1000
DSTYLE
1002
{
1070
             279
1070
               2
1070
             340
1005
38
1070
             174
1070
               0
1070
             147
1040
5.0
1002
}
  0
LINE
  5
183
100
AcDbEntity
  8
ADF70-1303
370
              15
390
0
  6
STYLE_12
 62
               7
100
AcDbLine
 10
456.92338511321577
 20
-575.60475990795726
 30
0.0
 11
456.92338511321941
 21
-608.60475990794271
 31
0.0
  0
LINE
  5
184
100
AcDbEntity
  8
ADF70-1303
370
              15
390
0
  6
STYLE_12
 62
               7
100
AcDbLine
 10
474.42338511321941
 20
-563.60475990795726
 30
0.0
 11
456.92338511321577
 21
-575.60475990795726
 31
0.0
  0
LWPOLYLINE
  5
185
100
AcDbEntity
  8
ADF70-1303
370
              15
390
0
  6
STYLE_12
 62
               7
100
AcDbPolyline
 90
        4
 70
             128
 10
474.42338511320486
 20
-563.60475990795726
 42
0.0910350092385699
 10
518.99151639055344
 20
-555.3800420683026
 42
0.1512039825288578
 10
556.23918924741338
 20
-526.22084243400582
 42
0.0815255613531779
 10
575.30573021718556
 20
-486.11478371970043
 42
0.0815255613531779
  0
LWPOLYLINE
  5
186
100
AcDbEntity
  8
ADF70-1303
370
              15
390
0
  6
STYLE_12
 62
               7
100
AcDbPolyline
 90
        4
 70
             128
 10
581.73114516199348
 20
-443.34926920664634
 42
-0.0201791894078057
 10
580.10244657025214
 20
-461.10475990800296
 42
-0.0246997690846471
 10
576.16993936782637
 20
-482.56739195729983
 42
-0.0091252597909455
 10
575.2710133439341
 20
-486.10475990797909
  0
CIRCLE
  5
187
100
AcDbEntity
  8
ADF70-1303
370
              15
390
0
  6
Continuous
 62
               7
100
AcDbCircle
 10
-426.78755656955036
 20
549.64045601451221
 30
0.0
 40
23.0
  0
CIRCLE
  5
188
100
AcDbEntity
  8
ADF70-1303
370
              15
390
0
  6
STYLE_12
 62
               7
100
AcDbCircle
 10
-326.78755656955036
 20
762.13988733260635
 30
0.0
 40
17.5
  0
SPLINE
  5
189
100
AcDbEntity
  8
ADF70-1303
370
              15
390
0
  6
Continuous
 62
               7
100
AcDbSpline
210
0.0
220
0.0
230
1.0
 70
               8
 71
               2
 72
              30
 73
              27
 74
               0
 42
0.000001
 43
0.000001
 40
0.0
 40
0.0
 40
0.0
 40
1.0
 40
1.0
 40
2.0
 40
3.0
 40
4.0
 40
5.0
 40
6.0
 40
7.0
 40
8.0
 40
9.0
 40
10.0
 40
11.0
 40
12.0
 40
13.0
 40
14.0
 40
15.0
 40
16.0
 40
17.0
 40
18.0
 40
19.0
 40
20.0
 40
21.0
 40
22.0
 40
22.0
 40
23.0
 40
23.0
 40
23.0
 10
-414.28755656955036
 20
675.39093144883032
 30
0.0
 10
-414.28755656955036
 20
675.46669279491448
 30
0.0
 10
-414.28755656955036
 20
675.54245414099819
 30
0.0
 10
-414.60595762894809
 20
676.34720228301853
 30
0.0
 10
-416.89599559803173
 20
677.25927510800216
 30
0.0
 10
-419.00289236156459
 20
677.76489622908252
 30
0.0
 10
-421.5089454262561
 20
678.13231320351656
 30
0.0
 10
-425.50410696050312
 20
678.44194566612964
 30
0.0
 10
-429.38334368096548
 20
678.34345786069866
 30
0.0
 10
-432.06611056720067
 20
678.13231865365674
 30
0.0
 10
-434.57217129073979
 20
677.76491075537638
 30
0.0
 10
-436.67907859493789
 20
677.25925679716624
 30
0.0
 10
-438.96370112305522
 20
676.33598669102889
 30
0.0
 10
-439.35349426666289
 20
675.39094653679263
 30
0.0
 10
-438.96959348257587
 20
674.43535926990285
 30
0.0
 10
-436.67915648695634
 20
673.52262985415359
 30
0.0
 10
-434.57227026413238
 20
673.01697083642716
 30
0.0
 10
-432.06622485834305
 20
672.64955692009539
 30
0.0
 10
-428.07106977864532
 20
672.33991850131611
 30
0.0
 10
-424.1918310051733
 20
672.43840206820755
 30
0.0
 10
-421.50905971770408
 20
672.64953701818945
 30
0.0
 10
-419.00299133512453
 20
673.01694797455298
 30
0.0
 10
-416.89607349180005
 20
673.52256403609249
 30
0.0
 10
-414.61070029245457
 20
674.44181872928061
 30
0.0
 10
-414.28756288732257
 20
675.23937873908767
 30
0.0
 10
-414.28755972874933
 20
675.31514008516774
 30
0.0
 10
-414.28755657017609
 20
675.39090143124781
 30
0.0
  0
CIRCLE
  5
18A
100
AcDbEntity
  8
ADF70-1303
370
              15
390
0
  6
STYLE_12
 62
               7
100
AcDbCircle
 10
-426.78755656955036
 20
762.13988733260635
 30
0.0
 40
17.5
  0
CIRCLE
  5
18B
100
AcDbEntity
  8
ADF70-1303
370
              15
390
0
  6
STYLE_12
 62
               7
100
AcDbCircle
 10
-526.78755656955036
 20
762.13988733260635
 30
0.0
 40
17.5
  0
LWPOLYLINE
  5
18C
100
AcDbEntity
  8
ADF70-1303
370
              15
390
0
  6
Continuous
 62
               7
100
AcDbPolyline
 90
       14
 70
             129
 10
-426.78755656955036
 20
827.13988733260635
 10
-771.78755656955036
 20
827.13988733260726
 42
0.414269430869253
 10
-776.78755656955036
 20
822.13893352559103
 10
-776.78755656955036
 20
562.08933556077341
 10
-776.78755656955036
 20
562.05406107665135
 42
0.4053176921290417
 10
-597.42319782367485
 20
377.13992006073272
 10
-597.42212396305331
 20
377.13988733260726
 10
-426.78755656955036
 20
377.13988733260726
 10
-256.15298917604741
 20
377.13988733260726
 10
-256.15191531542951
 20
377.13992006073272
 42
0.4053176921290311
 10
-76.787556569553999
 20
562.05406107664771
 10
-76.787556569550361
 20
562.08933556077341
 10
-76.787556569550361
 20
822.13893352559103
 42
0.4141576960839922
 10
-81.787556569550361
 20
827.13988733260726
  0
CIRCLE
  5
18D
100
AcDbEntity
  8
ADF70-1303
370
              15
390
0
  6
Continuous
 62
               7
100
AcDbCircle
 10
-426.78755656955036
 20
549.64045601451221
 30
0.0
 40
39.0
  0
ARC
  5
18E
100
AcDbEntity
  8
ADF70-1303
370
              15
390
0
  6
Continuous
 62
               7
100
AcDbCircle
 10
707.92281643131355
 20
-442.60475990797909
 30
0.0
 40
4.0
100
AcDbArc
 50
0.0
 51
90.0
  0
LINE
  5
18F
100
AcDbEntity
  8
ADF70-1303
370
              15
390
0
  6
Continuous
 62
               7
100
AcDbLine
 10
711.92281643131355
 20
-442.60475990797909
 30
0.0
 11
711.92281643131355
 21
-612.60475990797909
 31
0.0
  0
ARC
  5
190
100
AcDbEntity
  8
ADF70-1303
370
              15
390
0
  6
Continuous
 62
               7
100
AcDbCircle
 10
705.92281643131355
 20
-612.60475990797909
 30
0.0
 40
6.0
100
AcDbArc
 50
270.0
 51
0.0
  0
LINE
  5
191
100
AcDbEntity
  8
ADF70-1303
370
              15
390
0
  6
Continuous
 62
               7
100
AcDbLine
 10
664.42281643560636
 20
-438.60475990797909
 30
0.0
 11
707.92281643131355
 21
-438.60475990797909
 31
0.0
  0
LINE
  5
192
100
AcDbEntity
  8
ADF70-1303
370
              15
390
0
  6
Continuous
 62
               7
100
AcDbLine
 10
664.42281643560636
 20
-438.60475990797909
 30
0.0
 11
629.42281643131355
 21
-438.60475990797909
 31
0.0
  0
LINE
  5
193
100
AcDbEntity
  8
ADF70-1303
370
              15
390
0
  6
STYLE_12
 62
               7
100
AcDbLine
 10
456.92338511321941
 20
-608.60475990794271
 30
0.0
 11
411.92338511321941
 21
-608.60475990794271
 31
0.0
  0
LINE
  5
194
100
AcDbEntity
  8
ADF70-1303
370
              15
390
0
  6
STYLE_12
 62
               7
100
AcDbLine
 10
474.42338511321941
 20
-563.60475990795726
 30
0.0
 11
394.42338511321941
 21
-563.60475990795726
 31
0.0
  0
LINE
  5
195
100
AcDbEntity
  8
ADF70-1303
370
              15
390
0
  6
STYLE_12
 62
               7
100
AcDbLine
 10
456.92338511321941
 20
-575.60475990795726
 30
0.0
 11
411.92338511321941
 21
-575.60475990795726
 31
0.0
  0
LINE
  5
196
100
AcDbEntity
  8
ADF70-1303
370
              15
390
0
  6
Continuous
 62
               7
100
AcDbLine
 10
281.97338678166125
 20
-438.60475990797909
 30
0.0
 11
586.72461334568834
 21
-438.60475990797909
 31
0.0
  0
LINE
  5
197
100
AcDbEntity
  8
ADF70-1303
370
              15
390
0
  6
Continuous
 62
               7
100
AcDbLine
 10
337.20812609558925
 20
-618.60475990794271
 30
0.0
 11
705.92281643131355
 21
-618.60475990797909
 31
0.0
  0
LINE
  5
198
100
AcDbEntity
  8
ADF70-1303
370
              15
390
0
  6
STYLE_12
 62
               7
100
AcDbLine
 10
411.92338511321941
 20
-575.60475990795726
 30
0.0
 11
411.92338511321941
 21
-580.43689219355269
 31
0.0
  0
LINE
  5
199
100
AcDbEntity
  8
ADF70-1303
370
              15
390
0
  6
Continuous
 62
               7
100
AcDbLine
 10
629.42281643131355
 20
-438.60475990797909
 30
0.0
 11
586.72461334568834
 21
-438.60475990797909
 31
0.0
  0
ARC
  5
19A
100
AcDbEntity
  8
ADF70-1303
370
              15
390
0
  6
Continuous
 62
               7
100
AcDbCircle
 10
586.72461334568652
 20
-443.60475990798273
 30
0.0
 40
5.0000000000013642
100
AcDbArc
 50
90.0
 51
177.0710166696542
  0
LWPOLYLINE
  5
19B
100
AcDbEntity
  8
ADF70-1303
370
              15
390
0
  6
STYLE_12
 62
               7
100
AcDbPolyline
 90
        8
 70
             128
 10
286.97126109640521
 20
-443.45897810535439
 42
0.0355070067564307
 10
288.74432365617758
 20
-461.10475990795362
 42
0.0246997690847404
 10
292.67683085861063
 20
-482.56739195729438
 42
0.0091252597913677
 10
293.57575688251018
 20
-486.10475990800819
 42
0.0129232699679081
 10
295.06829059703887
 20
-491.05300856472218
 42
0.0720424990885584
 10
312.60758097900907
 20
-526.22084243398399
 42
0.1512039825287764
 10
349.85525383589629
 20
-555.38004206830715
 42
0.0910350092386533
 10
394.42338511327398
 20
-563.60475990795726
 42
0.0910350092386533
  0
ARC
  5
19C
100
AcDbEntity
  8
ADF70-1303
370
              15
390
0
  6
Continuous
 62
               7
100
AcDbCircle
 10
281.97338678165761
 20
-443.60475990797909
 30
0.0
 40
4.9999999999958167
100
AcDbArc
 50
1.6707731801115882
 51
89.99999999995832
  0
LINE
  5
19D
100
AcDbEntity
  8
ADF70-1303
370
              15
390
0
  6
Continuous
 62
               7
100
AcDbLine
 10
281.97338678166125
 20
-438.60475990798273
 30
0.0
 11
266.84916845185944
 21
-438.60475990797909
 31
0.0
  0
ARC
  5
19E
100
AcDbEntity
  8
ADF70-1303
370
              15
390
0
  6
Continuous
 62
               7
100
AcDbCircle
 10
266.84916845185944
 20
-443.60475990797909
 30
0.0
 40
4.9999999999995453
100
AcDbArc
 50
90.0
 51
178.75303687312001
  0
ARC
  5
19F
100
AcDbEntity
  8
ADF70-1303
370
              15
390
0
  6
Continuous
 62
               7
100
AcDbCircle
 10
492.91216134246133
 20
-448.52548415440447
 30
0.0
 40
231.11654137140317
100
AcDbArc
 50
178.7530368731201
 51
227.18882216607128
  0
ARC
  5
1A0
100
AcDbEntity
  8
ADF70-1303
370
              15
390
0
  6
Continuous
 62
               7
100
AcDbCircle
 10
337.20812609558925
 20
-616.60475990794271
 30
0.0
 40
2.0000000000000666
100
AcDbArc
 50
227.18882216618556
 51
270.00000000010419
  0
LINE
  5
1A1
100
AcDbEntity
  8
ADF70-1303
370
              15
390
0
  6
STYLE_12
 62
               7
100
AcDbLine
 10
411.92338511321941
 20
-608.60475990794271
 30
0.0
 11
411.92338511321941
 21
-575.60475990795726
 31
0.0
  0
LINE
  5
1A2
100
AcDbEntity
  8
ADF70-1303
370
              15
390
0
  6
STYLE_12
 62
               7
100
AcDbLine
 10
411.92338511321941
 20
-575.60475990795726
 30
0.0
 11
394.42338511321941
 21
-563.60475990795726
 31
0.0
  0
LINE
  5
1A3
100
AcDbEntity
  8
ADF70-1303
370
              15
390
0
  6
Continuous
 62
               7
100
AcDbLine
 10
664.42281643560636
 20
-449.60475990797909
 30
0.0
 11
664.42281643560636
 21
-438.60475990797909
 31
0.0
  0
LINE
  5
1A4
100
AcDbEntity
  8
ADF70-1303
370
              15
390
0
  6
Continuous
 62
               7
100
AcDbLine
 10
629.42281643131355
 20
-449.60475990797909
 30
0.0
 11
629.42281643131355
 21
-438.60475990797909
 31
0.0
  0
LINE
  5
1A5
100
AcDbEntity
  8
ADF70-1303
370
              15
390
0
  6
Continuous
 62
               7
100
AcDbLine
 10
-772.0405529140844
 20
-438.60475990797909
 30
0.0
 11
-81.786515228293865
 21
-438.60475990797909
 31
0.0
  0
LINE
  5
1A6
100
AcDbEntity
  8
ADF70-1303
370
              15
390
0
  6
STYLE_12
 62
               7
100
AcDbLine
 10
-449.28755656955036
 20
-608.60475990794293
 30
0.0
 11
-404.28755656955036
 21
-608.60475990794293
 31
0.0
  0
LINE
  5
1A7
100
AcDbEntity
  8
ADF70-1303
370
              15
390
0
  6
STYLE_12
 62
               7
100
AcDbLine
 10
-466.78755656955036
 20
-563.60475990795544
 30
0.0
 11
-386.78755656955036
 21
-563.60475990795544
 31
0.0
  0
LINE
  5
1A8
100
AcDbEntity
  8
ADF70-1303
370
              15
390
0
  6
STYLE_12
 62
               7
100
AcDbLine
 10
-449.28755656955036
 20
-575.60475990795544
 30
0.0
 11
-404.28755656955036
 21
-575.60475990795544
 31
0.0
  0
LWPOLYLINE
  5
1A9
100
AcDbEntity
  8
ADF70-1303
370
              15
390
0
  6
STYLE_12
 62
               7
100
AcDbPolyline
 90
        5
 70
             128
 10
-386.78755656955036
 20
-563.60475990795544
 10
-209.15023192942681
 20
-563.60475990795544
 42
0.0910350092384636
 10
-164.58210065212916
 20
-555.38004206831397
 42
0.1512039825288103
 10
-127.33442779524194
 20
-526.22084243400673
 42
0.072042499088807
 10
-109.79513741324627
 20
-491.05300856468398
 42
0.072042499088807
  0
LWPOLYLINE
  5
1AA
100
AcDbEntity
  8
ADF70-1303
370
              15
390
0
  6
STYLE_12
 62
               7
100
AcDbPolyline
 90
        5
 70
             128
 10
-109.79513741323899
 20
-491.0530085646717
 42
0.0129232699681526
 10
-108.30260369872485
 20
-486.10475990798864
 42
0.0091252597920919
 10
-107.4036776747962
 20
-482.56739195716705
 42
0.0246997690846302
 10
-103.47117047239954
 20
-461.10475990797727
 42
0.0355070067563222
 10
-101.69810791261989
 20
-443.45897810533256
 42
0.0355070067563222
  0
ARC
  5
1AB
100
AcDbEntity
  8
ADF70-1303
370
              15
390
0
  6
Continuous
 62
               7
100
AcDbCircle
 10
-96.70023359787956
 20
-443.60475990797408
 30
0.0
 40
4.9999999999949978
100
AcDbArc
 50
90.0
 51
178.32922681985855
  0
ARC
  5
1AC
100
AcDbEntity
  8
ADF70-1303
370
              15
390
0
  6
Continuous
 62
               7
100
AcDbCircle
 10
-81.786515228293865
 20
-443.60475990797954
 30
0.0
 40
5.0000000000023377
100
AcDbArc
 50
358.83061719437893
 51
90.0
  0
ARC
  5
1AD
100
AcDbEntity
  8
ADF70-1303
370
              15
390
0
  6
Continuous
 62
               7
100
AcDbCircle
 10
-326.73548950660916
 20
-438.60475990798045
 30
0.0
 40
249.99999999999687
100
AcDbArc
 50
314.13163624159813
 51
358.83061719438592
  0
ARC
  5
1AE
100
AcDbEntity
  8
ADF70-1303
370
              15
390
0
  6
Continuous
 62
               7
100
AcDbCircle
 10
-154.05080576189357
 20
-616.60475990794544
 30
0.0
 40
1.9999999999974989
100
AcDbArc
 50
270.0
 51
314.13163624167561
  0
LINE
  5
1AF
100
AcDbEntity
  8
ADF70-1303
370
              15
390
0
  6
STYLE_12
 62
               7
100
AcDbLine
 10
-404.58392530729179
 20
-575.60475990795544
 30
0.0
 11
-404.58392530729179
 21
-608.60475990794293
 31
0.0
  0
LINE
  5
1B0
100
AcDbEntity
  8
ADF70-1303
370
              15
390
0
  6
STYLE_12
 62
               7
100
AcDbLine
 10
-387.08392530729179
 20
-563.60475990795544
 30
0.0
 11
-404.58392530729179
 21
-575.60475990795544
 31
0.0
  0
LINE
  5
1B1
100
AcDbEntity
  8
ADF70-1303
370
              15
390
0
  6
STYLE_12
 62
               7
100
AcDbLine
 10
-404.58392530729179
 20
-575.60475990795544
 30
0.0
 11
-387.08392530729179
 21
-563.60475990795544
 31
0.0
  0
LWPOLYLINE
  5
1B2
100
AcDbEntity
  8
ADF70-1303
370
              15
390
0
  6
STYLE_12
 62
               7
100
AcDbPolyline
 90
        8
 70
             128
 10
-751.87700522648083
 20
-443.45897810533256
 42
0.0355070067564609
 10
-750.10394266670482
 20
-461.10475990798
 42
0.0246997690843914
 10
-746.17143546430452
 20
-482.56739195716705
 42
0.0091252597920919
 10
-745.27250944038315
 20
-486.10475990797727
 42
0.0129232699684851
 10
-743.77997572586173
 20
-491.0530085646717
 42
0.0720424990887837
 10
-726.24068534386242
 20
-526.22084243400354
 42
0.1512039825287063
 10
-688.99301248698248
 20
-555.38004206831079
 42
0.0910350092384216
 10
-644.42488120967755
 20
-563.60475990795544
 42
0.0910350092384216
  0
ARC
  5
1B3
100
AcDbEntity
  8
ADF70-1303
370
              15
390
0
  6
Continuous
 62
               7
100
AcDbCircle
 10
-756.8748795412248
 20
-443.60475990797408
 30
0.0
 40
4.9999999999958895
100
AcDbArc
 50
1.6707731801402368
 51
90.0
  0
ARC
  5
1B4
100
AcDbEntity
  8
ADF70-1303
370
              15
390
0
  6
Continuous
 62
               7
100
AcDbCircle
 10
-771.78859791081049
 20
-443.60475990797954
 30
0.0
 40
5.0000000000004547
100
AcDbArc
 50
90.0
 51
181.16938280562192
  0
ARC
  5
1B5
100
AcDbEntity
  8
ADF70-1303
370
              15
390
0
  6
Continuous
 62
               7
100
AcDbCircle
 10
-526.8396236324952
 20
-438.60475990798045
 30
0.0
 40
249.99999999999616
100
AcDbArc
 50
181.16938280561411
 51
225.86836375840196
  0
ARC
  5
1B6
100
AcDbEntity
  8
ADF70-1303
370
              15
390
0
  6
Continuous
 62
               7
100
AcDbCircle
 10
-699.52430737721079
 20
-616.60475990794544
 30
0.0
 40
1.9999999999971028
100
AcDbArc
 50
225.86836375832439
 51
270.0
  0
LINE
  5
1B7
100
AcDbEntity
  8
ADF70-1303
370
              15
390
0
  6
Continuous
 62
               7
100
AcDbLine
 10
-154.05080576189357
 20
-618.60475990794293
 30
0.0
 11
-699.52430737721079
 21
-618.60475990794293
 31
0.0
  0
LINE
  5
1B8
100
AcDbEntity
  8
ADF70-1303
370
              15
390
0
  6
STYLE_12
 62
               7
100
AcDbLine
 10
-449.58392530729179
 20
-575.60475990795544
 30
0.0
 11
-449.58392530729179
 21
-608.60475990794293
 31
0.0
  0
LINE
  5
1B9
100
AcDbEntity
  8
ADF70-1303
370
              15
390
0
  6
STYLE_12
 62
               7
100
AcDbLine
 10
-467.08392530729179
 20
-563.60475990795544
 30
0.0
 11
-449.58392530729179
 21
-575.60475990795544
 31
0.0
  0
LINE
  5
1BA
100
AcDbEntity
  8
ADF70-1303
370
              15
390
0
  6
STYLE_12
 62
               7
100
AcDbLine
 10
-467.08392530729179
 20
-563.60475990795544
 30
0.0
 11
-652.0405529140844
 21
-563.60475990795544
 31
0.0
  0
LINE
  5
1BB
100
AcDbEntity
  8
ADF70-1303
370
              15
390
0
  6
STYLE_12
 62
               7
100
AcDbLine
 10
-566.91353407118731
 20
-498.55775625251295
 30
0.0
 11
-566.91353407118731
 21
-458.55775625251295
 31
0.0
  0
ARC
  5
1BC
100
AcDbEntity
  8
ADF70-1303
370
              15
390
0
  6
Continuous
 62
               7
100
AcDbCircle
 10
-264.28755656955036
 20
552.1208325154364
 30
0.0
 40
149.99999999999977
100
AcDbArc
 50
270.93983069889543
 51
90.000000000001435
  0
ARC
  5
1BD
100
AcDbEntity
  8
ADF70-1303
370
              15
390
0
  6
Continuous
 62
               7
100
AcDbCircle
 10
-589.28755656955036
 20
552.1208325154364
 30
0.0
 40
150.0
100
AcDbArc
 50
90.0
 51
270.0
  0
LINE
  5
1BE
100
AcDbEntity
  8
ADF70-1303
370
              15
390
0
  6
Continuous
 62
               7
100
AcDbLine
 10
-589.28755656955036
 20
702.1208325154364
 30
0.0
 11
-264.28755656955036
 21
702.1208325154364
 31
0.0
  0
LINE
  5
1BF
100
AcDbEntity
  8
ADF70-1303
370
              15
390
0
  6
Continuous
 62
               7
100
AcDbLine
 10
-261.78618987761729
 20
402.14134810959081
 30
0.0
 11
-586.7861898776282
 21
402.14134810959081
 31
0.0
  0
CIRCLE
  5
1C0
100
AcDbEntity
  8
ADF70-1303
370
               5
390
0
  6
STYLE_12
 62
               7
100
AcDbCircle
 10
487.6541100971117
 20
549.64045601451221
 30
0.0
 40
23.0
  0
CIRCLE
  5
1C1
100
AcDbEntity
  8
ADF70-1303
370
               5
390
0
  6
STYLE_12
 62
               7
100
AcDbCircle
 10
587.65411009711352
 20
762.13988733260635
 30
0.0
 40
17.5
  0
CIRCLE
  5
1C2
100
AcDbEntity
  8
ADF70-1303
370
               5
390
0
  6
STYLE_12
 62
               7
100
AcDbCircle
 10
487.6541100971117
 20
762.13988733260635
 30
0.0
 40
17.5
  0
CIRCLE
  5
1C3
100
AcDbEntity
  8
ADF70-1303
370
               5
390
0
  6
STYLE_12
 62
               7
100
AcDbCircle
 10
387.6541100971117
 20
762.13988733260635
 30
0.0
 40
17.5
  0
LWPOLYLINE
  5
1C4
100
AcDbEntity
  8
ADF70-1303
370
               5
390
0
  6
STYLE_12
 62
               7
100
AcDbPolyline
 90
       14
 70
             129
 10
487.6541100971117
 20
827.13988733260635
 10
142.6541100971117
 20
827.13988733260726
 42
0.414269430869253
 10
137.6541100971117
 20
822.13893352559103
 10
137.6541100971117
 20
562.08933556077341
 10
137.6541100971117
 20
562.05406107665135
 42
0.4053176921290475
 10
317.0184688429872
 20
377.13992006073272
 10
317.01954270360875
 20
377.13988733260726
 10
487.6541100971117
 20
377.13988733260726
 10
658.28867749061646
 20
377.13988733260726
 10
658.28975135123255
 20
377.13992006073272
 42
0.4053176921290452
 10
837.65411009710988
 20
562.05406107664771
 10
837.65411009711352
 20
562.08933556077341
 10
837.65411009711352
 20
822.13893352559103
 42
0.4141576960839922
 10
832.65411009711352
 20
827.13988733260726
  0
LINE
  5
1C5
100
AcDbEntity
  8
ADF70-1303
370
               5
390
0
  6
Continuous
 62
               7
100
AcDbLine
 10
87.701844441235153
 20
827.13988733260726
 30
0.0
 11
887.70184444123697
 21
827.13988733260726
 31
0.0
  0
INSERT
  5
1C6
100
AcDbEntity
  8
ADF70-1303
390
0
 62
               7
100
AcDbBlockReference
  2
グループ-2
 10
16913.98307140659
 20
-1832.661596580336
 30
0.0
  0
POLYLINE
  5
1C7
100
AcDbEntity
  8
ADF70-1303
370
              15
390
0
  6
Continuous
 62
               7
100
AcDb2dPolyline
 66
               1
 10
0.0
 20
0.0
 30
0.0
 70
               1
 75
               5
  0
VERTEX
  5
1C8
100
AcDbEntity
  8
ADF70-1303
370
              15
390
0
  6
Continuous
 62
               7
100
AcDbVertex
100
AcDb2dVertex
 10
312.6541100971117
 20
827.13988733260726
 30
0.0
  0
VERTEX
  5
1C9
100
AcDbEntity
  8
ADF70-1303
370
              15
390
0
  6
Continuous
 62
               7
100
AcDbVertex
100
AcDb2dVertex
 10
662.6541100971117
 20
827.13988733260726
 30
0.0
  0
VERTEX
  5
1CA
100
AcDbEntity
  8
ADF70-1303
370
              15
390
0
  6
Continuous
 62
               7
100
AcDbVertex
100
AcDb2dVertex
 10
662.6541100971117
 20
497.13988733260726
 30
0.0
  0
VERTEX
  5
1CB
100
AcDbEntity
  8
ADF70-1303
370
              15
390
0
  6
Continuous
 62
               7
100
AcDbVertex
100
AcDb2dVertex
 10
312.6541100971117
 20
497.13988733260726
 30
0.0
  0
SEQEND
  5
1CC
100
AcDbEntity
  8
ADF70-1303
370
              15
390
0
  6
Continuous
 62
               7
  0
LINE
  5
1CD
100
AcDbEntity
  8
ADF70-1303
370
              15
390
0
  6
STYLE_12
 62
               7
100
AcDbLine
 10
-546.91353407118731
 20
-478.55775625251295
 30
0.0
 11
-586.91353407118731
 21
-478.55775625251295
 31
0.0
  0
CIRCLE
  5
1CE
100
AcDbEntity
  8
ADF70-1303
370
              15
390
0
  6
STYLE_12
 62
               7
100
AcDbCircle
 10
-566.91353407118731
 20
-478.55775625251295
 30
0.0
 40
10.0
  0
LINE
  5
1CF
100
AcDbEntity
  8
ADF70-1303
370
              15
390
0
  6
STYLE_12
 62
               7
100
AcDbLine
 10
-286.91353407118731
 20
-498.55775625251295
 30
0.0
 11
-286.91353407118731
 21
-458.55775625251295
 31
0.0
  0
LINE
  5
1D0
100
AcDbEntity
  8
ADF70-1303
370
              15
390
0
  6
STYLE_12
 62
               7
100
AcDbLine
 10
-266.91353407118731
 20
-478.55775625251295
 30
0.0
 11
-306.91353407118731
 21
-478.55775625251295
 31
0.0
  0
CIRCLE
  5
1D1
100
AcDbEntity
  8
ADF70-1303
370
              15
390
0
  6
STYLE_12
 62
               7
100
AcDbCircle
 10
-286.91353407118731
 20
-478.55775625251295
 30
0.0
 40
10.0
  0
ENDSEC
  0
SECTION
  2
OBJECTS
  0
DICTIONARY
  5
19
100
AcDbDictionary
280
               0
281
               1
  3
ACAD_GROUP
350
1A
  3
ACAD_MLINESTYLE
350
1B
  3
ACAD_LAYOUT
350
1E
  3
ACAD_PLOTSETTINGS
350
22
  3
ACAD_PLOTSTYLENAME
350
1F
  0
DICTIONARY
  5
1A
102
{ACAD_REACTORS
330
19
102
}
100
AcDbDictionary
280
               0
281
               1
  0
DICTIONARY
  5
1B
102
{ACAD_REACTORS
330
19
102
}
100
AcDbDictionary
280
               0
281
               1
  3
Standard
350
1C
  0
MLINESTYLE
  5
1C
102
{ACAD_REACTORS
330
1B
102
}
100
AcDbMlineStyle
  2
Standard
 70
               0
  3

 62
               0
 51
90.0
 52
90.0
 71
               2
 49
0.5
 62
             256
  6
ByLayer
 49
-0.5
 62
             256
  6
ByLayer
  0
ACDBDICTIONARYWDFLT
  5
1F
102
{ACAD_REACTORS
330
19
102
}
100
AcDbDictionary
281
               1
  3
Normal
350
1D
100
AcDbDictionaryWithDefault
340
1D
  0
ACDBPLACEHOLDER
  5
1D
102
{ACAD_REACTORS
330
1F
102
}
  0
LAYOUT
  5
20
102
{ACAD_REACTORS
330
1E
102
}
100
AcDbPlotSettings
  1

  2

  4

  6

 40
0.0
 41
0.0
 42
0.0
 43
0.0
 44
0.0
 45
0.0
 46
0.0
 47
0.0
 48
0.0
 49
0.0
140
0.0
141
0.0
142
1.0
143
1.0
 70
            1024
 72
               0
 73
               0
 74
               0
  7

 75
               0
147
1.0
148
0.0
149
0.0
100
AcDbLayout
  1
Model
 70
               0
 71
               0
 10
0.0
 20
0.0
 11
0.0
 21
0.0
 12
0.0
 22
0.0
 32
0.0
 14
0.0
 24
0.0
 34
0.0
 15
0.0
 25
0.0
 35
0.0
146
0.0
 13
0.0
 23
0.0
 33
0.0
 16
0.0
 26
0.0
 36
0.0
 17
0.0
 27
0.0
 37
0.0
 76
               0
330
A
331
0
345
0
346
0
  0
LAYOUT
  5
21
102
{ACAD_REACTORS
330
1E
102
}
100
AcDbPlotSettings
  1

  2

  4

  6

 40
0.0
 41
0.0
 42
0.0
 43
0.0
 44
0.0
 45
0.0
 46
0.0
 47
0.0
 48
0.0
 49
0.0
140
0.0
141
0.0
142
1.0
143
1.0
 70
               0
 72
               0
 73
               0
 74
               0
  7

 75
               0
147
1.0
148
0.0
149
0.0
100
AcDbLayout
  1
Layout1
 70
               0
 71
               0
 10
0.0
 20
0.0
 11
0.0
 21
0.0
 12
0.0
 22
0.0
 32
0.0
 14
0.0
 24
0.0
 34
0.0
 15
0.0
 25
0.0
 35
0.0
146
0.0
 13
0.0
 23
0.0
 33
0.0
 16
0.0
 26
0.0
 36
0.0
 17
0.0
 27
0.0
 37
0.0
 76
               0
330
B
331
0
345
0
346
0
  0
DICTIONARY
  5
1E
102
{ACAD_REACTORS
330
19
102
}
100
AcDbDictionary
280
               0
281
               1
  3
Layout1
350
21
  3
Model
350
20
  0
DICTIONARY
  5
22
102
{ACAD_REACTORS
330
19
102
}
100
AcDbDictionary
280
               0
281
               1
  0
ENDSEC
  0
EOF
