  0
SECTION
  2
HEADER
  9
$ACADVER
  1
AC1015
  9
$ACADMAINTVER
 70
               6
  9
$DWGCODEPAGE
  3
ANSI_932
  9
$INSBASE
 10
0.0
 20
0.0
 30
0.0
  9
$EXTMIN
 10
-975.00000000024193
 20
-1431.5255224711129
 30
-14.834305555555554
  9
$EXTMAX
 10
975.00000000024193
 20
1405.9972926412995
 30
14.834305555555554
  9
$LIMMIN
 10
0.0
 20
0.0
  9
$LIMMAX
 10
0.0
 20
0.0
  9
$ORTHOMODE
 70
               0
  9
$REGENMODE
 70
               1
  9
$FILLMODE
 70
               1
  9
$QTEXTMODE
 70
               0
  9
$MIRRTEXT
 70
               1
  9
$LTSCALE
 40
50.799999999999997
  9
$ATTMODE
 70
               1
  9
$TEXTSIZE
 40
0.2
  9
$TRACEWID
 40
1.0
  9
$TEXTSTYLE
  7
Standard
  9
$CLAYER
  8
ADF70-1307
  9
$CELTYPE
  6
Continuous
  9
$CECOLOR
 62
             256
  9
$CELTSCALE
 40
1.0
  9
$DISPSILH
 70
               0
  9
$DIMSCALE
 40
1.0
  9
$DIMASZ
 40
31.75
  9
$DIMEXO
 40
0.0
  9
$DIMDLI
 40
6.9999999999999396
  9
$DIMRND
 40
0.0
  9
$DIMDLE
 40
0.0
  9
$DIMEXE
 40
19.999999999996199
  9
$DIMTP
 40
0.0
  9
$DIMTM
 40
0.0
  9
$DIMTXT
 40
24.432617187500004
  9
$DIMCEN
 40
0.0
  9
$DIMTSZ
 40
0.0
  9
$DIMTOL
 70
               0
  9
$DIMLIM
 70
               0
  9
$DIMTIH
 70
               0
  9
$DIMTOH
 70
               0
  9
$DIMSE1
 70
               0
  9
$DIMSE2
 70
               0
  9
$DIMTAD
 70
               1
  9
$DIMZIN
 70
              11
  9
$DIMBLK
  1
VW_FILLEDARROW
  9
$DIMASO
 70
               1
  9
$DIMSHO
 70
               1
  9
$DIMPOST
  1
<>
  9
$DIMAPOST
  1
[]
  9
$DIMALT
 70
               0
  9
$DIMALTD
 70
               1
  9
$DIMALTF
 40
1.0
  9
$DIMLFAC
 40
1.0
  9
$DIMTOFL
 70
               0
  9
$DIMTVP
 40
0.0
  9
$DIMTIX
 70
               1
  9
$DIMSOXD
 70
               0
  9
$DIMSAH
 70
               0
  9
$DIMBLK1
  1

  9
$DIMBLK2
  1

  9
$DIMSTYLE
  2
JIS
  9
$DIMCLRD
 70
               0
  9
$DIMCLRE
 70
               0
  9
$DIMCLRT
 70
               0
  9
$DIMTFAC
 40
1.0
  9
$DIMGAP
 40
1.00000000000108
  9
$DIMJUST
 70
               0
  9
$DIMSD1
 70
               0
  9
$DIMSD2
 70
               0
  9
$DIMTOLJ
 70
               1
  9
$DIMTZIN
 70
              11
  9
$DIMALTZ
 70
              11
  9
$DIMALTTZ
 70
              11
  9
$DIMUPT
 70
               0
  9
$DIMDEC
 70
               1
  9
$DIMTDEC
 70
               1
  9
$DIMALTU
 70
               2
  9
$DIMALTTD
 70
               2
  9
$DIMTXSTY
  7
ＭＳゴシック
  9
$DIMAUNIT
 70
               0
  9
$DIMADEC
 70
               2
  9
$DIMALTRND
 40
0.0
  9
$DIMAZIN
 70
               0
  9
$DIMDSEP
 70
              46
  9
$DIMATFIT
 70
               0
  9
$DIMFRAC
 70
               2
  9
$DIMLDRBLK
  1

  9
$DIMLUNIT
 70
               2
  9
$DIMLWD
 70
              -2
  9
$DIMLWE
 70
              -2
  9
$DIMTMOVE
 70
               0
  9
$LUNITS
 70
               2
  9
$LUPREC
 70
               4
  9
$SKETCHINC
 40
0.1
  9
$FILLETRAD
 40
0.0
  9
$AUNITS
 70
               0
  9
$AUPREC
 70
               0
  9
$MENU
  1
acad
  9
$ELEVATION
 40
0.0
  9
$PELEVATION
 40
0.0
  9
$THICKNESS
 40
0.0
  9
$LIMCHECK
 70
               0
  9
$CHAMFERA
 40
0.0
  9
$CHAMFERB
 40
0.0
  9
$CHAMFERC
 40
0.0
  9
$CHAMFERD
 40
0.0
  9
$SKPOLY
 70
               0
  9
$TDCREATE
 40
2455988.486817129
  9
$TDUCREATE
 40
0.000000000
  9
$TDUPDATE
 40
2455988.486817129
  9
$TDUUPDATE
 40
0.000000000
  9
$TDINDWG
 40
0.0000000000
  9
$TDUSRTIMER
 40
0.0000000000
  9
$USRTIMER
 70
               1
  9
$ANGBASE
 50
0.0
  9
$ANGDIR
 70
               0
  9
$PDMODE
 70
               1
  9
$PDSIZE
 40
-2.0
  9
$PLINEWID
 40
0.0
  9
$SPLFRAME
 70
               0
  9
$SPLINETYPE
 70
               6
  9
$SPLINESEGS
 70
               8
  9
$HANDSEED
  5
1C4
  9
$SURFTAB1
 70
               6
  9
$SURFTAB2
 70
               6
  9
$SURFTYPE
 70
               6
  9
$SURFU
 70
               6
  9
$SURFV
 70
               6
  9
$UCSBASE
  2

  9
$UCSNAME
  2

  9
$UCSORG
 10
0.0
 20
0.0
 30
0.0
  9
$UCSXDIR
 10
1.0
 20
0.0
 30
0.0
  9
$UCSYDIR
 10
0.0
 20
1.0
 30
0.0
  9
$UCSORTHOREF
  2

  9
$UCSORTHOVIEW
 70
               0
  9
$UCSORGTOP
 10
0.0
 20
0.0
 30
0.0
  9
$UCSORGBOTTOM
 10
0.0
 20
0.0
 30
0.0
  9
$UCSORGLEFT
 10
0.0
 20
0.0
 30
0.0
  9
$UCSORGRIGHT
 10
0.0
 20
0.0
 30
0.0
  9
$UCSORGFRONT
 10
0.0
 20
0.0
 30
0.0
  9
$UCSORGBACK
 10
0.0
 20
0.0
 30
0.0
  9
$PUCSBASE
  2

  9
$PUCSNAME
  2

  9
$PUCSORG
 10
0.0
 20
0.0
 30
0.0
  9
$PUCSXDIR
 10
1.0
 20
0.0
 30
0.0
  9
$PUCSYDIR
 10
0.0
 20
1.0
 30
0.0
  9
$PUCSORTHOREF
  2

  9
$PUCSORTHOVIEW
 70
               0
  9
$PUCSORGTOP
 10
0.0
 20
0.0
 30
0.0
  9
$PUCSORGBOTTOM
 10
0.0
 20
0.0
 30
0.0
  9
$PUCSORGLEFT
 10
0.0
 20
0.0
 30
0.0
  9
$PUCSORGRIGHT
 10
0.0
 20
0.0
 30
0.0
  9
$PUCSORGFRONT
 10
0.0
 20
0.0
 30
0.0
  9
$PUCSORGBACK
 10
0.0
 20
0.0
 30
0.0
  9
$USERI1
 70
               0
  9
$USERI2
 70
               0
  9
$USERI3
 70
               0
  9
$USERI4
 70
               0
  9
$USERI5
 70
               0
  9
$USERR1
 40
0.0
  9
$USERR2
 40
0.0
  9
$USERR3
 40
0.0
  9
$USERR4
 40
0.0
  9
$USERR5
 40
0.0
  9
$WORLDVIEW
 70
               1
  9
$SHADEDGE
 70
               3
  9
$SHADEDIF
 70
              70
  9
$TILEMODE
 70
               1
  9
$MAXACTVP
 70
              64
  9
$PINSBASE
 10
0.0
 20
0.0
 30
0.0
  9
$PLIMCHECK
 70
               0
  9
$PEXTMIN
 10
1.0000000000000000E+20
 20
1.0000000000000000E+20
 30
1.0000000000000000E+20
  9
$PEXTMAX
 10
-1.0000000000000000E+20
 20
-1.0000000000000000E+20
 30
-1.0000000000000000E+20
  9
$PLIMMIN
 10
0.0
 20
0.0
  9
$PLIMMAX
 10
12.0
 20
9.0
  9
$UNITMODE
 70
               0
  9
$VISRETAIN
 70
               0
  9
$PLINEGEN
 70
               1
  9
$PSLTSCALE
 70
               0
  9
$TREEDEPTH
 70
            3020
  9
$CMLSTYLE
  2
Standard
  9
$CMLJUST
 70
               0
  9
$CMLSCALE
 40
1.0
  9
$PROXYGRAPHICS
 70
               0
  9
$MEASUREMENT
 70
               1
  9
$CELWEIGHT
370
               0
  9
$ENDCAPS
280
               0
  9
$JOINSTYLE
280
               0
  9
$LWDISPLAY
290
               1
  9
$INSUNITS
 70
               4
  9
$HYPERLINKBASE
  1

  9
$STYLESHEET
  1

  9
$XEDIT
290
               1
  9
$CEPSNTYPE
380
               0
  9
$PSTYLEMODE
290
               1
  9
$FINGERPRINTGUID
  2

  9
$VERSIONGUID
  2

  9
$EXTNAMES
290
               1
  9
$PSVPSCALE
 40
0.0
  0
ENDSEC
  0
SECTION
  2
CLASSES
  0
CLASS
  1
LWPOLYLINE
  2
AcDbPolyline
  3
AutoCAD 2000
 90
        0
280
               0
281
               1
  0
CLASS
  1
IMAGE
  2
AcDbRasterImage
  3
ISM
 90
      127
280
               0
281
               1
  0
CLASS
  1
OLE2FRAME
  2
AcDbOle2Frame
  3
AutoCAD 2000
 90
        0
280
               0
281
               1
  0
CLASS
  1
HATCH
  2
AcDbHatch
  3
AutoCAD 2000
 90
        0
280
               0
281
               1
  0
CLASS
  1
DICTIONARYVAR
  2
AcDbDictionaryVar
  3
AutoCAD 2000
 90
        0
280
               0
281
               0
  0
CLASS
  1
RASTERVARIABLES
  2
AcDbRasterVariables
  3
ISM
 90
        0
280
               0
281
               0
  0
CLASS
  1
IMAGEDEF
  2
AcDbRasterImageDef
  3
ISM
 90
        0
280
               0
281
               0
  0
CLASS
  1
IMAGEDEF_REACTOR
  2
AcDbRasterImageDefReactor
  3
ISM
 90
        1
280
               0
281
               0
  0
CLASS
  1
IDBUFFER
  2
AcDbIdBuffer
  3
AutoCAD 2000
 90
        0
280
               0
281
               0
  0
CLASS
  1
SPATIAL_FILTER
  2
AcDbSpatialFilter
  3
AutoCAD 2000
 90
        0
280
               0
281
               0
  0
CLASS
  1
XRECORD
  2
AcDbXrecord
  3
AutoCAD 2000
 90
        0
280
               0
281
               0
  0
CLASS
  1
SORTENTSTABLE
  2
AcDbSortentsTable
  3
AutoCAD 2000
 90
        0
280
               0
281
               0
  0
CLASS
  1
LAYER_INDEX
  2
AcDbLayerIndex
  3
AutoCAD 2000
 90
        0
280
               0
281
               0
  0
CLASS
  1
SPATIAL_INDEX
  2
AcDbSpatialIndex
  3
AutoCAD 2000
 90
        0
280
               0
281
               0
  0
CLASS
  1
OBJECT_PTR
  2
CAseDLPNTableRecord
  3
"ASE-LPNTableRecord"
 90
        1
280
               0
281
               0
  0
CLASS
  1
LAYOUT
  2
AcDbLayout
  3
AutoCAD 2000
 90
        0
280
               0
281
               0
  0
CLASS
  1
PLOTSETTINGS
  2
AcDbPlotSettings
  3
AutoCAD 2000
 90
        0
280
               0
281
               0
  0
CLASS
  1
ACDBDICTIONARYWDFLT
  2
AcDbDictionaryWithDefault
  3
AutoCAD 2000
 90
        0
280
               0
281
               0
  0
CLASS
  1
ACDBPLACEHOLDER
  2
AcDbPlaceHolder
  3
AutoCAD 2000
 90
        0
280
               0
281
               0
  0
ENDSEC
  0
SECTION
  2
TABLES
  0
TABLE
  2
VPORT
  5
7
100
AcDbSymbolTable
 70
               1
  0
VPORT
  5
15
100
AcDbSymbolTableRecord
100
AcDbViewportTableRecord
  2
*ACTIVE
 70
               0
 10
0.0
 20
0.0
 11
1.0
 21
1.0
 12
0.0
 22
-12.764114914906713
 13
0.0
 23
0.0
 14
1.0
 24
1.0
 15
0.0
 25
0.0
 16
0.0
 26
0.0
 36
1.0
 17
0.0
 27
0.0
 37
0.0
 40
2837.5228151124124
 41
0.688564
 42
50.0
 43
0.0
 44
0.0
 50
0.0
 51
0.0
 71
               0
 72
            2000
 73
               1
 74
               1
 75
               0
 76
               0
 77
               0
 78
               0
281
               0
 65
               0
110
0.0
120
0.0
130
0.0
111
1.0
121
0.0
131
0.0
112
0.0
122
1.0
132
0.0
345
0
346
0
 79
               0
146
0.0
  0
ENDTAB
  0
TABLE
  2
LTYPE
  5
4
100
AcDbSymbolTable
 70
              16
  0
LTYPE
  5
11
100
AcDbSymbolTableRecord
100
AcDbLinetypeTableRecord
  2
ByBlock
 70
              64
  3

 72
              65
 73
               0
 40
0.0
  0
LTYPE
  5
12
100
AcDbSymbolTableRecord
100
AcDbLinetypeTableRecord
  2
ByLayer
 70
              64
  3

 72
              65
 73
               0
 40
0.0
  0
LTYPE
  5
13
100
AcDbSymbolTableRecord
100
AcDbLinetypeTableRecord
  2
Continuous
 70
              64
  3
Solid line
 72
              65
 73
               0
 40
0.0
  0
LTYPE
  5
36
100
AcDbSymbolTableRecord
100
AcDbLinetypeTableRecord
  2
STYLE_01
 70
               0
  3

 72
              65
 73
               2
 40
0.3749999943680651
 49
0.2499999962453767
 74
               0
 49
-0.1249999981226884
 74
               0
  0
LTYPE
  5
37
100
AcDbSymbolTableRecord
100
AcDbLinetypeTableRecord
  2
STYLE_02
 70
               0
  3

 72
              65
 73
               2
 40
0.0840226965902463
 49
0.0560151774193629
 74
               0
 49
-0.0280075191708834
 74
               0
  0
LTYPE
  5
38
100
AcDbSymbolTableRecord
100
AcDbLinetypeTableRecord
  2
STYLE_03
 70
               0
  3

 72
              65
 73
               2
 40
0.0840226965902463
 49
0.0560151774193629
 74
               0
 49
-0.0280075191708834
 74
               0
  0
LTYPE
  5
39
100
AcDbSymbolTableRecord
100
AcDbLinetypeTableRecord
  2
STYLE_04
 70
               0
  3

 72
              65
 73
               2
 40
0.0840226965902463
 49
0.0560151774193629
 74
               0
 49
-0.0280075191708834
 74
               0
  0
LTYPE
  5
3A
100
AcDbSymbolTableRecord
100
AcDbLinetypeTableRecord
  2
STYLE_05
 70
               0
  3

 72
              65
 73
               2
 40
0.20828
 49
0.069425
 74
               0
 49
-0.138855
 74
               0
  0
LTYPE
  5
3B
100
AcDbSymbolTableRecord
100
AcDbLinetypeTableRecord
  2
STYLE_06
 70
               0
  3

 72
              65
 73
               4
 40
1.0416400000000001
 49
0.625
 74
               0
 49
-0.20828
 74
               0
 49
0.06943
 74
               0
 49
-0.13893
 74
               0
  0
LTYPE
  5
3C
100
AcDbSymbolTableRecord
100
AcDbLinetypeTableRecord
  2
STYLE_07
 70
               0
  3

 72
              65
 73
               6
 40
1.875
 49
0.625
 74
               0
 49
-0.20828
 74
               0
 49
0.6250000000000001
 74
               0
 49
-0.2083599999999999
 74
               0
 49
0.06943
 74
               0
 49
-0.1389299999999999
 74
               0
  0
LTYPE
  5
3D
100
AcDbSymbolTableRecord
100
AcDbLinetypeTableRecord
  2
STYLE_08
 70
               0
  3

 72
              65
 73
               6
 40
1.25
 49
0.625
 74
               0
 49
-0.20828
 74
               0
 49
0.06943
 74
               0
 49
-0.13893
 74
               0
 49
0.0694299999999999
 74
               0
 49
-0.13893
 74
               0
  0
LTYPE
  5
3E
100
AcDbSymbolTableRecord
100
AcDbLinetypeTableRecord
  2
STYLE_09
 70
               0
  3

 72
              65
 73
               4
 40
5.0
 49
3.75
 74
               0
 49
-0.2777849999999998
 74
               0
 49
0.6944300000000003
 74
               0
 49
-0.2777849999999998
 74
               0
  0
LTYPE
  5
3F
100
AcDbSymbolTableRecord
100
AcDbLinetypeTableRecord
  2
STYLE_10
 70
               0
  3

 72
              65
 73
               6
 40
5.9375
 49
3.75
 74
               0
 49
-0.2777849999999998
 74
               0
 49
0.6944300000000003
 74
               0
 49
-0.2777849999999998
 74
               0
 49
0.625
 74
               0
 49
-0.3125
 74
               0
  0
LTYPE
  5
40
100
AcDbSymbolTableRecord
100
AcDbLinetypeTableRecord
  2
STYLE_11
 70
               0
  3

 72
              65
 73
               2
 40
0.0694444881889764
 49
0.0347222440944882
 74
               0
 49
-0.0347222440944882
 74
               0
  0
LTYPE
  5
41
100
AcDbSymbolTableRecord
100
AcDbLinetypeTableRecord
  2
STYLE_12
 70
               0
  3

 72
              65
 73
               2
 40
0.3937007874015748
 49
0.1968503937007874
 74
               0
 49
-0.1968503937007874
 74
               0
  0
LTYPE
  5
42
100
AcDbSymbolTableRecord
100
AcDbLinetypeTableRecord
  2
STYLE_13
 70
               0
  3

 72
              65
 73
               2
 40
9.375
 49
6.25
 74
               0
 49
-3.125
 74
               0
  0
ENDTAB
  0
TABLE
  2
LAYER
  5
2
100
AcDbSymbolTable
 70
               5
  0
LAYER
  5
14
100
AcDbSymbolTableRecord
100
AcDbLayerTableRecord
  2
0
 70
               0
 62
               7
  6
Continuous
290
               1
370
              -3
390
1D
  0
LAYER
  5
43
100
AcDbSymbolTableRecord
100
AcDbLayerTableRecord
  2
Defpoints
 70
               0
 62
               7
  6
Continuous
290
               0
370
              -3
390
1D
  0
LAYER
  5
44
100
AcDbSymbolTableRecord
100
AcDbLayerTableRecord
  2
template
 70
               0
 62
               7
  6
Continuous
290
               1
370
              -3
390
1D
  0
LAYER
  5
45
100
AcDbSymbolTableRecord
100
AcDbLayerTableRecord
  2
notes
 70
               0
 62
               7
  6
Continuous
290
               1
370
              -3
390
1D
  0
LAYER
  5
46
100
AcDbSymbolTableRecord
100
AcDbLayerTableRecord
  2
ADF70-1307
 70
               0
 62
               7
  6
Continuous
290
               1
370
              -3
390
1D
  0
ENDTAB
  0
TABLE
  2
STYLE
  5
3
100
AcDbSymbolTable
 70
               3
  0
STYLE
  5
17
100
AcDbSymbolTableRecord
100
AcDbTextStyleTableRecord
  2
Standard
 70
               0
 40
0.0
 41
1.0
 50
0.0
 71
               0
 42
0.0
  3
txt
  4
BIGFONT.SHX
  0
STYLE
  5
34
100
AcDbSymbolTableRecord
100
AcDbTextStyleTableRecord
  2
ＭＳ ゴシック
 70
               0
 40
0.0
 41
1.0
 50
0.0
 71
               0
 42
0.0
  3

  4
ＭＳ ゴシック
1001
ACAD
1000
ＭＳ ゴシック
1071
        0
  0
STYLE
  5
35
100
AcDbSymbolTableRecord
100
AcDbTextStyleTableRecord
  2
ＭＳゴシック
 70
               0
 40
0.0
 41
1.0
 50
0.0
 71
               0
 42
0.0
  3

  4
ＭＳゴシック
1001
ACAD
1000
ＭＳゴシック
1071
        0
  0
ENDTAB
  0
TABLE
  2
VIEW
  5
5
100
AcDbSymbolTable
 70
               0
  0
ENDTAB
  0
TABLE
  2
UCS
  5
6
100
AcDbSymbolTable
 70
               0
  0
ENDTAB
  0
TABLE
  2
APPID
  5
8
100
AcDbSymbolTable
 70
               1
  0
APPID
  5
16
100
AcDbSymbolTableRecord
100
AcDbRegAppTableRecord
  2
ACAD
 70
               0
  0
ENDTAB
  0
TABLE
  2
DIMSTYLE
  5
9
100
AcDbSymbolTable
 70
               3
100
AcDbDimStyleTable
 71
               0
  0
DIMSTYLE
105
18
100
AcDbSymbolTableRecord
100
AcDbDimStyleTableRecord
  2
Standard
 70
               0
  3

  4

 40
1.0
 41
0.18
 42
0.0625
 43
0.38
 44
0.18
 45
0.0
 46
0.0
 47
0.0
 48
0.0
 71
               0
 72
               0
 73
               1
 74
               1
 75
               0
 76
               0
 77
               0
 78
               0
 79
               0
140
0.18
141
0.09
142
0.0
143
25.399999999999999
144
1.0
145
0.0
146
1.0
147
0.09
148
0.0
170
               0
171
               2
172
               0
173
               0
174
               0
175
               0
176
               0
177
               0
178
               0
179
               0
271
               4
272
               4
273
               2
274
               2
275
               0
276
               0
277
               2
278
              46
279
               0
280
               0
281
               0
282
               0
283
               1
284
               0
285
               0
286
               0
288
               0
289
               3
340
17
341
0
342
0
343
0
344
0
371
              -2
372
              -2
  0
DIMSTYLE
105
4F
100
AcDbSymbolTableRecord
100
AcDbDimStyleTableRecord
  2
tform線あり
 70
               0
  3
<>
  4
[]
 40
1.0
 41
3.999755859375
 42
24.999999999999996
 43
0.9999999999999999
 44
0.0
 45
0.0
 46
0.0
 47
0.0
 48
0.0
 71
               0
 72
               0
 73
               0
 74
               0
 75
               0
 76
               0
 77
               1
 78
              11
 79
               0
140
24.432617187500004
141
0.0
142
0.0
143
1.0
144
1.0
145
0.0
146
1.0
147
0.4999999999999999
148
0.0
170
               0
171
               1
172
               0
173
               0
174
               1
175
               0
176
               0
177
               0
178
               0
179
               2
271
               1
272
               1
273
               2
274
               2
275
               0
276
               2
277
               2
278
              46
279
               0
280
               0
281
               0
282
               0
283
               1
284
              11
285
              11
286
              11
288
               0
289
               0
340
35
341
47
342
47
343
0
344
0
371
              -2
372
              -2
  0
DIMSTYLE
105
54
100
AcDbSymbolTableRecord
100
AcDbDimStyleTableRecord
  2
JIS
 70
               0
  3
<>
  4
[]
 40
1.0
 41
31.75
 42
0.0
 43
6.9999999999999396
 44
19.999999999996199
 45
0.0
 46
0.0
 47
0.0
 48
0.0
 71
               0
 72
               0
 73
               0
 74
               0
 75
               0
 76
               0
 77
               1
 78
              11
 79
               0
140
24.432617187500004
141
0.0
142
0.0
143
1.0
144
1.0
145
0.0
146
1.0
147
1.00000000000108
148
0.0
170
               0
171
               1
172
               0
173
               0
174
               1
175
               0
176
               0
177
               0
178
               0
179
               2
271
               1
272
               1
273
               2
274
               2
275
               0
276
               2
277
               2
278
              46
279
               0
280
               0
281
               0
282
               0
283
               1
284
              11
285
              11
286
              11
288
               0
289
               0
340
35
341
50
342
50
343
0
344
0
371
              -2
372
              -2
  0
ENDTAB
  0
TABLE
  2
BLOCK_RECORD
  5
1
100
AcDbSymbolTable
 70
              19
  0
BLOCK_RECORD
  5
A
100
AcDbSymbolTableRecord
100
AcDbBlockTableRecord
  2
*MODEL_SPACE
340
20
  0
BLOCK_RECORD
  5
B
100
AcDbSymbolTableRecord
100
AcDbBlockTableRecord
  2
*PAPER_SPACE
340
21
  0
BLOCK_RECORD
  5
47
100
AcDbSymbolTableRecord
100
AcDbBlockTableRecord
  2
_DOT
340
0
  0
BLOCK_RECORD
  5
50
100
AcDbSymbolTableRecord
100
AcDbBlockTableRecord
  2
VW_FILLEDARROW
340
0
  0
BLOCK_RECORD
  5
23
100
AcDbSymbolTableRecord
100
AcDbBlockTableRecord
  2
グループ
340
0
102
{BLKREFS
331
138
102
}
  0
BLOCK_RECORD
  5
24
100
AcDbSymbolTableRecord
100
AcDbBlockTableRecord
  2
*D3
340
0
  0
BLOCK_RECORD
  5
25
100
AcDbSymbolTableRecord
100
AcDbBlockTableRecord
  2
*D4
340
0
  0
BLOCK_RECORD
  5
26
100
AcDbSymbolTableRecord
100
AcDbBlockTableRecord
  2
*D5
340
0
  0
BLOCK_RECORD
  5
27
100
AcDbSymbolTableRecord
100
AcDbBlockTableRecord
  2
*D6
340
0
  0
BLOCK_RECORD
  5
28
100
AcDbSymbolTableRecord
100
AcDbBlockTableRecord
  2
*D7
340
0
  0
BLOCK_RECORD
  5
29
100
AcDbSymbolTableRecord
100
AcDbBlockTableRecord
  2
*D8
340
0
  0
BLOCK_RECORD
  5
2A
100
AcDbSymbolTableRecord
100
AcDbBlockTableRecord
  2
*D9
340
0
  0
BLOCK_RECORD
  5
2B
100
AcDbSymbolTableRecord
100
AcDbBlockTableRecord
  2
*D10
340
0
  0
BLOCK_RECORD
  5
2C
100
AcDbSymbolTableRecord
100
AcDbBlockTableRecord
  2
*D11
340
0
  0
BLOCK_RECORD
  5
2D
100
AcDbSymbolTableRecord
100
AcDbBlockTableRecord
  2
*D12
340
0
  0
BLOCK_RECORD
  5
2E
100
AcDbSymbolTableRecord
100
AcDbBlockTableRecord
  2
*D13
340
0
  0
BLOCK_RECORD
  5
2F
100
AcDbSymbolTableRecord
100
AcDbBlockTableRecord
  2
*D14
340
0
  0
BLOCK_RECORD
  5
30
100
AcDbSymbolTableRecord
100
AcDbBlockTableRecord
  2
*D15
340
0
  0
BLOCK_RECORD
  5
31
100
AcDbSymbolTableRecord
100
AcDbBlockTableRecord
  2
*D16
340
0
  0
BLOCK_RECORD
  5
32
100
AcDbSymbolTableRecord
100
AcDbBlockTableRecord
  2
*D17
340
0
  0
BLOCK_RECORD
  5
33
100
AcDbSymbolTableRecord
100
AcDbBlockTableRecord
  2
*D18
340
0
  0
ENDTAB
  0
ENDSEC
  0
SECTION
  2
BLOCKS
  0
BLOCK
  5
D
100
AcDbEntity
  8
0
390
0
100
AcDbBlockBegin
  2
*MODEL_SPACE
 70
               0
 10
0.0
 20
0.0
 30
0.0
  3
*MODEL_SPACE
  1

  0
ENDBLK
  5
E
100
AcDbEntity
  8
0
390
0
100
AcDbBlockEnd
  0
BLOCK
  5
F
100
AcDbEntity
 67
               1
  8
0
390
0
100
AcDbBlockBegin
  2
*PAPER_SPACE
 70
               0
 10
0.0
 20
0.0
 30
0.0
  3
*PAPER_SPACE
  1

  0
ENDBLK
  5
10
100
AcDbEntity
 67
               1
  8
0
390
0
100
AcDbBlockEnd
  0
BLOCK
  5
48
100
AcDbEntity
  8
0
390
0
100
AcDbBlockBegin
  2
_DOT
 70
               0
 10
0.0
 20
0.0
 30
0.0
  3
_DOT
  1

  0
POLYLINE
  5
49
100
AcDbEntity
  8
0
370
              -2
390
0
  6
ByBlock
 62
               0
100
AcDb2dPolyline
 66
               1
 10
0.0
 20
0.0
 30
0.0
 70
               1
 40
0.5
 41
0.5
  0
VERTEX
  5
4A
100
AcDbEntity
  8
0
370
              -2
390
0
  6
ByBlock
 62
               0
100
AcDbVertex
100
AcDb2dVertex
 10
-0.25
 20
0.0
 30
0.0
 42
1.0
  0
VERTEX
  5
4B
100
AcDbEntity
  8
0
370
              -2
390
0
  6
ByBlock
 62
               0
100
AcDbVertex
100
AcDb2dVertex
 10
0.25
 20
0.0
 30
0.0
 42
1.0
  0
SEQEND
  5
4C
100
AcDbEntity
  8
0
390
0
  0
LINE
  5
4D
100
AcDbEntity
  8
0
370
              -2
390
0
  6
ByBlock
 62
               0
100
AcDbLine
 10
-0.5
 20
0.0
 30
0.0
 11
-1.0
 21
0.0
 31
0.0
  0
ENDBLK
  5
4E
100
AcDbEntity
  8
0
390
0
100
AcDbBlockEnd
  0
BLOCK
  5
51
100
AcDbEntity
  8
0
370
              -2
390
0
  6
ByBlock
 62
               0
100
AcDbBlockBegin
  2
VW_FILLEDARROW
 70
               0
 10
0.0
 20
0.0
 30
0.0
  3
VW_FILLEDARROW
  1

  0
SOLID
  5
52
100
AcDbEntity
  8
0
370
              -2
390
0
 62
               0
100
AcDbTrace
 10
0.0
 20
0.0
 30
0.0
 11
-0.9921874999999999
 21
-0.2658558393652545
 31
0.0
 12
-0.9921874999999999
 22
0.2658558393652548
 32
0.0
 13
-0.9921874999999999
 23
0.2658558393652548
 33
0.0
  0
ENDBLK
  5
53
100
AcDbEntity
  8
0
390
0
100
AcDbBlockEnd
  0
BLOCK
  5
55
100
AcDbEntity
  8
template
390
0
100
AcDbBlockBegin
  2
グループ
 70
               0
 10
0.0
 20
0.0
 30
0.0
  3
グループ
  1

  0
LWPOLYLINE
  5
56
100
AcDbEntity
  8
0
370
              15
390
0
  6
Continuous
 62
               7
100
AcDbPolyline
 90
        8
 70
             129
 10
-14006.196946520135
 20
-1597.9132296484067
 10
-14006.196946520135
 20
-1603.9106183419826
 10
-14015.698143438138
 20
-1603.9106183419826
 10
-14015.698143438138
 20
-1628.3615816054914
 10
-14024.053520699921
 20
-1628.3615816054914
 10
-14024.053520699921
 20
-1603.9106183419826
 10
-14033.386477646231
 20
-1603.9106183419826
 10
-14033.386477646231
 20
-1597.9132296484067
  0
LWPOLYLINE
  5
57
100
AcDbEntity
  8
0
370
              15
390
0
  6
Continuous
 62
               7
100
AcDbPolyline
 90
      101
 70
             128
 10
-13993.468654689577
 20
-1598.6414781413432
 10
-13993.453304660794
 20
-1598.6371173846587
 42
-0.0222221607839578
 10
-13993.163300084121
 20
-1598.5684929194135
 10
-13993.147506320134
 20
-1598.5654894963179
 42
-0.0146883565624504
 10
-13992.884803614903
 20
-1598.5234863093672
 42
-0.0127458844225071
 10
-13992.620164647748
 20
-1598.4959493412944
 10
-13992.557709569439
 20
-1598.4910559187065
 42
-0.0198099018567409
 10
-13992.16686045996
 20
-1598.4759707613098
 10
-13992.115048990518
 20
-1598.4760245369748
 42
-0.0147617382770892
 10
-13991.620425529551
 20
-1598.4911445622195
 10
-13991.547734074673
 20
-1598.4955171691074
 42
-0.0162624548997835
 10
-13991.157580445204
 20
-1598.5317500443798
 10
-13991.036048053933
 20
-1598.547036603378
 42
-0.0080020874627591
 10
-13990.890469022852
 20
-1598.5677194506447
 10
-13990.852149552276
 20
-1598.5737907284529
 42
-0.0053821929729403
 10
-13990.783665446943
 20
-1598.5853982522774
 10
-13991.510071146142
 20
-1600.7663267079913
 42
0.010866775737521
 10
-13991.577388216305
 20
-1600.7531395927658
 10
-13991.614856239463
 20
-1600.746641850177
 42
0.0170663203294193
 10
-13991.758073026371
 20
-1600.7268122528858
 10
-13991.825948359061
 20
-1600.7197650822977
 42
0.0220162375253005
 10
-13992.106327766911
 20
-1600.7030827215276
 10
-13992.184183333971
 20
-1600.7018833542611
 42
0.0282606915795697
 10
-13992.519819657547
 20
-1600.7156866312303
 10
-13992.563732931316
 20
-1600.7199866212336
 42
0.0169677213650018
 10
-13992.809657426278
 20
-1600.7525236707856
 42
0.0190576269851165
 10
-13993.052565388856
 20
-1600.8026705428917
 10
-13993.058824576969
 20
-1600.8042135170015
 42
0.0213685642891534
 10
-13993.309209061452
 20
-1600.877413802109
 10
-13993.314698956361
 20
-1600.8792767981654
 42
0.0237595297593244
 10
-13993.568193841262
 20
-1600.9789613200614
 10
-13993.57329591529
 20
-1600.9812530955392
 42
0.0261857468786915
 10
-13993.825466691509
 20
-1601.1107894329064
 10
-13993.835892880586
 20
-1601.1168549073691
 42
0.0272553062007082
 10
-13994.072322655846
 20
-1601.2722271133262
 10
-13994.107085669353
 20
-1601.297888261417
 42
0.0325996893150359
 10
-13994.257241013007
 20
-1601.4246361343899
 10
-13994.280950442111
 20
-1601.4474541628838
 42
0.0138050960623978
 10
-13994.37283359834
 20
-1601.5409038244543
 42
0.0125280103922554
 10
-13994.459676131215
 20
-1601.6390671511037
 10
-13994.483356576082
 20
-1601.6672256492418
 42
0.0205218024685793
 10
-13994.608456651596
 20
-1601.8290189634724
 10
-13994.630922992083
 20
-1601.8606786932978
 42
0.0163110129556097
 10
-13994.786633371319
 20
-1602.0960091283432
 10
-13994.789357267386
 20
-1602.1004328903532
 42
0.0131897341898662
 10
-13994.936157788301
 20
-1602.3535649827334
 10
-13994.937857883659
 20
-1602.3566832218535
 42
0.0107895576010193
 10
-13995.075634585872
 20
-1602.6228984314926
 10
-13995.076367475394
 20
-1602.624392664135
 42
0.0091371507235428
 10
-13995.204847424055
 20
-1602.8989178619211
 10
-13995.234593055453
 20
-1602.9656243690533
 42
0.0135418326328567
 10
-13995.4063069945
 20
-1603.3805621542581
 10
-13995.439911802901
 20
-1603.468428296452
 42
0.0092834542380993
 10
-13995.611140862879
 20
-1603.9423267949087
 10
-13995.636757990604
 20
-1604.0175678647252
 42
0.0054261043612353
 10
-13995.744396138889
 20
-1604.3453318377674
 10
-13995.761922125264
 20
-1604.400720000622
 42
0.0008225090861474
 10
-13995.830592176897
 20
-1604.6189887581465
 10
-13996.815281308831
 20
-1607.6438800514031
 10
-13993.582657468756
 20
-1607.6438800514031
 10
-13994.086849898609
 20
-1609.5483583497555
 10
-13997.342906180593
 20
-1609.5483583497555
 10
-14003.172055212948
 20
-1628.3615814157604
 10
-14004.997152823258
 20
-1628.3615814157604
 10
-13999.162474787756
 20
-1609.5483583497555
 10
-14001.567591156798
 20
-1609.5483583497555
 10
-14001.063398726943
 20
-1607.6438800514031
 10
-13998.634849915994
 20
-1607.6438800514031
 10
-13997.774694997805
 20
-1605.0074670507042
 42
-0.0005863560668723
 10
-13997.737960319768
 20
-1604.8906406309418
 10
-13997.66187248594
 20
-1604.649648331027
 42
-0.0087522378964601
 10
-13997.462404342519
 20
-1604.0543722439843
 10
-13997.370140067085
 20
-1603.7942320754114
 42
-0.0077400953837279
 10
-13997.112206407939
 20
-1603.1012273978195
 10
-13997.096441436377
 20
-1603.0607965144784
 42
-0.0082369946352098
 10
-13996.849356965748
 20
-1602.4567174482377
 42
-0.0085725238374998
 10
-13996.582110869767
 20
-1601.8612914089961
 10
-13996.480481268738
 20
-1601.6448703069636
 42
-0.0168109410598069
 10
-13996.193536840008
 20
-1601.083662780861
 10
-13996.06769344991
 20
-1600.8566987485108
 42
-0.0007817726820038
 10
-13996.013409099492
 20
-1600.7591545028326
 10
-13996.013280793433
 20
-1600.75892479402
 42
-0.0036626142192231
 10
-13995.958392929453
 20
-1600.6623269141276
 42
-0.0080221150704683
 10
-13995.901268674063
 20
-1600.5670476793975
 10
-13995.870568722687
 20
-1600.5176567302524
 42
-0.020213932553498
 10
-13995.742912982882
 20
-1600.3296751295738
 10
-13995.688845517692
 20
-1600.2565962653302
 42
-0.0249323791772511
 10
-13995.429682723941
 20
-1599.9405510231431
 10
-13995.405542909844
 20
-1599.9139367502635
 42
-0.0242132121552175
 10
-13995.065862168309
 20
-1599.5740532640625
 10
-13995.017950595551
 20
-1599.5305441278701
 42
-0.0251017527835059
 10
-13994.733968894912
 20
-1599.2975513821084
 10
-13994.732523418113
 20
-1599.2964821245412
 42
-0.0130868069069796
 10
-13994.43426276814
 20
-1599.0877016559871
 10
-13994.432700948995
 20
-1599.0866682157109
 42
-0.0290329526395446
 10
-13994.121589807604
 20
-1598.9058427140826
 10
-13994.091744245614
 20
-1598.8907403312407
 42
-0.0160250190055196
 10
-13993.825839831854
 20
-1598.76672422103
 42
-0.0267600374804696
 10
-13993.550563754396
 20
-1598.6659759004845
 10
-13993.523827834864
 20
-1598.6577833416557
 42
-0.0049981587637925
 10
-13993.468654689577
 20
-1598.6414781413432
 42
-0.0049981587637925
  0
LWPOLYLINE
  5
58
100
AcDbEntity
  8
0
370
              15
390
0
  6
Continuous
 62
               7
100
AcDbPolyline
 90
      118
 70
             128
 10
-13973.654287125131
 20
-1607.7178633792305
 10
-13971.779165200631
 20
-1607.7178633792305
 10
-13972.617204106231
 20
-1610.3994299056305
 42
-0.001058722908198
 10
-13972.585748290352
 20
-1610.3625253719154
 10
-13972.527554200027
 20
-1610.2945431160995
 42
-0.0071874740412592
 10
-13972.377178981951
 20
-1610.1239024240967
 10
-13972.235456208666
 20
-1609.9676662827574
 42
-0.0148118053512466
 10
-13971.785326915951
 20
-1609.5000524367424
 10
-13971.698104581066
 20
-1609.4146551159051
 42
-0.0086273358700626
 10
-13971.362555780044
 20
-1609.0972794818742
 10
-13971.318722063877
 20
-1609.0572298375948
 42
-0.0103138323134942
 10
-13971.060698361585
 20
-1608.8310667002029
 10
-13971.014923955225
 20
-1608.7925846529142
 42
-0.0060206748565438
 10
-13970.842075891145
 20
-1608.6507900021884
 10
-13970.840044760225
 20
-1608.64916429653
 42
-0.0067069027321398
 10
-13970.667751945597
 20
-1608.5150136627622
 10
-13970.665203179682
 20
-1608.513083492895
 42
-0.0076184352055629
 10
-13970.4942979138
 20
-1608.3877086176431
 42
-0.00896528616629
 10
-13970.319336951108
 20
-1608.2680753573384
 10
-13970.282985230937
 20
-1608.2441641438372
 42
-0.0156916245942117
 10
-13970.087025733761
 20
-1608.1239016573531
 42
-0.0023299011088039
 10
-13969.886763689934
 20
-1608.0107237178986
 10
-13969.8713795574
 20
-1608.0021237227475
 42
-0.0107669341525337
 10
-13969.637142732305
 20
-1607.8777235894004
 10
-13969.614877931224
 20
-1607.866506839448
 42
-0.0078058045872176
 10
-13969.331287813249
 20
-1607.7291453837984
 10
-13969.321380725563
 20
-1607.7245362559411
 42
-0.0181829330493233
 10
-13969.011071320952
 20
-1607.5936725148472
 10
-13968.957015878394
 20
-1607.5731573949067
 42
-0.020841153604474
 10
-13968.60793091093
 20
-1607.4570669324089
 10
-13968.593574810799
 20
-1607.4529484874543
 42
-0.0222799817125506
 10
-13968.264855016885
 20
-1607.3743069213151
 10
-13968.255966053644
 20
-1607.3725949107295
 42
-0.0215509523877081
 10
-13967.939495085368
 20
-1607.3256792221955
 10
-13967.897013124319
 20
-1607.3212416954048
 42
-0.0182545924848465
 10
-13967.662904345014
 20
-1607.3053978700138
 10
-13967.623503328658
 20
-1607.3041733249345
 42
-0.0072962856532346
 10
-13967.467580448978
 20
-1607.3016039964125
 10
-13967.438480778406
 20
-1607.3015491610088
 42
-0.0059227516358538
 10
-13967.340731279261
 20
-1607.3025228727993
 10
-13967.311489061727
 20
-1607.3031606394038
 42
-0.001183311180029
 10
-13967.272237778056
 20
-1607.3041096437125
 10
-13968.067624373663
 20
-1609.8428435888115
 42
0.0143932051292502
 10
-13968.094025756036
 20
-1609.8326446187577
 10
-13968.10129772843
 20
-1609.830073399909
 42
0.0234388603424433
 10
-13968.143128594375
 20
-1609.8174541641904
 10
-13968.151810257275
 20
-1609.8152732021886
 42
0.0199162743026999
 10
-13968.212099091363
 20
-1609.8026564668523
 10
-13968.232913029162
 20
-1609.799159267425
 42
0.0293643550728268
 10
-13968.335987887926
 20
-1609.7880092217717
 10
-13968.360673068641
 20
-1609.7867976047532
 42
0.0214606686840155
 10
-13968.5138139846
 20
-1609.7858590443359
 10
-13968.523185895412
 20
-1609.78620395588
 42
0.0167564054190095
 10
-13968.694706086528
 20
-1609.7982809982486
 10
-13968.70316587928
 20
-1609.7991623386752
 42
0.0137677553300398
 10
-13968.890519192542
 20
-1609.8239116472187
 10
-13968.897870932051
 20
-1609.8250895671868
 42
0.0118497261492161
 10
-13969.098368696148
 20
-1609.8621069173748
 10
-13969.1045187034
 20
-1609.863393780096
 42
0.010642114393795
 10
-13969.315399590689
 20
-1609.912226155672
 10
-13969.320308399074
 20
-1609.9134734983559
 42
0.0099746379724054
 10
-13969.538766868272
 20
-1609.9736480266808
 10
-13969.600314908406
 20
-1609.9919299053013
 42
0.0191613675857865
 10
-13969.936299370916
 20
-1610.1059072855858
 10
-13970.024359143685
 20
-1610.1395941959186
 42
0.0205274080147565
 10
-13970.409665915569
 20
-1610.3054226037389
 10
-13970.467315197549
 20
-1610.3330905683104
 42
0.0181256912215728
 10
-13970.725592138217
 20
-1610.4687743872892
 10
-13970.778547521521
 20
-1610.4990920004982
 42
0.0140709242390767
 10
-13970.92350245616
 20
-1610.5875866739382
 10
-13970.949751324773
 20
-1610.6046434926504
 42
0.0086667884348488
 10
-13971.038677486322
 20
-1610.6646461605364
 42
0.0036408191969289
 10
-13971.126110724324
 20
-1610.7268270183067
 10
-13971.161337598824
 20
-1610.7522679642416
 42
0.0052260781242006
 10
-13971.317566296171
 20
-1610.867600350844
 10
-13971.333773152473
 20
-1610.8798284614941
 42
0.0050024435924646
 10
-13971.519776495534
 20
-1611.0231110297564
 10
-13971.535094652048
 20
-1611.0351570522021
 42
0.0136138710296826
 10
-13971.74553592035
 20
-1611.2101235570956
 10
-13971.779203796166
 20
-1611.2397025298296
 42
0.0172815186910424
 10
-13972.043607337837
 20
-1611.4886992024599
 10
-13972.046169683672
 20
-1611.4912850196001
 42
0.0189403858021341
 10
-13972.296751482269
 20
-1611.7640902844264
 10
-13972.329382975789
 20
-1611.802434215906
 42
0.0185044199516244
 10
-13972.521339414767
 20
-1612.0456827970243
 42
0.0088565243925833
 10
-13972.699799521395
 20
-1612.2991992171767
 10
-13972.708977501043
 20
-1612.3127405969344
 42
0.0157195347228351
 10
-13972.89219810738
 20
-1612.602262806254
 10
-13972.938281049279
 20
-1612.6804150032201
 42
0.0095451879775815
 10
-13973.103366599447
 20
-1612.9730096456274
 10
-13973.11451451834
 20
-1612.9936803176902
 42
0.0100351706189626
 10
-13973.246558267536
 20
-1613.2507358782502
 42
0.0086935915391768
 10
-13973.368889419322
 20
-1613.5125690236368
 10
-13973.372210160744
 20
-1613.5200113466265
 42
0.0072580174860052
 10
-13973.492556612684
 20
-1613.800603338196
 10
-13973.495818245996
 20
-1613.8085233642273
 42
0.0060005122574675
 10
-13973.615018914279
 20
-1614.1081330346797
 10
-13973.61822989268
 20
-1614.1164945627374
 42
0.0049017786983853
 10
-13973.737130051506
 20
-1614.4354235432556
 10
-13973.740295857928
 20
-1614.444176480572
 42
0.0039415167654326
 10
-13973.859732136118
 20
-1614.7827185433741
 10
-13973.862863238635
 20
-1614.7918217438614
 42
0.0031035838796937
 10
-13973.983668024433
 20
-1615.1502616059502
 10
-13973.98677806886
 20
-1615.1596822270099
 42
0.0025070747159517
 10
-13974.109679420109
 20
-1615.5383294437465
 10
-13974.146973316601
 20
-1615.6552211092066
 42
0.0029081910275577
 10
-13974.338991614399
 20
-1616.2693847674543
 10
-13974.37979478293
 20
-1616.4026080097742
 42
0.0009266453745295
 10
-13974.648212157595
 20
-1617.2848324708646
 10
-13974.669099629537
 20
-1617.3539443477841
 42
-0.000580999367837
 10
-13974.946436310474
 20
-1618.2677524555725
 10
-13975.012718108606
 20
-1618.4852373872714
 42
-0.001201870818339
 10
-13975.159702418177
 20
-1618.9634000522528
 10
-13975.212022270856
 20
-1619.1321591967107
 42
-0.0002691059463286
 10
-13975.255591750911
 20
-1619.2724268134607
 10
-13978.0885476492
 20
-1628.3615814157604
 10
-13979.906536541179
 20
-1628.3615814157604
 10
-13973.654287125131
 20
-1607.7178633792305
  0
SPLINE
  5
59
100
AcDbEntity
  8
0
370
              15
390
0
  6
Continuous
 62
               7
100
AcDbSpline
210
0.0
220
0.0
230
1.0
 70
              13
 71
               2
 72
             782
 73
             779
 74
               0
 42
0.000001
 43
0.000001
 40
0.0
 40
0.0
 40
0.0
 40
1.0
 40
1.0
 40
2.0
 40
2.0
 40
3.0
 40
3.0
 40
4.0
 40
4.0
 40
5.0
 40
5.0
 40
6.0
 40
6.0
 40
7.0
 40
7.0
 40
8.0
 40
8.0
 40
9.0
 40
9.0
 40
10.0
 40
10.0
 40
11.0
 40
11.0
 40
12.0
 40
12.0
 40
13.0
 40
13.0
 40
14.0
 40
14.0
 40
15.0
 40
15.0
 40
16.0
 40
16.0
 40
17.0
 40
17.0
 40
18.0
 40
18.0
 40
19.0
 40
19.0
 40
20.0
 40
20.0
 40
21.0
 40
21.0
 40
22.0
 40
22.0
 40
23.0
 40
23.0
 40
24.0
 40
24.0
 40
25.0
 40
25.0
 40
26.0
 40
26.0
 40
27.0
 40
27.0
 40
28.0
 40
28.0
 40
29.0
 40
29.0
 40
30.0
 40
30.0
 40
31.0
 40
31.0
 40
32.0
 40
32.0
 40
33.0
 40
33.0
 40
34.0
 40
34.0
 40
35.0
 40
35.0
 40
36.0
 40
36.0
 40
37.0
 40
37.0
 40
38.0
 40
38.0
 40
39.0
 40
39.0
 40
40.0
 40
40.0
 40
41.0
 40
41.0
 40
42.0
 40
42.0
 40
43.0
 40
43.0
 40
44.0
 40
44.0
 40
45.0
 40
45.0
 40
46.0
 40
46.0
 40
47.0
 40
47.0
 40
48.0
 40
48.0
 40
49.0
 40
49.0
 40
50.0
 40
50.0
 40
51.0
 40
51.0
 40
52.0
 40
52.0
 40
53.0
 40
53.0
 40
54.0
 40
54.0
 40
55.0
 40
55.0
 40
56.0
 40
56.0
 40
57.0
 40
57.0
 40
58.0
 40
58.0
 40
59.0
 40
59.0
 40
60.0
 40
60.0
 40
61.0
 40
61.0
 40
62.0
 40
62.0
 40
63.0
 40
63.0
 40
64.0
 40
64.0
 40
65.0
 40
65.0
 40
66.0
 40
66.0
 40
67.0
 40
67.0
 40
68.0
 40
68.0
 40
69.0
 40
69.0
 40
70.0
 40
70.0
 40
71.0
 40
71.0
 40
72.0
 40
72.0
 40
73.0
 40
73.0
 40
74.0
 40
74.0
 40
75.0
 40
75.0
 40
76.0
 40
76.0
 40
77.0
 40
77.0
 40
78.0
 40
78.0
 40
79.0
 40
79.0
 40
80.0
 40
80.0
 40
81.0
 40
81.0
 40
82.0
 40
82.0
 40
83.0
 40
83.0
 40
84.0
 40
84.0
 40
85.0
 40
85.0
 40
86.0
 40
86.0
 40
87.0
 40
87.0
 40
88.0
 40
88.0
 40
89.0
 40
89.0
 40
90.0
 40
90.0
 40
91.0
 40
91.0
 40
92.0
 40
92.0
 40
93.0
 40
93.0
 40
94.0
 40
94.0
 40
95.0
 40
95.0
 40
96.0
 40
96.0
 40
97.0
 40
97.0
 40
98.0
 40
98.0
 40
99.0
 40
99.0
 40
100.0
 40
100.0
 40
101.0
 40
101.0
 40
102.0
 40
102.0
 40
103.0
 40
103.0
 40
104.0
 40
104.0
 40
105.0
 40
105.0
 40
106.0
 40
106.0
 40
107.0
 40
107.0
 40
108.0
 40
108.0
 40
109.0
 40
109.0
 40
110.0
 40
110.0
 40
111.0
 40
111.0
 40
112.0
 40
112.0
 40
113.0
 40
113.0
 40
114.0
 40
114.0
 40
115.0
 40
115.0
 40
116.0
 40
116.0
 40
117.0
 40
117.0
 40
118.0
 40
118.0
 40
119.0
 40
119.0
 40
120.0
 40
120.0
 40
121.0
 40
121.0
 40
122.0
 40
122.0
 40
123.0
 40
123.0
 40
124.0
 40
124.0
 40
125.0
 40
125.0
 40
126.0
 40
126.0
 40
127.0
 40
127.0
 40
128.0
 40
128.0
 40
129.0
 40
129.0
 40
130.0
 40
130.0
 40
131.0
 40
131.0
 40
132.0
 40
132.0
 40
133.0
 40
133.0
 40
134.0
 40
134.0
 40
135.0
 40
135.0
 40
136.0
 40
136.0
 40
137.0
 40
137.0
 40
138.0
 40
138.0
 40
139.0
 40
139.0
 40
140.0
 40
140.0
 40
141.0
 40
141.0
 40
142.0
 40
142.0
 40
143.0
 40
143.0
 40
144.0
 40
144.0
 40
145.0
 40
145.0
 40
146.0
 40
146.0
 40
147.0
 40
147.0
 40
148.0
 40
148.0
 40
149.0
 40
149.0
 40
150.0
 40
150.0
 40
151.0
 40
151.0
 40
152.0
 40
152.0
 40
153.0
 40
153.0
 40
154.0
 40
154.0
 40
155.0
 40
155.0
 40
156.0
 40
156.0
 40
157.0
 40
157.0
 40
158.0
 40
158.0
 40
159.0
 40
159.0
 40
160.0
 40
160.0
 40
161.0
 40
161.0
 40
162.0
 40
162.0
 40
163.0
 40
163.0
 40
164.0
 40
164.0
 40
165.0
 40
165.0
 40
166.0
 40
166.0
 40
167.0
 40
167.0
 40
168.0
 40
168.0
 40
169.0
 40
169.0
 40
170.0
 40
170.0
 40
171.0
 40
171.0
 40
172.0
 40
172.0
 40
173.0
 40
173.0
 40
174.0
 40
174.0
 40
175.0
 40
175.0
 40
176.0
 40
176.0
 40
177.0
 40
177.0
 40
178.0
 40
178.0
 40
179.0
 40
179.0
 40
180.0
 40
180.0
 40
181.0
 40
181.0
 40
182.0
 40
182.0
 40
183.0
 40
183.0
 40
184.0
 40
184.0
 40
185.0
 40
185.0
 40
186.0
 40
186.0
 40
187.0
 40
187.0
 40
188.0
 40
188.0
 40
189.0
 40
189.0
 40
190.0
 40
190.0
 40
191.0
 40
191.0
 40
192.0
 40
192.0
 40
193.0
 40
193.0
 40
194.0
 40
194.0
 40
195.0
 40
195.0
 40
196.0
 40
196.0
 40
197.0
 40
197.0
 40
198.0
 40
198.0
 40
199.0
 40
199.0
 40
200.0
 40
200.0
 40
201.0
 40
201.0
 40
202.0
 40
202.0
 40
203.0
 40
203.0
 40
204.0
 40
204.0
 40
205.0
 40
205.0
 40
206.0
 40
206.0
 40
207.0
 40
207.0
 40
208.0
 40
208.0
 40
209.0
 40
209.0
 40
210.0
 40
210.0
 40
211.0
 40
211.0
 40
212.0
 40
212.0
 40
213.0
 40
213.0
 40
214.0
 40
214.0
 40
215.0
 40
215.0
 40
216.0
 40
216.0
 40
217.0
 40
217.0
 40
218.0
 40
218.0
 40
219.0
 40
219.0
 40
220.0
 40
220.0
 40
221.0
 40
221.0
 40
222.0
 40
222.0
 40
223.0
 40
223.0
 40
224.0
 40
224.0
 40
225.0
 40
225.0
 40
226.0
 40
226.0
 40
227.0
 40
227.0
 40
228.0
 40
228.0
 40
229.0
 40
229.0
 40
230.0
 40
230.0
 40
231.0
 40
231.0
 40
232.0
 40
232.0
 40
233.0
 40
233.0
 40
234.0
 40
234.0
 40
235.0
 40
235.0
 40
236.0
 40
236.0
 40
237.0
 40
237.0
 40
238.0
 40
238.0
 40
239.0
 40
239.0
 40
240.0
 40
240.0
 40
241.0
 40
241.0
 40
242.0
 40
242.0
 40
243.0
 40
243.0
 40
244.0
 40
244.0
 40
245.0
 40
245.0
 40
246.0
 40
246.0
 40
247.0
 40
247.0
 40
248.0
 40
248.0
 40
249.0
 40
249.0
 40
250.0
 40
250.0
 40
251.0
 40
251.0
 40
252.0
 40
252.0
 40
253.0
 40
253.0
 40
254.0
 40
254.0
 40
255.0
 40
255.0
 40
256.0
 40
256.0
 40
257.0
 40
257.0
 40
258.0
 40
258.0
 40
259.0
 40
259.0
 40
260.0
 40
260.0
 40
261.0
 40
261.0
 40
262.0
 40
262.0
 40
263.0
 40
263.0
 40
264.0
 40
264.0
 40
265.0
 40
265.0
 40
266.0
 40
266.0
 40
267.0
 40
267.0
 40
268.0
 40
268.0
 40
269.0
 40
269.0
 40
270.0
 40
270.0
 40
271.0
 40
271.0
 40
272.0
 40
272.0
 40
273.0
 40
273.0
 40
274.0
 40
274.0
 40
275.0
 40
275.0
 40
276.0
 40
276.0
 40
277.0
 40
277.0
 40
278.0
 40
278.0
 40
279.0
 40
279.0
 40
280.0
 40
280.0
 40
281.0
 40
281.0
 40
282.0
 40
282.0
 40
283.0
 40
283.0
 40
284.0
 40
284.0
 40
285.0
 40
285.0
 40
286.0
 40
286.0
 40
287.0
 40
287.0
 40
288.0
 40
288.0
 40
289.0
 40
289.0
 40
290.0
 40
290.0
 40
291.0
 40
291.0
 40
292.0
 40
292.0
 40
293.0
 40
293.0
 40
294.0
 40
294.0
 40
295.0
 40
295.0
 40
296.0
 40
296.0
 40
297.0
 40
297.0
 40
298.0
 40
298.0
 40
299.0
 40
299.0
 40
300.0
 40
300.0
 40
301.0
 40
301.0
 40
302.0
 40
302.0
 40
303.0
 40
303.0
 40
304.0
 40
304.0
 40
305.0
 40
305.0
 40
306.0
 40
306.0
 40
307.0
 40
307.0
 40
308.0
 40
308.0
 40
309.0
 40
309.0
 40
310.0
 40
310.0
 40
311.0
 40
311.0
 40
312.0
 40
312.0
 40
313.0
 40
313.0
 40
314.0
 40
314.0
 40
315.0
 40
315.0
 40
316.0
 40
316.0
 40
317.0
 40
317.0
 40
318.0
 40
318.0
 40
319.0
 40
319.0
 40
320.0
 40
320.0
 40
321.0
 40
321.0
 40
322.0
 40
322.0
 40
323.0
 40
323.0
 40
324.0
 40
324.0
 40
325.0
 40
325.0
 40
326.0
 40
326.0
 40
327.0
 40
327.0
 40
328.0
 40
328.0
 40
329.0
 40
329.0
 40
330.0
 40
330.0
 40
331.0
 40
331.0
 40
332.0
 40
332.0
 40
333.0
 40
333.0
 40
334.0
 40
334.0
 40
335.0
 40
335.0
 40
336.0
 40
336.0
 40
337.0
 40
337.0
 40
338.0
 40
338.0
 40
339.0
 40
339.0
 40
340.0
 40
340.0
 40
341.0
 40
341.0
 40
342.0
 40
342.0
 40
343.0
 40
343.0
 40
344.0
 40
344.0
 40
345.0
 40
345.0
 40
346.0
 40
346.0
 40
347.0
 40
347.0
 40
348.0
 40
348.0
 40
349.0
 40
349.0
 40
350.0
 40
350.0
 40
351.0
 40
351.0
 40
352.0
 40
352.0
 40
353.0
 40
353.0
 40
354.0
 40
354.0
 40
355.0
 40
355.0
 40
356.0
 40
356.0
 40
357.0
 40
357.0
 40
358.0
 40
358.0
 40
359.0
 40
359.0
 40
360.0
 40
360.0
 40
361.0
 40
361.0
 40
362.0
 40
362.0
 40
363.0
 40
363.0
 40
364.0
 40
364.0
 40
365.0
 40
365.0
 40
366.0
 40
366.0
 40
367.0
 40
367.0
 40
368.0
 40
368.0
 40
369.0
 40
369.0
 40
370.0
 40
370.0
 40
371.0
 40
371.0
 40
372.0
 40
372.0
 40
373.0
 40
373.0
 40
374.0
 40
374.0
 40
375.0
 40
375.0
 40
376.0
 40
376.0
 40
377.0
 40
377.0
 40
378.0
 40
378.0
 40
379.0
 40
379.0
 40
380.0
 40
380.0
 40
381.0
 40
381.0
 40
382.0
 40
382.0
 40
383.0
 40
383.0
 40
384.0
 40
384.0
 40
385.0
 40
385.0
 40
386.0
 40
386.0
 40
387.0
 40
387.0
 40
388.0
 40
388.0
 40
389.0
 40
389.0
 40
389.0
 10
-13963.325582674399
 20
-1607.7069370158681
 30
0.0
 41
1.0
 10
-13962.507158565677
 20
-1607.7069370158681
 30
0.0
 41
1.0
 10
-13961.688734456957
 20
-1607.7069370158681
 30
0.0
 41
1.0
 10
-13962.102488192475
 20
-1609.0495632801178
 30
0.0
 41
1.0
 10
-13962.516241927991
 20
-1610.3921895443675
 30
0.0
 41
1.0
 10
-13962.49790243294
 20
-1610.3634887716371
 30
0.0
 41
0.999995726439832
 10
-13962.479395436249
 20
-1610.3348957217004
 30
0.0
 41
1.0
 10
-13962.448966111984
 20
-1610.2878828431271
 30
0.0
 41
1.0
 10
-13962.418536787718
 20
-1610.2408699645537
 30
0.0
 41
1.0
 10
-13962.339171142623
 20
-1610.1182511576651
 30
0.0
 41
0.9995394069080162
 10
-13962.252512751076
 20
-1610.0006730959315
 30
0.0
 41
1.0
 10
-13962.216755888814
 20
-1609.9521582033342
 30
0.0
 41
1.0
 10
-13962.180999026552
 20
-1609.9036433107369
 30
0.0
 41
1.0
 10
-13962.047272358725
 20
-1609.7222030355956
 30
0.0
 41
0.9994460617141878
 10
-13961.901771877434
 20
-1609.5500606379451
 30
0.0
 41
1.0
 10
-13961.897383696469
 20
-1609.5448689575742
 30
0.0
 41
1.0
 10
-13961.892995515504
 20
-1609.5396772772031
 30
0.0
 41
1.0
 10
-13961.756271396158
 20
-1609.3779182403073
 30
0.0
 41
0.9994359394932063
 10
-13961.608997165795
 20
-1609.225702039131
 30
0.0
 41
1.0
 10
-13961.606613811822
 20
-1609.2232387087374
 30
0.0
 41
1.0
 10
-13961.60423045785
 20
-1609.2207753783441
 30
0.0
 41
1.0
 10
-13961.461722935426
 20
-1609.0734858379517
 30
0.0
 41
0.9995293688569045
 10
-13961.31045125446
 20
-1608.9352126258023
 30
0.0
 41
1.0
 10
-13961.291157495209
 20
-1608.9175767401616
 30
0.0
 41
1.0
 10
-13961.271863735956
 20
-1608.8999408545208
 30
0.0
 41
1.0
 10
-13961.159179573491
 20
-1608.7969394136492
 30
0.0
 41
0.9997087614801581
 10
-13961.041656684523
 20
-1608.6994951328402
 30
0.0
 41
1.0
 10
-13961.022490611382
 20
-1608.6836035543606
 30
0.0
 41
1.0
 10
-13961.00332453824
 20
-1608.6677119758808
 30
0.0
 41
1.0
 10
-13960.924133795579
 20
-1608.6020508520519
 30
0.0
 41
0.9999595338698042
 10
-13960.843774524714
 20
-1608.5378251213874
 30
0.0
 41
1.0
 10
-13960.763415253827
 20
-1608.4735993907063
 30
0.0
 41
0.9999749417505282
 10
-13960.682154719409
 20
-1608.4105178367026
 30
0.0
 41
1.0
 10
-13960.661168573222
 20
-1608.3942265493829
 30
0.0
 41
1.0
 10
-13960.640182427036
 20
-1608.3779352620631
 30
0.0
 41
1.0
 10
-13960.555614541789
 20
-1608.3122862522669
 30
0.0
 41
0.9999792037139156
 10
-13960.470206942113
 20
-1608.2477334706932
 30
0.0
 41
1.0
 10
-13960.449382116625
 20
-1608.231993648757
 30
0.0
 41
1.0
 10
-13960.428557291139
 20
-1608.2162538268205
 30
0.0
 41
1.0
 10
-13960.384799342835
 20
-1608.183180689422
 30
0.0
 41
0.9999993374084834
 10
-13960.3411176562
 20
-1608.1500068936257
 30
0.0
 41
1.0
 10
-13960.297435970017
 20
-1608.116833098172
 30
0.0
 41
0.999916095381849
 10
-13960.252909559089
 20
-1608.0848020329679
 30
0.0
 41
1.0
 10
-13960.220087671692
 20
-1608.0611908774008
 30
0.0
 41
1.0
 10
-13960.187265784298
 20
-1608.0375797218335
 30
0.0
 41
1.0
 10
-13960.077095598548
 20
-1607.9583263454701
 30
0.0
 41
0.9980964527229694
 10
-13959.95800660506
 20
-1607.8932388726209
 30
0.0
 41
1.0
 10
-13959.920973998122
 20
-1607.872998893022
 30
0.0
 41
1.0
 10
-13959.883941391183
 20
-1607.852758913423
 30
0.0
 41
1.0
 10
-13959.704614377906
 20
-1607.7547486627209
 30
0.0
 41
0.9984572810574306
 10
-13959.515525811552
 20
-1607.6772264013757
 30
0.0
 41
1.0
 10
-13959.511879542155
 20
-1607.6757315090376
 30
0.0
 41
1.0
 10
-13959.50823327276
 20
-1607.6742366166998
 30
0.0
 41
1.0
 10
-13959.326437245187
 20
-1607.5997041400274
 30
0.0
 41
0.9987838528033907
 10
-13959.138184586633
 20
-1607.5434384998637
 30
0.0
 41
1.0
 10
-13959.133946637439
 20
-1607.5421718461751
 30
0.0
 41
1.0
 10
-13959.129708688246
 20
-1607.5409051924864
 30
0.0
 41
1.0
 10
-13958.949931928086
 20
-1607.4871728596997
 30
0.0
 41
0.9990652816204704
 10
-13958.766185996357
 20
-1607.4491691801559
 30
0.0
 41
1.0
 10
-13958.760997595327
 20
-1607.4480960770497
 30
0.0
 41
1.0
 10
-13958.755809194297
 20
-1607.4470229739436
 30
0.0
 41
1.0
 10
-13958.582440064651
 20
-1607.4111655006143
 30
0.0
 41
0.9992909934268281
 10
-13958.406864298184
 20
-1607.3884550681473
 30
0.0
 41
1.0
 10
-13958.231288531731
 20
-1607.3657446356806
 30
0.0
 41
0.9994553539447019
 10
-13958.05459709863
 20
-1607.3546653314743
 30
0.0
 41
1.0
 10
-13958.019162690838
 20
-1607.3524434434266
 30
0.0
 41
1.0
 10
-13957.983728283045
 20
-1607.3502215553792
 30
0.0
 41
1.0
 10
-13957.817502516482
 20
-1607.3397984929666
 30
0.0
 41
0.9990928098290713
 10
-13957.650992724568
 20
-1607.3435581342019
 30
0.0
 41
1.0
 10
-13957.612430889294
 20
-1607.3444288257349
 30
0.0
 41
1.0
 10
-13957.57386905402
 20
-1607.3452995172679
 30
0.0
 41
1.0
 10
-13957.484482932648
 20
-1607.347317775437
 30
0.0
 41
0.9998382089205136
 10
-13957.395227249879
 20
-1607.3525499019643
 30
0.0
 41
1.0
 10
-13957.394797343664
 20
-1607.3525751028662
 30
0.0
 41
1.0
 10
-13957.39436743745
 20
-1607.3526003037682
 30
0.0
 41
1.0
 10
-13957.305971567079
 20
-1607.3577820284945
 30
0.0
 41
0.9997558016761103
 10
-13957.217890989894
 20
-1607.3668645438588
 30
0.0
 41
1.0
 10
-13957.217414851471
 20
-1607.3669136413405
 30
0.0
 41
1.0
 10
-13957.216938713051
 20
-1607.3669627388224
 30
0.0
 41
1.0
 10
-13957.129810412705
 20
-1607.3759470592229
 30
0.0
 41
0.999656514417987
 10
-13957.043272559349
 20
-1607.3894843659145
 30
0.0
 41
1.0
 10
-13957.042806633974
 20
-1607.3895572516458
 30
0.0
 41
1.0
 10
-13957.042340708596
 20
-1607.3896301373768
 30
0.0
 41
1.0
 10
-13956.956734706007
 20
-1607.4030216726037
 30
0.0
 41
0.9995321806868022
 10
-13956.872107625681
 20
-1607.4216221610327
 30
0.0
 41
1.0
 10
-13956.871718431108
 20
-1607.4217077034987
 30
0.0
 41
1.0
 10
-13956.871329236536
 20
-1607.4217932459646
 30
0.0
 41
1.0
 10
-13956.78748054535
 20
-1607.4402226494622
 30
0.0
 41
0.9993819199218923
 10
-13956.705134011156
 20
-1607.4644980327225
 30
0.0
 41
1.0
 10
-13956.704895577641
 20
-1607.4645683218369
 30
0.0
 41
1.0
 10
-13956.704657144126
 20
-1607.4646386109512
 30
0.0
 41
1.0
 10
-13956.62278747695
 20
-1607.4887734159868
 30
0.0
 41
0.9992088568506159
 10
-13956.543094957971
 20
-1607.5193386517776
 30
0.0
 41
1.0
 10
-13956.463413967092
 20
-1607.5498982525112
 30
0.0
 41
0.9990226101773682
 10
-13956.386743297186
 20
-1607.5873756841256
 30
0.0
 41
1.0
 10
-13956.310084155397
 20
-1607.6248474806728
 30
0.0
 41
0.9988424273966835
 10
-13956.237380528204
 20
-1607.6695122559142
 30
0.0
 41
1.0
 10
-13956.23711281981
 20
-1607.6696767199951
 30
0.0
 41
1.0
 10
-13956.236845111416
 20
-1607.6698411840762
 30
0.0
 41
1.0
 10
-13956.163606067459
 20
-1607.7148348874625
 30
0.0
 41
0.9986928844486134
 10
-13956.095343200755
 20
-1607.7670706217373
 30
0.0
 41
1.0
 10
-13956.094761908524
 20
-1607.7675154349731
 30
0.0
 41
1.0
 10
-13956.09418061629
 20
-1607.767960248209
 30
0.0
 41
1.0
 10
-13956.024755165134
 20
-1607.8210856089461
 30
0.0
 41
0.9986007262279775
 10
-13955.961328995365
 20
-1607.8812463786412
 30
0.0
 41
1.0
 10
-13955.960434579909
 20
-1607.8820947464746
 30
0.0
 41
1.0
 10
-13955.959540164455
 20
-1607.8829431143081
 30
0.0
 41
1.0
 10
-13955.894325163774
 20
-1607.9448006196696
 30
0.0
 41
0.998558149137704
 10
-13955.836117552082
 20
-1608.0132931099301
 30
0.0
 41
1.0
 10
-13955.826859098481
 20
-1608.0241874676385
 30
0.0
 41
1.0
 10
-13955.817600644879
 20
-1608.0350818253469
 30
0.0
 41
1.0
 10
-13955.740876125985
 20
-1608.1253630310262
 30
0.0
 41
0.9970460233526464
 10
-13955.678884224821
 20
-1608.226330115215
 30
0.0
 41
1.0
 10
-13955.664414859748
 20
-1608.249896574283
 30
0.0
 41
1.0
 10
-13955.649945494677
 20
-1608.2734630333509
 30
0.0
 41
1.0
 10
-13955.610208794658
 20
-1608.3381827573901
 30
0.0
 41
0.9988468816632989
 10
-13955.576862423903
 20
-1608.4064152098256
 30
0.0
 41
1.0
 10
-13955.569826401395
 20
-1608.4208121309957
 30
0.0
 41
1.0
 10
-13955.562790378888
 20
-1608.4352090521661
 30
0.0
 41
1.0
 10
-13955.543516053136
 20
-1608.4746476622913
 30
0.0
 41
0.9998431190003454
 10
-13955.525650725656
 20
-1608.514744216694
 30
0.0
 41
1.0
 10
-13955.507785398229
 20
-1608.5548407709832
 30
0.0
 41
0.9999989989821896
 10
-13955.489806674925
 20
-1608.5948866083072
 30
0.0
 41
1.0
 10
-13955.483634363238
 20
-1608.6086348253255
 30
0.0
 41
1.0
 10
-13955.477462051553
 20
-1608.6223830423437
 30
0.0
 41
1.0
 10
-13955.447138704947
 20
-1608.6899253135389
 30
0.0
 41
0.9998790356322018
 10
-13955.418930824811
 20
-1608.7583780654675
 30
0.0
 41
1.0
 10
-13955.412095643507
 20
-1608.7749651669405
 30
0.0
 41
1.0
 10
-13955.405260462205
 20
-1608.7915522684134
 30
0.0
 41
1.0
 10
-13955.381702799841
 20
-1608.8487202232645
 30
0.0
 41
0.9998227574565398
 10
-13955.360314051464
 20
-1608.9067345315079
 30
0.0
 41
1.0
 10
-13955.338925303073
 20
-1608.9647488398007
 30
0.0
 41
0.9996797971049152
 10
-13955.320499018109
 20
-1609.0237709589258
 30
0.0
 41
1.0
 10
-13955.316595215387
 20
-1609.0362754170835
 30
0.0
 41
1.0
 10
-13955.312691412666
 20
-1609.0487798752413
 30
0.0
 41
1.0
 10
-13955.286457522256
 20
-1609.1328109106994
 30
0.0
 41
0.9979274938737572
 10
-13955.271232998775
 20
-1609.2195152693589
 30
0.0
 41
1.0
 10
-13955.269009311516
 20
-1609.2321792701641
 30
0.0
 41
1.0
 10
-13955.266785624259
 20
-1609.2448432709691
 30
0.0
 41
1.0
 10
-13955.255855684556
 20
-1609.3070897782732
 30
0.0
 41
0.9994985982131827
 10
-13955.248887519378
 20
-1609.369903279432
 30
0.0
 41
1.0
 10
-13955.241919354201
 20
-1609.4327167805613
 30
0.0
 41
0.9996372611198391
 10
-13955.238343488436
 20
-1609.4958143592296
 30
0.0
 41
1.0
 10
-13955.238174910945
 20
-1609.4987889763252
 30
0.0
 41
1.0
 10
-13955.238006333455
 20
-1609.5017635934207
 30
0.0
 41
1.0
 10
-13955.234093312709
 20
-1609.5708104062646
 30
0.0
 41
0.9997730630734572
 10
-13955.233124999222
 20
-1609.6399612302971
 30
0.0
 41
1.0
 10
-13955.233067892805
 20
-1609.6440394094409
 30
0.0
 41
1.0
 10
-13955.233010786385
 20
-1609.6481175885847
 30
0.0
 41
1.0
 10
-13955.231928260062
 20
-1609.7254247709641
 30
0.0
 41
0.9998772614073643
 10
-13955.233268346794
 20
-1609.8027279175901
 30
0.0
 41
1.0
 10
-13955.233357609992
 20
-1609.8078770813636
 30
0.0
 41
1.0
 10
-13955.23344687319
 20
-1609.8130262451368
 30
0.0
 41
1.0
 10
-13955.234965486319
 20
-1609.9006277193535
 30
0.0
 41
0.9999415567325504
 10
-13955.238377796564
 20
-1609.9881758810134
 30
0.0
 41
1.0
 10
-13955.238619117241
 20
-1609.994367340767
 30
0.0
 41
1.0
 10
-13955.238860437916
 20
-1610.0005588005208
 30
0.0
 41
1.0
 10
-13955.24275538951
 20
-1610.1004898816486
 30
0.0
 41
0.9999716810418764
 10
-13955.248153972627
 20
-1610.2003510198492
 30
0.0
 41
1.0
 10
-13955.251366771412
 20
-1610.2597802694602
 30
0.0
 41
1.0
 10
-13955.254579570199
 20
-1610.3192095190711
 30
0.0
 41
1.0
 10
-13955.262653479354
 20
-1610.4685579204222
 30
0.0
 41
0.9999819129893555
 10
-13955.272523270976
 20
-1610.6177983982063
 30
0.0
 41
1.0
 10
-13955.282393062593
 20
-1610.7670388759177
 30
0.0
 41
1.0
 10
-13955.284832383157
 20
-1610.804231921767
 30
0.0
 41
1.0
 10
-13955.262134149409
 20
-1610.7654909245796
 30
0.0
 41
0.9999982128221252
 10
-13955.239289590605
 20
-1610.7268360305375
 30
0.0
 41
1.0
 10
-13955.212380030704
 20
-1610.6813028164534
 30
0.0
 41
1.0
 10
-13955.185470470802
 20
-1610.635769602369
 30
0.0
 41
1.0
 10
-13955.108806792266
 20
-1610.5060482802849
 30
0.0
 41
0.9998609190057103
 10
-13955.027859479407
 20
-1610.3789558983594
 30
0.0
 41
1.0
 10
-13954.99821115797
 20
-1610.3324061654707
 30
0.0
 41
1.0
 10
-13954.968562836531
 20
-1610.2858564325822
 30
0.0
 41
1.0
 10
-13954.886290616249
 20
-1610.156683862511
 30
0.0
 41
0.9999067609732203
 10
-13954.80052160675
 20
-1610.0298061730191
 30
0.0
 41
1.0
 10
-13954.798116903577
 20
-1610.0262489070074
 30
0.0
 41
1.0
 10
-13954.795712200406
 20
-1610.0226916409956
 30
0.0
 41
1.0
 10
-13954.714752597316
 20
-1609.9029284836208
 30
0.0
 41
0.9998784952149117
 10
-13954.630098987604
 20
-1609.7857472668693
 30
0.0
 41
1.0
 10
-13954.545445377924
 20
-1609.6685660501621
 30
0.0
 41
0.9998532968283022
 10
-13954.456827757118
 20
-1609.5543531417127
 30
0.0
 41
1.0
 10
-13954.436865968126
 20
-1609.5286258206911
 30
0.0
 41
1.0
 10
-13954.416904179134
 20
-1609.5028984996695
 30
0.0
 41
1.0
 10
-13954.298420129373
 20
-1609.3501928886972
 30
0.0
 41
0.9991551975794089
 10
-13954.167795679736
 20
-1609.2077333265977
 30
0.0
 41
1.0
 10
-13954.164286063766
 20
-1609.2039057249845
 30
0.0
 41
1.0
 10
-13954.160776447796
 20
-1609.200078123371
 30
0.0
 41
1.0
 10
-13954.037171230122
 20
-1609.065273764525
 30
0.0
 41
0.9997418144180875
 10
-13953.90756909041
 20
-1608.9362243539017
 30
0.0
 41
1.0
 10
-13953.777966950713
 20
-1608.8071749432895
 30
0.0
 41
0.9989238204630088
 10
-13953.636964402473
 20
-1608.6906899812611
 30
0.0
 41
1.0
 10
-13953.591716724331
 20
-1608.6533099896501
 30
0.0
 41
1.0
 10
-13953.546469046189
 20
-1608.6159299980393
 30
0.0
 41
1.0
 10
-13953.406228988963
 20
-1608.500074944744
 30
0.0
 41
0.9990825084095026
 10
-13953.256589056355
 20
-1608.3966459469088
 30
0.0
 41
1.0
 10
-13953.246543692319
 20
-1608.3897027338442
 30
0.0
 41
1.0
 10
-13953.236498328284
 20
-1608.3827595207795
 30
0.0
 41
1.0
 10
-13953.106949123756
 20
-1608.2932169490796
 30
0.0
 41
0.9998164899826743
 10
-13952.974064920374
 20
-1608.2087027075595
 30
0.0
 41
1.0
 10
-13952.962219359859
 20
-1608.2011689410406
 30
0.0
 41
1.0
 10
-13952.950373799344
 20
-1608.1936351745217
 30
0.0
 41
1.0
 10
-13952.841180717014
 20
-1608.1241884660531
 30
0.0
 41
0.9997473449131951
 10
-13952.728976759749
 20
-1608.0597195082275
 30
0.0
 41
1.0
 10
-13952.616772802452
 20
-1607.9952505503866
 30
0.0
 41
0.9999327861147449
 10
-13952.503104191701
 20
-1607.9334005587118
 30
0.0
 41
1.0
 10
-13952.502552189158
 20
-1607.933100200042
 30
0.0
 41
1.0
 10
-13952.502000186614
 20
-1607.9327998413721
 30
0.0
 41
1.0
 10
-13952.387227570718
 20
-1607.8703491323267
 30
0.0
 41
0.999695642048354
 10
-13952.269514244892
 20
-1607.813635665359
 30
0.0
 41
1.0
 10
-13952.23907383999
 20
-1607.7989696886245
 30
0.0
 41
1.0
 10
-13952.208633435088
 20
-1607.7843037118901
 30
0.0
 41
1.0
 10
-13952.105656328351
 20
-1607.734690053451
 30
0.0
 41
0.9998070570179058
 10
-13952.00080993942
 20
-1607.6891594665531
 30
0.0
 41
1.0
 10
-13951.895963550453
 20
-1607.6436288796419
 30
0.0
 41
0.999782743614883
 10
-13951.789310613849
 20
-1607.6025077083325
 30
0.0
 41
1.0
 10
-13951.770087764227
 20
-1607.5950961347039
 30
0.0
 41
1.0
 10
-13951.750864914606
 20
-1607.5876845610755
 30
0.0
 41
1.0
 10
-13951.605766278739
 20
-1607.5317402425005
 30
0.0
 41
0.9988031841976184
 10
-13951.455895916126
 20
-1607.4902401783309
 30
0.0
 41
1.0
 10
-13951.430978667762
 20
-1607.4833404325236
 30
0.0
 41
1.0
 10
-13951.406061419397
 20
-1607.4764406867164
 30
0.0
 41
1.0
 10
-13951.238791393762
 20
-1607.430122544311
 30
0.0
 41
0.9984748040546199
 10
-13951.067434485107
 20
-1607.4025283120457
 30
0.0
 41
1.0
 10
-13951.062695348857
 20
-1607.4017651515323
 30
0.0
 41
1.0
 10
-13951.057956212609
 20
-1607.4010019910188
 30
0.0
 41
1.0
 10
-13950.896077576454
 20
-1607.3749340797801
 30
0.0
 41
0.9984436495479092
 10
-13950.732302832732
 20
-1607.3670561259621
 30
0.0
 41
1.0
 10
-13950.710605624601
 20
-1607.3660124387625
 30
0.0
 41
1.0
 10
-13950.68890841647
 20
-1607.3649687515629
 30
0.0
 41
1.0
 10
-13950.568528089016
 20
-1607.3591781721429
 30
0.0
 41
0.9987954789333402
 10
-13950.448159844098
 20
-1607.3652146998857
 30
0.0
 41
1.0
 10
-13950.428195051594
 20
-1607.3662159442247
 30
0.0
 41
1.0
 10
-13950.408230259089
 20
-1607.3672171885639
 30
0.0
 41
1.0
 10
-13950.327791599169
 20
-1607.3712512276295
 30
0.0
 41
0.9997941595878073
 10
-13950.247582821092
 20
-1607.378545293549
 30
0.0
 41
1.0
 10
-13950.167374043036
 20
-1607.3858393594662
 30
0.0
 41
0.9998589466238212
 10
-13950.087455496165
 20
-1607.3958232139175
 30
0.0
 41
1.0
 10
-13950.055049294346
 20
-1607.3998715708381
 30
0.0
 41
1.0
 10
-13950.022643092527
 20
-1607.4039199277586
 30
0.0
 41
1.0
 10
-13949.877912142054
 20
-1607.4220004960478
 30
0.0
 41
0.9993495063250324
 10
-13949.734860898279
 20
-1607.4504662057909
 30
0.0
 41
1.0
 10
-13949.701927201131
 20
-1607.4570196690051
 30
0.0
 41
1.0
 10
-13949.668993503983
 20
-1607.4635731322192
 30
0.0
 41
1.0
 10
-13949.559699680764
 20
-1607.4853214663576
 30
0.0
 41
0.9996788715560455
 10
-13949.451648108825
 20
-1607.5125792657168
 30
0.0
 41
1.0
 10
-13949.449585106286
 20
-1607.5130996922899
 30
0.0
 41
1.0
 10
-13949.447522103746
 20
-1607.5136201188627
 30
0.0
 41
1.0
 10
-13949.343596536879
 20
-1607.5398370650767
 30
0.0
 41
0.9995480654491767
 10
-13949.241434301639
 20
-1607.5722520217041
 30
0.0
 41
1.0
 10
-13949.239744659511
 20
-1607.5727881266175
 30
0.0
 41
1.0
 10
-13949.238055017384
 20
-1607.5733242315309
 30
0.0
 41
1.0
 10
-13949.13927206641
 20
-1607.6046669783284
 30
0.0
 41
0.9993867959454655
 10
-13949.042924907968
 20
-1607.6428463476184
 30
0.0
 41
1.0
 10
-13949.041681958865
 20
-1607.6433388895216
 30
0.0
 41
1.0
 10
-13949.040439009763
 20
-1607.6438314314248
 30
0.0
 41
1.0
 10
-13948.946577749502
 20
-1607.6810257169184
 30
0.0
 41
0.9992050256524072
 10
-13948.855978074491
 20
-1607.7255796161469
 30
0.0
 41
1.0
 10
-13948.855243391779
 20
-1607.7259409086068
 30
0.0
 41
1.0
 10
-13948.85450870907
 20
-1607.726302201067
 30
0.0
 41
1.0
 10
-13948.765378399456
 20
-1607.7701335153861
 30
0.0
 41
0.9990222350738439
 10
-13948.680468338065
 20
-1607.8216667830839
 30
0.0
 41
1.0
 10
-13948.680284452777
 20
-1607.8217783859914
 30
0.0
 41
1.0
 10
-13948.680100567492
 20
-1607.8218899888989
 30
0.0
 41
1.0
 10
-13948.595558276666
 20
-1607.8732000507878
 30
0.0
 41
0.9988642743808355
 10
-13948.516283742052
 20
-1607.9323242383075
 30
0.0
 41
1.0
 10
-13948.437009207448
 20
-1607.991448425819
 30
0.0
 41
0.9987681233305461
 10
-13948.363985423181
 20
-1608.0581391172118
 30
0.0
 41
1.0
 10
-13948.363656495203
 20
-1608.0584395184369
 30
0.0
 41
1.0
 10
-13948.363327567225
 20
-1608.058739919662
 30
0.0
 41
1.0
 10
-13948.289645927018
 20
-1608.126031413492
 30
0.0
 41
0.998749657090179
 10
-13948.223052121692
 20
-1608.2003442275752
 30
0.0
 41
1.0
 10
-13948.22227995193
 20
-1608.2012059009344
 30
0.0
 41
1.0
 10
-13948.221507782169
 20
-1608.2020675742936
 30
0.0
 41
1.0
 10
-13948.153369637303
 20
-1608.2781037351208
 30
0.0
 41
0.998814766983262
 10
-13948.092947383062
 20
-1608.3604047419844
 30
0.0
 41
1.0
 10
-13948.091828057
 20
-1608.3619293733141
 30
0.0
 41
1.0
 10
-13948.090708730941
 20
-1608.3634540046435
 30
0.0
 41
1.0
 10
-13948.028047824562
 20
-1608.4488042741887
 30
0.0
 41
0.9989452636219551
 10
-13947.9734809116
 20
-1608.5395429633459
 30
0.0
 41
1.0
 10
-13947.972132185514
 20
-1608.5417857443736
 30
0.0
 41
1.0
 10
-13947.970783459426
 20
-1608.5440285254012
 30
0.0
 41
1.0
 10
-13947.913519094292
 20
-1608.6392527766156
 30
0.0
 41
0.9991046436070767
 10
-13947.86450988097
 20
-1608.7389772096433
 30
0.0
 41
1.0
 10
-13947.863046019382
 20
-1608.7419558897127
 30
0.0
 41
1.0
 10
-13947.861582157793
 20
-1608.7449345697819
 30
0.0
 41
1.0
 10
-13947.809645221287
 20
-1608.8506163629652
 30
0.0
 41
0.9992763831103165
 10
-13947.765892092724
 20
-1608.9599404249404
 30
0.0
 41
1.0
 10
-13947.764412823068
 20
-1608.9636366124578
 30
0.0
 41
1.0
 10
-13947.762933553411
 20
-1608.9673327999753
 30
0.0
 41
1.0
 10
-13947.716221885517
 20
-1609.0840492370291
 30
0.0
 41
0.9994163472885959
 10
-13947.67758885432
 20
-1609.2036828255179
 30
0.0
 41
1.0
 10
-13947.676350702091
 20
-1609.2075169692453
 30
0.0
 41
1.0
 10
-13947.675112549861
 20
-1609.2113511129728
 30
0.0
 41
1.0
 10
-13947.635228988835
 20
-1609.33485717448
 30
0.0
 41
0.9997268055891845
 10
-13947.601160932914
 20
-1609.4600922064571
 30
0.0
 41
1.0
 10
-13947.600230752654
 20
-1609.4635115725341
 30
0.0
 41
1.0
 10
-13947.599300572392
 20
-1609.4669309386111
 30
0.0
 41
1.0
 10
-13947.567092877011
 20
-1609.5853272383786
 30
0.0
 41
0.9996701319001696
 10
-13947.541007260232
 20
-1609.7052211916712
 30
0.0
 41
1.0
 10
-13947.514921643466
 20
-1609.8251151449088
 30
0.0
 41
0.9995785451107199
 10
-13947.495838066132
 20
-1609.9463209059122
 30
0.0
 41
1.0
 10
-13947.491618283952
 20
-1609.9731220607136
 30
0.0
 41
1.0
 10
-13947.487398501773
 20
-1609.9999232155149
 30
0.0
 41
1.0
 10
-13947.460823525837
 20
-1610.1687091892093
 30
0.0
 41
0.9979925101216824
 10
-13947.455797939911
 20
-1610.3395005172911
 30
0.0
 41
1.0
 10
-13947.454973127486
 20
-1610.3675312407531
 30
0.0
 41
1.0
 10
-13947.454148315062
 20
-1610.3955619642154
 30
0.0
 41
1.0
 10
-13947.450772353985
 20
-1610.5102918453633
 30
0.0
 41
0.9995314902262025
 10
-13947.454422546123
 20
-1610.6250133291346
 30
0.0
 41
1.0
 10
-13947.458072738258
 20
-1610.7397348128434
 30
0.0
 41
0.999624548694298
 10
-13947.468001833384
 20
-1610.8540840839253
 30
0.0
 41
1.0
 10
-13947.468164881382
 20
-1610.8559618401032
 30
0.0
 41
1.0
 10
-13947.46832792938
 20
-1610.8578395962811
 30
0.0
 41
1.0
 10
-13947.478583120495
 20
-1610.9759443796502
 30
0.0
 41
0.9997286094998705
 10
-13947.494328444063
 20
-1611.0934432885183
 30
0.0
 41
1.0
 10
-13947.494721936717
 20
-1611.0963797132463
 30
0.0
 41
1.0
 10
-13947.49511542937
 20
-1611.099316137974
 30
0.0
 41
1.0
 10
-13947.511647738243
 20
-1611.2226878962683
 30
0.0
 41
0.9998265533969147
 10
-13947.532763196976
 20
-1611.3453583710527
 30
0.0
 41
1.0
 10
-13947.533439739113
 20
-1611.3492887495645
 30
0.0
 41
1.0
 10
-13947.534116281251
 20
-1611.353219128076
 30
0.0
 41
1.0
 10
-13947.556584824253
 20
-1611.4837503598503
 30
0.0
 41
0.999902253085495
 10
-13947.582694288858
 20
-1611.613602328465
 30
0.0
 41
1.0
 10
-13947.583672930028
 20
-1611.6184694708786
 30
0.0
 41
1.0
 10
-13947.5846515712
 20
-1611.6233366132924
 30
0.0
 41
1.0
 10
-13947.612718318145
 20
-1611.7629228667265
 30
0.0
 41
0.9999524761931636
 10
-13947.643501286988
 20
-1611.9019353599292
 30
0.0
 41
1.0
 10
-13947.644777394156
 20
-1611.907698119202
 30
0.0
 41
1.0
 10
-13947.646053501325
 20
-1611.9134608784748
 30
0.0
 41
1.0
 10
-13947.679388684533
 20
-1612.0639988903381
 30
0.0
 41
0.9999813588711953
 10
-13947.714559685353
 20
-1612.2141186030979
 30
0.0
 41
1.0
 10
-13947.716113610786
 20
-1612.2207511934212
 30
0.0
 41
1.0
 10
-13947.717667536221
 20
-1612.2273837837447
 30
0.0
 41
1.0
 10
-13947.755946387981
 20
-1612.3907686774673
 30
0.0
 41
0.9999955237676463
 10
-13947.795202266025
 20
-1612.5539215813319
 30
0.0
 41
1.0
 10
-13947.807483901601
 20
-1612.6049657716148
 30
0.0
 41
1.0
 10
-13947.819765537177
 20
-1612.656009961898
 30
0.0
 41
1.0
 10
-13947.883584686539
 20
-1612.921251247006
 30
0.0
 41
0.999999360485587
 10
-13947.948003633854
 20
-1613.1863474982974
 30
0.0
 41
1.0
 10
-13947.952722469272
 20
-1613.2057664058063
 30
0.0
 41
1.0
 10
-13947.95744130469
 20
-1613.2251853133153
 30
0.0
 41
1.0
 10
-13948.031297922975
 20
-1613.5291193801704
 30
0.0
 41
0.9999659914723533
 10
-13948.110157518882
 20
-1613.8317939268188
 30
0.0
 41
1.0
 10
-13948.115110207789
 20
-1613.8508030639086
 30
0.0
 41
1.0
 10
-13948.120062896696
 20
-1613.8698122009985
 30
0.0
 41
1.0
 10
-13948.208827870463
 20
-1614.2105050219934
 30
0.0
 41
0.999944197602765
 10
-13948.304770903456
 20
-1614.5492464473939
 30
0.0
 41
1.0
 10
-13948.321471421856
 20
-1614.6082101598331
 30
0.0
 41
1.0
 10
-13948.338171940257
 20
-1614.6671738722721
 30
0.0
 41
1.0
 10
-13948.467516010058
 20
-1615.123842722583
 30
0.0
 41
0.9999625120733987
 10
-13948.604748777363
 20
-1615.5782032565221
 30
0.0
 41
1.0
 10
-13948.640538720458
 20
-1615.6966992831917
 30
0.0
 41
1.0
 10
-13948.676328663554
 20
-1615.8151953098616
 30
0.0
 41
1.0
 10
-13948.750848867592
 20
-1616.0619223879482
 30
0.0
 41
0.9999793386304888
 10
-13948.828534890738
 20
-1616.3076710272146
 30
0.0
 41
1.0
 10
-13948.906220913876
 20
-1616.5534196664507
 30
0.0
 41
1.0
 10
-13948.917000472748
 20
-1616.5874375708254
 30
0.0
 41
1.0
 10
-13950.767373526016
 20
-1622.4745094932928
 30
0.0
 41
1.0
 10
-13952.617746579284
 20
-1628.3615814157604
 30
0.0
 41
1.0
 10
-13953.579003269308
 20
-1628.3615814157604
 30
0.0
 41
1.0
 10
-13954.540259959333
 20
-1628.3615814157604
 30
0.0
 41
1.0
 10
-13952.921315180654
 20
-1623.2135529139709
 30
0.0
 41
1.0
 10
-13951.302370401976
 20
-1618.0655244121815
 30
0.0
 41
1.0
 10
-13951.257204578829
 20
-1617.9214931900024
 30
0.0
 41
1.0
 10
-13951.212038755684
 20
-1617.777461967823
 30
0.0
 41
1.0
 10
-13951.041734338291
 20
-1617.2343709385605
 30
0.0
 41
0.999991165790885
 10
-13950.876001526583
 20
-1616.6898674071156
 30
0.0
 41
1.0
 10
-13950.846305583023
 20
-1616.5923034668681
 30
0.0
 41
1.0
 10
-13950.816609639463
 20
-1616.4947395266208
 30
0.0
 41
1.0
 10
-13950.710268714833
 20
-1616.1453638755154
 30
0.0
 41
0.9999952428162188
 10
-13950.606085125579
 20
-1615.7953388514024
 30
0.0
 41
1.0
 10
-13950.6010256552
 20
-1615.7783405769746
 30
0.0
 41
1.0
 10
-13950.595966184823
 20
-1615.7613423025468
 30
0.0
 41
1.0
 10
-13950.501901536212
 20
-1615.4453138269137
 30
0.0
 41
0.9999931687529592
 10
-13950.41017569838
 20
-1615.1285986137823
 30
0.0
 41
1.0
 10
-13950.405240433913
 20
-1615.1115579044863
 30
0.0
 41
1.0
 10
-13950.400305169447
 20
-1615.0945171951903
 30
0.0
 41
1.0
 10
-13950.318449860501
 20
-1614.8118834004933
 30
0.0
 41
0.9999893840820725
 10
-13950.239202634049
 20
-1614.5285072712652
 30
0.0
 41
1.0
 10
-13950.159955407595
 20
-1614.2451311420295
 30
0.0
 41
0.9999833980072043
 10
-13950.083979166859
 20
-1613.9608605590204
 30
0.0
 41
1.0
 10
-13950.074975230145
 20
-1613.9271716805742
 30
0.0
 41
1.0
 10
-13950.06597129343
 20
-1613.8934828021283
 30
0.0
 41
1.0
 10
-13949.997006744552
 20
-1613.6354469697812
 30
0.0
 41
0.9999233658065924
 10
-13949.934451773319
 20
-1613.3757828110122
 30
0.0
 41
1.0
 10
-13949.871896802098
 20
-1613.1161186522897
 30
0.0
 41
1.0
 10
-13949.832413383241
 20
-1612.9523119878636
 30
0.0
 41
1.0
 10
-13949.827434779287
 20
-1612.931657026088
 30
0.0
 41
1.0
 10
-13949.822456175332
 20
-1612.9110020643122
 30
0.0
 41
1.0
 10
-13949.792929964407
 20
-1612.7885053235389
 30
0.0
 41
0.9999868670855441
 10
-13949.764660880388
 20
-1612.665712377792
 30
0.0
 41
1.0
 10
-13949.760763393228
 20
-1612.6487827903661
 30
0.0
 41
1.0
 10
-13949.756865906069
 20
-1612.63185320294
 30
0.0
 41
1.0
 10
-13949.73639179639
 20
-1612.5429194321371
 30
0.0
 41
0.9999778173349343
 10
-13949.717104198277
 20
-1612.4537208149161
 30
0.0
 41
1.0
 10
-13949.697816600181
 20
-1612.3645221977758
 30
0.0
 41
0.999960269286405
 10
-13949.680122241565
 20
-1612.2749939094397
 30
0.0
 41
1.0
 10
-13949.67691840947
 20
-1612.2587834544638
 30
0.0
 41
1.0
 10
-13949.673714577375
 20
-1612.2425729994879
 30
0.0
 41
1.0
 10
-13949.649612554585
 20
-1612.120623801268
 30
0.0
 41
0.99956179853203
 10
-13949.632769207363
 20
-1611.9974620535388
 30
0.0
 41
1.0
 10
-13949.630304717457
 20
-1611.9794412361759
 30
0.0
 41
1.0
 10
-13949.627840227551
 20
-1611.9614204188131
 30
0.0
 41
1.0
 10
-13949.607556966504
 20
-1611.813105369132
 30
0.0
 41
0.9991121410635725
 10
-13949.599831612921
 20
-1611.6636092703457
 30
0.0
 41
1.0
 10
-13949.598912822898
 20
-1611.6458294337801
 30
0.0
 41
1.0
 10
-13949.597994032873
 20
-1611.6280495972146
 30
0.0
 41
1.0
 10
-13949.592106259333
 20
-1611.51411317155
 30
0.0
 41
0.9989792494908217
 10
-13949.596525351451
 20
-1611.4001103356409
 30
0.0
 41
1.0
 10
-13949.59717332332
 20
-1611.3833940897057
 30
0.0
 41
1.0
 10
-13949.597821295189
 20
-1611.3666778437705
 30
0.0
 41
1.0
 10
-13949.600944443568
 20
-1611.2861074997354
 30
0.0
 41
0.9997820295391353
 10
-13949.607428440944
 20
-1611.2057377779986
 30
0.0
 41
1.0
 10
-13949.613912438313
 20
-1611.1253680563216
 30
0.0
 41
0.999833510597537
 10
-13949.623324633814
 20
-1611.0452884399431
 30
0.0
 41
1.0
 10
-13949.624919558499
 20
-1611.0317187093906
 30
0.0
 41
1.0
 10
-13949.626514483183
 20
-1611.0181489788383
 30
0.0
 41
1.0
 10
-13949.639116528044
 20
-1610.9109299014535
 30
0.0
 41
0.9996876457880987
 10
-13949.657060440835
 20
-1610.8044744737665
 30
0.0
 41
1.0
 10
-13949.65929210399
 20
-1610.7912347384722
 30
0.0
 41
1.0
 10
-13949.661523767145
 20
-1610.7779950031779
 30
0.0
 41
1.0
 10
-13949.675319588561
 20
-1610.6961488592397
 30
0.0
 41
0.9995547496493282
 10
-13949.693972910449
 20
-1610.6152713620731
 30
0.0
 41
1.0
 10
-13949.694346867323
 20
-1610.6136499513509
 30
0.0
 41
1.0
 10
-13949.6947208242
 20
-1610.6120285406289
 30
0.0
 41
1.0
 10
-13949.712626232345
 20
-1610.5343938648682
 30
0.0
 41
0.9994899427172459
 10
-13949.735451141021
 20
-1610.4580605820474
 30
0.0
 41
1.0
 10
-13949.73590966775
 20
-1610.4565271322986
 30
0.0
 41
1.0
 10
-13949.736368194479
 20
-1610.4549936825497
 30
0.0
 41
1.0
 10
-13949.758276049688
 20
-1610.3817272992558
 30
0.0
 41
0.9993784877596943
 10
-13949.785291684808
 20
-1610.3101865940541
 30
0.0
 41
1.0
 10
-13949.785823375789
 20
-1610.3087786113215
 30
0.0
 41
1.0
 10
-13949.78635506677
 20
-1610.3073706285891
 30
0.0
 41
1.0
 10
-13949.812307319919
 20
-1610.2386458888836
 30
0.0
 41
0.999243083225554
 10
-13949.843523855074
 20
-1610.1721467368268
 30
0.0
 41
1.0
 10
-13949.844105971129
 20
-1610.1709066817095
 30
0.0
 41
1.0
 10
-13949.844688087187
 20
-1610.1696666265923
 30
0.0
 41
1.0
 10
-13949.874740390234
 20
-1610.1056475847554
 30
0.0
 41
0.9990789632790345
 10
-13949.910171017011
 20
-1610.0444409730089
 30
0.0
 41
1.0
 10
-13949.9107667232
 20
-1610.0434118871376
 30
0.0
 41
1.0
 10
-13949.91136242939
 20
-1610.0423828012663
 30
0.0
 41
1.0
 10
-13949.945601643796
 20
-1609.9832343612456
 30
0.0
 41
0.9988874801114334
 10
-13949.985260919819
 20
-1609.9275746488415
 30
0.0
 41
1.0
 10
-13949.985816445889
 20
-1609.9267949971568
 30
0.0
 41
1.0
 10
-13949.986371971961
 20
-1609.926015345472
 30
0.0
 41
1.0
 10
-13950.024920195858
 20
-1609.8719149364135
 30
0.0
 41
0.9986762060688834
 10
-13950.068822667126
 20
-1609.8220612219843
 30
0.0
 41
1.0
 10
-13950.069266627455
 20
-1609.8215570801722
 30
0.0
 41
1.0
 10
-13950.069710587783
 20
-1609.8210529383598
 30
0.0
 41
1.0
 10
-13950.112725138404
 20
-1609.7722075075444
 30
0.0
 41
0.9984621642486785
 10
-13950.160882695181
 20
-1609.7284242070741
 30
0.0
 41
1.0
 10
-13950.161129329696
 20
-1609.7281999749127
 30
0.0
 41
1.0
 10
-13950.16137596421
 20
-1609.7279757427514
 30
0.0
 41
1.0
 10
-13950.209040251955
 20
-1609.6846409066068
 30
0.0
 41
0.998272469385899
 10
-13950.261458883801
 20
-1609.6471965560854
 30
0.0
 41
1.0
 10
-13950.313877515631
 20
-1609.6097522055761
 30
0.0
 41
0.9981399180176788
 10
-13950.370463579016
 20
-1609.5789656861336
 30
0.0
 41
1.0
 10
-13950.370509241104
 20
-1609.5789408429719
 30
0.0
 41
1.0
 10
-13950.370554903191
 20
-1609.5789159998099
 30
0.0
 41
1.0
 10
-13950.427232290738
 20
-1609.5480797940527
 30
0.0
 41
0.998092708683223
 10
-13950.487277641805
 20
-1609.5244629852009
 30
0.0
 41
1.0
 10
-13950.487717811518
 20
-1609.5242898593251
 30
0.0
 41
1.0
 10
-13950.488157981232
 20
-1609.5241167334495
 30
0.0
 41
1.0
 10
-13950.549083671725
 20
-1609.500153672845
 30
0.0
 41
0.9981411356554109
 10
-13950.612472193128
 20
-1609.4837810313397
 30
0.0
 41
1.0
 10
-13950.613354309826
 20
-1609.4835531891351
 30
0.0
 41
1.0
 10
-13950.614236426525
 20
-1609.4833253469305
 30
0.0
 41
1.0
 10
-13950.67938918133
 20
-1609.4664970210124
 30
0.0
 41
0.9983031812927355
 10
-13950.746056610327
 20
-1609.4573576598368
 30
0.0
 41
1.0
 10
-13950.754927635728
 20
-1609.4561415411658
 30
0.0
 41
1.0
 10
-13950.76379866113
 20
-1609.4549254224951
 30
0.0
 41
1.0
 10
-13950.818148303628
 20
-1609.4474746925052
 30
0.0
 41
0.9983887708270459
 10
-13950.872992152925
 20
-1609.4462300188707
 30
0.0
 41
1.0
 10
-13950.881055558142
 20
-1609.4460470209958
 30
0.0
 41
1.0
 10
-13950.88911896336
 20
-1609.445864023121
 30
0.0
 41
1.0
 10
-13950.927836002249
 20
-1609.4449853452368
 30
0.0
 41
0.9998869563076421
 10
-13950.966561955422
 20
-1609.4452712145971
 30
0.0
 41
1.0
 10
-13951.005287908618
 20
-1609.4455570839559
 30
0.0
 41
0.999997232013806
 10
-13951.044012087823
 20
-1609.4460251834857
 30
0.0
 41
1.0
 10
-13951.063365104408
 20
-1609.4462591235751
 30
0.0
 41
1.0
 10
-13951.082718120993
 20
-1609.4464930636645
 30
0.0
 41
1.0
 10
-13951.160148333376
 20
-1609.4474290433725
 30
0.0
 41
0.9997304945086136
 10
-13951.237451639605
 20
-1609.4519581371587
 30
0.0
 41
1.0
 10
-13951.246501281308
 20
-1609.4524883431486
 30
0.0
 41
1.0
 10
-13951.255550923011
 20
-1609.4530185491385
 30
0.0
 41
1.0
 10
-13951.350953512661
 20
-1609.4586080549054
 30
0.0
 41
0.9997888306417601
 10
-13951.446045848497
 20
-1609.4681130193928
 30
0.0
 41
1.0
 10
-13951.454766910072
 20
-1609.4689847340251
 30
0.0
 41
1.0
 10
-13951.463487971647
 20
-1609.4698564486575
 30
0.0
 41
1.0
 10
-13951.576022430629
 20
-1609.4811048424108
 30
0.0
 41
0.9984170238193975
 10
-13951.686581577987
 20
-1609.5049209243473
 30
0.0
 41
1.0
 10
-13951.722962708976
 20
-1609.5127579601542
 30
0.0
 41
1.0
 10
-13951.759343839967
 20
-1609.5205949959611
 30
0.0
 41
1.0
 10
-13951.87453490838
 20
-1609.5454088624697
 30
0.0
 41
0.9976592854204442
 10
-13951.985263074785
 20
-1609.5857075396157
 30
0.0
 41
1.0
 10
-13952.095991241198
 20
-1609.6260062167669
 30
0.0
 41
0.9993255074353776
 10
-13952.203463039983
 20
-1609.6743231152566
 30
0.0
 41
1.0
 10
-13952.208088218904
 20
-1609.6764024914555
 30
0.0
 41
1.0
 10
-13952.212713397827
 20
-1609.6784818676547
 30
0.0
 41
1.0
 10
-13952.329435554466
 20
-1609.7309575185466
 30
0.0
 41
0.9976475078271567
 10
-13952.437882898777
 20
-1609.7989055082069
 30
0.0
 41
1.0
 10
-13952.456225292899
 20
-1609.8103979870127
 30
0.0
 41
1.0
 10
-13952.474567687021
 20
-1609.8218904658186
 30
0.0
 41
1.0
 10
-13952.558769878571
 20
-1609.8746475865867
 30
0.0
 41
0.9995131336410597
 10
-13952.639517593554
 20
-1609.9325537985558
 30
0.0
 41
1.0
 10
-13952.720265308508
 20
-1609.9904600105069
 30
0.0
 41
0.999581010760875
 10
-13952.797526956223
 20
-1610.0529416929605
 30
0.0
 41
1.0
 10
-13952.800496987442
 20
-1610.0553435644324
 30
0.0
 41
1.0
 10
-13952.803467018661
 20
-1610.0577454359041
 30
0.0
 41
1.0
 10
-13952.886668728836
 20
-1610.1250308613212
 30
0.0
 41
0.999661783795347
 10
-13952.966259415985
 20
-1610.1965513168971
 30
0.0
 41
1.0
 10
-13952.978390166836
 20
-1610.2074520498634
 30
0.0
 41
1.0
 10
-13952.990520917687
 20
-1610.2183527828297
 30
0.0
 41
1.0
 10
-13953.058796445102
 20
-1610.2797053983188
 30
0.0
 41
0.9997267750051518
 10
-13953.124129953379
 20
-1610.3441819348386
 30
0.0
 41
1.0
 10
-13953.18946346164
 20
-1610.4086584713393
 30
0.0
 41
0.999966728896557
 10
-13953.253736404789
 20
-1610.4741922782378
 30
0.0
 41
1.0
 10
-13953.322563852575
 20
-1610.5443699370064
 30
0.0
 41
1.0
 10
-13953.39139130036
 20
-1610.6145475957751
 30
0.0
 41
1.0
 10
-13953.593319139058
 20
-1610.8204367201854
 30
0.0
 41
0.9988205335174476
 10
-13953.774324756037
 20
-1611.0449409522466
 30
0.0
 41
1.0
 10
-13953.804964720941
 20
-1611.0829442026766
 30
0.0
 41
1.0
 10
-13953.835604685846
 20
-1611.1209474531063
 30
0.0
 41
1.0
 10
-13954.07789023264
 20
-1611.4214581860331
 30
0.0
 41
0.9997077826755654
 10
-13954.305368183755
 20
-1611.7333279802631
 30
0.0
 41
1.0
 10
-13954.307091598879
 20
-1611.7356907636326
 30
0.0
 41
1.0
 10
-13954.308815014001
 20
-1611.7380535470022
 30
0.0
 41
1.0
 10
-13954.539739795369
 20
-1612.0546489079804
 30
0.0
 41
0.9989147567079032
 10
-13954.740203298254
 20
-1612.3913583691644
 30
0.0
 41
1.0
 10
-13954.764944443559
 20
-1612.4329149497148
 30
0.0
 41
1.0
 10
-13954.789685588865
 20
-1612.474471530265
 30
0.0
 41
1.0
 10
-13954.944896887499
 20
-1612.7351729147131
 30
0.0
 41
0.9997476598182682
 10
-13955.088241875012
 20
-1613.0025826633025
 30
0.0
 41
1.0
 10
-13955.231586862523
 20
-1613.2699924118906
 30
0.0
 41
0.9996258967111042
 10
-13955.360095114454
 20
-1613.5448403485107
 30
0.0
 41
1.0
 10
-13955.373295023935
 20
-1613.573071748674
 30
0.0
 41
1.0
 10
-13955.386494933417
 20
-1613.6013031488374
 30
0.0
 41
1.0
 10
-13955.526703654388
 20
-1613.9011755467316
 30
0.0
 41
0.9998735413944038
 10
-13955.657305001072
 20
-1614.2053551461213
 30
0.0
 41
1.0
 10
-13955.66074782917
 20
-1614.2133737316715
 30
0.0
 41
1.0
 10
-13955.664190657266
 20
-1614.2213923172217
 30
0.0
 41
1.0
 10
-13955.787906347832
 20
-1614.5095347456809
 30
0.0
 41
0.9999377418857247
 10
-13955.905161149967
 20
-1614.8003662132642
 30
0.0
 41
1.0
 10
-13956.022415952126
 20
-1615.0911976809002
 30
0.0
 41
0.9999508299501694
 10
-13956.133879895495
 20
-1615.3842973576934
 30
0.0
 41
1.0
 10
-13956.136960664171
 20
-1615.3923983836912
 30
0.0
 41
1.0
 10
-13956.140041432845
 20
-1615.400499409689
 30
0.0
 41
1.0
 10
-13956.257666913556
 20
-1615.7098011384633
 30
0.0
 41
0.9999609228426398
 10
-13956.369805516437
 20
-1616.0211341544966
 30
0.0
 41
1.0
 10
-13956.372761526778
 20
-1616.0293409948845
 30
0.0
 41
1.0
 10
-13956.375717537121
 20
-1616.0375478352726
 30
0.0
 41
1.0
 10
-13956.493768160684
 20
-1616.3652945320805
 30
0.0
 41
0.9999674607398832
 10
-13956.606515686753
 20
-1616.6949031520787
 30
0.0
 41
1.0
 10
-13956.657914077357
 20
-1616.8451623478941
 30
0.0
 41
1.0
 10
-13956.709312467963
 20
-1616.9954215437094
 30
0.0
 41
1.0
 10
-13956.825323074683
 20
-1617.3345695260984
 30
0.0
 41
0.999928753230571
 10
-13956.933204478617
 20
-1617.676390264965
 30
0.0
 41
1.0
 10
-13956.979681735091
 20
-1617.8236528103912
 30
0.0
 41
1.0
 10
-13957.026158991563
 20
-1617.9709153558172
 30
0.0
 41
1.0
 10
-13957.041085882956
 20
-1618.0182110051114
 30
0.0
 41
0.9999998222677488
 10
-13957.055956391318
 20
-1618.0655244121815
 30
0.0
 41
1.0
 10
-13958.676612528114
 20
-1623.2135529139709
 30
0.0
 41
1.0
 10
-13960.297268664908
 20
-1628.3615814157604
 30
0.0
 41
1.0
 10
-13961.202577108799
 20
-1628.3615814157604
 30
0.0
 41
1.0
 10
-13962.10788555269
 20
-1628.3615814157604
 30
0.0
 41
1.0
 10
-13960.255801141304
 20
-1622.4745094932928
 30
0.0
 41
1.0
 10
-13958.403716729918
 20
-1616.5874375708254
 30
0.0
 41
1.0
 10
-13958.393594971614
 20
-1616.5553943573757
 30
0.0
 41
1.0
 10
-13958.320987302764
 20
-1616.3250948155498
 30
0.0
 41
1.0
 10
-13958.248379633857
 20
-1616.0947952735405
 30
0.0
 41
0.9999825681974094
 10
-13958.178496594599
 20
-1615.8636543783134
 30
0.0
 41
1.0
 10
-13958.130205532481
 20
-1615.7039297949573
 30
0.0
 41
1.0
 10
-13958.081914470362
 20
-1615.5442052116014
 30
0.0
 41
1.0
 10
-13957.984762117057
 20
-1615.2228699898624
 30
0.0
 41
0.9999672528965788
 10
-13957.892823311442
 20
-1614.9000044443092
 30
0.0
 41
1.0
 10
-13957.890034427804
 20
-1614.8902105990351
 30
0.0
 41
1.0
 10
-13957.887245544169
 20
-1614.880416753761
 30
0.0
 41
1.0
 10
-13957.800884505848
 20
-1614.5771388988242
 30
0.0
 41
0.9999899749162229
 10
-13957.717242896284
 20
-1614.2730998102702
 30
0.0
 41
1.0
 10
-13957.707136977278
 20
-1614.2363645726373
 30
0.0
 41
1.0
 10
-13957.697031058275
 20
-1614.1996293350046
 30
0.0
 41
1.0
 10
-13957.633601286765
 20
-1613.9690607218677
 30
0.0
 41
0.999921420050329
 10
-13957.575971858372
 20
-1613.7369743796085
 30
0.0
 41
1.0
 10
-13957.563206006173
 20
-1613.685563494133
 30
0.0
 41
1.0
 10
-13957.550440153971
 20
-1613.6341526086576
 30
0.0
 41
1.0
 10
-13957.518342429978
 20
-1613.5048880373351
 30
0.0
 41
0.999982868166877
 10
-13957.487760177999
 20
-1613.3752565629318
 30
0.0
 41
1.0
 10
-13957.457177925999
 20
-1613.2456250884409
 30
0.0
 41
0.9999389844478054
 10
-13957.429466937208
 20
-1613.1153496325348
 30
0.0
 41
1.0
 10
-13957.42232919349
 20
-1613.0817935287123
 30
0.0
 41
1.0
 10
-13957.415191449774
 20
-1613.0482374248895
 30
0.0
 41
1.0
 10
-13957.37320497355
 20
-1612.8508497613425
 30
0.0
 41
0.9998933699441188
 10
-13957.337000709153
 20
-1612.6523201536149
 30
0.0
 41
1.0
 10
-13957.335627883931
 20
-1612.6447921328888
 30
0.0
 41
1.0
 10
-13957.334255058709
 20
-1612.6372641121627
 30
0.0
 41
1.0
 10
-13957.295305143871
 20
-1612.4236784629916
 30
0.0
 41
0.9996850305193433
 10
-13957.26712146761
 20
-1612.208407457533
 30
0.0
 41
1.0
 10
-13957.265126434242
 20
-1612.1931691034179
 30
0.0
 41
1.0
 10
-13957.263131400874
 20
-1612.1779307493025
 30
0.0
 41
1.0
 10
-13957.235723538417
 20
-1611.9685855221608
 30
0.0
 41
0.9994697936706375
 10
-13957.221998979199
 20
-1611.7579003268452
 30
0.0
 41
1.0
 10
-13957.221521909949
 20
-1611.7505768546093
 30
0.0
 41
1.0
 10
-13957.221044840697
 20
-1611.7432533823737
 30
0.0
 41
1.0
 10
-13957.208274419978
 20
-1611.5472151314898
 30
0.0
 41
0.9991804893135788
 10
-13957.211402736251
 20
-1611.3507862815409
 30
0.0
 41
1.0
 10
-13957.211486615073
 20
-1611.3455194801481
 30
0.0
 41
1.0
 10
-13957.211570493895
 20
-1611.3402526787554
 30
0.0
 41
1.0
 10
-13957.214531052525
 20
-1611.1543574315867
 30
0.0
 41
0.9988448329323286
 10
-13957.23532259815
 20
-1610.9696048417341
 30
0.0
 41
1.0
 10
-13957.236916671853
 20
-1610.9554399859528
 30
0.0
 41
1.0
 10
-13957.238510745558
 20
-1610.9412751301716
 30
0.0
 41
1.0
 10
-13957.256114143775
 20
-1610.7848522518898
 30
0.0
 41
0.9985503209454655
 10
-13957.290430416073
 20
-1610.6312280678114
 30
0.0
 41
1.0
 10
-13957.29801640814
 20
-1610.5972677404266
 30
0.0
 41
1.0
 10
-13957.305602400207
 20
-1610.5633074130415
 30
0.0
 41
1.0
 10
-13957.324746688368
 20
-1610.4776038837401
 30
0.0
 41
0.9991036781372837
 10
-13957.351071550023
 20
-1610.3938267963972
 30
0.0
 41
1.0
 10
-13957.355053775475
 20
-1610.3811536338999
 30
0.0
 41
1.0
 10
-13957.359036000928
 20
-1610.3684804714028
 30
0.0
 41
1.0
 10
-13957.377396411668
 20
-1610.3100497090895
 30
0.0
 41
0.9998874504369528
 10
-13957.397501619351
 20
-1610.2521961068489
 30
0.0
 41
1.0
 10
-13957.417606827026
 20
-1610.1943425046366
 30
0.0
 41
0.9994041637544556
 10
-13957.441655439952
 20
-1610.1380138007655
 30
0.0
 41
1.0
 10
-13957.445852224175
 20
-1610.1281837362853
 30
0.0
 41
1.0
 10
-13957.450049008397
 20
-1610.1183536718054
 30
0.0
 41
1.0
 10
-13957.4779278394
 20
-1610.0530535058197
 30
0.0
 41
0.9991846840706751
 10
-13957.5109841961
 20
-1609.9902154745246
 30
0.0
 41
1.0
 10
-13957.512120802496
 20
-1609.9880548580697
 30
0.0
 41
1.0
 10
-13957.513257408891
 20
-1609.9858942416149
 30
0.0
 41
1.0
 10
-13957.544040552793
 20
-1609.9273774432438
 30
0.0
 41
0.9989253167921555
 10
-13957.580109976849
 20
-1609.8719625148542
 30
0.0
 41
1.0
 10
-13957.581164101528
 20
-1609.8703430200821
 30
0.0
 41
1.0
 10
-13957.582218226209
 20
-1609.8687235253101
 30
0.0
 41
1.0
 10
-13957.616179400911
 20
-1609.8165475864532
 30
0.0
 41
0.9986467172834095
 10
-13957.655376553541
 20
-1609.7681815528344
 30
0.0
 41
1.0
 10
-13957.656250682237
 20
-1609.7671029505627
 30
0.0
 41
1.0
 10
-13957.657124810932
 20
-1609.766024348291
 30
0.0
 41
1.0
 10
-13957.694573706171
 20
-1609.7198155192132
 30
0.0
 41
0.9984001104272886
 10
-13957.737000436695
 20
-1609.6781304118358
 30
0.0
 41
1.0
 10
-13957.737587574802
 20
-1609.6775535369566
 30
0.0
 41
1.0
 10
-13957.738174712909
 20
-1609.6769766620771
 30
0.0
 41
1.0
 10
-13957.779427167214
 20
-1609.6364453044648
 30
0.0
 41
0.9982442159074652
 10
-13957.825183268549
 20
-1609.6010767432069
 30
0.0
 41
1.0
 10
-13957.825398064013
 20
-1609.6009107105619
 30
0.0
 41
1.0
 10
-13957.825612859477
 20
-1609.6007446779172
 30
0.0
 41
1.0
 10
-13957.870939369885
 20
-1609.5657081819475
 30
0.0
 41
0.9982450060838181
 10
-13957.920090348956
 20
-1609.5362763989133
 30
0.0
 41
1.0
 10
-13957.969241328025
 20
-1609.5068446158816
 30
0.0
 41
0.9983922639632749
 10
-13958.021407634191
 20
-1609.483164981227
 30
0.0
 41
1.0
 10
-13958.021634511517
 20
-1609.4830619957447
 30
0.0
 41
1.0
 10
-13958.021861388843
 20
-1609.4829590102627
 30
0.0
 41
1.0
 10
-13958.074481449647
 20
-1609.4590734046503
 30
0.0
 41
0.9986517147156989
 10
-13958.129294422515
 20
-1609.4407722855265
 30
0.0
 41
1.0
 10
-13958.129972343948
 20
-1609.4405459390937
 30
0.0
 41
1.0
 10
-13958.130650265379
 20
-1609.4403195926611
 30
0.0
 41
1.0
 10
-13958.186819081106
 20
-1609.4215657806756
 30
0.0
 41
0.9989435598954741
 10
-13958.24447246825
 20
-1609.4080480784432
 30
0.0
 41
1.0
 10
-13958.245552587834
 20
-1609.4077948281897
 30
0.0
 41
1.0
 10
-13958.246632707418
 20
-1609.4075415779359
 30
0.0
 41
1.0
 10
-13958.306446333716
 20
-1609.3935173751991
 30
0.0
 41
0.999224924124135
 10
-13958.367177842611
 20
-1609.3842420324831
 30
0.0
 41
1.0
 10
-13958.368591530911
 20
-1609.3840261240739
 30
0.0
 41
1.0
 10
-13958.370005219211
 20
-1609.3838102156647
 30
0.0
 41
1.0
 10
-13958.433564104691
 20
-1609.3741030561343
 30
0.0
 41
0.9994396597838555
 10
-13958.497630041236
 20
-1609.3686701337872
 30
0.0
 41
1.0
 10
-13958.516770708709
 20
-1609.3670469660688
 30
0.0
 41
1.0
 10
-13958.535911376184
 20
-1609.3654237983505
 30
0.0
 41
1.0
 10
-13958.63825864767
 20
-1609.3567445405688
 30
0.0
 41
0.9987693403125647
 10
-13958.740962271262
 20
-1609.3582476040203
 30
0.0
 41
1.0
 10
-13958.751216605488
 20
-1609.3583976757945
 30
0.0
 41
1.0
 10
-13958.761470939713
 20
-1609.3585477475688
 30
0.0
 41
1.0
 10
-13958.871026705898
 20
-1609.3601510918568
 30
0.0
 41
0.9989753644968886
 10
-13958.979988705913
 20
-1609.3716540987812
 30
0.0
 41
1.0
 10
-13959.088950705931
 20
-1609.3831571057058
 30
0.0
 41
0.9983190067301491
 10
-13959.195849516895
 20
-1609.4071920974932
 30
0.0
 41
1.0
 10
-13959.204750468502
 20
-1609.409193376056
 30
0.0
 41
1.0
 10
-13959.213651420108
 20
-1609.4111946546186
 30
0.0
 41
1.0
 10
-13959.338352134282
 20
-1609.4392322035303
 30
0.0
 41
0.9985539388307023
 10
-13959.459321887958
 20
-1609.4804958795746
 30
0.0
 41
1.0
 10
-13959.461667318921
 20
-1609.4812959233914
 30
0.0
 41
1.0
 10
-13959.464012749884
 20
-1609.4820959672079
 30
0.0
 41
1.0
 10
-13959.589673365481
 20
-1609.524959730885
 30
0.0
 41
0.9988468746495764
 10
-13959.710643707776
 20
-1609.5796778159447
 30
0.0
 41
1.0
 10
-13959.713826529769
 20
-1609.5811174905061
 30
0.0
 41
1.0
 10
-13959.71700935176
 20
-1609.5825571650676
 30
0.0
 41
1.0
 10
-13959.844345338048
 20
-1609.6401545992544
 30
0.0
 41
0.9991322885918231
 10
-13959.966445922108
 20
-1609.7081499314386
 30
0.0
 41
1.0
 10
-13959.984047933156
 20
-1609.717952133431
 30
0.0
 41
1.0
 10
-13960.001649944204
 20
-1609.7277543354232
 30
0.0
 41
1.0
 10
-13960.103826625249
 20
-1609.7846544511972
 30
0.0
 41
0.9993860037850803
 10
-13960.201767629314
 20
-1609.8485704667805
 30
0.0
 41
1.0
 10
-13960.207385942165
 20
-1609.8522369614743
 30
0.0
 41
1.0
 10
-13960.213004255016
 20
-1609.8559034561681
 30
0.0
 41
1.0
 10
-13960.299708633374
 20
-1609.9124864823602
 30
0.0
 41
0.9998821494954252
 10
-13960.384635009199
 20
-1609.9717047124459
 30
0.0
 41
1.0
 10
-13960.469561385031
 20
-1610.0309229425357
 30
0.0
 41
0.999797648274414
 10
-13960.552037015468
 20
-1610.0935093506027
 30
0.0
 41
1.0
 10
-13960.566673280247
 20
-1610.1046160403635
 30
0.0
 41
1.0
 10
-13960.581309545027
 20
-1610.1157227301239
 30
0.0
 41
1.0
 10
-13960.69305770505
 20
-1610.2005225177318
 30
0.0
 41
0.9998091630798389
 10
-13960.801407983075
 20
-1610.289622868434
 30
0.0
 41
1.0
 10
-13960.814413735548
 20
-1610.3003179688765
 30
0.0
 41
1.0
 10
-13960.827419488021
 20
-1610.311013069319
 30
0.0
 41
1.0
 10
-13960.961781271004
 20
-1610.4215036209116
 30
0.0
 41
0.999503511231708
 10
-13961.088917148778
 20
-1610.5402374379366
 30
0.0
 41
1.0
 10
-13961.09856445916
 20
-1610.5492471840898
 30
0.0
 41
1.0
 10
-13961.108211769542
 20
-1610.5582569302433
 30
0.0
 41
1.0
 10
-13961.231634832315
 20
-1610.6735233020058
 30
0.0
 41
0.99946304242997
 10
-13961.347243238091
 20
-1610.796626045234
 30
0.0
 41
1.0
 10
-13961.350926076859
 20
-1610.8005476247415
 30
0.0
 41
1.0
 10
-13961.354608915624
 20
-1610.804469204249
 30
0.0
 41
1.0
 10
-13961.46285164387
 20
-1610.9197287884635
 30
0.0
 41
0.9995160693749688
 10
-13961.563717673407
 20
-1611.0414962063419
 30
0.0
 41
1.0
 10
-13961.56565139351
 20
-1611.0438306305757
 30
0.0
 41
1.0
 10
-13961.567585113611
 20
-1611.0461650548095
 30
0.0
 41
1.0
 10
-13961.664583702957
 20
-1611.1632636242352
 30
0.0
 41
0.99965614705132
 10
-13961.755309921606
 20
-1611.2852863866635
 30
0.0
 41
1.0
 10
-13961.76146758753
 20
-1611.2935681757358
 30
0.0
 41
1.0
 10
-13961.767625253453
 20
-1611.3018499648083
 30
0.0
 41
1.0
 10
-13961.846036140289
 20
-1611.4073091491377
 30
0.0
 41
0.9998349055173141
 10
-13961.920563422203
 20
-1611.5155477327762
 30
0.0
 41
1.0
 10
-13961.995090704178
 20
-1611.6237863165006
 30
0.0
 41
0.9999728109571161
 10
-13962.068013600156
 20
-1611.7331122421599
 30
0.0
 41
1.0
 10
-13962.069328815513
 20
-1611.7350840115798
 30
0.0
 41
1.0
 10
-13962.07064403087
 20
-1611.7370557809998
 30
0.0
 41
1.0
 10
-13962.146197357593
 20
-1611.8503252455455
 30
0.0
 41
0.9999972147378178
 10
-13962.221215167956
 20
-1611.9639500883648
 30
0.0
 41
1.0
 10
-13962.226186710588
 20
-1611.9714801768528
 30
0.0
 41
1.0
 10
-13962.23115825322
 20
-1611.9790102653405
 30
0.0
 41
1.0
 10
-13962.316119148865
 20
-1612.1076952851597
 30
0.0
 41
0.999937197900538
 10
-13962.398174498279
 20
-1612.2382521989562
 30
0.0
 41
1.0
 10
-13962.401683382624
 20
-1612.2438351269925
 30
0.0
 41
1.0
 10
-13962.405192266968
 20
-1612.2494180550291
 30
0.0
 41
1.0
 10
-13962.494265385085
 20
-1612.3911408249151
 30
0.0
 41
0.9998272025609486
 10
-13962.578008775963
 20
-1612.5360767016505
 30
0.0
 41
1.0
 10
-13962.593223947995
 20
-1612.562409816122
 30
0.0
 41
1.0
 10
-13962.608439120027
 20
-1612.5887429305935
 30
0.0
 41
1.0
 10
-13962.722612854963
 20
-1612.7863450362586
 30
0.0
 41
0.9995217214837668
 10
-13962.824352544527
 20
-1612.9906273641402
 30
0.0
 41
1.0
 10
-13962.831996107136
 20
-1613.0059748137912
 30
0.0
 41
1.0
 10
-13962.839639669746
 20
-1613.0213222634422
 30
0.0
 41
1.0
 10
-13962.926544962353
 20
-1613.1958187215566
 30
0.0
 41
0.999826976260808
 10
-13963.006899428645
 20
-1613.3734270083221
 30
0.0
 41
1.0
 10
-13963.087253894924
 20
-1613.55103529506
 30
0.0
 41
0.9998944747385629
 10
-13963.16241468949
 20
-1613.7309030206936
 30
0.0
 41
1.0
 10
-13963.167368359094
 20
-1613.7427576756431
 30
0.0
 41
1.0
 10
-13963.172322028699
 20
-1613.7546123305926
 30
0.0
 41
1.0
 10
-13963.252969089235
 20
-1613.9476092705727
 30
0.0
 41
0.9999506734410248
 10
-13963.329766618121
 20
-1614.1421700753849
 30
0.0
 41
1.0
 10
-13963.344366583455
 20
-1614.1791579973517
 30
0.0
 41
1.0
 10
-13963.358966548789
 20
-1614.2161459193185
 30
0.0
 41
1.0
 10
-13963.406564147082
 20
-1614.3367308803895
 30
0.0
 41
0.9999912393960426
 10
-13963.453150591045
 20
-1614.457710082937
 30
0.0
 41
1.0
 10
-13963.499737034921
 20
-1614.5786892852477
 30
0.0
 41
0.9999927113995766
 10
-13963.545398329194
 20
-1614.7000206924206
 30
0.0
 41
1.0
 10
-13963.559366760726
 20
-1614.7371376747765
 30
0.0
 41
1.0
 10
-13963.573335192259
 20
-1614.7742546571326
 30
0.0
 41
1.0
 10
-13963.646933349433
 20
-1614.9698200285889
 30
0.0
 41
0.999948755094905
 10
-13963.716556974396
 20
-1615.1668353937491
 30
0.0
 41
1.0
 10
-13963.740150584355
 20
-1615.2335987041058
 30
0.0
 41
1.0
 10
-13963.763744194315
 20
-1615.3003620144625
 30
0.0
 41
1.0
 10
-13963.85842982867
 20
-1615.568295849238
 30
0.0
 41
0.9999808436940135
 10
-13963.949791417306
 20
-1615.8373812804898
 30
0.0
 41
1.0
 10
-13964.04115300603
 20
-1616.1064667119952
 30
0.0
 41
0.9999873932923075
 10
-13964.129807714837
 20
-1616.3764560672892
 30
0.0
 41
1.0
 10
-13964.149900071621
 20
-1616.4376453997813
 30
0.0
 41
1.0
 10
-13964.169992428404
 20
-1616.4988347322735
 30
0.0
 41
1.0
 10
-13964.298831850865
 20
-1616.8912027528056
 30
0.0
 41
0.9999794883029628
 10
-13964.422634635821
 20
-1617.2851889590734
 30
0.0
 41
1.0
 10
-13964.433786895388
 20
-1617.3206795697217
 30
0.0
 41
1.0
 10
-13964.444939154953
 20
-1617.3561701803701
 30
0.0
 41
1.0
 10
-13964.587497318698
 20
-1617.8098429319689
 30
0.0
 41
0.9999982761769682
 10
-13964.728369758606
 20
-1618.2640419537538
 30
0.0
 41
1.0
 10
-13966.316510091179
 20
-1623.312811684757
 30
0.0
 41
1.0
 10
-13967.904650423752
 20
-1628.3615814157604
 30
0.0
 41
1.0
 10
-13968.853401035229
 20
-1628.3615814157604
 30
0.0
 41
1.0
 10
-13969.802151646705
 20
-1628.3615814157604
 30
0.0
 41
1.0
 10
-13966.563867160552
 20
-1618.0342592158142
 30
0.0
 41
1.0
 10
-13963.325582674399
 20
-1607.7069370158681
 30
0.0
 41
1.0
  0
LWPOLYLINE
  5
5A
100
AcDbEntity
  8
0
370
              15
390
0
  6
Continuous
 62
               7
100
AcDbPolyline
 90
      232
 70
             128
 10
-13989.029128448226
 20
-1608.7912798473833
 42
0.0004370800647031
 10
-13989.08200562252
 20
-1608.859946486928
 10
-13989.121289853425
 20
-1608.911053599536
 42
0.0030481992157072
 10
-13989.251628570555
 20
-1609.0827752918963
 10
-13989.290140242294
 20
-1609.1341620756684
 42
0.0042058245754793
 10
-13989.494125292966
 20
-1609.4111678207455
 10
-13989.546530415464
 20
-1609.4836006675228
 42
0.0120948898733129
 10
-13989.84257433218
 20
-1609.9143502720015
 10
-13989.938766831345
 20
-1610.0618310072909
 42
0.0141601263950922
 10
-13990.242410878271
 20
-1610.5575003440322
 10
-13990.281948145701
 20
-1610.6263443114715
 42
0.0071131081302179
 10
-13990.487220468935
 20
-1610.9958471103021
 42
0.0068458791020104
 10
-13990.682099995776
 20
-1611.3709386737721
 10
-13990.688911858237
 20
-1611.3845003875017
 42
0.0064120880285392
 10
-13990.887054108271
 20
-1611.7919248623994
 10
-13990.894588793797
 20
-1611.8079367191419
 42
0.0058857236427908
 10
-13991.097344185686
 20
-1612.2523128302141
 10
-13991.105519111963
 20
-1612.2708029838109
 42
0.0053189741890912
 10
-13991.314223424657
 20
-1612.7567664577937
 10
-13991.322971230311
 20
-1612.777748335925
 42
0.0047503650412459
 10
-13991.538944956383
 20
-1613.3099477689295
 10
-13991.548213204811
 20
-1613.3334241452426
 42
0.0042071762153147
 10
-13991.772760588521
 20
-1613.9165177392626
 10
-13991.782509990888
 20
-1613.942483914182
 42
0.0036680086463032
 10
-13992.016964634195
 20
-1614.5811192986985
 10
-13992.027172414048
 20
-1614.6095678330576
 42
0.0032573142631301
 10
-13992.272804700073
 20
-1615.3084204929821
 10
-13992.341455220881
 20
-1615.5078835769439
 42
0.0026133366651581
 10
-13992.689900419613
 20
-1616.5377468605359
 10
-13992.753157207084
 20
-1616.7279776958389
 42
0.0020592950726187
 10
-13992.967020276079
 20
-1617.380081348542
 10
-13992.970072067139
 20
-1617.3895178366352
 42
0.0025609928545091
 10
-13993.171892568729
 20
-1618.0246630593176
 10
-13993.174483935934
 20
-1618.0329654005072
 42
0.0031362356253881
 10
-13993.363974721531
 20
-1618.6537282564377
 10
-13993.366105764484
 20
-1618.6608695627319
 42
0.0037229918028427
 10
-13993.542906151386
 20
-1619.2698548646231
 10
-13993.544584740592
 20
-1619.2758017547937
 42
0.004307762370427
 10
-13993.708325542659
 20
-1619.8756204865663
 42
0.0047654161821607
 10
-13993.861154265162
 20
-1620.4783065754236
 10
-13993.895618874012
 20
-1620.6198683526186
 42
0.0112969368449197
 10
-13994.091483232165
 20
-1621.5115605132755
 10
-13994.119489621255
 20
-1621.6543885593405
 42
0.0130056762563907
 10
-13994.320326864901
 20
-1622.8413296309855
 10
-13994.340866615039
 20
-1622.9854077443979
 42
0.0138721532130278
 10
-13994.444569619585
 20
-1623.8922372302882
 10
-13994.463865107487
 20
-1624.1157349521475
 42
0.0071254696995823
 10
-13994.497211753416
 20
-1624.5789219610606
 10
-13994.502172727593
 20
-1624.6649259558608
 42
0.002888179922732
 10
-13994.517311020867
 20
-1624.9566676654631
 42
0.0060297297175936
 10
-13994.527243220642
 20
-1625.2486166015797
 10
-13994.52830550231
 20
-1625.2970089735284
 42
0.0229523164182087
 10
-13994.520574474525
 20
-1625.6197638197946
 10
-13994.516348701005
 20
-1625.6801673538116
 42
0.0123673300697822
 10
-13994.497270054486
 20
-1625.8812880789856
 42
0.0128577674474069
 10
-13994.468074664086
 20
-1626.081185928879
 10
-13994.460948790693
 20
-1626.1225147435093
 42
0.0285717853797852
 10
-13994.396454788995
 20
-1626.4006308948321
 10
-13994.382786265343
 20
-1626.4472856642572
 42
0.0316283099126933
 10
-13994.266975685416
 20
-1626.7663001661258
 10
-13994.26392699367
 20
-1626.7732865384276
 42
0.033898482423438
 10
-13994.114495282694
 20
-1627.0608525026405
 10
-13994.112186553328
 20
-1627.06464353191
 42
0.0350228718323482
 10
-13993.929826262651
 20
-1627.3216955165933
 10
-13993.928941010863
 20
-1627.3227745943725
 42
0.0347476747545502
 10
-13993.714516323635
 20
-1627.5499596415775
 42
0.0331337701932876
 10
-13993.471272997898
 20
-1627.7460883036479
 10
-13993.470172899373
 20
-1627.7468610068272
 42
0.030523331903525
 10
-13993.201628203806
 20
-1627.911989176916
 10
-13993.198398159298
 20
-1627.9137131887815
 42
0.0273744481185357
 10
-13992.905844447721
 20
-1628.0498513326734
 10
-13992.900739912588
 20
-1628.0518949171415
 42
0.0240964406183545
 10
-13992.585262836928
 20
-1628.1608786434265
 10
-13992.578679507731
 20
-1628.162803383098
 42
0.0209636179793713
 10
-13992.241279355063
 20
-1628.246271531033
 10
-13992.233646894631
 20
-1628.2478234440314
 42
0.0181388704693567
 10
-13991.875324502633
 20
-1628.3072395372451
 10
-13991.867043654252
 20
-1628.3083057210624
 42
0.0156086547583318
 10
-13991.488856290067
 20
-1628.3450419076389
 10
-13991.445661037747
 20
-1628.3478804101173
 42
0.0137148329036589
 10
-13991.117987892438
 20
-1628.3604006653695
 10
-13991.072051702489
 20
-1628.3608950984847
 42
0.005105782389448
 10
-13990.835906115921
 20
-1628.3610253528936
 42
0.0052256693307688
 10
-13990.599808832148
 20
-1628.3562765284298
 10
-13990.529582048392
 20
-1628.3541295624154
 42
0.0161507179023224
 10
-13990.153844970293
 20
-1628.3304791920893
 10
-13990.133832009917
 20
-1628.3285689968013
 42
0.0101216737828207
 10
-13989.719804788427
 20
-1628.2805760664357
 10
-13989.685751499001
 20
-1628.2759283696262
 42
0.0245291776414675
 10
-13989.208961843447
 20
-1628.1868532915496
 10
-13989.124138527934
 20
-1628.1666573712062
 42
0.0143509212548623
 10
-13988.767507423985
 20
-1628.0708527374254
 42
0.0156557857046861
 10
-13988.417291359245
 20
-1627.9538415216014
 10
-13988.409790144764
 20
-1627.9510713598524
 42
0.0170137333623057
 10
-13988.053194149092
 20
-1627.8054137449856
 10
-13988.046090226675
 20
-1627.8022259094175
 42
0.0183105364415501
 10
-13987.686740558514
 20
-1627.6248908675959
 10
-13987.67979379387
 20
-1627.6211404327209
 42
0.0194899958153939
 10
-13987.321313052893
 20
-1627.4091614508343
 10
-13987.314299173549
 20
-1627.4046361085352
 42
0.0204869852948769
 10
-13986.960284871433
 20
-1627.155116093433
 10
-13986.953019262868
 20
-1627.149536028101
 42
0.0212516938571827
 10
-13986.60702933175
 20
-1626.8596320311974
 10
-13986.560512637694
 20
-1626.8171647211225
 42
0.0215248918269586
 10
-13986.300486468797
 20
-1626.5584004421185
 10
-13986.255456734418
 20
-1626.5095563207685
 42
0.0114578555013259
 10
-13986.100664580739
 20
-1626.3337333873101
 10
-13986.08947004471
 20
-1626.3204146237135
 42
0.0061531305206475
 10
-13985.962995398757
 20
-1626.166125090459
 42
0.0006325587117448
 10
-13985.838616914669
 20
-1626.010121714864
 10
-13985.815576779554
 20
-1625.981148194124
 42
0.0041897761525006
 10
-13985.647121375539
 20
-1625.7656288180081
 10
-13985.588659255689
 20
-1625.6895274710769
 42
0.0092993880035946
 10
-13985.31204732846
 20
-1625.3152487071854
 10
-13985.229652835264
 20
-1625.1993117036193
 42
0.0159321727071325
 10
-13984.883046352625
 20
-1624.6771374828684
 10
-13984.83869021723
 20
-1624.6054579186082
 42
0.0085547317032555
 10
-13984.604178451909
 20
-1624.2115829693937
 42
0.0084601156878056
 10
-13984.383202274485
 20
-1623.809956120394
 10
-13984.375086800637
 20
-1623.7945964380885
 42
0.008142965427427
 10
-13984.151837530242
 20
-1623.3548749256327
 10
-13984.142977366017
 20
-1623.3366960835283
 42
0.0076574581332883
 10
-13983.916569855461
 20
-1622.8535132083014
 10
-13983.907090214725
 20
-1622.8324487299724
 42
0.0070682724205127
 10
-13983.676645306903
 20
-1622.3004114251528
 10
-13983.666655022937
 20
-1622.2764222361793
 42
0.0064559514437406
 10
-13983.4313218148
 20
-1621.6901099697764
 10
-13983.42091245659
 20
-1621.6631750442184
 42
0.0058311413917514
 10
-13983.179865719843
 20
-1621.017142949876
 10
-13983.169110642441
 20
-1620.987258608674
 42
0.0052312425832986
 10
-13982.921529364341
 20
-1620.2760561946659
 10
-13982.91048552802
 20
-1620.2432294827699
 42
0.0046680544808333
 10
-13982.655557100277
 20
-1619.4614031669892
 10
-13982.61356495011
 20
-1619.3284199293048
 42
0.0041666856466924
 10
-13982.410278937847
 20
-1618.6654511547174
 10
-13982.37261649703
 20
-1618.5388700465537
 42
0.0015170975172414
 10
-13982.25142991877
 20
-1618.12700169557
 42
-0.0004887993124551
 10
-13982.13109014558
 20
-1617.7148832833002
 10
-13982.054612888151
 20
-1617.4539258975869
 42
0.0002583378930805
 10
-13981.781398318019
 20
-1616.5198691941703
 10
-13981.699625468798
 20
-1616.2397699358107
 42
0.000663616966201
 10
-13981.505757708499
 20
-1615.5724170112378
 10
-13981.500661054104
 20
-1615.5547854281951
 42
0.0010589131323721
 10
-13981.319212353235
 20
-1614.9220540853089
 10
-13981.314230282584
 20
-1614.9045411776874
 42
0.0015655524479257
 10
-13981.145960075573
 20
-1614.305924499088
 10
-13981.141129875239
 20
-1614.2885323404407
 42
0.0021640440475555
 10
-13980.986839903171
 20
-1613.7235053221339
 10
-13980.982205683686
 20
-1613.7062405919335
 42
0.0028763871867948
 10
-13980.842689965688
 20
-1613.1742726412931
 10
-13980.838304101519
 20
-1613.1571486631331
 42
0.0037310511950494
 10
-13980.714347409685
 20
-1612.6577010691149
 10
-13980.710272189413
 20
-1612.6407407979455
 42
0.0047652197771667
 10
-13980.602648288886
 20
-1612.1732630295642
 10
-13980.598957689581
 20
-1612.1565034744947
 42
0.0060276699294355
 10
-13980.50842759041
 20
-1611.72042767927
 10
-13980.505208900166
 20
-1611.7039264651858
 42
0.0075824337703241
 10
-13980.432519590704
 20
-1611.2986593005346
 10
-13980.429874213311
 20
-1611.2825043529976
 42
0.0095130624660534
 10
-13980.375758977694
 20
-1610.9074150000124
 10
-13980.368772753809
 20
-1610.8514814418784
 42
0.0121054653227459
 10
-13980.342181423233
 20
-1610.5865856134219
 10
-13980.341314933472
 20
-1610.5751821704682
 42
0.0069050827394329
 10
-13980.326226115436
 20
-1610.3322409436487
 10
-13980.325090815772
 20
-1610.3087146866956
 42
0.0169063976578282
 10
-13980.322263536786
 20
-1610.1125219593032
 10
-13980.32343418832
 20
-1610.0521861978223
 42
0.0052007733009829
 10
-13980.325687636911
 20
-1609.9765928078018
 42
0.0054038123330102
 10
-13980.345651148737
 20
-1609.856574511874
 10
-13980.350737004621
 20
-1609.8279160252107
 42
0.0112050460536443
 10
-13980.386121366702
 20
-1609.6515895867653
 10
-13980.403946328719
 20
-1609.572048000151
 42
0.024076446799147
 10
-13980.494843694874
 20
-1609.2418109646248
 10
-13980.513402457664
 20
-1609.1851907997045
 42
0.0256812331812153
 10
-13980.656765377869
 20
-1608.8134665933985
 10
-13980.662174803683
 20
-1608.8013352584235
 42
0.0268360501220274
 10
-13980.83160204454
 20
-1608.4703421243878
 10
-13980.837138452147
 20
-1608.4608224541232
 42
0.0274670231675796
 10
-13981.029339428589
 20
-1608.1685350791581
 10
-13981.034720728565
 20
-1608.1612559315988
 42
0.0275035967109358
 10
-13981.246293608114
 20
-1607.9057400413128
 10
-13981.251363109084
 20
-1607.9002609536778
 42
0.0269557673494696
 10
-13981.478766652519
 20
-1607.6796186677202
 10
-13981.483509710291
 20
-1607.6754887132681
 42
0.0259124802199819
 10
-13981.723064541733
 20
-1607.4877981861068
 10
-13981.727595386898
 20
-1607.484612683789
 42
0.024516215300305
 10
-13981.975511740009
 20
-1607.3278796746663
 10
-13981.980038286321
 20
-1607.3253194774725
 42
0.0229282588855755
 10
-13982.232457843162
 20
-1607.1974512849665
 10
-13982.237238337002
 20
-1607.1952989852032
 42
0.0212984135730557
 10
-13982.49027628946
 20
-1607.0941000679622
 10
-13982.495580574432
 20
-1607.0922365052011
 42
0.0197555462327415
 10
-13982.745358912152
 20
-1607.0154210872374
 42
0.0183511896805438
 10
-13983.000287637631
 20
-1606.9578381802687
 10
-13983.086652834343
 20
-1606.941635389886
 42
0.033805787717697
 10
-13983.372160183597
 20
-1606.9078269847464
 10
-13983.463165588642
 20
-1606.9032473294849
 42
0.009199052457596
 10
-13983.569012697273
 20
-1606.8998714735631
 42
0.0028333980705431
 10
-13983.674926613274
 20
-1606.8990433660465
 10
-13983.675842066315
 20
-1606.8990413962224
 42
-0.0023619827746577
 10
-13983.78358808142
 20
-1606.8983005551438
 10
-13983.819993251598
 20
-1606.8978782486806
 42
0.0008824598505113
 10
-13984.000549241313
 20
-1606.8961024704436
 10
-13984.044410673854
 20
-1606.8957485089168
 42
0.0038132665733753
 10
-13984.312693569744
 20
-1606.8956295728503
 10
-13984.329227224527
 20
-1606.8957483389938
 42
0.0060665569349433
 10
-13984.630507716127
 20
-1606.9015686384148
 10
-13984.644758048144
 20
-1606.9020169463822
 42
0.0080356953366538
 10
-13984.974216764484
 20
-1606.9176846684493
 10
-13984.986286779569
 20
-1606.9184532513896
 42
0.0098996399130277
 10
-13985.339049864222
 20
-1606.9479384805882
 10
-13985.349095573594
 20
-1606.9489787767859
 42
0.0117740981372757
 10
-13985.720252431933
 20
-1606.9962710243142
 10
-13985.728475128426
 20
-1606.9975161408865
 42
0.0137435215126713
 10
-13986.113063947923
 20
-1607.066613114451
 10
-13986.119720987033
 20
-1607.0679990106819
 42
0.0158359869384348
 10
-13986.512718080847
 20
-1607.1628910991649
 10
-13986.518131267705
 20
-1607.164381040033
 42
0.0180554124018456
 10
-13986.914446312327
 20
-1607.2890190562753
 10
-13986.9190031004
 20
-1607.2906350925382
 42
0.020365743128303
 10
-13987.313480618212
 20
-1607.4488954340543
 10
-13987.317624157218
 20
-1607.4507570554956
 42
0.0226819684650943
 10
-13987.705060213406
 20
-1607.646399634157
 10
-13987.709260004442
 20
-1607.6487652260867
 42
0.0248634984611497
 10
-13988.08444194561
 20
-1607.8853918720258
 10
-13988.132636874374
 20
-1607.9192489138372
 42
0.0267044190872688
 10
-13988.406929571323
 20
-1608.1346892897277
 42
0.013930300214774
 10
-13988.663096737229
 20
-1608.3719281306089
 10
-13988.667950122981
 20
-1608.3766807934996
 42
0.0283460963445662
 10
-13988.912022717215
 20
-1608.6444114539524
 10
-13988.951691222366
 20
-1608.6932130314178
 42
0.0070695364835376
 10
-13989.029128448226
 20
-1608.7912798473833
 42
0.0070695364835376
  0
LWPOLYLINE
  5
5B
100
AcDbEntity
  8
0
370
              15
390
0
  6
Continuous
 62
               7
100
AcDbPolyline
 90
      226
 70
             128
 10
-13992.557948885473
 20
-1624.5128686535672
 42
-0.0026277636943163
 10
-13992.558026769275
 20
-1624.4460967284988
 10
-13992.557809411041
 20
-1624.3929415103812
 42
-0.0088680296653925
 10
-13992.554032794747
 20
-1624.2199257279387
 10
-13992.551686435636
 20
-1624.1606457025246
 42
-0.0077381705646143
 10
-13992.535640324886
 20
-1623.86938520692
 10
-13992.534772413699
 20
-1623.8570969730413
 42
-0.0068872530508556
 10
-13992.508140333945
 20
-1623.5418752209318
 10
-13992.506936109763
 20
-1623.5296342419533
 42
-0.0062130021536736
 10
-13992.469342392957
 20
-1623.19076455087
 10
-13992.467838489401
 20
-1623.1785906787984
 42
-0.0056726929651881
 10
-13992.418916629898
 20
-1622.8163954566776
 10
-13992.417143184255
 20
-1622.8043016564397
 42
-0.0052341884512839
 10
-13992.356532598034
 20
-1622.4191084011609
 10
-13992.354514609218
 20
-1622.4071034709293
 42
-0.0049768450171937
 10
-13992.281775927791
 20
-1621.9992589035046
 10
-13992.257526913068
 20
-1621.8707109204906
 42
-0.0089029805639463
 10
-13992.120446061273
 20
-1621.208935473067
 10
-13992.087700685955
 20
-1621.0639040425449
 42
-0.0080318257103835
 10
-13991.858152071622
 20
-1620.1181944107104
 10
-13991.846167145168
 20
-1620.0720637755012
 42
-0.007426572130902
 10
-13991.5621556063
 20
-1619.0419991970532
 10
-13991.542276063214
 20
-1618.9738651365678
 42
-0.0069711922700194
 10
-13991.214971484695
 20
-1617.9075973962031
 10
-13991.155019537582
 20
-1617.7215760378119
 42
-0.0052070422897809
 10
-13990.92559431233
 20
-1617.0343039608013
 10
-13990.908313120055
 20
-1616.9842766798856
 42
-0.0009167004447636
 10
-13990.705221232867
 20
-1616.3998208320299
 42
-0.0025162726964393
 10
-13990.498123602758
 20
-1615.8167795682882
 10
-13990.460898990546
 20
-1615.7136300212567
 42
-0.0028212681433847
 10
-13990.212723071836
 20
-1615.0378993897912
 10
-13990.202892309204
 20
-1615.0115919454297
 42
-0.0031964916843232
 10
-13989.966600051423
 20
-1614.3913871829873
 10
-13989.956965597361
 20
-1614.3665771926821
 42
-0.0036281836463192
 10
-13989.731859636322
 20
-1613.799136511951
 10
-13989.72242122611
 20
-1613.7758390803128
 42
-0.004126916682651
 10
-13989.507803529506
 20
-1613.2583981844698
 10
-13989.475170573027
 20
-1613.1815197379706
 42
-0.0047472213061871
 10
-13989.318125767531
 20
-1612.8210982702253
 10
-13989.311231686337
 20
-1612.8056776729254
 42
-0.0025651660007758
 10
-13989.162873652474
 20
-1612.4783496171449
 42
-0.0057144635016725
 10
-13989.009123958753
 20
-1612.1535399438833
 10
-13988.981093253255
 20
-1612.0960315612904
 42
-0.0065388068333486
 10
-13988.797626225562
 20
-1611.7317990647232
 10
-13988.789167769761
 20
-1611.7155394853119
 42
-0.0074510843013908
 10
-13988.612985523905
 20
-1611.3888512042308
 10
-13988.604805853347
 20
-1611.3742104269147
 42
-0.0084648979841266
 10
-13988.435172000274
 20
-1611.082301416001
 10
-13988.427315873731
 20
-1611.069294424258
 42
-0.0095638542778558
 10
-13988.263480426192
 20
-1610.8094055523716
 10
-13988.256005482483
 20
-1610.7980361908583
 42
-0.0107191626782279
 10
-13988.097203902133
 20
-1610.5674249563722
 10
-13988.090187168433
 20
-1610.557688864051
 42
-0.0118458573937341
 10
-13987.935639069889
 20
-1610.3536166686968
 42
-0.0129184518211425
 10
-13987.771186446298
 20
-1610.1574561525381
 10
-13987.74104167392
 20
-1610.1233300736203
 42
-0.0217742579615905
 10
-13987.564429351591
 20
-1609.9401233033768
 10
-13987.553683807129
 20
-1609.9299064701727
 42
-0.0097266568666663
 10
-13987.387626188272
 20
-1609.7780588957364
 42
-0.0187720905727539
 10
-13987.213278612395
 20
-1609.6359900423556
 10
-13987.182572621698
 20
-1609.6128309599437
 42
-0.0179428207501243
 10
-13986.950151901714
 20
-1609.4502787828394
 10
-13986.946499574789
 20
-1609.4479148479461
 42
-0.0170047877660063
 10
-13986.710735937268
 20
-1609.3064543338
 10
-13986.706952948538
 20
-1609.3043560287736
 42
-0.0160190788372842
 10
-13986.470044400885
 20
-1609.1827047267757
 42
-0.0151102861543504
 10
-13986.226012618448
 20
-1609.0760219507249
 10
-13986.173626116226
 20
-1609.0549818178265
 42
-0.0271945441862755
 10
-13985.814963557163
 20
-1608.9331170071184
 10
-13985.745898756686
 20
-1608.9137674658552
 42
-0.0237596594004169
 10
-13985.330101909658
 20
-1608.8183167538728
 10
-13985.262039055924
 20
-1608.8060620657452
 42
-0.0213715440530214
 10
-13984.976164124482
 20
-1608.767115034236
 10
-13984.916016958272
 20
-1608.7615253195356
 42
-0.0101465655802093
 10
-13984.748524426272
 20
-1608.7493817762711
 10
-13984.739184040067
 20
-1608.7488948612736
 42
-0.0100375910891584
 10
-13984.590029939511
 20
-1608.7441190433485
 10
-13984.579770669832
 20
-1608.7439966043341
 42
-0.0103625633327896
 10
-13984.451062675174
 20
-1608.7451280378607
 10
-13984.428797023902
 20
-1608.7457853963258
 42
-0.0115689250153153
 10
-13984.344746286381
 20
-1608.7502149025709
 42
-0.0072438037472096
 10
-13984.260908006951
 20
-1608.7578041023189
 10
-13984.244107497467
 20
-1608.7595706450443
 42
-0.0217917313045919
 10
-13984.127537734139
 20
-1608.7769905377679
 10
-13984.061937643588
 20
-1608.7897371461793
 42
-0.0332943556701661
 10
-13983.857545478557
 20
-1608.843777437487
 10
-13983.827372909982
 20
-1608.8539455146142
 42
-0.0184824084823352
 10
-13983.688867853543
 20
-1608.906396529992
 42
-0.0198002050681835
 10
-13983.554793513042
 20
-1608.9692805901918
 10
-13983.552906875666
 20
-1608.9702583770711
 42
-0.0212242342974192
 10
-13983.420767933261
 20
-1609.0460211158666
 10
-13983.418952637721
 20
-1609.0471669180724
 42
-0.0226090605794079
 10
-13983.290448736487
 20
-1609.1366465616475
 10
-13983.288604294763
 20
-1609.1380588146244
 42
-0.0238457052261105
 10
-13983.165422213469
 20
-1609.2420547104873
 10
-13983.163469484911
 20
-1609.2438695882529
 42
-0.0248160564068624
 10
-13983.047267977581
 20
-1609.3631441894929
 10
-13983.045164344207
 20
-1609.3655295231661
 42
-0.0254109591487867
 10
-13982.937559126342
 20
-1609.5008179091303
 10
-13982.935311104427
 20
-1609.503959457531
 42
-0.0255528488233476
 10
-13982.837864425634
 20
-1609.6559865117583
 10
-13982.835533325713
 20
-1609.6600681233731
 42
-0.0252146793172953
 10
-13982.749752299693
 20
-1609.8295703693939
 10
-13982.747450060546
 20
-1609.8347524512828
 42
-0.0244265635947436
 10
-13982.674795366789
 20
-1610.0224990233212
 10
-13982.665548965315
 20
-1610.0503644416733
 42
-0.0231319612934683
 10
-13982.619626186326
 20
-1610.2136654884689
 42
-0.0112130424395617
 10
-13982.584990163783
 20
-1610.3798690886881
 10
-13982.583787638676
 20
-1610.3863656755448
 42
-0.0210527881253132
 10
-13982.558101163306
 20
-1610.5674213209591
 10
-13982.554590568481
 20
-1610.6028268695334
 42
-0.0190029892399618
 10
-13982.539149094937
 20
-1610.8563627158182
 10
-13982.538339118493
 20
-1610.8918383301748
 42
-0.0137974553680578
 10
-13982.539887971327
 20
-1611.2168697368511
 10
-13982.540733426285
 20
-1611.2429884814937
 42
-0.0081336634223768
 10
-13982.555592761508
 20
-1611.5483359491002
 42
-0.0073526923540499
 10
-13982.579901294896
 20
-1611.8530841935235
 10
-13982.581162718665
 20
-1611.8664208680514
 42
-0.006688613872775
 10
-13982.616898304701
 20
-1612.1970069114584
 10
-13982.618555394181
 20
-1612.2106285305399
 42
-0.0061359187325646
 10
-13982.666405996255
 20
-1612.5673925107942
 10
-13982.668443497305
 20
-1612.5812873134691
 42
-0.0056698610069092
 10
-13982.729093828055
 20
-1612.9645658822176
 10
-13982.731499261394
 20
-1612.9787250015379
 42
-0.0052721077250026
 10
-13982.805631462221
 20
-1613.388852341353
 10
-13982.808394611036
 20
-1613.4032689766018
 42
-0.0049289272175179
 10
-13982.896688729115
 20
-1613.8405774876278
 10
-13982.899801223819
 20
-1613.8552463405401
 42
-0.0047415956713928
 10
-13983.003039215348
 20
-1614.3200430979375
 10
-13983.03780742571
 20
-1614.469850193334
 42
-0.0084404470887105
 10
-13983.227823869296
 20
-1615.2300742179214
 10
-13983.233950557267
 20
-1615.2529383420185
 42
-0.0039635940242866
 10
-13983.455404241604
 20
-1616.0539272064448
 10
-13983.468781036732
 20
-1616.1008588228578
 42
-0.0072475040836974
 10
-13983.736227924581
 20
-1616.9900785392006
 10
-13983.806440251385
 20
-1617.211818889095
 42
-0.0051345458842439
 10
-13984.093199623481
 20
-1618.0861440770311
 10
-13984.114725890428
 20
-1618.1495703446899
 42
-0.0019150016581234
 10
-13984.370259297115
 20
-1618.8931194643872
 10
-13984.37672690165
 20
-1618.9117069297081
 42
-0.0021524362745112
 10
-13984.625204952576
 20
-1619.6160327510165
 10
-13984.634415373181
 20
-1619.6417863290626
 42
-0.0024331286835015
 10
-13984.870670632306
 20
-1620.2923856374364
 10
-13984.879718584945
 20
-1620.3169289440291
 42
-0.0027449721774951
 10
-13985.104333155694
 20
-1620.9160588227151
 10
-13985.113223163084
 20
-1620.9393814125601
 42
-0.0031083229768534
 10
-13985.326765649697
 20
-1621.489305450147
 10
-13985.335501781366
 20
-1621.5113951659876
 42
-0.0035311343281559
 10
-13985.538542966962
 20
-1622.0143782917348
 10
-13985.547128306109
 20
-1622.0352210152441
 42
-0.0040245640956447
 10
-13985.740240109906
 20
-1622.4935303378375
 10
-13985.748676223524
 20
-1622.5131097059427
 42
-0.0046015135853227
 10
-13985.932432516673
 20
-1622.9290147355518
 10
-13985.940718694485
 20
-1622.9473118749675
 42
-0.0052768638257966
 10
-13986.115696213456
 20
-1623.3230847592743
 10
-13986.123828424026
 20
-1623.340078097699
 42
-0.0060672675640041
 10
-13986.290608036848
 20
-1623.6779937209317
 10
-13986.298577517364
 20
-1623.6936589799955
 42
-0.0069904648832347
 10
-13986.457745911332
 20
-1623.9959947865927
 10
-13986.465537310936
 20
-1624.0103053358071
 42
-0.008063702277757
 10
-13986.617689171289
 20
-1624.2793406389731
 10
-13986.625278203956
 20
-1624.2922685046333
 42
-0.009300645566058
 10
-13986.771018880452
 20
-1624.530282903077
 10
-13986.778369547177
 20
-1624.5418008722215
 42
-0.0107060778047652
 10
-13986.918318090633
 20
-1624.7510711896291
 10
-13986.925379858878
 20
-1624.7611567321467
 42
-0.0122723111444081
 10
-13987.060173577112
 20
-1624.9439500616841
 10
-13987.060499800662
 20
-1624.9443704494886
 42
-0.0141836319665143
 10
-13987.204081403641
 20
-1625.1189402073232
 10
-13987.211029159287
 20
-1625.126915207582
 42
-0.0175957477193698
 10
-13987.350935327326
 20
-1625.2765360959927
 42
-0.0080466359662672
 10
-13987.498399092394
 20
-1625.418858624178
 10
-13987.544433636875
 20
-1625.4618790622351
 42
-0.026960026040449
 10
-13987.797713882859
 20
-1625.6742023207462
 10
-13987.864281019181
 20
-1625.7241537353896
 42
-0.0178362839750245
 10
-13988.10422550881
 20
-1625.8911716616205
 10
-13988.111470479807
 20
-1625.895840173823
 42
-0.0174650732659286
 10
-13988.347806677251
 20
-1626.0367011387846
 42
-0.0169240130172637
 10
-13988.593272923108
 20
-1626.1609933985617
 10
-13988.639259078667
 20
-1626.1823553541292
 42
-0.0318883036827288
 10
-13988.989609934291
 20
-1626.3186936636414
 10
-13989.057975469459
 20
-1626.3403942841171
 42
-0.028443590988692
 10
-13989.434025595743
 20
-1626.4366117195896
 10
-13989.469183756239
 20
-1626.4435053154175
 42
-0.0243909341019986
 10
-13989.782627217159
 20
-1626.489226346448
 10
-13989.832907943928
 20
-1626.4940718933497
 42
-0.0196639292897072
 10
-13990.048503521459
 20
-1626.5063201788632
 10
-13990.100327592614
 20
-1626.5072234395998
 42
-0.0100501510634415
 10
-13990.212750874285
 20
-1626.5069230412469
 10
-13990.244410735644
 20
-1626.5062019693612
 42
-0.0019752031154884
 10
-13990.293503072313
 20
-1626.5048898091518
 10
-13990.296263375545
 20
-1626.5048051173251
 42
0.0065378752086494
 10
-13990.339839950288
 20
-1626.5040382261107
 42
-0.0167974694350337
 10
-13990.38337077323
 20
-1626.502378327584
 10
-13990.387450112481
 20
-1626.5020853166898
 42
-0.0081283276265477
 10
-13990.439009910222
 20
-1626.4975383230515
 10
-13990.450749484098
 20
-1626.4963104054734
 42
-0.012670344034219
 10
-13990.525467779889
 20
-1626.4865756144022
 10
-13990.548255647569
 20
-1626.4830173584867
 42
-0.011785208852615
 10
-13990.667794633382
 20
-1626.4614543633336
 10
-13990.723175085164
 20
-1626.450110823095
 42
-0.025177459230809
 10
-13990.950019124173
 20
-1626.3916128136618
 10
-13990.994738314024
 20
-1626.3776459943265
 42
-0.0146525199897321
 10
-13991.181131301562
 20
-1626.3133794671285
 42
-0.0166929435843232
 10
-13991.363108957696
 20
-1626.2375723340708
 10
-13991.367765588962
 20
-1626.23544743346
 42
-0.0191684358472607
 10
-13991.552949220211
 20
-1626.1422113496706
 10
-13991.55628180597
 20
-1626.1403701021168
 42
-0.0221181781841381
 10
-13991.739592109867
 20
-1626.0282366037477
 10
-13991.741941913879
 20
-1626.0266523057549
 42
-0.0254984685400735
 10
-13991.918232064265
 20
-1625.8942411557853
 10
-13991.940714211943
 20
-1625.8754888468693
 42
-0.0292492648803977
 10
-13992.065483150811
 20
-1625.7583960472059
 42
-0.0159048957491398
 10
-13992.179323148277
 20
-1625.6303760555861
 10
-13992.180641938839
 20
-1625.6287944425867
 42
-0.0343813379528527
 10
-13992.283279200465
 20
-1625.4869231168193
 10
-13992.314770731826
 20
-1625.4364197247232
 42
-0.0369117275735872
 10
-13992.400663233724
 20
-1625.2729424837748
 42
-0.0191751379902855
 10
-13992.467856619296
 20
-1625.1005378777227
 10
-13992.46961994304
 20
-1625.095444533094
 42
-0.0378178042131765
 10
-13992.519414661829
 20
-1624.9065037569917
 10
-13992.525409957569
 20
-1624.8739431387403
 42
-0.0184846046355338
 10
-13992.546127156849
 20
-1624.7321903182708
 42
-0.0179866351291151
 10
-13992.556460161921
 20
-1624.5892995052511
 10
-13992.556516604369
 20
-1624.5877418185771
 42
-0.0085497186018718
 10
-13992.557948885473
 20
-1624.5128686535672
 42
-0.0085497186018718
  0
ENDBLK
  5
5C
100
AcDbEntity
  8
template
390
0
100
AcDbBlockEnd
  0
BLOCK
  5
5D
100
AcDbEntity
  8
notes
390
0
100
AcDbBlockBegin
  2
*D3
 70
               1
 10
0.0
 20
0.0
 30
0.0
  3
*D3
  1

  0
LINE
  5
5E
100
AcDbEntity
  8
0
370
              -2
390
0
  6
Continuous
 62
               0
100
AcDbLine
 10
-756.02828650623633
 20
876.33074743476129
 30
0.0
 11
-756.02828650623633
 21
1005.4936057647773
 31
0.0
  0
LINE
  5
5F
100
AcDbEntity
  8
0
370
              -2
390
0
  6
Continuous
 62
               0
100
AcDbLine
 10
-156.02828650623269
 20
876.3307474347597
 30
0.0
 11
-156.02828650623269
 21
1005.4936057647773
 31
0.0
  0
LINE
  5
60
100
AcDbEntity
  8
0
370
              -2
390
0
  6
Continuous
 62
               0
100
AcDbLine
 10
-756.02828650623633
 20
1005.4936057647773
 30
0.0
 11
-156.02828650623269
 21
1005.4936057647773
 31
0.0
  0
CIRCLE
  5
61
102
{ACAD_REACTORS
330
62
102
}
100
AcDbEntity
  8
0
370
              -2
390
0
  6
Continuous
 62
               0
100
AcDbCircle
 10
-756.02828650623633
 20
1005.4936057647773
 30
0.0
 40
1.9998779296875
  0
HATCH
  5
62
100
AcDbEntity
  8
0
370
              -2
390
0
  6
Continuous
 62
               0
100
AcDbHatch
 10
0.0
 20
0.0
 30
0.0
210
0.0
220
0.0
230
1.0
  2
SOLID
 70
               1
 71
               1
 91
        1
 92
        1
 93
        1
 72
               2
 10
-756.02828650623633
 20
1005.4936057647773
 40
1.9998779296875
 50
0.0
 51
360.0
 73
               0
 97
        1
330
61
 75
               0
 76
               1
 98
        1
 10
0.0
 20
0.0
  0
CIRCLE
  5
63
102
{ACAD_REACTORS
330
64
102
}
100
AcDbEntity
  8
0
370
              -2
390
0
  6
Continuous
 62
               0
100
AcDbCircle
 10
-156.02828650623269
 20
1005.4936057647773
 30
0.0
 40
1.9998779296875
  0
HATCH
  5
64
100
AcDbEntity
  8
0
370
              -2
390
0
  6
Continuous
 62
               0
100
AcDbHatch
 10
0.0
 20
0.0
 30
0.0
210
0.0
220
0.0
230
1.0
  2
SOLID
 70
               1
 71
               1
 91
        1
 92
        1
 93
        1
 72
               2
 10
-156.02828650623269
 20
1005.4936057647773
 40
1.9998779296875
 50
0.0
 51
360.0
 73
               0
 97
        1
330
63
 75
               0
 76
               1
 98
        1
 10
0.0
 20
0.0
  0
MTEXT
  5
65
100
AcDbEntity
  8
0
390
0
 62
               0
100
AcDbMText
 10
-479.84078818841044
 20
1039.3712229522773
 30
0.0
 40
24.432617187500004
 41
0.0
 71
               1
 72
               1
  1
600
  7
ＭＳゴシック
 73
               1
 44
0.7828267384257843
  0
POINT
  5
66
100
AcDbEntity
  8
Defpoints
370
               0
390
0
 62
               0
100
AcDbPoint
 10
-156.02828650623269
 20
851.3307474347597
 30
0.0
  0
POINT
  5
67
100
AcDbEntity
  8
Defpoints
370
               0
390
0
 62
               0
100
AcDbPoint
 10
-756.02828650623633
 20
851.33074743476129
 30
0.0
  0
POINT
  5
68
100
AcDbEntity
  8
Defpoints
370
               0
390
0
 62
               0
100
AcDbPoint
 10
-756.02828650623633
 20
1005.4936057647773
 30
0.0
  0
ENDBLK
  5
69
100
AcDbEntity
  8
notes
390
0
100
AcDbBlockEnd
  0
BLOCK
  5
6A
100
AcDbEntity
  8
notes
390
0
100
AcDbBlockBegin
  2
*D4
 70
               1
 10
0.0
 20
0.0
 30
0.0
  3
*D4
  1

  0
LINE
  5
6B
100
AcDbEntity
  8
0
370
              -2
390
0
  6
Continuous
 62
               0
100
AcDbLine
 10
-136.02828650623269
 20
855.49360576477818
 30
0.0
 11
-56.028286506232689
 21
855.49360576477818
 31
0.0
  0
LINE
  5
6C
100
AcDbEntity
  8
0
370
              -2
390
0
  6
Continuous
 62
               0
100
AcDbLine
 10
-291.74965178107595
 20
405.49360576477812
 30
0.0
 11
-56.028286506232689
 21
405.49360576477812
 31
0.0
  0
LINE
  5
6D
100
AcDbEntity
  8
0
370
              -2
390
0
  6
Continuous
 62
               0
100
AcDbLine
 10
-56.028286506232689
 20
855.49360576477818
 30
0.0
 11
-56.028286506232689
 21
405.49360576477812
 31
0.0
  0
CIRCLE
  5
6E
102
{ACAD_REACTORS
330
6F
102
}
100
AcDbEntity
  8
0
370
              -2
390
0
  6
Continuous
 62
               0
100
AcDbCircle
 10
-56.028286506232689
 20
855.49360576477818
 30
0.0
 40
1.9998779296875
  0
HATCH
  5
6F
100
AcDbEntity
  8
0
370
              -2
390
0
  6
Continuous
 62
               0
100
AcDbHatch
 10
0.0
 20
0.0
 30
0.0
210
0.0
220
0.0
230
1.0
  2
SOLID
 70
               1
 71
               1
 91
        1
 92
        1
 93
        1
 72
               2
 10
-56.028286506232689
 20
855.49360576477818
 40
1.9998779296875
 50
0.0
 51
360.0
 73
               0
 97
        1
330
6E
 75
               0
 76
               1
 98
        1
 10
0.0
 20
0.0
  0
CIRCLE
  5
70
102
{ACAD_REACTORS
330
71
102
}
100
AcDbEntity
  8
0
370
              -2
390
0
  6
Continuous
 62
               0
100
AcDbCircle
 10
-56.028286506232689
 20
405.49360576477812
 30
0.0
 40
1.9998779296875
  0
HATCH
  5
71
100
AcDbEntity
  8
0
370
              -2
390
0
  6
Continuous
 62
               0
100
AcDbHatch
 10
0.0
 20
0.0
 30
0.0
210
0.0
220
0.0
230
1.0
  2
SOLID
 70
               1
 71
               1
 91
        1
 92
        1
 93
        1
 72
               2
 10
-56.028286506232689
 20
405.49360576477812
 40
1.9998779296875
 50
0.0
 51
360.0
 73
               0
 97
        1
330
70
 75
               0
 76
               1
 98
        1
 10
0.0
 20
0.0
  0
MTEXT
  5
72
100
AcDbEntity
  8
0
390
0
 62
               0
100
AcDbMText
 10
-89.905903693732398
 20
606.68110408260259
 30
0.0
 40
24.432617187500004
 41
0.0
 71
               1
 72
               1
  1
450
  7
ＭＳゴシック
 11
0.0
 21
1.0
 31
0.0
 73
               1
 44
0.7828267384257843
  0
POINT
  5
73
100
AcDbEntity
  8
Defpoints
370
               0
390
0
 62
               0
100
AcDbPoint
 10
-316.74965178107595
 20
405.49360576477812
 30
0.0
  0
POINT
  5
74
100
AcDbEntity
  8
Defpoints
370
               0
390
0
 62
               0
100
AcDbPoint
 10
-161.02828650623269
 20
855.49360576477818
 30
0.0
  0
POINT
  5
75
100
AcDbEntity
  8
Defpoints
370
               0
390
0
 62
               0
100
AcDbPoint
 10
-56.028286506232689
 20
855.49360576477818
 30
0.0
  0
ENDBLK
  5
76
100
AcDbEntity
  8
notes
390
0
100
AcDbBlockEnd
  0
BLOCK
  5
77
100
AcDbEntity
  8
notes
390
0
100
AcDbBlockBegin
  2
*D5
 70
               1
 10
0.0
 20
0.0
 30
0.0
  3
*D5
  1

  0
LINE
  5
78
100
AcDbEntity
  8
0
370
              -2
390
0
  6
Continuous
 62
               0
100
AcDbLine
 10
-556.02828650623269
 20
832.99360576477727
 30
0.0
 11
-556.02828650623269
 21
955.49360576477773
 31
0.0
  0
LINE
  5
79
100
AcDbEntity
  8
0
370
              -2
390
0
  6
Continuous
 62
               0
100
AcDbLine
 10
-456.02828650623269
 20
832.99360576477727
 30
0.0
 11
-456.02828650623269
 21
955.49360576477773
 31
0.0
  0
LINE
  5
7A
100
AcDbEntity
  8
0
370
              -2
390
0
  6
Continuous
 62
               0
100
AcDbLine
 10
-556.02828650623269
 20
955.49360576477773
 30
0.0
 11
-456.02828650623269
 21
955.49360576477773
 31
0.0
  0
CIRCLE
  5
7B
102
{ACAD_REACTORS
330
7C
102
}
100
AcDbEntity
  8
0
370
              -2
390
0
  6
Continuous
 62
               0
100
AcDbCircle
 10
-556.02828650623269
 20
955.49360576477773
 30
0.0
 40
1.9998779296875
  0
HATCH
  5
7C
100
AcDbEntity
  8
0
370
              -2
390
0
  6
Continuous
 62
               0
100
AcDbHatch
 10
0.0
 20
0.0
 30
0.0
210
0.0
220
0.0
230
1.0
  2
SOLID
 70
               1
 71
               1
 91
        1
 92
        1
 93
        1
 72
               2
 10
-556.02828650623269
 20
955.49360576477773
 40
1.9998779296875
 50
0.0
 51
360.0
 73
               0
 97
        1
330
7B
 75
               0
 76
               1
 98
        1
 10
0.0
 20
0.0
  0
CIRCLE
  5
7D
102
{ACAD_REACTORS
330
7E
102
}
100
AcDbEntity
  8
0
370
              -2
390
0
  6
Continuous
 62
               0
100
AcDbCircle
 10
-456.02828650623269
 20
955.49360576477773
 30
0.0
 40
1.9998779296875
  0
HATCH
  5
7E
100
AcDbEntity
  8
0
370
              -2
390
0
  6
Continuous
 62
               0
100
AcDbHatch
 10
0.0
 20
0.0
 30
0.0
210
0.0
220
0.0
230
1.0
  2
SOLID
 70
               1
 71
               1
 91
        1
 92
        1
 93
        1
 72
               2
 10
-456.02828650623269
 20
955.49360576477773
 40
1.9998779296875
 50
0.0
 51
360.0
 73
               0
 97
        1
330
7D
 75
               0
 76
               1
 98
        1
 10
0.0
 20
0.0
  0
MTEXT
  5
7F
100
AcDbEntity
  8
0
390
0
 62
               0
100
AcDbMText
 10
-529.84078818840862
 20
989.37122295227778
 30
0.0
 40
24.432617187500004
 41
0.0
 71
               1
 72
               1
  1
100
  7
ＭＳゴシック
 73
               1
 44
0.7828267384257843
  0
POINT
  5
80
100
AcDbEntity
  8
Defpoints
370
               0
390
0
 62
               0
100
AcDbPoint
 10
-456.02828650623269
 20
807.99360576477727
 30
0.0
  0
POINT
  5
81
100
AcDbEntity
  8
Defpoints
370
               0
390
0
 62
               0
100
AcDbPoint
 10
-556.02828650623269
 20
807.99360576477727
 30
0.0
  0
POINT
  5
82
100
AcDbEntity
  8
Defpoints
370
               0
390
0
 62
               0
100
AcDbPoint
 10
-556.02828650623269
 20
955.49360576477773
 30
0.0
  0
ENDBLK
  5
83
100
AcDbEntity
  8
notes
390
0
100
AcDbBlockEnd
  0
BLOCK
  5
84
100
AcDbEntity
  8
notes
390
0
100
AcDbBlockBegin
  2
*D6
 70
               1
 10
0.0
 20
0.0
 30
0.0
  3
*D6
  1

  0
LINE
  5
85
100
AcDbEntity
  8
0
370
              -2
390
0
  6
Continuous
 62
               0
100
AcDbLine
 10
-456.02828650623269
 20
832.99360576477727
 30
0.0
 11
-456.02828650623269
 21
955.49360576477773
 31
0.0
  0
LINE
  5
86
100
AcDbEntity
  8
0
370
              -2
390
0
  6
Continuous
 62
               0
100
AcDbLine
 10
-356.02828650623269
 20
832.99360576477727
 30
0.0
 11
-356.02828650623269
 21
955.49360576477773
 31
0.0
  0
LINE
  5
87
100
AcDbEntity
  8
0
370
              -2
390
0
  6
Continuous
 62
               0
100
AcDbLine
 10
-456.02828650623269
 20
955.49360576477773
 30
0.0
 11
-356.02828650623269
 21
955.49360576477773
 31
0.0
  0
CIRCLE
  5
88
102
{ACAD_REACTORS
330
89
102
}
100
AcDbEntity
  8
0
370
              -2
390
0
  6
Continuous
 62
               0
100
AcDbCircle
 10
-456.02828650623269
 20
955.49360576477773
 30
0.0
 40
1.9998779296875
  0
HATCH
  5
89
100
AcDbEntity
  8
0
370
              -2
390
0
  6
Continuous
 62
               0
100
AcDbHatch
 10
0.0
 20
0.0
 30
0.0
210
0.0
220
0.0
230
1.0
  2
SOLID
 70
               1
 71
               1
 91
        1
 92
        1
 93
        1
 72
               2
 10
-456.02828650623269
 20
955.49360576477773
 40
1.9998779296875
 50
0.0
 51
360.0
 73
               0
 97
        1
330
88
 75
               0
 76
               1
 98
        1
 10
0.0
 20
0.0
  0
CIRCLE
  5
8A
102
{ACAD_REACTORS
330
8B
102
}
100
AcDbEntity
  8
0
370
              -2
390
0
  6
Continuous
 62
               0
100
AcDbCircle
 10
-356.02828650623269
 20
955.49360576477773
 30
0.0
 40
1.9998779296875
  0
HATCH
  5
8B
100
AcDbEntity
  8
0
370
              -2
390
0
  6
Continuous
 62
               0
100
AcDbHatch
 10
0.0
 20
0.0
 30
0.0
210
0.0
220
0.0
230
1.0
  2
SOLID
 70
               1
 71
               1
 91
        1
 92
        1
 93
        1
 72
               2
 10
-356.02828650623269
 20
955.49360576477773
 40
1.9998779296875
 50
0.0
 51
360.0
 73
               0
 97
        1
330
8A
 75
               0
 76
               1
 98
        1
 10
0.0
 20
0.0
  0
MTEXT
  5
8C
100
AcDbEntity
  8
0
390
0
 62
               0
100
AcDbMText
 10
-429.84078818840862
 20
989.37122295227778
 30
0.0
 40
24.432617187500004
 41
0.0
 71
               1
 72
               1
  1
100
  7
ＭＳゴシック
 73
               1
 44
0.7828267384257843
  0
POINT
  5
8D
100
AcDbEntity
  8
Defpoints
370
               0
390
0
 62
               0
100
AcDbPoint
 10
-356.02828650623269
 20
807.99360576477727
 30
0.0
  0
POINT
  5
8E
100
AcDbEntity
  8
Defpoints
370
               0
390
0
 62
               0
100
AcDbPoint
 10
-456.02828650623269
 20
807.99360576477727
 30
0.0
  0
POINT
  5
8F
100
AcDbEntity
  8
Defpoints
370
               0
390
0
 62
               0
100
AcDbPoint
 10
-456.02828650623269
 20
955.49360576477773
 30
0.0
  0
ENDBLK
  5
90
100
AcDbEntity
  8
notes
390
0
100
AcDbBlockEnd
  0
BLOCK
  5
91
100
AcDbEntity
  8
notes
390
0
100
AcDbBlockBegin
  2
*D7
 70
               1
 10
0.0
 20
0.0
 30
0.0
  3
*D7
  1

  0
LINE
  5
92
100
AcDbEntity
  8
0
370
              -2
390
0
  6
Continuous
 62
               0
100
AcDbLine
 10
733.41341116723743
 20
-559.42859211877578
 30
0.0
 11
733.41341116723743
 21
-640.4285921187394
 31
0.0
  0
LINE
  5
93
100
AcDbEntity
  8
0
370
              -2
390
0
  6
Continuous
 62
               0
100
AcDbLine
 10
458.41341116723743
 20
-560.42859211875395
 30
0.0
 11
458.41341116723743
 21
-640.4285921187394
 31
0.0
  0
LINE
  5
94
100
AcDbEntity
  8
0
370
              -2
390
0
  6
Continuous
 62
               0
100
AcDbLine
 10
733.41341116723743
 20
-640.4285921187394
 30
0.0
 11
458.41341116723743
 21
-640.4285921187394
 31
0.0
  0
CIRCLE
  5
95
102
{ACAD_REACTORS
330
96
102
}
100
AcDbEntity
  8
0
370
              -2
390
0
  6
Continuous
 62
               0
100
AcDbCircle
 10
733.41341116723743
 20
-640.4285921187394
 30
0.0
 40
1.9998779296875
  0
HATCH
  5
96
100
AcDbEntity
  8
0
370
              -2
390
0
  6
Continuous
 62
               0
100
AcDbHatch
 10
0.0
 20
0.0
 30
0.0
210
0.0
220
0.0
230
1.0
  2
SOLID
 70
               1
 71
               1
 91
        1
 92
        1
 93
        1
 72
               2
 10
733.41341116723743
 20
-640.4285921187394
 40
1.9998779296875
 50
0.0
 51
360.0
 73
               0
 97
        1
330
95
 75
               0
 76
               1
 98
        1
 10
0.0
 20
0.0
  0
CIRCLE
  5
97
102
{ACAD_REACTORS
330
98
102
}
100
AcDbEntity
  8
0
370
              -2
390
0
  6
Continuous
 62
               0
100
AcDbCircle
 10
458.41341116723743
 20
-640.4285921187394
 30
0.0
 40
1.9998779296875
  0
HATCH
  5
98
100
AcDbEntity
  8
0
370
              -2
390
0
  6
Continuous
 62
               0
100
AcDbHatch
 10
0.0
 20
0.0
 30
0.0
210
0.0
220
0.0
230
1.0
  2
SOLID
 70
               1
 71
               1
 91
        1
 92
        1
 93
        1
 72
               2
 10
458.41341116723743
 20
-640.4285921187394
 40
1.9998779296875
 50
0.0
 51
360.0
 73
               0
 97
        1
330
97
 75
               0
 76
               1
 98
        1
 10
0.0
 20
0.0
  0
MTEXT
  5
99
100
AcDbEntity
  8
0
390
0
 62
               0
100
AcDbMText
 10
572.10090948506149
 20
-606.55097493123935
 30
0.0
 40
24.432617187500004
 41
0.0
 71
               1
 72
               1
  1
275
  7
ＭＳゴシック
 73
               1
 44
0.7828267384257843
  0
POINT
  5
9A
100
AcDbEntity
  8
Defpoints
370
               0
390
0
 62
               0
100
AcDbPoint
 10
458.41341116723743
 20
-535.42859211875395
 30
0.0
  0
POINT
  5
9B
100
AcDbEntity
  8
Defpoints
370
               0
390
0
 62
               0
100
AcDbPoint
 10
733.41341116723743
 20
-534.42859211877578
 30
0.0
  0
POINT
  5
9C
100
AcDbEntity
  8
Defpoints
370
               0
390
0
 62
               0
100
AcDbPoint
 10
733.41341116723743
 20
-640.4285921187394
 30
0.0
  0
ENDBLK
  5
9D
100
AcDbEntity
  8
notes
390
0
100
AcDbBlockEnd
  0
BLOCK
  5
9E
100
AcDbEntity
  8
notes
390
0
100
AcDbBlockBegin
  2
*D8
 70
               1
 10
0.0
 20
0.0
 30
0.0
  3
*D8
  1

  0
LINE
  5
9F
100
AcDbEntity
  8
0
370
              -2
390
0
  6
Continuous
 62
               0
100
AcDbLine
 10
-316.15426400787146
 20
-355.38158846330964
 30
0.0
 11
-316.15426400787146
 21
-281.68158846330982
 31
0.0
  0
LINE
  5
A0
100
AcDbEntity
  8
0
370
              -2
390
0
  6
Continuous
 62
               0
100
AcDbLine
 10
-596.15426400787146
 20
-355.38158846330964
 30
0.0
 11
-596.15426400787146
 21
-281.68158846330982
 31
0.0
  0
LINE
  5
A1
100
AcDbEntity
  8
0
370
              -2
390
0
  6
Continuous
 62
               0
100
AcDbLine
 10
-316.15426400787146
 20
-281.68158846330982
 30
0.0
 11
-596.15426400787146
 21
-281.68158846330982
 31
0.0
  0
CIRCLE
  5
A2
102
{ACAD_REACTORS
330
A3
102
}
100
AcDbEntity
  8
0
370
              -2
390
0
  6
Continuous
 62
               0
100
AcDbCircle
 10
-316.15426400787146
 20
-281.68158846330982
 30
0.0
 40
1.9998779296875
  0
HATCH
  5
A3
100
AcDbEntity
  8
0
370
              -2
390
0
  6
Continuous
 62
               0
100
AcDbHatch
 10
0.0
 20
0.0
 30
0.0
210
0.0
220
0.0
230
1.0
  2
SOLID
 70
               1
 71
               1
 91
        1
 92
        1
 93
        1
 72
               2
 10
-316.15426400787146
 20
-281.68158846330982
 40
1.9998779296875
 50
0.0
 51
360.0
 73
               0
 97
        1
330
A2
 75
               0
 76
               1
 98
        1
 10
0.0
 20
0.0
  0
CIRCLE
  5
A4
102
{ACAD_REACTORS
330
A5
102
}
100
AcDbEntity
  8
0
370
              -2
390
0
  6
Continuous
 62
               0
100
AcDbCircle
 10
-596.15426400787146
 20
-281.68158846330982
 30
0.0
 40
1.9998779296875
  0
HATCH
  5
A5
100
AcDbEntity
  8
0
370
              -2
390
0
  6
Continuous
 62
               0
100
AcDbHatch
 10
0.0
 20
0.0
 30
0.0
210
0.0
220
0.0
230
1.0
  2
SOLID
 70
               1
 71
               1
 91
        1
 92
        1
 93
        1
 72
               2
 10
-596.15426400787146
 20
-281.68158846330982
 40
1.9998779296875
 50
0.0
 51
360.0
 73
               0
 97
        1
330
A4
 75
               0
 76
               1
 98
        1
 10
0.0
 20
0.0
  0
MTEXT
  5
A6
100
AcDbEntity
  8
0
390
0
 62
               0
100
AcDbMText
 10
-479.9667656900474
 20
-247.80397127580983
 30
0.0
 40
24.432617187500004
 41
0.0
 71
               1
 72
               1
  1
280
  7
ＭＳゴシック
 73
               1
 44
0.7828267384257843
  0
POINT
  5
A7
100
AcDbEntity
  8
Defpoints
370
               0
390
0
 62
               0
100
AcDbPoint
 10
-596.15426400787146
 20
-380.38158846330964
 30
0.0
  0
POINT
  5
A8
100
AcDbEntity
  8
Defpoints
370
               0
390
0
 62
               0
100
AcDbPoint
 10
-316.15426400787146
 20
-380.38158846330964
 30
0.0
  0
POINT
  5
A9
100
AcDbEntity
  8
Defpoints
370
               0
390
0
 62
               0
100
AcDbPoint
 10
-316.15426400787146
 20
-281.68158846330982
 30
0.0
  0
ENDBLK
  5
AA
100
AcDbEntity
  8
notes
390
0
100
AcDbBlockEnd
  0
BLOCK
  5
AB
100
AcDbEntity
  8
notes
390
0
100
AcDbBlockBegin
  2
*D9
 70
               1
 10
0.0
 20
0.0
 30
0.0
  3
*D9
  1

  0
LINE
  5
AC
100
AcDbEntity
  8
0
370
              -2
390
0
  6
Continuous
 62
               0
100
AcDbLine
 10
-641.02828650623269
 20
-400.38158846330964
 30
0.0
 11
-856.02828650623269
 21
-400.38158846330964
 31
0.0
  0
LINE
  5
AD
100
AcDbEntity
  8
0
370
              -2
390
0
  6
Continuous
 62
               0
100
AcDbLine
 10
-776.02932784749282
 20
-360.42859211877578
 30
0.0
 11
-856.02828650623269
 21
-360.42859211877578
 31
0.0
  0
LINE
  5
AE
100
AcDbEntity
  8
0
370
              -2
390
0
  6
Continuous
 62
               0
100
AcDbLine
 10
-856.02828650623269
 20
-400.38158846330964
 30
0.0
 11
-856.02828650623269
 21
-360.42859211877578
 31
0.0
  0
CIRCLE
  5
AF
102
{ACAD_REACTORS
330
B0
102
}
100
AcDbEntity
  8
0
370
              -2
390
0
  6
Continuous
 62
               0
100
AcDbCircle
 10
-856.02828650623269
 20
-400.38158846330964
 30
0.0
 40
1.9998779296875
  0
HATCH
  5
B0
100
AcDbEntity
  8
0
370
              -2
390
0
  6
Continuous
 62
               0
100
AcDbHatch
 10
0.0
 20
0.0
 30
0.0
210
0.0
220
0.0
230
1.0
  2
SOLID
 70
               1
 71
               1
 91
        1
 92
        1
 93
        1
 72
               2
 10
-856.02828650623269
 20
-400.38158846330964
 40
1.9998779296875
 50
0.0
 51
360.0
 73
               0
 97
        1
330
AF
 75
               0
 76
               1
 98
        1
 10
0.0
 20
0.0
  0
CIRCLE
  5
B1
102
{ACAD_REACTORS
330
B2
102
}
100
AcDbEntity
  8
0
370
              -2
390
0
  6
Continuous
 62
               0
100
AcDbCircle
 10
-856.02828650623269
 20
-360.42859211877578
 30
0.0
 40
1.9998779296875
  0
HATCH
  5
B2
100
AcDbEntity
  8
0
370
              -2
390
0
  6
Continuous
 62
               0
100
AcDbHatch
 10
0.0
 20
0.0
 30
0.0
210
0.0
220
0.0
230
1.0
  2
SOLID
 70
               1
 71
               1
 91
        1
 92
        1
 93
        1
 72
               2
 10
-856.02828650623269
 20
-360.42859211877578
 40
1.9998779296875
 50
0.0
 51
360.0
 73
               0
 97
        1
330
B1
 75
               0
 76
               1
 98
        1
 10
0.0
 20
0.0
  0
MTEXT
  5
B3
100
AcDbEntity
  8
0
390
0
 62
               0
100
AcDbMText
 10
-889.9059036937324
 20
-396.28009029104271
 30
0.0
 40
24.432617187500004
 41
0.0
 71
               1
 72
               1
  1
40
  7
ＭＳゴシック
 11
0.0
 21
1.0
 31
0.0
 73
               1
 44
0.7828267384257843
  0
POINT
  5
B4
100
AcDbEntity
  8
Defpoints
370
               0
390
0
 62
               0
100
AcDbPoint
 10
-751.02932784749282
 20
-360.42859211877578
 30
0.0
  0
POINT
  5
B5
100
AcDbEntity
  8
Defpoints
370
               0
390
0
 62
               0
100
AcDbPoint
 10
-616.02828650623269
 20
-400.38158846330964
 30
0.0
  0
POINT
  5
B6
100
AcDbEntity
  8
Defpoints
370
               0
390
0
 62
               0
100
AcDbPoint
 10
-856.02828650623269
 20
-400.38158846330964
 30
0.0
  0
ENDBLK
  5
B7
100
AcDbEntity
  8
notes
390
0
100
AcDbBlockEnd
  0
BLOCK
  5
B8
100
AcDbEntity
  8
notes
390
0
100
AcDbBlockBegin
  2
*D10
 70
               1
 10
0.0
 20
0.0
 30
0.0
  3
*D10
  1

  0
LINE
  5
B9
100
AcDbEntity
  8
0
370
              -2
390
0
  6
Continuous
 62
               0
100
AcDbLine
 10
-136.02724516497437
 20
-360.42859211877578
 30
0.0
 11
-56.07573784113265
 21
-360.42859211877578
 31
0.0
  0
LINE
  5
BA
100
AcDbEntity
  8
0
370
              -2
390
0
  6
Continuous
 62
               0
100
AcDbLine
 10
-208.29153569857408
 20
-540.4285921187394
 30
0.0
 11
-56.07573784113265
 21
-540.4285921187394
 31
0.0
  0
LINE
  5
BB
100
AcDbEntity
  8
0
370
              -2
390
0
  6
Continuous
 62
               0
100
AcDbLine
 10
-56.07573784113265
 20
-360.42859211877578
 30
0.0
 11
-56.07573784113265
 21
-540.4285921187394
 31
0.0
  0
CIRCLE
  5
BC
102
{ACAD_REACTORS
330
BD
102
}
100
AcDbEntity
  8
0
370
              -2
390
0
  6
Continuous
 62
               0
100
AcDbCircle
 10
-56.07573784113265
 20
-360.42859211877578
 30
0.0
 40
1.9998779296875
  0
HATCH
  5
BD
100
AcDbEntity
  8
0
370
              -2
390
0
  6
Continuous
 62
               0
100
AcDbHatch
 10
0.0
 20
0.0
 30
0.0
210
0.0
220
0.0
230
1.0
  2
SOLID
 70
               1
 71
               1
 91
        1
 92
        1
 93
        1
 72
               2
 10
-56.07573784113265
 20
-360.42859211877578
 40
1.9998779296875
 50
0.0
 51
360.0
 73
               0
 97
        1
330
BC
 75
               0
 76
               1
 98
        1
 10
0.0
 20
0.0
  0
CIRCLE
  5
BE
102
{ACAD_REACTORS
330
BF
102
}
100
AcDbEntity
  8
0
370
              -2
390
0
  6
Continuous
 62
               0
100
AcDbCircle
 10
-56.07573784113265
 20
-540.4285921187394
 30
0.0
 40
1.9998779296875
  0
HATCH
  5
BF
100
AcDbEntity
  8
0
370
              -2
390
0
  6
Continuous
 62
               0
100
AcDbHatch
 10
0.0
 20
0.0
 30
0.0
210
0.0
220
0.0
230
1.0
  2
SOLID
 70
               1
 71
               1
 91
        1
 92
        1
 93
        1
 72
               2
 10
-56.07573784113265
 20
-540.4285921187394
 40
1.9998779296875
 50
0.0
 51
360.0
 73
               0
 97
        1
330
BE
 75
               0
 76
               1
 98
        1
 10
0.0
 20
0.0
  0
MTEXT
  5
C0
100
AcDbEntity
  8
0
390
0
 62
               0
100
AcDbMText
 10
-89.953355028632359
 20
-474.24109380093307
 30
0.0
 40
24.432617187500004
 41
0.0
 71
               1
 72
               1
  1
180
  7
ＭＳゴシック
 11
0.0
 21
1.0
 31
0.0
 73
               1
 44
0.7828267384257843
  0
POINT
  5
C1
100
AcDbEntity
  8
Defpoints
370
               0
390
0
 62
               0
100
AcDbPoint
 10
-233.29153569857408
 20
-540.4285921187394
 30
0.0
  0
POINT
  5
C2
100
AcDbEntity
  8
Defpoints
370
               0
390
0
 62
               0
100
AcDbPoint
 10
-161.02724516497437
 20
-360.42859211877578
 30
0.0
  0
POINT
  5
C3
100
AcDbEntity
  8
Defpoints
370
               0
390
0
 62
               0
100
AcDbPoint
 10
-56.07573784113265
 20
-360.42859211877578
 30
0.0
  0
ENDBLK
  5
C4
100
AcDbEntity
  8
notes
390
0
100
AcDbBlockEnd
  0
BLOCK
  5
C5
100
AcDbEntity
  8
notes
390
0
100
AcDbBlockBegin
  2
*D11
 70
               1
 10
0.0
 20
0.0
 30
0.0
  3
*D11
  1

  0
LINE
  5
C6
100
AcDbEntity
  8
0
370
              -2
390
0
  6
Continuous
 62
               0
100
AcDbLine
 10
733.41341116723561
 20
-339.42859211877578
 30
0.0
 11
733.41341116723561
 21
-271.0
 31
0.0
  0
LINE
  5
C7
100
AcDbEntity
  8
0
370
              -2
390
0
  6
Continuous
 62
               0
100
AcDbLine
 10
668.41341116723561
 20
-335.42859211877578
 30
0.0
 11
668.41341116723561
 21
-271.0
 31
0.0
  0
LINE
  5
C8
100
AcDbEntity
  8
0
370
              -2
390
0
  6
Continuous
 62
               0
100
AcDbLine
 10
733.41341116723561
 20
-271.0
 30
0.0
 11
668.41341116723561
 21
-271.0
 31
0.0
  0
CIRCLE
  5
C9
102
{ACAD_REACTORS
330
CA
102
}
100
AcDbEntity
  8
0
370
              -2
390
0
  6
Continuous
 62
               0
100
AcDbCircle
 10
733.41341116723561
 20
-271.0
 30
0.0
 40
1.9998779296875
  0
HATCH
  5
CA
100
AcDbEntity
  8
0
370
              -2
390
0
  6
Continuous
 62
               0
100
AcDbHatch
 10
0.0
 20
0.0
 30
0.0
210
0.0
220
0.0
230
1.0
  2
SOLID
 70
               1
 71
               1
 91
        1
 92
        1
 93
        1
 72
               2
 10
733.41341116723561
 20
-271.0
 40
1.9998779296875
 50
0.0
 51
360.0
 73
               0
 97
        1
330
C9
 75
               0
 76
               1
 98
        1
 10
0.0
 20
0.0
  0
CIRCLE
  5
CB
102
{ACAD_REACTORS
330
CC
102
}
100
AcDbEntity
  8
0
370
              -2
390
0
  6
Continuous
 62
               0
100
AcDbCircle
 10
668.41341116723561
 20
-271.0
 30
0.0
 40
1.9998779296875
  0
HATCH
  5
CC
100
AcDbEntity
  8
0
370
              -2
390
0
  6
Continuous
 62
               0
100
AcDbHatch
 10
0.0
 20
0.0
 30
0.0
210
0.0
220
0.0
230
1.0
  2
SOLID
 70
               1
 71
               1
 91
        1
 92
        1
 93
        1
 72
               2
 10
668.41341116723561
 20
-271.0
 40
1.9998779296875
 50
0.0
 51
360.0
 73
               0
 97
        1
330
CB
 75
               0
 76
               1
 98
        1
 10
0.0
 20
0.0
  0
MTEXT
  5
CD
100
AcDbEntity
  8
0
390
0
 62
               0
100
AcDbMText
 10
685.03841116723561
 20
-237.12238281250001
 30
0.0
 40
24.432617187500004
 41
0.0
 71
               1
 72
               1
  1
65
  7
ＭＳゴシック
 73
               1
 44
0.7828267384257843
  0
POINT
  5
CE
100
AcDbEntity
  8
Defpoints
370
               0
390
0
 62
               0
100
AcDbPoint
 10
668.41341116723561
 20
-360.42859211877578
 30
0.0
  0
POINT
  5
CF
100
AcDbEntity
  8
Defpoints
370
               0
390
0
 62
               0
100
AcDbPoint
 10
733.41341116723561
 20
-364.42859211877578
 30
0.0
  0
POINT
  5
D0
100
AcDbEntity
  8
Defpoints
370
               0
390
0
 62
               0
100
AcDbPoint
 10
733.41341116723561
 20
-271.0
 30
0.0
  0
ENDBLK
  5
D1
100
AcDbEntity
  8
notes
390
0
100
AcDbBlockEnd
  0
BLOCK
  5
D2
100
AcDbEntity
  8
notes
390
0
100
AcDbBlockBegin
  2
*D12
 70
               1
 10
0.0
 20
0.0
 30
0.0
  3
*D12
  1

  0
LINE
  5
D3
100
AcDbEntity
  8
0
370
              -2
390
0
  6
Continuous
 62
               0
100
AcDbLine
 10
-776.02828650623269
 20
855.49360576477818
 30
0.0
 11
-835.0
 21
855.49360576477818
 31
0.0
  0
LINE
  5
D4
100
AcDbEntity
  8
0
370
              -2
390
0
  6
Continuous
 62
               0
100
AcDbLine
 10
-781.02828650623269
 20
730.49360576477727
 30
0.0
 11
-835.0
 21
730.49360576477727
 31
0.0
  0
LINE
  5
D5
100
AcDbEntity
  8
0
370
              -2
390
0
  6
Continuous
 62
               0
100
AcDbLine
 10
-835.0
 20
855.49360576477818
 30
0.0
 11
-835.0
 21
730.49360576477727
 31
0.0
  0
CIRCLE
  5
D6
102
{ACAD_REACTORS
330
D7
102
}
100
AcDbEntity
  8
0
370
              -2
390
0
  6
Continuous
 62
               0
100
AcDbCircle
 10
-835.0
 20
855.49360576477818
 30
0.0
 40
1.9998779296875
  0
HATCH
  5
D7
100
AcDbEntity
  8
0
370
              -2
390
0
  6
Continuous
 62
               0
100
AcDbHatch
 10
0.0
 20
0.0
 30
0.0
210
0.0
220
0.0
230
1.0
  2
SOLID
 70
               1
 71
               1
 91
        1
 92
        1
 93
        1
 72
               2
 10
-835.0
 20
855.49360576477818
 40
1.9998779296875
 50
0.0
 51
360.0
 73
               0
 97
        1
330
D6
 75
               0
 76
               1
 98
        1
 10
0.0
 20
0.0
  0
CIRCLE
  5
D8
102
{ACAD_REACTORS
330
D9
102
}
100
AcDbEntity
  8
0
370
              -2
390
0
  6
Continuous
 62
               0
100
AcDbCircle
 10
-835.0
 20
730.49360576477727
 30
0.0
 40
1.9998779296875
  0
HATCH
  5
D9
100
AcDbEntity
  8
0
370
              -2
390
0
  6
Continuous
 62
               0
100
AcDbHatch
 10
0.0
 20
0.0
 30
0.0
210
0.0
220
0.0
230
1.0
  2
SOLID
 70
               1
 71
               1
 91
        1
 92
        1
 93
        1
 72
               2
 10
-835.0
 20
730.49360576477727
 40
1.9998779296875
 50
0.0
 51
360.0
 73
               0
 97
        1
330
D8
 75
               0
 76
               1
 98
        1
 10
0.0
 20
0.0
  0
MTEXT
  5
DA
100
AcDbEntity
  8
0
390
0
 62
               0
100
AcDbMText
 10
-868.87761718749971
 20
769.18110408260213
 30
0.0
 40
24.432617187500004
 41
0.0
 71
               1
 72
               1
  1
125
  7
ＭＳゴシック
 11
0.0
 21
1.0
 31
0.0
 73
               1
 44
0.7828267384257843
  0
POINT
  5
DB
100
AcDbEntity
  8
Defpoints
370
               0
390
0
 62
               0
100
AcDbPoint
 10
-756.02828650623269
 20
730.49360576477727
 30
0.0
  0
POINT
  5
DC
100
AcDbEntity
  8
Defpoints
370
               0
390
0
 62
               0
100
AcDbPoint
 10
-751.02828650623269
 20
855.49360576477818
 30
0.0
  0
POINT
  5
DD
100
AcDbEntity
  8
Defpoints
370
               0
390
0
 62
               0
100
AcDbPoint
 10
-835.0
 20
855.49360576477818
 30
0.0
  0
ENDBLK
  5
DE
100
AcDbEntity
  8
notes
390
0
100
AcDbBlockEnd
  0
BLOCK
  5
DF
100
AcDbEntity
  8
notes
390
0
100
AcDbBlockBegin
  2
*D13
 70
               1
 10
0.0
 20
0.0
 30
0.0
  3
*D13
  1

  0
LINE
  5
E0
100
AcDbEntity
  8
0
370
              -2
390
0
  6
Continuous
 62
               0
100
AcDbLine
 10
-781.02828650623269
 20
730.49360576477727
 30
0.0
 11
-835.0
 21
730.49360576477727
 31
0.0
  0
LINE
  5
E1
100
AcDbEntity
  8
0
370
              -2
390
0
  6
Continuous
 62
               0
100
AcDbLine
 10
-697.02333588975307
 20
435.49360576477721
 30
0.0
 11
-835.0
 21
435.49360576477721
 31
0.0
  0
LINE
  5
E2
100
AcDbEntity
  8
0
370
              -2
390
0
  6
Continuous
 62
               0
100
AcDbLine
 10
-835.0
 20
730.49360576477727
 30
0.0
 11
-835.0
 21
435.49360576477721
 31
0.0
  0
CIRCLE
  5
E3
102
{ACAD_REACTORS
330
E4
102
}
100
AcDbEntity
  8
0
370
              -2
390
0
  6
Continuous
 62
               0
100
AcDbCircle
 10
-835.0
 20
730.49360576477727
 30
0.0
 40
1.9998779296875
  0
HATCH
  5
E4
100
AcDbEntity
  8
0
370
              -2
390
0
  6
Continuous
 62
               0
100
AcDbHatch
 10
0.0
 20
0.0
 30
0.0
210
0.0
220
0.0
230
1.0
  2
SOLID
 70
               1
 71
               1
 91
        1
 92
        1
 93
        1
 72
               2
 10
-835.0
 20
730.49360576477727
 40
1.9998779296875
 50
0.0
 51
360.0
 73
               0
 97
        1
330
E3
 75
               0
 76
               1
 98
        1
 10
0.0
 20
0.0
  0
CIRCLE
  5
E5
102
{ACAD_REACTORS
330
E6
102
}
100
AcDbEntity
  8
0
370
              -2
390
0
  6
Continuous
 62
               0
100
AcDbCircle
 10
-835.0
 20
435.49360576477721
 30
0.0
 40
1.9998779296875
  0
HATCH
  5
E6
100
AcDbEntity
  8
0
370
              -2
390
0
  6
Continuous
 62
               0
100
AcDbHatch
 10
0.0
 20
0.0
 30
0.0
210
0.0
220
0.0
230
1.0
  2
SOLID
 70
               1
 71
               1
 91
        1
 92
        1
 93
        1
 72
               2
 10
-835.0
 20
435.49360576477721
 40
1.9998779296875
 50
0.0
 51
360.0
 73
               0
 97
        1
330
E5
 75
               0
 76
               1
 98
        1
 10
0.0
 20
0.0
  0
MTEXT
  5
E7
100
AcDbEntity
  8
0
390
0
 62
               0
100
AcDbMText
 10
-868.87761718749971
 20
559.18110408260168
 30
0.0
 40
24.432617187500004
 41
0.0
 71
               1
 72
               1
  1
295
  7
ＭＳゴシック
 11
0.0
 21
1.0
 31
0.0
 73
               1
 44
0.7828267384257843
  0
POINT
  5
E8
100
AcDbEntity
  8
Defpoints
370
               0
390
0
 62
               0
100
AcDbPoint
 10
-672.02333588975307
 20
435.49360576477721
 30
0.0
  0
POINT
  5
E9
100
AcDbEntity
  8
Defpoints
370
               0
390
0
 62
               0
100
AcDbPoint
 10
-756.02828650623269
 20
730.49360576477727
 30
0.0
  0
POINT
  5
EA
100
AcDbEntity
  8
Defpoints
370
               0
390
0
 62
               0
100
AcDbPoint
 10
-835.0
 20
730.49360576477727
 30
0.0
  0
ENDBLK
  5
EB
100
AcDbEntity
  8
notes
390
0
100
AcDbBlockEnd
  0
BLOCK
  5
EC
100
AcDbEntity
  8
notes
390
0
100
AcDbBlockBegin
  2
*D14
 70
               1
 10
0.0
 20
0.0
 30
0.0
  3
*D14
  1

  0
LINE
  5
ED
100
AcDbEntity
  8
0
370
              -2
390
0
  6
Continuous
 62
               0
100
AcDbLine
 10
-721.02828650623269
 20
454.05304457628364
 30
0.0
 11
-721.02828650623269
 21
290.0
 31
0.0
  0
LINE
  5
EE
100
AcDbEntity
  8
0
370
              -2
390
0
  6
Continuous
 62
               0
100
AcDbLine
 10
-191.04187128591002
 20
456.05943881150637
 30
0.0
 11
-191.04187128591002
 21
290.0
 31
0.0
  0
LINE
  5
EF
100
AcDbEntity
  8
0
370
              -2
390
0
  6
Continuous
 62
               0
100
AcDbLine
 10
-721.02828650623269
 20
290.0
 30
0.0
 11
-191.04187128591002
 21
290.0
 31
0.0
  0
CIRCLE
  5
F0
102
{ACAD_REACTORS
330
F1
102
}
100
AcDbEntity
  8
0
370
              -2
390
0
  6
Continuous
 62
               0
100
AcDbCircle
 10
-721.02828650623269
 20
290.0
 30
0.0
 40
1.9998779296875
  0
HATCH
  5
F1
100
AcDbEntity
  8
0
370
              -2
390
0
  6
Continuous
 62
               0
100
AcDbHatch
 10
0.0
 20
0.0
 30
0.0
210
0.0
220
0.0
230
1.0
  2
SOLID
 70
               1
 71
               1
 91
        1
 92
        1
 93
        1
 72
               2
 10
-721.02828650623269
 20
290.0
 40
1.9998779296875
 50
0.0
 51
360.0
 73
               0
 97
        1
330
F0
 75
               0
 76
               1
 98
        1
 10
0.0
 20
0.0
  0
CIRCLE
  5
F2
102
{ACAD_REACTORS
330
F3
102
}
100
AcDbEntity
  8
0
370
              -2
390
0
  6
Continuous
 62
               0
100
AcDbCircle
 10
-191.04187128591002
 20
290.0
 30
0.0
 40
1.9998779296875
  0
HATCH
  5
F3
100
AcDbEntity
  8
0
370
              -2
390
0
  6
Continuous
 62
               0
100
AcDbHatch
 10
0.0
 20
0.0
 30
0.0
210
0.0
220
0.0
230
1.0
  2
SOLID
 70
               1
 71
               1
 91
        1
 92
        1
 93
        1
 72
               2
 10
-191.04187128591002
 20
290.0
 40
1.9998779296875
 50
0.0
 51
360.0
 73
               0
 97
        1
330
F2
 75
               0
 76
               1
 98
        1
 10
0.0
 20
0.0
  0
MTEXT
  5
F4
100
AcDbEntity
  8
0
390
0
 62
               0
100
AcDbMText
 10
-479.84758057824729
 20
323.87761718749999
 30
0.0
 40
24.432617187500004
 41
0.0
 71
               1
 72
               1
  1
530
  7
ＭＳゴシック
 73
               1
 44
0.7828267384257843
  0
POINT
  5
F5
100
AcDbEntity
  8
Defpoints
370
               0
390
0
 62
               0
100
AcDbPoint
 10
-191.04187128591002
 20
481.05943881150637
 30
0.0
  0
POINT
  5
F6
100
AcDbEntity
  8
Defpoints
370
               0
390
0
 62
               0
100
AcDbPoint
 10
-721.02828650623269
 20
479.05304457628364
 30
0.0
  0
POINT
  5
F7
100
AcDbEntity
  8
Defpoints
370
               0
390
0
 62
               0
100
AcDbPoint
 10
-721.02828650623269
 20
290.0
 30
0.0
  0
ENDBLK
  5
F8
100
AcDbEntity
  8
notes
390
0
100
AcDbBlockEnd
  0
BLOCK
  5
F9
100
AcDbEntity
  8
notes
390
0
100
AcDbBlockBegin
  2
*D15
 70
               1
 10
0.0
 20
0.0
 30
0.0
  3
*D15
  1

  0
LINE
  5
FA
100
AcDbEntity
  8
0
370
              -2
390
0
  6
Continuous
 62
               0
100
AcDbLine
 10
430.91397984914329
 20
-485.42859211875395
 30
0.0
 11
455.0
 21
-485.42859211875395
 31
0.0
  0
LINE
  5
FB
100
AcDbEntity
  8
0
370
              -2
390
0
  6
Continuous
 62
               0
100
AcDbLine
 10
430.83959479959776
 20
-360.42859211877578
 30
0.0
 11
455.0
 21
-360.42859211877578
 31
0.0
  0
LINE
  5
FC
100
AcDbEntity
  8
0
370
              -2
390
0
  6
Continuous
 62
               0
100
AcDbLine
 10
455.0
 20
-360.42859211877578
 30
0.0
 11
455.0
 21
-208.125
 31
0.0
  0
LINE
  5
FD
100
AcDbEntity
  8
0
370
              -2
390
0
  6
Continuous
 62
               0
100
AcDbLine
 10
455.0
 20
-485.42859211875395
 30
0.0
 11
455.0
 21
-360.42859211877578
 31
0.0
  0
CIRCLE
  5
FE
102
{ACAD_REACTORS
330
FF
102
}
100
AcDbEntity
  8
0
370
              -2
390
0
  6
Continuous
 62
               0
100
AcDbCircle
 10
455.0
 20
-485.42859211875395
 30
0.0
 40
1.9998779296875
  0
HATCH
  5
FF
100
AcDbEntity
  8
0
370
              -2
390
0
  6
Continuous
 62
               0
100
AcDbHatch
 10
0.0
 20
0.0
 30
0.0
210
0.0
220
0.0
230
1.0
  2
SOLID
 70
               1
 71
               1
 91
        1
 92
        1
 93
        1
 72
               2
 10
455.0
 20
-485.42859211875395
 40
1.9998779296875
 50
0.0
 51
360.0
 73
               0
 97
        1
330
FE
 75
               0
 76
               1
 98
        1
 10
0.0
 20
0.0
  0
CIRCLE
  5
100
102
{ACAD_REACTORS
330
101
102
}
100
AcDbEntity
  8
0
370
              -2
390
0
  6
Continuous
 62
               0
100
AcDbCircle
 10
455.0
 20
-360.42859211877578
 30
0.0
 40
1.9998779296875
  0
HATCH
  5
101
100
AcDbEntity
  8
0
370
              -2
390
0
  6
Continuous
 62
               0
100
AcDbHatch
 10
0.0
 20
0.0
 30
0.0
210
0.0
220
0.0
230
1.0
  2
SOLID
 70
               1
 71
               1
 91
        1
 92
        1
 93
        1
 72
               2
 10
455.0
 20
-360.42859211877578
 40
1.9998779296875
 50
0.0
 51
360.0
 73
               0
 97
        1
330
100
 75
               0
 76
               1
 98
        1
 10
0.0
 20
0.0
  0
MTEXT
  5
102
100
AcDbEntity
  8
0
390
0
 62
               0
100
AcDbMText
 10
421.12238281250029
 20
-351.0
 30
0.0
 40
24.432617187500004
 41
0.0
 71
               1
 72
               1
  1
125(深さ)
  7
ＭＳゴシック
 11
0.0
 21
1.0
 31
0.0
 73
               1
 44
0.7828267384257843
  0
POINT
  5
103
100
AcDbEntity
  8
Defpoints
370
               0
390
0
 62
               0
100
AcDbPoint
 10
455.83959479959776
 20
-360.42859211877578
 30
0.0
  0
POINT
  5
104
100
AcDbEntity
  8
Defpoints
370
               0
390
0
 62
               0
100
AcDbPoint
 10
455.91397984914329
 20
-485.42859211875395
 30
0.0
  0
POINT
  5
105
100
AcDbEntity
  8
Defpoints
370
               0
390
0
 62
               0
100
AcDbPoint
 10
455.0
 20
-485.42859211875395
 30
0.0
  0
ENDBLK
  5
106
100
AcDbEntity
  8
notes
390
0
100
AcDbBlockEnd
  0
BLOCK
  5
107
100
AcDbEntity
  8
notes
390
0
100
AcDbBlockBegin
  2
*D16
 70
               1
 10
0.0
 20
0.0
 30
0.0
  3
*D16
  1

  0
LINE
  5
108
100
AcDbEntity
  8
0
370
              -2
390
0
  6
Continuous
 62
               0
100
AcDbLine
 10
346.79394853117628
 20
510.49360576477818
 30
0.0
 11
346.79394853117628
 21
290.0
 31
0.0
  0
LINE
  5
109
100
AcDbEntity
  8
0
370
              -2
390
0
  6
Continuous
 62
               0
100
AcDbLine
 10
596.79394853117628
 20
510.49360576477818
 30
0.0
 11
596.79394853117628
 21
290.0
 31
0.0
  0
LINE
  5
10A
100
AcDbEntity
  8
0
370
              -2
390
0
  6
Continuous
 62
               0
100
AcDbLine
 10
346.79394853117628
 20
290.0
 30
0.0
 11
596.79394853117628
 21
290.0
 31
0.0
  0
CIRCLE
  5
10B
102
{ACAD_REACTORS
330
10C
102
}
100
AcDbEntity
  8
0
370
              -2
390
0
  6
Continuous
 62
               0
100
AcDbCircle
 10
346.79394853117628
 20
290.0
 30
0.0
 40
1.9998779296875
  0
HATCH
  5
10C
100
AcDbEntity
  8
0
370
              -2
390
0
  6
Continuous
 62
               0
100
AcDbHatch
 10
0.0
 20
0.0
 30
0.0
210
0.0
220
0.0
230
1.0
  2
SOLID
 70
               1
 71
               1
 91
        1
 92
        1
 93
        1
 72
               2
 10
346.79394853117628
 20
290.0
 40
1.9998779296875
 50
0.0
 51
360.0
 73
               0
 97
        1
330
10B
 75
               0
 76
               1
 98
        1
 10
0.0
 20
0.0
  0
CIRCLE
  5
10D
102
{ACAD_REACTORS
330
10E
102
}
100
AcDbEntity
  8
0
370
              -2
390
0
  6
Continuous
 62
               0
100
AcDbCircle
 10
596.79394853117628
 20
290.0
 30
0.0
 40
1.9998779296875
  0
HATCH
  5
10E
100
AcDbEntity
  8
0
370
              -2
390
0
  6
Continuous
 62
               0
100
AcDbHatch
 10
0.0
 20
0.0
 30
0.0
210
0.0
220
0.0
230
1.0
  2
SOLID
 70
               1
 71
               1
 91
        1
 92
        1
 93
        1
 72
               2
 10
596.79394853117628
 20
290.0
 40
1.9998779296875
 50
0.0
 51
360.0
 73
               0
 97
        1
330
10D
 75
               0
 76
               1
 98
        1
 10
0.0
 20
0.0
  0
MTEXT
  5
10F
100
AcDbEntity
  8
0
390
0
 62
               0
100
AcDbMText
 10
447.98144684900035
 20
323.87761718749999
 30
0.0
 40
24.432617187500004
 41
0.0
 71
               1
 72
               1
  1
250
  7
ＭＳゴシック
 73
               1
 44
0.7828267384257843
  0
POINT
  5
110
100
AcDbEntity
  8
Defpoints
370
               0
390
0
 62
               0
100
AcDbPoint
 10
596.79394853117628
 20
535.49360576477818
 30
0.0
  0
POINT
  5
111
100
AcDbEntity
  8
Defpoints
370
               0
390
0
 62
               0
100
AcDbPoint
 10
346.79394853117628
 20
535.49360576477818
 30
0.0
  0
POINT
  5
112
100
AcDbEntity
  8
Defpoints
370
               0
390
0
 62
               0
100
AcDbPoint
 10
346.79394853117628
 20
290.0
 30
0.0
  0
ENDBLK
  5
113
100
AcDbEntity
  8
notes
390
0
100
AcDbBlockEnd
  0
BLOCK
  5
114
100
AcDbEntity
  8
notes
390
0
100
AcDbBlockBegin
  2
*D17
 70
               1
 10
0.0
 20
0.0
 30
0.0
  3
*D17
  1

  0
LINE
  5
115
100
AcDbEntity
  8
0
370
              -2
390
0
  6
Continuous
 62
               0
100
AcDbLine
 10
621.79394853117628
 20
535.49360576477818
 30
0.0
 11
870.82223503740897
 21
535.49360576477818
 31
0.0
  0
LINE
  5
116
100
AcDbEntity
  8
0
370
              -2
390
0
  6
Continuous
 62
               0
100
AcDbLine
 10
621.79394853117628
 20
835.49360576477818
 30
0.0
 11
870.82223503740897
 21
835.49360576477818
 31
0.0
  0
LINE
  5
117
100
AcDbEntity
  8
0
370
              -2
390
0
  6
Continuous
 62
               0
100
AcDbLine
 10
870.82223503740897
 20
535.49360576477818
 30
0.0
 11
870.82223503740897
 21
835.49360576477818
 31
0.0
  0
CIRCLE
  5
118
102
{ACAD_REACTORS
330
119
102
}
100
AcDbEntity
  8
0
370
              -2
390
0
  6
Continuous
 62
               0
100
AcDbCircle
 10
870.82223503740897
 20
535.49360576477818
 30
0.0
 40
1.9998779296875
  0
HATCH
  5
119
100
AcDbEntity
  8
0
370
              -2
390
0
  6
Continuous
 62
               0
100
AcDbHatch
 10
0.0
 20
0.0
 30
0.0
210
0.0
220
0.0
230
1.0
  2
SOLID
 70
               1
 71
               1
 91
        1
 92
        1
 93
        1
 72
               2
 10
870.82223503740897
 20
535.49360576477818
 40
1.9998779296875
 50
0.0
 51
360.0
 73
               0
 97
        1
330
118
 75
               0
 76
               1
 98
        1
 10
0.0
 20
0.0
  0
CIRCLE
  5
11A
102
{ACAD_REACTORS
330
11B
102
}
100
AcDbEntity
  8
0
370
              -2
390
0
  6
Continuous
 62
               0
100
AcDbCircle
 10
870.82223503740897
 20
835.49360576477818
 30
0.0
 40
1.9998779296875
  0
HATCH
  5
11B
100
AcDbEntity
  8
0
370
              -2
390
0
  6
Continuous
 62
               0
100
AcDbHatch
 10
0.0
 20
0.0
 30
0.0
210
0.0
220
0.0
230
1.0
  2
SOLID
 70
               1
 71
               1
 91
        1
 92
        1
 93
        1
 72
               2
 10
870.82223503740897
 20
835.49360576477818
 40
1.9998779296875
 50
0.0
 51
360.0
 73
               0
 97
        1
330
11A
 75
               0
 76
               1
 98
        1
 10
0.0
 20
0.0
  0
MTEXT
  5
11C
100
AcDbEntity
  8
0
390
0
 62
               0
100
AcDbMText
 10
836.94461784990926
 20
661.68110408260259
 30
0.0
 40
24.432617187500004
 41
0.0
 71
               1
 72
               1
  1
300
  7
ＭＳゴシック
 11
0.0
 21
1.0
 31
0.0
 73
               1
 44
0.7828267384257843
  0
POINT
  5
11D
100
AcDbEntity
  8
Defpoints
370
               0
390
0
 62
               0
100
AcDbPoint
 10
596.79394853117628
 20
835.49360576477818
 30
0.0
  0
POINT
  5
11E
100
AcDbEntity
  8
Defpoints
370
               0
390
0
 62
               0
100
AcDbPoint
 10
596.79394853117628
 20
535.49360576477818
 30
0.0
  0
POINT
  5
11F
100
AcDbEntity
  8
Defpoints
370
               0
390
0
 62
               0
100
AcDbPoint
 10
870.82223503740897
 20
535.49360576477818
 30
0.0
  0
ENDBLK
  5
120
100
AcDbEntity
  8
notes
390
0
100
AcDbBlockEnd
  0
BLOCK
  5
121
100
AcDbEntity
  8
notes
390
0
100
AcDbBlockBegin
  2
*D18
 70
               1
 10
0.0
 20
0.0
 30
0.0
  3
*D18
  1

  0
LINE
  5
122
100
AcDbEntity
  8
0
370
              -2
390
0
  6
Continuous
 62
               0
100
AcDbLine
 10
621.79394853117628
 20
835.49360576477818
 30
0.0
 11
870.82223503740897
 21
835.49360576477818
 31
0.0
  0
LINE
  5
123
100
AcDbEntity
  8
0
370
              -2
390
0
  6
Continuous
 62
               0
100
AcDbLine
 10
791.79394853117628
 20
855.49360576477818
 30
0.0
 11
870.82223503740897
 21
855.49360576477818
 31
0.0
  0
LINE
  5
124
100
AcDbEntity
  8
0
370
              -2
390
0
  6
Continuous
 62
               0
100
AcDbLine
 10
870.82223503740897
 20
855.49360576477818
 30
0.0
 11
870.82223503740897
 21
907.75
 31
0.0
  0
LINE
  5
125
100
AcDbEntity
  8
0
370
              -2
390
0
  6
Continuous
 62
               0
100
AcDbLine
 10
870.82223503740897
 20
835.49360576477818
 30
0.0
 11
870.82223503740897
 21
855.49360576477818
 31
0.0
  0
CIRCLE
  5
126
102
{ACAD_REACTORS
330
127
102
}
100
AcDbEntity
  8
0
370
              -2
390
0
  6
Continuous
 62
               0
100
AcDbCircle
 10
870.82223503740897
 20
835.49360576477818
 30
0.0
 40
1.9998779296875
  0
HATCH
  5
127
100
AcDbEntity
  8
0
370
              -2
390
0
  6
Continuous
 62
               0
100
AcDbHatch
 10
0.0
 20
0.0
 30
0.0
210
0.0
220
0.0
230
1.0
  2
SOLID
 70
               1
 71
               1
 91
        1
 92
        1
 93
        1
 72
               2
 10
870.82223503740897
 20
835.49360576477818
 40
1.9998779296875
 50
0.0
 51
360.0
 73
               0
 97
        1
330
126
 75
               0
 76
               1
 98
        1
 10
0.0
 20
0.0
  0
CIRCLE
  5
128
102
{ACAD_REACTORS
330
129
102
}
100
AcDbEntity
  8
0
370
              -2
390
0
  6
Continuous
 62
               0
100
AcDbCircle
 10
870.82223503740897
 20
855.49360576477818
 30
0.0
 40
1.9998779296875
  0
HATCH
  5
129
100
AcDbEntity
  8
0
370
              -2
390
0
  6
Continuous
 62
               0
100
AcDbHatch
 10
0.0
 20
0.0
 30
0.0
210
0.0
220
0.0
230
1.0
  2
SOLID
 70
               1
 71
               1
 91
        1
 92
        1
 93
        1
 72
               2
 10
870.82223503740897
 20
855.49360576477818
 40
1.9998779296875
 50
0.0
 51
360.0
 73
               0
 97
        1
330
128
 75
               0
 76
               1
 98
        1
 10
0.0
 20
0.0
  0
MTEXT
  5
12A
100
AcDbEntity
  8
0
390
0
 62
               0
100
AcDbMText
 10
836.94461784990926
 20
876.0
 30
0.0
 40
24.432617187500004
 41
0.0
 71
               1
 72
               1
  1
20
  7
ＭＳゴシック
 11
0.0
 21
1.0
 31
0.0
 73
               1
 44
0.7828267384257843
  0
POINT
  5
12B
100
AcDbEntity
  8
Defpoints
370
               0
390
0
 62
               0
100
AcDbPoint
 10
766.79394853117628
 20
855.49360576477818
 30
0.0
  0
POINT
  5
12C
100
AcDbEntity
  8
Defpoints
370
               0
390
0
 62
               0
100
AcDbPoint
 10
596.79394853117628
 20
835.49360576477818
 30
0.0
  0
POINT
  5
12D
100
AcDbEntity
  8
Defpoints
370
               0
390
0
 62
               0
100
AcDbPoint
 10
870.82223503740897
 20
835.49360576477818
 30
0.0
  0
ENDBLK
  5
12E
100
AcDbEntity
  8
notes
390
0
100
AcDbBlockEnd
  0
ENDSEC
  0
SECTION
  2
ENTITIES
  0
MTEXT
  5
12F
100
AcDbEntity
  8
template
390
0
 62
               7
100
AcDbMText
 10
-967.99999999975989
 20
-1147.4176292337004
 30
0.0
 40
16.288411458333332
 41
0.0
 71
               1
 72
               1
  1
品名
  7
ＭＳ ゴシック
 73
               1
 44
0.7828267384257843
  0
MTEXT
  5
130
100
AcDbEntity
  8
template
390
0
 62
               7
100
AcDbMText
 10
-967.99999999975989
 20
-1232.4176292337004
 30
0.0
 40
16.288411458333332
 41
0.0
 71
               1
 72
               1
  1
仕様
  7
ＭＳ ゴシック
 73
               1
 44
0.7828267384257843
  0
MTEXT
  5
131
100
AcDbEntity
  8
template
390
0
 62
               7
100
AcDbMText
 10
-914.99999999975989
 20
-1176.0000901712006
 30
0.0
 40
24.432617187500004
 41
0.0
 71
               1
 72
               1
  1
洗面器 -CATALANO,Sfera-
  7
ＭＳ ゴシック
 73
               1
 44
0.7828267384257843
  0
LINE
  5
132
100
AcDbEntity
  8
template
370
               5
390
0
  6
Continuous
 62
               7
100
AcDbLine
 10
974.99999999975807
 20
-1224.0027073587005
 30
0.0
 11
-975.00000000024193
 21
-1224.0027073587005
 31
0.0
  0
LWPOLYLINE
  5
133
100
AcDbEntity
  8
template
370
               5
390
0
  6
Continuous
 62
               7
100
AcDbPolyline
 90
        5
 70
             128
 10
975.00000000024193
 20
1405.9972926412995
 10
-974.99999999975989
 20
1405.9972926412995
 10
-974.99999999975989
 20
-1394.0027073587005
 10
975.00000000024193
 20
-1394.0027073587005
 10
975.00000000024193
 20
1405.9972926412995
  0
LINE
  5
134
100
AcDbEntity
  8
template
370
               5
390
0
  6
Continuous
 62
               7
100
AcDbLine
 10
974.99999999975807
 20
-1139.0027073587005
 30
0.0
 11
-975.00000000024193
 21
-1139.0027073587005
 31
0.0
  0
LINE
  5
135
100
AcDbEntity
  8
template
370
               5
390
0
  6
Continuous
 62
               7
100
AcDbLine
 10
975.00000000024193
 20
-1309.0027073587005
 30
0.0
 11
222.00000000024193
 21
-1309.0027073587005
 31
0.0
  0
MTEXT
  5
136
100
AcDbEntity
  8
template
390
0
 62
               7
100
AcDbMText
 10
-974.99999999955617
 20
-1405.8565294155574
 30
0.0
 40
21.717881944444446
 41
0.0
 71
               1
 72
               1
  1
120301SO
  7
ＭＳ ゴシック
 73
               1
 44
0.7828267384257843
  0
MTEXT
  5
137
100
AcDbEntity
  8
template
390
0
 62
               7
100
AcDbMText
 10
251.8714062525014
 20
-1338.9131018320081
 30
0.0
 40
24.432617187500004
 41
0.0
 71
               1
 72
               1
  1
大洋金物株式会社 ティーフォルム事業部
  7
ＭＳ ゴシック
 73
               1
 44
0.7828267384257843
  0
INSERT
  5
138
100
AcDbEntity
  8
template
390
0
 62
               7
100
AcDbBlockReference
  2
グループ
 10
14893.62545432321
 20
263.42350862472085
 30
0.0
  0
MTEXT
  5
139
100
AcDbEntity
  8
template
390
0
 62
               7
100
AcDbMText
 10
784.00000000050022
 20
-1261.0000901712006
 30
0.0
 40
24.432617187500004
 41
0.0
 71
               1
 72
               1
  1
1:10
  7
ＭＳ ゴシック
 73
               1
 44
0.7828267384257843
  0
MTEXT
  5
13A
100
AcDbEntity
  8
template
390
0
 62
               7
100
AcDbMText
 10
731.00000000050022
 20
-1232.4176292337004
 30
0.0
 40
16.288411458333332
 41
0.0
 71
               1
 72
               1
  1
縮尺
  7
ＭＳ ゴシック
 73
               1
 44
0.7828267384257843
  0
LINE
  5
13B
100
AcDbEntity
  8
template
370
               5
390
0
  6
Continuous
 62
               7
100
AcDbLine
 10
724.00000000050022
 20
-1309.0027073587005
 30
0.0
 11
724.00000000050022
 21
-1224.0027073587005
 31
0.0
  0
MTEXT
  5
13C
100
AcDbEntity
  8
template
390
0
 62
               7
100
AcDbMText
 10
480.00000000050022
 20
-1232.4176292337004
 30
0.0
 40
16.288411458333332
 41
0.0
 71
               1
 72
               1
  1
容量
  7
ＭＳ ゴシック
 73
               1
 44
0.7828267384257843
  0
LINE
  5
13D
100
AcDbEntity
  8
template
370
               5
390
0
  6
Continuous
 62
               7
100
AcDbLine
 10
473.00000000050022
 20
-1309.0027073587005
 30
0.0
 11
473.00000000050022
 21
-1224.0027073587005
 31
0.0
  0
MTEXT
  5
13E
100
AcDbEntity
  8
template
390
0
 62
               7
100
AcDbMText
 10
229.00000000050022
 20
-1147.4176292337004
 30
0.0
 40
16.288411458333332
 41
0.0
 71
               1
 72
               1
  1
品番
  7
ＭＳ ゴシック
 73
               1
 44
0.7828267384257843
  0
MTEXT
  5
13F
100
AcDbEntity
  8
template
390
0
 62
               7
100
AcDbMText
 10
229.00000000050022
 20
-1232.4176292337004
 30
0.0
 40
16.288411458333332
 41
0.0
 71
               1
 72
               1
  1
重量
  7
ＭＳ ゴシック
 73
               1
 44
0.7828267384257843
  0
MTEXT
  5
140
100
AcDbEntity
  8
template
390
0
 62
               7
100
AcDbMText
 10
282.00000000050022
 20
-1176.0000901712006
 30
0.0
 40
24.432617187500004
 41
0.0
 71
               1
 72
               1
  1
ADF70-1308
  7
ＭＳ ゴシック
 73
               1
 44
0.7828267384257843
  0
LINE
  5
141
100
AcDbEntity
  8
template
370
               5
390
0
  6
Continuous
 62
               7
100
AcDbLine
 10
222.00000000050022
 20
-1394.0027073587005
 30
0.0
 11
222.00000000050022
 21
-1139.0027073587005
 31
0.0
  0
MTEXT
  5
142
100
AcDbEntity
  8
template
390
0
 62
               7
100
AcDbMText
 10
-914.99999999975989
 20
-1261.0000901712006
 30
0.0
 40
24.432617187500004
 41
0.0
 71
               1
 72
               1
  1
壁掛け、カウンター置き/オーバーフロー付き/壁取付ボルト付属/\P陶器/ホワイト
  7
ＭＳ ゴシック
 73
               1
 44
1.3047112307096407
  0
MTEXT
  5
143
100
AcDbEntity
  8
template
390
0
 62
               7
100
AcDbMText
 10
279.25
 20
-1257.8723828125001
 30
0.0
 40
24.432617187500004
 41
0.0
 71
               1
 72
               1
  1
19kg
  7
ＭＳ ゴシック
 73
               1
 44
0.7828267384257843
  0
MTEXT
  5
144
100
AcDbEntity
  8
template
390
0
 62
               7
100
AcDbMText
 10
535.0
 20
-1260.8723828125001
 30
0.0
 40
24.432617187500004
 41
0.0
 71
               1
 72
               1
  1
6.5L
  7
ＭＳ ゴシック
 73
               1
 44
0.7828267384257843
  0
MTEXT
  5
145
100
AcDbEntity
  8
notes
390
0
 62
               7
100
AcDbMText
 10
-826.52033649753866
 20
222.16360566006165
 30
0.0
 40
24.432617187500004
 41
843.43340638006725
 71
               1
 72
               1
  1
＝φ30もしくはφ35の水栓取付用穴あけ加工を承ります。\P   必要な場合、ご注文の際にご指示ください。
  7
ＭＳゴシック
 73
               1
 44
1.0437689845677123
  0
CIRCLE
  5
146
100
AcDbEntity
  8
notes
370
               5
390
0
  6
STYLE_12
 62
               7
100
AcDbCircle
 10
-848.49878659322894
 20
211.81215344934685
 30
0.0
 40
17.5
  0
DIMENSION
  5
147
100
AcDbEntity
  8
notes
370
               5
390
0
  6
Continuous
 62
               7
100
AcDbDimension
  2
*D3
 10
-756.02828650623633
 20
1005.4936057647773
 30
0.0
 11
-456.02828650623451
 21
1005.4936057647773
 31
0.0
 71
               5
 72
               1
 41
1.0
 42
0.0
  3
tform線あり
100
AcDbAlignedDimension
 13
-156.02828650623269
 23
851.3307474347597
 33
0.0
 14
-756.02828650623633
 24
851.33074743476129
 34
0.0
100
AcDbRotatedDimension
1001
ACAD
1000
DSTYLE
1002
{
1070
             271
1070
               0
1070
             279
1070
               2
1070
             340
1005
34
1070
             147
1040
5.0
1002
}
  0
DIMENSION
  5
148
100
AcDbEntity
  8
notes
370
               5
390
0
  6
Continuous
 62
               7
100
AcDbDimension
  2
*D4
 10
-56.028286506232689
 20
855.49360576477818
 30
0.0
 11
-56.028286506232689
 21
630.49360576477818
 31
0.0
 71
               5
 72
               1
 41
1.0
 42
0.0
  3
tform線あり
100
AcDbAlignedDimension
 13
-316.74965178107595
 23
405.49360576477812
 33
0.0
 14
-161.02828650623269
 24
855.49360576477818
 34
0.0
 50
90.0
100
AcDbRotatedDimension
1001
ACAD
1000
DSTYLE
1002
{
1070
             279
1070
               2
1070
             340
1005
34
1070
             147
1040
5.0
1002
}
  0
DIMENSION
  5
149
100
AcDbEntity
  8
notes
370
               5
390
0
  6
Continuous
 62
               7
100
AcDbDimension
  2
*D5
 10
-556.02828650623269
 20
955.49360576477773
 30
0.0
 11
-506.02828650623269
 21
955.49360576477773
 31
0.0
 71
               5
 72
               1
 41
1.0
 42
0.0
  3
tform線あり
100
AcDbAlignedDimension
 13
-456.02828650623269
 23
807.99360576477727
 33
0.0
 14
-556.02828650623269
 24
807.99360576477727
 34
0.0
100
AcDbRotatedDimension
1001
ACAD
1000
DSTYLE
1002
{
1070
             279
1070
               2
1070
             340
1005
34
1070
             147
1040
5.0
1002
}
  0
DIMENSION
  5
14A
100
AcDbEntity
  8
notes
370
               5
390
0
  6
Continuous
 62
               7
100
AcDbDimension
  2
*D6
 10
-456.02828650623269
 20
955.49360576477773
 30
0.0
 11
-406.02828650623269
 21
955.49360576477773
 31
0.0
 71
               5
 72
               1
 41
1.0
 42
0.0
  3
tform線あり
100
AcDbAlignedDimension
 13
-356.02828650623269
 23
807.99360576477727
 33
0.0
 14
-456.02828650623269
 24
807.99360576477727
 34
0.0
100
AcDbRotatedDimension
1001
ACAD
1000
DSTYLE
1002
{
1070
             279
1070
               2
1070
             340
1005
34
1070
             147
1040
5.0
1002
}
  0
DIMENSION
  5
14B
100
AcDbEntity
  8
notes
370
               5
390
0
  6
Continuous
 62
               7
100
AcDbDimension
  2
*D7
 10
733.41341116723743
 20
-640.4285921187394
 30
0.0
 11
595.91341116723743
 21
-635.4285921187394
 31
0.0
 70
             128
 71
               5
 72
               1
 41
1.0
 42
0.0
  3
tform線あり
100
AcDbAlignedDimension
 13
458.41341116723743
 23
-535.42859211875395
 33
0.0
 14
733.41341116723743
 24
-534.42859211877578
 34
0.0
100
AcDbRotatedDimension
1001
ACAD
1000
DSTYLE
1002
{
1070
             279
1070
               2
1070
             340
1005
34
1070
             147
1040
5.0
1002
}
  0
DIMENSION
  5
14C
100
AcDbEntity
  8
notes
370
               5
390
0
  6
Continuous
 62
               7
100
AcDbDimension
  2
*D8
 10
-316.15426400787146
 20
-281.68158846330982
 30
0.0
 11
-456.15426400787146
 21
-276.68158846330982
 31
0.0
 70
             128
 71
               5
 72
               1
 41
1.0
 42
0.0
  3
tform線あり
100
AcDbAlignedDimension
 13
-596.15426400787146
 23
-380.38158846330964
 33
0.0
 14
-316.15426400787146
 24
-380.38158846330964
 34
0.0
100
AcDbRotatedDimension
1001
ACAD
1000
DSTYLE
1002
{
1070
             279
1070
               2
1070
             340
1005
34
1070
             147
1040
5.0
1002
}
  0
MTEXT
  5
14D
100
AcDbEntity
  8
notes
390
0
 62
               7
100
AcDbMText
 10
-243.59990630598259
 20
-275.6703000068394
 30
0.0
 40
24.432617187500004
 41
0.0
 71
               1
 72
               1
  1
壁取付ボルト位置
  7
ＭＳゴシック
 73
               1
 44
0.7828267384257843
  0
LINE
  5
14E
100
AcDbEntity
  8
notes
370
               5
390
0
  6
Continuous
 62
               7
100
AcDbLine
 10
-316.15426400787146
 20
-400.38158846330964
 30
0.0
 11
-225.68111870979192
 21
-309.9084431652301
 31
0.0
  0
DIMENSION
  5
14F
100
AcDbEntity
  8
notes
370
               5
390
0
  6
Continuous
 62
               7
100
AcDbDimension
  2
*D9
 10
-856.02828650623269
 20
-400.38158846330964
 30
0.0
 11
-856.02828650623269
 21
-380.40509029104271
 31
0.0
 71
               5
 72
               1
 41
1.0
 42
0.0
  3
tform線あり
100
AcDbAlignedDimension
 13
-751.02932784749282
 23
-360.42859211877578
 33
0.0
 14
-616.02828650623269
 24
-400.38158846330964
 34
0.0
 50
90.0
100
AcDbRotatedDimension
1001
ACAD
1000
DSTYLE
1002
{
1070
             279
1070
               2
1070
             340
1005
34
1070
             147
1040
5.0
1002
}
  0
DIMENSION
  5
150
100
AcDbEntity
  8
notes
370
               5
390
0
  6
Continuous
 62
               7
100
AcDbDimension
  2
*D10
 10
-56.07573784113265
 20
-360.42859211877578
 30
0.0
 11
-56.07573784113265
 21
-450.42859211875759
 31
0.0
 71
               5
 72
               1
 41
1.0
 42
0.0
  3
tform線あり
100
AcDbAlignedDimension
 13
-233.29153569857408
 23
-540.4285921187394
 33
0.0
 14
-161.02724516497437
 24
-360.42859211877578
 34
0.0
 50
90.0
100
AcDbRotatedDimension
1001
ACAD
1000
DSTYLE
1002
{
1070
             279
1070
               2
1070
             340
1005
34
1070
             147
1040
5.0
1002
}
  0
DIMENSION
  5
151
100
AcDbEntity
  8
notes
370
               5
390
0
  6
Continuous
 62
               7
100
AcDbDimension
  2
*D11
 10
733.41341116723561
 20
-271.0
 30
0.0
 11
700.91341116723561
 21
-271.0
 31
0.0
 71
               5
 72
               1
 41
1.0
 42
0.0
  3
tform線あり
100
AcDbAlignedDimension
 13
668.41341116723561
 23
-360.42859211877578
 33
0.0
 14
733.41341116723561
 24
-364.42859211877578
 34
0.0
100
AcDbRotatedDimension
1001
ACAD
1000
DSTYLE
1002
{
1070
             279
1070
               2
1070
             340
1005
34
1070
             147
1040
5.0
1002
}
  0
DIMENSION
  5
152
100
AcDbEntity
  8
notes
370
               5
390
0
  6
Continuous
 62
               7
100
AcDbDimension
  2
*D12
 10
-835.0
 20
855.49360576477818
 30
0.0
 11
-835.0
 21
792.99360576477773
 31
0.0
 71
               5
 72
               1
 41
1.0
 42
0.0
  3
tform線あり
100
AcDbAlignedDimension
 13
-756.02828650623269
 23
730.49360576477727
 33
0.0
 14
-751.02828650623269
 24
855.49360576477818
 34
0.0
 50
90.0
100
AcDbRotatedDimension
1001
ACAD
1000
DSTYLE
1002
{
1070
             279
1070
               2
1070
             340
1005
34
1070
             147
1040
5.0
1002
}
  0
DIMENSION
  5
153
100
AcDbEntity
  8
notes
370
               5
390
0
  6
Continuous
 62
               7
100
AcDbDimension
  2
*D13
 10
-835.0
 20
730.49360576477727
 30
0.0
 11
-835.0
 21
582.99360576477727
 31
0.0
 71
               5
 72
               1
 41
1.0
 42
0.0
  3
tform線あり
100
AcDbAlignedDimension
 13
-672.02333588975307
 23
435.49360576477721
 33
0.0
 14
-756.02828650623269
 24
730.49360576477727
 34
0.0
 50
90.0
100
AcDbRotatedDimension
1001
ACAD
1000
DSTYLE
1002
{
1070
             279
1070
               2
1070
             340
1005
34
1070
             147
1040
5.0
1002
}
  0
DIMENSION
  5
154
100
AcDbEntity
  8
notes
370
               5
390
0
  6
Continuous
 62
               7
100
AcDbDimension
  2
*D14
 10
-721.02828650623269
 20
290.0
 30
0.0
 11
-456.03507889607135
 21
290.0
 31
0.0
 71
               5
 72
               1
 41
1.0
 42
0.0
  3
tform線あり
100
AcDbAlignedDimension
 13
-191.04187128591002
 23
481.05943881150637
 33
0.0
 14
-721.02828650623269
 24
479.05304457628364
 34
0.0
100
AcDbRotatedDimension
1001
ACAD
1000
DSTYLE
1002
{
1070
             279
1070
               2
1070
             340
1005
34
1070
             147
1040
5.0
1002
}
  0
DIMENSION
  5
155
100
AcDbEntity
  8
notes
370
               5
390
0
  6
Continuous
 62
               7
100
AcDbDimension
  2
*D15
 10
455.0
 20
-485.42859211875395
 30
0.0
 11
450.0
 21
-351.0
 31
0.0
 70
             128
 71
               5
 72
               1
 41
1.0
 42
0.0
  3
tform線あり
100
AcDbAlignedDimension
 13
455.83959479959776
 23
-360.42859211877578
 33
0.0
 14
455.91397984914329
 24
-485.42859211875395
 34
0.0
 50
90.0
100
AcDbRotatedDimension
1001
ACAD
1000
DSTYLE
1002
{
1070
             279
1070
               2
1070
             340
1005
34
1070
               3
1000
<>(深さ)
1070
             174
1070
               0
1070
             147
1040
5.0
1002
}
  0
DIMENSION
  5
156
100
AcDbEntity
  8
notes
370
               5
390
0
  6
Continuous
 62
               7
100
AcDbDimension
  2
*D16
 10
346.79394853117628
 20
290.0
 30
0.0
 11
471.79394853117628
 21
290.0
 31
0.0
 71
               5
 72
               1
 41
1.0
 42
0.0
  3
tform線あり
100
AcDbAlignedDimension
 13
596.79394853117628
 23
535.49360576477818
 33
0.0
 14
346.79394853117628
 24
535.49360576477818
 34
0.0
100
AcDbRotatedDimension
1001
ACAD
1000
DSTYLE
1002
{
1070
             279
1070
               2
1070
             340
1005
34
1070
             147
1040
5.0
1002
}
  0
DIMENSION
  5
157
100
AcDbEntity
  8
notes
370
               5
390
0
  6
Continuous
 62
               7
100
AcDbDimension
  2
*D17
 10
870.82223503740897
 20
535.49360576477818
 30
0.0
 11
870.82223503740897
 21
685.49360576477818
 31
0.0
 71
               5
 72
               1
 41
1.0
 42
0.0
  3
tform線あり
100
AcDbAlignedDimension
 13
596.79394853117628
 23
835.49360576477818
 33
0.0
 14
596.79394853117628
 24
535.49360576477818
 34
0.0
 50
90.0
100
AcDbRotatedDimension
1001
ACAD
1000
DSTYLE
1002
{
1070
             279
1070
               2
1070
             340
1005
34
1070
             147
1040
5.0
1002
}
  0
DIMENSION
  5
158
100
AcDbEntity
  8
notes
370
               5
390
0
  6
Continuous
 62
               7
100
AcDbDimension
  2
*D18
 10
870.82223503740897
 20
835.49360576477818
 30
0.0
 11
875.82223503740897
 21
876.0
 31
0.0
 70
             128
 71
               5
 72
               1
 41
1.0
 42
0.0
  3
tform線あり
100
AcDbAlignedDimension
 13
766.79394853117628
 23
855.49360576477818
 33
0.0
 14
596.79394853117628
 24
835.49360576477818
 34
0.0
 50
90.0
100
AcDbRotatedDimension
1001
ACAD
1000
DSTYLE
1002
{
1070
             279
1070
               2
1070
             340
1005
34
1070
             174
1070
               0
1070
             147
1040
5.0
1002
}
  0
MTEXT
  5
159
100
AcDbEntity
  8
notes
390
0
 62
               7
100
AcDbMText
 10
328.91894853117628
 20
1128.8776171875002
 30
0.0
 40
24.432617187500004
 41
0.0
 71
               1
 72
               1
  1
カウンター切込寸法
  7
ＭＳゴシック
 73
               1
 44
0.7828267384257843
  0
MTEXT
  5
15A
100
AcDbEntity
  8
notes
390
0
 62
               7
100
AcDbMText
 10
124.67672453959312
 20
223.92808983041215
 30
0.0
 40
24.432617187500004
 41
764.7717154610109
 71
               1
 72
               1
  1
※陶器製品には寸法公差があります。\P  洗面器の収め方をご確認の上、必ず現物を合わせて\P  カウンターに切込を行ってください。
  7
ＭＳゴシック
 73
               1
 44
1.0437689845677123
  0
LWPOLYLINE
  5
15B
100
AcDbEntity
  8
ADF70-1307
370
              15
390
0
  6
Continuous
 62
               7
100
AcDbPolyline
 90
        7
 70
             128
 10
-573.52828650623269
 20
435.49360576477721
 42
-0.414213562373095
 10
-721.02828650623269
 20
582.99360576477727
 42
-0.4142135623730953
 10
-573.52828650623269
 20
730.49360576477727
 10
-338.52822449262385
 20
730.49360576477727
 42
-0.414213562373095
 10
-191.02822449262385
 20
582.99360576477727
 42
-0.4142135623730948
 10
-338.52822449262385
 20
435.49360576477721
 10
-573.52828650623269
 20
435.49360576477721
  0
CIRCLE
  5
15C
100
AcDbEntity
  8
ADF70-1307
370
              15
390
0
  6
Continuous
 62
               7
100
AcDbCircle
 10
-456.02828650623269
 20
577.99417444668302
 30
0.0
 40
23.0
  0
CIRCLE
  5
15D
100
AcDbEntity
  8
ADF70-1307
370
              15
390
0
  6
STYLE_12
 62
               7
100
AcDbCircle
 10
-356.02828650623269
 20
790.49360576477727
 30
0.0
 40
17.5
  0
SPLINE
  5
15E
100
AcDbEntity
  8
ADF70-1307
370
              15
390
0
  6
Continuous
 62
               7
100
AcDbSpline
210
0.0
220
0.0
230
1.0
 70
               8
 71
               2
 72
              32
 73
              29
 74
               0
 42
0.000001
 43
0.000001
 40
0.0
 40
0.0
 40
0.0
 40
1.0
 40
2.0
 40
3.0
 40
4.0
 40
5.0
 40
6.0
 40
6.0
 40
7.0
 40
8.0
 40
9.0
 40
10.0
 40
11.0
 40
12.0
 40
12.0
 40
13.0
 40
14.0
 40
15.0
 40
16.0
 40
17.0
 40
18.0
 40
18.0
 40
19.0
 40
20.0
 40
21.0
 40
22.0
 40
23.0
 40
24.0
 40
24.0
 40
24.0
 10
-443.52828650623269
 20
703.74464988100124
 30
0.0
 10
-443.584732730018
 20
704.20753177137919
 30
0.0
 10
-444.26750910076589
 20
704.79348891818279
 30
0.0
 10
-445.19325215938079
 20
705.26444991262736
 30
0.0
 10
-446.48319921795701
 20
705.70074086730267
 30
0.0
 10
-449.05700704306946
 20
706.2904034202769
 30
0.0
 10
-453.47063411986528
 20
706.74911337931178
 30
0.0
 10
-456.028255237954
 20
706.74464988099191
 30
0.0
 10
-458.58649688747028
 20
706.75046746129499
 30
0.0
 10
-463.00220852571147
 20
706.29800303593527
 30
0.0
 10
-465.57333391637076
 20
705.70075206931381
 30
0.0
 10
-466.86329003152787
 20
705.2644626057089
 30
0.0
 10
-467.78904254256122
 20
704.79350255115162
 30
0.0
 10
-468.4718297569525
 20
704.20754796747394
 30
0.0
 10
-468.52828650607626
 20
703.74466488977566
 30
0.0
 10
-468.47185080765485
 20
703.28178418682762
 30
0.0
 10
-467.78908528057582
 20
702.6958244768133
 30
0.0
 10
-466.86335167436846
 20
702.2248625424935
 30
0.0
 10
-465.57341367242043
 20
701.78857009675619
 30
0.0
 10
-462.99961667165553
 20
701.19890436003391
 30
0.0
 10
-458.58599876192966
 20
700.74018931162357
 30
0.0
 10
-456.0283803110724
 20
700.74464988108582
 30
0.0
 10
-453.47013599918864
 20
700.7388294030701
 30
0.0
 10
-449.05441523312038
 20
701.19128879581365
 30
0.0
 10
-446.4832789744687
 20
701.78853649072551
 30
0.0
 10
-445.19331380274889
 20
702.22482446324227
 30
0.0
 10
-444.26755183929345
 20
702.69578357790795
 30
0.0
 10
-443.5847537813097
 20
703.28173559854702
 30
0.0
 10
-443.52828650685842
 20
703.74461986345261
 30
0.0
  0
CIRCLE
  5
15F
100
AcDbEntity
  8
ADF70-1307
370
              15
390
0
  6
STYLE_12
 62
               7
100
AcDbCircle
 10
-456.02828650623269
 20
790.49360576477727
 30
0.0
 40
17.5
  0
CIRCLE
  5
160
100
AcDbEntity
  8
ADF70-1307
370
              15
390
0
  6
STYLE_12
 62
               7
100
AcDbCircle
 10
-556.02828650623269
 20
790.49360576477727
 30
0.0
 40
17.5
  0
LWPOLYLINE
  5
161
100
AcDbEntity
  8
ADF70-1307
370
              15
390
0
  6
Continuous
 62
               7
100
AcDbPolyline
 90
       10
 70
             129
 10
-456.02828650623269
 20
855.49360576477727
 10
-751.02828650623269
 20
855.49360576477818
 42
0.4142135623730484
 10
-756.02828650623269
 20
850.49360576477818
 10
-756.02828650623269
 20
590.49360576477716
 42
0.4053193824779704
 10
-576.66285389973564
 20
405.57943202385451
 10
-456.02828650623269
 20
405.57943202385451
 10
-335.39371911272974
 20
405.57943202385451
 42
0.4053193824779702
 10
-156.02828650623269
 20
590.49360576477716
 10
-156.02828650623269
 20
850.49360576477818
 42
0.414213562373095
 10
-161.02828650623269
 20
855.49360576477818
  0
CIRCLE
  5
162
100
AcDbEntity
  8
ADF70-1307
370
              15
390
0
  6
Continuous
 62
               7
100
AcDbCircle
 10
-456.02828650623269
 20
577.99417444668302
 30
0.0
 40
39.0
  0
LINE
  5
163
100
AcDbEntity
  8
ADF70-1307
370
              15
390
0
  6
Continuous
 62
               7
100
AcDbLine
 10
-751.02932784749282
 20
-360.42859211877578
 30
0.0
 11
-161.02724516497437
 21
-360.42859211877578
 31
0.0
  0
LINE
  5
164
100
AcDbEntity
  8
ADF70-1307
370
              15
390
0
  6
STYLE_12
 62
               7
100
AcDbLine
 10
-478.52828650623269
 20
-535.42859211875214
 30
0.0
 11
-433.52828650623269
 21
-535.42859211875214
 31
0.0
  0
LINE
  5
165
100
AcDbEntity
  8
ADF70-1307
370
              15
390
0
  6
STYLE_12
 62
               7
100
AcDbLine
 10
-496.02828650623269
 20
-485.42859211875214
 30
0.0
 11
-416.02828650623269
 21
-485.42859211875214
 31
0.0
  0
ARC
  5
166
100
AcDbEntity
  8
ADF70-1307
370
              15
390
0
  6
STYLE_12
 62
               7
100
AcDbCircle
 10
-288.50640111047323
 20
-359.93771376073903
 30
0.0
 40
125.49093145436757
100
AcDbArc
 50
270.05270645733953
 51
290.85904357463176
  0
ARC
  5
167
100
AcDbEntity
  8
ADF70-1307
370
              15
390
0
  6
STYLE_12
 62
               7
100
AcDbCircle
 10
-272.30843986993386
 20
-402.44713502515754
 30
0.0
 40
80.00000000000108
100
AcDbArc
 50
290.85904357463954
 51
325.25191884089645
  0
ARC
  5
168
100
AcDbEntity
  8
ADF70-1307
370
              15
390
0
  6
STYLE_12
 62
               7
100
AcDbCircle
 10
-319.21061707986337
 20
-369.91226358685992
 30
0.0
 40
137.08180171068855
100
AcDbArc
 50
325.25191884089747
 51
341.73436746889843
  0
ARC
  5
169
100
AcDbEntity
  8
ADF70-1307
370
              15
390
0
  6
STYLE_12
 62
               7
100
AcDbCircle
 10
-283.99723210111733
 20
-381.53454978391221
 30
0.0
 40
100.00000000004366
100
AcDbArc
 50
341.73436746890167
 51
344.69599790813652
  0
ARC
  5
16A
100
AcDbEntity
  8
ADF70-1307
370
              15
390
0
  6
STYLE_12
 62
               7
100
AcDbCircle
 10
-283.99723210057527
 20
-381.53454978406091
 30
0.0
 40
99.999999999481417
100
AcDbArc
 50
344.69599790814306
 51
346.78729535395638
  0
ARC
  5
16B
100
AcDbEntity
  8
ADF70-1307
370
              15
390
0
  6
STYLE_12
 62
               7
100
AcDbCircle
 10
-401.78077229254632
 20
-353.88111455933051
 30
0.0
 40
220.98625880552109
100
AcDbArc
 50
346.78729535394984
 51
352.44691469755162
  0
ARC
  5
16C
100
AcDbEntity
  8
ADF70-1307
370
              15
390
0
  6
STYLE_12
 62
               7
100
AcDbCircle
 10
-305.9102789592398
 20
-361.63754818724476
 30
0.0
 40
125.02459369693183
100
AcDbArc
 50
350.19503753648365
 51
358.3292268197917
  0
ARC
  5
16D
100
AcDbEntity
  8
ADF70-1307
370
              15
390
0
  6
STYLE_12
 62
               7
100
AcDbCircle
 10
-175.94096353456007
 20
-365.42859211877033
 30
0.0
 40
4.999999999994543
100
AcDbArc
 50
90.0
 51
178.32922681986435
  0
LINE
  5
16E
100
AcDbEntity
  8
ADF70-1307
370
              15
390
0
  6
Continuous
 62
               7
100
AcDbLine
 10
-161.02724516497437
 20
-360.42859211877578
 30
0.0
 11
-175.94096353456007
 21
-360.42859211877578
 31
0.0
  0
ARC
  5
16F
100
AcDbEntity
  8
ADF70-1307
370
              15
390
0
  6
Continuous
 62
               7
100
AcDbCircle
 10
-161.02724516497437
 20
-365.42859211877578
 30
0.0
 40
5.0000000000005276
100
AcDbArc
 50
358.8306171943733
 51
90.0
  0
ARC
  5
170
100
AcDbEntity
  8
ADF70-1307
370
              15
390
0
  6
Continuous
 62
               7
100
AcDbCircle
 10
-405.97621944328966
 20
-360.42859211877669
 30
0.0
 40
249.99999999999704
100
AcDbArc
 50
314.13163624159813
 51
358.83061719438592
  0
ARC
  5
171
100
AcDbEntity
  8
ADF70-1307
370
              15
390
0
  6
Continuous
 62
               7
100
AcDbCircle
 10
-233.29153569857408
 20
-538.42859211874213
 30
0.0
 40
1.9999999999972715
100
AcDbArc
 50
270.0
 51
314.13163624168016
  0
LINE
  5
172
100
AcDbEntity
  8
ADF70-1307
370
              15
390
0
  6
STYLE_12
 62
               7
100
AcDbLine
 10
-433.82465524397412
 20
-497.42859211875214
 30
0.0
 11
-433.82465524397594
 21
-535.42859211875214
 31
0.0
  0
LINE
  5
173
100
AcDbEntity
  8
ADF70-1307
370
              15
390
0
  6
STYLE_12
 62
               7
100
AcDbLine
 10
-416.32465524397412
 20
-485.42859211875214
 30
0.0
 11
-433.82465524397412
 21
-497.42859211875214
 31
0.0
  0
LINE
  5
174
100
AcDbEntity
  8
ADF70-1307
370
              15
390
0
  6
STYLE_12
 62
               7
100
AcDbLine
 10
-433.82465524397412
 20
-497.42859211875214
 30
0.0
 11
-416.32465524397412
 21
-485.42859211875214
 31
0.0
  0
LINE
  5
175
100
AcDbEntity
  8
ADF70-1307
370
              15
390
0
  6
STYLE_12
 62
               7
100
AcDbLine
 10
-416.02828650623269
 20
-485.42859211875214
 30
0.0
 11
-288.39096186605821
 21
-485.42859211875214
 31
0.0
  0
ARC
  5
176
100
AcDbEntity
  8
ADF70-1307
370
              15
390
0
  6
STYLE_12
 62
               7
100
AcDbCircle
 10
-623.55017190199214
 20
-359.93771376073903
 30
0.0
 40
125.49093145436774
100
AcDbArc
 50
249.14095642536748
 51
269.94729354265974
  0
ARC
  5
177
100
AcDbEntity
  8
ADF70-1307
370
              15
390
0
  6
STYLE_12
 62
               7
100
AcDbCircle
 10
-639.74813314253333
 20
-402.44713502515754
 30
0.0
 40
80.000000000001918
100
AcDbArc
 50
214.74808115910355
 51
249.14095642536049
  0
ARC
  5
178
100
AcDbEntity
  8
ADF70-1307
370
              15
390
0
  6
STYLE_12
 62
               7
100
AcDbCircle
 10
-592.84595593260383
 20
-369.91226358685992
 30
0.0
 40
137.08180171068869
100
AcDbArc
 50
198.2656325311016
 51
214.74808115910253
  0
ARC
  5
179
100
AcDbEntity
  8
ADF70-1307
370
              15
390
0
  6
STYLE_12
 62
               7
100
AcDbCircle
 10
-628.05934091134804
 20
-381.53454978391221
 30
0.0
 40
100.00000000004462
100
AcDbArc
 50
195.30400209186348
 51
198.26563253109802
  0
ARC
  5
17A
100
AcDbEntity
  8
ADF70-1307
370
              15
390
0
  6
STYLE_12
 62
               7
100
AcDbCircle
 10
-628.05934091189192
 20
-381.53454978406091
 30
0.0
 40
99.999999999481403
100
AcDbArc
 50
193.21270464604365
 51
195.30400209185697
  0
ARC
  5
17B
100
AcDbEntity
  8
ADF70-1307
370
              15
390
0
  6
STYLE_12
 62
               7
100
AcDbCircle
 10
-510.27580071991906
 20
-353.88111455933051
 30
0.0
 40
220.98625880552328
100
AcDbArc
 50
187.5530853024483
 51
193.21270464605001
  0
ARC
  5
17C
100
AcDbEntity
  8
ADF70-1307
370
              15
390
0
  6
STYLE_12
 62
               7
100
AcDbCircle
 10
-606.14629405322557
 20
-361.63754818724476
 30
0.0
 40
125.02459369693359
100
AcDbArc
 50
181.67077318020827
 51
189.80496246351623
  0
ARC
  5
17D
100
AcDbEntity
  8
ADF70-1307
370
              15
390
0
  6
STYLE_12
 62
               7
100
AcDbCircle
 10
-736.11560947790713
 20
-365.42859211877033
 30
0.0
 40
4.9999999999940581
100
AcDbArc
 50
1.6707731801356358
 51
90.0
  0
LINE
  5
17E
100
AcDbEntity
  8
ADF70-1307
370
              15
390
0
  6
Continuous
 62
               7
100
AcDbLine
 10
-751.02932784749282
 20
-360.42859211877578
 30
0.0
 11
-736.11560947790713
 21
-360.42859211877578
 31
0.0
  0
ARC
  5
17F
100
AcDbEntity
  8
ADF70-1307
370
              15
390
0
  6
Continuous
 62
               7
100
AcDbCircle
 10
-751.029327847491
 20
-365.42859211877578
 30
0.0
 40
5.0
100
AcDbArc
 50
90.000000000020847
 51
181.1693828056267
  0
ARC
  5
180
100
AcDbEntity
  8
ADF70-1307
370
              15
390
0
  6
Continuous
 62
               7
100
AcDbCircle
 10
-506.08035356917753
 20
-360.42859211877669
 30
0.0
 40
249.99999999999616
100
AcDbArc
 50
181.16938280561411
 51
225.86836375840198
  0
ARC
  5
181
100
AcDbEntity
  8
ADF70-1307
370
              15
390
0
  6
Continuous
 62
               7
100
AcDbCircle
 10
-678.7650373138913
 20
-538.42859211874213
 30
0.0
 40
1.9999999999982061
100
AcDbArc
 50
225.86836375828244
 51
270.0
  0
LINE
  5
182
100
AcDbEntity
  8
ADF70-1307
370
              15
390
0
  6
Continuous
 62
               7
100
AcDbLine
 10
-233.29153569857408
 20
-540.4285921187394
 30
0.0
 11
-678.7650373138913
 21
-540.4285921187394
 31
0.0
  0
LINE
  5
183
100
AcDbEntity
  8
ADF70-1307
370
              15
390
0
  6
STYLE_12
 62
               7
100
AcDbLine
 10
-478.82465524397412
 20
-497.42859211875214
 30
0.0
 11
-478.82465524397412
 21
-535.42859211875214
 31
0.0
  0
LINE
  5
184
100
AcDbEntity
  8
ADF70-1307
370
              15
390
0
  6
STYLE_12
 62
               7
100
AcDbLine
 10
-496.32465524397412
 20
-485.42859211875214
 30
0.0
 11
-478.82465524397412
 21
-497.42859211875214
 31
0.0
  0
LINE
  5
185
100
AcDbEntity
  8
ADF70-1307
370
              15
390
0
  6
STYLE_12
 62
               7
100
AcDbLine
 10
-496.32465524397412
 20
-485.42859211875214
 30
0.0
 11
-623.66561114650904
 21
-485.42859211875214
 31
0.0
  0
LINE
  5
186
100
AcDbEntity
  8
ADF70-1307
370
              15
390
0
  6
STYLE_12
 62
               7
100
AcDbLine
 10
-596.15426400787146
 20
-420.38158846330964
 30
0.0
 11
-596.15426400787146
 21
-380.38158846330964
 31
0.0
  0
LINE
  5
187
100
AcDbEntity
  8
ADF70-1307
370
              15
390
0
  6
STYLE_12
 62
               7
100
AcDbLine
 10
-576.15426400787146
 20
-400.38158846330964
 30
0.0
 11
-616.15426400787146
 21
-400.38158846330964
 31
0.0
  0
CIRCLE
  5
188
100
AcDbEntity
  8
ADF70-1307
370
              15
390
0
  6
STYLE_12
 62
               7
100
AcDbCircle
 10
-596.15426400787146
 20
-400.38158846330964
 30
0.0
 40
10.0
  0
LINE
  5
189
100
AcDbEntity
  8
ADF70-1307
370
              15
390
0
  6
STYLE_12
 62
               7
100
AcDbLine
 10
-316.15426400787146
 20
-420.38158846330964
 30
0.0
 11
-316.15426400787146
 21
-380.38158846330964
 31
0.0
  0
LINE
  5
18A
100
AcDbEntity
  8
ADF70-1307
370
              15
390
0
  6
STYLE_12
 62
               7
100
AcDbLine
 10
-296.15426400787146
 20
-400.38158846330964
 30
0.0
 11
-336.15426400787146
 21
-400.38158846330964
 31
0.0
  0
CIRCLE
  5
18B
100
AcDbEntity
  8
ADF70-1307
370
              15
390
0
  6
STYLE_12
 62
               7
100
AcDbCircle
 10
-316.15426400787146
 20
-400.38158846330964
 30
0.0
 40
10.0
  0
LINE
  5
18C
100
AcDbEntity
  8
ADF70-1307
370
              15
390
0
  6
STYLE_12
 62
               7
100
AcDbLine
 10
478.41397984914147
 20
-497.42859211875395
 30
0.0
 11
478.41397984914147
 21
-535.42859211875395
 31
0.0
  0
LINE
  5
18D
100
AcDbEntity
  8
ADF70-1307
370
              15
390
0
  6
STYLE_12
 62
               7
100
AcDbLine
 10
495.91397984914329
 20
-485.42859211875395
 30
0.0
 11
478.41397984914147
 21
-497.42859211875395
 31
0.0
  0
ARC
  5
18E
100
AcDbEntity
  8
ADF70-1307
370
              15
390
0
  6
STYLE_12
 62
               7
100
AcDbCircle
 10
495.7985406047992
 20
-359.93771376083896
 30
0.0
 40
125.49093145426944
100
AcDbArc
 50
270.05270645732952
 51
290.85904357464693
  0
ARC
  5
18F
100
AcDbEntity
  8
ADF70-1307
370
              15
390
0
  6
STYLE_12
 62
               7
100
AcDbCircle
 10
511.99650184533311
 20
-402.4471350251697
 30
0.0
 40
79.999999999987551
100
AcDbArc
 50
290.85904357463767
 51
325.25191884090765
  0
ARC
  5
190
100
AcDbEntity
  8
ADF70-1307
370
              15
390
0
  6
STYLE_12
 62
               7
100
AcDbCircle
 10
465.09432463550002
 20
-369.91226358690801
 30
0.0
 40
137.081801710576
100
AcDbArc
 50
325.25191884088792
 51
341.73436746890314
  0
ARC
  5
191
100
AcDbEntity
  8
ADF70-1307
370
              15
390
0
  6
STYLE_12
 62
               7
100
AcDbCircle
 10
500.30770961468079
 20
-381.53454978408718
 30
0.0
 40
99.99999999947849
100
AcDbArc
 50
341.73436746889183
 51
344.6959979081571
  0
ARC
  5
192
100
AcDbEntity
  8
ADF70-1307
370
              15
390
0
  6
Continuous
 62
               7
100
AcDbCircle
 10
729.41341116723561
 20
-364.42859211877578
 30
0.0
 40
4.0
100
AcDbArc
 50
0.0
 51
90.0
  0
LINE
  5
193
100
AcDbEntity
  8
ADF70-1307
370
              15
390
0
  6
Continuous
 62
               7
100
AcDbLine
 10
733.41341116723561
 20
-364.42859211877578
 30
0.0
 11
733.41341116723561
 21
-436.42859211877578
 31
0.0
  0
LINE
  5
194
100
AcDbEntity
  8
ADF70-1307
370
              15
390
0
  6
Continuous
 62
               7
100
AcDbLine
 10
727.41341116723743
 20
-540.42859211877578
 30
0.0
 11
714.35892931809394
 21
-540.42859211877578
 31
0.0
  0
ARC
  5
195
100
AcDbEntity
  8
ADF70-1307
370
              15
390
0
  6
Continuous
 62
               7
100
AcDbCircle
 10
727.41341116723743
 20
-534.42859211877578
 30
0.0
 40
6.0
100
AcDbArc
 50
270.0
 51
0.0
  0
LINE
  5
196
100
AcDbEntity
  8
ADF70-1307
370
              15
390
0
  6
Continuous
 62
               7
100
AcDbLine
 10
685.91341117152842
 20
-360.42859211877578
 30
0.0
 11
729.41341116723561
 21
-360.42859211877578
 31
0.0
  0
LINE
  5
197
100
AcDbEntity
  8
ADF70-1307
370
              15
390
0
  6
Continuous
 62
               7
100
AcDbLine
 10
685.91341117152842
 20
-360.42859211877578
 30
0.0
 11
650.91341116723743
 21
-360.42859211877578
 31
0.0
  0
LINE
  5
198
100
AcDbEntity
  8
ADF70-1307
370
              15
390
0
  6
STYLE_12
 62
               7
100
AcDbLine
 10
478.41397984914329
 20
-535.42859211875395
 30
0.0
 11
433.41397984914329
 21
-535.42859211875395
 31
0.0
  0
LINE
  5
199
100
AcDbEntity
  8
ADF70-1307
370
              15
390
0
  6
STYLE_12
 62
               7
100
AcDbLine
 10
495.91397984914329
 20
-485.42859211875395
 30
0.0
 11
415.91397984914329
 21
-485.42859211875395
 31
0.0
  0
LINE
  5
19A
100
AcDbEntity
  8
ADF70-1307
370
              15
390
0
  6
Continuous
 62
               7
100
AcDbLine
 10
382.77383391737749
 20
-540.4285921187394
 30
0.0
 11
363.68060036580573
 21
-540.4285921187394
 31
0.0
  0
LINE
  5
19B
100
AcDbEntity
  8
ADF70-1307
370
              15
390
0
  6
Continuous
 62
               7
100
AcDbLine
 10
303.46398151758513
 20
-360.42859211877578
 30
0.0
 11
608.2152080816104
 21
-360.42859211877578
 31
0.0
  0
LINE
  5
19C
100
AcDbEntity
  8
ADF70-1307
370
              15
390
0
  6
Continuous
 62
               7
100
AcDbLine
 10
388.38880429830533
 20
-540.4285921187394
 30
0.0
 11
512.41341116723743
 21
-540.4285921187394
 31
0.0
  0
LWPOLYLINE
  5
19D
100
AcDbEntity
  8
ADF70-1307
370
              15
390
0
  6
STYLE_12
 62
               7
100
AcDbPolyline
 90
        3
 70
             128
 10
601.59304130618148
 20
-382.92859211877521
 42
-0.0246997690844787
 10
597.66053410377572
 20
-404.39122416797966
 42
-0.0091252597922052
 10
596.76160807985616
 20
-407.92859211877578
  0
LINE
  5
19E
100
AcDbEntity
  8
ADF70-1307
370
              15
390
0
  6
STYLE_12
 62
               7
100
AcDbLine
 10
433.41397984914329
 20
-497.42859211875395
 30
0.0
 11
433.41397984914329
 21
-502.26072440434939
 31
0.0
  0
LINE
  5
19F
100
AcDbEntity
  8
ADF70-1307
370
              15
390
0
  6
Continuous
 62
               7
100
AcDbLine
 10
650.91341116723743
 20
-360.42859211877578
 30
0.0
 11
608.2152080816104
 21
-360.42859211877578
 31
0.0
  0
ARC
  5
1A0
100
AcDbEntity
  8
ADF70-1307
370
              15
390
0
  6
STYLE_12
 62
               7
100
AcDbCircle
 10
608.21520808160858
 20
-365.42859211877942
 30
0.0
 40
5.000000000001819
100
AcDbArc
 50
90.0
 51
177.0710166696542
  0
ARC
  5
1A1
100
AcDbEntity
  8
ADF70-1307
370
              15
390
0
  6
STYLE_12
 62
               7
100
AcDbCircle
 10
382.52416942274249
 20
-353.88111455933824
 30
0.0
 40
220.98625880549218
100
AcDbArc
 50
352.44691469757311
 51
357.0710166696536
  0
LINE
  5
1A2
100
AcDbEntity
  8
ADF70-1307
370
              15
390
0
  6
Continuous
 62
               7
100
AcDbLine
 10
733.41341116723561
 20
-436.42859211877578
 30
0.0
 11
733.41341116723743
 21
-534.42859211877578
 31
0.0
  0
LINE
  5
1A3
100
AcDbEntity
  8
ADF70-1307
370
              15
390
0
  6
Continuous
 62
               7
100
AcDbLine
 10
558.41341116723743
 20
-540.4285921187394
 30
0.0
 11
566.41341116723561
 21
-540.4285921187394
 31
0.0
  0
LINE
  5
1A4
100
AcDbEntity
  8
ADF70-1307
370
              15
390
0
  6
Continuous
 62
               7
100
AcDbLine
 10
388.38880429830533
 20
-540.4285921187394
 30
0.0
 11
382.77383391737749
 21
-540.4285921187394
 31
0.0
  0
ARC
  5
1A5
100
AcDbEntity
  8
ADF70-1307
370
              15
390
0
  6
STYLE_12
 62
               7
100
AcDbCircle
 10
411.52025008409692
 20
-381.53454978393995
 30
0.0
 40
99.999999999993292
100
AcDbArc
 50
193.21270464608452
 51
195.30400209186686
  0
ARC
  5
1A6
100
AcDbEntity
  8
ADF70-1307
370
              15
390
0
  6
STYLE_12
 62
               7
100
AcDbCircle
 10
529.30379027554591
 20
-353.88111455933097
 30
0.0
 40
220.98625880549625
100
AcDbArc
 50
187.55308530242766
 51
193.21270464608554
  0
ARC
  5
1A7
100
AcDbEntity
  8
ADF70-1307
370
              15
390
0
  6
STYLE_12
 62
               7
100
AcDbCircle
 10
433.43329694227577
 20
-361.6375481872484
 30
0.0
 40
125.02459369694142
100
AcDbArc
 50
181.67077318021674
 51
189.80496246350168
  0
ARC
  5
1A8
100
AcDbEntity
  8
ADF70-1307
370
              15
390
0
  6
STYLE_12
 62
               7
100
AcDbCircle
 10
303.46398151758331
 20
-365.42859211877578
 30
0.0
 40
4.9999999999958229
100
AcDbArc
 50
1.670773180114193
 51
89.99999999995832
  0
LINE
  5
1A9
100
AcDbEntity
  8
ADF70-1307
370
              15
390
0
  6
Continuous
 62
               7
100
AcDbLine
 10
303.46398151758513
 20
-360.42859211877942
 30
0.0
 11
288.33976318778332
 21
-360.42859211877578
 31
0.0
  0
ARC
  5
1AA
100
AcDbEntity
  8
ADF70-1307
370
              15
390
0
  6
Continuous
 62
               7
100
AcDbCircle
 10
288.33976318778332
 20
-365.42859211877578
 30
0.0
 40
4.9999999999995453
100
AcDbArc
 50
90.0
 51
178.75303687311953
  0
ARC
  5
1AB
100
AcDbEntity
  8
ADF70-1307
370
              15
390
0
  6
Continuous
 62
               7
100
AcDbCircle
 10
514.40275607838703
 20
-370.34931636520116
 30
0.0
 40
231.11654137140499
100
AcDbArc
 50
178.7530368731201
 51
227.18882216607128
  0
ARC
  5
1AC
100
AcDbEntity
  8
ADF70-1307
370
              15
390
0
  6
Continuous
 62
               7
100
AcDbCircle
 10
358.69872083151313
 20
-538.4285921187394
 30
0.0
 40
1.9999999999998999
100
AcDbArc
 50
227.18882216618115
 51
270.00000000015632
  0
LINE
  5
1AD
100
AcDbEntity
  8
ADF70-1307
370
              15
390
0
  6
Continuous
 62
               7
100
AcDbLine
 10
358.69872083151677
 20
-540.4285921187394
 30
0.0
 11
363.68060036580573
 21
-540.4285921187394
 31
0.0
  0
LINE
  5
1AE
100
AcDbEntity
  8
ADF70-1307
370
              15
390
0
  6
STYLE_12
 62
               7
100
AcDbLine
 10
433.41397984914329
 20
-535.42859211875395
 30
0.0
 11
433.41397984914329
 21
-497.42859211875395
 31
0.0
  0
LINE
  5
1AF
100
AcDbEntity
  8
ADF70-1307
370
              15
390
0
  6
STYLE_12
 62
               7
100
AcDbLine
 10
433.41397984914329
 20
-497.42859211875395
 30
0.0
 11
415.91397984914329
 21
-485.42859211875395
 31
0.0
  0
ARC
  5
1B0
100
AcDbEntity
  8
ADF70-1307
370
              15
390
0
  6
STYLE_12
 62
               7
100
AcDbCircle
 10
416.02941909350193
 20
-359.93771376073994
 30
0.0
 40
125.49093145436809
100
AcDbArc
 50
249.14095642535423
 51
269.94729354268964
  0
ARC
  5
1B1
100
AcDbEntity
  8
ADF70-1307
370
              15
390
0
  6
STYLE_12
 62
               7
100
AcDbCircle
 10
399.8314578529571
 20
-402.44713502515799
 30
0.0
 40
79.999999999999346
100
AcDbArc
 50
214.7480811590917
 51
249.14095642535463
  0
ARC
  5
1B2
100
AcDbEntity
  8
ADF70-1307
370
              15
390
0
  6
STYLE_12
 62
               7
100
AcDbCircle
 10
446.73363506289024
 20
-369.91226358686174
 30
0.0
 40
137.08180171068966
100
AcDbArc
 50
198.26563253112707
 51
214.74808115909141
  0
ARC
  5
1B3
100
AcDbEntity
  8
ADF70-1307
370
              15
390
0
  6
STYLE_12
 62
               7
100
AcDbCircle
 10
411.52025008410055
 20
-381.53454978392904
 30
0.0
 40
99.999999999997925
100
AcDbArc
 50
195.30400209186837
 51
198.26563253112707
  0
LINE
  5
1B4
100
AcDbEntity
  8
ADF70-1307
370
              15
390
0
  6
Continuous
 62
               7
100
AcDbLine
 10
566.41341116723561
 20
-540.4285921187394
 30
0.0
 11
714.35892931809394
 21
-540.4285921187394
 31
0.0
  0
LINE
  5
1B5
100
AcDbEntity
  8
ADF70-1307
370
              15
390
0
  6
Continuous
 62
               7
100
AcDbLine
 10
558.41341116723743
 20
-540.4285921187394
 30
0.0
 11
512.41341116723743
 21
-540.4285921187394
 31
0.0
  0
LINE
  5
1B6
100
AcDbEntity
  8
ADF70-1307
370
              15
390
0
  6
Continuous
 62
               7
100
AcDbLine
 10
685.91341117152842
 20
-371.42859211877578
 30
0.0
 11
685.91341117152842
 21
-360.42859211877578
 31
0.0
  0
LINE
  5
1B7
100
AcDbEntity
  8
ADF70-1307
370
              15
390
0
  6
Continuous
 62
               7
100
AcDbLine
 10
650.91341116723743
 20
-371.42859211877578
 30
0.0
 11
650.91341116723743
 21
-360.42859211877578
 31
0.0
  0
LWPOLYLINE
  5
1B8
100
AcDbEntity
  8
ADF70-1307
370
              15
390
0
  6
STYLE_12
 62
               7
100
AcDbPolyline
 90
        7
 70
             128
 10
354.29394853117628
 20
435.49360576477721
 42
-0.414213562373095
 10
206.79394853117628
 20
582.99360576477727
 42
-0.4142135623730953
 10
354.29394853117628
 20
730.49360576477727
 10
589.29401054478512
 20
730.49360576477727
 42
-0.414213562373095
 10
736.79401054478512
 20
582.99360576477727
 42
-0.4142135623730948
 10
589.29401054478512
 20
435.49360576477721
 10
354.29394853117628
 20
435.49360576477721
  0
CIRCLE
  5
1B9
100
AcDbEntity
  8
ADF70-1307
370
              15
390
0
  6
STYLE_12
 62
               7
100
AcDbCircle
 10
471.79394853117628
 20
577.99417444668302
 30
0.0
 40
23.0
  0
CIRCLE
  5
1BA
100
AcDbEntity
  8
ADF70-1307
370
              15
390
0
  6
STYLE_12
 62
               7
100
AcDbCircle
 10
571.79394853117628
 20
790.49360576477727
 30
0.0
 40
17.5
  0
CIRCLE
  5
1BB
100
AcDbEntity
  8
ADF70-1307
370
              15
390
0
  6
STYLE_12
 62
               7
100
AcDbCircle
 10
471.79394853117628
 20
790.49360576477727
 30
0.0
 40
17.5
  0
CIRCLE
  5
1BC
100
AcDbEntity
  8
ADF70-1307
370
              15
390
0
  6
STYLE_12
 62
               7
100
AcDbCircle
 10
371.79394853117628
 20
790.49360576477727
 30
0.0
 40
17.5
  0
LWPOLYLINE
  5
1BD
100
AcDbEntity
  8
ADF70-1307
370
              15
390
0
  6
STYLE_12
 62
               7
100
AcDbPolyline
 90
       10
 70
             129
 10
471.79394853117628
 20
855.49360576477727
 10
176.79394853117628
 20
855.49360576477818
 42
0.4142135623730484
 10
171.79394853117628
 20
850.49360576477818
 10
171.79394853117628
 20
590.49360576477716
 42
0.4053193824779704
 10
351.15938113767334
 20
405.57943202385451
 10
471.79394853117628
 20
405.57943202385451
 10
592.42851592467923
 20
405.57943202385451
 42
0.4053193824779645
 10
771.79394853117628
 20
590.49360576477716
 10
771.79394853117628
 20
850.49360576477818
 42
0.414213562373095
 10
766.79394853117628
 20
855.49360576477818
  0
POLYLINE
  5
1BE
100
AcDbEntity
  8
ADF70-1307
370
              15
390
0
  6
Continuous
 62
               7
100
AcDb2dPolyline
 66
               1
 10
0.0
 20
0.0
 30
0.0
 70
               1
 75
               5
  0
VERTEX
  5
1BF
100
AcDbEntity
  8
ADF70-1307
370
              15
390
0
  6
Continuous
 62
               7
100
AcDbVertex
100
AcDb2dVertex
 10
346.79394853117628
 20
835.49360576477818
 30
0.0
  0
VERTEX
  5
1C0
100
AcDbEntity
  8
ADF70-1307
370
              15
390
0
  6
Continuous
 62
               7
100
AcDbVertex
100
AcDb2dVertex
 10
596.79394853117628
 20
835.49360576477818
 30
0.0
  0
VERTEX
  5
1C1
100
AcDbEntity
  8
ADF70-1307
370
              15
390
0
  6
Continuous
 62
               7
100
AcDbVertex
100
AcDb2dVertex
 10
596.79394853117628
 20
535.49360576477818
 30
0.0
  0
VERTEX
  5
1C2
100
AcDbEntity
  8
ADF70-1307
370
              15
390
0
  6
Continuous
 62
               7
100
AcDbVertex
100
AcDb2dVertex
 10
346.79394853117628
 20
535.49360576477818
 30
0.0
  0
SEQEND
  5
1C3
100
AcDbEntity
  8
ADF70-1307
370
              15
390
0
  6
Continuous
 62
               7
  0
ENDSEC
  0
SECTION
  2
OBJECTS
  0
DICTIONARY
  5
19
100
AcDbDictionary
280
               0
281
               1
  3
ACAD_GROUP
350
1A
  3
ACAD_MLINESTYLE
350
1B
  3
ACAD_LAYOUT
350
1E
  3
ACAD_PLOTSETTINGS
350
22
  3
ACAD_PLOTSTYLENAME
350
1F
  0
DICTIONARY
  5
1A
102
{ACAD_REACTORS
330
19
102
}
100
AcDbDictionary
280
               0
281
               1
  0
DICTIONARY
  5
1B
102
{ACAD_REACTORS
330
19
102
}
100
AcDbDictionary
280
               0
281
               1
  3
Standard
350
1C
  0
MLINESTYLE
  5
1C
102
{ACAD_REACTORS
330
1B
102
}
100
AcDbMlineStyle
  2
Standard
 70
               0
  3

 62
               0
 51
90.0
 52
90.0
 71
               2
 49
0.5
 62
             256
  6
ByLayer
 49
-0.5
 62
             256
  6
ByLayer
  0
ACDBDICTIONARYWDFLT
  5
1F
102
{ACAD_REACTORS
330
19
102
}
100
AcDbDictionary
281
               1
  3
Normal
350
1D
100
AcDbDictionaryWithDefault
340
1D
  0
ACDBPLACEHOLDER
  5
1D
102
{ACAD_REACTORS
330
1F
102
}
  0
LAYOUT
  5
20
102
{ACAD_REACTORS
330
1E
102
}
100
AcDbPlotSettings
  1

  2

  4

  6

 40
0.0
 41
0.0
 42
0.0
 43
0.0
 44
0.0
 45
0.0
 46
0.0
 47
0.0
 48
0.0
 49
0.0
140
0.0
141
0.0
142
1.0
143
1.0
 70
            1024
 72
               0
 73
               0
 74
               0
  7

 75
               0
147
1.0
148
0.0
149
0.0
100
AcDbLayout
  1
Model
 70
               0
 71
               0
 10
0.0
 20
0.0
 11
0.0
 21
0.0
 12
0.0
 22
0.0
 32
0.0
 14
0.0
 24
0.0
 34
0.0
 15
0.0
 25
0.0
 35
0.0
146
0.0
 13
0.0
 23
0.0
 33
0.0
 16
0.0
 26
0.0
 36
0.0
 17
0.0
 27
0.0
 37
0.0
 76
               0
330
A
331
0
345
0
346
0
  0
LAYOUT
  5
21
102
{ACAD_REACTORS
330
1E
102
}
100
AcDbPlotSettings
  1

  2

  4

  6

 40
0.0
 41
0.0
 42
0.0
 43
0.0
 44
0.0
 45
0.0
 46
0.0
 47
0.0
 48
0.0
 49
0.0
140
0.0
141
0.0
142
1.0
143
1.0
 70
               0
 72
               0
 73
               0
 74
               0
  7

 75
               0
147
1.0
148
0.0
149
0.0
100
AcDbLayout
  1
Layout1
 70
               0
 71
               0
 10
0.0
 20
0.0
 11
0.0
 21
0.0
 12
0.0
 22
0.0
 32
0.0
 14
0.0
 24
0.0
 34
0.0
 15
0.0
 25
0.0
 35
0.0
146
0.0
 13
0.0
 23
0.0
 33
0.0
 16
0.0
 26
0.0
 36
0.0
 17
0.0
 27
0.0
 37
0.0
 76
               0
330
B
331
0
345
0
346
0
  0
DICTIONARY
  5
1E
102
{ACAD_REACTORS
330
19
102
}
100
AcDbDictionary
280
               0
281
               1
  3
Layout1
350
21
  3
Model
350
20
  0
DICTIONARY
  5
22
102
{ACAD_REACTORS
330
19
102
}
100
AcDbDictionary
280
               0
281
               1
  0
ENDSEC
  0
EOF
