  0
SECTION
  2
HEADER
  9
$ACADVER
  1
AC1021
  9
$ACADMAINTVER
 70
    25
  9
$DWGCODEPAGE
  3
ANSI_932
  9
$LASTSAVEDBY
  1
howeNelson
  9
$INSBASE
 10
0.0
 20
0.0
 30
0.0
  9
$EXTMIN
 10
40.0
 20
41.19837821319445
 30
0.0
  9
$EXTMAX
 10
1990.000000000482
 20
2874.552903395052
 30
0.0
  9
$LIMMIN
 10
-10.0
 20
-0.9201746284776391
  9
$LIMMAX
 10
2040.0
 20
2924.552903395052
  9
$ORTHOMODE
 70
     0
  9
$REGENMODE
 70
     1
  9
$FILLMODE
 70
     1
  9
$QTEXTMODE
 70
     0
  9
$MIRRTEXT
 70
     1
  9
$LTSCALE
 40
50.8
  9
$ATTMODE
 70
     1
  9
$TEXTSIZE
 40
533.0403732820173
  9
$TRACEWID
 40
1.0
  9
$TEXTSTYLE
  7
Standard
  9
$CLAYER
  8
Dim
  9
$CELTYPE
  6
Continuous
  9
$CECOLOR
 62
   256
  9
$CELTSCALE
 40
1.0
  9
$DISPSILH
 70
     0
  9
$DIMSCALE
 40
1.0
  9
$DIMASZ
 40
9.0
  9
$DIMEXO
 40
25.0
  9
$DIMDLI
 40
25.0
  9
$DIMRND
 40
0.0
  9
$DIMDLE
 40
0.0
  9
$DIMEXE
 40
0.0
  9
$DIMTP
 40
0.0
  9
$DIMTM
 40
0.0
  9
$DIMTXT
 40
24.4326171875
  9
$DIMCEN
 40
0.0
  9
$DIMTSZ
 40
0.0
  9
$DIMTOL
 70
     0
  9
$DIMLIM
 70
     0
  9
$DIMTIH
 70
     0
  9
$DIMTOH
 70
     0
  9
$DIMSE1
 70
     0
  9
$DIMSE2
 70
     0
  9
$DIMTAD
 70
     1
  9
$DIMZIN
 70
    11
  9
$DIMBLK
  1
DOT
  9
$DIMASO
 70
     1
  9
$DIMSHO
 70
     1
  9
$DIMPOST
  1
<>
  9
$DIMAPOST
  1
[]
  9
$DIMALT
 70
     0
  9
$DIMALTD
 70
     1
  9
$DIMALTF
 40
1.0
  9
$DIMLFAC
 40
1.0
  9
$DIMTOFL
 70
     0
  9
$DIMTVP
 40
0.0
  9
$DIMTIX
 70
     1
  9
$DIMSOXD
 70
     0
  9
$DIMSAH
 70
     0
  9
$DIMBLK1
  1

  9
$DIMBLK2
  1

  9
$DIMSTYLE
  2
JIS
  9
$DIMCLRD
 70
     0
  9
$DIMCLRE
 70
     0
  9
$DIMCLRT
 70
     0
  9
$DIMTFAC
 40
1.0
  9
$DIMGAP
 40
10.0
  9
$DIMJUST
 70
     0
  9
$DIMSD1
 70
     0
  9
$DIMSD2
 70
     0
  9
$DIMTOLJ
 70
     1
  9
$DIMTZIN
 70
    11
  9
$DIMALTZ
 70
    11
  9
$DIMALTTZ
 70
    11
  9
$DIMUPT
 70
     0
  9
$DIMDEC
 70
     0
  9
$DIMTDEC
 70
     1
  9
$DIMALTU
 70
     2
  9
$DIMALTTD
 70
     2
  9
$DIMTXSTY
  7
ＭＳ ゴシック
  9
$DIMAUNIT
 70
     0
  9
$DIMADEC
 70
     0
  9
$DIMALTRND
 40
0.0
  9
$DIMAZIN
 70
     0
  9
$DIMDSEP
 70
    46
  9
$DIMATFIT
 70
     0
  9
$DIMFRAC
 70
     2
  9
$DIMLDRBLK
  1
DOT
  9
$DIMLUNIT
 70
     2
  9
$DIMLWD
 70
    -2
  9
$DIMLWE
 70
    -2
  9
$DIMTMOVE
 70
     0
  9
$DIMFXL
 40
1.0
  9
$DIMFXLON
 70
     0
  9
$DIMJOGANG
 40
0.7853981633974483
  9
$DIMTFILL
 70
     0
  9
$DIMTFILLCLR
 70
     0
  9
$DIMARCSYM
 70
     0
  9
$DIMLTYPE
  6

  9
$DIMLTEX1
  6

  9
$DIMLTEX2
  6

  9
$LUNITS
 70
     2
  9
$LUPREC
 70
     0
  9
$SKETCHINC
 40
0.1
  9
$FILLETRAD
 40
0.0
  9
$AUNITS
 70
     0
  9
$AUPREC
 70
     0
  9
$MENU
  1
acad
  9
$ELEVATION
 40
0.0
  9
$PELEVATION
 40
0.0
  9
$THICKNESS
 40
0.0
  9
$LIMCHECK
 70
     0
  9
$CHAMFERA
 40
0.0
  9
$CHAMFERB
 40
0.0
  9
$CHAMFERC
 40
0.0
  9
$CHAMFERD
 40
0.0
  9
$SKPOLY
 70
     0
  9
$TDCREATE
 40
2447893.375
  9
$TDUCREATE
 40
0.0
  9
$TDUPDATE
 40
2457109.595021585
  9
$TDUUPDATE
 40
2457109.220021585
  9
$TDINDWG
 40
0.2482664699
  9
$TDUSRTIMER
 40
2457109.209984896
  9
$USRTIMER
 70
     1
  9
$ANGBASE
 50
0.0
  9
$ANGDIR
 70
     0
  9
$PDMODE
 70
     1
  9
$PDSIZE
 40
-2.0
  9
$PLINEWID
 40
0.0
  9
$SPLFRAME
 70
     0
  9
$SPLINETYPE
 70
     6
  9
$SPLINESEGS
 70
     8
  9
$HANDSEED
  5
2213
  9
$SURFTAB1
 70
     6
  9
$SURFTAB2
 70
     6
  9
$SURFTYPE
 70
     6
  9
$SURFU
 70
     6
  9
$SURFV
 70
     6
  9
$UCSBASE
  2

  9
$UCSNAME
  2

  9
$UCSORG
 10
0.0
 20
0.0
 30
0.0
  9
$UCSXDIR
 10
1.0
 20
0.0
 30
0.0
  9
$UCSYDIR
 10
0.0
 20
1.0
 30
0.0
  9
$UCSORTHOREF
  2

  9
$UCSORTHOVIEW
 70
     0
  9
$UCSORGTOP
 10
0.0
 20
0.0
 30
0.0
  9
$UCSORGBOTTOM
 10
0.0
 20
0.0
 30
0.0
  9
$UCSORGLEFT
 10
0.0
 20
0.0
 30
0.0
  9
$UCSORGRIGHT
 10
0.0
 20
0.0
 30
0.0
  9
$UCSORGFRONT
 10
0.0
 20
0.0
 30
0.0
  9
$UCSORGBACK
 10
0.0
 20
0.0
 30
0.0
  9
$PUCSBASE
  2

  9
$PUCSNAME
  2

  9
$PUCSORG
 10
0.0
 20
0.0
 30
0.0
  9
$PUCSXDIR
 10
1.0
 20
0.0
 30
0.0
  9
$PUCSYDIR
 10
0.0
 20
1.0
 30
0.0
  9
$PUCSORTHOREF
  2

  9
$PUCSORTHOVIEW
 70
     0
  9
$PUCSORGTOP
 10
0.0
 20
0.0
 30
0.0
  9
$PUCSORGBOTTOM
 10
0.0
 20
0.0
 30
0.0
  9
$PUCSORGLEFT
 10
0.0
 20
0.0
 30
0.0
  9
$PUCSORGRIGHT
 10
0.0
 20
0.0
 30
0.0
  9
$PUCSORGFRONT
 10
0.0
 20
0.0
 30
0.0
  9
$PUCSORGBACK
 10
0.0
 20
0.0
 30
0.0
  9
$USERI1
 70
     0
  9
$USERI2
 70
     0
  9
$USERI3
 70
     0
  9
$USERI4
 70
     0
  9
$USERI5
 70
     0
  9
$USERR1
 40
0.0
  9
$USERR2
 40
0.0
  9
$USERR3
 40
0.0
  9
$USERR4
 40
0.0
  9
$USERR5
 40
0.0
  9
$WORLDVIEW
 70
     1
  9
$SHADEDGE
 70
     3
  9
$SHADEDIF
 70
    70
  9
$TILEMODE
 70
     1
  9
$MAXACTVP
 70
    64
  9
$PINSBASE
 10
0.0
 20
0.0
 30
0.0
  9
$PLIMCHECK
 70
     0
  9
$PEXTMIN
 10
0.0
 20
0.0
 30
0.0
  9
$PEXTMAX
 10
0.0
 20
0.0
 30
0.0
  9
$PLIMMIN
 10
-7.5
 20
-20.0
  9
$PLIMMAX
 10
412.5
 20
277.0
  9
$UNITMODE
 70
     0
  9
$VISRETAIN
 70
     0
  9
$PLINEGEN
 70
     1
  9
$PSLTSCALE
 70
     0
  9
$TREEDEPTH
 70
  3020
  9
$CMLSTYLE
  2
Standard
  9
$CMLJUST
 70
     0
  9
$CMLSCALE
 40
1.0
  9
$PROXYGRAPHICS
 70
     0
  9
$MEASUREMENT
 70
     1
  9
$CELWEIGHT
370
    -1
  9
$ENDCAPS
280
     0
  9
$JOINSTYLE
280
     0
  9
$LWDISPLAY
290
     1
  9
$INSUNITS
 70
     4
  9
$HYPERLINKBASE
  1

  9
$STYLESHEET
  1

  9
$XEDIT
290
     1
  9
$CEPSNTYPE
380
     0
  9
$PSTYLEMODE
290
     1
  9
$FINGERPRINTGUID
  2

  9
$VERSIONGUID
  2

  9
$EXTNAMES
290
     1
  9
$PSVPSCALE
 40
0.0
  9
$OLESTARTUP
290
     0
  9
$SORTENTS
280
   127
  9
$INDEXCTL
280
     0
  9
$HIDETEXT
280
     1
  9
$XCLIPFRAME
290
     0
  9
$HALOGAP
280
     0
  9
$OBSCOLOR
 70
   257
  9
$OBSLTYPE
280
     0
  9
$INTERSECTIONDISPLAY
280
     0
  9
$INTERSECTIONCOLOR
 70
   257
  9
$DIMASSOC
280
     2
  9
$PROJECTNAME
  1

  9
$CAMERADISPLAY
290
     0
  9
$LENSLENGTH
 40
50.0
  9
$CAMERAHEIGHT
 40
0.0
  9
$STEPSPERSEC
 40
2.0
  9
$STEPSIZE
 40
6.0
  9
$3DDWFPREC
 40
2.0
  9
$PSOLWIDTH
 40
0.25
  9
$PSOLHEIGHT
 40
4.0
  9
$LOFTANG1
 40
1.570796326794897
  9
$LOFTANG2
 40
1.570796326794897
  9
$LOFTMAG1
 40
0.0
  9
$LOFTMAG2
 40
0.0
  9
$LOFTPARAM
 70
     7
  9
$LOFTNORMALS
280
     1
  9
$LATITUDE
 40
37.795
  9
$LONGITUDE
 40
-122.394
  9
$NORTHDIRECTION
 40
0.0
  9
$TIMEZONE
 70
 -8000
  9
$LIGHTGLYPHDISPLAY
280
     1
  9
$TILEMODELIGHTSYNCH
280
     1
  9
$SOLIDHIST
280
     1
  9
$SHOWHIST
280
     1
  9
$DWFFRAME
280
     2
  9
$DGNFRAME
280
     2
  9
$REALWORLDSCALE
290
     1
  9
$INTERFERECOLOR
 62
   256
  9
$CSHADOW
280
     0
  9
$SHADOWPLANELOCATION
 40
0.0
  0
ENDSEC
  0
SECTION
  2
CLASSES
  0
CLASS
  1
LWPOLYLINE
  2
AcDbPolyline
  3
ObjectDBX Classes
 90
        0
 91
        1
280
     0
281
     1
  0
CLASS
  1
IMAGE
  2
AcDbRasterImage
  3
ISM
 90
      127
 91
        5
280
     0
281
     1
  0
CLASS
  1
OLE2FRAME
  2
AcDbOle2Frame
  3
ObjectDBX Classes
 90
        0
 91
        1
280
     0
281
     1
  0
CLASS
  1
HATCH
  2
AcDbHatch
  3
ObjectDBX Classes
 90
        0
 91
        1
280
     0
281
     1
  0
CLASS
  1
DICTIONARYVAR
  2
AcDbDictionaryVar
  3
ObjectDBX Classes
 90
        0
 91
        4
280
     0
281
     0
  0
CLASS
  1
RASTERVARIABLES
  2
AcDbRasterVariables
  3
ISM
 90
        0
 91
        5
280
     0
281
     0
  0
CLASS
  1
IMAGEDEF
  2
AcDbRasterImageDef
  3
ISM
 90
        0
 91
        4
280
     0
281
     0
  0
CLASS
  1
IMAGEDEF_REACTOR
  2
AcDbRasterImageDefReactor
  3
ISM
 90
        1
 91
        4
280
     0
281
     0
  0
CLASS
  1
IDBUFFER
  2
AcDbIdBuffer
  3
ObjectDBX Classes
 90
        0
 91
        4
280
     0
281
     0
  0
CLASS
  1
SPATIAL_FILTER
  2
AcDbSpatialFilter
  3
ObjectDBX Classes
 90
        0
 91
        4
280
     0
281
     0
  0
CLASS
  1
XRECORD
  2
AcDbXrecord
  3
ObjectDBX Classes
 90
        0
 91
        1
280
     0
281
     0
  0
CLASS
  1
SORTENTSTABLE
  2
AcDbSortentsTable
  3
ObjectDBX Classes
 90
        0
 91
        4
280
     0
281
     0
  0
CLASS
  1
LAYER_INDEX
  2
AcDbLayerIndex
  3
ObjectDBX Classes
 90
        0
 91
        4
280
     0
281
     0
  0
CLASS
  1
SPATIAL_INDEX
  2
AcDbSpatialIndex
  3
AutoCAD 2000
 90
        0
 91
        4
280
     0
281
     0
  0
CLASS
  1
OBJECT_PTR
  2
CAseDLPNTableRecord
  3
ASE-LPNTableRecord
 90
        1
 91
        4
280
     0
281
     0
  0
CLASS
  1
LAYOUT
  2
AcDbLayout
  3
ObjectDBX Classes
 90
        0
 91
        1
280
     0
281
     0
  0
CLASS
  1
PLOTSETTINGS
  2
AcDbPlotSettings
  3
ObjectDBX Classes
 90
        0
 91
        4
280
     0
281
     0
  0
CLASS
  1
ACDBDICTIONARYWDFLT
  2
AcDbDictionaryWithDefault
  3
ObjectDBX Classes
 90
        0
 91
        5
280
     0
281
     0
  0
CLASS
  1
ACDBPLACEHOLDER
  2
AcDbPlaceHolder
  3
ObjectDBX Classes
 90
        0
 91
        1
280
     0
281
     0
  0
CLASS
  1
SCALE
  2
AcDbScale
  3
ObjectDBX Classes
 90
     1153
 91
        5
280
     0
281
     0
  0
CLASS
  1
MATERIAL
  2
AcDbMaterial
  3
ObjectDBX Classes
 90
     1153
 91
        5
280
     0
281
     0
  0
CLASS
  1
VISUALSTYLE
  2
AcDbVisualStyle
  3
ObjectDBX Classes
 90
     4095
 91
        5
280
     0
281
     0
  0
CLASS
  1
TABLESTYLE
  2
AcDbTableStyle
  3
ObjectDBX Classes
 90
     4095
 91
        5
280
     0
281
     0
  0
CLASS
  1
DIMASSOC
  2
AcDbDimAssoc
  3
"AcDbDimAssoc|Product Desc:     AcDim ARX App For Dimension|Company:          Autodesk, Inc.|WEB Address:      www.autodesk.com"
 90
        0
 91
        4
280
     0
281
     0
  0
CLASS
  1
CELLSTYLEMAP
  2
AcDbCellStyleMap
  3
ObjectDBX Classes
 90
     1152
 91
        4
280
     0
281
     0
  0
CLASS
  1
SUN
  2
AcDbSun
  3
SCENEOE
 90
     1153
 91
        5
280
     0
281
     0
  0
ENDSEC
  0
SECTION
  2
TABLES
  0
TABLE
  2
VPORT
  5
7
330
0
100
AcDbSymbolTable
 70
     1
  0
VPORT
  5
15
330
7
100
AcDbSymbolTableRecord
100
AcDbViewportTableRecord
  2
*ACTIVE
 70
     0
 10
0.0
 20
0.0
 11
1.0
 21
1.0
 12
1015.000000000241
 22
1457.875640804123
 13
0.0
 23
0.0
 14
1.0
 24
1.0
 15
0.0
 25
0.0
 16
0.0
 26
0.0
 36
1.0
 17
0.0
 27
0.0
 37
0.0
 40
2890.021615685495
 41
2.13469387755102
 42
50.0
 43
0.0
 44
0.0
 50
0.0
 51
0.0
 71
    16
 72
  2000
 73
     1
 74
     1
 75
     0
 76
     0
 77
     0
 78
     0
281
     0
 65
     0
110
0.0
120
0.0
130
0.0
111
1.0
121
0.0
131
0.0
112
0.0
122
1.0
132
0.0
 79
     0
146
0.0
348
26C
 60
     3
 61
     5
292
     1
282
     1
141
0.0
142
0.0
 63
   256
361
68F
  0
ENDTAB
  0
TABLE
  2
LTYPE
  5
4
330
0
100
AcDbSymbolTable
 70
    19
  0
LTYPE
  5
11
330
4
100
AcDbSymbolTableRecord
100
AcDbLinetypeTableRecord
  2
ByBlock
 70
     0
  3

 72
    65
 73
     0
 40
0.0
  0
LTYPE
  5
12
330
4
100
AcDbSymbolTableRecord
100
AcDbLinetypeTableRecord
  2
ByLayer
 70
     0
  3

 72
    65
 73
     0
 40
0.0
  0
LTYPE
  5
13
330
4
100
AcDbSymbolTableRecord
100
AcDbLinetypeTableRecord
  2
Continuous
 70
     0
  3
Solid line
 72
    65
 73
     0
 40
0.0
  0
LTYPE
  5
3A
330
4
100
AcDbSymbolTableRecord
100
AcDbLinetypeTableRecord
  2
STYLE_01
 70
     0
  3

 72
    65
 73
     2
 40
0.2460629921259842
 49
0.1230314960629921
 74
     0
 49
-0.1230314960629921
 74
     0
  0
LTYPE
  5
3B
330
4
100
AcDbSymbolTableRecord
100
AcDbLinetypeTableRecord
  2
STYLE_02
 70
     0
  3

 72
    65
 73
     2
 40
0.6944250000000001
 49
0.48607
 74
     0
 49
-0.2083550000000001
 74
     0
  0
LTYPE
  5
3C
330
4
100
AcDbSymbolTableRecord
100
AcDbLinetypeTableRecord
  2
STYLE_03
 70
     0
  3

 72
    65
 73
     2
 40
1.25
 49
1.04164
 74
     0
 49
-0.2083599999999999
 74
     0
  0
LTYPE
  5
3D
330
4
100
AcDbSymbolTableRecord
100
AcDbLinetypeTableRecord
  2
STYLE_04
 70
     0
  3

 72
    65
 73
     2
 40
1.52771
 49
1.319425
 74
     0
 49
-0.208285
 74
     0
  0
LTYPE
  5
3E
330
4
100
AcDbSymbolTableRecord
100
AcDbLinetypeTableRecord
  2
STYLE_05
 70
     0
  3

 72
    65
 73
     2
 40
0.20828
 49
0.069425
 74
     0
 49
-0.138855
 74
     0
  0
LTYPE
  5
3F
330
4
100
AcDbSymbolTableRecord
100
AcDbLinetypeTableRecord
  2
STYLE_06
 70
     0
  3

 72
    65
 73
     4
 40
1.04164
 49
0.625
 74
     0
 49
-0.20828
 74
     0
 49
0.06943
 74
     0
 49
-0.13893
 74
     0
  0
LTYPE
  5
40
330
4
100
AcDbSymbolTableRecord
100
AcDbLinetypeTableRecord
  2
STYLE_07
 70
     0
  3

 72
    65
 73
     6
 40
1.875
 49
0.625
 74
     0
 49
-0.20828
 74
     0
 49
0.6250000000000001
 74
     0
 49
-0.2083599999999999
 74
     0
 49
0.06943
 74
     0
 49
-0.1389299999999999
 74
     0
  0
LTYPE
  5
41
330
4
100
AcDbSymbolTableRecord
100
AcDbLinetypeTableRecord
  2
STYLE_08
 70
     0
  3

 72
    65
 73
     6
 40
1.25
 49
0.625
 74
     0
 49
-0.20828
 74
     0
 49
0.06943
 74
     0
 49
-0.13893
 74
     0
 49
0.0694299999999999
 74
     0
 49
-0.13893
 74
     0
  0
LTYPE
  5
42
330
4
100
AcDbSymbolTableRecord
100
AcDbLinetypeTableRecord
  2
STYLE_09
 70
     0
  3

 72
    65
 73
     4
 40
5.0
 49
3.75
 74
     0
 49
-0.2777849999999998
 74
     0
 49
0.6944300000000003
 74
     0
 49
-0.2777849999999998
 74
     0
  0
LTYPE
  5
43
330
4
100
AcDbSymbolTableRecord
100
AcDbLinetypeTableRecord
  2
STYLE_10
 70
     0
  3

 72
    65
 73
     6
 40
5.9375
 49
3.75
 74
     0
 49
-0.2777849999999998
 74
     0
 49
0.6944300000000003
 74
     0
 49
-0.2777849999999998
 74
     0
 49
0.625
 74
     0
 49
-0.3125
 74
     0
  0
LTYPE
  5
44
330
4
100
AcDbSymbolTableRecord
100
AcDbLinetypeTableRecord
  2
STYLE_11
 70
     0
  3

 72
    65
 73
     2
 40
0.0694444881889764
 49
0.0347222440944882
 74
     0
 49
-0.0347222440944882
 74
     0
  0
LTYPE
  5
45
330
4
100
AcDbSymbolTableRecord
100
AcDbLinetypeTableRecord
  2
STYLE_12
 70
     0
  3

 72
    65
 73
     2
 40
0.3937007874015748
 49
0.1968503937007874
 74
     0
 49
-0.1968503937007874
 74
     0
  0
LTYPE
  5
46
330
4
100
AcDbSymbolTableRecord
100
AcDbLinetypeTableRecord
  2
STYLE_13
 70
     0
  3

 72
    65
 73
     2
 40
0.5905511811023622
 49
0.2952755905511811
 74
     0
 49
-0.2952755905511811
 74
     0
  0
LTYPE
  5
47
330
4
100
AcDbSymbolTableRecord
100
AcDbLinetypeTableRecord
  2
STYLE_14
 70
     0
  3

 72
    65
 73
     2
 40
1.968503937007874
 49
0.9842519685039369
 74
     0
 49
-0.9842519685039369
 74
     0
  0
LTYPE
  5
48
330
4
100
AcDbSymbolTableRecord
100
AcDbLinetypeTableRecord
  2
STYLE_15
 70
     0
  3

 72
    65
 73
     2
 40
0.1875
 49
0.125
 74
     0
 49
-0.0625
 74
     0
  0
LTYPE
  5
49
330
4
100
AcDbSymbolTableRecord
100
AcDbLinetypeTableRecord
  2
STYLE_16
 70
     0
  3

 72
    65
 73
     2
 40
0.3690944881889764
 49
0.2460629921259843
 74
     0
 49
-0.1230314960629922
 74
     0
  0
LTYPE
  5
653
330
4
100
AcDbSymbolTableRecord
100
AcDbLinetypeTableRecord
  2
STYLE_25
 70
     0
  3

 72
    65
 73
     2
 40
0.3937007874015748
 49
0.1968503937007874
 74
     0
 49
-0.1968503937007874
 74
     0
  0
LTYPE
  5
D55
330
4
100
AcDbSymbolTableRecord
100
AcDbLinetypeTableRecord
  2
HIDDEN2
 70
     0
  3
Hidden (.5x) _ _ _ _ _ _ _ _ _ _ _ _ _ _ _ _ _
 72
    65
 73
     2
 40
4.762499999999999
 49
3.175
 74
     0
 49
-1.5875
 74
     0
  0
ENDTAB
  0
TABLE
  2
LAYER
  5
2
102
{ACAD_XDICTIONARY
360
2E1
102
}
330
0
100
AcDbSymbolTable
 70
     6
  0
LAYER
  5
14
330
2
100
AcDbSymbolTableRecord
100
AcDbLayerTableRecord
  2
0
 70
     0
 62
     7
  6
Continuous
370
    -3
390
1D
347
266
  0
LAYER
  5
4A
330
2
100
AcDbSymbolTableRecord
100
AcDbLayerTableRecord
  2
Defpoints
 70
     0
 62
     7
  6
Continuous
290
     0
370
    13
390
1D
347
266
  0
LAYER
  5
4B
330
2
100
AcDbSymbolTableRecord
100
AcDbLayerTableRecord
  2
template
 70
     0
 62
     7
  6
Continuous
370
    20
390
1D
347
266
  0
LAYER
  5
4D
330
2
100
AcDbSymbolTableRecord
100
AcDbLayerTableRecord
  2
MODEL
 70
     0
 62
     7
  6
Continuous
370
    20
390
1D
347
266
  0
LAYER
  5
382
330
2
100
AcDbSymbolTableRecord
100
AcDbLayerTableRecord
  2
レイヤー 1
 70
     0
 62
     7
  6
Continuous
370
    20
390
1D
347
266
  0
LAYER
  5
5EB
330
2
100
AcDbSymbolTableRecord
100
AcDbLayerTableRecord
  2
Dim
 70
     0
 62
     7
  6
Continuous
370
    13
390
1D
347
266
1001
AcAecLayerStandard
1000

1000

  0
ENDTAB
  0
TABLE
  2
STYLE
  5
3
330
0
100
AcDbSymbolTable
 70
     3
  0
STYLE
  5
17
330
3
100
AcDbSymbolTableRecord
100
AcDbTextStyleTableRecord
  2
Standard
 70
     0
 40
0.0
 41
1.0
 50
0.0
 71
     0
 42
533.0403732820173
  3
txt
  4
BIGFONT.SHX
  0
STYLE
  5
39
330
3
100
AcDbSymbolTableRecord
100
AcDbTextStyleTableRecord
  2
ＭＳ ゴシック
 70
     0
 40
0.0
 41
1.0
 50
0.0
 71
     0
 42
2.5
  3
msgothic.ttc
  4
ＭＳ ゴシック
1001
ACAD
1000
ＭＳ ゴシック
1071
        0
  0
STYLE
  5
D64
330
3
100
AcDbSymbolTableRecord
100
AcDbTextStyleTableRecord
  2
CONVERTER_2
 70
     0
 40
0.0
 41
0.9
 50
0.0
 71
     0
 42
533.0403732820173
  3
txt.shx
  4

  0
ENDTAB
  0
TABLE
  2
VIEW
  5
5
330
0
100
AcDbSymbolTable
 70
     0
  0
ENDTAB
  0
TABLE
  2
UCS
  5
6
330
0
100
AcDbSymbolTable
 70
     0
  0
ENDTAB
  0
TABLE
  2
APPID
  5
8
330
0
100
AcDbSymbolTable
 70
    11
  0
APPID
  5
16
330
8
100
AcDbSymbolTableRecord
100
AcDbRegAppTableRecord
  2
ACAD
 70
     0
  0
APPID
  5
5C5
330
8
100
AcDbSymbolTableRecord
100
AcDbRegAppTableRecord
  2
AcAecLayerStandard
 70
     0
  0
APPID
  5
D53
330
8
100
AcDbSymbolTableRecord
100
AcDbRegAppTableRecord
  2
AcCmTransparency
 70
     0
  0
APPID
  5
D58
330
8
100
AcDbSymbolTableRecord
100
AcDbRegAppTableRecord
  2
ACAD_DSTYLE_DIMJAG
 70
     0
  0
APPID
  5
D59
330
8
100
AcDbSymbolTableRecord
100
AcDbRegAppTableRecord
  2
ACAD_DSTYLE_DIMTALN
 70
     0
  0
APPID
  5
D5E
330
8
100
AcDbSymbolTableRecord
100
AcDbRegAppTableRecord
  2
ACAD_DSTYLE_DIMBREAK
 70
     0
  0
APPID
  5
D5F
330
8
100
AcDbSymbolTableRecord
100
AcDbRegAppTableRecord
  2
ACAD_PSEXT
 70
     0
  0
APPID
  5
D60
330
8
100
AcDbSymbolTableRecord
100
AcDbRegAppTableRecord
  2
GradientColor1ACI
 70
     0
  0
APPID
  5
D61
330
8
100
AcDbSymbolTableRecord
100
AcDbRegAppTableRecord
  2
GradientColor2ACI
 70
     0
  0
APPID
  5
D62
330
8
100
AcDbSymbolTableRecord
100
AcDbRegAppTableRecord
  2
AcLayerTools
 70
     0
  0
APPID
  5
D63
330
8
100
AcDbSymbolTableRecord
100
AcDbRegAppTableRecord
  2
ACAD_NAV_VCDISPLAY
 70
     0
  0
ENDTAB
  0
TABLE
  2
DIMSTYLE
  5
9
330
0
100
AcDbSymbolTable
 70
     5
100
AcDbDimStyleTable
  0
DIMSTYLE
105
18
330
9
100
AcDbSymbolTableRecord
100
AcDbDimStyleTableRecord
  2
Standard
 70
     0
178
     0
340
17
  0
DIMSTYLE
105
56
330
9
100
AcDbSymbolTableRecord
100
AcDbDimStyleTableRecord
  2
tform線あり
 70
     0
  3
<>
  4
[]
 41
9.999389648437498
 42
25.0
 43
0.9999999999999999
 44
0.0
 73
     0
 74
     0
 77
     1
 78
    11
140
24.4326171875
141
0.0
143
1.0
146
0.8
147
0.4999999999999999
171
     1
172
     1
174
     1
178
     0
179
     2
271
     1
272
     1
276
     2
284
    11
285
    11
286
    11
289
     0
340
39
341
4E
342
4E
  0
DIMSTYLE
105
57
330
9
100
AcDbSymbolTableRecord
100
AcDbDimStyleTableRecord
  2
tfrom線あり
 70
     0
  3
<>
  4
[]
 41
9.999389648437498
 42
25.0
 43
0.9999999999999999
 44
0.0
 73
     0
 74
     0
 77
     1
 78
    11
140
24.4326171875
141
0.0
143
1.0
147
0.4999999999999999
171
     1
174
     1
178
     0
179
     2
271
     1
272
     1
276
     2
284
    11
285
    11
286
    11
289
     0
340
39
341
4E
342
4E
  0
DIMSTYLE
105
5C
102
{ACAD_REACTORS
330
1DA1
330
1DCE
330
1DEA
330
1DF8
330
1E07
330
1E16
330
1E25
330
1E34
330
1E5E
330
1E93
330
1EA8
330
1F2E
330
1F78
330
1F9B
330
1FDF
102
}
330
9
100
AcDbSymbolTableRecord
100
AcDbDimStyleTableRecord
  2
JIS
 70
     0
  3
<>
  4
[]
 41
9.0
 42
0.0
 43
6.99999999999994
 44
19.9999999999962
 73
     0
 74
     0
 77
     1
 78
    11
140
24.4326171875
141
0.0
143
1.0
147
10.0
171
     1
174
     1
178
     0
179
     2
271
     1
272
     1
276
     2
284
    11
285
    11
286
    11
289
     0
340
39
341
4E
342
4E
  0
DIMSTYLE
105
6B1
330
9
100
AcDbSymbolTableRecord
100
AcDbDimStyleTableRecord
  2
ISO-25
 70
     0
 41
2.5
 42
0.625
 43
3.75
 44
1.25
 73
     0
 74
     0
 77
     1
 78
     8
140
2.5
141
2.5
143
0.03937007874016
147
0.625
171
     3
172
     1
178
     0
271
     2
272
     2
274
     3
278
    44
283
     0
284
     8
340
17
  0
ENDTAB
  0
TABLE
  2
BLOCK_RECORD
  5
1
330
0
100
AcDbSymbolTable
 70
    31
  0
BLOCK_RECORD
  5
A
330
1
100
AcDbSymbolTableRecord
100
AcDbBlockTableRecord
  2
*MODEL_SPACE
340
20
 70
     0
280
     1
281
     0
  0
BLOCK_RECORD
  5
B
330
1
100
AcDbSymbolTableRecord
100
AcDbBlockTableRecord
  2
*PAPER_SPACE
340
21
 70
     0
280
     1
281
     0
  0
BLOCK_RECORD
  5
4E
330
1
100
AcDbSymbolTableRecord
100
AcDbBlockTableRecord
  2
_DOT
340
0
102
{BLKREFS
331
1DAA
331
1DAB
331
1DD7
331
1DD8
331
1DF1
331
1DF2
331
1E01
331
1E02
331
1E10
331
1E11
331
1E1F
331
1E20
331
1E2E
331
1E2F
331
1E3B
331
1E3C
331
1E65
331
1E66
331
1E9C
331
1E9D
331
1EAF
331
1EB0
331
1F37
331
1F38
331
1F81
331
1F82
331
1FA4
331
1FA5
331
1FDA
331
1FD9
331
0
331
0
331
1FE9
331
1FE8
331
21A3
331
21A4
331
21AF
331
21B0
331
21BB
331
21BC
331
21C7
331
21C8
331
21D3
331
21D4
331
21DF
331
21E0
331
21EB
331
21EC
331
2201
331
2200
102
}
 70
     0
280
     1
281
     0
  0
BLOCK_RECORD
  5
3A5
330
1
100
AcDbSymbolTableRecord
100
AcDbBlockTableRecord
  2
名称未設定-1
340
0
102
{BLKREFS
331
3D0
102
}
 70
     1
280
     1
281
     0
  0
BLOCK_RECORD
  5
3A8
330
1
100
AcDbSymbolTableRecord
100
AcDbBlockTableRecord
  2
block 2
340
0
102
{BLKREFS
331
3A7
102
}
 70
     0
280
     1
281
     0
  0
BLOCK_RECORD
  5
3AB
330
1
100
AcDbSymbolTableRecord
100
AcDbBlockTableRecord
  2
block 3
340
0
102
{BLKREFS
331
3AA
102
}
 70
     0
280
     1
281
     0
  0
BLOCK_RECORD
  5
3AE
330
1
100
AcDbSymbolTableRecord
100
AcDbBlockTableRecord
  2
block 4
340
0
102
{BLKREFS
331
3AD
102
}
 70
     0
280
     1
281
     0
  0
BLOCK_RECORD
  5
3BD
330
1
100
AcDbSymbolTableRecord
100
AcDbBlockTableRecord
  2
block 5
340
0
102
{BLKREFS
331
3BC
102
}
 70
     0
280
     1
281
     0
  0
BLOCK_RECORD
  5
1DA4
330
1
100
AcDbSymbolTableRecord
100
AcDbBlockTableRecord
  2
*D6
340
0
 70
     0
280
     1
281
     0
  0
BLOCK_RECORD
  5
1DD1
330
1
100
AcDbSymbolTableRecord
100
AcDbBlockTableRecord
  2
*D7
340
0
 70
     0
280
     1
281
     0
  0
BLOCK_RECORD
  5
1DEB
330
1
100
AcDbSymbolTableRecord
100
AcDbBlockTableRecord
  2
*D8
340
0
 70
     0
280
     1
281
     0
  0
BLOCK_RECORD
  5
1DFB
330
1
100
AcDbSymbolTableRecord
100
AcDbBlockTableRecord
  2
*D9
340
0
 70
     0
280
     1
281
     0
  0
BLOCK_RECORD
  5
1E0A
330
1
100
AcDbSymbolTableRecord
100
AcDbBlockTableRecord
  2
*D10
340
0
 70
     0
280
     1
281
     0
  0
BLOCK_RECORD
  5
1E19
330
1
100
AcDbSymbolTableRecord
100
AcDbBlockTableRecord
  2
*D11
340
0
 70
     0
280
     1
281
     0
  0
BLOCK_RECORD
  5
1E28
330
1
100
AcDbSymbolTableRecord
100
AcDbBlockTableRecord
  2
*D12
340
0
 70
     0
280
     1
281
     0
  0
BLOCK_RECORD
  5
1E35
330
1
100
AcDbSymbolTableRecord
100
AcDbBlockTableRecord
  2
*D13
340
0
 70
     0
280
     1
281
     0
  0
BLOCK_RECORD
  5
1E5F
330
1
100
AcDbSymbolTableRecord
100
AcDbBlockTableRecord
  2
*D14
340
0
 70
     0
280
     1
281
     0
  0
BLOCK_RECORD
  5
1E96
330
1
100
AcDbSymbolTableRecord
100
AcDbBlockTableRecord
  2
*D15
340
0
 70
     0
280
     1
281
     0
  0
BLOCK_RECORD
  5
1EA9
330
1
100
AcDbSymbolTableRecord
100
AcDbBlockTableRecord
  2
*D16
340
0
 70
     0
280
     1
281
     0
  0
BLOCK_RECORD
  5
1F31
330
1
100
AcDbSymbolTableRecord
100
AcDbBlockTableRecord
  2
*D17
340
0
 70
     0
280
     1
281
     0
  0
BLOCK_RECORD
  5
1F7B
330
1
100
AcDbSymbolTableRecord
100
AcDbBlockTableRecord
  2
*D18
340
0
 70
     0
280
     1
281
     0
  0
BLOCK_RECORD
  5
1F9E
330
1
100
AcDbSymbolTableRecord
100
AcDbBlockTableRecord
  2
*D19
340
0
 70
     0
280
     1
281
     0
  0
BLOCK_RECORD
  5
1FD2
330
1
100
AcDbSymbolTableRecord
100
AcDbBlockTableRecord
  2
*D20
340
0
 70
     0
280
     1
281
     0
  0
BLOCK_RECORD
  5
1FE2
330
1
100
AcDbSymbolTableRecord
100
AcDbBlockTableRecord
  2
*D21
340
0
 70
     0
280
     1
281
     0
  0
BLOCK_RECORD
  5
219D
330
1
100
AcDbSymbolTableRecord
100
AcDbBlockTableRecord
  2
*D23
340
0
 70
     0
280
     1
281
     0
  0
BLOCK_RECORD
  5
21A9
330
1
100
AcDbSymbolTableRecord
100
AcDbBlockTableRecord
  2
*D24
340
0
 70
     0
280
     1
281
     0
  0
BLOCK_RECORD
  5
21B5
330
1
100
AcDbSymbolTableRecord
100
AcDbBlockTableRecord
  2
*D25
340
0
 70
     0
280
     1
281
     0
  0
BLOCK_RECORD
  5
21C1
330
1
100
AcDbSymbolTableRecord
100
AcDbBlockTableRecord
  2
*D26
340
0
 70
     0
280
     1
281
     0
  0
BLOCK_RECORD
  5
21CD
330
1
100
AcDbSymbolTableRecord
100
AcDbBlockTableRecord
  2
*D27
340
0
 70
     0
280
     1
281
     0
  0
BLOCK_RECORD
  5
21D9
330
1
100
AcDbSymbolTableRecord
100
AcDbBlockTableRecord
  2
*D28
340
0
 70
     0
280
     1
281
     0
  0
BLOCK_RECORD
  5
21E5
330
1
100
AcDbSymbolTableRecord
100
AcDbBlockTableRecord
  2
*D29
340
0
 70
     0
280
     1
281
     0
  0
BLOCK_RECORD
  5
21FA
330
1
100
AcDbSymbolTableRecord
100
AcDbBlockTableRecord
  2
*D30
340
0
 70
     0
280
     1
281
     0
  0
ENDTAB
  0
ENDSEC
  0
SECTION
  2
BLOCKS
  0
BLOCK
  5
D
330
A
100
AcDbEntity
  8
0
390
1D
100
AcDbBlockBegin
  2
*MODEL_SPACE
 70
     0
 10
0.0
 20
0.0
 30
0.0
  3
*MODEL_SPACE
  1
*MODEL_SPACE
  0
ENDBLK
  5
E
330
A
100
AcDbEntity
  8
0
390
1D
100
AcDbBlockEnd
  0
BLOCK
  5
F
330
B
100
AcDbEntity
 67
     1
  8
0
390
1D
100
AcDbBlockBegin
  2
*PAPER_SPACE
 70
     0
 10
0.0
 20
0.0
 30
0.0
  3
*PAPER_SPACE
  1
*PAPER_SPACE
  0
ENDBLK
  5
10
330
B
100
AcDbEntity
 67
     1
  8
0
390
1D
100
AcDbBlockEnd
  0
BLOCK
  5
2BB
330
4E
100
AcDbEntity
  8
0
390
1D
100
AcDbBlockBegin
  2
_DOT
 70
     0
 10
0.0
 20
0.0
 30
0.0
  3
_DOT
  1
_DOT
  0
POLYLINE
  5
2BD
330
4E
100
AcDbEntity
  8
0
  6
ByBlock
 62
     0
370
    -2
390
1D
100
AcDb2dPolyline
 66
     1
 10
0.0
 20
0.0
 30
0.0
 70
     1
 40
0.5
 41
0.5
  0
VERTEX
  5
2BE
330
2BD
100
AcDbEntity
  8
0
  6
ByBlock
 62
     0
370
    -2
390
1D
100
AcDbVertex
100
AcDb2dVertex
 10
-0.25
 20
0.0
 30
0.0
 42
1.0
  0
VERTEX
  5
2BF
330
2BD
100
AcDbEntity
  8
0
  6
ByBlock
 62
     0
370
    -2
390
1D
100
AcDbVertex
100
AcDb2dVertex
 10
0.25
 20
0.0
 30
0.0
 42
1.0
  0
SEQEND
  5
2C0
330
2BD
100
AcDbEntity
  8
0
390
1D
  0
LINE
  5
2C1
330
4E
100
AcDbEntity
  8
0
  6
ByBlock
 62
     0
370
    -2
390
1D
100
AcDbLine
 10
-0.5
 20
0.0
 30
0.0
 11
-1.0
 21
0.0
 31
0.0
  0
ENDBLK
  5
2C2
330
4E
100
AcDbEntity
  8
0
390
1D
100
AcDbBlockEnd
  0
BLOCK
  5
3A6
330
3A5
100
AcDbEntity
  8
0
100
AcDbBlockBegin
  2
名称未設定-1
 70
     0
 10
0.0
 20
0.0
 30
0.0
  3
名称未設定-1
  1
名称未設定-1
  0
INSERT
  5
3A7
330
3A5
100
AcDbEntity
  8
レイヤー 1
100
AcDbBlockReference
  2
block 2
 10
0.0
 20
0.0
 30
0.0
  0
ENDBLK
  5
3CC
330
3A5
100
AcDbEntity
  8
0
100
AcDbBlockEnd
  0
BLOCK
  5
3A9
330
3A8
100
AcDbEntity
  8
0
100
AcDbBlockBegin
  2
block 2
 70
     0
 10
0.0
 20
0.0
 30
0.0
  3
block 2
  1
block 2
  0
INSERT
  5
3AA
330
3A8
100
AcDbEntity
  8
レイヤー 1
100
AcDbBlockReference
  2
block 3
 10
0.0
 20
0.0
 30
0.0
  0
ENDBLK
  5
3CB
330
3A8
100
AcDbEntity
  8
0
100
AcDbBlockEnd
  0
BLOCK
  5
3AC
330
3AB
100
AcDbEntity
  8
0
100
AcDbBlockBegin
  2
block 3
 70
     0
 10
0.0
 20
0.0
 30
0.0
  3
block 3
  1
block 3
  0
INSERT
  5
3AD
330
3AB
100
AcDbEntity
  8
レイヤー 1
100
AcDbBlockReference
  2
block 4
 10
0.0
 20
0.0
 30
0.0
  0
ENDBLK
  5
3CA
330
3AB
100
AcDbEntity
  8
0
100
AcDbBlockEnd
  0
BLOCK
  5
3AF
330
3AE
100
AcDbEntity
  8
0
100
AcDbBlockBegin
  2
block 4
 70
     0
 10
0.0
 20
0.0
 30
0.0
  3
block 4
  1
block 4
  0
POLYLINE
  5
3B0
330
3AE
100
AcDbEntity
  8
レイヤー 1
370
     0
100
AcDb2dPolyline
 66
     1
 10
0.0
 20
0.0
 30
0.0
  0
VERTEX
  5
3B1
330
3B0
100
AcDbEntity
  8
レイヤー 1
370
     0
100
AcDbVertex
100
AcDb2dVertex
 10
83.79545727667795
 20
167.6444858234922
 30
0.0
  0
VERTEX
  5
3B2
330
3B0
100
AcDbEntity
  8
レイヤー 1
370
     0
100
AcDbVertex
100
AcDb2dVertex
 10
83.79545727667795
 20
159.7968976406313
 30
0.0
  0
VERTEX
  5
3B3
330
3B0
100
AcDbEntity
  8
レイヤー 1
370
     0
100
AcDbVertex
100
AcDb2dVertex
 10
71.3631329975216
 20
159.7968976406313
 30
0.0
  0
VERTEX
  5
3B4
330
3B0
100
AcDbEntity
  8
レイヤー 1
370
     0
100
AcDbVertex
100
AcDb2dVertex
 10
71.3631329975216
 20
127.8027915271048
 30
0.0
  0
VERTEX
  5
3B5
330
3B0
100
AcDbEntity
  8
レイヤー 1
370
     0
100
AcDbVertex
100
AcDb2dVertex
 10
60.43011526263018
 20
127.8027915271048
 30
0.0
  0
VERTEX
  5
3B6
330
3B0
100
AcDbEntity
  8
レイヤー 1
370
     0
100
AcDbVertex
100
AcDb2dVertex
 10
60.43011526263018
 20
159.7968976406313
 30
0.0
  0
VERTEX
  5
3B7
330
3B0
100
AcDbEntity
  8
レイヤー 1
370
     0
100
AcDbVertex
100
AcDb2dVertex
 10
48.21793273020759
 20
159.7968976406313
 30
0.0
  0
VERTEX
  5
3B8
330
3B0
100
AcDbEntity
  8
レイヤー 1
370
     0
100
AcDbVertex
100
AcDb2dVertex
 10
48.21793273020759
 20
167.6444858234922
 30
0.0
  0
VERTEX
  5
3B9
330
3B0
100
AcDbEntity
  8
レイヤー 1
370
     0
100
AcDbVertex
100
AcDb2dVertex
 10
83.79545727667795
 20
167.6444858234922
 30
0.0
  0
SEQEND
  5
3BA
330
3B0
100
AcDbEntity
  8
レイヤー 1
370
     0
  0
HATCH
  5
3BB
330
3AE
100
AcDbEntity
  8
レイヤー 1
 62
   250
420
  2234388
100
AcDbHatch
 10
0.0
 20
0.0
 30
0.0
210
0.0
220
0.0
230
1.0
  2
SOLID
 70
     1
 71
     0
 91
        1
 92
        1
 93
        8
 72
     1
 10
83.79545727667795
 20
167.6444858234922
 11
83.79545727667795
 21
159.7968976406313
 72
     1
 10
83.79545727667795
 20
159.7968976406313
 11
71.3631329975216
 21
159.7968976406313
 72
     1
 10
71.3631329975216
 20
159.7968976406313
 11
71.3631329975216
 21
127.8027915271048
 72
     1
 10
71.3631329975216
 20
127.8027915271048
 11
60.43011526263018
 21
127.8027915271048
 72
     1
 10
60.43011526263018
 20
127.8027915271048
 11
60.43011526263018
 21
159.7968976406313
 72
     1
 10
60.43011526263018
 20
159.7968976406313
 11
48.21793273020759
 21
159.7968976406313
 72
     1
 10
48.21793273020759
 20
159.7968976406313
 11
48.21793273020759
 21
167.6444858234922
 72
     1
 10
48.21793273020759
 20
167.6444858234922
 11
83.79545727667795
 21
167.6444858234922
 97
        0
 75
     2
 76
     1
 98
        0
  0
INSERT
  5
3BC
330
3AE
100
AcDbEntity
  8
レイヤー 1
100
AcDbBlockReference
  2
block 5
 10
0.0
 20
0.0
 30
0.0
  0
ENDBLK
  5
3C9
330
3AE
100
AcDbEntity
  8
0
100
AcDbBlockEnd
  0
BLOCK
  5
3BE
330
3BD
100
AcDbEntity
  8
0
100
AcDbBlockBegin
  2
block 5
 70
     0
 10
0.0
 20
0.0
 30
0.0
  3
block 5
  1
block 5
  0
SPLINE
  5
3BF
330
3BD
100
AcDbEntity
  8
レイヤー 1
370
     0
100
AcDbSpline
210
0.0
220
0.0
230
1.0
 70
    11
 71
     3
 72
    56
 73
    52
 74
     0
 42
0.000000001
 43
0.0000000001
 40
0.0
 40
0.0
 40
0.0
 40
0.0
 40
1.0
 40
1.0
 40
1.0
 40
2.0
 40
2.0
 40
2.0
 40
3.0
 40
3.0
 40
3.0
 40
4.0
 40
4.0
 40
4.0
 40
5.0
 40
5.0
 40
5.0
 40
6.0
 40
6.0
 40
6.0
 40
7.0
 40
7.0
 40
7.0
 40
8.0
 40
8.0
 40
8.0
 40
9.0
 40
9.0
 40
9.0
 40
10.0
 40
10.0
 40
10.0
 40
11.0
 40
11.0
 40
11.0
 40
12.0
 40
12.0
 40
12.0
 40
13.0
 40
13.0
 40
13.0
 40
14.0
 40
14.0
 40
14.0
 40
15.0
 40
15.0
 40
15.0
 40
16.0
 40
16.0
 40
16.0
 40
17.0
 40
17.0
 40
17.0
 40
17.0
 10
100.4504378777679
 20
166.69157178364
 30
0.0
 10
101.9848844191641
 20
167.1313385124438
 30
0.0
 10
103.9637485713373
 20
166.7649523658846
 30
0.0
 10
103.9637485713373
 20
166.7649523658846
 30
0.0
 10
103.9637485713373
 20
166.7649523658846
 30
0.0
 10
103.0132460999156
 20
163.911205638077
 30
0.0
 10
103.0132460999156
 20
163.911205638077
 30
0.0
 10
103.0132460999156
 20
163.911205638077
 30
0.0
 10
101.0674548862189
 20
164.3601018759394
 30
0.0
 10
99.57090442016032
 20
163.1805004036133
 30
0.0
 10
98.40508333886608
 20
162.258247733807
 30
0.0
 10
97.65301849830304
 20
159.804132345923
 30
0.0
 10
97.3598406791005
 20
158.8699940888517
 30
0.0
 10
97.3598406791005
 20
158.8699940888517
 30
0.0
 10
96.07137411762282
 20
154.9119212747295
 30
0.0
 10
96.07137411762282
 20
154.9119212747295
 30
0.0
 10
96.07137411762282
 20
154.9119212747295
 30
0.0
 10
100.3012651448482
 20
154.9119212747295
 30
0.0
 10
100.3012651448482
 20
154.9119212747295
 30
0.0
 10
100.3012651448482
 20
154.9119212747295
 30
0.0
 10
99.64152892419852
 20
152.4199098115079
 30
0.0
 10
99.64152892419852
 20
152.4199098115079
 30
0.0
 10
99.64152892419852
 20
152.4199098115079
 30
0.0
 10
95.38097652692731
 20
152.4199098115079
 30
0.0
 10
95.38097652692731
 20
152.4199098115079
 30
0.0
 10
95.38097652692731
 20
152.4199098115079
 30
0.0
 10
87.75353009080013
 20
127.8027915271048
 30
0.0
 10
87.75353009080013
 20
127.8027915271048
 30
0.0
 10
87.75353009080013
 20
127.8027915271048
 30
0.0
 10
85.36538832498108
 20
127.8027915271048
 30
0.0
 10
85.36538832498108
 20
127.8027915271048
 30
0.0
 10
85.36538832498108
 20
127.8027915271048
 30
0.0
 10
93.00006946639998
 20
152.4199098115079
 30
0.0
 10
93.00006946639998
 20
152.4199098115079
 30
0.0
 10
93.00006946639998
 20
152.4199098115079
 30
0.0
 10
89.85297266450198
 20
152.4199098115079
 30
0.0
 10
89.85297266450198
 20
152.4199098115079
 30
0.0
 10
89.85297266450198
 20
152.4199098115079
 30
0.0
 10
90.51270888515164
 20
154.9119212747295
 30
0.0
 10
90.51270888515164
 20
154.9119212747295
 30
0.0
 10
90.51270888515164
 20
154.9119212747295
 30
0.0
 10
93.6904670570955
 20
154.9119212747295
 30
0.0
 10
93.6904670570955
 20
154.9119212747295
 30
0.0
 10
93.6904670570955
 20
154.9119212747295
 30
0.0
 10
94.81598049462158
 20
158.3616699146644
 30
0.0
 10
94.81598049462158
 20
158.3616699146644
 30
0.0
 10
95.7237637538445
 20
161.2605474231013
 30
0.0
 10
96.4968436907311
 20
162.8139420021662
 30
0.0
 10
97.15657991138076
 20
163.9844139654337
 30
0.0
 10
97.81183750494507
 20
165.1523021053827
 30
0.0
 10
99.1047826935081
 20
166.3084769129547
 30
0.0
 10
100.4504378777679
 20
166.69157178364
 30
0.0
  0
HATCH
  5
3C0
330
3BD
100
AcDbEntity
  8
レイヤー 1
 62
   250
420
  2234388
100
AcDbHatch
 10
0.0
 20
0.0
 30
0.0
210
0.0
220
0.0
230
1.0
  2
SOLID
 70
     1
 71
     0
 91
        1
 92
        1
 93
        1
 72
     4
 94
        3
 73
     0
 74
     1
 95
       56
 96
       52
 40
0.0
 40
0.0
 40
0.0
 40
0.0
 40
1.0
 40
1.0
 40
1.0
 40
2.0
 40
2.0
 40
2.0
 40
3.0
 40
3.0
 40
3.0
 40
4.0
 40
4.0
 40
4.0
 40
5.0
 40
5.0
 40
5.0
 40
6.0
 40
6.0
 40
6.0
 40
7.0
 40
7.0
 40
7.0
 40
8.0
 40
8.0
 40
8.0
 40
9.0
 40
9.0
 40
9.0
 40
10.0
 40
10.0
 40
10.0
 40
11.0
 40
11.0
 40
11.0
 40
12.0
 40
12.0
 40
12.0
 40
13.0
 40
13.0
 40
13.0
 40
14.0
 40
14.0
 40
14.0
 40
15.0
 40
15.0
 40
15.0
 40
16.0
 40
16.0
 40
16.0
 40
17.0
 40
17.0
 40
17.0
 40
17.0
 10
100.4504378777679
 20
166.69157178364
 10
101.9848844191641
 20
167.1313385124438
 10
103.9637485713373
 20
166.7649523658846
 10
103.9637485713373
 20
166.7649523658846
 10
103.9637485713373
 20
166.7649523658846
 10
103.0132460999156
 20
163.911205638077
 10
103.0132460999156
 20
163.911205638077
 10
103.0132460999156
 20
163.911205638077
 10
101.0674548862189
 20
164.3601018759394
 10
99.57090442016032
 20
163.1805004036133
 10
98.40508333886608
 20
162.258247733807
 10
97.65301849830304
 20
159.804132345923
 10
97.3598406791005
 20
158.8699940888517
 10
97.3598406791005
 20
158.8699940888517
 10
96.07137411762282
 20
154.9119212747295
 10
96.07137411762282
 20
154.9119212747295
 10
96.07137411762282
 20
154.9119212747295
 10
100.3012651448482
 20
154.9119212747295
 10
100.3012651448482
 20
154.9119212747295
 10
100.3012651448482
 20
154.9119212747295
 10
99.64152892419852
 20
152.4199098115079
 10
99.64152892419852
 20
152.4199098115079
 10
99.64152892419852
 20
152.4199098115079
 10
95.38097652692731
 20
152.4199098115079
 10
95.38097652692731
 20
152.4199098115079
 10
95.38097652692731
 20
152.4199098115079
 10
87.75353009080013
 20
127.8027915271048
 10
87.75353009080013
 20
127.8027915271048
 10
87.75353009080013
 20
127.8027915271048
 10
85.36538832498108
 20
127.8027915271048
 10
85.36538832498108
 20
127.8027915271048
 10
85.36538832498108
 20
127.8027915271048
 10
93.00006946639998
 20
152.4199098115079
 10
93.00006946639998
 20
152.4199098115079
 10
93.00006946639998
 20
152.4199098115079
 10
89.85297266450198
 20
152.4199098115079
 10
89.85297266450198
 20
152.4199098115079
 10
89.85297266450198
 20
152.4199098115079
 10
90.51270888515164
 20
154.9119212747295
 10
90.51270888515164
 20
154.9119212747295
 10
90.51270888515164
 20
154.9119212747295
 10
93.6904670570955
 20
154.9119212747295
 10
93.6904670570955
 20
154.9119212747295
 10
93.6904670570955
 20
154.9119212747295
 10
94.81598049462158
 20
158.3616699146644
 10
94.81598049462158
 20
158.3616699146644
 10
95.7237637538445
 20
161.2605474231013
 10
96.4968436907311
 20
162.8139420021662
 10
97.15657991138076
 20
163.9844139654337
 10
97.81183750494507
 20
165.1523021053827
 10
99.1047826935081
 20
166.3084769129547
 10
100.4504378777679
 20
166.69157178364
 97
        0
 75
     2
 76
     1
 98
        0
  0
SPLINE
  5
3C1
330
3BD
100
AcDbEntity
  8
レイヤー 1
370
     0
100
AcDbSpline
210
0.0
220
0.0
230
1.0
 70
    11
 71
     3
 72
    38
 73
    34
 74
     0
 42
0.000000001
 43
0.0000000001
 40
0.0
 40
0.0
 40
0.0
 40
0.0
 40
1.0
 40
1.0
 40
1.0
 40
2.0
 40
2.0
 40
2.0
 40
3.0
 40
3.0
 40
3.0
 40
4.0
 40
4.0
 40
4.0
 40
5.0
 40
5.0
 40
5.0
 40
6.0
 40
6.0
 40
6.0
 40
7.0
 40
7.0
 40
7.0
 40
8.0
 40
8.0
 40
8.0
 40
9.0
 40
9.0
 40
9.0
 40
10.0
 40
10.0
 40
10.0
 40
11.0
 40
11.0
 40
11.0
 40
11.0
 10
126.377554584636
 20
154.8151140277308
 30
0.0
 10
126.377554584636
 20
154.8151140277308
 30
0.0
 10
128.8311532078563
 20
154.8151140277308
 30
0.0
 10
128.8311532078563
 20
154.8151140277308
 30
0.0
 10
128.8311532078563
 20
154.8151140277308
 30
0.0
 10
127.7345785914971
 20
151.3062819612468
 30
0.0
 10
127.7345785914971
 20
151.3062819612468
 30
0.0
 10
128.571392836906
 20
152.2922689395754
 30
0.0
 10
129.8860421413442
 20
153.604506675583
 30
0.0
 10
131.0163787157314
 20
154.2664822097754
 30
0.0
 10
132.7044766171327
 20
155.2500576196734
 30
0.0
 10
133.6642808525008
 20
155.3847609420097
 30
0.0
 10
134.7284715499351
 20
155.3565111403944
 30
0.0
 10
134.7284715499351
 20
155.3565111403944
 30
0.0
 10
133.6877075172549
 20
152.0345756272799
 30
0.0
 10
133.6877075172549
 20
152.0345756272799
 30
0.0
 10
133.011434827367
 20
152.3184516825359
 30
0.0
 10
130.930940291334
 20
151.7768823149844
 30
0.0
 10
129.739280976855
 20
150.9162968950455
 30
0.0
 10
128.66613302525
 20
150.1454562717016
 30
0.0
 10
127.9192358313239
 20
149.4857200510519
 30
0.0
 10
127.0393578639405
 20
147.8282835196966
 30
0.0
 10
126.164647543194
 20
146.1699857139017
 30
0.0
 10
125.4742499524985
 20
143.5262176944419
 30
0.0
 10
124.2822461282437
 20
139.6959580071401
 30
0.0
 10
124.2822461282437
 20
139.6959580071401
 30
0.0
 10
120.5753209406769
 20
127.8027915271048
 30
0.0
 10
120.5753209406769
 20
127.8027915271048
 30
0.0
 10
120.5753209406769
 20
127.8027915271048
 30
0.0
 10
118.1964809388044
 20
127.8027915271048
 30
0.0
 10
118.1964809388044
 20
127.8027915271048
 30
0.0
 10
118.1964809388044
 20
127.8027915271048
 30
0.0
 10
126.377554584636
 20
154.8151140277308
 30
0.0
 10
126.377554584636
 20
154.8151140277308
 30
0.0
  0
HATCH
  5
3C2
330
3BD
100
AcDbEntity
  8
レイヤー 1
 62
   250
420
  2234388
100
AcDbHatch
 10
0.0
 20
0.0
 30
0.0
210
0.0
220
0.0
230
1.0
  2
SOLID
 70
     1
 71
     0
 91
        1
 92
        1
 93
        1
 72
     4
 94
        3
 73
     0
 74
     1
 95
       38
 96
       34
 40
0.0
 40
0.0
 40
0.0
 40
0.0
 40
1.0
 40
1.0
 40
1.0
 40
2.0
 40
2.0
 40
2.0
 40
3.0
 40
3.0
 40
3.0
 40
4.0
 40
4.0
 40
4.0
 40
5.0
 40
5.0
 40
5.0
 40
6.0
 40
6.0
 40
6.0
 40
7.0
 40
7.0
 40
7.0
 40
8.0
 40
8.0
 40
8.0
 40
9.0
 40
9.0
 40
9.0
 40
10.0
 40
10.0
 40
10.0
 40
11.0
 40
11.0
 40
11.0
 40
11.0
 10
126.377554584636
 20
154.8151140277308
 10
126.377554584636
 20
154.8151140277308
 10
128.8311532078563
 20
154.8151140277308
 10
128.8311532078563
 20
154.8151140277308
 10
128.8311532078563
 20
154.8151140277308
 10
127.7345785914971
 20
151.3062819612468
 10
127.7345785914971
 20
151.3062819612468
 10
128.571392836906
 20
152.2922689395754
 10
129.8860421413442
 20
153.604506675583
 10
131.0163787157314
 20
154.2664822097754
 10
132.7044766171327
 20
155.2500576196734
 10
133.6642808525008
 20
155.3847609420097
 10
134.7284715499351
 20
155.3565111403944
 10
134.7284715499351
 20
155.3565111403944
 10
133.6877075172549
 20
152.0345756272799
 10
133.6877075172549
 20
152.0345756272799
 10
133.011434827367
 20
152.3184516825359
 10
130.930940291334
 20
151.7768823149844
 10
129.739280976855
 20
150.9162968950455
 10
128.66613302525
 20
150.1454562717016
 10
127.9192358313239
 20
149.4857200510519
 10
127.0393578639405
 20
147.8282835196966
 10
126.164647543194
 20
146.1699857139017
 10
125.4742499524985
 20
143.5262176944419
 10
124.2822461282437
 20
139.6959580071401
 10
124.2822461282437
 20
139.6959580071401
 10
120.5753209406769
 20
127.8027915271048
 10
120.5753209406769
 20
127.8027915271048
 10
120.5753209406769
 20
127.8027915271048
 10
118.1964809388044
 20
127.8027915271048
 10
118.1964809388044
 20
127.8027915271048
 10
118.1964809388044
 20
127.8027915271048
 10
126.377554584636
 20
154.8151140277308
 10
126.377554584636
 20
154.8151140277308
 97
        0
 75
     2
 76
     1
 98
        0
  0
SPLINE
  5
3C3
330
3BD
100
AcDbEntity
  8
レイヤー 1
370
     0
100
AcDbSpline
210
0.0
220
0.0
230
1.0
 70
    11
 71
     3
 72
   104
 73
   100
 74
     0
 42
0.000000001
 43
0.0000000001
 40
0.0
 40
0.0
 40
0.0
 40
0.0
 40
1.0
 40
1.0
 40
1.0
 40
2.0
 40
2.0
 40
2.0
 40
3.0
 40
3.0
 40
3.0
 40
4.0
 40
4.0
 40
4.0
 40
5.0
 40
5.0
 40
5.0
 40
6.0
 40
6.0
 40
6.0
 40
7.0
 40
7.0
 40
7.0
 40
8.0
 40
8.0
 40
8.0
 40
9.0
 40
9.0
 40
9.0
 40
10.0
 40
10.0
 40
10.0
 40
11.0
 40
11.0
 40
11.0
 40
12.0
 40
12.0
 40
12.0
 40
13.0
 40
13.0
 40
13.0
 40
14.0
 40
14.0
 40
14.0
 40
15.0
 40
15.0
 40
15.0
 40
16.0
 40
16.0
 40
16.0
 40
17.0
 40
17.0
 40
17.0
 40
18.0
 40
18.0
 40
18.0
 40
19.0
 40
19.0
 40
19.0
 40
20.0
 40
20.0
 40
20.0
 40
21.0
 40
21.0
 40
21.0
 40
22.0
 40
22.0
 40
22.0
 40
23.0
 40
23.0
 40
23.0
 40
24.0
 40
24.0
 40
24.0
 40
25.0
 40
25.0
 40
25.0
 40
26.0
 40
26.0
 40
26.0
 40
27.0
 40
27.0
 40
27.0
 40
28.0
 40
28.0
 40
28.0
 40
29.0
 40
29.0
 40
29.0
 40
30.0
 40
30.0
 40
30.0
 40
31.0
 40
31.0
 40
31.0
 40
32.0
 40
32.0
 40
32.0
 40
33.0
 40
33.0
 40
33.0
 40
33.0
 10
139.8926730891197
 20
154.8294111834263
 30
0.0
 10
139.8926730891197
 20
154.8294111834263
 30
0.0
 10
142.0344903652445
 20
154.8294111834263
 30
0.0
 10
142.0344903652445
 20
154.8294111834263
 30
0.0
 10
142.0344903652445
 20
154.8294111834263
 30
0.0
 10
140.9516961399171
 20
151.3157559800812
 30
0.0
 10
140.9516961399171
 20
151.3157559800812
 30
0.0
 10
141.8928968473923
 20
152.7887075264977
 30
0.0
 10
142.7341897198865
 20
153.4484437471474
 30
0.0
 10
143.8552245303272
 20
154.2926649527359
 30
0.0
 10
144.9803934580775
 20
155.1296514530327
 30
0.0
 10
146.3139908001845
 20
155.3044901642492
 30
0.0
 10
147.241066606852
 20
155.3044901642492
 30
0.0
 10
148.3855280820469
 20
155.3044901642492
 30
0.0
 10
149.4969166187653
 20
155.0752189084569
 30
0.0
 10
150.0784491203092
 20
153.8172414621372
 30
0.0
 10
150.5228667310863
 20
152.833838307127
 30
0.0
 10
150.5414702589793
 20
152.7201500811143
 30
0.0
 10
150.4140016419347
 20
150.7765981809602
 30
0.0
 10
151.5818897818837
 20
152.7699317437168
 30
0.0
 10
152.4424752018226
 20
153.6256940267945
 30
0.0
 10
153.9038856707499
 20
154.4507949398263
 30
0.0
 10
155.4455669174378
 20
155.3044901642492
 30
0.0
 10
156.339225275853
 20
155.3659851592288
 30
0.0
 10
157.3748216618963
 20
155.2147453676543
 30
0.0
 10
158.911679771723
 20
154.9877134254046
 30
0.0
 10
159.8859534176746
 20
154.4390816074493
 30
0.0
 10
160.3965169054045
 20
152.7816450760939
 30
0.0
 10
160.9070803931344
 20
151.1219692311958
 30
0.0
 10
160.6328506116007
 20
150.2303779314354
 30
0.0
 10
159.9992971339115
 20
147.597634224801
 30
0.0
 10
159.7105979417943
 20
146.4014962832367
 30
0.0
 10
159.2947746424084
 20
144.9400858143094
 30
0.0
 10
158.7463150793409
 20
143.2092687007094
 30
0.0
 10
158.7463150793409
 20
143.2092687007094
 30
0.0
 10
153.9038856707499
 20
127.8027915271048
 30
0.0
 10
153.9038856707499
 20
127.8027915271048
 30
0.0
 10
153.9038856707499
 20
127.8027915271048
 30
0.0
 10
151.3882752878863
 20
127.8027915271048
 30
0.0
 10
151.3882752878863
 20
127.8027915271048
 30
0.0
 10
151.3882752878863
 20
127.8027915271048
 30
0.0
 10
155.6250565106276
 20
141.2751908193897
 30
0.0
 10
155.6250565106276
 20
141.2751908193897
 30
0.0
 10
156.5094131050963
 20
144.0936252951782
 30
0.0
 10
157.109893644309
 20
146.1506931664571
 30
0.0
 10
157.4220195011804
 20
147.4415712963654
 30
0.0
 10
157.8095929989511
 20
149.0530157726519
 30
0.0
 10
157.9656559273867
 20
149.5826995529385
 30
0.0
 10
157.7816877071116
 20
150.7529992613181
 30
0.0
 10
157.6111553680925
 20
151.8430281919372
 30
0.0
 10
157.0582171779396
 20
152.5547853887321
 30
0.0
 10
156.1170164704645
 20
152.5547853887321
 30
0.0
 10
155.1096698860365
 20
152.5547853887321
 30
0.0
 10
154.2962823053817
 20
152.4412694176073
 30
0.0
 10
153.156643967048
 20
151.2945686288697
 30
0.0
 10
152.0170056287143
 20
150.1476955852443
 30
0.0
 10
151.076149431015
 20
148.7930831468137
 30
0.0
 10
150.3337308641742
 20
147.2290087646991
 30
0.0
 10
149.5957909244188
 20
145.6683794803425
 30
0.0
 10
148.8530278478023
 20
143.6822806228776
 30
0.0
 10
148.0964843801539
 20
141.2751908193897
 30
0.0
 10
148.0964843801539
 20
141.2751908193897
 30
0.0
 10
143.8552245303272
 20
127.8027915271048
 30
0.0
 10
143.8552245303272
 20
127.8027915271048
 30
0.0
 10
143.8552245303272
 20
127.8027915271048
 30
0.0
 10
141.486030802177
 20
127.8027915271048
 30
0.0
 10
141.486030802177
 20
127.8027915271048
 30
0.0
 10
141.486030802177
 20
127.8027915271048
 30
0.0
 10
146.3329388378533
 20
143.2092687007094
 30
0.0
 10
146.3329388378533
 20
143.2092687007094
 30
0.0
 10
146.8483254624444
 20
144.8408669988801
 30
0.0
 10
147.2314203331297
 20
146.1837661049335
 30
0.0
 10
147.4867020769946
 20
147.224185627838
 30
0.0
 10
147.9169947869641
 20
149.0197705792876
 30
0.0
 10
148.0306830129768
 20
150.2400242051577
 30
0.0
 10
147.709255392159
 20
151.3157559800812
 30
0.0
 10
147.3874832615654
 20
152.3916600098926
 30
0.0
 10
146.8245542879144
 20
152.6683013598569
 30
0.0
 10
145.8840425999909
 20
152.6683013598569
 30
0.0
 10
145.0989048209514
 20
152.6683013598569
 30
0.0
 10
144.3282364524954
 20
152.3275811915945
 30
0.0
 10
143.4531816219731
 20
151.6538923250251
 30
0.0
 10
142.34627171234
 20
150.8074318058939
 30
0.0
 10
141.901854101563
 20
150.1097995099067
 30
0.0
 10
141.3578731655808
 20
149.289521733736
 30
0.0
 10
140.6299240093235
 20
148.192602607601
 30
0.0
 10
140.2850697237515
 20
147.455696197173
 30
0.0
 10
139.6652966370942
 20
145.8385673095858
 30
0.0
 10
139.0506911970739
 20
144.2214384219986
 30
0.0
 10
138.463991048893
 20
142.3252566160164
 30
0.0
 10
138.0571250036777
 20
141.0154304484394
 30
0.0
 10
138.0571250036777
 20
141.0154304484394
 30
0.0
 10
133.9009590684727
 20
127.8027915271048
 30
0.0
 10
133.9009590684727
 20
127.8027915271048
 30
0.0
 10
133.9009590684727
 20
127.8027915271048
 30
0.0
 10
131.4180771143097
 20
127.8027915271048
 30
0.0
 10
131.4180771143097
 20
127.8027915271048
 30
0.0
 10
131.4180771143097
 20
127.8027915271048
 30
0.0
 10
139.8926730891197
 20
154.8294111834263
 30
0.0
 10
139.8926730891197
 20
154.8294111834263
 30
0.0
  0
HATCH
  5
3C4
330
3BD
100
AcDbEntity
  8
レイヤー 1
 62
   250
420
  2234388
100
AcDbHatch
 10
0.0
 20
0.0
 30
0.0
210
0.0
220
0.0
230
1.0
  2
SOLID
 70
     1
 71
     0
 91
        1
 92
        1
 93
        1
 72
     4
 94
        3
 73
     0
 74
     1
 95
      104
 96
      100
 40
0.0
 40
0.0
 40
0.0
 40
0.0
 40
1.0
 40
1.0
 40
1.0
 40
2.0
 40
2.0
 40
2.0
 40
3.0
 40
3.0
 40
3.0
 40
4.0
 40
4.0
 40
4.0
 40
5.0
 40
5.0
 40
5.0
 40
6.0
 40
6.0
 40
6.0
 40
7.0
 40
7.0
 40
7.0
 40
8.0
 40
8.0
 40
8.0
 40
9.0
 40
9.0
 40
9.0
 40
10.0
 40
10.0
 40
10.0
 40
11.0
 40
11.0
 40
11.0
 40
12.0
 40
12.0
 40
12.0
 40
13.0
 40
13.0
 40
13.0
 40
14.0
 40
14.0
 40
14.0
 40
15.0
 40
15.0
 40
15.0
 40
16.0
 40
16.0
 40
16.0
 40
17.0
 40
17.0
 40
17.0
 40
18.0
 40
18.0
 40
18.0
 40
19.0
 40
19.0
 40
19.0
 40
20.0
 40
20.0
 40
20.0
 40
21.0
 40
21.0
 40
21.0
 40
22.0
 40
22.0
 40
22.0
 40
23.0
 40
23.0
 40
23.0
 40
24.0
 40
24.0
 40
24.0
 40
25.0
 40
25.0
 40
25.0
 40
26.0
 40
26.0
 40
26.0
 40
27.0
 40
27.0
 40
27.0
 40
28.0
 40
28.0
 40
28.0
 40
29.0
 40
29.0
 40
29.0
 40
30.0
 40
30.0
 40
30.0
 40
31.0
 40
31.0
 40
31.0
 40
32.0
 40
32.0
 40
32.0
 40
33.0
 40
33.0
 40
33.0
 40
33.0
 10
139.8926730891197
 20
154.8294111834263
 10
139.8926730891197
 20
154.8294111834263
 10
142.0344903652445
 20
154.8294111834263
 10
142.0344903652445
 20
154.8294111834263
 10
142.0344903652445
 20
154.8294111834263
 10
140.9516961399171
 20
151.3157559800812
 10
140.9516961399171
 20
151.3157559800812
 10
141.8928968473923
 20
152.7887075264977
 10
142.7341897198865
 20
153.4484437471474
 10
143.8552245303272
 20
154.2926649527359
 10
144.9803934580775
 20
155.1296514530327
 10
146.3139908001845
 20
155.3044901642492
 10
147.241066606852
 20
155.3044901642492
 10
148.3855280820469
 20
155.3044901642492
 10
149.4969166187653
 20
155.0752189084569
 10
150.0784491203092
 20
153.8172414621372
 10
150.5228667310863
 20
152.833838307127
 10
150.5414702589793
 20
152.7201500811143
 10
150.4140016419347
 20
150.7765981809602
 10
151.5818897818837
 20
152.7699317437168
 10
152.4424752018226
 20
153.6256940267945
 10
153.9038856707499
 20
154.4507949398263
 10
155.4455669174378
 20
155.3044901642492
 10
156.339225275853
 20
155.3659851592288
 10
157.3748216618963
 20
155.2147453676543
 10
158.911679771723
 20
154.9877134254046
 10
159.8859534176746
 20
154.4390816074493
 10
160.3965169054045
 20
152.7816450760939
 10
160.9070803931344
 20
151.1219692311958
 10
160.6328506116007
 20
150.2303779314354
 10
159.9992971339115
 20
147.597634224801
 10
159.7105979417943
 20
146.4014962832367
 10
159.2947746424084
 20
144.9400858143094
 10
158.7463150793409
 20
143.2092687007094
 10
158.7463150793409
 20
143.2092687007094
 10
153.9038856707499
 20
127.8027915271048
 10
153.9038856707499
 20
127.8027915271048
 10
153.9038856707499
 20
127.8027915271048
 10
151.3882752878863
 20
127.8027915271048
 10
151.3882752878863
 20
127.8027915271048
 10
151.3882752878863
 20
127.8027915271048
 10
155.6250565106276
 20
141.2751908193897
 10
155.6250565106276
 20
141.2751908193897
 10
156.5094131050963
 20
144.0936252951782
 10
157.109893644309
 20
146.1506931664571
 10
157.4220195011804
 20
147.4415712963654
 10
157.8095929989511
 20
149.0530157726519
 10
157.9656559273867
 20
149.5826995529385
 10
157.7816877071116
 20
150.7529992613181
 10
157.6111553680925
 20
151.8430281919372
 10
157.0582171779396
 20
152.5547853887321
 10
156.1170164704645
 20
152.5547853887321
 10
155.1096698860365
 20
152.5547853887321
 10
154.2962823053817
 20
152.4412694176073
 10
153.156643967048
 20
151.2945686288697
 10
152.0170056287143
 20
150.1476955852443
 10
151.076149431015
 20
148.7930831468137
 10
150.3337308641742
 20
147.2290087646991
 10
149.5957909244188
 20
145.6683794803425
 10
148.8530278478023
 20
143.6822806228776
 10
148.0964843801539
 20
141.2751908193897
 10
148.0964843801539
 20
141.2751908193897
 10
143.8552245303272
 20
127.8027915271048
 10
143.8552245303272
 20
127.8027915271048
 10
143.8552245303272
 20
127.8027915271048
 10
141.486030802177
 20
127.8027915271048
 10
141.486030802177
 20
127.8027915271048
 10
141.486030802177
 20
127.8027915271048
 10
146.3329388378533
 20
143.2092687007094
 10
146.3329388378533
 20
143.2092687007094
 10
146.8483254624444
 20
144.8408669988801
 10
147.2314203331297
 20
146.1837661049335
 10
147.4867020769946
 20
147.224185627838
 10
147.9169947869641
 20
149.0197705792876
 10
148.0306830129768
 20
150.2400242051577
 10
147.709255392159
 20
151.3157559800812
 10
147.3874832615654
 20
152.3916600098926
 10
146.8245542879144
 20
152.6683013598569
 10
145.8840425999909
 20
152.6683013598569
 10
145.0989048209514
 20
152.6683013598569
 10
144.3282364524954
 20
152.3275811915945
 10
143.4531816219731
 20
151.6538923250251
 10
142.34627171234
 20
150.8074318058939
 10
141.901854101563
 20
150.1097995099067
 10
141.3578731655808
 20
149.289521733736
 10
140.6299240093235
 20
148.192602607601
 10
140.2850697237515
 20
147.455696197173
 10
139.6652966370942
 20
145.8385673095858
 10
139.0506911970739
 20
144.2214384219986
 10
138.463991048893
 20
142.3252566160164
 10
138.0571250036777
 20
141.0154304484394
 10
138.0571250036777
 20
141.0154304484394
 10
133.9009590684727
 20
127.8027915271048
 10
133.9009590684727
 20
127.8027915271048
 10
133.9009590684727
 20
127.8027915271048
 10
131.4180771143097
 20
127.8027915271048
 10
131.4180771143097
 20
127.8027915271048
 10
131.4180771143097
 20
127.8027915271048
 10
139.8926730891197
 20
154.8294111834263
 10
139.8926730891197
 20
154.8294111834263
 97
        0
 75
     2
 76
     1
 98
        0
  0
SPLINE
  5
3C5
330
3BD
100
AcDbEntity
  8
レイヤー 1
370
     0
100
AcDbSpline
210
0.0
220
0.0
230
1.0
 70
    11
 71
     3
 72
    29
 73
    25
 74
     0
 42
0.000000001
 43
0.0000000001
 40
0.0
 40
0.0
 40
0.0
 40
0.0
 40
1.0
 40
1.0
 40
1.0
 40
2.0
 40
2.0
 40
2.0
 40
3.0
 40
3.0
 40
3.0
 40
4.0
 40
4.0
 40
4.0
 40
5.0
 40
5.0
 40
5.0
 40
6.0
 40
6.0
 40
6.0
 40
7.0
 40
7.0
 40
7.0
 40
8.0
 40
8.0
 40
8.0
 40
8.0
 10
101.6420971922469
 20
132.8388354296931
 30
0.0
 10
101.630039350094
 20
134.7164137077823
 30
0.0
 10
102.2236296937908
 20
138.0598810818841
 30
0.0
 10
103.7487744712405
 20
142.5378191476827
 30
0.0
 10
105.819967243327
 20
148.5896501242061
 30
0.0
 10
107.0602024361932
 20
150.8074318058939
 30
0.0
 10
108.1522984254671
 20
151.8833358357054
 30
0.0
 10
109.741177511439
 20
153.4532668840085
 30
0.0
 10
111.8740375333931
 20
153.5290590346837
 30
0.0
 10
112.5075910110823
 20
153.4532668840085
 30
0.0
 10
113.4012493694975
 20
153.3490526768302
 30
0.0
 10
114.6683563248758
 20
152.7580461564518
 30
0.0
 10
114.7493161221879
 20
150.7838328862519
 30
0.0
 10
114.8106388622796
 20
149.0909118479895
 30
0.0
 10
114.3186789024427
 20
145.9191825971221
 30
0.0
 10
112.6164561002338
 20
140.9489400617108
 30
0.0
 10
110.6444821435766
 20
135.1746117095912
 30
0.0
 10
109.4669477299053
 20
132.8960240524753
 30
0.0
 10
108.5212683953448
 20
131.9072809959403
 30
0.0
 10
106.7346406980658
 20
130.0538184021569
 30
0.0
 10
104.8222669326213
 20
130.2336525051225
 30
0.0
 10
104.5408024457958
 20
130.2336525051225
 30
0.0
 10
104.1721769856939
 20
130.2336525051225
 30
0.0
 10
101.6465758193322
 20
130.6305277668397
 30
0.0
 10
101.6420971922469
 20
132.8388354296931
 30
0.0
  0
SPLINE
  5
3C6
330
3BD
100
AcDbEntity
  8
レイヤー 1
370
     0
100
AcDbSpline
210
0.0
220
0.0
230
1.0
 70
    11
 71
     3
 72
    32
 73
    28
 74
     0
 42
0.000000001
 43
0.0000000001
 40
0.0
 40
0.0
 40
0.0
 40
0.0
 40
1.0
 40
1.0
 40
1.0
 40
2.0
 40
2.0
 40
2.0
 40
3.0
 40
3.0
 40
3.0
 40
4.0
 40
4.0
 40
4.0
 40
5.0
 40
5.0
 40
5.0
 40
6.0
 40
6.0
 40
6.0
 40
7.0
 40
7.0
 40
7.0
 40
8.0
 40
8.0
 40
8.0
 40
9.0
 40
9.0
 40
9.0
 40
9.0
 10
106.2595617172429
 20
153.4105476718098
 30
0.0
 10
104.8222669326213
 20
151.5474388043041
 30
0.0
 10
103.7177685914188
 20
149.8758773721411
 30
0.0
 10
101.9232171692965
 20
144.6141795664062
 30
0.0
 10
100.2754269116635
 20
139.7999999594306
 30
0.0
 10
99.22777268346732
 20
136.3052927937542
 30
0.0
 10
99.06964269637689
 20
132.039572749846
 30
0.0
 10
98.94665270641765
 20
128.8673267343149
 30
0.0
 10
100.8807305877373
 20
127.8027915271048
 30
0.0
 10
103.7129454545577
 20
127.8027915271048
 30
0.0
 10
104.9352661390825
 20
127.8027915271048
 30
0.0
 10
108.0151835347002
 20
127.8827177950895
 30
0.0
 10
110.2045431598849
 20
130.5926316915021
 30
0.0
 10
111.7417457794874
 20
132.4984597712065
 30
0.0
 10
113.155269389579
 20
134.475256864725
 30
0.0
 10
115.0562743324223
 20
140.9489400617108
 30
0.0
 10
116.6361961642235
 20
146.3680788349845
 30
0.0
 10
117.7282921534974
 20
149.8639917848761
 30
0.0
 10
117.6480213757369
 20
151.8595646611754
 30
0.0
 10
117.6480213757369
 20
151.8595646611754
 30
0.0
 10
117.6480213757369
 20
151.8595646611754
 30
0.0
 10
117.6480213757369
 20
151.8595646611754
 30
0.0
 10
117.13229024137
 20
155.18150017429
 30
0.0
 10
114.7162431837115
 20
155.886194920681
 30
0.0
 10
113.3351034925446
 20
155.886194920681
 30
0.0
 10
111.9829026225447
 20
155.886194920681
 30
0.0
 10
108.3414342923792
 20
156.1251124501957
 30
0.0
 10
106.2595617172429
 20
153.4105476718098
 30
0.0
  0
HATCH
  5
3C7
330
3BD
100
AcDbEntity
  8
レイヤー 1
 62
   250
420
  2234388
100
AcDbHatch
 10
0.0
 20
0.0
 30
0.0
210
0.0
220
0.0
230
1.0
  2
SOLID
 70
     1
 71
     0
 91
        2
 92
        1
 93
        1
 72
     4
 94
        3
 73
     0
 74
     1
 95
       29
 96
       25
 40
0.0
 40
0.0
 40
0.0
 40
0.0
 40
1.0
 40
1.0
 40
1.0
 40
2.0
 40
2.0
 40
2.0
 40
3.0
 40
3.0
 40
3.0
 40
4.0
 40
4.0
 40
4.0
 40
5.0
 40
5.0
 40
5.0
 40
6.0
 40
6.0
 40
6.0
 40
7.0
 40
7.0
 40
7.0
 40
8.0
 40
8.0
 40
8.0
 40
8.0
 10
101.6420971922469
 20
132.8388354296931
 10
101.630039350094
 20
134.7164137077823
 10
102.2236296937908
 20
138.0598810818841
 10
103.7487744712405
 20
142.5378191476827
 10
105.819967243327
 20
148.5896501242061
 10
107.0602024361932
 20
150.8074318058939
 10
108.1522984254671
 20
151.8833358357054
 10
109.741177511439
 20
153.4532668840085
 10
111.8740375333931
 20
153.5290590346837
 10
112.5075910110823
 20
153.4532668840085
 10
113.4012493694975
 20
153.3490526768302
 10
114.6683563248758
 20
152.7580461564518
 10
114.7493161221879
 20
150.7838328862519
 10
114.8106388622796
 20
149.0909118479895
 10
114.3186789024427
 20
145.9191825971221
 10
112.6164561002338
 20
140.9489400617108
 10
110.6444821435766
 20
135.1746117095912
 10
109.4669477299053
 20
132.8960240524753
 10
108.5212683953448
 20
131.9072809959403
 10
106.7346406980658
 20
130.0538184021569
 10
104.8222669326213
 20
130.2336525051225
 10
104.5408024457958
 20
130.2336525051225
 10
104.1721769856939
 20
130.2336525051225
 10
101.6465758193322
 20
130.6305277668397
 10
101.6420971922469
 20
132.8388354296931
 97
        0
 92
        1
 93
        1
 72
     4
 94
        3
 73
     0
 74
     1
 95
       32
 96
       28
 40
0.0
 40
0.0
 40
0.0
 40
0.0
 40
1.0
 40
1.0
 40
1.0
 40
2.0
 40
2.0
 40
2.0
 40
3.0
 40
3.0
 40
3.0
 40
4.0
 40
4.0
 40
4.0
 40
5.0
 40
5.0
 40
5.0
 40
6.0
 40
6.0
 40
6.0
 40
7.0
 40
7.0
 40
7.0
 40
8.0
 40
8.0
 40
8.0
 40
9.0
 40
9.0
 40
9.0
 40
9.0
 10
106.2595617172429
 20
153.4105476718098
 10
104.8222669326213
 20
151.5474388043041
 10
103.7177685914188
 20
149.8758773721411
 10
101.9232171692965
 20
144.6141795664062
 10
100.2754269116635
 20
139.7999999594306
 10
99.22777268346732
 20
136.3052927937542
 10
99.06964269637689
 20
132.039572749846
 10
98.94665270641765
 20
128.8673267343149
 10
100.8807305877373
 20
127.8027915271048
 10
103.7129454545577
 20
127.8027915271048
 10
104.9352661390825
 20
127.8027915271048
 10
108.0151835347002
 20
127.8827177950895
 10
110.2045431598849
 20
130.5926316915021
 10
111.7417457794874
 20
132.4984597712065
 10
113.155269389579
 20
134.475256864725
 10
115.0562743324223
 20
140.9489400617108
 10
116.6361961642235
 20
146.3680788349845
 10
117.7282921534974
 20
149.8639917848761
 10
117.6480213757369
 20
151.8595646611754
 10
117.6480213757369
 20
151.8595646611754
 10
117.6480213757369
 20
151.8595646611754
 10
117.6480213757369
 20
151.8595646611754
 10
117.13229024137
 20
155.18150017429
 10
114.7162431837115
 20
155.886194920681
 10
113.3351034925446
 20
155.886194920681
 10
111.9829026225447
 20
155.886194920681
 10
108.3414342923792
 20
156.1251124501957
 10
106.2595617172429
 20
153.4105476718098
 97
        0
 75
     2
 76
     1
 98
        0
  0
ENDBLK
  5
3C8
330
3BD
100
AcDbEntity
  8
0
100
AcDbBlockEnd
  0
BLOCK
  5
1DA5
330
1DA4
100
AcDbEntity
  8
0
100
AcDbBlockBegin
  2
*D6
 70
     1
 10
0.0
 20
0.0
 30
0.0
  3
*D6
  1
*D128
  0
LINE
  5
1DA7
330
1DA4
100
AcDbEntity
  8
Dim
 62
     0
370
    -2
100
AcDbLine
 10
339.293014782731
 20
2262.3895594138
 30
0.0
 11
339.293014782731
 21
2374.806798614586
 31
0.0
  0
LINE
  5
1DA8
330
1DA4
100
AcDbEntity
  8
Dim
 62
     0
370
    -2
100
AcDbLine
 10
939.293014782731
 20
2262.3895594138
 30
0.0
 11
939.293014782731
 21
2374.806798614586
 31
0.0
  0
LINE
  5
1DA9
330
1DA4
100
AcDbEntity
  8
Dim
 62
     0
370
    -2
100
AcDbLine
 10
348.293014782731
 20
2374.806798614586
 30
0.0
 11
930.293014782731
 21
2374.806798614586
 31
0.0
  0
INSERT
  5
1DAA
330
1DA4
100
AcDbEntity
  8
Dim
 62
     0
370
    -2
100
AcDbBlockReference
  2
_DOT
 10
339.293014782731
 20
2374.806798614586
 30
0.0
 41
9.0
 42
9.0
 43
9.0
 50
180.0
  0
INSERT
  5
1DAB
330
1DA4
100
AcDbEntity
  8
Dim
 62
     0
370
    -2
100
AcDbBlockReference
  2
_DOT
 10
939.293014782731
 20
2374.806798614586
 30
0.0
 41
9.0
 42
9.0
 43
9.0
  0
MTEXT
  5
1DAC
330
1DA4
100
AcDbEntity
  8
Dim
  6
Continuous
 62
     0
100
AcDbMText
 10
639.293014782731
 20
2397.023107208336
 30
0.0
 40
24.4326171875
 41
0.0
 46
0.0
 71
     5
 72
     1
  1
\A1;600
  7
ＭＳ ゴシック
 73
     1
 44
1.0
  0
POINT
  5
1DAD
330
1DA4
100
AcDbEntity
  8
Defpoints
 62
     0
100
AcDbPoint
 10
339.293014782731
 20
2237.3895594138
 30
0.0
  0
POINT
  5
1DAE
330
1DA4
100
AcDbEntity
  8
Defpoints
 62
     0
100
AcDbPoint
 10
939.293014782731
 20
2237.3895594138
 30
0.0
  0
POINT
  5
1DAF
330
1DA4
100
AcDbEntity
  8
Defpoints
 62
     0
100
AcDbPoint
 10
939.293014782731
 20
2374.806798614586
 30
0.0
  0
ENDBLK
  5
1DA6
330
1DA4
100
AcDbEntity
  8
0
100
AcDbBlockEnd
  0
BLOCK
  5
1DD2
330
1DD1
100
AcDbEntity
  8
0
100
AcDbBlockBegin
  2
*D7
 70
     1
 10
0.0
 20
0.0
 30
0.0
  3
*D7
  1
*D131
  0
LINE
  5
1DD4
330
1DD1
100
AcDbEntity
  8
Dim
 62
     0
370
    -2
100
AcDbLine
 10
873.5712850550872
 20
1852.887114871431
 30
0.0
 11
873.5712850550872
 21
1649.586244201713
 31
0.0
  0
LINE
  5
1DD5
330
1DD1
100
AcDbEntity
  8
Dim
 62
     0
370
    -2
100
AcDbLine
 10
404.2913115675319
 20
1852.88711573146
 30
0.0
 11
404.2913115675319
 21
1649.586244201713
 31
0.0
  0
LINE
  5
1DD6
330
1DD1
100
AcDbEntity
  8
Dim
 62
     0
370
    -2
100
AcDbLine
 10
864.5712850550872
 20
1649.586244201713
 30
0.0
 11
413.2913115675319
 21
1649.586244201713
 31
0.0
  0
INSERT
  5
1DD7
330
1DD1
100
AcDbEntity
  8
Dim
 62
     0
370
    -2
100
AcDbBlockReference
  2
_DOT
 10
873.5712850550872
 20
1649.586244201713
 30
0.0
 41
9.0
 42
9.0
 43
9.0
  0
INSERT
  5
1DD8
330
1DD1
100
AcDbEntity
  8
Dim
 62
     0
370
    -2
100
AcDbBlockReference
  2
_DOT
 10
404.2913115675319
 20
1649.586244201713
 30
0.0
 41
9.0
 42
9.0
 43
9.0
 50
180.0
  0
MTEXT
  5
1DD9
330
1DD1
100
AcDbEntity
  8
Dim
  6
Continuous
 62
     0
100
AcDbMText
 10
638.9312983113095
 20
1671.802552795463
 30
0.0
 40
24.4326171875
 41
0.0
 46
0.0
 71
     5
 72
     1
  1
\A1;470
  7
ＭＳ ゴシック
 73
     1
 44
1.0
  0
POINT
  5
1DDA
330
1DD1
100
AcDbEntity
  8
Defpoints
 62
     0
100
AcDbPoint
 10
873.5712850550872
 20
1877.887114871431
 30
0.0
  0
POINT
  5
1DDB
330
1DD1
100
AcDbEntity
  8
Defpoints
 62
     0
100
AcDbPoint
 10
404.2913115675319
 20
1877.88711573146
 30
0.0
  0
POINT
  5
1DDC
330
1DD1
100
AcDbEntity
  8
Defpoints
 62
     0
100
AcDbPoint
 10
404.2913115675319
 20
1649.586244201713
 30
0.0
  0
ENDBLK
  5
1DD3
330
1DD1
100
AcDbEntity
  8
0
100
AcDbBlockEnd
  0
BLOCK
  5
1DEC
330
1DEB
100
AcDbEntity
  8
0
100
AcDbBlockBegin
  2
*D8
 70
     1
 10
0.0
 20
0.0
 30
0.0
  3
*D8
  1
*D133
  0
LINE
  5
1DEE
330
1DEB
100
AcDbEntity
  8
Dim
 62
     0
370
    -2
100
AcDbLine
 10
961.0695622653975
 20
2239.889559413838
 30
0.0
 11
1068.472407715602
 21
2239.889559413838
 31
0.0
  0
LINE
  5
1DEF
330
1DEB
100
AcDbEntity
  8
Dim
 62
     0
370
    -2
100
AcDbLine
 10
923.9349116522417
 20
1779.88593628577
 30
0.0
 11
1068.472407715602
 21
1779.88593628577
 31
0.0
  0
LINE
  5
1DF0
330
1DEB
100
AcDbEntity
  8
Dim
 62
     0
370
    -2
100
AcDbLine
 10
1068.472407715602
 20
2230.889559413838
 30
0.0
 11
1068.472407715602
 21
1788.88593628577
 31
0.0
  0
INSERT
  5
1DF1
330
1DEB
100
AcDbEntity
  8
Dim
 62
     0
370
    -2
100
AcDbBlockReference
  2
_DOT
 10
1068.472407715602
 20
2239.889559413838
 30
0.0
 41
9.0
 42
9.0
 43
9.0
 50
90.0
  0
INSERT
  5
1DF2
330
1DEB
100
AcDbEntity
  8
Dim
 62
     0
370
    -2
100
AcDbBlockReference
  2
_DOT
 10
1068.472407715602
 20
1779.88593628577
 30
0.0
 41
9.0
 42
9.0
 43
9.0
 50
270.0
  0
MTEXT
  5
1DF3
330
1DEB
100
AcDbEntity
  8
Dim
  6
Continuous
 62
     0
100
AcDbMText
 10
1046.256099121852
 20
2009.887747849804
 30
0.0
 40
24.4326171875
 41
0.0
 46
0.0
 71
     5
 72
     1
  1
\A1;460
  7
ＭＳ ゴシック
 11
0.0
 21
1.0
 31
0.0
 73
     1
 44
1.0
  0
POINT
  5
1DF4
330
1DEB
100
AcDbEntity
  8
Defpoints
 62
     0
100
AcDbPoint
 10
936.0695622653975
 20
2239.889559413838
 30
0.0
  0
POINT
  5
1DF5
330
1DEB
100
AcDbEntity
  8
Defpoints
 62
     0
100
AcDbPoint
 10
898.9349116522417
 20
1779.88593628577
 30
0.0
  0
POINT
  5
1DF6
330
1DEB
100
AcDbEntity
  8
Defpoints
 62
     0
100
AcDbPoint
 10
1068.472407715602
 20
1779.88593628577
 30
0.0
  0
ENDBLK
  5
1DED
330
1DEB
100
AcDbEntity
  8
0
100
AcDbBlockEnd
  0
BLOCK
  5
1DFC
330
1DFB
100
AcDbEntity
  8
0
100
AcDbBlockBegin
  2
*D9
 70
     1
 10
0.0
 20
0.0
 30
0.0
  3
*D9
  1
*D134
  0
LINE
  5
1DFE
330
1DFB
100
AcDbEntity
  8
Dim
 62
     0
370
    -2
100
AcDbLine
 10
414.2913113960085
 20
2104.889567043208
 30
0.0
 11
237.8023308006623
 21
2104.889567043208
 31
0.0
  0
LINE
  5
1DFF
330
1DFB
100
AcDbEntity
  8
Dim
 62
     0
370
    -2
100
AcDbLine
 10
414.2913114816902
 20
1842.889567043207
 30
0.0
 11
237.8023308006623
 21
1842.889567043207
 31
0.0
  0
LINE
  5
1E00
330
1DFB
100
AcDbEntity
  8
Dim
 62
     0
370
    -2
100
AcDbLine
 10
237.8023308006623
 20
2095.889567043208
 30
0.0
 11
237.8023308006623
 21
1851.889567043207
 31
0.0
  0
INSERT
  5
1E01
330
1DFB
100
AcDbEntity
  8
Dim
 62
     0
370
    -2
100
AcDbBlockReference
  2
_DOT
 10
237.8023308006623
 20
2104.889567043208
 30
0.0
 41
9.0
 42
9.0
 43
9.0
 50
90.0
  0
INSERT
  5
1E02
330
1DFB
100
AcDbEntity
  8
Dim
 62
     0
370
    -2
100
AcDbBlockReference
  2
_DOT
 10
237.8023308006623
 20
1842.889567043207
 30
0.0
 41
9.0
 42
9.0
 43
9.0
 50
270.0
  0
MTEXT
  5
1E03
330
1DFB
100
AcDbEntity
  8
Dim
  6
Continuous
 62
     0
100
AcDbMText
 10
215.5860222069123
 20
1973.889567043208
 30
0.0
 40
24.4326171875
 41
0.0
 46
0.0
 71
     5
 72
     1
  1
\A1;262
  7
ＭＳ ゴシック
 11
1.084798069862745E-16
 21
1.0
 31
0.0
 73
     1
 44
1.0
  0
POINT
  5
1E04
330
1DFB
100
AcDbEntity
  8
Defpoints
 62
     0
100
AcDbPoint
 10
439.2913113960085
 20
2104.889567043208
 30
0.0
  0
POINT
  5
1E05
330
1DFB
100
AcDbEntity
  8
Defpoints
 62
     0
100
AcDbPoint
 10
439.2913114816902
 20
1842.889567043207
 30
0.0
  0
POINT
  5
1E06
330
1DFB
100
AcDbEntity
  8
Defpoints
 62
     0
100
AcDbPoint
 10
237.8023308006623
 20
1842.889567043207
 30
0.0
  0
ENDBLK
  5
1DFD
330
1DFB
100
AcDbEntity
  8
0
100
AcDbBlockEnd
  0
BLOCK
  5
1E0B
330
1E0A
100
AcDbEntity
  8
0
100
AcDbBlockBegin
  2
*D10
 70
     1
 10
0.0
 20
0.0
 30
0.0
  3
*D10
  1
*D135
  0
LINE
  5
1E0D
330
1E0A
100
AcDbEntity
  8
Dim
 62
     0
370
    -2
100
AcDbLine
 10
414.2913113960085
 20
2104.889567043208
 30
0.0
 11
237.8023308006623
 21
2104.889567043208
 31
0.0
  0
LINE
  5
1E0E
330
1E0A
100
AcDbEntity
  8
Dim
 62
     0
370
    -2
100
AcDbLine
 10
324.293014782731
 20
2239.889559413838
 30
0.0
 11
237.8023308006623
 21
2239.889559413838
 31
0.0
  0
LINE
  5
1E0F
330
1E0A
100
AcDbEntity
  8
Dim
 62
     0
370
    -2
100
AcDbLine
 10
237.8023308006623
 20
2113.889567043208
 30
0.0
 11
237.8023308006623
 21
2230.889559413838
 31
0.0
  0
INSERT
  5
1E10
330
1E0A
100
AcDbEntity
  8
Dim
 62
     0
370
    -2
100
AcDbBlockReference
  2
_DOT
 10
237.8023308006623
 20
2104.889567043208
 30
0.0
 41
9.0
 42
9.0
 43
9.0
 50
270.0
  0
INSERT
  5
1E11
330
1E0A
100
AcDbEntity
  8
Dim
 62
     0
370
    -2
100
AcDbBlockReference
  2
_DOT
 10
237.8023308006623
 20
2239.889559413838
 30
0.0
 41
9.0
 42
9.0
 43
9.0
 50
90.0
  0
MTEXT
  5
1E12
330
1E0A
100
AcDbEntity
  8
Dim
  6
Continuous
 62
     0
100
AcDbMText
 10
215.5860222069123
 20
2172.389563228523
 30
0.0
 40
24.4326171875
 41
0.0
 46
0.0
 71
     5
 72
     1
  1
\A1;135
  7
ＭＳ ゴシック
 11
0.0
 21
1.0
 31
0.0
 73
     1
 44
1.0
  0
POINT
  5
1E13
330
1E0A
100
AcDbEntity
  8
Defpoints
 62
     0
100
AcDbPoint
 10
439.2913113960085
 20
2104.889567043208
 30
0.0
  0
POINT
  5
1E14
330
1E0A
100
AcDbEntity
  8
Defpoints
 62
     0
100
AcDbPoint
 10
349.293014782731
 20
2239.889559413838
 30
0.0
  0
POINT
  5
1E15
330
1E0A
100
AcDbEntity
  8
Defpoints
 62
     0
100
AcDbPoint
 10
237.8023308006623
 20
2239.889559413838
 30
0.0
  0
ENDBLK
  5
1E0C
330
1E0A
100
AcDbEntity
  8
0
100
AcDbBlockEnd
  0
BLOCK
  5
1E1A
330
1E19
100
AcDbEntity
  8
0
100
AcDbBlockBegin
  2
*D11
 70
     1
 10
0.0
 20
0.0
 30
0.0
  3
*D11
  1
*D136
  0
LINE
  5
1E1C
330
1E19
100
AcDbEntity
  8
Dim
 62
     0
370
    -2
100
AcDbLine
 10
696.5483746797681
 20
901.4954534537626
 30
0.0
 11
1053.659228961789
 21
901.4954534537626
 31
0.0
  0
LINE
  5
1E1D
330
1E19
100
AcDbEntity
  8
Dim
 62
     0
370
    -2
100
AcDbLine
 10
952.5656075051511
 20
1101.495453118175
 30
0.0
 11
1053.659228961789
 21
1101.495453118175
 31
0.0
  0
LINE
  5
1E1E
330
1E19
100
AcDbEntity
  8
Dim
 62
     0
370
    -2
100
AcDbLine
 10
1053.659228961789
 20
910.4954534537626
 30
0.0
 11
1053.659228961789
 21
1092.495453118175
 31
0.0
  0
INSERT
  5
1E1F
330
1E19
100
AcDbEntity
  8
Dim
 62
     0
370
    -2
100
AcDbBlockReference
  2
_DOT
 10
1053.659228961789
 20
901.4954534537626
 30
0.0
 41
9.0
 42
9.0
 43
9.0
 50
270.0
  0
INSERT
  5
1E20
330
1E19
100
AcDbEntity
  8
Dim
 62
     0
370
    -2
100
AcDbBlockReference
  2
_DOT
 10
1053.659228961789
 20
1101.495453118175
 30
0.0
 41
9.0
 42
9.0
 43
9.0
 50
90.0
  0
MTEXT
  5
1E21
330
1E19
100
AcDbEntity
  8
Dim
  6
Continuous
 62
     0
100
AcDbMText
 10
1031.442920368039
 20
1001.495453285969
 30
0.0
 40
24.4326171875
 41
0.0
 46
0.0
 71
     5
 72
     1
  1
\A1;200
  7
ＭＳ ゴシック
 11
0.0
 21
1.0
 31
0.0
 73
     1
 44
1.0
  0
POINT
  5
1E22
330
1E19
100
AcDbEntity
  8
Defpoints
 62
     0
100
AcDbPoint
 10
671.5483746797681
 20
901.4954534537626
 30
0.0
  0
POINT
  5
1E23
330
1E19
100
AcDbEntity
  8
Defpoints
 62
     0
100
AcDbPoint
 10
927.5656075051511
 20
1101.495453118175
 30
0.0
  0
POINT
  5
1E24
330
1E19
100
AcDbEntity
  8
Defpoints
 62
     0
100
AcDbPoint
 10
1053.659228961789
 20
1101.495453118175
 30
0.0
  0
ENDBLK
  5
1E1B
330
1E19
100
AcDbEntity
  8
0
100
AcDbBlockEnd
  0
BLOCK
  5
1E29
330
1E28
100
AcDbEntity
  8
0
100
AcDbBlockBegin
  2
*D12
 70
     1
 10
0.0
 20
0.0
 30
0.0
  3
*D12
  1
*D137
  0
LINE
  5
1E2B
330
1E28
100
AcDbEntity
  8
Dim
 62
     0
370
    -2
100
AcDbLine
 10
1303.055556385551
 20
1101.495445528915
 30
0.0
 11
1239.757739851937
 21
1101.495445528915
 31
0.0
  0
LINE
  5
1E2C
330
1E28
100
AcDbEntity
  8
Dim
 62
     0
370
    -2
100
AcDbLine
 10
1306.974923511366
 20
1031.738225421504
 30
0.0
 11
1239.757739851937
 21
1031.738225421504
 31
0.0
  0
LINE
  5
1E2D
330
1E28
100
AcDbEntity
  8
Dim
 62
     0
370
    -2
100
AcDbLine
 10
1239.757739851937
 20
1092.495445528915
 30
0.0
 11
1239.757739851937
 21
1040.738225421504
 31
0.0
  0
INSERT
  5
1E2E
330
1E28
100
AcDbEntity
  8
Dim
 62
     0
370
    -2
100
AcDbBlockReference
  2
_DOT
 10
1239.757739851937
 20
1101.495445528915
 30
0.0
 41
9.0
 42
9.0
 43
9.0
 50
90.0
  0
INSERT
  5
1E2F
330
1E28
100
AcDbEntity
  8
Dim
 62
     0
370
    -2
100
AcDbBlockReference
  2
_DOT
 10
1239.757739851937
 20
1031.738225421504
 30
0.0
 41
9.0
 42
9.0
 43
9.0
 50
270.0
  0
MTEXT
  5
1E30
330
1E28
100
AcDbEntity
  8
Dim
  6
Continuous
 62
     0
100
AcDbMText
 10
1217.541431258187
 20
1066.616835475209
 30
0.0
 40
24.4326171875
 41
0.0
 46
0.0
 71
     5
 72
     1
  1
\A1;70
  7
ＭＳ ゴシック
 11
0.0
 21
1.0
 31
0.0
 73
     1
 44
1.0
  0
POINT
  5
1E31
330
1E28
100
AcDbEntity
  8
Defpoints
 62
     0
100
AcDbPoint
 10
1328.055556385551
 20
1101.495445528915
 30
0.0
  0
POINT
  5
1E32
330
1E28
100
AcDbEntity
  8
Defpoints
 62
     0
100
AcDbPoint
 10
1331.974923511366
 20
1031.738225421504
 30
0.0
  0
POINT
  5
1E33
330
1E28
100
AcDbEntity
  8
Defpoints
 62
     0
100
AcDbPoint
 10
1239.757739851937
 20
1031.738225421504
 30
0.0
  0
ENDBLK
  5
1E2A
330
1E28
100
AcDbEntity
  8
0
100
AcDbBlockEnd
  0
BLOCK
  5
1E36
330
1E35
100
AcDbEntity
  8
0
100
AcDbBlockBegin
  2
*D13
 70
     1
 10
0.0
 20
0.0
 30
0.0
  3
*D13
  1
*D138
  0
LINE
  5
1E38
330
1E35
100
AcDbEntity
  8
Dim
 62
     0
370
    -2
100
AcDbLine
 10
1533.055565583569
 20
876.4954534537626
 30
0.0
 11
1533.055565583569
 21
784.7306431281295
 31
0.0
  0
LINE
  5
1E39
330
1E35
100
AcDbEntity
  8
Dim
 62
     0
370
    -2
100
AcDbLine
 10
1773.055565583569
 20
932.4619268946839
 30
0.0
 11
1773.055565583569
 21
784.7306431281295
 31
0.0
  0
LINE
  5
1E3A
330
1E35
100
AcDbEntity
  8
Dim
 62
     0
370
    -2
100
AcDbLine
 10
1542.055565583569
 20
784.7306431281295
 30
0.0
 11
1764.055565583569
 21
784.7306431281295
 31
0.0
  0
INSERT
  5
1E3B
330
1E35
100
AcDbEntity
  8
Dim
 62
     0
370
    -2
100
AcDbBlockReference
  2
_DOT
 10
1533.055565583569
 20
784.7306431281295
 30
0.0
 41
9.0
 42
9.0
 43
9.0
 50
180.0
  0
INSERT
  5
1E3C
330
1E35
100
AcDbEntity
  8
Dim
 62
     0
370
    -2
100
AcDbBlockReference
  2
_DOT
 10
1773.055565583569
 20
784.7306431281295
 30
0.0
 41
9.0
 42
9.0
 43
9.0
  0
MTEXT
  5
1E3D
330
1E35
100
AcDbEntity
  8
Dim
  6
Continuous
 62
     0
100
AcDbMText
 10
1653.055565583569
 20
806.9469517218795
 30
0.0
 40
24.4326171875
 41
0.0
 46
0.0
 71
     5
 72
     1
  1
\A1;240
  7
ＭＳ ゴシック
 73
     1
 44
1.0
  0
POINT
  5
1E3E
330
1E35
100
AcDbEntity
  8
Defpoints
 62
     0
100
AcDbPoint
 10
1533.055565583569
 20
901.4954534537626
 30
0.0
  0
POINT
  5
1E3F
330
1E35
100
AcDbEntity
  8
Defpoints
 62
     0
100
AcDbPoint
 10
1773.055565583569
 20
957.4619268946839
 30
0.0
  0
POINT
  5
1E40
330
1E35
100
AcDbEntity
  8
Defpoints
 62
     0
100
AcDbPoint
 10
1773.055565583569
 20
784.7306431281295
 30
0.0
  0
ENDBLK
  5
1E37
330
1E35
100
AcDbEntity
  8
0
100
AcDbBlockEnd
  0
BLOCK
  5
1E60
330
1E5F
100
AcDbEntity
  8
0
100
AcDbBlockBegin
  2
*D14
 70
     1
 10
0.0
 20
0.0
 30
0.0
  3
*D14
  1
*D141
  0
LINE
  5
1E62
330
1E5F
100
AcDbEntity
  8
Dim
 62
     0
370
    -2
100
AcDbLine
 10
1773.05557419472
 20
1123.495432559609
 30
0.0
 11
1773.05557419472
 21
1199.056609356272
 31
0.0
  0
LINE
  5
1E63
330
1E5F
100
AcDbEntity
  8
Dim
 62
     0
370
    -2
100
AcDbLine
 10
1703.05557419472
 20
1123.495432559609
 30
0.0
 11
1703.05557419472
 21
1199.056609356272
 31
0.0
  0
LINE
  5
1E64
330
1E5F
100
AcDbEntity
  8
Dim
 62
     0
370
    -2
100
AcDbLine
 10
1764.05557419472
 20
1199.056609356272
 30
0.0
 11
1712.05557419472
 21
1199.056609356272
 31
0.0
  0
INSERT
  5
1E65
330
1E5F
100
AcDbEntity
  8
Dim
 62
     0
370
    -2
100
AcDbBlockReference
  2
_DOT
 10
1773.05557419472
 20
1199.056609356272
 30
0.0
 41
9.0
 42
9.0
 43
9.0
  0
INSERT
  5
1E66
330
1E5F
100
AcDbEntity
  8
Dim
 62
     0
370
    -2
100
AcDbBlockReference
  2
_DOT
 10
1703.05557419472
 20
1199.056609356272
 30
0.0
 41
9.0
 42
9.0
 43
9.0
 50
180.0
  0
MTEXT
  5
1E67
330
1E5F
100
AcDbEntity
  8
Dim
  6
Continuous
 62
     0
100
AcDbMText
 10
1738.05557419472
 20
1221.272917950022
 30
0.0
 40
24.4326171875
 41
0.0
 46
0.0
 71
     5
 72
     1
  1
\A1;70
  7
ＭＳ ゴシック
 73
     1
 44
1.0
  0
POINT
  5
1E68
330
1E5F
100
AcDbEntity
  8
Defpoints
 62
     0
100
AcDbPoint
 10
1773.05557419472
 20
1098.495432559609
 30
0.0
  0
POINT
  5
1E69
330
1E5F
100
AcDbEntity
  8
Defpoints
 62
     0
100
AcDbPoint
 10
1703.05557419472
 20
1098.495432559609
 30
0.0
  0
POINT
  5
1E6A
330
1E5F
100
AcDbEntity
  8
Defpoints
 62
     0
100
AcDbPoint
 10
1703.05557419472
 20
1199.056609356272
 30
0.0
  0
ENDBLK
  5
1E61
330
1E5F
100
AcDbEntity
  8
0
100
AcDbBlockEnd
  0
BLOCK
  5
1E97
330
1E96
100
AcDbEntity
  8
0
100
AcDbBlockBegin
  2
*D15
 70
     1
 10
0.0
 20
0.0
 30
0.0
  3
*D15
  1
*D144
  0
LINE
  5
1E99
330
1E96
100
AcDbEntity
  8
Dim
 62
     0
370
    -2
100
AcDbLine
 10
1544.458423821237
 20
1101.495453118175
 30
0.0
 11
1533.513575517562
 21
1101.495453118175
 31
0.0
  0
LINE
  5
1E9A
330
1E96
100
AcDbEntity
  8
Dim
 62
     0
370
    -2
100
AcDbLine
 10
1545.998541722899
 20
952.6465755983818
 30
0.0
 11
1533.513575517562
 21
952.6465755983818
 31
0.0
  0
LINE
  5
1E9B
330
1E96
100
AcDbEntity
  8
Dim
 62
     0
370
    -2
100
AcDbLine
 10
1533.513575517562
 20
1101.495453118175
 30
0.0
 11
1533.513575517562
 21
1287.752574211925
 31
0.0
  0
INSERT
  5
1E9C
330
1E96
100
AcDbEntity
  8
Dim
 62
     0
370
    -2
100
AcDbBlockReference
  2
_DOT
 10
1533.513575517562
 20
1101.495453118175
 30
0.0
 41
9.0
 42
9.0
 43
9.0
 50
90.0
  0
INSERT
  5
1E9D
330
1E96
100
AcDbEntity
  8
Dim
 62
     0
370
    -2
100
AcDbBlockReference
  2
_DOT
 10
1533.513575517562
 20
952.6465755983818
 30
0.0
 41
9.0
 42
9.0
 43
9.0
 50
270.0
  0
MTEXT
  5
1E9E
330
1E96
100
AcDbEntity
  8
Dim
  6
Continuous
 62
     0
100
AcDbMText
 10
1509.134980302718
 20
1203.62401366505
 30
0.0
 40
24.4326171875
 41
0.0
 46
0.0
 71
     5
 72
     1
  1
\A1;150 (深さ)
  7
ＭＳ ゴシック
 11
0.0
 21
1.0
 31
0.0
 73
     1
 44
1.0
  0
POINT
  5
1E9F
330
1E96
100
AcDbEntity
  8
Defpoints
 62
     0
100
AcDbPoint
 10
1519.458423821237
 20
1101.495453118175
 30
0.0
  0
POINT
  5
1EA0
330
1E96
100
AcDbEntity
  8
Defpoints
 62
     0
100
AcDbPoint
 10
1520.998541722899
 20
952.6465755983818
 30
0.0
  0
POINT
  5
1EA1
330
1E96
100
AcDbEntity
  8
Defpoints
 62
     0
100
AcDbPoint
 10
1533.513575517562
 20
952.6465755983818
 30
0.0
  0
ENDBLK
  5
1E98
330
1E96
100
AcDbEntity
  8
0
100
AcDbBlockEnd
  0
BLOCK
  5
1EAA
330
1EA9
100
AcDbEntity
  8
0
100
AcDbBlockBegin
  2
*D16
 70
     1
 10
0.0
 20
0.0
 30
0.0
  3
*D16
  1
*D145
  0
LINE
  5
1EAC
330
1EA9
100
AcDbEntity
  8
Dim
 62
     0
370
    -2
100
AcDbLine
 10
638.931307434591
 20
2194.889567043208
 30
0.0
 11
638.931307434591
 21
2288.631346650304
 31
0.0
  0
LINE
  5
1EAD
330
1EA9
100
AcDbEntity
  8
Dim
 62
     0
370
    -2
100
AcDbLine
 10
738.931307434591
 20
2194.889567043208
 30
0.0
 11
738.931307434591
 21
2288.631346650304
 31
0.0
  0
LINE
  5
1EAE
330
1EA9
100
AcDbEntity
  8
Dim
 62
     0
370
    -2
100
AcDbLine
 10
647.931307434591
 20
2288.631346650304
 30
0.0
 11
729.931307434591
 21
2288.631346650304
 31
0.0
  0
INSERT
  5
1EAF
330
1EA9
100
AcDbEntity
  8
Dim
 62
     0
370
    -2
100
AcDbBlockReference
  2
_DOT
 10
638.931307434591
 20
2288.631346650304
 30
0.0
 41
9.0
 42
9.0
 43
9.0
 50
180.0
  0
INSERT
  5
1EB0
330
1EA9
100
AcDbEntity
  8
Dim
 62
     0
370
    -2
100
AcDbBlockReference
  2
_DOT
 10
738.931307434591
 20
2288.631346650304
 30
0.0
 41
9.0
 42
9.0
 43
9.0
  0
MTEXT
  5
1EB1
330
1EA9
100
AcDbEntity
  8
Dim
  6
Continuous
 62
     0
100
AcDbMText
 10
688.931307434591
 20
2310.847655244054
 30
0.0
 40
24.4326171875
 41
0.0
 46
0.0
 71
     5
 72
     1
  1
\A1;100
  7
ＭＳ ゴシック
 73
     1
 44
1.0
  0
POINT
  5
1EB2
330
1EA9
100
AcDbEntity
  8
Defpoints
 62
     0
100
AcDbPoint
 10
638.931307434591
 20
2169.889567043208
 30
0.0
  0
POINT
  5
1EB3
330
1EA9
100
AcDbEntity
  8
Defpoints
 62
     0
100
AcDbPoint
 10
738.931307434591
 20
2169.889567043208
 30
0.0
  0
POINT
  5
1EB4
330
1EA9
100
AcDbEntity
  8
Defpoints
 62
     0
100
AcDbPoint
 10
738.931307434591
 20
2288.631346650304
 30
0.0
  0
ENDBLK
  5
1EAB
330
1EA9
100
AcDbEntity
  8
0
100
AcDbBlockEnd
  0
BLOCK
  5
1F32
330
1F31
100
AcDbEntity
  8
0
100
AcDbBlockBegin
  2
*D17
 70
     1
 10
0.0
 20
0.0
 30
0.0
  3
*D17
  1
*D151
  0
LINE
  5
1F34
330
1F31
100
AcDbEntity
  8
Dim
 62
     0
370
    -2
100
AcDbLine
 10
638.931307434591
 20
2194.889567043208
 30
0.0
 11
638.931307434591
 21
2288.631346650304
 31
0.0
  0
LINE
  5
1F35
330
1F31
100
AcDbEntity
  8
Dim
 62
     0
370
    -2
100
AcDbLine
 10
538.931307434591
 20
2194.889567043208
 30
0.0
 11
538.931307434591
 21
2288.631346650304
 31
0.0
  0
LINE
  5
1F36
330
1F31
100
AcDbEntity
  8
Dim
 62
     0
370
    -2
100
AcDbLine
 10
629.931307434591
 20
2288.631346650304
 30
0.0
 11
547.931307434591
 21
2288.631346650304
 31
0.0
  0
INSERT
  5
1F37
330
1F31
100
AcDbEntity
  8
Dim
 62
     0
370
    -2
100
AcDbBlockReference
  2
_DOT
 10
638.931307434591
 20
2288.631346650304
 30
0.0
 41
9.0
 42
9.0
 43
9.0
  0
INSERT
  5
1F38
330
1F31
100
AcDbEntity
  8
Dim
 62
     0
370
    -2
100
AcDbBlockReference
  2
_DOT
 10
538.931307434591
 20
2288.631346650304
 30
0.0
 41
9.0
 42
9.0
 43
9.0
 50
180.0
  0
MTEXT
  5
1F39
330
1F31
100
AcDbEntity
  8
Dim
  6
Continuous
 62
     0
100
AcDbMText
 10
588.931307434591
 20
2310.847655244054
 30
0.0
 40
24.4326171875
 41
0.0
 46
0.0
 71
     5
 72
     1
  1
\A1;100
  7
ＭＳ ゴシック
 73
     1
 44
1.0
  0
POINT
  5
1F3A
330
1F31
100
AcDbEntity
  8
Defpoints
 62
     0
100
AcDbPoint
 10
638.931307434591
 20
2169.889567043208
 30
0.0
  0
POINT
  5
1F3B
330
1F31
100
AcDbEntity
  8
Defpoints
 62
     0
100
AcDbPoint
 10
538.931307434591
 20
2169.889567043208
 30
0.0
  0
POINT
  5
1F3C
330
1F31
100
AcDbEntity
  8
Defpoints
 62
     0
100
AcDbPoint
 10
538.931307434591
 20
2288.631346650304
 30
0.0
  0
ENDBLK
  5
1F33
330
1F31
100
AcDbEntity
  8
0
100
AcDbBlockEnd
  0
BLOCK
  5
1F7C
330
1F7B
100
AcDbEntity
  8
0
100
AcDbBlockBegin
  2
*D18
 70
     1
 10
0.0
 20
0.0
 30
0.0
  3
*D18
  1
*D149
  0
LINE
  5
1F7E
330
1F7B
100
AcDbEntity
  8
Dim
 62
     0
370
    -2
100
AcDbLine
 10
472.9210238441037
 20
1061.495453118175
 30
0.0
 11
237.2337124549261
 21
1061.495453118175
 31
0.0
  0
LINE
  5
1F7F
330
1F7B
100
AcDbEntity
  8
Dim
 62
     0
370
    -2
100
AcDbLine
 10
323.27644018302
 20
1101.495453118175
 30
0.0
 11
237.2337124549261
 21
1101.495453118175
 31
0.0
  0
LINE
  5
1F80
330
1F7B
100
AcDbEntity
  8
Dim
 62
     0
370
    -2
100
AcDbLine
 10
237.2337124549261
 20
1070.495453118175
 30
0.0
 11
237.2337124549261
 21
1092.495453118175
 31
0.0
  0
INSERT
  5
1F81
330
1F7B
100
AcDbEntity
  8
Dim
 62
     0
370
    -2
100
AcDbBlockReference
  2
_DOT
 10
237.2337124549261
 20
1061.495453118175
 30
0.0
 41
9.0
 42
9.0
 43
9.0
 50
270.0
  0
INSERT
  5
1F82
330
1F7B
100
AcDbEntity
  8
Dim
 62
     0
370
    -2
100
AcDbBlockReference
  2
_DOT
 10
237.2337124549261
 20
1101.495453118175
 30
0.0
 41
9.0
 42
9.0
 43
9.0
 50
90.0
  0
MTEXT
  5
1F83
330
1F7B
100
AcDbEntity
  8
Dim
  6
Continuous
 62
     0
100
AcDbMText
 10
215.0174038611761
 20
1081.495453118175
 30
0.0
 40
24.4326171875
 41
0.0
 46
0.0
 71
     5
 72
     1
  1
\A1;40
  7
ＭＳ ゴシック
 11
0.0
 21
1.0
 31
0.0
 73
     1
 44
1.0
  0
POINT
  5
1F84
330
1F7B
100
AcDbEntity
  8
Defpoints
 62
     0
100
AcDbPoint
 10
497.9210238441037
 20
1061.495453118175
 30
0.0
  0
POINT
  5
1F85
330
1F7B
100
AcDbEntity
  8
Defpoints
 62
     0
100
AcDbPoint
 10
348.27644018302
 20
1101.495453118175
 30
0.0
  0
POINT
  5
1F86
330
1F7B
100
AcDbEntity
  8
Defpoints
 62
     0
100
AcDbPoint
 10
237.2337124549261
 20
1101.495453118175
 30
0.0
  0
ENDBLK
  5
1F7D
330
1F7B
100
AcDbEntity
  8
0
100
AcDbBlockEnd
  0
BLOCK
  5
1F9F
330
1F9E
100
AcDbEntity
  8
0
100
AcDbBlockBegin
  2
*D19
 70
     1
 10
0.0
 20
0.0
 30
0.0
  3
*D19
  1
*D151
  0
LINE
  5
1FA1
330
1F9E
100
AcDbEntity
  8
Dim
 62
     0
370
    -2
100
AcDbLine
 10
497.9210238441037
 20
1086.495453118175
 30
0.0
 11
497.9210238441037
 21
1199.056609356272
 31
0.0
  0
LINE
  5
1FA2
330
1F9E
100
AcDbEntity
  8
Dim
 62
     0
370
    -2
100
AcDbLine
 10
777.9210238441037
 20
1086.495453118175
 30
0.0
 11
777.9210238441037
 21
1199.056609356272
 31
0.0
  0
LINE
  5
1FA3
330
1F9E
100
AcDbEntity
  8
Dim
 62
     0
370
    -2
100
AcDbLine
 10
506.9210238441037
 20
1199.056609356272
 30
0.0
 11
768.9210238441037
 21
1199.056609356272
 31
0.0
  0
INSERT
  5
1FA4
330
1F9E
100
AcDbEntity
  8
Dim
 62
     0
370
    -2
100
AcDbBlockReference
  2
_DOT
 10
497.9210238441037
 20
1199.056609356272
 30
0.0
 41
9.0
 42
9.0
 43
9.0
 50
180.0
  0
INSERT
  5
1FA5
330
1F9E
100
AcDbEntity
  8
Dim
 62
     0
370
    -2
100
AcDbBlockReference
  2
_DOT
 10
777.9210238441037
 20
1199.056609356272
 30
0.0
 41
9.0
 42
9.0
 43
9.0
  0
MTEXT
  5
1FA6
330
1F9E
100
AcDbEntity
  8
Dim
  6
Continuous
 62
     0
100
AcDbMText
 10
637.9210238441037
 20
1221.272917950022
 30
0.0
 40
24.4326171875
 41
0.0
 46
0.0
 71
     5
 72
     1
  1
\A1;280
  7
ＭＳ ゴシック
 73
     1
 44
1.0
  0
POINT
  5
1FA7
330
1F9E
100
AcDbEntity
  8
Defpoints
 62
     0
100
AcDbPoint
 10
497.9210238441037
 20
1061.495453118175
 30
0.0
  0
POINT
  5
1FA8
330
1F9E
100
AcDbEntity
  8
Defpoints
 62
     0
100
AcDbPoint
 10
777.9210238441037
 20
1061.495453118175
 30
0.0
  0
POINT
  5
1FA9
330
1F9E
100
AcDbEntity
  8
Defpoints
 62
     0
100
AcDbPoint
 10
777.9210238441037
 20
1199.056609356272
 30
0.0
  0
ENDBLK
  5
1FA0
330
1F9E
100
AcDbEntity
  8
0
100
AcDbBlockEnd
  0
BLOCK
  5
1FD3
330
1FD2
100
AcDbEntity
  8
0
100
AcDbBlockBegin
  2
*D20
 70
     1
 10
0.0
 20
0.0
 30
0.0
  3
*D20
  1
*D20
  0
LINE
  5
1FD5
330
1FD2
100
AcDbEntity
  8
Dim
  6
Continuous
 62
     0
370
    -2
100
AcDbLine
 10
874.343709792634
 20
1096.51690968892
 30
0.0
 11
893.987982744217
 21
1096.51690968892
 31
0.0
  0
LINE
  5
1FD6
330
1FD2
100
AcDbEntity
  8
Dim
  6
Continuous
 62
     0
370
    -2
100
AcDbLine
 10
874.343709792634
 20
1101.495453118175
 30
0.0
 11
893.987982744217
 21
1101.495453118175
 31
0.0
  0
LINE
  5
1FD7
330
1FD2
100
AcDbEntity
  8
Dim
  6
Continuous
 62
     0
370
    -2
100
AcDbLine
 10
893.987982744217
 20
1087.51690968892
 30
0.0
 11
893.987982744217
 21
1078.51690968892
 31
0.0
  0
LINE
  5
1FD8
330
1FD2
100
AcDbEntity
  8
Dim
  6
Continuous
 62
     0
370
    -2
100
AcDbLine
 10
893.987982744217
 20
1110.495453118175
 30
0.0
 11
893.987982744217
 21
1119.495453118175
 31
0.0
  0
INSERT
  5
1FD9
330
1FD2
100
AcDbEntity
  8
Dim
 62
     0
370
    -2
100
AcDbBlockReference
  2
_DOT
 10
893.987982744217
 20
1096.51690968892
 30
0.0
 41
9.0
 42
9.0
 43
9.0
 50
90.0
  0
INSERT
  5
1FDA
330
1FD2
100
AcDbEntity
  8
Dim
 62
     0
370
    -2
100
AcDbBlockReference
  2
_DOT
 10
893.987982744217
 20
1101.495453118175
 30
0.0
 41
9.0
 42
9.0
 43
9.0
 50
270.0
  0
MTEXT
  5
1FDB
330
1FD2
100
AcDbEntity
  8
Dim
  6
Continuous
 62
     0
100
AcDbMText
 10
871.771674150467
 20
1099.006181403548
 30
0.0
 40
24.4326171875
 41
0.0
 46
0.0
 71
     5
 72
     1
  1
\A1;5
  7
ＭＳ ゴシック
 11
0.0
 21
1.0
 31
0.0
 73
     1
 44
1.0
  0
POINT
  5
1FDC
330
1FD2
100
AcDbEntity
  8
Defpoints
 62
     0
100
AcDbPoint
 10
899.343709792634
 20
1096.51690968892
 30
0.0
  0
POINT
  5
1FDD
330
1FD2
100
AcDbEntity
  8
Defpoints
 62
     0
100
AcDbPoint
 10
899.343709792634
 20
1101.495453118175
 30
0.0
  0
POINT
  5
1FDE
330
1FD2
100
AcDbEntity
  8
Defpoints
 62
     0
100
AcDbPoint
 10
893.987982744217
 20
1101.495453118175
 30
0.0
  0
ENDBLK
  5
1FD4
330
1FD2
100
AcDbEntity
  8
0
100
AcDbBlockEnd
  0
BLOCK
  5
1FE3
330
1FE2
100
AcDbEntity
  8
0
100
AcDbBlockBegin
  2
*D21
 70
     1
 10
0.0
 20
0.0
 30
0.0
  3
*D21
  1
*D21
  0
LINE
  5
1FE5
330
1FE2
100
AcDbEntity
  8
Dim
  6
Continuous
 62
     0
370
    -2
100
AcDbLine
 10
916.3888706598649
 20
1096.51690968892
 30
0.0
 11
897.394459778632
 21
1096.51690968892
 31
0.0
  0
LINE
  5
1FE6
330
1FE2
100
AcDbEntity
  8
Dim
  6
Continuous
 62
     0
370
    -2
100
AcDbLine
 10
916.3888706598649
 20
1101.495453118175
 30
0.0
 11
897.394459778632
 21
1101.495453118175
 31
0.0
  0
LINE
  5
1FE7
330
1FE2
100
AcDbEntity
  8
Dim
  6
Continuous
 62
     0
370
    -2
100
AcDbLine
 10
897.394459778632
 20
1101.495453118175
 30
0.0
 11
897.394459778632
 21
1151.27197460255
 31
0.0
  0
INSERT
  5
1FE8
330
1FE2
100
AcDbEntity
  8
Dim
 62
     0
370
    -2
100
AcDbBlockReference
  2
_DOT
 10
897.394459778632
 20
1096.51690968892
 30
0.0
 41
9.0
 42
9.0
 43
9.0
 50
270.0
  0
INSERT
  5
1FE9
330
1FE2
100
AcDbEntity
  8
Dim
 62
     0
370
    -2
100
AcDbBlockReference
  2
_DOT
 10
897.394459778632
 20
1101.495453118175
 30
0.0
 41
9.0
 42
9.0
 43
9.0
 50
90.0
  0
MTEXT
  5
1FEA
330
1FE2
100
AcDbEntity
  8
Dim
  6
Continuous
 62
     0
100
AcDbMText
 10
875.178151184882
 20
1135.383713860363
 30
0.0
 40
24.4326171875
 41
0.0
 46
0.0
 71
     5
 72
     1
  1
\A1;7
  7
ＭＳ ゴシック
 11
0.0
 21
1.0
 31
0.0
 73
     1
 44
1.0
  0
POINT
  5
1FEB
330
1FE2
100
AcDbEntity
  8
Defpoints
 62
     0
100
AcDbPoint
 10
891.3888706598649
 20
1096.51690968892
 30
0.0
  0
POINT
  5
1FEC
330
1FE2
100
AcDbEntity
  8
Defpoints
 62
     0
100
AcDbPoint
 10
891.3888706598649
 20
1101.495453118175
 30
0.0
  0
POINT
  5
1FED
330
1FE2
100
AcDbEntity
  8
Defpoints
 62
     0
100
AcDbPoint
 10
897.394459778632
 20
1101.495453118175
 30
0.0
  0
ENDBLK
  5
1FE4
330
1FE2
100
AcDbEntity
  8
0
100
AcDbBlockEnd
  0
BLOCK
  5
219E
330
219D
100
AcDbEntity
  8
0
100
AcDbBlockBegin
  2
*D23
 70
     1
 10
0.0
 20
0.0
 30
0.0
  3
*D23
  1
*D23
  0
LINE
  5
21A0
330
219D
100
AcDbEntity
  8
Dim
 62
     0
370
    -2
100
AcDbLine
 10
1213.015359242924
 20
2262.3895594138
 30
0.0
 11
1213.015359242924
 21
2374.806798614586
 31
0.0
  0
LINE
  5
21A1
330
219D
100
AcDbEntity
  8
Dim
 62
     0
370
    -2
100
AcDbLine
 10
1813.015359242924
 20
2262.3895594138
 30
0.0
 11
1813.015359242924
 21
2374.806798614586
 31
0.0
  0
LINE
  5
21A2
330
219D
100
AcDbEntity
  8
Dim
 62
     0
370
    -2
100
AcDbLine
 10
1222.015359242924
 20
2374.806798614586
 30
0.0
 11
1804.015359242924
 21
2374.806798614586
 31
0.0
  0
INSERT
  5
21A3
330
219D
100
AcDbEntity
  8
Dim
 62
     0
370
    -2
100
AcDbBlockReference
  2
_DOT
 10
1213.015359242924
 20
2374.806798614586
 30
0.0
 41
9.0
 42
9.0
 43
9.0
 50
180.0
  0
INSERT
  5
21A4
330
219D
100
AcDbEntity
  8
Dim
 62
     0
370
    -2
100
AcDbBlockReference
  2
_DOT
 10
1813.015359242924
 20
2374.806798614586
 30
0.0
 41
9.0
 42
9.0
 43
9.0
  0
MTEXT
  5
21A5
330
219D
100
AcDbEntity
  8
Dim
  6
Continuous
 62
     0
100
AcDbMText
 10
1513.015359242924
 20
2397.023107208336
 30
0.0
 40
24.4326171875
 41
0.0
 46
0.0
 71
     5
 72
     1
  1
\A1;600
  7
ＭＳ ゴシック
 73
     1
 44
1.0
  0
POINT
  5
21A6
330
219D
100
AcDbEntity
  8
Defpoints
 62
     0
100
AcDbPoint
 10
1213.015359242924
 20
2237.3895594138
 30
0.0
  0
POINT
  5
21A7
330
219D
100
AcDbEntity
  8
Defpoints
 62
     0
100
AcDbPoint
 10
1813.015359242924
 20
2237.3895594138
 30
0.0
  0
POINT
  5
21A8
330
219D
100
AcDbEntity
  8
Defpoints
 62
     0
100
AcDbPoint
 10
1813.015359242924
 20
2374.806798614586
 30
0.0
  0
ENDBLK
  5
219F
330
219D
100
AcDbEntity
  8
0
100
AcDbBlockEnd
  0
BLOCK
  5
21AA
330
21A9
100
AcDbEntity
  8
0
100
AcDbBlockBegin
  2
*D24
 70
     1
 10
0.0
 20
0.0
 30
0.0
  3
*D24
  1
*D24
  0
LINE
  5
21AC
330
21A9
100
AcDbEntity
  8
Dim
 62
     0
370
    -2
100
AcDbLine
 10
1747.293629515281
 20
1852.887114871431
 30
0.0
 11
1747.293629515281
 21
1649.586244201713
 31
0.0
  0
LINE
  5
21AD
330
21A9
100
AcDbEntity
  8
Dim
 62
     0
370
    -2
100
AcDbLine
 10
1278.013656027725
 20
1852.88711573146
 30
0.0
 11
1278.013656027725
 21
1649.586244201713
 31
0.0
  0
LINE
  5
21AE
330
21A9
100
AcDbEntity
  8
Dim
 62
     0
370
    -2
100
AcDbLine
 10
1738.293629515281
 20
1649.586244201713
 30
0.0
 11
1287.013656027725
 21
1649.586244201713
 31
0.0
  0
INSERT
  5
21AF
330
21A9
100
AcDbEntity
  8
Dim
 62
     0
370
    -2
100
AcDbBlockReference
  2
_DOT
 10
1747.293629515281
 20
1649.586244201713
 30
0.0
 41
9.0
 42
9.0
 43
9.0
  0
INSERT
  5
21B0
330
21A9
100
AcDbEntity
  8
Dim
 62
     0
370
    -2
100
AcDbBlockReference
  2
_DOT
 10
1278.013656027725
 20
1649.586244201713
 30
0.0
 41
9.0
 42
9.0
 43
9.0
 50
180.0
  0
MTEXT
  5
21B1
330
21A9
100
AcDbEntity
  8
Dim
  6
Continuous
 62
     0
100
AcDbMText
 10
1512.653642771503
 20
1671.802552795463
 30
0.0
 40
24.4326171875
 41
0.0
 46
0.0
 71
     5
 72
     1
  1
\A1;470
  7
ＭＳ ゴシック
 73
     1
 44
1.0
  0
POINT
  5
21B2
330
21A9
100
AcDbEntity
  8
Defpoints
 62
     0
100
AcDbPoint
 10
1747.293629515281
 20
1877.887114871431
 30
0.0
  0
POINT
  5
21B3
330
21A9
100
AcDbEntity
  8
Defpoints
 62
     0
100
AcDbPoint
 10
1278.013656027725
 20
1877.88711573146
 30
0.0
  0
POINT
  5
21B4
330
21A9
100
AcDbEntity
  8
Defpoints
 62
     0
100
AcDbPoint
 10
1278.013656027725
 20
1649.586244201713
 30
0.0
  0
ENDBLK
  5
21AB
330
21A9
100
AcDbEntity
  8
0
100
AcDbBlockEnd
  0
BLOCK
  5
21B6
330
21B5
100
AcDbEntity
  8
0
100
AcDbBlockBegin
  2
*D25
 70
     1
 10
0.0
 20
0.0
 30
0.0
  3
*D25
  1
*D25
  0
LINE
  5
21B8
330
21B5
100
AcDbEntity
  8
Dim
 62
     0
370
    -2
100
AcDbLine
 10
1834.791906725591
 20
2239.889559413838
 30
0.0
 11
1942.194752175795
 21
2239.889559413838
 31
0.0
  0
LINE
  5
21B9
330
21B5
100
AcDbEntity
  8
Dim
 62
     0
370
    -2
100
AcDbLine
 10
1797.657256112435
 20
1779.88593628577
 30
0.0
 11
1942.194752175795
 21
1779.88593628577
 31
0.0
  0
LINE
  5
21BA
330
21B5
100
AcDbEntity
  8
Dim
 62
     0
370
    -2
100
AcDbLine
 10
1942.194752175795
 20
2230.889559413838
 30
0.0
 11
1942.194752175795
 21
1788.88593628577
 31
0.0
  0
INSERT
  5
21BB
330
21B5
100
AcDbEntity
  8
Dim
 62
     0
370
    -2
100
AcDbBlockReference
  2
_DOT
 10
1942.194752175795
 20
2239.889559413838
 30
0.0
 41
9.0
 42
9.0
 43
9.0
 50
90.0
  0
INSERT
  5
21BC
330
21B5
100
AcDbEntity
  8
Dim
 62
     0
370
    -2
100
AcDbBlockReference
  2
_DOT
 10
1942.194752175795
 20
1779.88593628577
 30
0.0
 41
9.0
 42
9.0
 43
9.0
 50
270.0
  0
MTEXT
  5
21BD
330
21B5
100
AcDbEntity
  8
Dim
  6
Continuous
 62
     0
100
AcDbMText
 10
1919.978443582045
 20
2009.887747849804
 30
0.0
 40
24.4326171875
 41
0.0
 46
0.0
 71
     5
 72
     1
  1
\A1;460
  7
ＭＳ ゴシック
 11
0.0
 21
1.0
 31
0.0
 73
     1
 44
1.0
  0
POINT
  5
21BE
330
21B5
100
AcDbEntity
  8
Defpoints
 62
     0
100
AcDbPoint
 10
1809.791906725591
 20
2239.889559413838
 30
0.0
  0
POINT
  5
21BF
330
21B5
100
AcDbEntity
  8
Defpoints
 62
     0
100
AcDbPoint
 10
1772.657256112435
 20
1779.88593628577
 30
0.0
  0
POINT
  5
21C0
330
21B5
100
AcDbEntity
  8
Defpoints
 62
     0
100
AcDbPoint
 10
1942.194752175795
 20
1779.88593628577
 30
0.0
  0
ENDBLK
  5
21B7
330
21B5
100
AcDbEntity
  8
0
100
AcDbBlockEnd
  0
BLOCK
  5
21C2
330
21C1
100
AcDbEntity
  8
0
100
AcDbBlockBegin
  2
*D26
 70
     1
 10
0.0
 20
0.0
 30
0.0
  3
*D26
  1
*D26
  0
LINE
  5
21C4
330
21C1
100
AcDbEntity
  8
Dim
 62
     0
370
    -2
100
AcDbLine
 10
1288.013655856202
 20
2104.889567043208
 30
0.0
 11
1111.524675260856
 21
2104.889567043208
 31
0.0
  0
LINE
  5
21C5
330
21C1
100
AcDbEntity
  8
Dim
 62
     0
370
    -2
100
AcDbLine
 10
1288.013655941884
 20
1842.889567043207
 30
0.0
 11
1111.524675260856
 21
1842.889567043207
 31
0.0
  0
LINE
  5
21C6
330
21C1
100
AcDbEntity
  8
Dim
 62
     0
370
    -2
100
AcDbLine
 10
1111.524675260856
 20
2095.889567043208
 30
0.0
 11
1111.524675260856
 21
1851.889567043207
 31
0.0
  0
INSERT
  5
21C7
330
21C1
100
AcDbEntity
  8
Dim
 62
     0
370
    -2
100
AcDbBlockReference
  2
_DOT
 10
1111.524675260856
 20
2104.889567043208
 30
0.0
 41
9.0
 42
9.0
 43
9.0
 50
90.0
  0
INSERT
  5
21C8
330
21C1
100
AcDbEntity
  8
Dim
 62
     0
370
    -2
100
AcDbBlockReference
  2
_DOT
 10
1111.524675260856
 20
1842.889567043207
 30
0.0
 41
9.0
 42
9.0
 43
9.0
 50
270.0
  0
MTEXT
  5
21C9
330
21C1
100
AcDbEntity
  8
Dim
  6
Continuous
 62
     0
100
AcDbMText
 10
1089.308366667106
 20
1973.889567043208
 30
0.0
 40
24.4326171875
 41
0.0
 46
0.0
 71
     5
 72
     1
  1
\A1;262
  7
ＭＳ ゴシック
 11
0.0
 21
1.0
 31
0.0
 73
     1
 44
1.0
  0
POINT
  5
21CA
330
21C1
100
AcDbEntity
  8
Defpoints
 62
     0
100
AcDbPoint
 10
1313.013655856202
 20
2104.889567043208
 30
0.0
  0
POINT
  5
21CB
330
21C1
100
AcDbEntity
  8
Defpoints
 62
     0
100
AcDbPoint
 10
1313.013655941884
 20
1842.889567043207
 30
0.0
  0
POINT
  5
21CC
330
21C1
100
AcDbEntity
  8
Defpoints
 62
     0
100
AcDbPoint
 10
1111.524675260856
 20
1842.889567043207
 30
0.0
  0
ENDBLK
  5
21C3
330
21C1
100
AcDbEntity
  8
0
100
AcDbBlockEnd
  0
BLOCK
  5
21CE
330
21CD
100
AcDbEntity
  8
0
100
AcDbBlockBegin
  2
*D27
 70
     1
 10
0.0
 20
0.0
 30
0.0
  3
*D27
  1
*D27
  0
LINE
  5
21D0
330
21CD
100
AcDbEntity
  8
Dim
 62
     0
370
    -2
100
AcDbLine
 10
1288.013655856202
 20
2104.889567043208
 30
0.0
 11
1111.524675260856
 21
2104.889567043208
 31
0.0
  0
LINE
  5
21D1
330
21CD
100
AcDbEntity
  8
Dim
 62
     0
370
    -2
100
AcDbLine
 10
1198.015359242924
 20
2239.889559413838
 30
0.0
 11
1111.524675260856
 21
2239.889559413838
 31
0.0
  0
LINE
  5
21D2
330
21CD
100
AcDbEntity
  8
Dim
 62
     0
370
    -2
100
AcDbLine
 10
1111.524675260856
 20
2113.889567043208
 30
0.0
 11
1111.524675260856
 21
2230.889559413838
 31
0.0
  0
INSERT
  5
21D3
330
21CD
100
AcDbEntity
  8
Dim
 62
     0
370
    -2
100
AcDbBlockReference
  2
_DOT
 10
1111.524675260856
 20
2104.889567043208
 30
0.0
 41
9.0
 42
9.0
 43
9.0
 50
270.0
  0
INSERT
  5
21D4
330
21CD
100
AcDbEntity
  8
Dim
 62
     0
370
    -2
100
AcDbBlockReference
  2
_DOT
 10
1111.524675260856
 20
2239.889559413838
 30
0.0
 41
9.0
 42
9.0
 43
9.0
 50
90.0
  0
MTEXT
  5
21D5
330
21CD
100
AcDbEntity
  8
Dim
  6
Continuous
 62
     0
100
AcDbMText
 10
1089.308366667106
 20
2172.389563228523
 30
0.0
 40
24.4326171875
 41
0.0
 46
0.0
 71
     5
 72
     1
  1
\A1;135
  7
ＭＳ ゴシック
 11
0.0
 21
1.0
 31
0.0
 73
     1
 44
1.0
  0
POINT
  5
21D6
330
21CD
100
AcDbEntity
  8
Defpoints
 62
     0
100
AcDbPoint
 10
1313.013655856202
 20
2104.889567043208
 30
0.0
  0
POINT
  5
21D7
330
21CD
100
AcDbEntity
  8
Defpoints
 62
     0
100
AcDbPoint
 10
1223.015359242924
 20
2239.889559413838
 30
0.0
  0
POINT
  5
21D8
330
21CD
100
AcDbEntity
  8
Defpoints
 62
     0
100
AcDbPoint
 10
1111.524675260856
 20
2239.889559413838
 30
0.0
  0
ENDBLK
  5
21CF
330
21CD
100
AcDbEntity
  8
0
100
AcDbBlockEnd
  0
BLOCK
  5
21DA
330
21D9
100
AcDbEntity
  8
0
100
AcDbBlockBegin
  2
*D28
 70
     1
 10
0.0
 20
0.0
 30
0.0
  3
*D28
  1
*D28
  0
LINE
  5
21DC
330
21D9
100
AcDbEntity
  8
Dim
 62
     0
370
    -2
100
AcDbLine
 10
1512.653651894784
 20
2194.889567043208
 30
0.0
 11
1512.653651894784
 21
2288.631346650304
 31
0.0
  0
LINE
  5
21DD
330
21D9
100
AcDbEntity
  8
Dim
 62
     0
370
    -2
100
AcDbLine
 10
1612.653651894784
 20
2194.889567043208
 30
0.0
 11
1612.653651894784
 21
2288.631346650304
 31
0.0
  0
LINE
  5
21DE
330
21D9
100
AcDbEntity
  8
Dim
 62
     0
370
    -2
100
AcDbLine
 10
1521.653651894784
 20
2288.631346650304
 30
0.0
 11
1603.653651894784
 21
2288.631346650304
 31
0.0
  0
INSERT
  5
21DF
330
21D9
100
AcDbEntity
  8
Dim
 62
     0
370
    -2
100
AcDbBlockReference
  2
_DOT
 10
1512.653651894784
 20
2288.631346650304
 30
0.0
 41
9.0
 42
9.0
 43
9.0
 50
180.0
  0
INSERT
  5
21E0
330
21D9
100
AcDbEntity
  8
Dim
 62
     0
370
    -2
100
AcDbBlockReference
  2
_DOT
 10
1612.653651894784
 20
2288.631346650304
 30
0.0
 41
9.0
 42
9.0
 43
9.0
  0
MTEXT
  5
21E1
330
21D9
100
AcDbEntity
  8
Dim
  6
Continuous
 62
     0
100
AcDbMText
 10
1562.653651894784
 20
2310.847655244054
 30
0.0
 40
24.4326171875
 41
0.0
 46
0.0
 71
     5
 72
     1
  1
\A1;100
  7
ＭＳ ゴシック
 73
     1
 44
1.0
  0
POINT
  5
21E2
330
21D9
100
AcDbEntity
  8
Defpoints
 62
     0
100
AcDbPoint
 10
1512.653651894784
 20
2169.889567043208
 30
0.0
  0
POINT
  5
21E3
330
21D9
100
AcDbEntity
  8
Defpoints
 62
     0
100
AcDbPoint
 10
1612.653651894784
 20
2169.889567043208
 30
0.0
  0
POINT
  5
21E4
330
21D9
100
AcDbEntity
  8
Defpoints
 62
     0
100
AcDbPoint
 10
1612.653651894784
 20
2288.631346650304
 30
0.0
  0
ENDBLK
  5
21DB
330
21D9
100
AcDbEntity
  8
0
100
AcDbBlockEnd
  0
BLOCK
  5
21E6
330
21E5
100
AcDbEntity
  8
0
100
AcDbBlockBegin
  2
*D29
 70
     1
 10
0.0
 20
0.0
 30
0.0
  3
*D29
  1
*D29
  0
LINE
  5
21E8
330
21E5
100
AcDbEntity
  8
Dim
 62
     0
370
    -2
100
AcDbLine
 10
1512.653651894784
 20
2194.889567043208
 30
0.0
 11
1512.653651894784
 21
2288.631346650304
 31
0.0
  0
LINE
  5
21E9
330
21E5
100
AcDbEntity
  8
Dim
 62
     0
370
    -2
100
AcDbLine
 10
1412.653651894784
 20
2194.889567043208
 30
0.0
 11
1412.653651894784
 21
2288.631346650304
 31
0.0
  0
LINE
  5
21EA
330
21E5
100
AcDbEntity
  8
Dim
 62
     0
370
    -2
100
AcDbLine
 10
1503.653651894784
 20
2288.631346650304
 30
0.0
 11
1421.653651894784
 21
2288.631346650304
 31
0.0
  0
INSERT
  5
21EB
330
21E5
100
AcDbEntity
  8
Dim
 62
     0
370
    -2
100
AcDbBlockReference
  2
_DOT
 10
1512.653651894784
 20
2288.631346650304
 30
0.0
 41
9.0
 42
9.0
 43
9.0
  0
INSERT
  5
21EC
330
21E5
100
AcDbEntity
  8
Dim
 62
     0
370
    -2
100
AcDbBlockReference
  2
_DOT
 10
1412.653651894784
 20
2288.631346650304
 30
0.0
 41
9.0
 42
9.0
 43
9.0
 50
180.0
  0
MTEXT
  5
21ED
330
21E5
100
AcDbEntity
  8
Dim
  6
Continuous
 62
     0
100
AcDbMText
 10
1462.653651894784
 20
2310.847655244054
 30
0.0
 40
24.4326171875
 41
0.0
 46
0.0
 71
     5
 72
     1
  1
\A1;100
  7
ＭＳ ゴシック
 73
     1
 44
1.0
  0
POINT
  5
21EE
330
21E5
100
AcDbEntity
  8
Defpoints
 62
     0
100
AcDbPoint
 10
1512.653651894784
 20
2169.889567043208
 30
0.0
  0
POINT
  5
21EF
330
21E5
100
AcDbEntity
  8
Defpoints
 62
     0
100
AcDbPoint
 10
1412.653651894784
 20
2169.889567043208
 30
0.0
  0
POINT
  5
21F0
330
21E5
100
AcDbEntity
  8
Defpoints
 62
     0
100
AcDbPoint
 10
1412.653651894784
 20
2288.631346650304
 30
0.0
  0
ENDBLK
  5
21E7
330
21E5
100
AcDbEntity
  8
0
100
AcDbBlockEnd
  0
BLOCK
  5
21FB
330
21FA
100
AcDbEntity
  8
0
100
AcDbBlockBegin
  2
*D30
 70
     1
 10
0.0
 20
0.0
 30
0.0
  3
*D30
  1
*D30
  0
LINE
  5
21FD
330
21FA
100
AcDbEntity
  8
Dim
  6
Continuous
 62
     0
370
    -2
100
AcDbLine
 10
1252.653632984349
 20
2264.889559413838
 30
0.0
 11
1252.653632984349
 21
2374.806798614586
 31
0.0
  0
LINE
  5
21FE
330
21FA
100
AcDbEntity
  8
Dim
  6
Continuous
 62
     0
370
    -2
100
AcDbLine
 10
1772.653632984349
 20
2264.889559413838
 30
0.0
 11
1772.653632984349
 21
2374.806798614586
 31
0.0
  0
LINE
  5
21FF
330
21FA
100
AcDbEntity
  8
Dim
  6
Continuous
 62
     0
370
    -2
100
AcDbLine
 10
1261.653632984349
 20
2374.806798614586
 30
0.0
 11
1763.653632984349
 21
2374.806798614586
 31
0.0
  0
INSERT
  5
2200
330
21FA
100
AcDbEntity
  8
Dim
 62
     0
370
    -2
100
AcDbBlockReference
  2
_DOT
 10
1252.653632984349
 20
2374.806798614586
 30
0.0
 41
9.0
 42
9.0
 43
9.0
 50
180.0
  0
INSERT
  5
2201
330
21FA
100
AcDbEntity
  8
Dim
 62
     0
370
    -2
100
AcDbBlockReference
  2
_DOT
 10
1772.653632984349
 20
2374.806798614586
 30
0.0
 41
9.0
 42
9.0
 43
9.0
  0
MTEXT
  5
2202
330
21FA
100
AcDbEntity
  8
Dim
  6
Continuous
 62
     0
100
AcDbMText
 10
1512.653632984349
 20
2397.023107208336
 30
0.0
 40
24.4326171875
 41
0.0
 46
0.0
 71
     5
 72
     1
  1
\A1;520
  7
ＭＳ ゴシック
 73
     1
 44
1.0
  0
POINT
  5
2203
330
21FA
100
AcDbEntity
  8
Defpoints
 62
     0
100
AcDbPoint
 10
1252.653632984349
 20
2239.889559413838
 30
0.0
  0
POINT
  5
2204
330
21FA
100
AcDbEntity
  8
Defpoints
 62
     0
100
AcDbPoint
 10
1772.653632984349
 20
2239.889559413838
 30
0.0
  0
POINT
  5
2205
330
21FA
100
AcDbEntity
  8
Defpoints
 62
     0
100
AcDbPoint
 10
1772.653632984349
 20
2374.806798614586
 30
0.0
  0
ENDBLK
  5
21FC
330
21FA
100
AcDbEntity
  8
0
100
AcDbBlockEnd
  0
ENDSEC
  0
SECTION
  2
ENTITIES
  0
MTEXT
  5
177
330
A
100
AcDbEntity
  8
template
 62
     7
390
1D
100
AcDbMText
 10
47.00000000048203
 20
321.1379815200517
 30
0.0
 40
16.28841145833333
 41
0.0
 46
0.0
 71
     1
 72
     1
  1
品名
  7
ＭＳ ゴシック
 73
     1
 44
0.7828267384257843
  0
MTEXT
  5
178
330
A
100
AcDbEntity
  8
template
 62
     7
390
1D
100
AcDbMText
 10
47.00000000048203
 20
236.1379815200515
 30
0.0
 40
16.28841145833333
 41
0.0
 46
0.0
 71
     1
 72
     1
  1
仕様
  7
ＭＳ ゴシック
 73
     1
 44
0.7828267384257843
  0
LINE
  5
179
330
A
100
AcDbEntity
  8
template
  6
Continuous
 62
     7
370
     5
390
1D
100
AcDbLine
 10
1990.0
 20
244.5529033950516
 30
0.0
 11
40.0
 21
244.5529033950516
 31
0.0
  0
LWPOLYLINE
  5
17A
330
A
100
AcDbEntity
  8
template
  6
Continuous
 62
     7
370
     5
390
1D
100
AcDbPolyline
 90
        5
 70
   128
 43
0.0
 10
1990.0
 20
2874.552903395052
 10
40.0
 20
2874.552903395052
 10
40.0
 20
74.55290339505154
 10
1990.0
 20
74.55290339505154
 10
1990.0
 20
2874.552903395052
  0
LINE
  5
17B
330
A
100
AcDbEntity
  8
template
  6
Continuous
 62
     7
370
     5
390
1D
100
AcDbLine
 10
1990.0
 20
329.5529033950515
 30
0.0
 11
40.0
 21
329.5529033950515
 31
0.0
  0
LINE
  5
17C
330
A
100
AcDbEntity
  8
template
  6
Continuous
 62
     7
370
     5
390
1D
100
AcDbLine
 10
1990.000000000482
 20
159.5529033950516
 30
0.0
 11
1237.000000000482
 21
159.5529033950516
 31
0.0
  0
MTEXT
  5
17D
330
A
100
AcDbEntity
  8
template
 62
     7
390
1D
100
AcDbMText
 10
40.00000000068576
 20
62.69908133819445
 30
0.0
 40
21.71788194444445
 41
0.0
 46
21.71788194444445
 71
     1
 72
     1
  1
{150310XN}
  7
ＭＳ ゴシック
 73
     1
 44
0.7828267384257843
1001
ACAD
1000
ACAD_MTEXT_DEFINED_HEIGHT_BEGIN
1070
    46
1040
21.71788194444445
1000
ACAD_MTEXT_DEFINED_HEIGHT_END
  0
MTEXT
  5
17E
330
A
100
AcDbEntity
  8
template
 62
     7
390
1D
100
AcDbMText
 10
1266.871406252743
 20
129.6425089217435
 30
0.0
 40
24.4326171875
 41
0.0
 46
0.0
 71
     1
 72
     1
  1
大洋金物株式会社 ティーフォルム事業部
  7
ＭＳ ゴシック
 73
     1
 44
0.7828267384257843
  0
MTEXT
  5
180
330
A
100
AcDbEntity
  8
template
 62
     7
390
1D
100
AcDbMText
 10
1799.000000000742
 20
207.5555205825515
 30
0.0
 40
24.4326171875
 41
0.0
 46
0.0
 71
     1
 72
     1
  1
1:10
  7
ＭＳ ゴシック
 73
     1
 44
0.7828267384257843
  0
MTEXT
  5
181
330
A
100
AcDbEntity
  8
template
 62
     7
390
1D
100
AcDbMText
 10
1746.000000000742
 20
236.1379815200515
 30
0.0
 40
16.28841145833333
 41
0.0
 46
0.0
 71
     1
 72
     1
  1
縮尺
  7
ＭＳ ゴシック
 73
     1
 44
0.7828267384257843
  0
LINE
  5
182
330
A
100
AcDbEntity
  8
template
  6
Continuous
 62
     7
370
     5
390
1D
100
AcDbLine
 10
1739.000000000742
 20
159.5529033950516
 30
0.0
 11
1739.000000000742
 21
244.5529033950516
 31
0.0
  0
MTEXT
  5
183
330
A
100
AcDbEntity
  8
template
 62
     7
390
1D
100
AcDbMText
 10
1495.000000000742
 20
236.1379815200515
 30
0.0
 40
16.28841145833333
 41
0.0
 46
0.0
 71
     1
 72
     1
  1
容量
  7
ＭＳ ゴシック
 73
     1
 44
0.7828267384257843
  0
LINE
  5
184
330
A
100
AcDbEntity
  8
template
  6
Continuous
 62
     7
370
     5
390
1D
100
AcDbLine
 10
1488.000000000742
 20
159.5529033950516
 30
0.0
 11
1488.000000000742
 21
244.5529033950516
 31
0.0
  0
MTEXT
  5
185
330
A
100
AcDbEntity
  8
template
 62
     7
390
1D
100
AcDbMText
 10
1244.000000000742
 20
321.1379815200517
 30
0.0
 40
16.28841145833333
 41
0.0
 46
0.0
 71
     1
 72
     1
  1
品番
  7
ＭＳ ゴシック
 73
     1
 44
0.7828267384257843
  0
MTEXT
  5
186
330
A
100
AcDbEntity
  8
template
 62
     7
390
1D
100
AcDbMText
 10
1244.000000000742
 20
236.1379815200515
 30
0.0
 40
16.28841145833333
 41
0.0
 46
0.0
 71
     1
 72
     1
  1
重量
  7
ＭＳ ゴシック
 73
     1
 44
0.7828267384257843
  0
MTEXT
  5
187
330
A
100
AcDbEntity
  8
template
 62
     7
390
1D
100
AcDbMText
 10
1297.000000000742
 20
292.5555205825515
 30
0.0
 40
24.4326171875
 41
0.0
 46
24.4326171875
 71
     1
 72
     1
  1
{ADF70-2309}
  7
ＭＳ ゴシック
 73
     1
 44
0.7828267384257843
1001
ACAD
1000
ACAD_MTEXT_DEFINED_HEIGHT_BEGIN
1070
    46
1040
24.4326171875
1000
ACAD_MTEXT_DEFINED_HEIGHT_END
  0
LINE
  5
188
330
A
100
AcDbEntity
  8
template
  6
Continuous
 62
     7
370
     5
390
1D
100
AcDbLine
 10
1237.000000000742
 20
74.55290339505154
 30
0.0
 11
1237.000000000742
 21
329.5529033950515
 31
0.0
  0
MTEXT
  5
189
330
A
100
AcDbEntity
  8
template
 62
     7
390
1D
100
AcDbMText
 10
100.000000000482
 20
292.5555205825515
 30
0.0
 40
24.4326171875
 41
0.0
 46
24.4326171875
 71
     1
 72
     1
  1
{洗面器 -CATALANO,Canova Royal-}
  7
ＭＳ ゴシック
 73
     1
 44
0.7828267384257843
1001
ACAD
1000
ACAD_MTEXT_DEFINED_HEIGHT_BEGIN
1070
    46
1040
24.4326171875
1000
ACAD_MTEXT_DEFINED_HEIGHT_END
  0
MTEXT
  5
18A
330
A
100
AcDbEntity
  8
template
390
1D
100
AcDbMText
 10
100.000000000482
 20
207.5555205825515
 30
0.0
 40
24.4326171875
 41
0.0
 46
79.66300566589274
 71
     1
 72
     1
  1
{壁掛け/オーバーフロー付き/壁取付ボルト付属/\P陶器/ホワイト}
  7
ＭＳ ゴシック
 73
     1
 44
1.304711230709641
1001
ACAD
1000
ACAD_MTEXT_DEFINED_HEIGHT_BEGIN
1070
    46
1040
79.66300566589274
1000
ACAD_MTEXT_DEFINED_HEIGHT_END
  0
INSERT
  5
3D0
330
A
100
AcDbEntity
  8
template
  6
Continuous
370
     0
100
AcDbBlockReference
  2
名称未設定-1
 10
1838.559250554905
 20
3.352995645277105
 30
0.0
 41
0.7619999999999999
 42
0.7619999999999999
 43
0.7619999999999999
  0
LINE
  5
1049
102
{ACAD_REACTORS
330
1E18
330
1FD1
102
}
330
A
100
AcDbEntity
  8
MODEL
100
AcDbLine
 10
637.9210238441037
 20
1101.495453118175
 30
0.0
 11
927.5656075051511
 21
1101.495453118175
 31
0.0
  0
ARC
  5
104A
330
A
100
AcDbEntity
  8
MODEL
100
AcDbCircle
 10
927.5656075051511
 20
1091.495453118175
 30
0.0
 40
10.00000000000006
100
AcDbArc
 50
357.9644939892887
 51
89.99999999927046
  0
LINE
  5
104B
330
A
100
AcDbEntity
  8
MODEL
100
AcDbLine
 10
937.5592975853424
 20
1091.140265025673
 30
0.0
 11
936.6077599459304
 21
1064.367486127245
 31
0.0
  0
ARC
  5
104C
330
A
100
AcDbEntity
  8
MODEL
100
AcDbCircle
 10
930.6115458978993
 20
1064.580598982747
 30
0.0
 40
5.99999999999999
100
AcDbArc
 50
326.8294344418945
 51
357.964493987465
  0
LINE
  5
104D
330
A
100
AcDbEntity
  8
MODEL
100
AcDbLine
 10
935.6338189072767
 20
1061.297799290518
 30
0.0
 11
928.3595307866844
 21
1050.16904812822
 31
0.0
  0
ARC
  5
104E
330
A
100
AcDbEntity
  8
MODEL
100
AcDbCircle
 10
933.3818037960582
 20
1046.886248435991
 30
0.0
 40
6.000000000000004
100
AcDbArc
 50
146.829434442784
 51
176.0029541528038
  0
LINE
  5
104F
330
A
100
AcDbEntity
  8
MODEL
100
AcDbLine
 10
926.7012651994983
 20
1037.356246541935
 30
0.0
 11
927.3963979227146
 21
1047.304478673222
 31
0.0
  0
ARC
  5
1050
330
A
100
AcDbEntity
  8
MODEL
100
AcDbCircle
 10
920.715859326202
 20
1037.774476779166
 30
0.0
 40
6.00000000000002
100
AcDbArc
 50
269.9999999988536
 51
356.0029541519987
  0
LINE
  5
1051
330
A
100
AcDbEntity
  8
MODEL
100
AcDbLine
 10
936.3305937712712
 20
1062.766076615265
 30
0.0
 11
339.5114539169363
 21
1062.766076615265
 31
0.0
  0
LINE
  5
1052
330
A
100
AcDbEntity
  8
MODEL
100
AcDbLine
 10
927.6946526518686
 20
1048.798396929993
 30
0.0
 11
637.9210238441037
 21
1048.798396929993
 31
0.0
  0
ARC
  5
1053
330
A
100
AcDbEntity
  8
MODEL
100
AcDbCircle
 10
378.9312885240497
 20
1819.527833155123
 30
0.0
 40
25.0
100
AcDbArc
 50
179.9999999990881
 51
269.9999999984324
  0
ARC
  5
1054
330
A
100
AcDbEntity
  8
MODEL
100
AcDbCircle
 10
378.931288524057
 20
2199.889559413813
 30
0.0
 40
25.0
100
AcDbArc
 50
89.99999999974153
 51
179.9999999990891
  0
LINE
  5
1055
330
A
100
AcDbEntity
  8
MODEL
100
AcDbLine
 10
378.931288524057
 20
2224.889559413813
 30
0.0
 11
898.9312885242534
 21
2224.889559413813
 31
0.0
  0
ARC
  5
1056
330
A
100
AcDbEntity
  8
MODEL
100
AcDbCircle
 10
898.9312885240497
 20
2199.889559413813
 30
0.0
 40
25.0
100
AcDbArc
 50
0.0
 51
89.9999999992663
  0
ARC
  5
1057
330
A
100
AcDbEntity
  8
MODEL
100
AcDbCircle
 10
898.9349116518852
 20
1819.524210027093
 30
0.0
 40
25.0
100
AcDbArc
 50
270.0000000006253
 51
0.0
  0
LINE
  5
1058
330
A
100
AcDbEntity
  8
MODEL
100
AcDbLine
 10
353.9312885240497
 20
1819.527833155146
 30
0.0
 11
353.9312885240497
 21
2199.889559413813
 31
0.0
  0
LINE
  5
1059
330
A
100
AcDbEntity
  8
MODEL
100
AcDbLine
 10
923.9349116518852
 20
1819.524210027093
 30
0.0
 11
923.9312885240497
 21
2199.889559413813
 31
0.0
  0
LINE
  5
105A
330
A
100
AcDbEntity
  8
MODEL
100
AcDbLine
 10
349.293014782731
 20
2239.889559414064
 30
0.0
 11
341.793014782731
 21
2239.889559414064
 31
0.0
  0
LINE
  5
105B
102
{ACAD_REACTORS
330
1E09
102
}
330
A
100
AcDbEntity
  8
MODEL
100
AcDbLine
 10
936.0695622653975
 20
2239.889559413838
 30
0.0
 11
349.293014782731
 21
2239.889559413838
 31
0.0
  0
ARC
  5
105C
330
A
100
AcDbEntity
  8
MODEL
100
AcDbCircle
 10
936.0695622651683
 20
2237.389559413838
 30
0.0
 40
2.5
100
AcDbArc
 50
359.9999999997917
 51
89.99999999449719
  0
ARC
  5
105D
330
A
100
AcDbEntity
  8
MODEL
100
AcDbCircle
 10
341.793014782731
 20
2237.389559414064
 30
0.0
 40
2.5
100
AcDbArc
 50
89.99999999974987
 51
179.9999999990829
  0
LINE
  5
105E
102
{ACAD_REACTORS
330
1DA3
102
}
330
A
100
AcDbEntity
  8
MODEL
100
AcDbLine
 10
339.293014782731
 20
2237.3895594138
 30
0.0
 11
339.293014782731
 21
1819.520586875147
 31
0.0
  0
LINE
  5
105F
330
A
100
AcDbEntity
  8
MODEL
100
AcDbLine
 10
938.5695622651683
 20
1818.984673838121
 30
0.0
 11
938.5695622651683
 21
2237.389559413828
 31
0.0
  0
ARC
  5
1060
330
A
100
AcDbEntity
  8
MODEL
100
AcDbCircle
 10
898.9385347798916
 20
1819.520586899052
 30
0.0
 40
39.6346507788832
100
AcDbArc
 50
269.994762413212
 51
0.0052375871285243
  0
LINE
  5
1061
330
A
100
AcDbEntity
  8
MODEL
100
AcDbLine
 10
378.9312885240497
 20
1779.88593628577
 30
0.0
 11
898.9421579074506
 21
1779.88593628577
 31
0.0
  0
ARC
  5
1062
330
A
100
AcDbEntity
  8
MODEL
100
AcDbCircle
 10
378.9276653960105
 20
1819.524210027118
 30
0.0
 40
39.63465077888338
100
AcDbArc
 50
179.9947624117769
 51
270.0052375857993
  0
ARC
  5
1063
102
{ACAD_REACTORS
330
1DFA
330
1E09
102
}
330
A
100
AcDbEntity
  8
MODEL
100
AcDbCircle
 10
439.2913113958484
 20
2069.889567043208
 30
0.0
 40
35.0
100
AcDbArc
 50
89.99999999973797
 51
179.9999999990888
  0
LINE
  5
1064
330
A
100
AcDbEntity
  8
MODEL
100
AcDbLine
 10
439.2913113958484
 20
2104.889567043208
 30
0.0
 11
638.9313113952185
 21
2104.889567043208
 31
0.0
  0
CIRCLE
  5
1065
330
A
100
AcDbEntity
  8
MODEL
100
AcDbCircle
 10
638.9313037664533
 20
1999.889567043207
 30
0.0
 40
23.0
  0
CIRCLE
  5
106A
102
{ACAD_REACTORS
330
1F30
102
}
330
A
100
AcDbEntity
  8
MODEL
100
AcDbCircle
 10
638.931307434591
 20
2169.889567043208
 30
0.0
 40
17.5
  0
LINE
  5
1074
330
A
100
AcDbEntity
  8
MODEL
100
AcDbLine
 10
404.2913113958484
 20
2069.889567011911
 30
0.0
 11
404.2913115675319
 21
1877.887115731463
 31
0.0
  0
LINE
  5
1075
330
A
100
AcDbEntity
  8
MODEL
100
AcDbLine
 10
378.9312885236641
 20
1794.527833155123
 30
0.0
 11
898.9349116518852
 21
1794.524210027093
 31
0.0
  0
LINE
  5
1076
330
A
100
AcDbEntity
  8
MODEL
100
AcDbLine
 10
637.9210238441037
 20
1031.774476779166
 30
0.0
 11
920.7158593261547
 21
1031.774476779166
 31
0.0
  0
LINE
  5
1077
330
A
100
AcDbEntity
  8
MODEL
100
AcDbLine
 10
637.9210238441037
 20
1101.495453118175
 30
0.0
 11
348.2764401829763
 21
1101.495453118175
 31
0.0
  0
ARC
  5
1078
102
{ACAD_REACTORS
330
1F7A
102
}
330
A
100
AcDbEntity
  8
MODEL
100
AcDbCircle
 10
348.2764401830564
 20
1091.495453118175
 30
0.0
 40
10.00000000000006
100
AcDbArc
 50
90.00000000020843
 51
182.0355060102407
  0
LINE
  5
1079
330
A
100
AcDbEntity
  8
MODEL
100
AcDbLine
 10
637.9210238441037
 20
1031.774476779165
 30
0.0
 11
355.1261883620527
 21
1031.774476779165
 31
0.0
  0
LINE
  5
107A
330
A
100
AcDbEntity
  8
MODEL
100
AcDbLine
 10
338.2827501028651
 20
1091.140265025673
 30
0.0
 11
339.234287742277
 21
1064.367486127245
 31
0.0
  0
ARC
  5
107B
330
A
100
AcDbEntity
  8
MODEL
100
AcDbCircle
 10
345.2305017903082
 20
1064.580598982747
 30
0.0
 40
5.99999999999999
100
AcDbArc
 50
182.0355060112053
 51
213.1705655567721
  0
LINE
  5
107C
330
A
100
AcDbEntity
  8
MODEL
100
AcDbLine
 10
340.2082287809308
 20
1061.297799290445
 30
0.0
 11
347.482516901523
 21
1050.169048128147
 31
0.0
  0
ARC
  5
107D
330
A
100
AcDbEntity
  8
MODEL
100
AcDbCircle
 10
342.4602438921493
 20
1046.886248435991
 30
0.0
 40
6.000000000000004
100
AcDbArc
 50
3.997045846725886
 51
33.17056555672337
  0
LINE
  5
107E
330
A
100
AcDbEntity
  8
MODEL
100
AcDbLine
 10
349.1407824887092
 20
1037.356246541935
 30
0.0
 11
348.4456497654928
 21
1047.304478673222
 31
0.0
  0
ARC
  5
107F
330
A
100
AcDbEntity
  8
MODEL
100
AcDbCircle
 10
355.1261883620055
 20
1037.774476779166
 30
0.0
 40
6.00000000000002
100
AcDbArc
 50
183.9970458466476
 51
269.9999999997916
  0
LINE
  5
1080
330
A
100
AcDbEntity
  8
MODEL
100
AcDbLine
 10
347.942918714597
 20
1048.798396929993
 30
0.0
 11
637.9210238441037
 21
1048.798396929993
 31
0.0
  0
LINE
  5
1081
102
{ACAD_REACTORS
330
1DD0
102
}
330
A
100
AcDbEntity
  8
MODEL
100
AcDbLine
 10
873.5712850550872
 20
1877.887114871431
 30
0.0
 11
873.5786091318178
 21
2069.889560968405
 31
0.0
  0
ARC
  5
1082
330
A
100
AcDbEntity
  8
MODEL
100
AcDbCircle
 10
838.5712900595781
 20
2069.889561874684
 30
0.0
 40
35.0
100
AcDbArc
 50
359.9999985170998
 51
89.9999985164194
  0
LINE
  5
1083
330
A
100
AcDbEntity
  8
MODEL
100
AcDbLine
 10
838.5712909657004
 20
2104.889561874684
 30
0.0
 11
638.9312909663267
 21
2104.889567043208
 31
0.0
  0
ARC
  5
1084
330
A
100
AcDbEntity
  8
MODEL
100
AcDbCircle
 10
838.5712851409908
 20
1877.889567043207
 30
0.0
 40
35.0
100
AcDbArc
 50
270.0
 51
359.9959857401829
  0
LINE
  5
1085
330
A
100
AcDbEntity
  8
MODEL
100
AcDbLine
 10
1636.556500103789
 20
929.7581918221183
 30
0.0
 11
1638.233570720861
 21
948.9271775016057
 31
0.0
  0
LINE
  5
1086
330
A
100
AcDbEntity
  8
MODEL
100
AcDbLine
 10
1639.404041367349
 20
962.305700496843
 30
0.0
 11
1638.233571722113
 21
948.9271785028538
 31
0.0
  0
LINE
  5
1088
330
A
100
AcDbEntity
  8
MODEL
100
AcDbLine
 10
1510.05556558358
 20
901.4954544591199
 30
0.0
 11
1500.800824920613
 21
901.4954548636595
 31
0.0
  0
ARC
  5
1089
330
A
100
AcDbEntity
  8
MODEL
100
AcDbCircle
 10
1500.800825051747
 20
904.4954548636595
 30
0.0
 40
2.999999999999776
100
AcDbArc
 50
184.9999974955161
 51
269.9999974955834
  0
LINE
  5
108A
330
A
100
AcDbEntity
  8
MODEL
100
AcDbLine
 10
1497.812240946043
 20
904.2339877660522
 30
0.0
 11
1495.359043658324
 21
932.274175190483
 31
0.0
  0
ARC
  5
108B
330
A
100
AcDbEntity
  8
MODEL
100
AcDbCircle
 10
1485.397096639309
 20
931.4026181984589
 30
0.0
 40
10.00000000000103
100
AcDbArc
 50
4.999997495516914
 51
22.25608011401662
  0
LINE
  5
10CD
330
A
100
AcDbEntity
  8
MODEL
  6
STYLE_12
100
AcDbLine
 10
1556.726374613287
 20
939.9259797539232
 30
0.0
 11
1509.384759913576
 21
939.9259818232965
 31
0.0
  0
LINE
  5
10CE
330
A
100
AcDbEntity
  8
MODEL
100
AcDbLine
 10
1556.055565583569
 20
901.495452448398
 30
0.0
 11
1510.055565583569
 21
901.4954544591271
 31
0.0
  0
LINE
  5
10D0
330
A
100
AcDbEntity
  8
MODEL
  6
STYLE_12
100
AcDbLine
 10
1510.05556558358
 20
901.4954544591199
 30
0.0
 11
1509.384759913576
 21
939.9259818232929
 31
0.0
  0
LINE
  5
10D2
330
A
100
AcDbEntity
  8
MODEL
100
AcDbLine
 10
1564.727797280257
 20
901.4954548636595
 30
0.0
 11
1556.05556558358
 21
901.495452448398
 31
0.0
  0
LINE
  5
10D3
330
A
100
AcDbEntity
  8
MODEL
100
AcDbLine
 10
1758.055574325858
 20
1101.495443618696
 30
0.0
 11
1770.055574325854
 21
1101.495443094158
 31
0.0
  0
ARC
  5
10D5
330
A
100
AcDbEntity
  8
MODEL
100
AcDbCircle
 10
1770.05557419472
 20
1098.495443094158
 30
0.0
 40
3.0
100
AcDbArc
 50
359.9999974955834
 51
89.9999974955834
  0
LINE
  5
10DC
330
A
100
AcDbEntity
  8
MODEL
100
AcDbLine
 10
1758.055574325858
 20
1101.495443618692
 30
0.0
 11
1323.410665690374
 21
1101.495462617658
 31
0.0
  0
LINE
  5
10DD
330
A
100
AcDbEntity
  8
MODEL
100
AcDbLine
 10
1611.529392211125
 20
924.2811267981085
 30
0.0
 11
1630.579331960691
 21
924.2811267981085
 31
0.0
  0
ARC
  5
10DE
330
A
100
AcDbEntity
  8
MODEL
100
AcDbCircle
 10
1630.579331960691
 20
930.2811267981085
 30
0.0
 40
6.0
100
AcDbArc
 50
270.0000000022928
 51
354.999995021555
  0
LINE
  5
10E2
330
A
100
AcDbEntity
  8
MODEL
100
AcDbLine
 10
1331.956046856451
 20
1031.738195727423
 30
0.0
 11
1328.256871675544
 21
1031.738175841128
 31
0.0
  0
LINE
  5
10E3
330
A
100
AcDbEntity
  8
MODEL
100
AcDbLine
 10
1311.418300749526
 20
1091.142592254538
 30
0.0
 11
1312.364971055685
 21
1064.331185189119
 31
0.0
  0
ARC
  5
10E7
330
A
100
AcDbEntity
  8
MODEL
100
AcDbCircle
 10
1318.361185103799
 20
1064.544298044675
 30
0.0
 40
5.999999999999989
100
AcDbArc
 50
182.035506013026
 51
213.1705655581916
  0
LINE
  5
10E8
330
A
100
AcDbEntity
  8
MODEL
100
AcDbLine
 10
1313.338912094426
 20
1061.261498352392
 30
0.0
 11
1320.613200215018
 21
1050.132747190095
 31
0.0
  0
ARC
  5
10EA
330
A
100
AcDbEntity
  8
MODEL
100
AcDbCircle
 10
1315.590927205641
 20
1046.849947497867
 30
0.0
 40
5.999999999999964
100
AcDbArc
 50
3.997045847539897
 51
33.17056555744665
  0
LINE
  5
10EB
330
A
100
AcDbEntity
  8
MODEL
100
AcDbLine
 10
1321.57633307898
 20
1047.268177735186
 30
0.0
 11
1322.271465802197
 21
1037.319945603896
 31
0.0
  0
ARC
  5
10EC
330
A
100
AcDbEntity
  8
MODEL
100
AcDbCircle
 10
1328.256871675544
 20
1037.738175841128
 30
0.0
 40
6.000000000000028
100
AcDbArc
 50
183.9970458487871
 51
270.000000001876
  0
LINE
  5
10EF
102
{ACAD_REACTORS
330
1E27
102
}
330
A
100
AcDbEntity
  8
MODEL
100
AcDbLine
 10
1331.974923511366
 20
1031.738225421504
 30
0.0
 11
1374.124803621002
 21
1031.738195727423
 31
0.0
  0
LINE
  5
10F0
330
A
100
AcDbEntity
  8
MODEL
100
AcDbLine
 10
1321.412073561535
 20
1101.495457269448
 30
0.0
 11
1328.061821743452
 21
1101.495456978777
 31
0.0
  0
ARC
  5
10F1
330
A
100
AcDbEntity
  8
MODEL
  6
STYLE_12
100
AcDbCircle
 10
1488.565270678645
 20
937.8144980369505
 30
0.0
 40
15.00000077931528
100
AcDbArc
 50
49.99999749626732
 51
84.05947532592518
  0
LINE
  5
10F4
330
A
100
AcDbEntity
  8
MODEL
  6
STYLE_12
100
AcDbLine
 10
1509.384759913579
 20
939.9259818232929
 30
0.0
 11
1498.207085827128
 21
949.3051648592516
 31
0.0
  0
ARC
  5
10F7
330
A
100
AcDbEntity
  8
MODEL
100
AcDbCircle
 10
1321.412073124421
 20
1091.495457269448
 30
0.0
 40
10.0
100
AcDbArc
 50
89.99999749579185
 51
182.0221874074336
  0
LINE
  5
10F9
330
A
100
AcDbEntity
  8
MODEL
100
AcDbLine
 10
1636.556500103789
 20
929.7581918221183
 30
0.0
 11
1638.233570720861
 21
948.9271775016057
 31
0.0
  0
LINE
  5
10FA
330
A
100
AcDbEntity
  8
MODEL
100
AcDbLine
 10
1639.404041367349
 20
962.305700496843
 30
0.0
 11
1638.233571722113
 21
948.9271785028538
 31
0.0
  0
LINE
  5
10FB
330
A
100
AcDbEntity
  8
MODEL
  6
STYLE_12
100
AcDbLine
 10
1733.055574107717
 20
1096.504957100878
 30
0.0
 11
1348.960341541801
 21
1096.528862276962
 31
0.0
  0
LINE
  5
10FC
330
A
100
AcDbEntity
  8
MODEL
  6
STYLE_12
100
AcDbLine
 10
1556.726374613287
 20
939.9259797539232
 30
0.0
 11
1509.384759913576
 21
939.9259818232965
 31
0.0
  0
LINE
  5
10FD
330
A
100
AcDbEntity
  8
MODEL
100
AcDbLine
 10
1556.055565583569
 20
901.495452448398
 30
0.0
 11
1510.055565583569
 21
901.4954544591271
 31
0.0
  0
LINE
  5
1101
330
A
100
AcDbEntity
  8
MODEL
100
AcDbLine
 10
1758.055574325858
 20
1101.495443618692
 30
0.0
 11
1323.410665690374
 21
1101.495462617658
 31
0.0
  0
LINE
  5
1102
330
A
100
AcDbEntity
  8
MODEL
100
AcDbLine
 10
1607.324957398198
 20
924.2811267981085
 30
0.0
 11
1630.579331960691
 21
924.2811267981085
 31
0.0
  0
ARC
  5
1103
330
A
100
AcDbEntity
  8
MODEL
100
AcDbCircle
 10
1630.579331960691
 20
930.2811267981085
 30
0.0
 40
6.0
100
AcDbArc
 50
270.0000000022928
 51
354.999995021555
  0
ARC
  5
1106
330
A
100
AcDbEntity
  8
MODEL
100
AcDbCircle
 10
1318.361185103799
 20
1064.544298044675
 30
0.0
 40
5.999999999999989
100
AcDbArc
 50
182.035506013026
 51
213.1705655581916
  0
ARC
  5
1107
330
A
100
AcDbEntity
  8
MODEL
100
AcDbCircle
 10
1315.590927205641
 20
1046.849947497867
 30
0.0
 40
5.999999999999964
100
AcDbArc
 50
3.997045847539897
 51
33.17056555744665
  0
LINE
  5
1108
330
A
100
AcDbEntity
  8
MODEL
100
AcDbLine
 10
1321.412073561535
 20
1101.495457269448
 30
0.0
 11
1328.061821743452
 21
1101.495456978777
 31
0.0
  0
ARC
  5
110E
330
A
100
AcDbEntity
  8
MODEL
100
AcDbCircle
 10
1321.412073124421
 20
1091.495457269448
 30
0.0
 40
10.0
100
AcDbArc
 50
89.99999749579185
 51
182.0221874074336
  0
LINE
  5
1118
330
A
100
AcDbEntity
  8
MODEL
100
AcDbLine
 10
1773.055563511096
 20
1033.86001816707
 30
0.0
 11
1773.055560513318
 21
972.2389194386994
 31
0.0
  0
SPLINE
  5
111B
330
A
100
AcDbEntity
  8
MODEL
  6
STYLE_12
100
AcDbSpline
210
0.0
220
0.0
230
1.0
 70
     8
 71
     4
 72
    10
 73
     5
 74
     0
 42
0.000000001
 43
0.0000000001
 40
0.0
 40
0.0
 40
0.0
 40
0.0
 40
0.0
 40
1.0
 40
1.0
 40
1.0
 40
1.0
 40
1.0
 10
1733.055574107717
 20
1096.504957100878
 30
0.0
 10
1744.823088114007
 20
1096.504956586504
 30
0.0
 10
1747.237591813124
 20
1096.631628676005
 30
0.0
 10
1747.645155041546
 20
1101.495444073749
 30
0.0
 10
1758.055574325858
 20
1101.495443618692
 30
0.0
  0
LINE
  5
112A
330
A
100
AcDbEntity
  8
MODEL
100
AcDbLine
 10
1773.05557419472
 20
1098.495442963023
 30
0.0
 11
1773.055571369713
 21
1033.866745859308
 31
0.0
  0
ARC
  5
1135
330
A
100
AcDbEntity
  8
MODEL
100
AcDbCircle
 10
1770.055560513318
 20
972.2389195846442
 30
0.0
 40
3.0
100
AcDbArc
 50
269.9999974957918
 51
359.9999972623381
  0
LINE
  5
1136
330
A
100
AcDbEntity
  8
MODEL
100
AcDbLine
 10
1770.055560382184
 20
969.2389195846442
 30
0.0
 11
1643.285810591452
 21
969.2389251259262
 31
0.0
  0
LINE
  5
1137
330
A
100
AcDbEntity
  8
MODEL
100
AcDbLine
 10
838.5712851409908
 20
1842.889567043207
 30
0.0
 11
439.2913114816902
 21
1842.889567043207
 31
0.0
  0
ARC
  5
1138
102
{ACAD_REACTORS
330
1DD0
330
1DFA
102
}
330
A
100
AcDbEntity
  8
MODEL
100
AcDbCircle
 10
439.2913114816902
 20
1877.889567043207
 30
0.0
 40
35.0
100
AcDbArc
 50
180.0040128519296
 51
270.0
  0
SPLINE
  5
1139
330
A
100
AcDbEntity
  8
MODEL
100
AcDbSpline
210
0.0
220
0.0
230
1.0
 70
     8
 71
     4
 72
    10
 73
     5
 74
     0
 42
0.000000001
 43
0.0000000001
 40
0.0708322673870863
 40
0.0708322673870863
 40
0.0708322673870863
 40
0.0708322673870863
 40
0.0708322673870863
 40
0.2397348383624226
 40
0.2397348383624226
 40
0.2397348383624226
 40
0.2397348383624226
 40
0.2397348383624226
 10
1573.041291739688
 20
906.9421022942549
 30
0.0
 10
1582.667070443473
 20
909.410366797807
 30
0.0
 10
1591.58216777395
 20
913.284785364415
 30
0.0
 10
1599.794952113296
 20
918.3155548136285
 30
0.0
 10
1607.324957398196
 20
924.2811267981106
 30
0.0
  0
ARC
  5
113C
330
A
100
AcDbEntity
  8
MODEL
100
AcDbCircle
 10
1440.880318384838
 20
941.6448567037585
 30
0.0
 40
6.455998577550811
100
AcDbArc
 50
237.9080048686823
 51
271.1177144612894
  0
LINE
  5
113D
330
A
100
AcDbEntity
  8
MODEL
100
AcDbLine
 10
1440.754384060043
 20
935.1900865158129
 30
0.0
 11
1494.652099812999
 21
935.1900865158129
 31
0.0
  0
LINE
  5
1142
330
A
100
AcDbEntity
  8
MODEL
100
AcDbLine
 10
580.7652935831729
 20
924.2811267981085
 30
0.0
 11
637.9210238441037
 21
924.2811267981085
 31
0.0
  0
SPLINE
  5
1143
330
A
100
AcDbEntity
  8
MODEL
  6
STYLE_12
100
AcDbSpline
210
0.0
220
0.0
230
1.0
 70
     8
 71
     3
 72
    20
 73
    16
 74
     0
 42
0.000000001
 43
0.0000000001
 40
0.0
 40
0.0
 40
0.0
 40
0.0
 40
27.8135813748288
 40
55.53059337222133
 40
83.06842857378473
 40
110.3154222802197
 40
137.1290751489827
 40
163.3497937833954
 40
188.8167770409449
 40
188.8167770409449
 40
188.8167770409449
 40
188.8231388585823
 40
188.8231388585823
 40
188.8231388585823
 40
189.1191624812714
 40
189.1191624812714
 40
189.1191624812714
 40
189.1191624812714
 10
1490.117711559864
 20
952.7339467764211
 30
0.0
 10
1481.071849275397
 20
954.7655495471552
 30
0.0
 10
1463.337053007005
 20
960.505338333747
 30
0.0
 10
1438.97020589439
 20
974.0061585697583
 30
0.0
 10
1417.792255018425
 20
991.8159888673215
 30
0.0
 10
1400.523482896092
 20
1013.03004827704
 30
0.0
 10
1387.569954646128
 20
1036.608133743077
 30
0.0
 10
1379.067541225979
 20
1061.482593070268
 30
0.0
 10
1376.250092095512
 20
1078.570097392181
 30
0.0
 10
1375.548377817819
 20
1087.030039668527
 30
0.0
 10
1375.548202525041
 20
1087.032153016989
 30
0.0
 10
1375.5480272751
 20
1087.034266368002
 30
0.0
 10
1375.547852025159
 20
1087.036379719011
 30
0.0
 10
1375.539697418188
 20
1087.134716681448
 30
0.0
 10
1375.531542811221
 20
1087.233053643886
 30
0.0
 10
1375.523388204254
 20
1087.331390606323
 30
0.0
  0
LINE
  5
1145
330
A
100
AcDbEntity
  8
MODEL
100
AcDbLine
 10
1375.548377817823
 20
1087.030039668527
 30
0.0
 11
1375.548377817819
 21
1087.030039668527
 31
0.0
  0
LINE
  5
1148
330
A
100
AcDbEntity
  8
MODEL
100
AcDbLine
 10
1375.548377817823
 20
1087.030039668527
 30
0.0
 11
1375.548377817819
 21
1087.030039668527
 31
0.0
  0
LINE
  5
1149
330
A
100
AcDbEntity
  8
MODEL
100
AcDbLine
 10
1375.548377817823
 20
1087.030039668527
 30
0.0
 11
1375.548377817819
 21
1087.030039668527
 31
0.0
  0
LINE
  5
114A
330
A
100
AcDbEntity
  8
MODEL
100
AcDbLine
 10
1375.548377817823
 20
1087.030039668527
 30
0.0
 11
1375.548377817819
 21
1087.030039668527
 31
0.0
  0
ARC
  5
114B
330
A
100
AcDbEntity
  8
MODEL
  6
STYLE_12
100
AcDbCircle
 10
1365.557594785993
 20
1086.504975731972
 30
0.0
 40
10.0
100
AcDbArc
 50
4.740414789206233
 51
89.99999516375583
  0
SPLINE
  5
114E
330
A
100
AcDbEntity
  8
MODEL
100
AcDbSpline
210
0.0
220
0.0
230
1.0
 70
     8
 71
     7
 72
    42
 73
    34
 74
     0
 42
0.000000001
 43
0.0000000001
 40
0.1082898784850203
 40
0.1082898784850203
 40
0.1082898784850203
 40
0.1082898784850203
 40
0.1082898784850203
 40
0.1082898784850203
 40
0.1082898784850203
 40
0.1082898784850203
 40
0.1155948057277893
 40
0.4866400000000001
 40
0.4866400000000001
 40
0.4866400000000001
 40
0.4866400000000001
 40
0.4866400000000001
 40
0.5234281793059414
 40
0.5234281793059414
 40
0.5234281793059414
 40
0.5234281793059414
 40
0.5234281793059414
 40
0.6083000000000001
 40
0.6083000000000001
 40
0.6083000000000001
 40
0.6083000000000001
 40
0.6083000000000001
 40
0.77
 40
0.77
 40
0.77
 40
0.77
 40
0.77
 40
0.7741160728531999
 40
0.7741160728531999
 40
0.7741160728531999
 40
0.7741160728531999
 40
0.7741160728531999
 40
0.940943042405423
 40
0.940943042405423
 40
0.940943042405423
 40
0.940943042405423
 40
0.940943042405423
 40
0.940943042405423
 40
0.940943042405423
 40
0.940943042405423
 10
1374.081626766704
 20
1031.738195757841
 30
0.0
 10
1374.112361061951
 20
1031.598055093765
 30
0.0
 10
1375.707030704886
 20
1024.340087096898
 30
0.0
 10
1377.452771929652
 20
1017.102638319438
 30
0.0
 10
1379.560283298019
 20
1009.94140793979
 30
0.0
 10
1382.024121618423
 20
1002.947224993305
 30
0.0
 10
1384.815654581169
 20
996.2066014898833
 30
0.0
 10
1388.215266128808
 20
989.0794497191525
 30
0.0
 10
1392.653266319913
 20
981.2425914895973
 30
0.0
 10
1393.056853713368
 20
980.540703350023
 30
0.0
 10
1393.463663183704
 20
979.8438557347943
 30
0.0
 10
1393.873660771535
 20
979.1520518306786
 30
0.0
 10
1395.239994030819
 20
976.8808857343863
 30
0.0
 10
1396.640690616491
 20
974.6646331328045
 30
0.0
 10
1397.634324444809
 20
973.1450723346095
 30
0.0
 10
1398.644422793661
 20
971.6515887213425
 30
0.0
 10
1399.671201857788
 20
970.1835252595372
 30
0.0
 10
1402.703841927915
 20
965.9903273081143
 30
0.0
 10
1405.885407970824
 20
962.0000903646176
 30
0.0
 10
1408.039809396216
 20
959.4658818960268
 30
0.0
 10
1410.268181540129
 20
957.0097840267842
 30
0.0
 10
1412.577639639194
 20
954.6298079386759
 30
0.0
 10
1415.035534964265
 20
952.2698355448299
 30
0.0
 10
1417.587983967535
 20
950.0001573694678
 30
0.0
 10
1417.651402028229
 20
949.9438726260594
 30
0.0
 10
1417.714878432208
 20
949.8876437630277
 30
0.0
 10
1417.778413217157
 20
949.8314709045878
 30
0.0
 10
1420.419478087026
 20
947.5009086217394
 30
0.0
 10
1423.161359284425
 20
945.2673815871492
 30
0.0
 10
1425.935524113169
 20
943.1885926733373
 30
0.0
 10
1428.805716821344
 20
941.2247077459685
 30
0.0
 10
1431.765489681874
 20
939.3917520061038
 30
0.0
 10
1434.806341502912
 20
937.7043793637638
 30
0.0
 10
1437.450374028509
 20
936.1753595288935
 30
0.0
  0
ARC
  5
1153
330
A
100
AcDbEntity
  8
MODEL
100
AcDbCircle
 10
1564.727797149115
 20
904.4954548636595
 30
0.0
 40
2.999999999999776
100
AcDbArc
 50
270.000002504625
 51
326.1569217698452
  0
ARC
  5
1154
330
A
100
AcDbEntity
  8
MODEL
100
AcDbCircle
 10
1575.525154885383
 20
897.2554917480663
 30
0.0
 40
10.0
100
AcDbArc
 50
104.382043122608
 51
146.1569217695615
  0
LINE
  5
13BE
330
A
100
AcDbEntity
  8
MODEL
100
AcDbLine
 10
638.9312462506268
 20
2034.597657170023
 30
0.0
 11
640.8835167584393
 21
2034.538575138773
 31
0.0
  0
LINE
  5
13BF
330
A
100
AcDbEntity
  8
MODEL
100
AcDbLine
 10
640.8835167584393
 20
2034.538575138773
 30
0.0
 11
642.8255333600018
 21
2034.376008000101
 31
0.0
  0
LINE
  5
13C0
330
A
100
AcDbEntity
  8
MODEL
100
AcDbLine
 10
642.8255333600018
 20
2034.376008000101
 30
0.0
 11
644.7544884381268
 21
2034.112999882425
 31
0.0
  0
LINE
  5
13C1
330
A
100
AcDbEntity
  8
MODEL
100
AcDbLine
 10
644.7544884381268
 20
2034.112999882425
 30
0.0
 11
646.6694054303143
 21
2033.743920292581
 31
0.0
  0
LINE
  5
13C2
330
A
100
AcDbEntity
  8
MODEL
100
AcDbLine
 10
646.6694054303143
 20
2033.743920292581
 30
0.0
 11
648.5661339459393
 21
2033.267727818216
 31
0.0
  0
LINE
  5
13C3
330
A
100
AcDbEntity
  8
MODEL
100
AcDbLine
 10
648.5661339459393
 20
2033.267727818216
 30
0.0
 11
650.4404015240643
 21
2032.685246433939
 31
0.0
  0
LINE
  5
13C4
330
A
100
AcDbEntity
  8
MODEL
100
AcDbLine
 10
650.4404015240643
 20
2032.685246433939
 30
0.0
 11
652.2890343365643
 21
2031.99480148765
 31
0.0
  0
LINE
  5
13C5
330
A
100
AcDbEntity
  8
MODEL
100
AcDbLine
 10
652.2890343365643
 20
2031.99480148765
 30
0.0
 11
654.1082482037518
 21
2031.195305790628
 31
0.0
  0
LINE
  5
13C6
330
A
100
AcDbEntity
  8
MODEL
100
AcDbLine
 10
654.1082482037518
 20
2031.195305790628
 30
0.0
 11
655.8934044537518
 21
2030.286091770853
 31
0.0
  0
LINE
  5
13C7
330
A
100
AcDbEntity
  8
MODEL
100
AcDbLine
 10
655.8934044537518
 20
2030.286091770853
 30
0.0
 11
657.6397423443768
 21
2029.265213932718
 31
0.0
  0
LINE
  5
13C8
330
A
100
AcDbEntity
  8
MODEL
100
AcDbLine
 10
657.6397423443768
 20
2029.265213932718
 30
0.0
 11
659.3412804303143
 21
2028.131485905374
 31
0.0
  0
LINE
  5
13C9
330
A
100
AcDbEntity
  8
MODEL
100
AcDbLine
 10
659.3412804303143
 20
2028.131485905374
 30
0.0
 11
660.9910607037518
 21
2026.884224858011
 31
0.0
  0
LINE
  5
13CA
330
A
100
AcDbEntity
  8
MODEL
100
AcDbLine
 10
660.9910607037518
 20
2026.884224858011
 30
0.0
 11
662.5811485943768
 21
2025.523556675638
 31
0.0
  0
LINE
  5
13CB
330
A
100
AcDbEntity
  8
MODEL
100
AcDbLine
 10
662.5811485943768
 20
2025.523556675638
 30
0.0
 11
664.1028771100018
 21
2024.051144566263
 31
0.0
  0
LINE
  5
13CC
330
A
100
AcDbEntity
  8
MODEL
100
AcDbLine
 10
664.1028771100018
 20
2024.051144566263
 30
0.0
 11
665.5468468365643
 21
2022.469948734964
 31
0.0
  0
LINE
  5
13CD
330
A
100
AcDbEntity
  8
MODEL
100
AcDbLine
 10
665.5468468365643
 20
2022.469948734964
 30
0.0
 11
666.9036583600018
 21
2020.784195866312
 31
0.0
  0
LINE
  5
13CE
330
A
100
AcDbEntity
  8
MODEL
100
AcDbLine
 10
666.9036583600018
 20
2020.784195866312
 30
0.0
 11
668.1635460553143
 21
2018.999077763285
 31
0.0
  0
LINE
  5
13CF
330
A
100
AcDbEntity
  8
MODEL
100
AcDbLine
 10
668.1635460553143
 20
2018.999077763285
 30
0.0
 11
669.3171105084393
 21
2017.121380772318
 31
0.0
  0
LINE
  5
13D0
330
A
100
AcDbEntity
  8
MODEL
100
AcDbLine
 10
669.3171105084393
 20
2017.121380772318
 30
0.0
 11
670.3554405865643
 21
2015.158898319925
 31
0.0
  0
LINE
  5
13D1
330
A
100
AcDbEntity
  8
MODEL
100
AcDbLine
 10
670.3554405865643
 20
2015.158898319925
 30
0.0
 11
671.2703575787518
 21
2013.120556797708
 31
0.0
  0
LINE
  5
13D2
330
A
100
AcDbEntity
  8
MODEL
100
AcDbLine
 10
671.2703575787518
 20
2013.120556797708
 30
0.0
 11
672.0547814068768
 21
2011.016213383402
 31
0.0
  0
LINE
  5
13D3
330
A
100
AcDbEntity
  8
MODEL
100
AcDbLine
 10
672.0547814068768
 20
2011.016213383402
 30
0.0
 11
672.7026085553143
 21
2008.856327976908
 31
0.0
  0
LINE
  5
13D4
330
A
100
AcDbEntity
  8
MODEL
100
AcDbLine
 10
672.7026085553143
 20
2008.856327976908
 30
0.0
 11
673.2088341412518
 21
2006.651864018167
 31
0.0
  0
LINE
  5
13D5
330
A
100
AcDbEntity
  8
MODEL
100
AcDbLine
 10
673.2088341412518
 20
2006.651864018167
 30
0.0
 11
673.5688194928143
 21
2004.414288487161
 31
0.0
  0
LINE
  5
13D6
330
A
100
AcDbEntity
  8
MODEL
100
AcDbLine
 10
673.5688194928143
 20
2004.414288487161
 30
0.0
 11
673.7800011334393
 21
2002.155899967874
 31
0.0
  0
LINE
  5
13D7
330
A
100
AcDbEntity
  8
MODEL
100
AcDbLine
 10
673.7800011334393
 20
2002.155899967874
 30
0.0
 11
673.8467735943768
 21
1999.889536823953
 31
0.0
  0
LINE
  5
13D8
330
A
100
AcDbEntity
  8
MODEL
100
AcDbLine
 10
673.8468956646893
 20
1999.889861073221
 30
0.0
 11
673.7676720318768
 21
1997.625145878519
 31
0.0
  0
LINE
  5
13D9
330
A
100
AcDbEntity
  8
MODEL
100
AcDbLine
 10
673.7676720318768
 20
1997.625145878519
 30
0.0
 11
673.5422081646893
 21
1995.370905842508
 31
0.0
  0
LINE
  5
13DA
330
A
100
AcDbEntity
  8
MODEL
100
AcDbLine
 10
673.5422081646893
 20
1995.370905842508
 30
0.0
 11
673.1723351178143
 21
1993.135563816751
 31
0.0
  0
LINE
  5
13DB
330
A
100
AcDbEntity
  8
MODEL
100
AcDbLine
 10
673.1723351178143
 20
1993.135563816751
 30
0.0
 11
672.6593956646893
 21
1990.927567448343
 31
0.0
  0
LINE
  5
13DC
330
A
100
AcDbEntity
  8
MODEL
100
AcDbLine
 10
672.6593956646893
 20
1990.927567448343
 30
0.0
 11
672.0048546490643
 21
1988.75554367515
 31
0.0
  0
LINE
  5
13DD
330
A
100
AcDbEntity
  8
MODEL
100
AcDbLine
 10
672.0048546490643
 20
1988.75554367515
 30
0.0
 11
671.2104210553143
 21
1986.628277744974
 31
0.0
  0
LINE
  5
13DE
330
A
100
AcDbEntity
  8
MODEL
100
AcDbLine
 10
671.2104210553143
 20
1986.628277744974
 30
0.0
 11
670.2787804303143
 21
1984.554613079752
 31
0.0
  0
LINE
  5
13DF
330
A
100
AcDbEntity
  8
MODEL
100
AcDbLine
 10
670.2787804303143
 20
1984.554613079752
 30
0.0
 11
669.2129845318768
 21
1982.54350372764
 31
0.0
  0
LINE
  5
13E0
330
A
100
AcDbEntity
  8
MODEL
100
AcDbLine
 10
669.2129845318768
 20
1982.54350372764
 30
0.0
 11
668.0165733990643
 21
1980.603965725626
 31
0.0
  0
LINE
  5
13E1
330
A
100
AcDbEntity
  8
MODEL
100
AcDbLine
 10
668.0165733990643
 20
1980.603965725626
 30
0.0
 11
666.6943077740643
 21
1978.744889225687
 31
0.0
  0
LINE
  5
13E2
330
A
100
AcDbEntity
  8
MODEL
100
AcDbLine
 10
666.6943077740643
 20
1978.744889225687
 30
0.0
 11
665.2513146100018
 21
1976.974808182443
 31
0.0
  0
LINE
  5
13E3
330
A
100
AcDbEntity
  8
MODEL
100
AcDbLine
 10
665.2513146100018
 20
1976.974808182443
 30
0.0
 11
663.6938194928143
 21
1975.301902737345
 31
0.0
  0
LINE
  5
13E4
330
A
100
AcDbEntity
  8
MODEL
100
AcDbLine
 10
663.6938194928143
 20
1975.301902737345
 30
0.0
 11
662.0285362896893
 21
1973.733946289743
 31
0.0
  0
LINE
  5
13E5
330
A
100
AcDbEntity
  8
MODEL
100
AcDbLine
 10
662.0285362896893
 20
1973.733946289743
 30
0.0
 11
660.2629112896893
 21
1972.278037752832
 31
0.0
  0
LINE
  5
13E6
330
A
100
AcDbEntity
  8
MODEL
100
AcDbLine
 10
660.2629112896893
 20
1972.278037752832
 30
0.0
 11
658.4045128521893
 21
1970.940655317034
 31
0.0
  0
LINE
  5
13E7
330
A
100
AcDbEntity
  8
MODEL
100
AcDbLine
 10
658.4045128521893
 20
1970.940655317034
 30
0.0
 11
656.4616417584393
 21
1969.727769758428
 31
0.0
  0
LINE
  5
13E8
330
A
100
AcDbEntity
  8
MODEL
100
AcDbLine
 10
656.4616417584393
 20
1969.727769758428
 30
0.0
 11
654.4425987896893
 21
1968.644827511038
 31
0.0
  0
LINE
  5
13E9
330
A
100
AcDbEntity
  8
MODEL
100
AcDbLine
 10
654.4425987896893
 20
1968.644827511038
 30
0.0
 11
652.3561730084393
 21
1967.696668591226
 31
0.0
  0
LINE
  5
13EA
330
A
100
AcDbEntity
  8
MODEL
100
AcDbLine
 10
652.3561730084393
 20
1967.696668591226
 30
0.0
 11
650.2109093365643
 21
1966.887549128259
 31
0.0
  0
LINE
  5
13EB
330
A
100
AcDbEntity
  8
MODEL
100
AcDbLine
 10
650.2109093365643
 20
1966.887549128259
 30
0.0
 11
648.0162071881268
 21
1966.221274103845
 31
0.0
  0
LINE
  5
13EC
330
A
100
AcDbEntity
  8
MODEL
100
AcDbLine
 10
648.0162071881268
 20
1966.221274103845
 30
0.0
 11
645.7809776959393
 21
1965.701187815393
 31
0.0
  0
LINE
  5
13ED
330
A
100
AcDbEntity
  8
MODEL
100
AcDbLine
 10
645.7809776959393
 20
1965.701187815393
 30
0.0
 11
643.5149864850018
 21
1965.330315317835
 31
0.0
  0
LINE
  5
13EE
330
A
100
AcDbEntity
  8
MODEL
100
AcDbLine
 10
643.5149864850018
 20
1965.330315317835
 30
0.0
 11
641.2281212506268
 21
1965.111269440378
 31
0.0
  0
LINE
  5
13EF
330
A
100
AcDbEntity
  8
MODEL
100
AcDbLine
 10
641.2281212506268
 20
1965.111269440378
 30
0.0
 11
638.9312462506268
 21
1965.041085209574
 31
0.0
  0
LINE
  5
13F0
330
A
100
AcDbEntity
  8
MODEL
100
AcDbLine
 10
638.9313683209393
 20
1965.041085209574
 30
0.0
 11
636.6344933209393
 21
1965.111269440378
 31
0.0
  0
LINE
  5
13F1
330
A
100
AcDbEntity
  8
MODEL
100
AcDbLine
 10
636.6344933209393
 20
1965.111269440378
 30
0.0
 11
634.3476280865643
 21
1965.330315317835
 31
0.0
  0
LINE
  5
13F2
330
A
100
AcDbEntity
  8
MODEL
100
AcDbLine
 10
634.3476280865643
 20
1965.330315317835
 30
0.0
 11
632.0816368756268
 21
1965.701187815393
 31
0.0
  0
LINE
  5
13F3
330
A
100
AcDbEntity
  8
MODEL
100
AcDbLine
 10
632.0816368756268
 20
1965.701187815393
 30
0.0
 11
629.8464073834393
 21
1966.221274103845
 31
0.0
  0
LINE
  5
13F4
330
A
100
AcDbEntity
  8
MODEL
100
AcDbLine
 10
629.8464073834393
 20
1966.221274103845
 30
0.0
 11
627.6517052350018
 21
1966.887549128259
 31
0.0
  0
LINE
  5
13F5
330
A
100
AcDbEntity
  8
MODEL
100
AcDbLine
 10
627.6517052350018
 20
1966.887549128259
 30
0.0
 11
625.5064415631268
 21
1967.696668591226
 31
0.0
  0
LINE
  5
13F6
330
A
100
AcDbEntity
  8
MODEL
100
AcDbLine
 10
625.5064415631268
 20
1967.696668591226
 30
0.0
 11
623.4198937115643
 21
1968.644827511038
 31
0.0
  0
LINE
  5
13F7
330
A
100
AcDbEntity
  8
MODEL
100
AcDbLine
 10
623.4198937115643
 20
1968.644827511038
 30
0.0
 11
621.4009728131268
 21
1969.727769758428
 31
0.0
  0
LINE
  5
13F8
330
A
100
AcDbEntity
  8
MODEL
100
AcDbLine
 10
621.4009728131268
 20
1969.727769758428
 30
0.0
 11
619.4581017193768
 21
1970.940655317034
 31
0.0
  0
LINE
  5
13F9
330
A
100
AcDbEntity
  8
MODEL
100
AcDbLine
 10
619.4581017193768
 20
1970.940655317034
 30
0.0
 11
617.5997032818768
 21
1972.278037752832
 31
0.0
  0
LINE
  5
13FA
330
A
100
AcDbEntity
  8
MODEL
100
AcDbLine
 10
617.5997032818768
 20
1972.278037752832
 30
0.0
 11
615.8340782818768
 21
1973.733946289743
 31
0.0
  0
LINE
  5
13FB
330
A
100
AcDbEntity
  8
MODEL
100
AcDbLine
 10
615.8340782818768
 20
1973.733946289743
 30
0.0
 11
614.1687950787518
 21
1975.301902737345
 31
0.0
  0
LINE
  5
13FC
330
A
100
AcDbEntity
  8
MODEL
100
AcDbLine
 10
614.1687950787518
 20
1975.301902737345
 30
0.0
 11
612.6112999615643
 21
1976.974808182443
 31
0.0
  0
LINE
  5
13FD
330
A
100
AcDbEntity
  8
MODEL
100
AcDbLine
 10
612.6112999615643
 20
1976.974808182443
 30
0.0
 11
611.1683067975018
 21
1978.744889225687
 31
0.0
  0
LINE
  5
13FE
330
A
100
AcDbEntity
  8
MODEL
100
AcDbLine
 10
611.1683067975018
 20
1978.744889225687
 30
0.0
 11
609.8460411725018
 21
1980.603965725626
 31
0.0
  0
LINE
  5
13FF
330
A
100
AcDbEntity
  8
MODEL
100
AcDbLine
 10
609.8460411725018
 20
1980.603965725626
 30
0.0
 11
608.6496300396893
 21
1982.54350372764
 31
0.0
  0
LINE
  5
1400
330
A
100
AcDbEntity
  8
MODEL
100
AcDbLine
 10
608.6496300396893
 20
1982.54350372764
 30
0.0
 11
607.5838341412518
 21
1984.554613079752
 31
0.0
  0
LINE
  5
1401
330
A
100
AcDbEntity
  8
MODEL
100
AcDbLine
 10
607.5838341412518
 20
1984.554613079752
 30
0.0
 11
606.6521935162518
 21
1986.628277744974
 31
0.0
  0
LINE
  5
1402
330
A
100
AcDbEntity
  8
MODEL
100
AcDbLine
 10
606.6521935162518
 20
1986.628277744974
 30
0.0
 11
605.8577599225018
 21
1988.75554367515
 31
0.0
  0
LINE
  5
1403
330
A
100
AcDbEntity
  8
MODEL
100
AcDbLine
 10
605.8577599225018
 20
1988.75554367515
 30
0.0
 11
605.2032189068768
 21
1990.927567448343
 31
0.0
  0
LINE
  5
1404
330
A
100
AcDbEntity
  8
MODEL
100
AcDbLine
 10
605.2032189068768
 20
1990.927567448343
 30
0.0
 11
604.6902794537518
 21
1993.135563816751
 31
0.0
  0
LINE
  5
1405
330
A
100
AcDbEntity
  8
MODEL
100
AcDbLine
 10
604.6902794537518
 20
1993.135563816751
 30
0.0
 11
604.3204064068768
 21
1995.370905842508
 31
0.0
  0
LINE
  5
1406
330
A
100
AcDbEntity
  8
MODEL
100
AcDbLine
 10
604.3204064068768
 20
1995.370905842508
 30
0.0
 11
604.0949425396893
 21
1997.625145878519
 31
0.0
  0
LINE
  5
1407
330
A
100
AcDbEntity
  8
MODEL
100
AcDbLine
 10
604.0949425396893
 20
1997.625145878519
 30
0.0
 11
604.0157189068768
 21
1999.889861073221
 31
0.0
  0
LINE
  5
1408
330
A
100
AcDbEntity
  8
MODEL
100
AcDbLine
 10
604.0158409771893
 20
1999.889536823953
 30
0.0
 11
604.0826134381268
 21
2002.155899967874
 31
0.0
  0
LINE
  5
1409
330
A
100
AcDbEntity
  8
MODEL
100
AcDbLine
 10
604.0826134381268
 20
2002.155899967874
 30
0.0
 11
604.2936730084393
 21
2004.414288487161
 31
0.0
  0
LINE
  5
140A
330
A
100
AcDbEntity
  8
MODEL
100
AcDbLine
 10
604.2936730084393
 20
2004.414288487161
 30
0.0
 11
604.6537804303143
 21
2006.651864018167
 31
0.0
  0
LINE
  5
140B
330
A
100
AcDbEntity
  8
MODEL
100
AcDbLine
 10
604.6537804303143
 20
2006.651864018167
 30
0.0
 11
605.1600060162518
 21
2008.856327976908
 31
0.0
  0
LINE
  5
140C
330
A
100
AcDbEntity
  8
MODEL
100
AcDbLine
 10
605.1600060162518
 20
2008.856327976908
 30
0.0
 11
605.8078331646893
 21
2011.016213383402
 31
0.0
  0
LINE
  5
140D
330
A
100
AcDbEntity
  8
MODEL
100
AcDbLine
 10
605.8078331646893
 20
2011.016213383402
 30
0.0
 11
606.5922569928143
 21
2013.120556797708
 31
0.0
  0
LINE
  5
140E
330
A
100
AcDbEntity
  8
MODEL
100
AcDbLine
 10
606.5922569928143
 20
2013.120556797708
 30
0.0
 11
607.5071739850018
 21
2015.158898319925
 31
0.0
  0
LINE
  5
140F
330
A
100
AcDbEntity
  8
MODEL
100
AcDbLine
 10
607.5071739850018
 20
2015.158898319925
 30
0.0
 11
608.5455040631268
 21
2017.121380772318
 31
0.0
  0
LINE
  5
1410
330
A
100
AcDbEntity
  8
MODEL
100
AcDbLine
 10
608.5455040631268
 20
2017.121380772318
 30
0.0
 11
609.6990685162518
 21
2018.999077763285
 31
0.0
  0
LINE
  5
1411
330
A
100
AcDbEntity
  8
MODEL
100
AcDbLine
 10
609.6990685162518
 20
2018.999077763285
 30
0.0
 11
610.9589562115643
 21
2020.784195866312
 31
0.0
  0
LINE
  5
1412
330
A
100
AcDbEntity
  8
MODEL
100
AcDbLine
 10
610.9589562115643
 20
2020.784195866312
 30
0.0
 11
612.3157677350018
 21
2022.469948734964
 31
0.0
  0
LINE
  5
1413
330
A
100
AcDbEntity
  8
MODEL
100
AcDbLine
 10
612.3157677350018
 20
2022.469948734964
 30
0.0
 11
613.7597374615643
 21
2024.051144566263
 31
0.0
  0
LINE
  5
1414
330
A
100
AcDbEntity
  8
MODEL
100
AcDbLine
 10
613.7597374615643
 20
2024.051144566263
 30
0.0
 11
615.2814659771893
 21
2025.523556675638
 31
0.0
  0
LINE
  5
1415
330
A
100
AcDbEntity
  8
MODEL
100
AcDbLine
 10
615.2814659771893
 20
2025.523556675638
 30
0.0
 11
616.8715538678143
 21
2026.884224858011
 31
0.0
  0
LINE
  5
1416
330
A
100
AcDbEntity
  8
MODEL
100
AcDbLine
 10
616.8715538678143
 20
2026.884224858011
 30
0.0
 11
618.5213341412518
 21
2028.131485905374
 31
0.0
  0
LINE
  5
1417
330
A
100
AcDbEntity
  8
MODEL
100
AcDbLine
 10
618.5213341412518
 20
2028.131485905374
 30
0.0
 11
620.2228722271893
 21
2029.265213932718
 31
0.0
  0
LINE
  5
1418
330
A
100
AcDbEntity
  8
MODEL
100
AcDbLine
 10
620.2228722271893
 20
2029.265213932718
 30
0.0
 11
621.9692101178143
 21
2030.286091770853
 31
0.0
  0
LINE
  5
1419
330
A
100
AcDbEntity
  8
MODEL
100
AcDbLine
 10
621.9692101178143
 20
2030.286091770853
 30
0.0
 11
623.7543663678143
 21
2031.195305790628
 31
0.0
  0
LINE
  5
141A
330
A
100
AcDbEntity
  8
MODEL
100
AcDbLine
 10
623.7543663678143
 20
2031.195305790628
 30
0.0
 11
625.5735802350018
 21
2031.99480148765
 31
0.0
  0
LINE
  5
141B
330
A
100
AcDbEntity
  8
MODEL
100
AcDbLine
 10
625.5735802350018
 20
2031.99480148765
 30
0.0
 11
627.4222130475018
 21
2032.685246433939
 31
0.0
  0
LINE
  5
141C
330
A
100
AcDbEntity
  8
MODEL
100
AcDbLine
 10
627.4222130475018
 20
2032.685246433939
 30
0.0
 11
629.2964806256268
 21
2033.267727818216
 31
0.0
  0
LINE
  5
141D
330
A
100
AcDbEntity
  8
MODEL
100
AcDbLine
 10
629.2964806256268
 20
2033.267727818216
 30
0.0
 11
631.1932091412518
 21
2033.743920292581
 31
0.0
  0
LINE
  5
141E
330
A
100
AcDbEntity
  8
MODEL
100
AcDbLine
 10
631.1932091412518
 20
2033.743920292581
 30
0.0
 11
633.1081261334393
 21
2034.112999882425
 31
0.0
  0
LINE
  5
141F
330
A
100
AcDbEntity
  8
MODEL
100
AcDbLine
 10
633.1081261334393
 20
2034.112999882425
 30
0.0
 11
635.0370812115643
 21
2034.376008000101
 31
0.0
  0
LINE
  5
1420
330
A
100
AcDbEntity
  8
MODEL
100
AcDbLine
 10
635.0370812115643
 20
2034.376008000101
 30
0.0
 11
636.9790978131268
 21
2034.538575138773
 31
0.0
  0
LINE
  5
1421
330
A
100
AcDbEntity
  8
MODEL
100
AcDbLine
 10
636.9790978131268
 20
2034.538575138773
 30
0.0
 11
638.9313683209393
 21
2034.597657170023
 31
0.0
  0
LINE
  5
1422
330
A
100
AcDbEntity
  8
MODEL
100
AcDbLine
 10
610.2903771100018
 20
2100.583252873148
 30
0.0
 11
611.3305382428143
 21
2100.514252629007
 31
0.0
  0
LINE
  5
1423
330
A
100
AcDbEntity
  8
MODEL
100
AcDbLine
 10
611.3305382428143
 20
2100.514252629007
 30
0.0
 11
612.4321007428143
 21
2100.465271916117
 31
0.0
  0
LINE
  5
1424
330
A
100
AcDbEntity
  8
MODEL
100
AcDbLine
 10
612.4321007428143
 20
2100.465271916117
 30
0.0
 11
613.5762657818768
 21
2100.437592472757
 31
0.0
  0
LINE
  5
1425
330
A
100
AcDbEntity
  8
MODEL
100
AcDbLine
 10
613.5762657818768
 20
2100.437592472757
 30
0.0
 11
614.7436241803143
 21
2100.431961979593
 31
0.0
  0
LINE
  5
1426
330
A
100
AcDbEntity
  8
MODEL
100
AcDbLine
 10
614.7436241803143
 20
2100.431961979593
 30
0.0
 11
615.9141564068768
 21
2100.448502506937
 31
0.0
  0
LINE
  5
1427
330
A
100
AcDbEntity
  8
MODEL
100
AcDbLine
 10
615.9141564068768
 20
2100.448502506937
 30
0.0
 11
617.0677208600018
 21
2100.486741032328
 31
0.0
  0
LINE
  5
1428
330
A
100
AcDbEntity
  8
MODEL
100
AcDbLine
 10
617.0677208600018
 20
2100.486741032328
 30
0.0
 11
618.1849083600018
 21
2100.545578922953
 31
0.0
  0
LINE
  5
1429
330
A
100
AcDbEntity
  8
MODEL
100
AcDbLine
 10
618.1849083600018
 20
2100.545578922953
 30
0.0
 11
619.2464317975018
 21
2100.623414005961
 31
0.0
  0
LINE
  5
142A
330
A
100
AcDbEntity
  8
MODEL
100
AcDbLine
 10
619.2464317975018
 20
2100.623414005961
 30
0.0
 11
620.2344689068768
 21
2100.718125309671
 31
0.0
  0
LINE
  5
142B
330
A
100
AcDbEntity
  8
MODEL
100
AcDbLine
 10
620.2344689068768
 20
2100.718125309671
 30
0.0
 11
621.1318077740643
 21
2100.827317204203
 31
0.0
  0
LINE
  5
142C
330
A
100
AcDbEntity
  8
MODEL
100
AcDbLine
 10
621.1318077740643
 20
2100.827317204203
 30
0.0
 11
621.9234337506268
 21
2100.94828888389
 31
0.0
  0
LINE
  5
142D
330
A
100
AcDbEntity
  8
MODEL
100
AcDbLine
 10
621.9234337506268
 20
2100.94828888389
 30
0.0
 11
622.5956749615643
 21
2101.078247990336
 31
0.0
  0
LINE
  5
142E
330
A
100
AcDbEntity
  8
MODEL
100
AcDbLine
 10
622.5956749615643
 20
2101.078247990336
 30
0.0
 11
623.1369347271893
 21
2101.214386906351
 31
0.0
  0
LINE
  5
142F
330
A
100
AcDbEntity
  8
MODEL
100
AcDbLine
 10
623.1369347271893
 20
2101.214386906351
 30
0.0
 11
623.5379357037518
 21
2101.35389801475
 31
0.0
  0
LINE
  5
1430
330
A
100
AcDbEntity
  8
MODEL
100
AcDbLine
 10
623.5379357037518
 20
2101.35389801475
 30
0.0
 11
623.7917198834393
 21
2101.494126286234
 31
0.0
  0
LINE
  5
1431
330
A
100
AcDbEntity
  8
MODEL
100
AcDbLine
 10
623.7917198834393
 20
2101.494126286234
 30
0.0
 11
623.8940148053143
 21
2101.632599796976
 31
0.0
  0
LINE
  5
1432
330
A
100
AcDbEntity
  8
MODEL
100
AcDbLine
 10
623.8940148053143
 20
2101.632599796976
 30
0.0
 11
623.8428673443768
 21
2101.76713654014
 31
0.0
  0
LINE
  5
1433
330
A
100
AcDbEntity
  8
MODEL
100
AcDbLine
 10
623.8428673443768
 20
2101.76713654014
 30
0.0
 11
623.6392540631268
 21
2101.895752873148
 31
0.0
  0
LINE
  5
1434
330
A
100
AcDbEntity
  8
MODEL
100
AcDbLine
 10
623.6392540631268
 20
2101.895752873148
 30
0.0
 11
623.2867150006268
 21
2102.016755070414
 31
0.0
  0
LINE
  5
1435
330
A
100
AcDbEntity
  8
MODEL
100
AcDbLine
 10
623.2867150006268
 20
2102.016755070414
 30
0.0
 11
622.7909874615643
 21
2102.12863251182
 31
0.0
  0
LINE
  5
1436
330
A
100
AcDbEntity
  8
MODEL
100
AcDbLine
 10
622.7909874615643
 20
2102.12863251182
 30
0.0
 11
622.1607384381268
 21
2102.230072941507
 31
0.0
  0
LINE
  5
1437
330
A
100
AcDbEntity
  8
MODEL
100
AcDbLine
 10
622.1607384381268
 20
2102.230072941507
 30
0.0
 11
621.4064659771893
 21
2102.320008244242
 31
0.0
  0
LINE
  5
1438
330
A
100
AcDbEntity
  8
MODEL
100
AcDbLine
 10
621.4064659771893
 20
2102.320008244242
 30
0.0
 11
620.5413536725018
 21
2102.397477116312
 31
0.0
  0
LINE
  5
1439
330
A
100
AcDbEntity
  8
MODEL
100
AcDbLine
 10
620.5413536725018
 20
2102.397477116312
 30
0.0
 11
619.5800499615643
 21
2102.461716618265
 31
0.0
  0
LINE
  5
143A
330
A
100
AcDbEntity
  8
MODEL
100
AcDbLine
 10
619.5800499615643
 20
2102.461716618265
 30
0.0
 11
618.5389122662518
 21
2102.512070622171
 31
0.0
  0
LINE
  5
143B
330
A
100
AcDbEntity
  8
MODEL
100
AcDbLine
 10
618.5389122662518
 20
2102.512070622171
 30
0.0
 11
617.4358849225018
 21
2102.548035587992
 31
0.0
  0
LINE
  5
143C
330
A
100
AcDbEntity
  8
MODEL
100
AcDbLine
 10
617.4358849225018
 20
2102.548035587992
 30
0.0
 11
616.2898888287518
 21
2102.569184269632
 31
0.0
  0
LINE
  5
143D
330
A
100
AcDbEntity
  8
MODEL
100
AcDbLine
 10
616.2898888287518
 20
2102.569184269632
 30
0.0
 11
615.1206993756268
 21
2102.575257267679
 31
0.0
  0
LINE
  5
143E
330
A
100
AcDbEntity
  8
MODEL
100
AcDbLine
 10
615.1206993756268
 20
2102.575257267679
 30
0.0
 11
613.9480919537518
 21
2102.566086735453
 31
0.0
  0
LINE
  5
143F
330
A
100
AcDbEntity
  8
MODEL
100
AcDbLine
 10
613.9480919537518
 20
2102.566086735453
 30
0.0
 11
612.7924523053143
 21
2102.541657414164
 31
0.0
  0
LINE
  5
1440
330
A
100
AcDbEntity
  8
MODEL
100
AcDbLine
 10
612.7924523053143
 20
2102.541657414164
 30
0.0
 11
611.6735558209393
 21
2102.502106632914
 31
0.0
  0
LINE
  5
1441
330
A
100
AcDbEntity
  8
MODEL
100
AcDbLine
 10
611.6735558209393
 20
2102.502106632914
 30
0.0
 11
610.6105675396893
 21
2102.447739567484
 31
0.0
  0
LINE
  5
1442
330
A
100
AcDbEntity
  8
MODEL
100
AcDbLine
 10
610.6105675396893
 20
2102.447739567484
 30
0.0
 11
609.6216759381268
 21
2102.379029240336
 31
0.0
  0
LINE
  5
1443
330
A
100
AcDbEntity
  8
MODEL
100
AcDbLine
 10
609.6216759381268
 20
2102.379029240336
 30
0.0
 11
608.7238487896893
 21
2102.296631779398
 31
0.0
  0
LINE
  5
1444
330
A
100
AcDbEntity
  8
MODEL
100
AcDbLine
 10
608.7238487896893
 20
2102.296631779398
 30
0.0
 11
607.9323448834393
 21
2102.201401676859
 31
0.0
  0
LINE
  5
1445
330
A
100
AcDbEntity
  8
MODEL
100
AcDbLine
 10
607.9323448834393
 20
2102.201401676859
 30
0.0
 11
607.2608360943768
 21
2102.094437565531
 31
0.0
  0
LINE
  5
1446
330
A
100
AcDbEntity
  8
MODEL
100
AcDbLine
 10
607.2608360943768
 20
2102.094437565531
 30
0.0
 11
606.7205528912518
 21
2101.976975407328
 31
0.0
  0
LINE
  5
1447
330
A
100
AcDbEntity
  8
MODEL
100
AcDbLine
 10
606.7205528912518
 20
2101.976975407328
 30
0.0
 11
606.3210167584393
 21
2101.850556339945
 31
0.0
  0
LINE
  5
1448
330
A
100
AcDbEntity
  8
MODEL
100
AcDbLine
 10
606.3210167584393
 20
2101.850556339945
 30
0.0
 11
606.0688194928143
 21
2101.716858830179
 31
0.0
  0
LINE
  5
1449
330
A
100
AcDbEntity
  8
MODEL
100
AcDbLine
 10
606.0688194928143
 20
2101.716858830179
 30
0.0
 11
605.9683556256268
 21
2101.577927555765
 31
0.0
  0
LINE
  5
144A
330
A
100
AcDbEntity
  8
MODEL
100
AcDbLine
 10
605.9683556256268
 20
2101.577927555765
 30
0.0
 11
606.0213341412518
 21
2101.435990299906
 31
0.0
  0
LINE
  5
144B
330
A
100
AcDbEntity
  8
MODEL
100
AcDbLine
 10
606.0213341412518
 20
2101.435990299906
 30
0.0
 11
606.2267784771893
 21
2101.293518986429
 31
0.0
  0
LINE
  5
144C
330
A
100
AcDbEntity
  8
MODEL
100
AcDbLine
 10
606.2267784771893
 20
2101.293518986429
 30
0.0
 11
606.5810265240643
 21
2101.153214421
 31
0.0
  0
LINE
  5
144D
330
A
100
AcDbEntity
  8
MODEL
100
AcDbLine
 10
606.5810265240643
 20
2101.153214421
 30
0.0
 11
607.0780968365643
 21
2101.017914738382
 31
0.0
  0
LINE
  5
144E
330
A
100
AcDbEntity
  8
MODEL
100
AcDbLine
 10
607.0780968365643
 20
2101.017914738382
 30
0.0
 11
607.7094444928143
 21
2100.890458073343
 31
0.0
  0
LINE
  5
144F
330
A
100
AcDbEntity
  8
MODEL
100
AcDbLine
 10
607.7094444928143
 20
2100.890458073343
 30
0.0
 11
608.4642052350018
 21
2100.773728337015
 31
0.0
  0
LINE
  5
1450
330
A
100
AcDbEntity
  8
MODEL
100
AcDbLine
 10
608.4642052350018
 20
2100.773728337015
 30
0.0
 11
609.3294396100018
 21
2100.670487370218
 31
0.0
  0
LINE
  5
1451
330
A
100
AcDbEntity
  8
MODEL
100
AcDbLine
 10
609.3294396100018
 20
2100.670487370218
 30
0.0
 11
610.2903771100018
 21
2100.583252873148
 31
0.0
  0
LINE
  5
1452
330
A
100
AcDbEntity
  8
MODEL
100
AcDbLine
 10
638.9313683209393
 20
2102.632172550882
 30
0.0
 11
640.1016564068768
 21
2102.624360050882
 31
0.0
  0
LINE
  5
1453
330
A
100
AcDbEntity
  8
MODEL
100
AcDbLine
 10
640.1016564068768
 20
2102.624360050882
 30
0.0
 11
641.2520470318768
 21
2102.601151432718
 31
0.0
  0
LINE
  5
1454
330
A
100
AcDbEntity
  8
MODEL
100
AcDbLine
 10
641.2520470318768
 20
2102.601151432718
 30
0.0
 11
642.3628868756268
 21
2102.562973942484
 31
0.0
  0
LINE
  5
1455
330
A
100
AcDbEntity
  8
MODEL
100
AcDbLine
 10
642.3628868756268
 20
2102.562973942484
 30
0.0
 11
643.4150108990643
 21
2102.510392155375
 31
0.0
  0
LINE
  5
1456
330
A
100
AcDbEntity
  8
MODEL
100
AcDbLine
 10
643.4150108990643
 20
2102.510392155375
 30
0.0
 11
644.3904747662518
 21
2102.44406219932
 31
0.0
  0
LINE
  5
1457
330
A
100
AcDbEntity
  8
MODEL
100
AcDbLine
 10
644.3904747662518
 20
2102.44406219932
 30
0.0
 11
645.2723107037518
 21
2102.364747013773
 31
0.0
  0
LINE
  5
1458
330
A
100
AcDbEntity
  8
MODEL
100
AcDbLine
 10
645.2723107037518
 20
2102.364747013773
 30
0.0
 11
646.0455040631268
 21
2102.273316349711
 31
0.0
  0
LINE
  5
1459
330
A
100
AcDbEntity
  8
MODEL
100
AcDbLine
 10
646.0455040631268
 20
2102.273316349711
 30
0.0
 11
646.6968712506268
 21
2102.170762028421
 31
0.0
  0
LINE
  5
145A
330
A
100
AcDbEntity
  8
MODEL
100
AcDbLine
 10
646.6968712506268
 20
2102.170762028421
 30
0.0
 11
647.2153038678143
 21
2102.058197941507
 31
0.0
  0
LINE
  5
145B
330
A
100
AcDbEntity
  8
MODEL
100
AcDbLine
 10
647.2153038678143
 20
2102.058197941507
 30
0.0
 11
647.5916466412518
 21
2101.937027897562
 31
0.0
  0
LINE
  5
145C
330
A
100
AcDbEntity
  8
MODEL
100
AcDbLine
 10
647.5916466412518
 20
2101.937027897562
 30
0.0
 11
647.8197960553143
 21
2101.808838810648
 31
0.0
  0
LINE
  5
145D
330
A
100
AcDbEntity
  8
MODEL
100
AcDbLine
 10
647.8197960553143
 20
2101.808838810648
 30
0.0
 11
647.8957237896893
 21
2101.675415959086
 31
0.0
  0
LINE
  5
145E
330
A
100
AcDbEntity
  8
MODEL
100
AcDbLine
 10
647.8957237896893
 20
2101.675415959086
 30
0.0
 11
647.8180870709393
 21
2101.53878876182
 31
0.0
  0
LINE
  5
145F
330
A
100
AcDbEntity
  8
MODEL
100
AcDbLine
 10
647.8180870709393
 20
2101.53878876182
 30
0.0
 11
647.5883507428143
 21
2101.401230778421
 31
0.0
  0
LINE
  5
1460
330
A
100
AcDbEntity
  8
MODEL
100
AcDbLine
 10
647.5883507428143
 20
2101.401230778421
 30
0.0
 11
647.2104210553143
 21
2101.265244450296
 31
0.0
  0
LINE
  5
1461
330
A
100
AcDbEntity
  8
MODEL
100
AcDbLine
 10
647.2104210553143
 20
2101.265244450296
 30
0.0
 11
646.6908898053143
 21
2101.133500065531
 31
0.0
  0
LINE
  5
1462
330
A
100
AcDbEntity
  8
MODEL
100
AcDbLine
 10
646.6908898053143
 20
2101.133500065531
 30
0.0
 11
646.0386681256268
 21
2101.00883575889
 31
0.0
  0
LINE
  5
1463
330
A
100
AcDbEntity
  8
MODEL
100
AcDbLine
 10
646.0386681256268
 20
2101.00883575889
 30
0.0
 11
645.2649864850018
 21
2100.894013371195
 31
0.0
  0
LINE
  5
1464
330
A
100
AcDbEntity
  8
MODEL
100
AcDbLine
 10
645.2649864850018
 20
2100.894013371195
 30
0.0
 11
644.3831505475018
 21
2100.791779484476
 31
0.0
  0
LINE
  5
1465
330
A
100
AcDbEntity
  8
MODEL
100
AcDbLine
 10
644.3831505475018
 20
2100.791779484476
 30
0.0
 11
643.4082970318768
 21
2100.704606022562
 31
0.0
  0
LINE
  5
1466
330
A
100
AcDbEntity
  8
MODEL
100
AcDbLine
 10
643.4082970318768
 20
2100.704606022562
 30
0.0
 11
642.3572716412518
 21
2100.634598698343
 31
0.0
  0
LINE
  5
1467
330
A
100
AcDbEntity
  8
MODEL
100
AcDbLine
 10
642.3572716412518
 20
2100.634598698343
 30
0.0
 11
641.2481407818768
 21
2100.583344425882
 31
0.0
  0
LINE
  5
1468
330
A
100
AcDbEntity
  8
MODEL
100
AcDbLine
 10
641.2481407818768
 20
2100.583344425882
 30
0.0
 11
640.0995812115643
 21
2100.552033390726
 31
0.0
  0
LINE
  5
1469
330
A
100
AcDbEntity
  8
MODEL
100
AcDbLine
 10
640.0995812115643
 20
2100.552033390726
 30
0.0
 11
638.9312462506268
 21
2100.541245426859
 31
0.0
  0
LINE
  5
146A
330
A
100
AcDbEntity
  8
MODEL
100
AcDbLine
 10
638.9312462506268
 20
2102.632172550882
 30
0.0
 11
637.7697472271893
 21
2102.624466862406
 31
0.0
  0
LINE
  5
146B
330
A
100
AcDbEntity
  8
MODEL
100
AcDbLine
 10
637.7697472271893
 20
2102.624466862406
 30
0.0
 11
636.6276573834393
 21
2102.60160919639
 31
0.0
  0
LINE
  5
146C
330
A
100
AcDbEntity
  8
MODEL
100
AcDbLine
 10
636.6276573834393
 20
2102.60160919639
 30
0.0
 11
635.5243858990643
 21
2102.563981022562
 31
0.0
  0
LINE
  5
146D
330
A
100
AcDbEntity
  8
MODEL
100
AcDbLine
 10
635.5243858990643
 20
2102.563981022562
 30
0.0
 11
634.4783653912518
 21
2102.512162174906
 31
0.0
  0
LINE
  5
146E
330
A
100
AcDbEntity
  8
MODEL
100
AcDbLine
 10
634.4783653912518
 20
2102.512162174906
 30
0.0
 11
633.5074181256268
 21
2102.446763004984
 31
0.0
  0
LINE
  5
146F
330
A
100
AcDbEntity
  8
MODEL
100
AcDbLine
 10
633.5074181256268
 20
2102.446763004984
 30
0.0
 11
632.6281456646893
 21
2102.368561711039
 31
0.0
  0
LINE
  5
1470
330
A
100
AcDbEntity
  8
MODEL
100
AcDbLine
 10
632.6281456646893
 20
2102.368561711039
 30
0.0
 11
631.8550743756268
 21
2102.278382267679
 31
0.0
  0
LINE
  5
1471
330
A
100
AcDbEntity
  8
MODEL
100
AcDbLine
 10
631.8550743756268
 20
2102.278382267679
 30
0.0
 11
631.2016319928143
 21
2102.177185978617
 31
0.0
  0
LINE
  5
1472
330
A
100
AcDbEntity
  8
MODEL
100
AcDbLine
 10
631.2016319928143
 20
2102.177185978617
 30
0.0
 11
630.6784386334393
 21
2102.066071476664
 31
0.0
  0
LINE
  5
1473
330
A
100
AcDbEntity
  8
MODEL
100
AcDbLine
 10
630.6784386334393
 20
2102.066071476664
 30
0.0
 11
630.2946495709393
 21
2101.946366276468
 31
0.0
  0
LINE
  5
1474
330
A
100
AcDbEntity
  8
MODEL
100
AcDbLine
 10
630.2946495709393
 20
2101.946366276468
 30
0.0
 11
630.0564903912518
 21
2101.819626774515
 31
0.0
  0
LINE
  5
1475
330
A
100
AcDbEntity
  8
MODEL
100
AcDbLine
 10
630.0564903912518
 20
2101.819626774515
 30
0.0
 11
629.9679894146893
 21
2101.687592472757
 31
0.0
  0
LINE
  5
1476
330
A
100
AcDbEntity
  8
MODEL
100
AcDbLine
 10
629.9679894146893
 20
2101.687592472757
 30
0.0
 11
630.0307335553143
 21
2101.552185978617
 31
0.0
  0
LINE
  5
1477
330
A
100
AcDbEntity
  8
MODEL
100
AcDbLine
 10
630.0307335553143
 20
2101.552185978617
 30
0.0
 11
630.2436241803143
 21
2101.415635075296
 31
0.0
  0
LINE
  5
1478
330
A
100
AcDbEntity
  8
MODEL
100
AcDbLine
 10
630.2436241803143
 20
2101.415635075296
 30
0.0
 11
630.6028771100018
 21
2101.280396427836
 31
0.0
  0
LINE
  5
1479
330
A
100
AcDbEntity
  8
MODEL
100
AcDbLine
 10
630.6028771100018
 20
2101.280396427836
 30
0.0
 11
631.1026329693768
 21
2101.149018254007
 31
0.0
  0
LINE
  5
147A
330
A
100
AcDbEntity
  8
MODEL
100
AcDbLine
 10
631.1026329693768
 20
2101.149018254007
 30
0.0
 11
631.7342247662518
 21
2101.024262394632
 31
0.0
  0
LINE
  5
147B
330
A
100
AcDbEntity
  8
MODEL
100
AcDbLine
 10
631.7342247662518
 20
2101.024262394632
 30
0.0
 11
632.4869103131268
 21
2100.908860172953
 31
0.0
  0
LINE
  5
147C
330
A
100
AcDbEntity
  8
MODEL
100
AcDbLine
 10
632.4869103131268
 20
2100.908860172953
 30
0.0
 11
633.3479942975018
 21
2100.805512394632
 31
0.0
  0
LINE
  5
147D
330
A
100
AcDbEntity
  8
MODEL
100
AcDbLine
 10
633.3479942975018
 20
2100.805512394632
 30
0.0
 11
634.3030724225018
 21
2100.716660465921
 31
0.0
  0
LINE
  5
147E
330
A
100
AcDbEntity
  8
MODEL
100
AcDbLine
 10
634.3030724225018
 20
2100.716660465921
 30
0.0
 11
635.7597374615643
 21
2100.620926823343
 31
0.0
  0
LINE
  5
147F
330
A
100
AcDbEntity
  8
MODEL
100
AcDbLine
 10
635.7597374615643
 20
2100.620926823343
 30
0.0
 11
637.3194298443768
 21
2100.561646427836
 31
0.0
  0
LINE
  5
1480
330
A
100
AcDbEntity
  8
MODEL
100
AcDbLine
 10
637.3194298443768
 20
2100.561646427836
 30
0.0
 11
638.9312462506268
 21
2100.541245426859
 31
0.0
  0
LINE
  5
1481
330
A
100
AcDbEntity
  8
MODEL
100
AcDbLine
 10
667.5722374615643
 20
2100.583252873148
 30
0.0
 11
666.5320763287518
 21
2100.514252629007
 31
0.0
  0
LINE
  5
1482
330
A
100
AcDbEntity
  8
MODEL
100
AcDbLine
 10
666.5320763287518
 20
2100.514252629007
 30
0.0
 11
665.4303917584393
 21
2100.465256657328
 31
0.0
  0
LINE
  5
1483
330
A
100
AcDbEntity
  8
MODEL
100
AcDbLine
 10
665.4303917584393
 20
2100.465256657328
 30
0.0
 11
664.2862267193768
 21
2100.437592472757
 31
0.0
  0
LINE
  5
1484
330
A
100
AcDbEntity
  8
MODEL
100
AcDbLine
 10
664.2862267193768
 20
2100.437592472757
 30
0.0
 11
663.1189903912518
 21
2100.431961979593
 31
0.0
  0
LINE
  5
1485
330
A
100
AcDbEntity
  8
MODEL
100
AcDbLine
 10
663.1189903912518
 20
2100.431961979593
 30
0.0
 11
661.9484581646893
 21
2100.448502506937
 31
0.0
  0
LINE
  5
1486
330
A
100
AcDbEntity
  8
MODEL
100
AcDbLine
 10
661.9484581646893
 20
2100.448502506937
 30
0.0
 11
660.7948937115643
 21
2100.486741032328
 31
0.0
  0
LINE
  5
1487
330
A
100
AcDbEntity
  8
MODEL
100
AcDbLine
 10
660.7948937115643
 20
2100.486741032328
 30
0.0
 11
659.6777062115643
 21
2100.545578922953
 31
0.0
  0
LINE
  5
1488
330
A
100
AcDbEntity
  8
MODEL
100
AcDbLine
 10
659.6777062115643
 20
2100.545578922953
 30
0.0
 11
658.6161827740643
 21
2100.623414005961
 31
0.0
  0
LINE
  5
1489
330
A
100
AcDbEntity
  8
MODEL
100
AcDbLine
 10
658.6161827740643
 20
2100.623414005961
 30
0.0
 11
657.6281456646893
 21
2100.718125309671
 31
0.0
  0
LINE
  5
148A
330
A
100
AcDbEntity
  8
MODEL
100
AcDbLine
 10
657.6281456646893
 20
2100.718125309671
 30
0.0
 11
656.7306847271893
 21
2100.827317204203
 31
0.0
  0
LINE
  5
148B
330
A
100
AcDbEntity
  8
MODEL
100
AcDbLine
 10
656.7306847271893
 20
2100.827317204203
 30
0.0
 11
655.9391808209393
 21
2100.94828888389
 31
0.0
  0
LINE
  5
148C
330
A
100
AcDbEntity
  8
MODEL
100
AcDbLine
 10
655.9391808209393
 20
2100.94828888389
 30
0.0
 11
655.2669396100018
 21
2101.078247990336
 31
0.0
  0
LINE
  5
148D
330
A
100
AcDbEntity
  8
MODEL
100
AcDbLine
 10
655.2669396100018
 20
2101.078247990336
 30
0.0
 11
654.7256798443768
 21
2101.214386906351
 31
0.0
  0
LINE
  5
148E
330
A
100
AcDbEntity
  8
MODEL
100
AcDbLine
 10
654.7256798443768
 20
2101.214386906351
 30
0.0
 11
654.3246788678143
 21
2101.35389801475
 31
0.0
  0
LINE
  5
148F
330
A
100
AcDbEntity
  8
MODEL
100
AcDbLine
 10
654.3246788678143
 20
2101.35389801475
 30
0.0
 11
654.0708946881268
 21
2101.494126286234
 31
0.0
  0
LINE
  5
1490
330
A
100
AcDbEntity
  8
MODEL
100
AcDbLine
 10
654.0708946881268
 20
2101.494126286234
 30
0.0
 11
653.9685997662518
 21
2101.632615055765
 31
0.0
  0
LINE
  5
1491
330
A
100
AcDbEntity
  8
MODEL
100
AcDbLine
 10
653.9685997662518
 20
2101.632615055765
 30
0.0
 11
654.0197472271893
 21
2101.76713654014
 31
0.0
  0
LINE
  5
1492
330
A
100
AcDbEntity
  8
MODEL
100
AcDbLine
 10
654.0197472271893
 20
2101.76713654014
 30
0.0
 11
654.2233605084393
 21
2101.895768131937
 31
0.0
  0
LINE
  5
1493
330
A
100
AcDbEntity
  8
MODEL
100
AcDbLine
 10
654.2233605084393
 20
2101.895768131937
 30
0.0
 11
654.5758995709393
 21
2102.016755070414
 31
0.0
  0
LINE
  5
1494
330
A
100
AcDbEntity
  8
MODEL
100
AcDbLine
 10
654.5758995709393
 20
2102.016755070414
 30
0.0
 11
655.0716271100018
 21
2102.12863251182
 31
0.0
  0
LINE
  5
1495
330
A
100
AcDbEntity
  8
MODEL
100
AcDbLine
 10
655.0716271100018
 20
2102.12863251182
 30
0.0
 11
655.7018761334393
 21
2102.230072941507
 31
0.0
  0
LINE
  5
1496
330
A
100
AcDbEntity
  8
MODEL
100
AcDbLine
 10
655.7018761334393
 20
2102.230072941507
 30
0.0
 11
656.4560265240643
 21
2102.320008244242
 31
0.0
  0
LINE
  5
1497
330
A
100
AcDbEntity
  8
MODEL
100
AcDbLine
 10
656.4560265240643
 20
2102.320008244242
 30
0.0
 11
657.3212608990643
 21
2102.397477116312
 31
0.0
  0
LINE
  5
1498
330
A
100
AcDbEntity
  8
MODEL
100
AcDbLine
 10
657.3212608990643
 20
2102.397477116312
 30
0.0
 11
658.2825646100018
 21
2102.461716618265
 31
0.0
  0
LINE
  5
1499
330
A
100
AcDbEntity
  8
MODEL
100
AcDbLine
 10
658.2825646100018
 20
2102.461716618265
 30
0.0
 11
659.3237023053143
 21
2102.512070622171
 31
0.0
  0
LINE
  5
149A
330
A
100
AcDbEntity
  8
MODEL
100
AcDbLine
 10
659.3237023053143
 20
2102.512070622171
 30
0.0
 11
660.4267296490643
 21
2102.548035587992
 31
0.0
  0
LINE
  5
149B
330
A
100
AcDbEntity
  8
MODEL
100
AcDbLine
 10
660.4267296490643
 20
2102.548035587992
 30
0.0
 11
661.5727257428143
 21
2102.569184269632
 31
0.0
  0
LINE
  5
149C
330
A
100
AcDbEntity
  8
MODEL
100
AcDbLine
 10
661.5727257428143
 20
2102.569184269632
 30
0.0
 11
662.7419151959393
 21
2102.575257267679
 31
0.0
  0
LINE
  5
149D
330
A
100
AcDbEntity
  8
MODEL
100
AcDbLine
 10
662.7419151959393
 20
2102.575257267679
 30
0.0
 11
663.9145226178143
 21
2102.566086735453
 31
0.0
  0
LINE
  5
149E
330
A
100
AcDbEntity
  8
MODEL
100
AcDbLine
 10
663.9145226178143
 20
2102.566086735453
 30
0.0
 11
665.0701622662518
 21
2102.541657414164
 31
0.0
  0
LINE
  5
149F
330
A
100
AcDbEntity
  8
MODEL
100
AcDbLine
 10
665.0701622662518
 20
2102.541657414164
 30
0.0
 11
666.1890587506268
 21
2102.502106632914
 31
0.0
  0
LINE
  5
14A0
330
A
100
AcDbEntity
  8
MODEL
100
AcDbLine
 10
666.1890587506268
 20
2102.502106632914
 30
0.0
 11
667.2520470318768
 21
2102.447739567484
 31
0.0
  0
LINE
  5
14A1
330
A
100
AcDbEntity
  8
MODEL
100
AcDbLine
 10
667.2520470318768
 20
2102.447739567484
 30
0.0
 11
668.2409386334393
 21
2102.379029240336
 31
0.0
  0
LINE
  5
14A2
330
A
100
AcDbEntity
  8
MODEL
100
AcDbLine
 10
668.2409386334393
 20
2102.379029240336
 30
0.0
 11
669.1387657818768
 21
2102.296631779398
 31
0.0
  0
LINE
  5
14A3
330
A
100
AcDbEntity
  8
MODEL
100
AcDbLine
 10
669.1387657818768
 20
2102.296631779398
 30
0.0
 11
669.9302696881268
 21
2102.201401676859
 31
0.0
  0
LINE
  5
14A4
330
A
100
AcDbEntity
  8
MODEL
100
AcDbLine
 10
669.9302696881268
 20
2102.201401676859
 30
0.0
 11
670.6017784771893
 21
2102.094437565531
 31
0.0
  0
LINE
  5
14A5
330
A
100
AcDbEntity
  8
MODEL
100
AcDbLine
 10
670.6017784771893
 20
2102.094437565531
 30
0.0
 11
671.1420616803143
 21
2101.976975407328
 31
0.0
  0
LINE
  5
14A6
330
A
100
AcDbEntity
  8
MODEL
100
AcDbLine
 10
671.1420616803143
 20
2101.976975407328
 30
0.0
 11
671.5415978131268
 21
2101.850541081156
 31
0.0
  0
LINE
  5
14A7
330
A
100
AcDbEntity
  8
MODEL
100
AcDbLine
 10
671.5415978131268
 20
2101.850541081156
 30
0.0
 11
671.7937950787518
 21
2101.716874088968
 31
0.0
  0
LINE
  5
14A8
330
A
100
AcDbEntity
  8
MODEL
100
AcDbLine
 10
671.7937950787518
 20
2101.716874088968
 30
0.0
 11
671.8942589459393
 21
2101.577927555765
 31
0.0
  0
LINE
  5
14A9
330
A
100
AcDbEntity
  8
MODEL
100
AcDbLine
 10
671.8942589459393
 20
2101.577927555765
 30
0.0
 11
671.8412804303143
 21
2101.435975041117
 31
0.0
  0
LINE
  5
14AA
330
A
100
AcDbEntity
  8
MODEL
100
AcDbLine
 10
671.8412804303143
 20
2101.435975041117
 30
0.0
 11
671.6358360943768
 21
2101.293518986429
 31
0.0
  0
LINE
  5
14AB
330
A
100
AcDbEntity
  8
MODEL
100
AcDbLine
 10
671.6358360943768
 20
2101.293518986429
 30
0.0
 11
671.2815880475018
 21
2101.153214421
 31
0.0
  0
LINE
  5
14AC
330
A
100
AcDbEntity
  8
MODEL
100
AcDbLine
 10
671.2815880475018
 20
2101.153214421
 30
0.0
 11
670.7845177350018
 21
2101.017914738382
 31
0.0
  0
LINE
  5
14AD
330
A
100
AcDbEntity
  8
MODEL
100
AcDbLine
 10
670.7845177350018
 20
2101.017914738382
 30
0.0
 11
670.1531700787518
 21
2100.890458073343
 31
0.0
  0
LINE
  5
14AE
330
A
100
AcDbEntity
  8
MODEL
100
AcDbLine
 10
670.1531700787518
 20
2100.890458073343
 30
0.0
 11
669.3984093365643
 21
2100.773728337015
 31
0.0
  0
LINE
  5
14AF
330
A
100
AcDbEntity
  8
MODEL
100
AcDbLine
 10
669.3984093365643
 20
2100.773728337015
 30
0.0
 11
668.5331749615643
 21
2100.670487370218
 31
0.0
  0
LINE
  5
14B0
330
A
100
AcDbEntity
  8
MODEL
100
AcDbLine
 10
668.5331749615643
 20
2100.670487370218
 30
0.0
 11
667.5722374615643
 21
2100.583252873148
 31
0.0
  0
LINE
  5
14B1
330
A
100
AcDbEntity
  8
MODEL
100
AcDbLine
 10
655.3572716412518
 20
2102.100464787211
 30
0.0
 11
655.4457726178143
 21
2102.123703922953
 31
0.0
  0
LINE
  5
14B2
330
A
100
AcDbEntity
  8
MODEL
100
AcDbLine
 10
655.4457726178143
 20
2102.123703922953
 30
0.0
 11
655.6770958600018
 21
2102.171463932718
 31
0.0
  0
LINE
  5
14B3
330
A
100
AcDbEntity
  8
MODEL
100
AcDbLine
 10
655.6770958600018
 20
2102.171463932718
 30
0.0
 11
656.0166954693768
 21
2102.227158512796
 31
0.0
  0
LINE
  5
14B4
330
A
100
AcDbEntity
  8
MODEL
100
AcDbLine
 10
656.0166954693768
 20
2102.227158512796
 30
0.0
 11
656.4428429303143
 21
2102.283478703226
 31
0.0
  0
LINE
  5
14B5
330
A
100
AcDbEntity
  8
MODEL
100
AcDbLine
 10
656.4428429303143
 20
2102.283478703226
 30
0.0
 11
656.9418663678143
 21
2102.33712860557
 31
0.0
  0
LINE
  5
14B6
330
A
100
AcDbEntity
  8
MODEL
100
AcDbLine
 10
656.9418663678143
 20
2102.33712860557
 30
0.0
 11
657.5032677350018
 21
2102.386521305765
 31
0.0
  0
LINE
  5
14B7
330
A
100
AcDbEntity
  8
MODEL
100
AcDbLine
 10
657.5032677350018
 20
2102.386521305765
 30
0.0
 11
658.1185021100018
 21
2102.430649723734
 31
0.0
  0
LINE
  5
14B8
330
A
100
AcDbEntity
  8
MODEL
100
AcDbLine
 10
658.1185021100018
 20
2102.430649723734
 30
0.0
 11
658.7795128521893
 21
2102.468872990336
 31
0.0
  0
LINE
  5
14B9
330
A
100
AcDbEntity
  8
MODEL
100
AcDbLine
 10
658.7795128521893
 20
2102.468872990336
 30
0.0
 11
659.4793419537518
 21
2102.500763859476
 31
0.0
  0
LINE
  5
14BA
330
A
100
AcDbEntity
  8
MODEL
100
AcDbLine
 10
659.4793419537518
 20
2102.500763859476
 30
0.0
 11
660.2106651959393
 21
2102.526078190531
 31
0.0
  0
LINE
  5
14BB
330
A
100
AcDbEntity
  8
MODEL
100
AcDbLine
 10
660.2106651959393
 20
2102.526078190531
 30
0.0
 11
660.9665245709393
 21
2102.544632878031
 31
0.0
  0
LINE
  5
14BC
330
A
100
AcDbEntity
  8
MODEL
100
AcDbLine
 10
660.9665245709393
 20
2102.544632878031
 30
0.0
 11
661.7399620709393
 21
2102.556214298929
 31
0.0
  0
LINE
  5
14BD
330
A
100
AcDbEntity
  8
MODEL
100
AcDbLine
 10
661.7399620709393
 20
2102.556214298929
 30
0.0
 11
662.5238976178143
 21
2102.560715641703
 31
0.0
  0
LINE
  5
14BE
330
A
100
AcDbEntity
  8
MODEL
100
AcDbLine
 10
662.5238976178143
 20
2102.560715641703
 30
0.0
 11
663.3116173443768
 21
2102.558091129984
 31
0.0
  0
LINE
  5
14BF
330
A
100
AcDbEntity
  8
MODEL
100
AcDbLine
 10
663.3116173443768
 20
2102.558091129984
 30
0.0
 11
664.0957970318768
 21
2102.548340763773
 31
0.0
  0
LINE
  5
14C0
330
A
100
AcDbEntity
  8
MODEL
100
AcDbLine
 10
664.0957970318768
 20
2102.548340763773
 30
0.0
 11
664.8697228131268
 21
2102.531495060648
 31
0.0
  0
LINE
  5
14C1
330
A
100
AcDbEntity
  8
MODEL
100
AcDbLine
 10
664.8697228131268
 20
2102.531495060648
 30
0.0
 11
665.6263146100018
 21
2102.507599796976
 31
0.0
  0
LINE
  5
14C2
330
A
100
AcDbEntity
  8
MODEL
100
AcDbLine
 10
665.6263146100018
 20
2102.507599796976
 30
0.0
 11
666.3583702740643
 21
2102.476792301859
 31
0.0
  0
LINE
  5
14C3
330
A
100
AcDbEntity
  8
MODEL
100
AcDbLine
 10
666.3583702740643
 20
2102.476792301859
 30
0.0
 11
667.0589317975018
 21
2102.439301457132
 31
0.0
  0
LINE
  5
14C4
330
A
100
AcDbEntity
  8
MODEL
100
AcDbLine
 10
667.0589317975018
 20
2102.439301457132
 30
0.0
 11
667.7210411725018
 21
2102.395401921
 31
0.0
  0
LINE
  5
14C5
330
A
100
AcDbEntity
  8
MODEL
100
AcDbLine
 10
667.7210411725018
 20
2102.395401921
 30
0.0
 11
668.3370079693768
 21
2102.345566715921
 31
0.0
  0
LINE
  5
14C6
330
A
100
AcDbEntity
  8
MODEL
100
AcDbLine
 10
668.3370079693768
 20
2102.345566715921
 30
0.0
 11
668.8992638287518
 21
2102.290482487406
 31
0.0
  0
LINE
  5
14C7
330
A
100
AcDbEntity
  8
MODEL
100
AcDbLine
 10
668.8992638287518
 20
2102.290482487406
 30
0.0
 11
669.3988976178143
 21
2102.231293644632
 31
0.0
  0
LINE
  5
14C8
330
A
100
AcDbEntity
  8
MODEL
100
AcDbLine
 10
669.3988976178143
 20
2102.231293644632
 30
0.0
 11
669.8255333600018
 21
2102.169754948343
 31
0.0
  0
LINE
  5
14C9
330
A
100
AcDbEntity
  8
MODEL
100
AcDbLine
 10
669.8255333600018
 20
2102.169754948343
 30
0.0
 11
670.1646446881268
 21
2102.109711613382
 31
0.0
  0
LINE
  5
14CA
330
A
100
AcDbEntity
  8
MODEL
100
AcDbLine
 10
670.1646446881268
 20
2102.109711613382
 30
0.0
 11
670.3957237896893
 21
2102.058396305765
 31
0.0
  0
LINE
  5
14CB
330
A
100
AcDbEntity
  8
MODEL
100
AcDbLine
 10
670.3957237896893
 20
2102.058396305765
 30
0.0
 11
670.4837364850018
 21
2102.033814396586
 31
0.0
  0
LINE
  5
14CC
330
A
100
AcDbEntity
  8
MODEL
100
AcDbLine
 10
638.9312462506268
 20
2102.618103947367
 30
0.0
 11
638.2212853131268
 21
2102.615143742289
 31
0.0
  0
LINE
  5
14CD
330
A
100
AcDbEntity
  8
MODEL
100
AcDbLine
 10
638.2212853131268
 20
2102.615143742289
 30
0.0
 11
637.5162071881268
 21
2102.606263127054
 31
0.0
  0
LINE
  5
14CE
330
A
100
AcDbEntity
  8
MODEL
100
AcDbLine
 10
637.5162071881268
 20
2102.606263127054
 30
0.0
 11
636.8216271100018
 21
2102.591568913187
 31
0.0
  0
LINE
  5
14CF
330
A
100
AcDbEntity
  8
MODEL
100
AcDbLine
 10
636.8216271100018
 20
2102.591568913187
 30
0.0
 11
636.1423058209393
 21
2102.571198429789
 31
0.0
  0
LINE
  5
14D0
330
A
100
AcDbEntity
  8
MODEL
100
AcDbLine
 10
636.1423058209393
 20
2102.571198429789
 30
0.0
 11
635.4834923443768
 21
2102.545289005961
 31
0.0
  0
LINE
  5
14D1
330
A
100
AcDbEntity
  8
MODEL
100
AcDbLine
 10
635.4834923443768
 20
2102.545289005961
 30
0.0
 11
634.8503136334393
 21
2102.514084782328
 31
0.0
  0
LINE
  5
14D2
330
A
100
AcDbEntity
  8
MODEL
100
AcDbLine
 10
634.8503136334393
 20
2102.514084782328
 30
0.0
 11
634.2478966412518
 21
2102.477784123148
 31
0.0
  0
LINE
  5
14D3
330
A
100
AcDbEntity
  8
MODEL
100
AcDbLine
 10
634.2478966412518
 20
2102.477784123148
 30
0.0
 11
633.6816124615643
 21
2102.436753239359
 31
0.0
  0
LINE
  5
14D4
330
A
100
AcDbEntity
  8
MODEL
100
AcDbLine
 10
633.6816124615643
 20
2102.436753239359
 30
0.0
 11
633.1570763287518
 21
2102.391434635843
 31
0.0
  0
LINE
  5
14D5
330
A
100
AcDbEntity
  8
MODEL
100
AcDbLine
 10
633.1570763287518
 20
2102.391434635843
 30
0.0
 11
632.6802696881268
 21
2102.342423405375
 31
0.0
  0
LINE
  5
14D6
330
A
100
AcDbEntity
  8
MODEL
100
AcDbLine
 10
632.6802696881268
 20
2102.342423405375
 30
0.0
 11
632.2581505475018
 21
2102.290726628031
 31
0.0
  0
LINE
  5
14D7
330
A
100
AcDbEntity
  8
MODEL
100
AcDbLine
 10
632.2581505475018
 20
2102.290726628031
 30
0.0
 11
631.8993858990643
 21
2102.238083805765
 31
0.0
  0
LINE
  5
14D8
330
A
100
AcDbEntity
  8
MODEL
100
AcDbLine
 10
631.8993858990643
 20
2102.238083805765
 30
0.0
 11
631.6150841412518
 21
2102.187363590921
 31
0.0
  0
LINE
  5
14D9
330
A
100
AcDbEntity
  8
MODEL
100
AcDbLine
 10
631.6150841412518
 20
2102.187363590921
 30
0.0
 11
631.4228233990643
 21
2102.145157780375
 31
0.0
  0
LINE
  5
14DA
330
A
100
AcDbEntity
  8
MODEL
100
AcDbLine
 10
631.4228233990643
 20
2102.145157780375
 30
0.0
 11
631.3503136334393
 21
2102.125290837015
 31
0.0
  0
LINE
  5
14DB
330
A
100
AcDbEntity
  8
MODEL
100
AcDbLine
 10
638.9313683209393
 20
2102.618103947367
 30
0.0
 11
639.6413292584393
 21
2102.615143742289
 31
0.0
  0
LINE
  5
14DC
330
A
100
AcDbEntity
  8
MODEL
100
AcDbLine
 10
639.6413292584393
 20
2102.615143742289
 30
0.0
 11
640.3464073834393
 21
2102.606263127054
 31
0.0
  0
LINE
  5
14DD
330
A
100
AcDbEntity
  8
MODEL
100
AcDbLine
 10
640.3464073834393
 20
2102.606263127054
 30
0.0
 11
641.0411095318768
 21
2102.591584171976
 31
0.0
  0
LINE
  5
14DE
330
A
100
AcDbEntity
  8
MODEL
100
AcDbLine
 10
641.0411095318768
 20
2102.591584171976
 30
0.0
 11
641.7204308209393
 21
2102.571213688578
 31
0.0
  0
LINE
  5
14DF
330
A
100
AcDbEntity
  8
MODEL
100
AcDbLine
 10
641.7204308209393
 20
2102.571213688578
 30
0.0
 11
642.3792442975018
 21
2102.54530426475
 31
0.0
  0
LINE
  5
14E0
330
A
100
AcDbEntity
  8
MODEL
100
AcDbLine
 10
642.3792442975018
 20
2102.54530426475
 30
0.0
 11
643.0124230084393
 21
2102.514100041117
 31
0.0
  0
LINE
  5
14E1
330
A
100
AcDbEntity
  8
MODEL
100
AcDbLine
 10
643.0124230084393
 20
2102.514100041117
 30
0.0
 11
643.6148400006268
 21
2102.477814640726
 31
0.0
  0
LINE
  5
14E2
330
A
100
AcDbEntity
  8
MODEL
100
AcDbLine
 10
643.6148400006268
 20
2102.477814640726
 30
0.0
 11
644.1812462506268
 21
2102.436783756937
 31
0.0
  0
LINE
  5
14E3
330
A
100
AcDbEntity
  8
MODEL
100
AcDbLine
 10
644.1812462506268
 20
2102.436783756937
 30
0.0
 11
644.7057823834393
 21
2102.391449894632
 31
0.0
  0
LINE
  5
14E4
330
A
100
AcDbEntity
  8
MODEL
100
AcDbLine
 10
644.7057823834393
 20
2102.391449894632
 30
0.0
 11
645.1825890240643
 21
2102.342469181742
 31
0.0
  0
LINE
  5
14E5
330
A
100
AcDbEntity
  8
MODEL
100
AcDbLine
 10
645.1825890240643
 20
2102.342469181742
 30
0.0
 11
645.6048302350018
 21
2102.290757145609
 31
0.0
  0
LINE
  5
14E6
330
A
100
AcDbEntity
  8
MODEL
100
AcDbLine
 10
645.6048302350018
 20
2102.290757145609
 30
0.0
 11
645.9637169537518
 21
2102.238099064554
 31
0.0
  0
LINE
  5
14E7
330
A
100
AcDbEntity
  8
MODEL
100
AcDbLine
 10
645.9637169537518
 20
2102.238099064554
 30
0.0
 11
646.2481407818768
 21
2102.1873941085
 31
0.0
  0
LINE
  5
14E8
330
A
100
AcDbEntity
  8
MODEL
100
AcDbLine
 10
646.2481407818768
 20
2102.1873941085
 30
0.0
 11
646.4404015240643
 21
2102.145173039164
 31
0.0
  0
LINE
  5
14E9
330
A
100
AcDbEntity
  8
MODEL
100
AcDbLine
 10
646.4404015240643
 20
2102.145173039164
 30
0.0
 11
646.5132775006268
 21
2102.125321354593
 31
0.0
  0
LINE
  5
14EA
330
A
100
AcDbEntity
  8
MODEL
100
AcDbLine
 10
607.3787560162518
 20
2102.033814396586
 30
0.0
 11
607.4668907818768
 21
2102.058411564554
 31
0.0
  0
LINE
  5
14EB
330
A
100
AcDbEntity
  8
MODEL
100
AcDbLine
 10
607.4668907818768
 20
2102.058411564554
 30
0.0
 11
607.6977257428143
 21
2102.10958954307
 31
0.0
  0
LINE
  5
14EC
330
A
100
AcDbEntity
  8
MODEL
100
AcDbLine
 10
607.6977257428143
 20
2102.10958954307
 30
0.0
 11
608.0370812115643
 21
2102.169739689554
 31
0.0
  0
LINE
  5
14ED
330
A
100
AcDbEntity
  8
MODEL
100
AcDbLine
 10
608.0370812115643
 20
2102.169739689554
 30
0.0
 11
608.4635948834393
 21
2102.231278385843
 31
0.0
  0
LINE
  5
14EE
330
A
100
AcDbEntity
  8
MODEL
100
AcDbLine
 10
608.4635948834393
 20
2102.231278385843
 30
0.0
 11
608.9632286725018
 21
2102.290467228617
 31
0.0
  0
LINE
  5
14EF
330
A
100
AcDbEntity
  8
MODEL
100
AcDbLine
 10
608.9632286725018
 20
2102.290467228617
 30
0.0
 11
609.5254845318768
 21
2102.345551457132
 31
0.0
  0
LINE
  5
14F0
330
A
100
AcDbEntity
  8
MODEL
100
AcDbLine
 10
609.5254845318768
 20
2102.345551457132
 30
0.0
 11
610.1415733990643
 21
2102.395401921
 31
0.0
  0
LINE
  5
14F1
330
A
100
AcDbEntity
  8
MODEL
100
AcDbLine
 10
610.1415733990643
 20
2102.395401921
 30
0.0
 11
610.8035607037518
 21
2102.439301457132
 31
0.0
  0
LINE
  5
14F2
330
A
100
AcDbEntity
  8
MODEL
100
AcDbLine
 10
610.8035607037518
 20
2102.439301457132
 30
0.0
 11
611.5042442975018
 21
2102.47677704307
 31
0.0
  0
LINE
  5
14F3
330
A
100
AcDbEntity
  8
MODEL
100
AcDbLine
 10
611.5042442975018
 20
2102.47677704307
 30
0.0
 11
612.2364220318768
 21
2102.507569279398
 31
0.0
  0
LINE
  5
14F4
330
A
100
AcDbEntity
  8
MODEL
100
AcDbLine
 10
612.2364220318768
 20
2102.507569279398
 30
0.0
 11
612.9928917584393
 21
2102.531479801859
 31
0.0
  0
LINE
  5
14F5
330
A
100
AcDbEntity
  8
MODEL
100
AcDbLine
 10
612.9928917584393
 20
2102.531479801859
 30
0.0
 11
613.7668175396893
 21
2102.548371281351
 31
0.0
  0
LINE
  5
14F6
330
A
100
AcDbEntity
  8
MODEL
100
AcDbLine
 10
613.7668175396893
 20
2102.548371281351
 30
0.0
 11
614.5511192975018
 21
2102.558106388773
 31
0.0
  0
LINE
  5
14F7
330
A
100
AcDbEntity
  8
MODEL
100
AcDbLine
 10
614.5511192975018
 20
2102.558106388773
 30
0.0
 11
615.3387169537518
 21
2102.560700382914
 31
0.0
  0
LINE
  5
14F8
330
A
100
AcDbEntity
  8
MODEL
100
AcDbLine
 10
615.3387169537518
 20
2102.560700382914
 30
0.0
 11
616.1227745709393
 21
2102.556183781351
 31
0.0
  0
LINE
  5
14F9
330
A
100
AcDbEntity
  8
MODEL
100
AcDbLine
 10
616.1227745709393
 20
2102.556183781351
 30
0.0
 11
616.8963341412518
 21
2102.544632878031
 31
0.0
  0
LINE
  5
14FA
330
A
100
AcDbEntity
  8
MODEL
100
AcDbLine
 10
616.8963341412518
 20
2102.544632878031
 30
0.0
 11
617.6521935162518
 21
2102.526108708109
 31
0.0
  0
LINE
  5
14FB
330
A
100
AcDbEntity
  8
MODEL
100
AcDbLine
 10
617.6521935162518
 20
2102.526108708109
 30
0.0
 11
618.3835167584393
 21
2102.500763859476
 31
0.0
  0
LINE
  5
14FC
330
A
100
AcDbEntity
  8
MODEL
100
AcDbLine
 10
618.3835167584393
 20
2102.500763859476
 30
0.0
 11
619.0832237896893
 21
2102.468857731546
 31
0.0
  0
LINE
  5
14FD
330
A
100
AcDbEntity
  8
MODEL
100
AcDbLine
 10
619.0832237896893
 20
2102.468857731546
 30
0.0
 11
619.7443566021893
 21
2102.430634464945
 31
0.0
  0
LINE
  5
14FE
330
A
100
AcDbEntity
  8
MODEL
100
AcDbLine
 10
619.7443566021893
 20
2102.430634464945
 30
0.0
 11
620.3594689068768
 21
2102.386506046976
 31
0.0
  0
LINE
  5
14FF
330
A
100
AcDbEntity
  8
MODEL
100
AcDbLine
 10
620.3594689068768
 20
2102.386506046976
 30
0.0
 11
620.9208702740643
 21
2102.337113346781
 31
0.0
  0
LINE
  5
1500
330
A
100
AcDbEntity
  8
MODEL
100
AcDbLine
 10
620.9208702740643
 20
2102.337113346781
 30
0.0
 11
621.4198937115643
 21
2102.283448185648
 31
0.0
  0
LINE
  5
1501
330
A
100
AcDbEntity
  8
MODEL
100
AcDbLine
 10
621.4198937115643
 20
2102.283448185648
 30
0.0
 11
621.8460411725018
 21
2102.227112736429
 31
0.0
  0
LINE
  5
1502
330
A
100
AcDbEntity
  8
MODEL
100
AcDbLine
 10
621.8460411725018
 20
2102.227112736429
 30
0.0
 11
622.1853966412518
 21
2102.171570744242
 31
0.0
  0
LINE
  5
1503
330
A
100
AcDbEntity
  8
MODEL
100
AcDbLine
 10
622.1853966412518
 20
2102.171570744242
 30
0.0
 11
622.4169640240643
 21
2102.123627629007
 31
0.0
  0
LINE
  5
1504
330
A
100
AcDbEntity
  8
MODEL
100
AcDbLine
 10
622.4169640240643
 20
2102.123627629007
 30
0.0
 11
622.5054650006268
 21
2102.100403752054
 31
0.0
  0
SOLID
  5
1761
330
A
100
AcDbEntity
  8
MODEL
 48
0.3
100
AcDbTrace
 10
1773.05557419472
 20
1098.495432559609
 30
0.0
 11
1773.05557419472
 21
1098.495442963024
 31
0.0
 12
1773.055571369713
 22
1033.866745936827
 32
0.0
 13
1773.055571369713
 23
1033.866745936827
 33
0.0
  0
SOLID
  5
1762
330
A
100
AcDbEntity
  8
MODEL
 48
0.3
100
AcDbTrace
 10
1773.055571369713
 20
1033.866745936827
 30
0.0
 11
1773.05557419472
 21
1098.495442963024
 31
0.0
 12
1773.055571369713
 22
1098.495449783194
 32
0.0
 13
1773.055571369713
 23
1098.495449783194
 33
0.0
  0
LINE
  5
1D08
330
A
100
AcDbEntity
  8
MODEL
  6
STYLE_12
100
AcDbLine
 10
1556.055568943283
 20
901.4954544591199
 30
0.0
 11
1556.726374613287
 21
939.9259818232929
 31
0.0
  0
SPLINE
  5
1D09
330
A
100
AcDbEntity
  8
MODEL
100
AcDbSpline
210
0.0
220
0.0
230
1.0
 70
     8
 71
     4
 72
    10
 73
     5
 74
     0
 42
0.000000001
 43
0.0000000001
 40
0.4562965754796
 40
0.4562965754796
 40
0.4562965754796
 40
0.4562965754796
 40
0.4562965754796
 40
0.4901609915978939
 40
0.4901609915978939
 40
0.4901609915978939
 40
0.4901609915978939
 40
0.4901609915978939
 10
1639.404041367276
 20
962.3057004968864
 30
0.0
 10
1640.411249569458
 20
964.0155779628503
 30
0.0
 10
1641.39376228479
 20
965.742062707428
 30
0.0
 10
1642.351852336652
 20
967.4836610893581
 30
0.0
 10
1643.285810591452
 20
969.2389251259253
 30
0.0
  0
LINE
  5
1D10
330
A
100
AcDbEntity
  8
MODEL
  6
STYLE_12
100
AcDbLine
 10
1493.022444478711
 20
952.1369847307976
 30
0.0
 11
1573.701613514457
 21
952.9717604751202
 31
0.0
  0
SPLINE
  5
1D11
330
A
100
AcDbEntity
  8
MODEL
  6
STYLE_12
100
AcDbSpline
210
0.0
220
0.0
230
1.0
 70
     8
 71
     3
 72
    23
 73
    19
 74
    17
 42
0.000000001
 43
0.0000000001
 44
0.0
 40
0.0
 40
0.0
 40
0.0
 40
0.0
 40
7.277508580350614
 40
14.55502874804577
 40
24.59153603646398
 40
33.80066156941261
 40
52.48137046257808
 40
75.46920296685707
 40
104.6605260587276
 40
129.2327632172035
 40
147.8855008540046
 40
157.1979805904037
 40
164.9019726997741
 40
171.4387375218801
 40
174.0408905559382
 40
178.4942241153034
 40
185.6983001841774
 40
192.9023762530513
 40
192.9023762530513
 40
192.9023762530513
 40
192.9023762530513
 10
1647.246284156676
 20
1096.504960851725
 30
0.0
 10
1644.720947436374
 20
1095.952089672342
 30
0.0
 10
1639.670269974896
 20
1094.846346433286
 30
0.0
 10
1636.52582983481
 20
1086.290907183389
 30
0.0
 10
1636.607168504963
 20
1077.620653357013
 30
0.0
 10
1635.29464076557
 20
1064.975056330165
 30
0.0
 10
1633.328231264195
 20
1048.158036789872
 30
0.0
 10
1628.548659951626
 20
1024.979215163675
 30
0.0
 10
1620.678403320687
 20
1000.537846410613
 30
0.0
 10
1608.852598413197
 20
979.2249763489176
 30
0.0
 10
1596.636906384083
 20
966.4239545560806
 30
0.0
 10
1586.995557043175
 20
959.4319280308403
 30
0.0
 10
1580.1282678021
 20
955.5654179371436
 30
0.0
 10
1574.858220191493
 20
953.6005078629322
 30
0.0
 10
1570.821893519484
 20
951.5213949000358
 30
0.0
 10
1566.995909363338
 20
948.6701146636234
 30
0.0
 10
1562.264446803844
 20
944.5352247403589
 30
0.0
 10
1558.572398676806
 20
941.462394749402
 30
0.0
 10
1556.726374613287
 20
939.9259797539232
 30
0.0
 11
1647.246284156676
 21
1096.504960851725
 31
0.0
 11
1640.46766598425
 21
1093.856854583175
 31
0.0
 11
1637.279128162895
 21
1087.31502560704
 31
0.0
 11
1636.412520496879
 21
1077.31600216954
 31
0.0
 11
1635.610134121953
 21
1068.141898987924
 31
0.0
 11
1633.25349339727
 21
1049.61043576329
 31
0.0
 11
1628.611708729301
 21
1027.096123019149
 31
0.0
 11
1619.241713612113
 21
999.4494860562588
 31
0.0
 11
1606.919142811332
 21
978.1903918179776
 31
0.0
 11
1593.995070545707
 21
964.7407458218838
 31
0.0
 11
1586.452406971488
 21
959.2790148648526
 31
0.0
 11
1579.699050037895
 21
955.5717699918057
 31
0.0
 11
1573.701613514457
 21
952.9717604751202
 31
0.0
 11
1571.399109781384
 21
951.7594581317082
 31
0.0
 11
1567.763659898849
 21
949.1873609440916
 31
0.0
 11
1562.245017256068
 21
944.5566703490074
 31
0.0
 11
1556.726374613287
 21
939.9259797539232
 31
0.0
  0
SPLINE
  5
1D12
102
{ACAD_REACTORS
330
1E27
102
}
330
A
100
AcDbEntity
  8
MODEL
  6
STYLE_12
100
AcDbSpline
210
0.0
220
0.0
230
1.0
 70
     8
 71
     3
 72
    21
 73
    17
 74
    15
 42
0.000000001
 43
0.0000000001
 44
0.0
 40
0.0
 40
0.0
 40
0.0
 40
0.0
 40
2.039560997035301
 40
3.401010141365086
 40
5.446622732005911
 40
6.807816271787575
 40
8.16390899479684
 40
9.522324482117455
 40
10.88621711647871
 40
13.61415462935468
 40
14.97033378499467
 40
17.69032386541789
 40
19.05501538265689
 40
20.41528290317784
 40
21.09450794674517
 40
21.77373299031251
 40
21.77373299031251
 40
21.77373299031251
 40
21.77373299031251
 10
1328.055556385551
 20
1101.495445528915
 30
0.0
 10
1328.735684561922
 20
1101.47984875255
 30
0.0
 10
1329.869812361302
 20
1101.453840805413
 30
0.0
 10
1331.674763324736
 20
1101.247716366343
 30
0.0
 10
1333.242105920273
 20
1100.964597820951
 30
0.0
 10
1334.764056280359
 20
1100.503159814561
 30
0.0
 10
1336.020170612634
 20
1099.980322064518
 30
0.0
 10
1337.229897250285
 20
1099.358444954781
 30
0.0
 10
1338.82603223235
 20
1098.492511904408
 30
0.0
 10
1340.462041427716
 20
1097.691184150865
 30
0.0
 10
1342.624038135858
 20
1096.988344075721
 30
0.0
 10
1344.431607182275
 20
1096.739646828673
 30
0.0
 10
1346.241404672709
 20
1096.617731172651
 30
0.0
 10
1347.375313562151
 20
1096.565554907267
 30
0.0
 10
1348.281334496186
 20
1096.546171562654
 30
0.0
 10
1348.734005859929
 20
1096.534632038859
 30
0.0
 10
1348.960341541801
 20
1096.528862276962
 30
0.0
 11
1328.055556385551
 21
1101.495445528915
 31
0.0
 11
1330.093398182426
 21
1101.411720553329
 31
0.0
 11
1331.446578114067
 21
1101.261894503524
 31
0.0
 11
1333.455824940239
 21
1100.877891817978
 31
0.0
 11
1334.757948963676
 21
1100.481254855087
 31
0.0
 11
1336.011611073051
 21
1099.964226046493
 31
0.0
 11
1337.225722401176
 21
1099.354942599228
 31
0.0
 11
1338.429946033989
 21
1098.714592257431
 31
0.0
 11
1340.905776112114
 21
1097.569206515243
 31
0.0
 11
1342.197218983208
 21
1097.155205050399
 31
0.0
 11
1344.882155506645
 21
1096.719932833603
 31
0.0
 11
1346.243361561333
 21
1096.622459689071
 31
0.0
 11
1347.602309315239
 21
1096.562553683212
 31
0.0
 11
1348.28132542852
 21
1096.545707980087
 31
0.0
 11
1348.960341541801
 21
1096.528862276962
 31
0.0
  0
LINE
  5
1D16
330
A
100
AcDbEntity
  8
MODEL
  6
STYLE_12
100
AcDbLine
 10
615.9313037664533
 20
939.9259807886099
 30
0.0
 11
615.9313037664533
 21
901.4954534537627
 31
0.0
  0
LINE
  5
1D19
330
A
100
AcDbEntity
  8
MODEL
  6
STYLE_12
100
AcDbLine
 10
659.9107439217541
 20
939.9259807886099
 30
0.0
 11
615.9313037664538
 21
939.9259807886099
 31
0.0
  0
LINE
  5
1D1B
330
A
100
AcDbEntity
  8
MODEL
  6
STYLE_12
100
AcDbLine
 10
615.9313037664533
 20
939.9259807886099
 30
0.0
 11
604.0158409771893
 21
952.5543726029589
 31
0.0
  0
LINE
  5
1D22
330
A
100
AcDbEntity
  8
MODEL
  6
STYLE_12
100
AcDbLine
 10
358.6711568836336
 20
1096.51690968892
 30
0.0
 11
394.3255189075135
 21
1096.51690968892
 31
0.0
  0
ARC
  5
1D53
330
A
100
AcDbEntity
  8
MODEL
  6
STYLE_12
100
AcDbCircle
 10
394.3255180634296
 20
1086.51690968892
 30
0.0
 40
10.0
100
AcDbArc
 50
4.740414789206449
 51
89.99999516375583
  0
ARC
  5
1D89
330
A
100
AcDbEntity
  8
MODEL
  6
STYLE_12
100
AcDbCircle
 10
353.2491978320782
 20
1096.100472870942
 30
0.0
 40
5.437927875589372
100
AcDbArc
 50
4.392013955153552
 51
82.79429053645516
  0
SPLINE
  5
1D8A
330
A
100
AcDbEntity
  8
MODEL
  6
STYLE_12
100
AcDbSpline
210
0.0
220
0.0
230
1.0
 70
     8
 71
     3
 72
    13
 73
     9
 74
     7
 42
0.000000001
 43
0.0000000001
 44
0.0
 40
0.0
 40
0.0
 40
0.0
 40
0.0
 40
48.09728579411655
 40
85.55571349661241
 40
123.3543576608558
 40
161.7239843854931
 40
193.6193138042869
 40
263.3298231200802
 40
263.3298231200802
 40
263.3298231200802
 40
263.3298231200802
 10
404.2913114816902
 20
1087.343324563274
 30
0.0
 10
410.510710537323
 20
1072.554888898451
 30
0.0
 10
421.5738113950832
 20
1046.249139126653
 30
0.0
 10
443.181905520068
 20
1010.9542041331
 30
0.0
 10
469.6638809851966
 20
983.555149581468
 30
0.0
 10
500.701618801583
 20
963.7924023703326
 30
0.0
 10
546.9686938356093
 20
954.6964716554294
 30
0.0
 10
580.8027283495312
 20
953.4260163056874
 30
0.0
 10
604.0158409771893
 20
952.5543726029589
 30
0.0
 11
404.2913114816902
 21
1087.343324563274
 31
0.0
 11
424.1895801286546
 21
1043.555109189567
 31
0.0
 11
444.2016478348605
 21
1011.89044509747
 31
0.0
 11
470.5466483594855
 21
984.785492634634
 31
0.0
 11
503.4688064738475
 21
965.0786471214386
 31
0.0
 11
534.4939665902234
 21
957.6792229217722
 31
0.0
 11
604.0158409771893
 21
952.5543726029589
 31
0.0
  0
LINE
  5
1D8B
330
A
100
AcDbEntity
  8
MODEL
  6
STYLE_12
100
AcDbLine
 10
604.0158409771893
 20
952.5543726029589
 30
0.0
 11
637.9210238441037
 21
952.5543726029589
 31
0.0
  0
LINE
  5
1D8C
330
A
100
AcDbEntity
  8
MODEL
  6
STYLE_12
100
AcDbLine
 10
659.9107439217541
 20
939.9259807886099
 30
0.0
 11
671.8262067110181
 21
952.5543726029589
 31
0.0
  0
SPLINE
  5
1D8D
330
A
100
AcDbEntity
  8
MODEL
  6
STYLE_12
100
AcDbSpline
210
0.0
220
0.0
230
1.0
 70
     8
 71
     3
 72
    13
 73
     9
 74
     7
 42
0.000000001
 43
0.0000000001
 44
0.0
 40
0.0
 40
0.0
 40
0.0
 40
0.0
 40
48.09728579411655
 40
85.55571349661241
 40
123.3543576608558
 40
161.7239843854931
 40
193.6193138042869
 40
263.3298231200802
 40
263.3298231200802
 40
263.3298231200802
 40
263.3298231200802
 10
871.5507362065173
 20
1087.343324563274
 30
0.0
 10
865.3313371508846
 20
1072.554888898451
 30
0.0
 10
854.2682362931242
 20
1046.249139126653
 30
0.0
 10
832.6601421681395
 20
1010.9542041331
 30
0.0
 10
806.1781667030111
 20
983.555149581468
 30
0.0
 10
775.1404288866245
 20
963.7924023703326
 30
0.0
 10
728.8733538525983
 20
954.6964716554294
 30
0.0
 10
695.039319338676
 20
953.4260163056874
 30
0.0
 10
671.8262067110181
 20
952.5543726029589
 30
0.0
 11
871.5507362065173
 21
1087.343324563274
 31
0.0
 11
851.6524675595529
 21
1043.555109189567
 31
0.0
 11
831.6403998533469
 21
1011.89044509747
 31
0.0
 11
805.2953993287219
 21
984.785492634634
 31
0.0
 11
772.37324121436
 21
965.0786471214386
 31
0.0
 11
741.348081097984
 21
957.6792229217722
 31
0.0
 11
671.8262067110181
 21
952.5543726029589
 31
0.0
  0
LINE
  5
1D8E
330
A
100
AcDbEntity
  8
MODEL
  6
STYLE_12
100
AcDbLine
 10
671.8262067110181
 20
952.5543726029589
 30
0.0
 11
637.9210238441037
 21
952.5543726029589
 31
0.0
  0
LINE
  5
1D8F
330
A
100
AcDbEntity
  8
MODEL
  6
STYLE_12
100
AcDbLine
 10
659.9107439217541
 20
939.9259807886099
 30
0.0
 11
659.9107439217541
 21
901.4954534537627
 31
0.0
  0
ARC
  5
1D90
330
A
100
AcDbEntity
  8
MODEL
  6
STYLE_12
100
AcDbCircle
 10
881.5165296247778
 20
1086.51690968892
 30
0.0
 40
10.0
100
AcDbArc
 50
90.00000483624416
 51
175.2595852107936
  0
LINE
  5
1D91
102
{ACAD_REACTORS
330
1FD1
102
}
330
A
100
AcDbEntity
  8
MODEL
  6
STYLE_12
100
AcDbLine
 10
917.1708908045739
 20
1096.51690968892
 30
0.0
 11
881.516528780694
 21
1096.51690968892
 31
0.0
  0
ARC
  5
1D92
330
A
100
AcDbEntity
  8
MODEL
  6
STYLE_12
100
AcDbCircle
 10
922.5928498561293
 20
1096.100472870942
 30
0.0
 40
5.437927875589372
100
AcDbArc
 50
97.20570946354485
 51
175.6079860448465
  0
LINE
  5
1D93
330
A
100
AcDbEntity
  8
MODEL
  6
Continuous
100
AcDbLine
 10
604.2936730084393
 20
924.2811267981086
 30
0.0
 11
604.2936730084393
 21
901.4954534537626
 31
0.0
  0
SPLINE
  5
1D95
330
A
100
AcDbEntity
  8
MODEL
  6
Continuous
100
AcDbSpline
210
0.0
220
0.0
230
1.0
 70
     8
 71
     3
 72
    18
 73
    14
 74
     0
 42
0.000000001
 43
0.0000000001
 40
0.0
 40
0.0
 40
0.0
 40
0.0
 40
19.0294541947084
 40
47.41908154887141
 40
68.77095125260523
 40
81.43316859471093
 40
106.5573426240735
 40
123.6884866049552
 40
142.956594718863
 40
167.899488773392
 40
191.268913599193
 40
206.8310932001017
 40
213.002741571218
 40
213.002741571218
 40
213.002741571218
 40
213.002741571218
 10
409.0172020524469
 20
1031.774476779165
 30
0.0
 10
411.7500160711857
 20
1026.046993134868
 30
0.0
 10
418.5598556749151
 20
1011.77480165634
 30
0.0
 10
431.7122770418823
 20
992.7700371444364
 30
0.0
 10
446.4719628684757
 20
978.0273230470823
 30
0.0
 10
461.6104949915511
 20
965.3862428679186
 30
0.0
 10
476.8996073164949
 20
955.1965365805638
 30
0.0
 10
495.1150830719262
 20
945.7298337857061
 30
0.0
 10
514.0797757729206
 20
937.9988338057631
 30
0.0
 10
535.7465648253847
 20
931.6830947233195
 30
0.0
 10
556.6397546507146
 20
927.4926566720358
 30
0.0
 10
571.524764881307
 20
925.3477685969351
 30
0.0
 10
578.721466962997
 20
924.5156312814408
 30
0.0
 10
580.7652935831729
 20
924.2811267981001
 30
0.0
  0
SPLINE
  5
1D96
330
A
100
AcDbEntity
  8
MODEL
  6
Continuous
100
AcDbSpline
210
0.0
220
0.0
230
1.0
 70
     8
 71
     3
 72
    18
 73
    14
 74
     0
 42
0.000000001
 43
0.0000000001
 40
0.0
 40
0.0
 40
0.0
 40
0.0
 40
19.0294541947084
 40
47.41908154887141
 40
68.77095125260523
 40
81.43316859471093
 40
106.5573426240735
 40
123.6884866049552
 40
142.956594718863
 40
167.899488773392
 40
191.268913599193
 40
206.8310932001017
 40
213.002741571218
 40
213.002741571218
 40
213.002741571218
 40
213.002741571218
 10
866.8248456357605
 20
1031.774476779165
 30
0.0
 10
864.0920316170218
 20
1026.046993134868
 30
0.0
 10
857.2821920132924
 20
1011.77480165634
 30
0.0
 10
844.1297706463251
 20
992.7700371444364
 30
0.0
 10
829.3700848197318
 20
978.0273230470823
 30
0.0
 10
814.2315526966563
 20
965.3862428679186
 30
0.0
 10
798.9424403717126
 20
955.1965365805638
 30
0.0
 10
780.7269646162813
 20
945.7298337857061
 30
0.0
 10
761.7622719152869
 20
937.9988338057631
 30
0.0
 10
740.0954828628228
 20
931.6830947233195
 30
0.0
 10
719.2022930374928
 20
927.4926566720358
 30
0.0
 10
704.3172828069005
 20
925.3477685969351
 30
0.0
 10
697.1205807252104
 20
924.5156312814408
 30
0.0
 10
695.0767541050345
 20
924.2811267981001
 30
0.0
  0
LINE
  5
1D97
330
A
100
AcDbEntity
  8
MODEL
100
AcDbLine
 10
695.0767541050345
 20
924.2811267981085
 30
0.0
 11
637.9210238441037
 21
924.2811267981085
 31
0.0
  0
LINE
  5
1D9B
102
{ACAD_REACTORS
330
1E18
102
}
330
A
100
AcDbEntity
  8
MODEL
  6
Continuous
100
AcDbLine
 10
671.5483746797681
 20
924.2811267981086
 30
0.0
 11
671.5483746797681
 21
901.4954534537626
 31
0.0
  0
LINE
  5
1D9C
330
A
100
AcDbEntity
  8
MODEL
  6
Continuous
100
AcDbLine
 10
1328.241412045601
 20
1031.738195757841
 30
0.0
 11
1773.055563407872
 21
1031.738195757841
 31
0.0
  0
LINE
  5
1D9D
330
A
100
AcDbEntity
  8
MODEL
  6
Continuous
100
AcDbLine
 10
604.2936730084393
 20
901.4954534537626
 30
0.0
 11
671.5483746797681
 21
901.4954534537626
 31
0.0
  0
DIMENSION
  5
1DA1
102
{ACAD_REACTORS
330
1DA3
102
}
102
{ACAD_XDICTIONARY
360
1DA2
102
}
330
A
100
AcDbEntity
  8
Dim
100
AcDbDimension
  2
*D6
 10
939.293014782731
 20
2374.806798614586
 30
0.0
 11
639.293014782731
 21
2374.806798614586
 31
0.0
 70
   160
 71
     5
 42
600.0
 73
     0
 74
     0
 75
     0
  3
JIS
100
AcDbAlignedDimension
 13
339.293014782731
 23
2237.3895594138
 33
0.0
 14
939.293014782731
 24
2237.3895594138
 34
0.0
100
AcDbRotatedDimension
1001
ACAD
1000
DSTYLE
1002
{
1070
   179
1070
     0
1070
   271
1070
     0
1070
    43
1040
25.0
1070
    44
1040
0.0
1070
    42
1040
25.0
1002
}
  0
DIMENSION
  5
1DCE
102
{ACAD_REACTORS
330
1DD0
102
}
102
{ACAD_XDICTIONARY
360
1DCF
102
}
330
A
100
AcDbEntity
  8
Dim
100
AcDbDimension
  2
*D7
 10
404.2913115675319
 20
1649.586244201713
 30
0.0
 11
638.9312983113095
 21
1649.586244201713
 31
0.0
 70
   160
  1
470
 71
     5
 42
469.2799734875553
 73
     0
 74
     0
 75
     0
  3
JIS
100
AcDbAlignedDimension
 13
873.5712850550872
 23
1877.887114871431
 33
0.0
 14
404.2913115675319
 24
1877.88711573146
 34
0.0
100
AcDbRotatedDimension
1001
ACAD
1000
DSTYLE
1002
{
1070
   179
1070
     0
1070
   271
1070
     0
1070
    43
1040
25.0
1070
    44
1040
0.0
1070
    42
1040
25.0
1002
}
  0
DIMENSION
  5
1DEA
330
A
100
AcDbEntity
  8
Dim
100
AcDbDimension
  2
*D8
 10
1068.472407715602
 20
1779.88593628577
 30
0.0
 11
1068.472407715602
 21
2009.887747849804
 31
0.0
 70
   160
 71
     5
 42
460.0036231280681
 73
     0
 74
     0
 75
     0
  3
JIS
100
AcDbAlignedDimension
 13
936.0695622653975
 23
2239.889559413838
 33
0.0
 14
898.9349116522417
 24
1779.88593628577
 34
0.0
 50
90.0
100
AcDbRotatedDimension
1001
ACAD
1000
DSTYLE
1002
{
1070
   179
1070
     0
1070
   271
1070
     0
1070
    43
1040
25.0
1070
    44
1040
0.0
1070
    42
1040
25.0
1002
}
  0
DIMENSION
  5
1DF8
102
{ACAD_REACTORS
330
1DFA
102
}
102
{ACAD_XDICTIONARY
360
1DF9
102
}
330
A
100
AcDbEntity
  8
Dim
100
AcDbDimension
  2
*D9
 10
237.8023308006623
 20
1842.889567043207
 30
0.0
 11
215.5860222069123
 21
1973.889567043208
 31
0.0
 70
    32
 71
     5
 42
262.0000000000009
 73
     0
 74
     0
 75
     0
  3
JIS
100
AcDbAlignedDimension
 13
439.2913113960085
 23
2104.889567043208
 33
0.0
 14
439.2913114816902
 24
1842.889567043207
 34
0.0
 50
90.0
100
AcDbRotatedDimension
1001
ACAD
1000
DSTYLE
1002
{
1070
   179
1070
     0
1070
   271
1070
     0
1070
    43
1040
25.0
1070
    44
1040
0.0
1070
    42
1040
25.0
1002
}
  0
DIMENSION
  5
1E07
102
{ACAD_REACTORS
330
1E09
102
}
102
{ACAD_XDICTIONARY
360
1E08
102
}
330
A
100
AcDbEntity
  8
Dim
100
AcDbDimension
  2
*D10
 10
237.8023308006623
 20
2239.889559413838
 30
0.0
 11
215.5860222069123
 21
2172.389563228523
 31
0.0
 70
    32
 71
     5
 42
134.99999237063
 73
     0
 74
     0
 75
     0
  3
JIS
100
AcDbAlignedDimension
 13
439.2913113960085
 23
2104.889567043208
 33
0.0
 14
349.293014782731
 24
2239.889559413838
 34
0.0
 50
90.0
100
AcDbRotatedDimension
1001
ACAD
1000
DSTYLE
1002
{
1070
   179
1070
     0
1070
   271
1070
     0
1070
    43
1040
25.0
1070
    44
1040
0.0
1070
    42
1040
25.0
1002
}
  0
DIMENSION
  5
1E16
102
{ACAD_REACTORS
330
1E18
102
}
102
{ACAD_XDICTIONARY
360
1E17
102
}
330
A
100
AcDbEntity
  8
Dim
100
AcDbDimension
  2
*D11
 10
1053.659228961789
 20
1101.495453118175
 30
0.0
 11
1031.442920368039
 21
1001.495453285969
 31
0.0
 70
    32
 71
     5
 42
199.9999996644124
 73
     0
 74
     0
 75
     0
  3
JIS
100
AcDbAlignedDimension
 13
671.5483746797681
 23
901.4954534537626
 33
0.0
 14
927.5656075051511
 24
1101.495453118175
 34
0.0
 50
90.0
100
AcDbRotatedDimension
1001
ACAD
1000
DSTYLE
1002
{
1070
   179
1070
     0
1070
   271
1070
     0
1070
    43
1040
25.0
1070
    44
1040
0.0
1070
    42
1040
25.0
1002
}
  0
DIMENSION
  5
1E25
102
{ACAD_REACTORS
330
1E27
102
}
102
{ACAD_XDICTIONARY
360
1E26
102
}
330
A
100
AcDbEntity
  8
Dim
100
AcDbDimension
  2
*D12
 10
1239.757739851937
 20
1031.738225421504
 30
0.0
 11
1217.541431258187
 21
1066.616835475209
 31
0.0
 70
    32
 71
     5
 42
69.75722010741106
 73
     0
 74
     0
 75
     0
  3
JIS
100
AcDbAlignedDimension
 13
1328.055556385551
 23
1101.495445528915
 33
0.0
 14
1331.974923511366
 24
1031.738225421504
 34
0.0
 50
90.0
100
AcDbRotatedDimension
1001
ACAD
1000
DSTYLE
1002
{
1070
   179
1070
     0
1070
   271
1070
     0
1070
    43
1040
25.0
1070
    44
1040
0.0
1070
    42
1040
25.0
1002
}
  0
DIMENSION
  5
1E34
330
A
100
AcDbEntity
  8
Dim
100
AcDbDimension
  2
*D13
 10
1773.055565583569
 20
784.7306431281295
 30
0.0
 11
1653.055565583569
 21
806.9469517218795
 31
0.0
 70
    32
 71
     5
 42
240.0
 73
     0
 74
     0
 75
     0
  3
JIS
100
AcDbAlignedDimension
 13
1533.055565583569
 23
901.4954534537626
 33
0.0
 14
1773.055565583569
 24
957.4619268946839
 34
0.0
100
AcDbRotatedDimension
1001
ACAD
1000
DSTYLE
1002
{
1070
   179
1070
     0
1070
   271
1070
     0
1070
    43
1040
25.0
1070
    44
1040
0.0
1070
    42
1040
25.0
1002
}
  0
DIMENSION
  5
1E5E
330
A
100
AcDbEntity
  8
Dim
100
AcDbDimension
  2
*D14
 10
1703.05557419472
 20
1199.056609356272
 30
0.0
 11
1738.05557419472
 21
1221.272917950022
 31
0.0
 70
    32
 71
     5
 42
70.0
 73
     0
 74
     0
 75
     0
  3
JIS
100
AcDbAlignedDimension
 13
1773.05557419472
 23
1098.495432559609
 33
0.0
 14
1703.05557419472
 24
1098.495432559609
 34
0.0
100
AcDbRotatedDimension
1001
ACAD
1000
DSTYLE
1002
{
1070
   179
1070
     0
1070
   271
1070
     0
1070
    43
1040
25.0
1070
    44
1040
0.0
1070
    42
1040
25.0
1002
}
  0
LINE
  5
1E6B
330
A
100
AcDbEntity
  8
Dim
  6
Continuous
100
AcDbLine
 10
1720.55557419472
 20
1101.495445257872
 30
0.0
 11
1720.55557419472
 21
1085.008862886254
 31
0.0
  0
LINE
  5
1E70
330
A
100
AcDbEntity
  8
Dim
  6
Continuous
100
AcDbLine
 10
1685.55557419472
 20
1101.495446787773
 30
0.0
 11
1685.55557419472
 21
1085.008862886254
 31
0.0
  0
DIMENSION
  5
1E93
330
A
100
AcDbEntity
  8
Dim
100
AcDbDimension
  2
*D15
 10
1533.513575517562
 20
952.6465755983818
 30
0.0
 11
1533.513575517562
 21
1203.62401366505
 31
0.0
 70
   160
  1
150 (深さ)
 71
     5
 42
148.8488775197932
 73
     0
 74
     1
 75
     1
  3
JIS
100
AcDbAlignedDimension
 13
1519.458423821237
 23
1101.495453118175
 33
0.0
 14
1520.998541722899
 24
952.6465755983818
 34
0.0
 50
90.0
100
AcDbRotatedDimension
1001
ACAD
1000
DSTYLE
1002
{
1070
   179
1070
     0
1070
   271
1070
     0
1070
    43
1040
25.0
1070
    44
1040
0.0
1070
    42
1040
25.0
1002
}
  0
LINE
  5
1EA4
330
A
100
AcDbEntity
  8
Dim
100
AcDbLine
 10
1533.513575517562
 20
1092.495453118175
 30
0.0
 11
1533.513575517562
 21
961.6465755983818
 31
0.0
  0
DIMENSION
  5
1EA8
330
A
100
AcDbEntity
  8
Dim
100
AcDbDimension
  2
*D16
 10
738.931307434591
 20
2288.631346650304
 30
0.0
 11
688.931307434591
 21
2310.847655244054
 31
0.0
 70
    32
 71
     5
 42
100.0
 73
     0
 74
     0
 75
     0
  3
JIS
100
AcDbAlignedDimension
 13
638.931307434591
 23
2169.889567043208
 33
0.0
 14
738.931307434591
 24
2169.889567043208
 34
0.0
100
AcDbRotatedDimension
1001
ACAD
1000
DSTYLE
1002
{
1070
   179
1070
     0
1070
   271
1070
     0
1070
    43
1040
25.0
1070
    44
1040
0.0
1070
    42
1040
25.0
1002
}
  0
CIRCLE
  5
1F0C
330
A
100
AcDbEntity
  8
Dim
  6
STYLE_12
390
1D
100
AcDbCircle
 10
210.1364832614777
 20
1526.380488709763
 30
0.0
 40
17.5
  0
MTEXT
  5
1F0D
330
A
100
AcDbEntity
  8
Dim
390
1D
100
AcDbMText
 10
251.8582063019994
 20
1542.661623525028
 30
0.0
 40
24.4326171875
 41
0.0
 46
109.5812027380355
 71
     1
 72
     1
  1
{=φ30もしくはφ35の水栓取付用穴あけ加工を承ります。\P   必要な場合、ご注文の際にご指示ください。}
  7
ＭＳ ゴシック
 73
     1
 44
1.304711230709641
1001
ACAD
1000
ACAD_MTEXT_DEFINED_HEIGHT_BEGIN
1070
    46
1040
109.5812027380355
1000
ACAD_MTEXT_DEFINED_HEIGHT_END
  0
CIRCLE
  5
1F2C
330
A
100
AcDbEntity
  8
MODEL
  6
STYLE_12
100
AcDbCircle
 10
738.931307434591
 20
2169.889567043208
 30
0.0
 40
17.5
  0
CIRCLE
  5
1F2D
102
{ACAD_REACTORS
330
1F30
102
}
330
A
100
AcDbEntity
  8
MODEL
  6
STYLE_12
100
AcDbCircle
 10
538.931307434591
 20
2169.889567043208
 30
0.0
 40
17.5
  0
DIMENSION
  5
1F2E
102
{ACAD_REACTORS
330
1F30
102
}
102
{ACAD_XDICTIONARY
360
1F2F
102
}
330
A
100
AcDbEntity
  8
Dim
100
AcDbDimension
  2
*D17
 10
538.931307434591
 20
2288.631346650304
 30
0.0
 11
588.931307434591
 21
2310.847655244054
 31
0.0
 70
    32
 71
     5
 42
100.0
 73
     0
 74
     0
 75
     0
  3
JIS
100
AcDbAlignedDimension
 13
638.931307434591
 23
2169.889567043208
 33
0.0
 14
538.931307434591
 24
2169.889567043208
 34
0.0
100
AcDbRotatedDimension
1001
ACAD
1000
DSTYLE
1002
{
1070
   179
1070
     0
1070
   271
1070
     0
1070
    43
1040
25.0
1070
    44
1040
0.0
1070
    42
1040
25.0
1002
}
  0
CIRCLE
  5
1F76
330
A
100
AcDbEntity
  8
MODEL
  6
STYLE_12
 48
0.5
100
AcDbCircle
 10
777.9210238441037
 20
1061.495453118175
 30
0.0
 40
5.0
  0
CIRCLE
  5
1F77
102
{ACAD_REACTORS
330
1F7A
102
}
330
A
100
AcDbEntity
  8
MODEL
  6
STYLE_12
 48
0.5
100
AcDbCircle
 10
497.9210238441037
 20
1061.495453118175
 30
0.0
 40
5.0
  0
DIMENSION
  5
1F78
102
{ACAD_REACTORS
330
1F7A
102
}
102
{ACAD_XDICTIONARY
360
1F79
102
}
330
A
100
AcDbEntity
  8
Dim
100
AcDbDimension
  2
*D18
 10
237.2337124549261
 20
1101.495453118175
 30
0.0
 11
237.2337124549261
 21
1081.495453118175
 31
0.0
 70
   160
 71
     5
 42
39.99999999999999
 73
     0
 74
     0
 75
     0
  3
JIS
100
AcDbAlignedDimension
 13
497.9210238441037
 23
1061.495453118175
 33
0.0
 14
348.27644018302
 24
1101.495453118175
 34
0.0
 50
90.0
100
AcDbRotatedDimension
1001
ACAD
1000
DSTYLE
1002
{
1070
   179
1070
     0
1070
   271
1070
     0
1070
    43
1040
25.0
1070
    44
1040
0.0
1070
    42
1040
25.0
1002
}
  0
LINE
  5
1F88
330
A
100
AcDbEntity
  8
Dim
  6
Continuous
100
AcDbLine
 10
497.9210238441037
 20
1055.042231235797
 30
0.0
 11
497.9210238441037
 21
1067.948675000553
 31
0.0
  0
LINE
  5
1F89
102
{ACAD_REACTORS
330
1F9D
102
}
330
A
100
AcDbEntity
  8
Dim
  6
Continuous
100
AcDbLine
 10
504.3742457264816
 20
1061.495453118175
 30
0.0
 11
491.4678019617259
 21
1061.495453118175
 31
0.0
  0
LINE
  5
1F8D
330
A
100
AcDbEntity
  8
Dim
  6
Continuous
100
AcDbLine
 10
777.9210238441037
 20
1055.042231235797
 30
0.0
 11
777.9210238441037
 21
1067.948675000553
 31
0.0
  0
LINE
  5
1F8E
102
{ACAD_REACTORS
330
1F9D
102
}
330
A
100
AcDbEntity
  8
Dim
  6
Continuous
100
AcDbLine
 10
771.4678019617259
 20
1061.495453118175
 30
0.0
 11
784.3742457264816
 21
1061.495453118175
 31
0.0
  0
DIMENSION
  5
1F9B
102
{ACAD_REACTORS
330
1F9D
102
}
102
{ACAD_XDICTIONARY
360
1F9C
102
}
330
A
100
AcDbEntity
  8
Dim
100
AcDbDimension
  2
*D19
 10
777.9210238441037
 20
1199.056609356272
 30
0.0
 11
637.9210238441037
 21
1221.272917950022
 31
0.0
 70
    32
 71
     5
 42
280.0
 73
     0
 74
     0
 75
     0
  3
JIS
100
AcDbAlignedDimension
 13
497.9210238441037
 23
1061.495453118175
 33
0.0
 14
777.9210238441037
 24
1061.495453118175
 34
0.0
100
AcDbRotatedDimension
1001
ACAD
1000
DSTYLE
1002
{
1070
   179
1070
     0
1070
   271
1070
     0
1070
    43
1040
25.0
1070
    44
1040
0.0
1070
    42
1040
25.0
1002
}
  0
MTEXT
  5
1FCD
330
A
100
AcDbEntity
  8
template
 62
     7
390
1D
100
AcDbMText
 10
1297.000000000742
 20
207.5555205825516
 30
0.0
 40
24.4326171875
 41
0.0
 46
24.4326171875
 71
     1
 72
     1
  1
{20kg}
  7
ＭＳ ゴシック
 73
     1
 44
0.7828267384257843
1001
ACAD
1000
ACAD_MTEXT_DEFINED_HEIGHT_BEGIN
1070
    46
1040
24.4326171875
1000
ACAD_MTEXT_DEFINED_HEIGHT_END
  0
MTEXT
  5
1FCE
330
A
100
AcDbEntity
  8
template
 62
     7
390
1D
100
AcDbMText
 10
1548.000000001002
 20
207.5555205825516
 30
0.0
 40
24.4326171875
 41
0.0
 46
24.4326171875
 71
     1
 72
     1
  1
{9L}
  7
ＭＳ ゴシック
 73
     1
 44
0.7828267384257843
1001
ACAD
1000
ACAD_MTEXT_DEFINED_HEIGHT_BEGIN
1070
    46
1040
24.4326171875
1000
ACAD_MTEXT_DEFINED_HEIGHT_END
  0
DIMENSION
  5
1FDF
102
{ACAD_XDICTIONARY
360
1FE0
102
}
330
A
100
AcDbEntity
  8
Dim
  6
Continuous
100
AcDbDimension
  2
*D21
 10
897.394459778632
 20
1101.495453118175
 30
0.0
 11
897.394459778632
 21
1135.383713860363
 31
0.0
 70
   160
  1
7
 71
     5
 42
4.978543429255069
 73
     0
 74
     1
 75
     1
  3
JIS
100
AcDbAlignedDimension
 13
891.3888706598649
 23
1096.51690968892
 33
0.0
 14
891.3888706598649
 24
1101.495453118175
 34
0.0
 50
90.0
100
AcDbRotatedDimension
1001
ACAD
1000
DSTYLE
1002
{
1070
   179
1070
     0
1070
   271
1070
     0
1070
    43
1040
25.0
1070
    44
1040
0.0
1070
    42
1040
25.0
1002
}
  0
LINE
  5
1FF0
330
A
100
AcDbEntity
  8
Dim
  6
Continuous
100
AcDbLine
 10
656.431307434591
 20
2174.388342152839
 30
0.0
 11
791.4924732211858
 21
2289.832429988612
 31
0.0
  0
LINE
  5
1FF1
330
A
100
AcDbEntity
  8
Dim
  6
Continuous
100
AcDbLine
 10
791.4924732211858
 20
2289.832429988612
 30
0.0
 11
848.3899165116738
 21
2289.832429988612
 31
0.0
  0
MTEXT
  5
2023
330
A
100
AcDbEntity
  8
template
 62
     7
390
1D
100
AcDbMText
 10
797.7542842354918
 20
2321.296700182404
 30
0.0
 40
24.4326171875
 41
0.0
 46
24.4326171875
 71
     1
 72
     1
  1
{%%c35}
  7
ＭＳ ゴシック
 73
     1
 44
0.7828267384257843
1001
ACAD
1000
ACAD_MTEXT_DEFINED_HEIGHT_BEGIN
1070
    46
1040
24.4326171875
1000
ACAD_MTEXT_DEFINED_HEIGHT_END
  0
VIEWPORT
  5
349
330
B
100
AcDbEntity
 67
     1
  8
0
100
AcDbViewport
 10
202.5
 20
128.5
 30
0.0
 40
486.0
 41
308.4
 68
     1
 69
     1
 12
202.5
 22
128.5
 13
0.0
 23
0.0
 14
0.5
 24
0.5
 15
0.0
 25
0.0
 16
0.0
 26
0.0
 36
1.0
 17
0.0
 27
0.0
 37
0.0
 42
50.0
 43
0.0
 44
0.0
 45
308.4
 50
0.0
 51
0.0
 72
   100
 90
   557152
  1

281
     0
 71
     1
 74
     0
110
0.0
120
0.0
130
0.0
111
1.0
121
0.0
131
0.0
112
0.0
122
1.0
132
0.0
 79
     0
146
0.0
170
     0
 61
     5
348
26C
292
     1
282
     1
141
0.0
142
0.0
 63
   256
  0
VIEWPORT
  5
34A
330
B
100
AcDbEntity
 67
     1
  8
0
100
AcDbViewport
 10
202.5
 20
128.5
 30
0.0
 40
324.0
 41
205.6
 68
     2
 69
     2
 12
986.6781359294573
 22
1427.077061889956
 13
0.0
 23
0.0
 14
0.5
 24
0.5
 15
0.0
 25
0.0
 16
0.0
 26
0.0
 36
1.0
 17
0.0
 27
0.0
 37
0.0
 42
50.0
 43
0.0
 44
0.0
 45
2890.021615685494
 50
0.0
 51
0.0
 72
   100
 90
   557152
  1

281
     0
 71
     1
 74
     0
110
0.0
120
0.0
130
0.0
111
1.0
121
0.0
131
0.0
112
0.0
122
1.0
132
0.0
 79
     0
146
0.0
170
     0
 61
     5
348
26C
292
     1
282
     1
141
0.0
142
0.0
 63
   256
  0
ENDSEC
  0
SECTION
  2
OBJECTS
  0
DICTIONARY
  5
19
330
0
100
AcDbDictionary
281
     1
  3
ACAD_COLOR
350
38F
  3
ACAD_DETAILVIEWSTYLE
350
696
  3
ACAD_GROUP
350
1A
  3
ACAD_IMAGE_VARS
350
27B
  3
ACAD_LAYOUT
350
1E
  3
ACAD_MATERIAL
350
263
  3
ACAD_MLEADERSTYLE
350
336
  3
ACAD_MLINESTYLE
350
1B
  3
ACAD_PLOTSETTINGS
350
22
  3
ACAD_PLOTSTYLENAME
350
1F
  3
ACAD_SCALELIST
350
241
  3
ACAD_SECTIONVIEWSTYLE
350
697
  3
ACAD_TABLESTYLE
350
278
  3
ACAD_VISUALSTYLE
350
267
  3
AcadDim
350
C53
  3
ACDB_RECOMPOSE_DATA
350
2212
  3
AcDbVariableDictionary
350
330
  3
APPDATA
350
27A
  0
SUN
  5
68F
330
15
100
AcDbSun
 90
        1
290
     0
 63
     7
421
 16777215
 40
1.0
291
     1
 91
  2455826
 92
 54000000
292
     0
 70
     2
 71
   256
280
     1
  0
DICTIONARY
  5
2E1
330
2
100
AcDbDictionary
280
     1
281
     1
  3
ACAD_LAYERSTATES
360
2E2
  3
ACLYDICTIONARY
360
692
  0
DICTIONARY
  5
1DA2
330
1DA1
100
AcDbDictionary
280
     1
281
     1
  3
ACAD_DIMASSOC
360
1DA3
  0
DICTIONARY
  5
1DCF
330
1DCE
100
AcDbDictionary
280
     1
281
     1
  3
ACAD_DIMASSOC
360
1DD0
  0
DICTIONARY
  5
1DF9
330
1DF8
100
AcDbDictionary
280
     1
281
     1
  3
ACAD_DIMASSOC
360
1DFA
  0
DICTIONARY
  5
1E08
330
1E07
100
AcDbDictionary
280
     1
281
     1
  3
ACAD_DIMASSOC
360
1E09
  0
DICTIONARY
  5
1E17
330
1E16
100
AcDbDictionary
280
     1
281
     1
  3
ACAD_DIMASSOC
360
1E18
  0
DICTIONARY
  5
1E26
330
1E25
100
AcDbDictionary
280
     1
281
     1
  3
ACAD_DIMASSOC
360
1E27
  0
DICTIONARY
  5
1F2F
330
1F2E
100
AcDbDictionary
280
     1
281
     1
  3
ACAD_DIMASSOC
360
1F30
  0
DICTIONARY
  5
1F79
330
1F78
100
AcDbDictionary
280
     1
281
     1
  3
ACAD_DIMASSOC
360
1F7A
  0
DICTIONARY
  5
1F9C
330
1F9B
100
AcDbDictionary
280
     1
281
     1
  3
ACAD_DIMASSOC
360
1F9D
  0
DICTIONARY
  5
1FE0
330
1FDF
100
AcDbDictionary
280
     1
281
     1
  0
DICTIONARY
  5
38F
102
{ACAD_REACTORS
330
19
102
}
330
19
100
AcDbDictionary
281
     1
  0
DICTIONARY
  5
696
102
{ACAD_REACTORS
330
19
102
}
330
19
100
AcDbDictionary
281
     1
  0
DICTIONARY
  5
1A
102
{ACAD_REACTORS
330
19
102
}
330
19
100
AcDbDictionary
281
     1
  0
RASTERVARIABLES
  5
27B
102
{ACAD_REACTORS
330
19
102
}
330
19
100
AcDbRasterVariables
 90
        0
 70
     1
 71
     1
 72
     1
  0
DICTIONARY
  5
1E
102
{ACAD_REACTORS
330
19
102
}
330
19
100
AcDbDictionary
281
     1
  3
Layout1
350
21
  3
Model
350
20
  0
DICTIONARY
  5
263
102
{ACAD_REACTORS
330
19
102
}
330
19
100
AcDbDictionary
281
     1
  3
ByBlock
350
265
  3
ByLayer
350
264
  3
Global
350
266
  0
DICTIONARY
  5
336
102
{ACAD_REACTORS
330
19
102
}
330
19
100
AcDbDictionary
281
     1
  0
DICTIONARY
  5
1B
102
{ACAD_REACTORS
330
19
102
}
330
19
100
AcDbDictionary
281
     1
  3
Standard
350
1C
  0
DICTIONARY
  5
22
102
{ACAD_REACTORS
330
19
102
}
330
19
100
AcDbDictionary
281
     1
  0
ACDBDICTIONARYWDFLT
  5
1F
102
{ACAD_REACTORS
330
19
102
}
330
19
100
AcDbDictionary
281
     1
  3
Normal
350
1D
100
AcDbDictionaryWithDefault
340
1D
  0
DICTIONARY
  5
241
102
{ACAD_REACTORS
330
19
102
}
330
19
100
AcDbDictionary
281
     1
  3
A0
350
242
  3
A1
350
243
  3
A2
350
244
  3
A3
350
245
  3
A4
350
246
  3
A5
350
247
  3
A6
350
248
  3
A7
350
249
  3
A8
350
24A
  3
A9
350
24B
  3
B0
350
24C
  3
B1
350
24D
  3
B2
350
24E
  3
B3
350
24F
  3
B4
350
250
  3
B5
350
251
  3
B6
350
252
  3
B7
350
253
  3
B8
350
254
  3
B9
350
255
  3
C0
350
256
  3
C1
350
257
  3
C2
350
258
  3
C3
350
259
  3
C4
350
25A
  3
C5
350
25B
  3
C6
350
25C
  3
C7
350
25D
  3
C8
350
25E
  3
C9
350
25F
  3
D0
350
260
  3
D1
350
261
  3
D2
350
262
  0
DICTIONARY
  5
697
102
{ACAD_REACTORS
330
19
102
}
330
19
100
AcDbDictionary
281
     1
  0
DICTIONARY
  5
278
102
{ACAD_REACTORS
330
19
102
}
330
19
100
AcDbDictionary
281
     1
  3
Standard
350
279
  0
DICTIONARY
  5
267
102
{ACAD_REACTORS
330
19
102
}
330
19
100
AcDbDictionary
281
     1
  3
2dWireframe
350
26C
  3
3D Hidden
350
26E
  3
3dWireframe
350
26D
  3
Basic
350
26F
  3
Brighten
350
273
  3
ColorChange
350
277
  3
Conceptual
350
271
  3
Dim
350
272
  3
EdgeColorOff
350
689
  3
Facepattern
350
276
  3
Flat
350
268
  3
FlatWithEdges
350
269
  3
Gouraud
350
26A
  3
GouraudWithEdges
350
26B
  3
Hidden
350
686
  3
JitterOff
350
687
  3
Linepattern
350
275
  3
OverhangOff
350
688
  3
Realistic
350
270
  3
Shaded
350
68E
  3
Shaded with edges
350
68D
  3
Shades of Gray
350
68A
  3
Sketchy
350
68B
  3
Thicken
350
274
  3
Wireframe
350
685
  3
X-Ray
350
68C
  0
XRECORD
  5
C53
102
{ACAD_REACTORS
330
19
102
}
330
19
100
AcDbXrecord
280
     1
340
0
 72
     0
 71
     0
 70
     0
 69
     0
 68
     1
 67
     3
 66
     0
 65
     0
 64
     0
 63
     3
 62
     1
 61
     0
 60
     0
 40
0.0
  0
XRECORD
  5
2212
102
{ACAD_REACTORS
330
19
102
}
330
19
100
AcDbXrecord
280
     1
 90
        1
330
279
  0
DICTIONARY
  5
330
102
{ACAD_REACTORS
330
19
102
}
330
19
100
AcDbDictionary
281
     1
  3
CANNOSCALE
350
331
  3
CTABLESTYLE
350
335
  3
XCLIPFRAME
350
64A
  0
DICTIONARY
  5
27A
102
{ACAD_REACTORS
330
19
102
}
330
19
100
AcDbDictionary
281
     1
  0
DICTIONARY
  5
2E2
102
{ACAD_REACTORS
330
2E1
102
}
330
2E1
100
AcDbDictionary
281
     1
  3
ARGON_LAYERP_13
350
C45
  3
ARGON_LAYERP_2
350
CE8
  3
ARGON_LAYERP_3
350
1DF7
  3
ARGON_LAYERP_4
350
1FB0
  3
ARGON_LAYERP_5
350
1FB1
  0
DICTIONARY
  5
692
102
{ACAD_REACTORS
330
2E1
102
}
330
2E1
100
AcDbDictionary
281
     1
1001
ACAD
1000
<All
  0
DIMASSOC
  5
1DA3
102
{ACAD_REACTORS
330
1DA2
102
}
330
1DA2
100
AcDbDimAssoc
330
1DA1
 90
        1
 70
     0
 71
     1
  1
AcDbOsnapPointRef
 72
    13
331
105E
 73
     0
 91
        0
 40
0.0
 10
0.0
 20
0.0
 30
0.0
 75
     0
  0
DIMASSOC
  5
1DD0
102
{ACAD_REACTORS
330
1DCF
102
}
330
1DCF
100
AcDbDimAssoc
330
1DCE
 90
        3
 70
     0
 71
     1
  1
AcDbOsnapPointRef
 72
    13
331
1081
 73
     0
 91
        0
 40
0.0
 10
0.0
 20
0.0
 30
0.0
 75
     0
  1
AcDbOsnapPointRef
 72
    13
331
1138
 73
     0
 91
        0
 40
0.0
 10
0.0
 20
0.0
 30
0.0
 75
     0
  0
DIMASSOC
  5
1DFA
102
{ACAD_REACTORS
330
1DF9
102
}
330
1DF9
100
AcDbDimAssoc
330
1DF8
 90
        3
 70
     0
 71
     1
  1
AcDbOsnapPointRef
 72
    13
331
1063
 73
     0
 91
        0
 40
0.0
 10
0.0
 20
0.0
 30
0.0
 75
     0
  1
AcDbOsnapPointRef
 72
     1
331
1138
 73
     0
 91
        0
 40
0.0
 10
0.0
 20
0.0
 30
0.0
 75
     0
  0
DIMASSOC
  5
1E09
102
{ACAD_REACTORS
330
1E08
102
}
330
1E08
100
AcDbDimAssoc
330
1E07
 90
        3
 70
     0
 71
     1
  1
AcDbOsnapPointRef
 72
    13
331
1063
 73
     0
 91
        0
 40
0.0
 10
0.0
 20
0.0
 30
0.0
 75
     0
  1
AcDbOsnapPointRef
 72
     1
331
105B
 73
     0
 91
        0
 40
0.0
 10
0.0
 20
0.0
 30
0.0
 75
     0
  0
DIMASSOC
  5
1E18
102
{ACAD_REACTORS
330
1E17
102
}
330
1E17
100
AcDbDimAssoc
330
1E16
 90
        3
 70
     0
 71
     1
  1
AcDbOsnapPointRef
 72
     1
331
1D9B
 73
     0
 91
        0
 40
0.0
 10
0.0
 20
0.0
 30
0.0
 75
     0
  1
AcDbOsnapPointRef
 72
     1
331
1049
 73
     0
 91
        0
 40
0.0
 10
0.0
 20
0.0
 30
0.0
 75
     0
  0
DIMASSOC
  5
1E27
102
{ACAD_REACTORS
330
1E26
102
}
330
1E26
100
AcDbDimAssoc
330
1E25
 90
        3
 70
     0
 71
     1
  1
AcDbOsnapPointRef
 72
    13
331
1D12
 73
     0
 91
        0
 40
0.0
 10
0.0
 20
0.0
 30
0.0
 75
     0
  1
AcDbOsnapPointRef
 72
    13
331
10EF
 73
     0
 91
        0
 40
0.0
 10
0.0
 20
0.0
 30
0.0
 75
     0
  0
DIMASSOC
  5
1F30
102
{ACAD_REACTORS
330
1F2F
102
}
330
1F2F
100
AcDbDimAssoc
330
1F2E
 90
        3
 70
     0
 71
     1
  1
AcDbOsnapPointRef
 72
     3
331
106A
 73
     0
 91
        0
 40
0.0
 10
0.0
 20
0.0
 30
0.0
 75
     0
  1
AcDbOsnapPointRef
 72
     3
331
1F2D
 73
     0
 91
        0
 40
0.0
 10
0.0
 20
0.0
 30
0.0
 75
     0
  0
DIMASSOC
  5
1F7A
102
{ACAD_REACTORS
330
1F79
102
}
330
1F79
100
AcDbDimAssoc
330
1F78
 90
        3
 70
     0
 71
     1
  1
AcDbOsnapPointRef
 72
     3
331
1F77
 73
     0
 91
        0
 40
0.0
 10
0.0
 20
0.0
 30
0.0
 75
     0
  1
AcDbOsnapPointRef
 72
    13
331
1078
 73
     0
 91
        0
 40
0.0
 10
0.0
 20
0.0
 30
0.0
 75
     0
  0
DIMASSOC
  5
1F9D
102
{ACAD_REACTORS
330
1F9C
102
}
330
1F9C
100
AcDbDimAssoc
330
1F9B
 90
        3
 70
     0
 71
     1
  1
AcDbOsnapPointRef
 72
     2
331
1F89
 73
     0
 91
        0
 40
0.5
 10
0.0
 20
0.0
 30
0.0
 75
     0
  1
AcDbOsnapPointRef
 72
     2
331
1F8E
 73
     0
 91
        0
 40
0.5
 10
0.0
 20
0.0
 30
0.0
 75
     0
  0
LAYOUT
  5
21
102
{ACAD_REACTORS
330
1E
102
}
330
1E
100
AcDbPlotSettings
  1

  2
none_device
  4
ISO_A3_(420.00_x_297.00_MM)
  6

 40
7.5
 41
20.0
 42
7.5
 43
20.0
 44
420.0
 45
297.0
 46
0.0
 47
0.0
 48
0.0
 49
0.0
140
0.0
141
0.0
142
1.0
143
1.0
 70
     0
 72
     1
 73
     0
 74
     0
  7

 75
     0
 76
     0
 77
     2
 78
   300
147
1.0
148
0.0
149
0.0
100
AcDbLayout
  1
Layout1
 70
     0
 71
     0
 10
0.0
 20
0.0
 11
0.0
 21
0.0
 12
0.0
 22
0.0
 32
0.0
 14
0.0
 24
0.0
 34
0.0
 15
0.0
 25
0.0
 35
0.0
146
0.0
 13
0.0
 23
0.0
 33
0.0
 16
0.0
 26
0.0
 36
0.0
 17
0.0
 27
0.0
 37
0.0
 76
     0
330
B
331
349
  0
LAYOUT
  5
20
102
{ACAD_REACTORS
330
1E
102
}
330
1E
100
AcDbPlotSettings
  1

  2
none_device
  4
ISO_A3_(420.00_x_297.00_MM)
  6

 40
7.5
 41
20.0
 42
7.5
 43
20.0
 44
420.0
 45
297.0
 46
0.0
 47
0.0
 48
0.0
 49
0.0
140
0.0
141
0.0
142
1.0
143
1.0
 70
  1024
 72
     1
 73
     0
 74
     0
  7

 75
     0
 76
     0
 77
     2
 78
   300
147
1.0
148
0.0
149
0.0
100
AcDbLayout
  1
Model
 70
     0
 71
     1
 10
-10.0
 20
-0.9201746284776391
 11
2040.0
 21
2924.552903395052
 12
0.0
 22
0.0
 32
0.0
 14
40.0
 24
41.19837821319445
 34
0.0
 15
1990.000000000482
 25
2874.552903395052
 35
0.0
146
0.0
 13
0.0
 23
0.0
 33
0.0
 16
0.0
 26
0.0
 36
0.0
 17
0.0
 27
0.0
 37
0.0
 76
     0
330
A
331
15
  0
MATERIAL
  5
265
102
{ACAD_REACTORS
330
263
102
}
330
263
100
AcDbMaterial
  1
ByBlock
 72
     1
 94
      127
  0
MATERIAL
  5
264
102
{ACAD_REACTORS
330
263
102
}
330
263
100
AcDbMaterial
  1
ByLayer
 72
     1
 94
      127
  0
MATERIAL
  5
266
102
{ACAD_REACTORS
330
263
102
}
330
263
100
AcDbMaterial
  1
Global
 72
     1
 94
      127
  0
MLINESTYLE
  5
1C
102
{ACAD_REACTORS
330
1B
102
}
330
1B
100
AcDbMlineStyle
  2
Standard
 70
     0
  3

 62
     0
 51
90.0
 52
90.0
 71
     2
 49
0.5
 62
   256
  6
BYLAYER
 49
-0.5
 62
   256
  6
BYLAYER
  0
ACDBPLACEHOLDER
  5
1D
102
{ACAD_REACTORS
330
1F
102
}
330
1F
  0
SCALE
  5
242
102
{ACAD_REACTORS
330
241
102
}
330
241
100
AcDbScale
 70
     0
300
1:1
140
1.0
141
1.0
290
     1
  0
SCALE
  5
243
102
{ACAD_REACTORS
330
241
102
}
330
241
100
AcDbScale
 70
     0
300
1:2
140
1.0
141
2.0
290
     0
  0
SCALE
  5
244
102
{ACAD_REACTORS
330
241
102
}
330
241
100
AcDbScale
 70
     0
300
1:4
140
1.0
141
4.0
290
     0
  0
SCALE
  5
245
102
{ACAD_REACTORS
330
241
102
}
330
241
100
AcDbScale
 70
     0
300
1:5
140
1.0
141
5.0
290
     0
  0
SCALE
  5
246
102
{ACAD_REACTORS
330
241
102
}
330
241
100
AcDbScale
 70
     0
300
1:8
140
1.0
141
8.0
290
     0
  0
SCALE
  5
247
102
{ACAD_REACTORS
330
241
102
}
330
241
100
AcDbScale
 70
     0
300
1:10
140
1.0
141
10.0
290
     0
  0
SCALE
  5
248
102
{ACAD_REACTORS
330
241
102
}
330
241
100
AcDbScale
 70
     0
300
1:16
140
1.0
141
16.0
290
     0
  0
SCALE
  5
249
102
{ACAD_REACTORS
330
241
102
}
330
241
100
AcDbScale
 70
     0
300
1:20
140
1.0
141
20.0
290
     0
  0
SCALE
  5
24A
102
{ACAD_REACTORS
330
241
102
}
330
241
100
AcDbScale
 70
     0
300
1:30
140
1.0
141
30.0
290
     0
  0
SCALE
  5
24B
102
{ACAD_REACTORS
330
241
102
}
330
241
100
AcDbScale
 70
     0
300
1:40
140
1.0
141
40.0
290
     0
  0
SCALE
  5
24C
102
{ACAD_REACTORS
330
241
102
}
330
241
100
AcDbScale
 70
     0
300
1:50
140
1.0
141
50.0
290
     0
  0
SCALE
  5
24D
102
{ACAD_REACTORS
330
241
102
}
330
241
100
AcDbScale
 70
     0
300
1:100
140
1.0
141
100.0
290
     0
  0
SCALE
  5
24E
102
{ACAD_REACTORS
330
241
102
}
330
241
100
AcDbScale
 70
     0
300
2:1
140
2.0
141
1.0
290
     0
  0
SCALE
  5
24F
102
{ACAD_REACTORS
330
241
102
}
330
241
100
AcDbScale
 70
     0
300
4:1
140
4.0
141
1.0
290
     0
  0
SCALE
  5
250
102
{ACAD_REACTORS
330
241
102
}
330
241
100
AcDbScale
 70
     0
300
8:1
140
8.0
141
1.0
290
     0
  0
SCALE
  5
251
102
{ACAD_REACTORS
330
241
102
}
330
241
100
AcDbScale
 70
     0
300
10:1
140
10.0
141
1.0
290
     0
  0
SCALE
  5
252
102
{ACAD_REACTORS
330
241
102
}
330
241
100
AcDbScale
 70
     0
300
100:1
140
100.0
141
1.0
290
     0
  0
SCALE
  5
253
102
{ACAD_REACTORS
330
241
102
}
330
241
100
AcDbScale
 70
     0
300
1/128" = 1'-0"
140
0.0078125
141
12.0
290
     0
  0
SCALE
  5
254
102
{ACAD_REACTORS
330
241
102
}
330
241
100
AcDbScale
 70
     0
300
1/64" = 1'-0"
140
0.015625
141
12.0
290
     0
  0
SCALE
  5
255
102
{ACAD_REACTORS
330
241
102
}
330
241
100
AcDbScale
 70
     0
300
1/32" = 1'-0"
140
0.03125
141
12.0
290
     0
  0
SCALE
  5
256
102
{ACAD_REACTORS
330
241
102
}
330
241
100
AcDbScale
 70
     0
300
1/16" = 1'-0"
140
0.0625
141
12.0
290
     0
  0
SCALE
  5
257
102
{ACAD_REACTORS
330
241
102
}
330
241
100
AcDbScale
 70
     0
300
3/32" = 1'-0"
140
0.09375
141
12.0
290
     0
  0
SCALE
  5
258
102
{ACAD_REACTORS
330
241
102
}
330
241
100
AcDbScale
 70
     0
300
1/8" = 1'-0"
140
0.125
141
12.0
290
     0
  0
SCALE
  5
259
102
{ACAD_REACTORS
330
241
102
}
330
241
100
AcDbScale
 70
     0
300
3/16" = 1'-0"
140
0.1875
141
12.0
290
     0
  0
SCALE
  5
25A
102
{ACAD_REACTORS
330
241
102
}
330
241
100
AcDbScale
 70
     0
300
1/4" = 1'-0"
140
0.25
141
12.0
290
     0
  0
SCALE
  5
25B
102
{ACAD_REACTORS
330
241
102
}
330
241
100
AcDbScale
 70
     0
300
3/8" = 1'-0"
140
0.375
141
12.0
290
     0
  0
SCALE
  5
25C
102
{ACAD_REACTORS
330
241
102
}
330
241
100
AcDbScale
 70
     0
300
1/2" = 1'-0"
140
0.5
141
12.0
290
     0
  0
SCALE
  5
25D
102
{ACAD_REACTORS
330
241
102
}
330
241
100
AcDbScale
 70
     0
300
3/4" = 1'-0"
140
0.75
141
12.0
290
     0
  0
SCALE
  5
25E
102
{ACAD_REACTORS
330
241
102
}
330
241
100
AcDbScale
 70
     0
300
1" = 1'-0"
140
1.0
141
12.0
290
     0
  0
SCALE
  5
25F
102
{ACAD_REACTORS
330
241
102
}
330
241
100
AcDbScale
 70
     0
300
1-1/2" = 1'-0"
140
1.5
141
12.0
290
     0
  0
SCALE
  5
260
102
{ACAD_REACTORS
330
241
102
}
330
241
100
AcDbScale
 70
     0
300
3" = 1'-0"
140
3.0
141
12.0
290
     0
  0
SCALE
  5
261
102
{ACAD_REACTORS
330
241
102
}
330
241
100
AcDbScale
 70
     0
300
6" = 1'-0"
140
6.0
141
12.0
290
     0
  0
SCALE
  5
262
102
{ACAD_REACTORS
330
241
102
}
330
241
100
AcDbScale
 70
     0
300
1'-0" = 1'-0"
140
12.0
141
12.0
290
     0
  0
TABLESTYLE
  5
279
102
{ACAD_REACTORS
330
278
102
}
102
{ACAD_XDICTIONARY
360
2210
102
}
330
278
100
AcDbTableStyle
  3
Standard
 70
     0
 71
     0
 40
0.06
 41
0.06
280
     0
281
     0
  7
Standard
140
4.5
170
     2
 62
     0
 63
   257
283
     0
 90
        4
 91
        0
  1

274
    -2
284
     1
 64
     0
275
    -2
285
     1
 65
     0
276
    -2
286
     1
 66
     0
277
    -2
287
     1
 67
     0
278
    -2
288
     1
 68
     0
279
    -2
289
     1
 69
     0
  7
Standard
140
6.0
170
     5
 62
     0
 63
   257
283
     0
 90
        4
 91
        0
  1

274
    -2
284
     1
 64
     0
275
    -2
285
     1
 65
     0
276
    -2
286
     1
 66
     0
277
    -2
287
     1
 67
     0
278
    -2
288
     1
 68
     0
279
    -2
289
     1
 69
     0
  7
Standard
140
4.5
170
     5
 62
     0
 63
   257
283
     0
 90
        4
 91
        0
  1

274
    -2
284
     1
 64
     0
275
    -2
285
     1
 65
     0
276
    -2
286
     1
 66
     0
277
    -2
287
     1
 67
     0
278
    -2
288
     1
 68
     0
279
    -2
289
     1
 69
     0
  0
VISUALSTYLE
  5
26C
102
{ACAD_REACTORS
330
267
102
}
330
267
100
AcDbVisualStyle
  2
2dWireframe
 70
     4
 71
     0
 72
     2
 73
     0
 90
        0
 40
-0.6
 41
-30.0
 62
     5
 63
     7
421
 16777215
 74
     1
 91
        4
 64
     7
 65
   257
 75
     1
175
     1
 42
1.0
 92
        0
 66
   257
 43
1.0
 76
     1
 77
     6
 78
     2
 67
     7
 79
     5
170
     0
171
     0
290
     0
174
     0
 93
        1
 44
0.0
173
     0
291
     0
 45
0.0
  0
VISUALSTYLE
  5
26E
102
{ACAD_REACTORS
330
267
102
}
330
267
100
AcDbVisualStyle
  2
3D Hidden
 70
     6
 71
     1
 72
     2
 73
     2
 90
        0
 40
-0.6
 41
-30.0
 62
     5
 63
     7
421
 16777215
 74
     2
 91
        2
 64
     7
 65
   257
 75
     2
175
     1
 42
40.0
 92
        0
 66
   257
 43
1.0
 76
     1
 77
     6
 78
     2
 67
     7
 79
     3
170
     0
171
     0
290
     0
174
     0
 93
        1
 44
0.0
173
     0
291
     0
 45
0.0
  0
VISUALSTYLE
  5
26D
102
{ACAD_REACTORS
330
267
102
}
330
267
100
AcDbVisualStyle
  2
3dWireframe
 70
     5
 71
     0
 72
     2
 73
     0
 90
        0
 40
-0.6
 41
-30.0
 62
     5
 63
     7
421
 16777215
 74
     1
 91
        4
 64
     7
 65
   257
 75
     1
175
     1
 42
1.0
 92
        0
 66
   257
 43
1.0
 76
     1
 77
     6
 78
     2
 67
     7
 79
     5
170
     0
171
     0
290
     0
174
     0
 93
        1
 44
0.0
173
     0
291
     0
 45
0.0
  0
VISUALSTYLE
  5
26F
102
{ACAD_REACTORS
330
267
102
}
330
267
100
AcDbVisualStyle
  2
Basic
 70
     7
 71
     1
 72
     0
 73
     1
 90
        0
 40
-0.6
 41
-30.0
 62
     5
 63
     7
421
 16777215
 74
     0
 91
        4
 64
     7
 65
   257
 75
     1
175
     1
 42
1.0
 92
        8
 66
     7
 43
1.0
 76
     1
 77
     6
 78
     2
 67
     7
 79
     5
170
     0
171
     0
290
     0
174
     0
 93
        1
 44
0.0
173
     0
291
     1
 45
0.0
  0
VISUALSTYLE
  5
273
102
{ACAD_REACTORS
330
267
102
}
330
267
100
AcDbVisualStyle
  2
Brighten
 70
    12
 71
     2
 72
     2
 73
     0
 90
        0
 40
-0.6
 41
-30.0
 62
     5
 63
     7
421
 16777215
 74
     1
 91
        4
 64
     7
 65
   257
 75
     1
175
     1
 42
1.0
 92
        8
 66
     7
 43
1.0
 76
     1
 77
     6
 78
     2
 67
     7
 79
     5
170
     0
171
     0
290
     0
174
     0
 93
        1
 44
50.0
173
     0
291
     1
 45
0.0
  0
VISUALSTYLE
  5
277
102
{ACAD_REACTORS
330
267
102
}
330
267
100
AcDbVisualStyle
  2
ColorChange
 70
    16
 71
     2
 72
     2
 73
     3
 90
        0
 40
-0.6
 41
-30.0
 62
     5
 63
     8
421
  8421504
 74
     1
 91
        4
 64
     7
 65
   257
 75
     1
175
     1
 42
1.0
 92
        8
 66
     8
424
  8421504
 43
1.0
 76
     1
 77
     6
 78
     2
 67
     7
 79
     5
170
     0
171
     0
290
     0
174
     0
 93
        1
 44
0.0
173
     0
291
     1
 45
0.0
  0
VISUALSTYLE
  5
271
102
{ACAD_REACTORS
330
267
102
}
330
267
100
AcDbVisualStyle
  2
Conceptual
 70
     9
 71
     3
 72
     2
 73
     0
 90
        0
 40
-0.6
 41
-30.0
 62
     5
 63
     7
421
 16777215
 74
     2
 91
        2
 64
     7
 65
   257
 75
     1
175
     1
 42
40.0
 92
        8
 66
     7
 43
1.0
 76
     1
 77
     6
 78
     2
 67
     7
 79
     3
170
     0
171
     0
290
     0
174
     0
 93
        1
 44
0.0
173
     0
291
     0
 45
0.0
  0
VISUALSTYLE
  5
272
102
{ACAD_REACTORS
330
267
102
}
330
267
100
AcDbVisualStyle
  2
Dim
 70
    11
 71
     2
 72
     2
 73
     0
 90
        0
 40
-0.6
 41
-30.0
 62
     5
 63
     7
421
 16777215
 74
     1
 91
        4
 64
     7
 65
   257
 75
     1
175
     1
 42
1.0
 92
        8
 66
     7
 43
1.0
 76
     1
 77
     6
 78
     2
 67
     7
 79
     5
170
     0
171
     0
290
     0
174
     0
 93
        1
 44
-50.0
173
     0
291
     1
 45
0.0
  0
VISUALSTYLE
  5
689
102
{ACAD_REACTORS
330
267
102
}
330
267
100
AcDbVisualStyle
  2
EdgeColorOff
 70
    22
 71
     2
 72
     2
 73
     0
 90
        0
 40
0.6
 41
30.0
 62
     5
 63
     7
421
 16777215
 74
     1
 91
        4
 64
     7
 65
   257
 75
     1
175
     1
 42
1.0
 92
        8
 66
     7
 43
1.0
 76
     1
 77
     6
 78
     2
 67
     7
 79
     5
170
     0
171
     0
290
     0
174
     0
 93
        1
 44
0.0
173
     0
291
     1
 45
0.0
  0
VISUALSTYLE
  5
276
102
{ACAD_REACTORS
330
267
102
}
330
267
100
AcDbVisualStyle
  2
Facepattern
 70
    15
 71
     2
 72
     2
 73
     0
 90
        0
 40
-0.6
 41
-30.0
 62
     5
 63
     7
421
 16777215
 74
     1
 91
        4
 64
     7
 65
   257
 75
     1
175
     1
 42
1.0
 92
        8
 66
     7
 43
1.0
 76
     1
 77
     6
 78
     2
 67
     7
 79
     5
170
     0
171
     0
290
     0
174
     0
 93
        1
 44
0.0
173
     0
291
     1
 45
0.0
  0
VISUALSTYLE
  5
268
102
{ACAD_REACTORS
330
267
102
}
330
267
100
AcDbVisualStyle
  2
Flat
 70
     0
 71
     2
 72
     1
 73
     1
 90
        2
 40
-0.6
 41
30.0
 62
     5
 63
     7
421
 16777215
 74
     0
 91
        4
 64
     7
 65
   257
 75
     1
175
     1
 42
1.0
 92
        8
 66
     7
 43
1.0
 76
     1
 77
     6
 78
     2
 67
     7
 79
     5
170
     0
171
     0
290
     0
174
     0
 93
       13
 44
0.0
173
     0
291
     1
 45
0.0
  0
VISUALSTYLE
  5
269
102
{ACAD_REACTORS
330
267
102
}
330
267
100
AcDbVisualStyle
  2
FlatWithEdges
 70
     1
 71
     2
 72
     1
 73
     1
 90
        2
 40
-0.6
 41
30.0
 62
     5
 63
     7
421
 16777215
 74
     1
 91
        4
 64
     7
 65
   257
 75
     1
175
     1
 42
1.0
 92
        0
 66
   257
 43
1.0
 76
     1
 77
     6
 78
     2
 67
     7
 79
     5
170
     0
171
     0
290
     0
174
     0
 93
       13
 44
0.0
173
     0
291
     1
 45
0.0
  0
VISUALSTYLE
  5
26A
102
{ACAD_REACTORS
330
267
102
}
330
267
100
AcDbVisualStyle
  2
Gouraud
 70
     2
 71
     2
 72
     2
 73
     1
 90
        2
 40
-0.6
 41
30.0
 62
     5
 63
     7
421
 16777215
 74
     0
 91
        4
 64
     7
 65
   257
 75
     1
175
     1
 42
1.0
 92
        0
 66
     7
 43
1.0
 76
     1
 77
     6
 78
     2
 67
     7
 79
     5
170
     0
171
     0
290
     0
174
     0
 93
       13
 44
0.0
173
     0
291
     1
 45
0.0
  0
VISUALSTYLE
  5
26B
102
{ACAD_REACTORS
330
267
102
}
330
267
100
AcDbVisualStyle
  2
GouraudWithEdges
 70
     3
 71
     2
 72
     2
 73
     1
 90
        2
 40
-0.6
 41
30.0
 62
     5
 63
     7
421
 16777215
 74
     1
 91
        4
 64
     7
 65
   257
 75
     1
175
     1
 42
1.0
 92
        0
 66
   257
 43
1.0
 76
     1
 77
     6
 78
     2
 67
     7
 79
     5
170
     0
171
     0
290
     0
174
     0
 93
       13
 44
0.0
173
     0
291
     1
 45
0.0
  0
VISUALSTYLE
  5
686
102
{ACAD_REACTORS
330
267
102
}
330
267
100
AcDbVisualStyle
  2
Hidden
 70
     6
 71
     1
 72
     2
 73
     2
 90
        0
 40
0.6
 41
30.0
 62
     5
 63
     7
421
 16777215
 74
     2
 91
        2
 64
     7
 65
   257
 75
     2
175
     1
 42
40.0
 92
        0
 66
   257
 43
1.0
 76
     1
 77
     6
 78
     2
 67
     7
 79
     3
170
     0
171
     0
290
     0
174
     0
 93
        1
 44
0.0
173
     0
291
     0
 45
0.0
  0
VISUALSTYLE
  5
687
102
{ACAD_REACTORS
330
267
102
}
330
267
100
AcDbVisualStyle
  2
JitterOff
 70
    20
 71
     2
 72
     2
 73
     0
 90
        0
 40
0.6
 41
30.0
 62
     5
 63
     7
421
 16777215
 74
     1
 91
        4
 64
     7
 65
   257
 75
     1
175
     1
 42
1.0
 92
       10
 66
     7
 43
1.0
 76
     1
 77
     6
 78
     2
 67
     7
 79
     5
170
     0
171
     0
290
     0
174
     0
 93
        1
 44
0.0
173
     0
291
     1
 45
0.0
  0
VISUALSTYLE
  5
275
102
{ACAD_REACTORS
330
267
102
}
330
267
100
AcDbVisualStyle
  2
Linepattern
 70
    14
 71
     2
 72
     2
 73
     0
 90
        0
 40
-0.6
 41
-30.0
 62
     5
 63
     7
421
 16777215
 74
     1
 91
        4
 64
     7
 65
   257
 75
     7
175
     7
 42
1.0
 92
        8
 66
     7
 43
1.0
 76
     1
 77
     6
 78
     2
 67
     7
 79
     5
170
     0
171
     0
290
     0
174
     0
 93
        1
 44
0.0
173
     0
291
     1
 45
0.0
  0
VISUALSTYLE
  5
688
102
{ACAD_REACTORS
330
267
102
}
330
267
100
AcDbVisualStyle
  2
OverhangOff
 70
    21
 71
     2
 72
     2
 73
     0
 90
        0
 40
0.6
 41
30.0
 62
     5
 63
     7
421
 16777215
 74
     1
 91
        4
 64
     7
 65
   257
 75
     1
175
     1
 42
1.0
 92
        9
 66
     7
 43
1.0
 76
     1
 77
     6
 78
     2
 67
     7
 79
     5
170
     0
171
     0
290
     0
174
     0
 93
        1
 44
0.0
173
     0
291
     1
 45
0.0
  0
VISUALSTYLE
  5
270
102
{ACAD_REACTORS
330
267
102
}
330
267
100
AcDbVisualStyle
  2
Realistic
 70
     8
 71
     2
 72
     2
 73
     0
 90
        0
 40
-0.6
 41
-30.0
 62
     5
 63
     7
421
 16777215
 74
     1
 91
        0
 64
     7
 65
   257
 75
     1
175
     1
 42
1.0
 92
        8
 66
     8
424
  7895160
 43
1.0
 76
     1
 77
     6
 78
     2
 67
     7
 79
     5
170
     0
171
     0
290
     0
174
     0
 93
       13
 44
0.0
173
     0
291
     0
 45
0.0
  0
VISUALSTYLE
  5
68E
102
{ACAD_REACTORS
330
267
102
}
330
267
100
AcDbVisualStyle
  2
Shaded
 70
    27
 71
     2
 72
     2
 73
     1
 90
        2
 40
0.6
 41
30.0
 62
     5
 63
     7
421
 16777215
 74
     0
 91
        4
 64
     7
 65
   257
 75
     1
175
     1
 42
1.0
 92
        8
 66
   257
 43
1.0
 76
     1
 77
     6
 78
     2
 67
     8
425
  7895160
 79
     3
170
     0
171
     0
290
     0
174
     0
 93
        5
 44
0.0
173
     0
291
     0
 45
0.0
  0
VISUALSTYLE
  5
68D
102
{ACAD_REACTORS
330
267
102
}
330
267
100
AcDbVisualStyle
  2
Shaded with edges
 70
    26
 71
     2
 72
     2
 73
     1
 90
        2
 40
0.6
 41
30.0
 62
     5
 63
     7
421
 16777215
 74
     1
 91
       10
 64
     7
 65
   257
 75
     2
175
     1
 42
1.0
 92
        8
 66
   257
 43
1.0
 76
     1
 77
     6
 78
     2
 67
     7
 79
     3
170
     0
171
     0
290
     0
174
     0
 93
        5
 44
0.0
173
     0
291
     0
 45
0.0
  0
VISUALSTYLE
  5
68A
102
{ACAD_REACTORS
330
267
102
}
330
267
100
AcDbVisualStyle
  2
Shades of Gray
 70
    23
 71
     2
 72
     2
 73
     3
 90
        0
 40
0.6
 41
30.0
 62
     5
 63
     7
421
 16777215
 74
     2
 91
        2
 64
     7
 65
     7
 75
     1
175
     1
 42
40.0
 92
        8
 66
     7
 43
1.0
 76
     1
 77
     6
 78
     2
 67
     7
 79
     3
170
     0
171
     0
290
     0
174
     0
 93
        1
 44
0.0
173
     0
291
     0
 45
0.0
  0
VISUALSTYLE
  5
68B
102
{ACAD_REACTORS
330
267
102
}
330
267
100
AcDbVisualStyle
  2
Sketchy
 70
    24
 71
     1
 72
     2
 73
     2
 90
        0
 40
0.6
 41
30.0
 62
     5
 63
     7
421
 16777215
 74
     2
 91
        2
 64
     7
 65
     7
 75
     1
175
     1
 42
40.0
 92
       11
 66
     7
 43
1.0
 76
     1
 77
     6
 78
     2
 67
     7
 79
     6
170
     0
171
     0
290
     0
174
     0
 93
        1
 44
0.0
173
     0
291
     0
 45
0.0
  0
VISUALSTYLE
  5
274
102
{ACAD_REACTORS
330
267
102
}
330
267
100
AcDbVisualStyle
  2
Thicken
 70
    13
 71
     2
 72
     2
 73
     0
 90
        0
 40
-0.6
 41
-30.0
 62
     5
 63
     7
421
 16777215
 74
     1
 91
        4
 64
     7
 65
   257
 75
     1
175
     1
 42
1.0
 92
       12
 66
     7
 43
1.0
 76
     1
 77
     6
 78
     2
 67
     7
 79
     5
170
     0
171
     0
290
     0
174
     0
 93
        1
 44
0.0
173
     0
291
     1
 45
0.0
  0
VISUALSTYLE
  5
685
102
{ACAD_REACTORS
330
267
102
}
330
267
100
AcDbVisualStyle
  2
Wireframe
 70
     5
 71
     0
 72
     2
 73
     0
 90
        0
 40
0.6
 41
30.0
 62
     5
 63
     7
421
 16777215
 74
     1
 91
        4
 64
     7
 65
   257
 75
     1
175
     1
 42
1.0
 92
        0
 66
   257
 43
1.0
 76
     1
 77
     6
 78
     2
 67
     7
 79
     3
170
     0
171
     0
290
     0
174
     0
 93
        1
 44
0.0
173
     0
291
     0
 45
0.0
  0
VISUALSTYLE
  5
68C
102
{ACAD_REACTORS
330
267
102
}
330
267
100
AcDbVisualStyle
  2
X-Ray
 70
    25
 71
     2
 72
     2
 73
     1
 90
        1
 40
0.5
 41
30.0
 62
     5
 63
     7
421
 16777215
 74
     1
 91
        0
 64
     7
 65
   257
 75
     1
175
     1
 42
1.0
 92
        8
 66
     7
 43
1.0
 76
     1
 77
     6
 78
     2
 67
     7
 79
     3
170
     0
171
     0
290
     0
174
     0
 93
       13
 44
0.0
173
     0
291
     0
 45
0.0
  0
DICTIONARYVAR
  5
331
102
{ACAD_REACTORS
330
330
102
}
330
330
100
DictionaryVariables
280
     0
  1
1:1
  0
DICTIONARYVAR
  5
335
102
{ACAD_REACTORS
330
330
102
}
330
330
100
DictionaryVariables
280
     0
  1
Standard
  0
DICTIONARYVAR
  5
64A
102
{ACAD_REACTORS
330
330
102
}
330
330
100
DictionaryVariables
280
     0
  1
0
  0
XRECORD
  5
C45
102
{ACAD_REACTORS
330
2E2
102
}
330
2E2
100
AcDbXrecord
280
     1
 91
     1023
301

290
     0
302
Dim
330
14
 90
        8
 62
     7
370
    -3
331
13
  1
Color_7
330
4A
 90
        0
 62
     7
370
    13
331
13
  1
Color_7
330
4B
 90
        8
 62
     7
370
    20
331
13
  1
Color_7
330
0
 90
        8
 62
     7
370
    20
331
13
  1
Color_7
330
4D
 90
        8
 62
     7
370
    20
331
13
  1
Color_7
330
382
 90
        8
 62
     7
370
    20
331
13
  1
Color_7
330
0
 90
        8
 62
     7
370
    20
331
45
  1
Color_7
330
5EB
 90
        9
 62
     7
370
    13
331
13
  1
Color_7
330
0
 90
        8
 62
     7
370
    -3
331
13
  1
Color_7
  0
XRECORD
  5
CE8
102
{ACAD_REACTORS
330
2E2
102
}
330
2E2
100
AcDbXrecord
280
     1
 91
     1023
301

290
     0
302
Dim
330
14
 90
        8
 62
     7
370
    -3
331
13
  1
Color_7
330
4A
 90
        0
 62
     7
370
    13
331
13
  1
Color_7
330
4B
 90
        8
 62
     7
370
    20
331
13
  1
Color_7
330
0
 90
        8
 62
     7
370
    20
331
13
  1
Color_7
330
4D
 90
        8
 62
     7
370
    20
331
13
  1
Color_7
330
382
 90
        8
 62
     7
370
    20
331
13
  1
Color_7
330
0
 90
        8
 62
     7
370
    20
331
45
  1
Color_7
330
5EB
 90
        8
 62
     7
370
    13
331
13
  1
Color_7
330
0
 90
        8
 62
     7
370
    -3
331
13
  1
Color_7
  0
XRECORD
  5
1DF7
102
{ACAD_REACTORS
330
2E2
102
}
330
2E2
100
AcDbXrecord
280
     1
 91
     1023
301

290
     0
302
MODEL
330
14
 90
        8
 62
     7
370
    -3
331
13
  1
Color_7
330
4A
 90
        0
 62
     7
370
    13
331
13
  1
Color_7
330
4B
 90
        8
 62
     7
370
    20
331
13
  1
Color_7
330
0
 90
        8
 62
     7
370
    20
331
13
  1
Color_7
330
4D
 90
        8
 62
     7
370
    20
331
13
  1
Color_7
330
382
 90
        8
 62
     7
370
    20
331
13
  1
Color_7
330
0
 90
        8
 62
     7
370
    20
331
45
  1
Color_7
330
5EB
 90
        8
 62
     7
370
    13
331
13
  1
Color_7
330
0
 90
        8
 62
     7
370
    -3
331
13
  1
Color_7
330
0
 90
        8
 62
    40
370
     9
331
13
  1
Color_40
330
0
 90
        8
 62
   253
370
     0
331
13
  1
Color_253
  0
XRECORD
  5
1FB0
102
{ACAD_REACTORS
330
2E2
102
}
330
2E2
100
AcDbXrecord
280
     1
 91
     1023
301

290
     0
302
Dim
330
14
 90
        8
 62
     7
370
    -3
331
13
  1
Color_7
330
4A
 90
        0
 62
     7
370
    13
331
13
  1
Color_7
330
4B
 90
        8
 62
     7
370
    20
331
13
  1
Color_7
330
0
 90
        8
 62
     7
370
    20
331
13
  1
Color_7
330
4D
 90
        8
 62
     7
370
    20
331
13
  1
Color_7
330
382
 90
        8
 62
     7
370
    20
331
13
  1
Color_7
330
0
 90
        8
 62
     7
370
    20
331
45
  1
Color_7
330
5EB
 90
        8
 62
     7
370
    13
331
13
  1
Color_7
330
0
 90
        8
 62
     7
370
    -3
331
13
  1
Color_7
330
0
 90
        8
 62
    40
370
     9
331
13
  1
Color_40
330
0
 90
        8
 62
   253
370
     0
331
13
  1
Color_253
  0
XRECORD
  5
1FB1
102
{ACAD_REACTORS
330
2E2
102
}
330
2E2
100
AcDbXrecord
280
     1
 91
     1023
301

290
     0
302
Dim
330
14
 90
        8
 62
     7
370
    -3
331
13
  1
Color_7
330
4A
 90
        0
 62
     7
370
    13
331
13
  1
Color_7
330
4B
 90
        8
 62
     7
370
    20
331
13
  1
Color_7
330
0
 90
        8
 62
     7
370
    20
331
13
  1
Color_7
330
4D
 90
        8
 62
     7
370
    20
331
13
  1
Color_7
330
382
 90
        8
 62
     7
370
    20
331
13
  1
Color_7
330
0
 90
        8
 62
     7
370
    20
331
45
  1
Color_7
330
5EB
 90
        9
 62
     7
370
    13
331
13
  1
Color_7
330
0
 90
        8
 62
     7
370
    -3
331
13
  1
Color_7
330
0
 90
        8
 62
    40
370
     9
331
13
  1
Color_40
330
0
 90
        8
 62
   253
370
     0
331
13
  1
Color_253
  0
DICTIONARY
  5
2210
330
279
100
AcDbDictionary
280
     1
281
     1
  3
ACAD_ROUNDTRIP_2008_TABLESTYLE_CELLSTYLEMAP
360
2211
  0
CELLSTYLEMAP
  5
2211
102
{ACAD_REACTORS
330
2210
102
}
330
2210
100
AcDbCellStyleMap
 90
        3
300
CELLSTYLE
  1
TABLEFORMAT_BEGIN
 90
        5
170
     1
 91
        0
 92
    32768
 62
   257
 93
        1
300
CONTENTFORMAT
  1
CONTENTFORMAT_BEGIN
 90
        0
 91
        0
 92
        4
 93
        0
300

 40
0.0
140
1.0
 94
        5
 62
     0
340
17
144
6.0
309
CONTENTFORMAT_END
171
     1
301
MARGIN
  1
CELLMARGIN_BEGIN
 40
0.06
 40
0.06
 40
0.06
 40
0.06
 40
0.18
 40
0.18
309
CELLMARGIN_END
 94
        6
 95
        1
302
GRIDFORMAT
  1
GRIDFORMAT_BEGIN
 90
        0
 91
        1
 62
     0
 92
       -2
340
0
 93
        0
 40
0.045
309
GRIDFORMAT_END
 95
        2
302
GRIDFORMAT
  1
GRIDFORMAT_BEGIN
 90
        0
 91
        1
 62
     0
 92
       -2
340
0
 93
        0
 40
0.045
309
GRIDFORMAT_END
 95
        4
302
GRIDFORMAT
  1
GRIDFORMAT_BEGIN
 90
        0
 91
        1
 62
     0
 92
       -2
340
0
 93
        0
 40
0.045
309
GRIDFORMAT_END
 95
        8
302
GRIDFORMAT
  1
GRIDFORMAT_BEGIN
 90
        0
 91
        1
 62
     0
 92
       -2
340
0
 93
        0
 40
0.045
309
GRIDFORMAT_END
 95
       16
302
GRIDFORMAT
  1
GRIDFORMAT_BEGIN
 90
        0
 91
        1
 62
     0
 92
       -2
340
0
 93
        0
 40
0.045
309
GRIDFORMAT_END
 95
       32
302
GRIDFORMAT
  1
GRIDFORMAT_BEGIN
 90
        0
 91
        1
 62
     0
 92
       -2
340
0
 93
        0
 40
0.045
309
GRIDFORMAT_END
309
TABLEFORMAT_END
  1
CELLSTYLE_BEGIN
 90
        1
 91
        1
300
_TITLE
309
CELLSTYLE_END
300
CELLSTYLE
  1
TABLEFORMAT_BEGIN
 90
        5
170
     1
 91
        0
 92
        0
 62
   257
 93
        1
300
CONTENTFORMAT
  1
CONTENTFORMAT_BEGIN
 90
        0
 91
        0
 92
        4
 93
        0
300

 40
0.0
140
1.0
 94
        5
 62
     0
340
17
144
4.5
309
CONTENTFORMAT_END
171
     1
301
MARGIN
  1
CELLMARGIN_BEGIN
 40
0.06
 40
0.06
 40
0.06
 40
0.06
 40
0.18
 40
0.18
309
CELLMARGIN_END
 94
        6
 95
        1
302
GRIDFORMAT
  1
GRIDFORMAT_BEGIN
 90
        0
 91
        1
 62
     0
 92
       -2
340
0
 93
        0
 40
0.045
309
GRIDFORMAT_END
 95
        2
302
GRIDFORMAT
  1
GRIDFORMAT_BEGIN
 90
        0
 91
        1
 62
     0
 92
       -2
340
0
 93
        0
 40
0.045
309
GRIDFORMAT_END
 95
        4
302
GRIDFORMAT
  1
GRIDFORMAT_BEGIN
 90
        0
 91
        1
 62
     0
 92
       -2
340
0
 93
        0
 40
0.045
309
GRIDFORMAT_END
 95
        8
302
GRIDFORMAT
  1
GRIDFORMAT_BEGIN
 90
        0
 91
        1
 62
     0
 92
       -2
340
0
 93
        0
 40
0.045
309
GRIDFORMAT_END
 95
       16
302
GRIDFORMAT
  1
GRIDFORMAT_BEGIN
 90
        0
 91
        1
 62
     0
 92
       -2
340
0
 93
        0
 40
0.045
309
GRIDFORMAT_END
 95
       32
302
GRIDFORMAT
  1
GRIDFORMAT_BEGIN
 90
        0
 91
        1
 62
     0
 92
       -2
340
0
 93
        0
 40
0.045
309
GRIDFORMAT_END
309
TABLEFORMAT_END
  1
CELLSTYLE_BEGIN
 90
        2
 91
        1
300
_HEADER
309
CELLSTYLE_END
300
CELLSTYLE
  1
TABLEFORMAT_BEGIN
 90
        5
170
     1
 91
        0
 92
        0
 62
   257
 93
        1
300
CONTENTFORMAT
  1
CONTENTFORMAT_BEGIN
 90
        0
 91
        0
 92
        4
 93
        0
300

 40
0.0
140
1.0
 94
        2
 62
     0
340
17
144
4.5
309
CONTENTFORMAT_END
171
     1
301
MARGIN
  1
CELLMARGIN_BEGIN
 40
0.06
 40
0.06
 40
0.06
 40
0.06
 40
0.18
 40
0.18
309
CELLMARGIN_END
 94
        6
 95
        1
302
GRIDFORMAT
  1
GRIDFORMAT_BEGIN
 90
        0
 91
        1
 62
     0
 92
       -2
340
0
 93
        0
 40
0.045
309
GRIDFORMAT_END
 95
        2
302
GRIDFORMAT
  1
GRIDFORMAT_BEGIN
 90
        0
 91
        1
 62
     0
 92
       -2
340
0
 93
        0
 40
0.045
309
GRIDFORMAT_END
 95
        4
302
GRIDFORMAT
  1
GRIDFORMAT_BEGIN
 90
        0
 91
        1
 62
     0
 92
       -2
340
0
 93
        0
 40
0.045
309
GRIDFORMAT_END
 95
        8
302
GRIDFORMAT
  1
GRIDFORMAT_BEGIN
 90
        0
 91
        1
 62
     0
 92
       -2
340
0
 93
        0
 40
0.045
309
GRIDFORMAT_END
 95
       16
302
GRIDFORMAT
  1
GRIDFORMAT_BEGIN
 90
        0
 91
        1
 62
     0
 92
       -2
340
0
 93
        0
 40
0.045
309
GRIDFORMAT_END
 95
       32
302
GRIDFORMAT
  1
GRIDFORMAT_BEGIN
 90
        0
 91
        1
 62
     0
 92
       -2
340
0
 93
        0
 40
0.045
309
GRIDFORMAT_END
309
TABLEFORMAT_END
  1
CELLSTYLE_BEGIN
 90
        3
 91
        2
300
_DATA
309
CELLSTYLE_END
  0
ENDSEC
  0
EOF
