  0
SECTION
  2
HEADER
  9
$ACADVER
  1
AC1015
  9
$ACADMAINTVER
 70
     6
  9
$DWGCODEPAGE
  3
ANSI_932
  9
$INSBASE
 10
0.0
 20
0.0
 30
0.0
  9
$EXTMIN
 10
-1629.916666666668
 20
-1842.083333333333
 30
0.0
  9
$EXTMAX
 10
1474.833333333337
 20
1841.916666666667
 30
0.0
  9
$LIMMIN
 10
-420.0
 20
-594.0
  9
$LIMMAX
 10
420.0
 20
594.0
  9
$ORTHOMODE
 70
     0
  9
$REGENMODE
 70
     1
  9
$FILLMODE
 70
     1
  9
$QTEXTMODE
 70
     0
  9
$MIRRTEXT
 70
     1
  9
$LTSCALE
 40
1.0
  9
$ATTMODE
 70
     1
  9
$TEXTSIZE
 40
0.2
  9
$TRACEWID
 40
0.05
  9
$TEXTSTYLE
  7
Standard
  9
$CLAYER
  8
0
  9
$CELTYPE
  6
ByLayer
  9
$CECOLOR
 62
   256
  9
$CELTSCALE
 40
1.0
  9
$DISPSILH
 70
     0
  9
$DIMSCALE
 40
1.0
  9
$DIMASZ
 40
12.00000762939453
  9
$DIMEXO
 40
1.0
  9
$DIMDLI
 40
10.0
  9
$DIMRND
 40
0.0
  9
$DIMDLE
 40
0.0
  9
$DIMEXE
 40
1.0
  9
$DIMTP
 40
0.0
  9
$DIMTM
 40
0.0
  9
$DIMTXT
 40
16.0
  9
$DIMCEN
 40
0.0
  9
$DIMTSZ
 40
0.0
  9
$DIMTOL
 70
     0
  9
$DIMLIM
 70
     0
  9
$DIMTIH
 70
     0
  9
$DIMTOH
 70
     0
  9
$DIMSE1
 70
     0
  9
$DIMSE2
 70
     0
  9
$DIMTAD
 70
     1
  9
$DIMZIN
 70
     8
  9
$DIMBLK
  1

  9
$DIMASO
 70
     1
  9
$DIMSHO
 70
     1
  9
$DIMPOST
  1

  9
$DIMAPOST
  1

  9
$DIMALT
 70
     0
  9
$DIMALTD
 70
     2
  9
$DIMALTF
 40
25.4
  9
$DIMLFAC
 40
1.0
  9
$DIMTOFL
 70
     0
  9
$DIMTVP
 40
0.0
  9
$DIMTIX
 70
     0
  9
$DIMSOXD
 70
     0
  9
$DIMSAH
 70
     0
  9
$DIMBLK1
  1

  9
$DIMBLK2
  1

  9
$DIMSTYLE
  2
Standard
  9
$DIMCLRD
 70
     0
  9
$DIMCLRE
 70
     0
  9
$DIMCLRT
 70
     0
  9
$DIMTFAC
 40
0.65
  9
$DIMGAP
 40
0.09
  9
$DIMJUST
 70
     0
  9
$DIMSD1
 70
     0
  9
$DIMSD2
 70
     0
  9
$DIMTOLJ
 70
     0
  9
$DIMTZIN
 70
     0
  9
$DIMALTZ
 70
     0
  9
$DIMALTTZ
 70
     0
  9
$DIMUPT
 70
     0
  9
$DIMDEC
 70
     2
  9
$DIMTDEC
 70
     2
  9
$DIMALTU
 70
     2
  9
$DIMALTTD
 70
     2
  9
$DIMTXSTY
  7
Standard
  9
$DIMAUNIT
 70
     0
  9
$DIMADEC
 70
     2
  9
$DIMALTRND
 40
0.0
  9
$DIMAZIN
 70
     2
  9
$DIMDSEP
 70
    46
  9
$DIMATFIT
 70
     3
  9
$DIMFRAC
 70
     0
  9
$DIMLDRBLK
  1

  9
$DIMLUNIT
 70
     2
  9
$DIMLWD
 70
    -2
  9
$DIMLWE
 70
    -2
  9
$DIMTMOVE
 70
     0
  9
$LUNITS
 70
     2
  9
$LUPREC
 70
     4
  9
$SKETCHINC
 40
0.1
  9
$FILLETRAD
 40
0.5
  9
$AUNITS
 70
     0
  9
$AUPREC
 70
     0
  9
$MENU
  1
.
  9
$ELEVATION
 40
0.0
  9
$PELEVATION
 40
0.0
  9
$THICKNESS
 40
0.0
  9
$LIMCHECK
 70
     0
  9
$CHAMFERA
 40
0.5
  9
$CHAMFERB
 40
0.5
  9
$CHAMFERC
 40
1.0
  9
$CHAMFERD
 40
0.0
  9
$SKPOLY
 70
     0
  9
$TDCREATE
 40
2456049.668492975
  9
$TDUCREATE
 40
2456049.293492975
  9
$TDUPDATE
 40
2456049.668493333
  9
$TDUUPDATE
 40
2456049.293493333
  9
$TDINDWG
 40
0.0000000116
  9
$TDUSRTIMER
 40
0.0000000116
  9
$USRTIMER
 70
     1
  9
$ANGBASE
 50
0.0
  9
$ANGDIR
 70
     0
  9
$PDMODE
 70
     0
  9
$PDSIZE
 40
1.0
  9
$PLINEWID
 40
0.0
  9
$SPLFRAME
 70
     0
  9
$SPLINETYPE
 70
     6
  9
$SPLINESEGS
 70
     8
  9
$HANDSEED
  5
58F
  9
$SURFTAB1
 70
     6
  9
$SURFTAB2
 70
     6
  9
$SURFTYPE
 70
     6
  9
$SURFU
 70
     6
  9
$SURFV
 70
     6
  9
$UCSBASE
  2

  9
$UCSNAME
  2

  9
$UCSORG
 10
0.0
 20
0.0
 30
0.0
  9
$UCSXDIR
 10
1.0
 20
0.0
 30
0.0
  9
$UCSYDIR
 10
0.0
 20
1.0
 30
0.0
  9
$UCSORTHOREF
  2

  9
$UCSORTHOVIEW
 70
     0
  9
$UCSORGTOP
 10
0.0
 20
0.0
 30
0.0
  9
$UCSORGBOTTOM
 10
0.0
 20
0.0
 30
0.0
  9
$UCSORGLEFT
 10
0.0
 20
0.0
 30
0.0
  9
$UCSORGRIGHT
 10
0.0
 20
0.0
 30
0.0
  9
$UCSORGFRONT
 10
0.0
 20
0.0
 30
0.0
  9
$UCSORGBACK
 10
0.0
 20
0.0
 30
0.0
  9
$PUCSBASE
  2

  9
$PUCSNAME
  2

  9
$PUCSORG
 10
0.0
 20
0.0
 30
0.0
  9
$PUCSXDIR
 10
1.0
 20
0.0
 30
0.0
  9
$PUCSYDIR
 10
0.0
 20
1.0
 30
0.0
  9
$PUCSORTHOREF
  2

  9
$PUCSORTHOVIEW
 70
     0
  9
$PUCSORGTOP
 10
0.0
 20
0.0
 30
0.0
  9
$PUCSORGBOTTOM
 10
0.0
 20
0.0
 30
0.0
  9
$PUCSORGLEFT
 10
0.0
 20
0.0
 30
0.0
  9
$PUCSORGRIGHT
 10
0.0
 20
0.0
 30
0.0
  9
$PUCSORGFRONT
 10
0.0
 20
0.0
 30
0.0
  9
$PUCSORGBACK
 10
0.0
 20
0.0
 30
0.0
  9
$USERI1
 70
     0
  9
$USERI2
 70
     0
  9
$USERI3
 70
     0
  9
$USERI4
 70
     0
  9
$USERI5
 70
     0
  9
$USERR1
 40
0.0
  9
$USERR2
 40
0.0
  9
$USERR3
 40
0.0
  9
$USERR4
 40
0.0
  9
$USERR5
 40
0.0
  9
$WORLDVIEW
 70
     1
  9
$SHADEDGE
 70
     3
  9
$SHADEDIF
 70
    70
  9
$TILEMODE
 70
     1
  9
$MAXACTVP
 70
    64
  9
$PINSBASE
 10
0.0
 20
0.0
 30
0.0
  9
$PLIMCHECK
 70
     0
  9
$PEXTMIN
 10
1.000000000000000E+20
 20
1.000000000000000E+20
 30
1.000000000000000E+20
  9
$PEXTMAX
 10
-1.000000000000000E+20
 20
-1.000000000000000E+20
 30
-1.000000000000000E+20
  9
$PLIMMIN
 10
0.0
 20
0.0
  9
$PLIMMAX
 10
12.0
 20
9.0
  9
$UNITMODE
 70
     0
  9
$VISRETAIN
 70
     0
  9
$PLINEGEN
 70
     1
  9
$PSLTSCALE
 70
     0
  9
$TREEDEPTH
 70
  3020
  9
$CMLSTYLE
  2
Standard
  9
$CMLJUST
 70
     0
  9
$CMLSCALE
 40
1.0
  9
$PROXYGRAPHICS
 70
     0
  9
$MEASUREMENT
 70
     1
  9
$CELWEIGHT
370
    -1
  9
$ENDCAPS
280
     0
  9
$JOINSTYLE
280
     0
  9
$LWDISPLAY
290
     1
  9
$INSUNITS
 70
     4
  9
$HYPERLINKBASE
  1

  9
$STYLESHEET
  1

  9
$XEDIT
290
     1
  9
$CEPSNTYPE
380
     0
  9
$PSTYLEMODE
290
     1
  9
$FINGERPRINTGUID
  2
{199A2CC6-B597-46F4-ACEF-5AD9D90EE459}
  9
$VERSIONGUID
  2
{FAEB1C32-E019-11D5-929B-00C0DF256EC4}
  9
$EXTNAMES
290
     1
  9
$PSVPSCALE
 40
0.0
  9
$OLESTARTUP
290
     0
  0
ENDSEC
  0
SECTION
  2
CLASSES
  0
CLASS
  1
ACDBDICTIONARYWDFLT
  2
AcDbDictionaryWithDefault
  3
ObjectDBX Classes
 90
        0
280
     0
281
     0
  0
CLASS
  1
VISUALSTYLE
  2
AcDbVisualStyle
  3
ObjectDBX Classes
 90
     4095
280
     0
281
     0
  0
CLASS
  1
MATERIAL
  2
AcDbMaterial
  3
ObjectDBX Classes
 90
     1153
280
     0
281
     0
  0
CLASS
  1
SCALE
  2
AcDbScale
  3
ObjectDBX Classes
 90
     1153
280
     0
281
     0
  0
CLASS
  1
DICTIONARYVAR
  2
AcDbDictionaryVar
  3
ObjectDBX Classes
 90
        0
280
     0
281
     0
  0
CLASS
  1
ACDBPLACEHOLDER
  2
AcDbPlaceHolder
  3
ObjectDBX Classes
 90
        0
280
     0
281
     0
  0
CLASS
  1
LAYOUT
  2
AcDbLayout
  3
ObjectDBX Classes
 90
        0
280
     0
281
     0
  0
ENDSEC
  0
SECTION
  2
TABLES
  0
TABLE
  2
VPORT
  5
8
330
0
100
AcDbSymbolTable
 70
     1
  0
VPORT
  5
29
330
8
100
AcDbSymbolTableRecord
100
AcDbViewportTableRecord
  2
*Active
 70
     0
 10
0.0
 20
0.0
 11
1.0
 21
1.0
 12
-77.29166666666583
 22
-0.0833333333331439
 13
0.0
 23
0.0
 14
0.5
 24
0.5
 15
0.5
 25
0.5
 16
0.0
 26
0.0
 36
1.0
 17
0.0
 27
0.0
 37
0.0
 40
1252.56
 41
0.8423588490770912
 42
50.0
 43
0.0
 44
0.0
 50
0.0
 51
0.0
 71
     0
 72
  1000
 73
     1
 74
     1
 75
     0
 76
     0
 77
     0
 78
     0
281
     0
 65
     1
110
0.0
120
0.0
130
0.0
111
1.0
121
0.0
131
0.0
112
0.0
122
1.0
132
0.0
 79
     0
146
0.0
  0
ENDTAB
  0
TABLE
  2
LTYPE
  5
5
330
0
100
AcDbSymbolTable
 70
    53
  0
LTYPE
  5
14
330
5
100
AcDbSymbolTableRecord
100
AcDbLinetypeTableRecord
  2
ByBlock
 70
     0
  3

 72
    65
 73
     0
 40
0.0
  0
LTYPE
  5
15
330
5
100
AcDbSymbolTableRecord
100
AcDbLinetypeTableRecord
  2
ByLayer
 70
     0
  3

 72
    65
 73
     0
 40
0.0
  0
LTYPE
  5
16
330
5
100
AcDbSymbolTableRecord
100
AcDbLinetypeTableRecord
  2
Continuous
 70
     0
  3
Solid line
 72
    65
 73
     0
 40
0.0
  0
LTYPE
  5
40
330
5
100
AcDbSymbolTableRecord
100
AcDbLinetypeTableRecord
  2
HIDDENX2
 70
     0
  3
Hidden (2x) ____ ____ ____ ____ ____ ____ ____ 
 72
    65
 73
     2
 40
19.05
 49
12.7
 74
     0
 49
-6.35
 74
     0
  0
LTYPE
  5
41
330
5
100
AcDbSymbolTableRecord
100
AcDbLinetypeTableRecord
  2
HIDDEN
 70
     0
  3
Hidden __ __ __ __ __ __ __ __ __ __ __ __ __ __
 72
    65
 73
     2
 40
9.524999999999999
 49
6.35
 74
     0
 49
-3.175
 74
     0
  0
LTYPE
  5
42
330
5
100
AcDbSymbolTableRecord
100
AcDbLinetypeTableRecord
  2
HIDDEN2
 70
     0
  3
Hidden (.5x) _ _ _ _ _ _ _ _ _ _ _ _ _ _ _ _ _ 
 72
    65
 73
     2
 40
4.762499999999999
 49
3.175
 74
     0
 49
-1.5875
 74
     0
  0
LTYPE
  5
43
330
5
100
AcDbSymbolTableRecord
100
AcDbLinetypeTableRecord
  2
DASHED
 70
     0
  3
Dashed __ __ __ __ __ __ __ __ __ __ __ __ __ _
 72
    65
 73
     2
 40
19.05
 49
12.7
 74
     0
 49
-6.35
 74
     0
  0
LTYPE
  5
44
330
5
100
AcDbSymbolTableRecord
100
AcDbLinetypeTableRecord
  2
DASHED2
 70
     0
  3
Dashed (.5x) _ _ _ _ _ _ _ _ _ _ _ _ _ _ _ _ _ 
 72
    65
 73
     2
 40
9.524999999999999
 49
6.35
 74
     0
 49
-3.175
 74
     0
  0
LTYPE
  5
45
330
5
100
AcDbSymbolTableRecord
100
AcDbLinetypeTableRecord
  2
DASHEDX2
 70
     0
  3
Dashed (2x) ____  ____  ____  ____  ____  ___
 72
    65
 73
     2
 40
38.09999999999999
 49
25.4
 74
     0
 49
-12.7
 74
     0
  0
LTYPE
  5
46
330
5
100
AcDbSymbolTableRecord
100
AcDbLinetypeTableRecord
  2
DOTX2
 70
     0
  3
Dot (2x) .  .  .  .  .  .  .  .  .  .  .  .  .  .
 72
    65
 73
     2
 40
12.7
 49
0.0
 74
     0
 49
-12.7
 74
     0
  0
LTYPE
  5
47
330
5
100
AcDbSymbolTableRecord
100
AcDbLinetypeTableRecord
  2
DOT
 70
     0
  3
Dot . . . . . . . . . . . . . . . . . . . . . . . .
 72
    65
 73
     2
 40
6.35
 49
0.0
 74
     0
 49
-6.35
 74
     0
  0
LTYPE
  5
48
330
5
100
AcDbSymbolTableRecord
100
AcDbLinetypeTableRecord
  2
DOT2
 70
     0
  3
Dot (.5x) ........................................
 72
    65
 73
     2
 40
3.175
 49
0.0
 74
     0
 49
-3.175
 74
     0
  0
LTYPE
  5
49
330
5
100
AcDbSymbolTableRecord
100
AcDbLinetypeTableRecord
  2
CENTERX2
 70
     0
  3
Center (2x) ________  __  ________  __  _____
 72
    65
 73
     4
 40
101.6
 49
63.5
 74
     0
 49
-12.7
 74
     0
 49
12.7
 74
     0
 49
-12.7
 74
     0
  0
LTYPE
  5
4A
330
5
100
AcDbSymbolTableRecord
100
AcDbLinetypeTableRecord
  2
CENTER
 70
     0
  3
Center ____ _ ____ _ ____ _ ____ _ ____ _ ____
 72
    65
 73
     4
 40
50.8
 49
31.75
 74
     0
 49
-6.35
 74
     0
 49
6.35
 74
     0
 49
-6.35
 74
     0
  0
LTYPE
  5
4B
330
5
100
AcDbSymbolTableRecord
100
AcDbLinetypeTableRecord
  2
CENTER2
 70
     0
  3
Center (.5x) ___ _ ___ _ ___ _ ___ _ ___ _ ___
 72
    65
 73
     4
 40
28.575
 49
19.05
 74
     0
 49
-3.175
 74
     0
 49
3.175
 74
     0
 49
-3.175
 74
     0
  0
LTYPE
  5
4C
330
5
100
AcDbSymbolTableRecord
100
AcDbLinetypeTableRecord
  2
DASHDOTX2
 70
     0
  3
Dash dot (2x) ____  .  ____  .  ____  .  ___
 72
    65
 73
     4
 40
50.8
 49
25.4
 74
     0
 49
-12.7
 74
     0
 49
0.0
 74
     0
 49
-12.7
 74
     0
  0
LTYPE
  5
4D
330
5
100
AcDbSymbolTableRecord
100
AcDbLinetypeTableRecord
  2
DASHDOT
 70
     0
  3
Dash dot __ . __ . __ . __ . __ . __ . __ . __
 72
    65
 73
     4
 40
25.4
 49
12.7
 74
     0
 49
-6.35
 74
     0
 49
0.0
 74
     0
 49
-6.35
 74
     0
  0
LTYPE
  5
4E
330
5
100
AcDbSymbolTableRecord
100
AcDbLinetypeTableRecord
  2
DASHDOT2
 70
     0
  3
Dash dot (.5x) _._._._._._._._._._._._._._._.
 72
    65
 73
     4
 40
12.7
 49
6.35
 74
     0
 49
-3.175
 74
     0
 49
0.0
 74
     0
 49
-3.175
 74
     0
  0
LTYPE
  5
4F
330
5
100
AcDbSymbolTableRecord
100
AcDbLinetypeTableRecord
  2
DIVIDEX2
 70
     0
  3
Divide (2x) ________  .  .  ________  .  .  _
 72
    65
 73
     6
 40
63.5
 49
25.4
 74
     0
 49
-12.7
 74
     0
 49
0.0
 74
     0
 49
-12.7
 74
     0
 49
0.0
 74
     0
 49
-12.7
 74
     0
  0
LTYPE
  5
50
330
5
100
AcDbSymbolTableRecord
100
AcDbLinetypeTableRecord
  2
DIVIDE
 70
     0
  3
Divide ____ . . ____ . . ____ . . ____ . . ____
 72
    65
 73
     6
 40
31.75
 49
12.7
 74
     0
 49
-6.35
 74
     0
 49
0.0
 74
     0
 49
-6.35
 74
     0
 49
0.0
 74
     0
 49
-6.35
 74
     0
  0
LTYPE
  5
51
330
5
100
AcDbSymbolTableRecord
100
AcDbLinetypeTableRecord
  2
DIVIDE2
 70
     0
  3
Divide (.5x) __..__..__..__..__..__..__..__.._
 72
    65
 73
     6
 40
15.875
 49
6.35
 74
     0
 49
-3.175
 74
     0
 49
0.0
 74
     0
 49
-3.175
 74
     0
 49
0.0
 74
     0
 49
-3.175
 74
     0
  0
LTYPE
  5
52
330
5
100
AcDbSymbolTableRecord
100
AcDbLinetypeTableRecord
  2
BORDERX2
 70
     0
  3
Border (2x) ____  ____  .  ____  ____  .  ___
 72
    65
 73
     6
 40
88.89999999999999
 49
25.4
 74
     0
 49
-12.7
 74
     0
 49
25.4
 74
     0
 49
-12.7
 74
     0
 49
0.0
 74
     0
 49
-12.7
 74
     0
  0
LTYPE
  5
53
330
5
100
AcDbSymbolTableRecord
100
AcDbLinetypeTableRecord
  2
BORDER
 70
     0
  3
Border __ __ . __ __ . __ __ . __ __ . __ __ .
 72
    65
 73
     6
 40
44.45
 49
12.7
 74
     0
 49
-6.35
 74
     0
 49
12.7
 74
     0
 49
-6.35
 74
     0
 49
0.0
 74
     0
 49
-6.35
 74
     0
  0
LTYPE
  5
54
330
5
100
AcDbSymbolTableRecord
100
AcDbLinetypeTableRecord
  2
BORDER2
 70
     0
  3
Border (.5x) __.__.__.__.__.__.__.__.__.__.__.
 72
    65
 73
     6
 40
22.225
 49
6.35
 74
     0
 49
-3.175
 74
     0
 49
6.35
 74
     0
 49
-3.175
 74
     0
 49
0.0
 74
     0
 49
-3.175
 74
     0
  0
LTYPE
  5
55
330
5
100
AcDbSymbolTableRecord
100
AcDbLinetypeTableRecord
  2
PHANTOMX2
 70
     0
  3
Phantom (2x) ____________    ____    ____   _
 72
    65
 73
     6
 40
127.0
 49
63.5
 74
     0
 49
-12.7
 74
     0
 49
12.7
 74
     0
 49
-12.7
 74
     0
 49
12.7
 74
     0
 49
-12.7
 74
     0
  0
LTYPE
  5
56
330
5
100
AcDbSymbolTableRecord
100
AcDbLinetypeTableRecord
  2
PHANTOM
 70
     0
  3
Phantom ______  __  __  ______  __  __  ______ 
 72
    65
 73
     6
 40
63.5
 49
31.75
 74
     0
 49
-6.35
 74
     0
 49
6.35
 74
     0
 49
-6.35
 74
     0
 49
6.35
 74
     0
 49
-6.35
 74
     0
  0
LTYPE
  5
57
330
5
100
AcDbSymbolTableRecord
100
AcDbLinetypeTableRecord
  2
PHANTOM2
 70
     0
  3
Phantom (.5x) ___ _ _ ___ _ _ ___ _ _ ___ _ _
 72
    65
 73
     6
 40
31.75
 49
15.875
 74
     0
 49
-3.175
 74
     0
 49
3.175
 74
     0
 49
-3.175
 74
     0
 49
3.175
 74
     0
 49
-3.175
 74
     0
  0
LTYPE
  5
58
330
5
100
AcDbSymbolTableRecord
100
AcDbLinetypeTableRecord
  2
ACAD_ISO06W100
 70
     0
  3
ISO long-dash triple-dot ____ ... ____ ... ____
 72
    65
 73
     8
 40
36.0
 49
24.0
 74
     0
 49
-3.0
 74
     0
 49
0.0
 74
     0
 49
-3.0
 74
     0
 49
0.0
 74
     0
 49
-3.0
 74
     0
 49
0.0
 74
     0
 49
-3.0
 74
     0
  0
LTYPE
  5
59
330
5
100
AcDbSymbolTableRecord
100
AcDbLinetypeTableRecord
  2
ACAD_ISO13W100
 70
     0
  3
ISO double-dash double-dot __ __ . . __ __ . . _
 72
    65
 73
     8
 40
36.0
 49
12.0
 74
     0
 49
-3.0
 74
     0
 49
12.0
 74
     0
 49
-3.0
 74
     0
 49
0.0
 74
     0
 49
-3.0
 74
     0
 49
0.0
 74
     0
 49
-3.0
 74
     0
  0
LTYPE
  5
5A
330
5
100
AcDbSymbolTableRecord
100
AcDbLinetypeTableRecord
  2
ACAD_ISO14W100
 70
     0
  3
ISO dash triple-dot __ . . . __ . . . __ . . . _
 72
    65
 73
     8
 40
24.0
 49
12.0
 74
     0
 49
-3.0
 74
     0
 49
0.0
 74
     0
 49
-3.0
 74
     0
 49
0.0
 74
     0
 49
-3.0
 74
     0
 49
0.0
 74
     0
 49
-3.0
 74
     0
  0
LTYPE
  5
5B
330
5
100
AcDbSymbolTableRecord
100
AcDbLinetypeTableRecord
  2
ACAD_ISO02W100
 70
     0
  3
ISO dash __ __ __ __ __ __ __ __ __ __ __ __ __
 72
    65
 73
     2
 40
15.0
 49
12.0
 74
     0
 49
-3.0
 74
     0
  0
LTYPE
  5
5C
330
5
100
AcDbSymbolTableRecord
100
AcDbLinetypeTableRecord
  2
ACAD_ISO03W100
 70
     0
  3
ISO dash space __    __    __    __    __    __
 72
    65
 73
     2
 40
30.0
 49
12.0
 74
     0
 49
-18.0
 74
     0
  0
LTYPE
  5
5D
330
5
100
AcDbSymbolTableRecord
100
AcDbLinetypeTableRecord
  2
ACAD_ISO04W100
 70
     0
  3
ISO long-dash dot ____ . ____ . ____ . ____ . _
 72
    65
 73
     4
 40
30.0
 49
24.0
 74
     0
 49
-3.0
 74
     0
 49
0.0
 74
     0
 49
-3.0
 74
     0
  0
LTYPE
  5
5E
330
5
100
AcDbSymbolTableRecord
100
AcDbLinetypeTableRecord
  2
ACAD_ISO05W100
 70
     0
  3
ISO long-dash double-dot ____ .. ____ .. ____ . 
 72
    65
 73
     6
 40
33.0
 49
24.0
 74
     0
 49
-3.0
 74
     0
 49
0.0
 74
     0
 49
-3.0
 74
     0
 49
0.0
 74
     0
 49
-3.0
 74
     0
  0
LTYPE
  5
5F
330
5
100
AcDbSymbolTableRecord
100
AcDbLinetypeTableRecord
  2
ACAD_ISO07W100
 70
     0
  3
ISO dot . . . . . . . . . . . . . . . . . . . . 
 72
    65
 73
     2
 40
3.0
 49
0.0
 74
     0
 49
-3.0
 74
     0
  0
LTYPE
  5
60
330
5
100
AcDbSymbolTableRecord
100
AcDbLinetypeTableRecord
  2
ACAD_ISO08W100
 70
     0
  3
ISO long-dash short-dash ____ __ ____ __ ____ _
 72
    65
 73
     4
 40
36.0
 49
24.0
 74
     0
 49
-3.0
 74
     0
 49
6.0
 74
     0
 49
-3.0
 74
     0
  0
LTYPE
  5
61
330
5
100
AcDbSymbolTableRecord
100
AcDbLinetypeTableRecord
  2
ACAD_ISO09W100
 70
     0
  3
ISO long-dash double-short-dash ____ __ __ ____
 72
    65
 73
     6
 40
45.0
 49
24.0
 74
     0
 49
-3.0
 74
     0
 49
6.0
 74
     0
 49
-3.0
 74
     0
 49
6.0
 74
     0
 49
-3.0
 74
     0
  0
LTYPE
  5
62
330
5
100
AcDbSymbolTableRecord
100
AcDbLinetypeTableRecord
  2
ACAD_ISO10W100
 70
     0
  3
ISO dash dot __ . __ . __ . __ . __ . __ . __ . 
 72
    65
 73
     4
 40
18.0
 49
12.0
 74
     0
 49
-3.0
 74
     0
 49
0.0
 74
     0
 49
-3.0
 74
     0
  0
LTYPE
  5
63
330
5
100
AcDbSymbolTableRecord
100
AcDbLinetypeTableRecord
  2
ACAD_ISO11W100
 70
     0
  3
ISO double-dash dot __ __ . __ __ . __ __ . __ _
 72
    65
 73
     6
 40
33.0
 49
12.0
 74
     0
 49
-3.0
 74
     0
 49
12.0
 74
     0
 49
-3.0
 74
     0
 49
0.0
 74
     0
 49
-3.0
 74
     0
  0
LTYPE
  5
64
330
5
100
AcDbSymbolTableRecord
100
AcDbLinetypeTableRecord
  2
ACAD_ISO12W100
 70
     0
  3
ISO dash double-dot __ . . __ . . __ . . __ . . 
 72
    65
 73
     6
 40
21.0
 49
12.0
 74
     0
 49
-3.0
 74
     0
 49
0.0
 74
     0
 49
-3.0
 74
     0
 49
0.0
 74
     0
 49
-3.0
 74
     0
  0
LTYPE
  5
65
330
5
100
AcDbSymbolTableRecord
100
AcDbLinetypeTableRecord
  2
ACAD_ISO15W100
 70
     0
  3
ISO double-dash triple-dot __ __ . . . __ __ . .
 72
    65
 73
    10
 40
39.0
 49
12.0
 74
     0
 49
-3.0
 74
     0
 49
12.0
 74
     0
 49
-3.0
 74
     0
 49
0.0
 74
     0
 49
-3.0
 74
     0
 49
0.0
 74
     0
 49
-3.0
 74
     0
 49
0.0
 74
     0
 49
-3.0
 74
     0
  0
LTYPE
  5
66
330
5
100
AcDbSymbolTableRecord
100
AcDbLinetypeTableRecord
  2
JIS_02_0.7
 70
     0
  3
HIDDEN0.75 _ _ _ _ _ _ _ _ _ _ _ _ _ _ _ _ _ 
 72
    65
 73
     2
 40
1.35
 49
0.75
 74
     0
 49
-0.6
 74
     0
  0
LTYPE
  5
67
330
5
100
AcDbSymbolTableRecord
100
AcDbLinetypeTableRecord
  2
JIS_02_1.0
 70
     0
  3
HIDDEN01 _ _ _ _ _ _ _ _ _ _ _ _ _ _ _ _ _ 
 72
    65
 73
     2
 40
2.0
 49
1.0
 74
     0
 49
-1.0
 74
     0
  0
LTYPE
  5
68
330
5
100
AcDbSymbolTableRecord
100
AcDbLinetypeTableRecord
  2
JIS_02_1.2
 70
     0
  3
HIDDEN01.25  _ _ _ _ _ _ _ _ _ _ _ _ _ _ _ _ _ 
 72
    65
 73
     2
 40
2.5
 49
1.25
 74
     0
 49
-1.25
 74
     0
  0
LTYPE
  5
69
330
5
100
AcDbSymbolTableRecord
100
AcDbLinetypeTableRecord
  2
JIS_02_2.0
 70
     0
  3
HIDDEN02 __ __ __ __ __ __ __ __ __ __ __ 
 72
    65
 73
     2
 40
3.0
 49
2.0
 74
     0
 49
-1.0
 74
     0
  0
LTYPE
  5
6A
330
5
100
AcDbSymbolTableRecord
100
AcDbLinetypeTableRecord
  2
JIS_02_4.0
 70
     0
  3
HIDDEN04 ____ ____ ____ ____ ____ ____ ____ 
 72
    65
 73
     2
 40
5.5
 49
4.0
 74
     0
 49
-1.5
 74
     0
  0
LTYPE
  5
6B
330
5
100
AcDbSymbolTableRecord
100
AcDbLinetypeTableRecord
  2
JIS_08_11
 70
     0
  3
1SASEN11 ___ _ ___ _ ___ _ ___ _ ___ _ ___
 72
    65
 73
     4
 40
12.8
 49
11.0
 74
     0
 49
-0.6
 74
     0
 49
0.6
 74
     0
 49
-0.6
 74
     0
  0
LTYPE
  5
6C
330
5
100
AcDbSymbolTableRecord
100
AcDbLinetypeTableRecord
  2
JIS_08_15
 70
     0
  3
1SASEN15 ____ _ ____ _ ____ _ ____ _ ____ 
 72
    65
 73
     4
 40
17.25
 49
15.0
 74
     0
 49
-0.75
 74
     0
 49
0.75
 74
     0
 49
-0.75
 74
     0
  0
LTYPE
  5
6D
330
5
100
AcDbSymbolTableRecord
100
AcDbLinetypeTableRecord
  2
JIS_08_25
 70
     0
  3
1SASEN25 ________  __  ________  __  _____
 72
    65
 73
     4
 40
28.0
 49
25.0
 74
     0
 49
-1.125
 74
     0
 49
0.75
 74
     0
 49
-1.125
 74
     0
  0
LTYPE
  5
6E
330
5
100
AcDbSymbolTableRecord
100
AcDbLinetypeTableRecord
  2
JIS_08_37
 70
     0
  3
1SASEN37 ________  __  ________  __  _____
 72
    65
 73
     4
 40
40.5
 49
37.5
 74
     0
 49
-1.125
 74
     0
 49
0.75
 74
     0
 49
-1.125
 74
     0
  0
LTYPE
  5
6F
330
5
100
AcDbSymbolTableRecord
100
AcDbLinetypeTableRecord
  2
JIS_08_50
 70
     0
  3
1SASEN50 _______________  __  ____________
 72
    65
 73
     4
 40
53.0
 49
50.0
 74
     0
 49
-1.125
 74
     0
 49
0.75
 74
     0
 49
-1.125
 74
     0
  0
LTYPE
  5
70
330
5
100
AcDbSymbolTableRecord
100
AcDbLinetypeTableRecord
  2
JIS_09_08
 70
     0
  3
2SASEN8 __ _ _ __ _ _ __ _ _ __ _ _ __ _ _ 
 72
    65
 73
     6
 40
10.75
 49
8.0
 74
     0
 49
-0.55
 74
     0
 49
0.55
 74
     0
 49
-0.55
 74
     0
 49
0.55
 74
     0
 49
-0.55
 74
     0
  0
LTYPE
  5
71
330
5
100
AcDbSymbolTableRecord
100
AcDbLinetypeTableRecord
  2
JIS_09_15
 70
     0
  3
2SASEN15 ___ _ _ ___ _ _ ___ _ _ ___ _ _ ___ 
 72
    65
 73
     6
 40
18.9
 49
15.0
 74
     0
 49
-0.9
 74
     0
 49
0.6
 74
     0
 49
-0.9
 74
     0
 49
0.6
 74
     0
 49
-0.9
 74
     0
  0
LTYPE
  5
72
330
5
100
AcDbSymbolTableRecord
100
AcDbLinetypeTableRecord
  2
JIS_09_29
 70
     0
  3
2SASEN29 ______　__  __  ______　__  __  ___
 72
    65
 73
     6
 40
34.0
 49
29.0
 74
     0
 49
-1.2
 74
     0
 49
0.7
 74
     0
 49
-1.2
 74
     0
 49
0.7
 74
     0
 49
-1.2
 74
     0
  0
LTYPE
  5
73
330
5
100
AcDbSymbolTableRecord
100
AcDbLinetypeTableRecord
  2
JIS_09_50
 70
     0
  3
2SASEN50 ____________　__  __  _____________
 72
    65
 73
     6
 40
55.0
 49
50.0
 74
     0
 49
-1.2
 74
     0
 49
0.7
 74
     0
 49
-1.2
 74
     0
 49
0.7
 74
     0
 49
-1.2
 74
     0
  0
ENDTAB
  0
TABLE
  2
LAYER
  5
2
330
0
100
AcDbSymbolTable
 70
     4
  0
LAYER
  5
10
330
2
100
AcDbSymbolTableRecord
100
AcDbLayerTableRecord
  2
0
 70
     0
 62
     7
  6
Continuous
370
    -3
390
F
  0
LAYER
  5
74
330
2
100
AcDbSymbolTableRecord
100
AcDbLayerTableRecord
  2
Layer0016
 70
     0
 62
     7
  6
Continuous
370
    -3
390
F
  0
LAYER
  5
75
330
2
100
AcDbSymbolTableRecord
100
AcDbLayerTableRecord
  2
Layer0240
 70
     0
 62
     7
  6
Continuous
370
    -3
390
F
  0
LAYER
  5
76
330
2
100
AcDbSymbolTableRecord
100
AcDbLayerTableRecord
  2
ZUWAKU
 70
     0
 62
     7
  6
Continuous
370
    -3
390
F
  0
ENDTAB
  0
TABLE
  2
STYLE
  5
3
330
0
100
AcDbSymbolTable
 70
     3
  0
STYLE
  5
11
330
3
100
AcDbSymbolTableRecord
100
AcDbTextStyleTableRecord
  2
Standard
 70
     0
 40
0.0
 41
1.0
 50
0.0
 71
     0
 42
0.2
  3
txt.shx
  4
bigfont.shx
  0
STYLE
  5
CE
330
3
100
AcDbSymbolTableRecord
100
AcDbTextStyleTableRecord
  2
dcStyle0
 70
     0
 40
0.0
 41
0.8000000000000007
 50
0.0
 71
     0
 42
0.2
  3
txt.shx
  4
bigfont
  0
STYLE
  5
484
330
3
100
AcDbSymbolTableRecord
100
AcDbTextStyleTableRecord
  2
dcStyle1
 70
     4
 40
0.0
 41
0.8
 50
0.0
 71
     0
 42
0.2
  3
txt.shx
  4
bigfont
  0
ENDTAB
  0
TABLE
  2
VIEW
  5
6
330
0
100
AcDbSymbolTable
 70
     0
  0
ENDTAB
  0
TABLE
  2
UCS
  5
7
330
0
100
AcDbSymbolTable
 70
     0
  0
ENDTAB
  0
TABLE
  2
APPID
  5
9
330
0
100
AcDbSymbolTable
 70
     3
  0
APPID
  5
12
330
9
100
AcDbSymbolTableRecord
100
AcDbRegAppTableRecord
  2
ACAD
 70
     0
  0
APPID
  5
3F
330
9
100
AcDbSymbolTableRecord
100
AcDbRegAppTableRecord
  2
DaFusionOut
 70
     0
  0
APPID
  5
568
330
9
100
AcDbSymbolTableRecord
100
AcDbRegAppTableRecord
  2
ACAD_DSTYLE_DIMARC_LENGTH_SYMBOL
 70
     0
  0
ENDTAB
  0
TABLE
  2
DIMSTYLE
  5
A
330
0
100
AcDbSymbolTable
 70
     3
100
AcDbDimStyleTable
  0
DIMSTYLE
105
27
330
A
100
AcDbSymbolTableRecord
100
AcDbDimStyleTableRecord
  2
Standard
 70
     0
178
     0
340
11
  0
DIMSTYLE
105
521
102
{ACAD_REACTORS
330
520
330
522
330
523
330
524
330
527
330
528
330
529
330
52A
330
52E
102
}
330
A
100
AcDbSymbolTableRecord
100
AcDbDimStyleTableRecord
  2
dc_Rotated
 70
     0
 41
12.00000762939453
 42
4.0
 44
2.0
 73
     0
 74
     0
 77
     3
 78
     8
 79
     2
140
16.0
147
2.0
172
     1
173
     1
176
     9
177
     9
271
     2
178
     9
271
     2
274
     4
283
     0
284
     8
288
     1
340
484
343
C4
344
C4
1001
ACAD_DSTYLE_DIMARC_LENGTH_SYMBOL
1070
   379
1070
     1
  0
DIMSTYLE
105
526
102
{ACAD_REACTORS
330
525
102
}
330
A
100
AcDbSymbolTableRecord
100
AcDbDimStyleTableRecord
  2
dc_Diam06
 70
     0
 41
12.00000762939453
 42
4.0
 44
4.0
 77
     2
 78
     8
 79
     2
140
16.0
147
2.0
173
     1
176
     9
177
     9
271
     2
178
     7
271
     2
274
     4
283
     0
284
     8
288
     1
340
484
343
C4
344
C4
1001
ACAD_DSTYLE_DIMARC_LENGTH_SYMBOL
1070
   379
1070
     1
  0
ENDTAB
  0
TABLE
  2
BLOCK_RECORD
  5
1
330
0
100
AcDbSymbolTable
 70
    19
  0
BLOCK_RECORD
  5
1F
330
1
100
AcDbSymbolTableRecord
100
AcDbBlockTableRecord
  2
*Model_Space
340
22
  0
BLOCK_RECORD
  5
1B
330
1
100
AcDbSymbolTableRecord
100
AcDbBlockTableRecord
  2
*Paper_Space
340
1E
  0
BLOCK_RECORD
  5
23
330
1
100
AcDbSymbolTableRecord
100
AcDbBlockTableRecord
  2
*Paper_Space0
340
26
  0
BLOCK_RECORD
  5
78
330
1
100
AcDbSymbolTableRecord
100
AcDbBlockTableRecord
  2
DC_GROUP_CB1-XX_1
340
0
102
{BLKREFS
331
51F
102
}
  0
BLOCK_RECORD
  5
7B
330
1
100
AcDbSymbolTableRecord
100
AcDbBlockTableRecord
  2
*D2
340
0
  0
BLOCK_RECORD
  5
7E
330
1
100
AcDbSymbolTableRecord
100
AcDbBlockTableRecord
  2
*D3
340
0
  0
BLOCK_RECORD
  5
81
330
1
100
AcDbSymbolTableRecord
100
AcDbBlockTableRecord
  2
*D4
340
0
  0
BLOCK_RECORD
  5
84
330
1
100
AcDbSymbolTableRecord
100
AcDbBlockTableRecord
  2
*D5
340
0
  0
BLOCK_RECORD
  5
87
330
1
100
AcDbSymbolTableRecord
100
AcDbBlockTableRecord
  2
*D6
340
0
  0
BLOCK_RECORD
  5
8A
330
1
100
AcDbSymbolTableRecord
100
AcDbBlockTableRecord
  2
DC_GROUP_CB1-XX_2
340
0
102
{BLKREFS
331
52B
102
}
  0
BLOCK_RECORD
  5
8D
330
1
100
AcDbSymbolTableRecord
100
AcDbBlockTableRecord
  2
DC_GROUP_CB1-XX_3
340
0
102
{BLKREFS
331
52C
102
}
  0
BLOCK_RECORD
  5
90
330
1
100
AcDbSymbolTableRecord
100
AcDbBlockTableRecord
  2
DC_GROUP_CB1-XX_4
340
0
102
{BLKREFS
331
52D
102
}
  0
BLOCK_RECORD
  5
93
330
1
100
AcDbSymbolTableRecord
100
AcDbBlockTableRecord
  2
*D10
340
0
  0
BLOCK_RECORD
  5
96
330
1
100
AcDbSymbolTableRecord
100
AcDbBlockTableRecord
  2
*D11
340
0
  0
BLOCK_RECORD
  5
99
330
1
100
AcDbSymbolTableRecord
100
AcDbBlockTableRecord
  2
*D12
340
0
  0
BLOCK_RECORD
  5
9C
330
1
100
AcDbSymbolTableRecord
100
AcDbBlockTableRecord
  2
*D13
340
0
  0
BLOCK_RECORD
  5
9F
330
1
100
AcDbSymbolTableRecord
100
AcDbBlockTableRecord
  2
DC_GROUP_CB1-XX_5
340
0
102
{BLKREFS
331
53B
102
}
  0
BLOCK_RECORD
  5
A2
330
1
100
AcDbSymbolTableRecord
100
AcDbBlockTableRecord
  2
DC_GROUP_CB1-XX_6
340
0
102
{BLKREFS
331
53C
102
}
  0
BLOCK_RECORD
  5
A5
330
1
100
AcDbSymbolTableRecord
100
AcDbBlockTableRecord
  2
DC_GROUP_CB1-XX_7
340
0
102
{BLKREFS
331
53D
102
}
  0
BLOCK_RECORD
  5
A8
330
1
100
AcDbSymbolTableRecord
100
AcDbBlockTableRecord
  2
*D17
340
0
  0
BLOCK_RECORD
  5
C4
330
1
100
AcDbSymbolTableRecord
100
AcDbBlockTableRecord
  2
_OPEN30
340
0
102
{BLKREFS
331
CA
331
CB
331
D1
331
D2
331
D7
331
D8
331
DD
331
DE
331
E3
331
E7
331
EB
331
EF
331
F1
331
F2
331
F7
331
F8
331
100
331
102
331
105
331
106
331
10B
331
10F
331
118
331
11A
102
}
  0
ENDTAB
  0
ENDSEC
  0
SECTION
  2
BLOCKS
  0
BLOCK
  5
20
330
1F
100
AcDbEntity
  8
0
100
AcDbBlockBegin
  2
*Model_Space
 70
     0
 10
0.0
 20
0.0
 30
0.0
  3
*Model_Space
  1

  0
ENDBLK
  5
21
330
1F
100
AcDbEntity
  8
0
100
AcDbBlockEnd
  0
BLOCK
  5
1C
330
1B
100
AcDbEntity
 67
     1
  8
0
100
AcDbBlockBegin
  2
*Paper_Space
 70
     0
 10
0.0
 20
0.0
 30
0.0
  3
*Paper_Space
  1

  0
ENDBLK
  5
1D
330
1B
100
AcDbEntity
 67
     1
  8
0
100
AcDbBlockEnd
  0
BLOCK
  5
24
330
23
100
AcDbEntity
  8
0
100
AcDbBlockBegin
  2
*Paper_Space0
 70
     0
 10
0.0
 20
0.0
 30
0.0
  3
*Paper_Space0
  1

  0
ENDBLK
  5
25
330
23
100
AcDbEntity
  8
0
100
AcDbBlockEnd
  0
BLOCK
  5
79
330
78
100
AcDbEntity
  8
0
100
AcDbBlockBegin
  2
DC_GROUP_CB1-XX_1
 70
     0
 10
0.0
 20
0.0
 30
0.0
  3
DC_GROUP_CB1-XX_1
  1

  0
LINE
  5
AB
330
78
100
AcDbEntity
  8
0
  6
DASHED2
 62
     6
370
    25
100
AcDbLine
 10
-217.8635859657282
 20
-90.69252156643591
 30
0.0
 11
-182.8635859657282
 21
-125.6925215664359
 31
0.0
  0
LINE
  5
AC
330
78
100
AcDbEntity
  8
0
  6
DASHED2
 62
     6
370
    25
100
AcDbLine
 10
-229.1772952247614
 20
-90.69252156643591
 30
0.0
 11
-194.1772952247615
 21
-125.6925215664359
 31
0.0
  0
LINE
  5
AD
330
78
100
AcDbEntity
  8
0
  6
DASHED2
 62
     6
370
    25
100
AcDbLine
 10
-240.4910044837946
 20
-90.69252156643591
 30
0.0
 11
-205.4910044837946
 21
-125.6925215664359
 31
0.0
  0
LINE
  5
AE
330
78
100
AcDbEntity
  8
0
  6
DASHED2
 62
     6
370
    25
100
AcDbLine
 10
-247.8697518051079
 20
-94.6274835041558
 30
0.0
 11
-216.8047137428278
 21
-125.6925215664359
 31
0.0
  0
LINE
  5
AF
330
78
100
AcDbEntity
  8
0
  6
DASHED2
 62
     6
370
    25
100
AcDbLine
 10
-247.8697518051079
 20
-105.941192763189
 30
0.0
 11
-228.118423001861
 21
-125.6925215664359
 31
0.0
  0
LINE
  5
B0
330
78
100
AcDbEntity
  8
0
  6
DASHED2
 62
     6
370
    25
100
AcDbLine
 10
-247.8697518051079
 20
-117.2549020222222
 30
0.0
 11
-239.4321322608942
 21
-125.6925215664359
 31
0.0
  0
LINE
  5
B1
330
78
100
AcDbEntity
  8
0
  6
DASHED2
 62
     6
370
    25
100
AcDbLine
 10
-206.549876706695
 20
-90.69252156643591
 30
0.0
 11
-171.549876706695
 21
-125.6925215664359
 31
0.0
  0
LINE
  5
B2
330
78
100
AcDbEntity
  8
0
  6
DASHED2
 62
     6
370
    25
100
AcDbLine
 10
-195.2361674476618
 20
-90.69252156643591
 30
0.0
 11
-160.2361674476618
 21
-125.6925215664359
 31
0.0
  0
LINE
  5
B3
330
78
100
AcDbEntity
  8
0
  6
DASHED2
 62
     6
370
    25
100
AcDbLine
 10
-183.9224581886286
 20
-90.69252156643591
 30
0.0
 11
-152.8574234703706
 21
-121.7575562846939
 31
0.0
  0
LINE
  5
B4
330
78
100
AcDbEntity
  8
0
  6
DASHED2
 62
     6
370
    25
100
AcDbLine
 10
-172.6087489295954
 20
-90.69252156643591
 30
0.0
 11
-152.8574234703706
 21
-110.4438470256607
 31
0.0
  0
LINE
  5
B5
330
78
100
AcDbEntity
  8
0
  6
DASHED2
 62
     6
370
    25
100
AcDbLine
 10
-161.2950396705622
 20
-90.69252156643591
 30
0.0
 11
-152.8574234703706
 21
-99.13013776662754
 31
0.0
  0
LINE
  5
B6
330
78
100
AcDbEntity
  8
0
  6
DASHED2
 62
     6
370
    25
100
AcDbLine
 10
-72.85742347037059
 20
-122.5615914714616
 30
0.0
 11
-69.72649337539623
 21
-125.6925215664359
 31
0.0
  0
LINE
  5
B7
330
78
100
AcDbEntity
  8
0
  6
DASHED2
 62
     6
370
    25
100
AcDbLine
 10
-72.85742347037059
 20
-111.2478822124284
 30
0.0
 11
-58.41278411636303
 21
-125.6925215664359
 31
0.0
  0
LINE
  5
B8
330
78
100
AcDbEntity
  8
0
  6
DASHED2
 62
     6
370
    25
100
AcDbLine
 10
-72.85742347037059
 20
-99.93417295339515
 30
0.0
 11
-47.09907485732984
 21
-125.6925215664359
 31
0.0
  0
LINE
  5
B9
330
78
100
AcDbEntity
  8
0
  6
DASHED2
 62
     6
370
    25
100
AcDbLine
 10
-70.78536559829662
 20
-90.69252156643591
 30
0.0
 11
-35.78536559829664
 21
-125.6925215664359
 31
0.0
  0
LINE
  5
BA
330
78
100
AcDbEntity
  8
0
  6
DASHED2
 62
     6
370
    25
100
AcDbLine
 10
-59.47165633926342
 20
-90.69252156643591
 30
0.0
 11
-24.47165633926343
 21
-125.6925215664359
 31
0.0
  0
LINE
  5
BB
330
78
100
AcDbEntity
  8
0
  6
DASHED2
 62
     6
370
    25
100
AcDbLine
 10
-48.15794708023023
 20
-90.69252156643591
 30
0.0
 11
-13.15794708023023
 21
-125.6925215664359
 31
0.0
  0
LINE
  5
BC
330
78
100
AcDbEntity
  8
0
  6
DASHED2
 62
     6
370
    25
100
AcDbLine
 10
-36.84423782119703
 20
-90.69252156643591
 30
0.0
 11
-1.844237821197027
 21
-125.6925215664359
 31
0.0
  0
LINE
  5
BD
330
78
100
AcDbEntity
  8
0
  6
DASHED2
 62
     6
370
    25
100
AcDbLine
 10
-25.53052856216382
 20
-90.69252156643591
 30
0.0
 11
9.469471437836177
 21
-125.6925215664359
 31
0.0
  0
LINE
  5
BE
330
78
100
AcDbEntity
  8
0
  6
DASHED2
 62
     6
370
    25
100
AcDbLine
 10
-14.21681930313062
 20
-90.69252156643591
 30
0.0
 11
20.78318069686937
 21
-125.6925215664359
 31
0.0
  0
LINE
  5
BF
330
78
100
AcDbEntity
  8
0
  6
DASHED2
 62
     6
370
    25
100
AcDbLine
 10
-2.903110044097417
 20
-90.69252156643591
 30
0.0
 11
32.09688995590258
 21
-125.6925215664359
 31
0.0
  0
LINE
  5
C0
330
78
100
AcDbEntity
  8
0
  6
DASHED2
 62
     6
370
    25
100
AcDbLine
 10
8.410599214935786
 20
-90.69252156643591
 30
0.0
 11
42.1334163400455
 21
-124.4153386915456
 31
0.0
  0
LINE
  5
C1
330
78
100
AcDbEntity
  8
0
  6
DASHED2
 62
     6
370
    25
100
AcDbLine
 10
19.72430847396898
 20
-90.69252156643591
 30
0.0
 11
42.1334163400455
 21
-113.1016294325124
 31
0.0
  0
LINE
  5
C2
330
78
100
AcDbEntity
  8
0
  6
DASHED2
 62
     6
370
    25
100
AcDbLine
 10
31.03801773300219
 20
-90.69252156643591
 30
0.0
 11
42.1334163400455
 21
-101.7879201734792
 31
0.0
  0
ENDBLK
  5
7A
330
78
100
AcDbEntity
  8
0
100
AcDbBlockEnd
  0
BLOCK
  5
7C
330
7B
100
AcDbEntity
  8
0
100
AcDbBlockBegin
  2
*D2
 70
     1
 10
0.0
 20
0.0
 30
0.0
  3
*D2
  1

  0
LINE
  5
C3
330
7B
100
AcDbEntity
  8
0
  6
Continuous
 62
     9
370
    25
100
AcDbLine
 10
-279.8582581325533
 20
-90.69252156643591
 30
0.0
 11
-279.8582581325533
 21
3.437067581970609
 31
0.0
  0
INSERT
  5
CA
330
7B
100
AcDbEntity
  8
0
 62
     9
100
AcDbBlockReference
  2
_OPEN30
 10
-279.8582581325533
 20
-90.69252156643591
 30
0.0
 41
12.00001123046114
 42
11.99995747289457
 50
270.0
  0
INSERT
  5
CB
330
7B
100
AcDbEntity
  8
0
 62
     9
100
AcDbBlockReference
  2
_OPEN30
 10
-279.8582581325533
 20
3.437067581970609
 30
0.0
 41
12.00001123046114
 42
11.99995747289457
 50
90.0
  0
LINE
  5
CC
330
7B
100
AcDbEntity
  8
0
  6
Continuous
 62
     9
370
    25
100
AcDbLine
 10
-249.8697518051079
 20
-90.69252156643591
 30
0.0
 11
-281.8582581325533
 21
-90.69252156643591
 31
0.0
  0
LINE
  5
CD
330
7B
100
AcDbEntity
  8
0
  6
Continuous
 62
     9
370
    25
100
AcDbLine
 10
-245.7360998383729
 20
3.437067581970609
 30
0.0
 11
-281.8582581325533
 21
3.437067581970609
 31
0.0
  0
MTEXT
  5
CF
330
7B
100
AcDbEntity
  8
0
 62
     9
100
AcDbMText
 10
-281.8582581325533
 20
-43.62772699223265
 30
0.0
 40
16.0
 41
84.00000000000006
 71
     8
 72
     1
  1
\T1.00;(95)
  7
dcStyle0
 11
6.123233995736766E-17
 21
1.0
 31
0.0
 73
     1
 44
1.0
  0
ENDBLK
  5
7D
330
7B
100
AcDbEntity
  8
0
100
AcDbBlockEnd
  0
BLOCK
  5
7F
330
7E
100
AcDbEntity
  8
0
100
AcDbBlockBegin
  2
*D3
 70
     1
 10
0.0
 20
0.0
 30
0.0
  3
*D3
  1

  0
LINE
  5
D0
330
7E
100
AcDbEntity
  8
0
  6
Continuous
 62
     9
370
    25
100
AcDbLine
 10
80.35851239102604
 20
-106.5629324180294
 30
0.0
 11
80.35851239102604
 21
3.437067581970606
 31
0.0
  0
INSERT
  5
D1
330
7E
100
AcDbEntity
  8
0
 62
     9
100
AcDbBlockReference
  2
_OPEN30
 10
80.35851239102604
 20
-106.5629324180294
 30
0.0
 41
12.00001123046114
 42
11.99995747289457
 50
270.0
  0
INSERT
  5
D2
330
7E
100
AcDbEntity
  8
0
 62
     9
100
AcDbBlockReference
  2
_OPEN30
 10
80.35851239102604
 20
3.437067581970606
 30
0.0
 41
12.00001123046114
 42
11.99995747289457
 50
90.0
  0
LINE
  5
D3
330
7E
100
AcDbEntity
  8
0
  6
Continuous
 62
     9
370
    25
100
AcDbLine
 10
-80.85742347037056
 20
-106.5629324180294
 30
0.0
 11
84.35851239102604
 21
-106.5629324180294
 31
0.0
  0
LINE
  5
D4
330
7E
100
AcDbEntity
  8
0
  6
Continuous
 62
     9
370
    25
100
AcDbLine
 10
20.02125289763185
 20
3.437067581970609
 30
0.0
 11
84.35851239102604
 21
3.437067581970606
 31
0.0
  0
MTEXT
  5
D5
330
7E
100
AcDbEntity
  8
0
 62
     7
100
AcDbMText
 10
78.35851239102604
 20
-51.56293241802939
 30
0.0
 40
16.0
 41
68.0
 71
     8
 72
     1
  1
\T1.00;110
  7
dcStyle0
 11
6.123233995736766E-17
 21
1.0
 31
0.0
 73
     1
 44
1.0
  0
ENDBLK
  5
80
330
7E
100
AcDbEntity
  8
0
100
AcDbBlockEnd
  0
BLOCK
  5
82
330
81
100
AcDbEntity
  8
0
100
AcDbBlockBegin
  2
*D4
 70
     1
 10
0.0
 20
0.0
 30
0.0
  3
*D4
  1

  0
LINE
  5
D6
330
81
100
AcDbEntity
  8
0
  6
Continuous
 62
     9
370
    25
100
AcDbLine
 10
-152.8574234703706
 20
-183.3798948805361
 30
0.0
 11
-72.85742347037059
 21
-183.3798948805361
 31
0.0
  0
INSERT
  5
D7
330
81
100
AcDbEntity
  8
0
 62
     9
100
AcDbBlockReference
  2
_OPEN30
 10
-152.8574234703706
 20
-183.3798948805361
 30
0.0
 41
12.00001123046114
 42
11.99995747289457
 50
180.0
  0
INSERT
  5
D8
330
81
100
AcDbEntity
  8
0
 62
     9
100
AcDbBlockReference
  2
_OPEN30
 10
-72.85742347037059
 20
-183.3798948805361
 30
0.0
 41
12.00001123046114
 42
11.99995747289457
 50
360.0
  0
LINE
  5
D9
330
81
100
AcDbEntity
  8
0
  6
Continuous
 62
     9
370
    25
100
AcDbLine
 10
-152.8574234703706
 20
-127.6925215664359
 30
0.0
 11
-152.8574234703706
 21
-187.3798948805361
 31
0.0
  0
LINE
  5
DA
330
81
100
AcDbEntity
  8
0
  6
Continuous
 62
     9
370
    25
100
AcDbLine
 10
-72.85742347037059
 20
-127.6925215664359
 30
0.0
 11
-72.85742347037059
 21
-187.3798948805361
 31
0.0
  0
MTEXT
  5
DB
330
81
100
AcDbEntity
  8
0
 62
     7
100
AcDbMText
 10
-112.8574234703706
 20
-181.3798948805361
 30
0.0
 40
16.0
 41
68.00000000000003
 71
     8
 72
     1
  1
\T1.00;φ80
  7
dcStyle0
 73
     1
 44
1.0
  0
ENDBLK
  5
83
330
81
100
AcDbEntity
  8
0
100
AcDbBlockEnd
  0
BLOCK
  5
85
330
84
100
AcDbEntity
  8
0
100
AcDbBlockBegin
  2
*D5
 70
     1
 10
0.0
 20
0.0
 30
0.0
  3
*D5
  1

  0
LINE
  5
DC
330
84
100
AcDbEntity
  8
0
  6
Continuous
 62
     9
370
    25
100
AcDbLine
 10
-247.7287468909792
 20
64.44024648918761
 30
0.0
 11
22.01389995023806
 21
64.44024648918761
 31
0.0
  0
INSERT
  5
DD
330
84
100
AcDbEntity
  8
0
 62
     9
100
AcDbBlockReference
  2
_OPEN30
 10
-247.7287468909792
 20
64.44024648918761
 30
0.0
 41
12.00001123046114
 42
11.99995747289457
 50
180.0
  0
INSERT
  5
DE
330
84
100
AcDbEntity
  8
0
 62
     9
100
AcDbBlockReference
  2
_OPEN30
 10
22.01389995023806
 20
64.44024648918761
 30
0.0
 41
12.00001123046114
 42
11.99995747289457
 50
360.0
  0
LINE
  5
DF
330
84
100
AcDbEntity
  8
0
  6
Continuous
 62
     9
370
    25
100
AcDbLine
 10
-247.7287468909792
 20
241.6106510010864
 30
0.0
 11
-247.7287468909792
 21
60.44024648918762
 31
0.0
  0
LINE
  5
E0
330
84
100
AcDbEntity
  8
0
  6
Continuous
 62
     9
370
    25
100
AcDbLine
 10
22.01389995023806
 20
241.6106510010864
 30
0.0
 11
22.01389995023806
 21
60.44024648918762
 31
0.0
  0
MTEXT
  5
E1
330
84
100
AcDbEntity
  8
0
 62
     9
100
AcDbMText
 10
-112.8574234703705
 20
66.44024648918761
 30
0.0
 40
16.0
 41
83.99999999999999
 71
     8
 72
     1
  1
\T1.00;φ270
  7
dcStyle0
 73
     1
 44
1.0
  0
ENDBLK
  5
86
330
84
100
AcDbEntity
  8
0
100
AcDbBlockEnd
  0
BLOCK
  5
88
330
87
100
AcDbEntity
  8
0
100
AcDbBlockBegin
  2
*D6
 70
     1
 10
0.0
 20
0.0
 30
0.0
  3
*D6
  1

  0
LINE
  5
E2
330
87
100
AcDbEntity
  8
0
  6
Continuous
 62
     9
370
    25
100
AcDbLine
 10
-0.5766594802466116
 20
344.7384052810585
 30
0.0
 11
-97.99648184568835
 21
256.9954339290157
 31
0.0
  0
INSERT
  5
E3
330
87
100
AcDbEntity
  8
0
 62
     9
100
AcDbBlockReference
  2
_OPEN30
 10
-97.99648184568835
 20
256.9954339290157
 30
0.0
 41
12.00001123046114
 42
11.99995747289457
 50
222.0083688869842
  0
LINE
  5
E4
330
87
100
AcDbEntity
  8
0
  6
Continuous
 62
     9
370
    25
100
AcDbLine
 10
22.62334051975339
 20
344.7384052810585
 30
0.0
 11
-0.5766594802466116
 21
344.7384052810585
 31
0.0
  0
MTEXT
  5
E5
330
87
100
AcDbEntity
  8
0
 62
     7
100
AcDbMText
 10
1.423340519753388
 20
346.7384052810585
 30
0.0
 40
16.0
 41
68.0
 71
     7
 72
     1
  1
\T1.00;φ40
  7
dcStyle0
 73
     1
 44
1.0
  0
ENDBLK
  5
89
330
87
100
AcDbEntity
  8
0
100
AcDbBlockEnd
  0
BLOCK
  5
8B
330
8A
100
AcDbEntity
  8
0
100
AcDbBlockBegin
  2
DC_GROUP_CB1-XX_2
 70
     0
 10
0.0
 20
0.0
 30
0.0
  3
DC_GROUP_CB1-XX_2
  1

  0
LINE
  5
E6
330
8A
100
AcDbEntity
  8
Layer0016
  6
Continuous
 62
     7
370
    25
100
AcDbLine
 10
-168.2803191921607
 20
-125.6925215664359
 30
0.0
 11
-199.9341062932889
 21
-176.5268511091489
 31
0.0
  0
INSERT
  5
E7
330
8A
100
AcDbEntity
  8
Layer0016
 62
     7
100
AcDbBlockReference
  2
_OPEN30
 10
-168.2803191921607
 20
-125.6925215664359
 30
0.0
 41
12.00001123046114
 42
11.99995747289457
 50
58.09008718337156
  0
LINE
  5
E8
330
8A
100
AcDbEntity
  8
Layer0016
  6
Continuous
 62
     7
370
    25
100
AcDbLine
 10
-199.9341062932889
 20
-176.5268511091489
 30
0.0
 11
-263.9341062932889
 21
-176.5268511091489
 31
0.0
  0
TEXT
  5
E9
330
8A
100
AcDbEntity
  8
Layer0016
 62
     7
100
AcDbText
 10
-263.9341062932889
 20
-176.5268511091489
 30
0.0
 40
16.0
  1
カウンター
 41
0.9655172413793105
  7
dcStyle0
 72
     5
 11
-199.9341062932889
 21
-176.5268511091489
 31
0.0
100
AcDbText
  0
ENDBLK
  5
8C
330
8A
100
AcDbEntity
  8
0
100
AcDbBlockEnd
  0
BLOCK
  5
8E
330
8D
100
AcDbEntity
  8
0
100
AcDbBlockBegin
  2
DC_GROUP_CB1-XX_3
 70
     0
 10
0.0
 20
0.0
 30
0.0
  3
DC_GROUP_CB1-XX_3
  1

  0
LINE
  5
EA
330
8D
100
AcDbEntity
  8
Layer0016
  6
Continuous
 62
     7
370
    25
100
AcDbLine
 10
-73.85742347037062
 20
-90.69252156643591
 30
0.0
 11
-11.22111213230071
 21
-173.7077195222082
 31
0.0
  0
INSERT
  5
EB
330
8D
100
AcDbEntity
  8
Layer0016
 62
     7
100
AcDbBlockReference
  2
_OPEN30
 10
-73.85742347037062
 20
-90.69252156643591
 30
0.0
 41
12.00001123046114
 42
11.99995747289457
 50
127.0351446945079
  0
LINE
  5
EC
330
8D
100
AcDbEntity
  8
Layer0016
  6
Continuous
 62
     7
370
    25
100
AcDbLine
 10
-11.22111213230071
 20
-173.7077195222082
 30
0.0
 11
116.7788878676993
 21
-173.7077195222082
 31
0.0
  0
TEXT
  5
ED
330
8D
100
AcDbEntity
  8
Layer0016
 62
     7
100
AcDbText
 10
-11.2211121323007
 20
-173.7077195222082
 30
0.0
 40
16.0
  1
シリコーンにより貼付
 41
0.9491525423728815
  7
dcStyle0
 72
     5
 11
116.7788878676993
 21
-173.7077195222082
 31
0.0
100
AcDbText
  0
ENDBLK
  5
8F
330
8D
100
AcDbEntity
  8
0
100
AcDbBlockEnd
  0
BLOCK
  5
91
330
90
100
AcDbEntity
  8
0
100
AcDbBlockBegin
  2
DC_GROUP_CB1-XX_4
 70
     0
 10
0.0
 20
0.0
 30
0.0
  3
DC_GROUP_CB1-XX_4
  1

  0
LINE
  5
EE
330
90
100
AcDbEntity
  8
Layer0016
  6
Continuous
 62
     7
370
    25
100
AcDbLine
 10
-67.73624912781105
 20
-85.67553162056853
 30
0.0
 11
-11.22111213230071
 21
-173.7077195222082
 31
0.0
  0
INSERT
  5
EF
330
90
100
AcDbEntity
  8
Layer0016
 62
     7
100
AcDbBlockReference
  2
_OPEN30
 10
-67.73624912781105
 20
-85.67553162056853
 30
0.0
 41
12.00001123046114
 42
11.99995747289457
 50
122.6997588593359
  0
ENDBLK
  5
92
330
90
100
AcDbEntity
  8
0
100
AcDbBlockEnd
  0
BLOCK
  5
94
330
93
100
AcDbEntity
  8
0
100
AcDbBlockBegin
  2
*D10
 70
     1
 10
0.0
 20
0.0
 30
0.0
  3
*D10
  1

  0
LINE
  5
F0
330
93
100
AcDbEntity
  8
0
  6
Continuous
 62
     9
370
    25
100
AcDbLine
 10
193.8460834010678
 20
-93.6030671919914
 30
0.0
 11
271.8460834010678
 21
-93.6030671919914
 31
0.0
  0
INSERT
  5
F1
330
93
100
AcDbEntity
  8
0
 62
     9
100
AcDbBlockReference
  2
_OPEN30
 10
193.8460834010678
 20
-93.6030671919914
 30
0.0
 41
12.00001123046114
 42
11.99995747289457
 50
180.0
  0
INSERT
  5
F2
330
93
100
AcDbEntity
  8
0
 62
     9
100
AcDbBlockReference
  2
_OPEN30
 10
271.8460834010678
 20
-93.6030671919914
 30
0.0
 41
12.00001123046114
 42
11.99995747289457
 50
360.0
  0
LINE
  5
F3
330
93
100
AcDbEntity
  8
0
  6
Continuous
 62
     9
370
    25
100
AcDbLine
 10
193.8460834010678
 20
-56.27564292329891
 30
0.0
 11
193.8460834010678
 21
-97.6030671919914
 31
0.0
  0
LINE
  5
F4
330
93
100
AcDbEntity
  8
0
  6
Continuous
 62
     9
370
    25
100
AcDbLine
 10
271.8460834010678
 20
-56.27564292329891
 30
0.0
 11
271.8460834010678
 21
-97.6030671919914
 31
0.0
  0
MTEXT
  5
F5
330
93
100
AcDbEntity
  8
0
 62
     7
100
AcDbMText
 10
232.8460834010678
 20
-92.6030671919914
 30
0.0
 40
16.0
 41
67.99999999999997
 71
     8
 72
     1
  1
\T1.00;φ78
  7
dcStyle0
 73
     1
 44
1.0
  0
ENDBLK
  5
95
330
93
100
AcDbEntity
  8
0
100
AcDbBlockEnd
  0
BLOCK
  5
97
330
96
100
AcDbEntity
  8
0
100
AcDbBlockBegin
  2
*D11
 70
     1
 10
0.0
 20
0.0
 30
0.0
  3
*D11
  1

  0
LINE
  5
F6
330
96
100
AcDbEntity
  8
0
  6
Continuous
 62
     9
370
    25
100
AcDbLine
 10
187.8460834010678
 20
-120.0838876108348
 30
0.0
 11
277.8460834010678
 21
-120.0838876108348
 31
0.0
  0
INSERT
  5
F7
330
96
100
AcDbEntity
  8
0
 62
     9
100
AcDbBlockReference
  2
_OPEN30
 10
187.8460834010678
 20
-120.0838876108348
 30
0.0
 41
12.00001123046114
 42
11.99995747289457
 50
180.0
  0
INSERT
  5
F8
330
96
100
AcDbEntity
  8
0
 62
     9
100
AcDbBlockReference
  2
_OPEN30
 10
277.8460834010678
 20
-120.0838876108348
 30
0.0
 41
12.00001123046114
 42
11.99995747289457
 50
360.0
  0
LINE
  5
F9
330
96
100
AcDbEntity
  8
0
  6
Continuous
 62
     9
370
    25
100
AcDbLine
 10
187.8460834010678
 20
-49.40043142095323
 30
0.0
 11
187.8460834010678
 21
-124.0838876108348
 31
0.0
  0
LINE
  5
FA
330
96
100
AcDbEntity
  8
0
  6
Continuous
 62
     9
370
    25
100
AcDbLine
 10
277.8460834010678
 20
-49.40043142095323
 30
0.0
 11
277.8460834010678
 21
-124.0838876108348
 31
0.0
  0
MTEXT
  5
FB
330
96
100
AcDbEntity
  8
0
 62
     7
100
AcDbMText
 10
232.8460834010678
 20
-119.0838876108348
 30
0.0
 40
16.0
 41
67.99999999999997
 71
     8
 72
     1
  1
\T1.00;φ90
  7
dcStyle0
 73
     1
 44
1.0
  0
ENDBLK
  5
98
330
96
100
AcDbEntity
  8
0
100
AcDbBlockEnd
  0
BLOCK
  5
9A
330
99
100
AcDbEntity
  8
0
100
AcDbBlockBegin
  2
*D12
 70
     1
 10
0.0
 20
0.0
 30
0.0
  3
*D12
  1

  0
LINE
  5
FC
330
99
100
AcDbEntity
  8
0
  6
Continuous
 62
     9
370
    25
100
AcDbLine
 10
315.5514643948686
 20
-55.40043142095323
 30
0.0
 11
315.5514643948686
 21
-43.40043142095323
 31
0.0
  0
LINE
  5
FD
330
99
100
AcDbEntity
  8
0
  6
Continuous
 62
     9
370
    25
100
AcDbLine
 10
272.8460834010678
 20
-55.40043142095323
 30
0.0
 11
319.5514643948686
 21
-55.40043142095323
 31
0.0
  0
LINE
  5
FE
330
99
100
AcDbEntity
  8
0
  6
Continuous
 62
     9
370
    25
100
AcDbLine
 10
278.8460834010678
 20
-43.40043142095323
 30
0.0
 11
319.5514643948686
 21
-43.40043142095323
 31
0.0
  0
LINE
  5
FF
330
99
100
AcDbEntity
  8
0
  6
Continuous
 62
     9
370
    25
100
AcDbLine
 10
315.5514643948686
 20
-100.5915514209533
 30
0.0
 11
315.5514643948686
 21
-55.40043142095323
 31
0.0
  0
INSERT
  5
100
330
99
100
AcDbEntity
  8
0
 62
     9
100
AcDbBlockReference
  2
_OPEN30
 10
315.5514643948686
 20
-55.40043142095323
 30
0.0
 41
12.00001123046114
 42
11.99995747289457
 50
90.0
  0
LINE
  5
101
330
99
100
AcDbEntity
  8
0
  6
Continuous
 62
     9
370
    25
100
AcDbLine
 10
315.5514643948686
 20
-23.40043142095323
 30
0.0
 11
315.5514643948686
 21
-43.40043142095323
 31
0.0
  0
INSERT
  5
102
330
99
100
AcDbEntity
  8
0
 62
     9
100
AcDbBlockReference
  2
_OPEN30
 10
315.5514643948686
 20
-43.40043142095323
 30
0.0
 41
12.00001123046114
 42
11.99995747289457
 50
270.0
  0
MTEXT
  5
103
330
99
100
AcDbEntity
  8
0
 62
     7
100
AcDbMText
 10
311.5514643948686
 20
-70.99155142095323
 30
0.0
 40
16.0
 41
52.00000000000003
 71
     9
 72
     1
  1
\T1.00;12
  7
dcStyle0
 11
6.123233995736766E-17
 21
1.0
 31
0.0
 73
     1
 44
1.0
  0
ENDBLK
  5
9B
330
99
100
AcDbEntity
  8
0
100
AcDbBlockEnd
  0
BLOCK
  5
9D
330
9C
100
AcDbEntity
  8
0
100
AcDbBlockBegin
  2
*D13
 70
     1
 10
0.0
 20
0.0
 30
0.0
  3
*D13
  1

  0
LINE
  5
104
330
9C
100
AcDbEntity
  8
Layer0016
  6
Continuous
 62
     9
370
    25
100
AcDbLine
 10
195.8460834010679
 20
-3.256738704172847
 30
0.0
 11
269.8460834010679
 21
-3.256738704172847
 31
0.0
  0
INSERT
  5
105
330
9C
100
AcDbEntity
  8
Layer0016
 62
     9
100
AcDbBlockReference
  2
_OPEN30
 10
195.8460834010679
 20
-3.256738704172847
 30
0.0
 41
12.00001123046114
 42
11.99995747289457
 50
180.0
  0
INSERT
  5
106
330
9C
100
AcDbEntity
  8
Layer0016
 62
     9
100
AcDbBlockReference
  2
_OPEN30
 10
269.8460834010679
 20
-3.256738704172847
 30
0.0
 41
12.00001123046114
 42
11.99995747289457
 50
360.0
  0
LINE
  5
107
330
9C
100
AcDbEntity
  8
Layer0016
  6
Continuous
 62
     9
370
    25
100
AcDbLine
 10
195.8460834010679
 20
76.80968943181591
 30
0.0
 11
195.8460834010679
 21
-7.256738704172847
 31
0.0
  0
LINE
  5
108
330
9C
100
AcDbEntity
  8
Layer0016
  6
Continuous
 62
     9
370
    25
100
AcDbLine
 10
269.8460834010679
 20
76.80968943181591
 30
0.0
 11
269.8460834010679
 21
-7.256738704172847
 31
0.0
  0
MTEXT
  5
109
330
9C
100
AcDbEntity
  8
Layer0016
 62
     7
100
AcDbMText
 10
232.8460834010679
 20
-1.256738704172847
 30
0.0
 40
16.0
 41
67.99999999999997
 71
     8
 72
     1
  1
\T1.00;φ74
  7
dcStyle0
 73
     1
 44
1.0
  0
ENDBLK
  5
9E
330
9C
100
AcDbEntity
  8
0
100
AcDbBlockEnd
  0
BLOCK
  5
A0
330
9F
100
AcDbEntity
  8
0
100
AcDbBlockBegin
  2
DC_GROUP_CB1-XX_5
 70
     0
 10
0.0
 20
0.0
 30
0.0
  3
DC_GROUP_CB1-XX_5
  1

  0
LINE
  5
10A
330
9F
100
AcDbEntity
  8
Layer0240
  6
Continuous
 62
     4
370
    25
100
AcDbLine
 10
-246.0903020763176
 20
-12.19220870153315
 30
0.0
 11
-310.1577926596766
 21
51.63513259148482
 31
0.0
  0
INSERT
  5
10B
330
9F
100
AcDbEntity
  8
Layer0240
 62
     4
100
AcDbBlockReference
  2
_OPEN30
 10
-246.0903020763176
 20
-12.19220870153315
 30
0.0
 41
12.00001123046114
 42
11.99995747289457
 50
315.1075846804493
  0
CIRCLE
  5
10C
330
9F
100
AcDbEntity
  8
Layer0240
  6
Continuous
 62
     4
370
    25
100
AcDbCircle
 10
-322.909591576109
 20
64.33913292188757
 30
0.0
 40
18.0
  0
TEXT
  5
10D
330
9F
100
AcDbEntity
  8
Layer0240
 62
     4
100
AcDbText
 10
-329.309591576109
 20
56.33913292188757
 30
0.0
 40
16.0
  1
1
 41
1.527272727272722
  7
dcStyle0
 72
     5
 11
-316.509591576109
 21
56.33913292188757
 31
0.0
100
AcDbText
  0
ENDBLK
  5
A1
330
9F
100
AcDbEntity
  8
0
100
AcDbBlockEnd
  0
BLOCK
  5
A3
330
A2
100
AcDbEntity
  8
0
100
AcDbBlockBegin
  2
DC_GROUP_CB1-XX_6
 70
     0
 10
0.0
 20
0.0
 30
0.0
  3
DC_GROUP_CB1-XX_6
  1

  0
LINE
  5
10E
330
A2
100
AcDbEntity
  8
Layer0240
  6
Continuous
 62
     4
370
    25
100
AcDbLine
 10
-157.8574234703706
 20
-88.38771357289964
 30
0.0
 11
-309.2685546779138
 21
-117.1471998877217
 31
0.0
  0
INSERT
  5
10F
330
A2
100
AcDbEntity
  8
Layer0240
 62
     4
100
AcDbBlockReference
  2
_OPEN30
 10
-157.8574234703706
 20
-88.38771357289964
 30
0.0
 41
12.00001123046114
 42
11.99995747289457
 50
10.75481565040893
  0
CIRCLE
  5
110
330
A2
100
AcDbEntity
  8
Layer0240
  6
Continuous
 62
     4
370
    25
100
AcDbCircle
 10
-326.9523795858046
 20
-120.5061188547498
 30
0.0
 40
18.0
  0
TEXT
  5
111
330
A2
100
AcDbEntity
  8
Layer0240
 62
     4
100
AcDbText
 10
-333.3523795858046
 20
-128.5061188547498
 30
0.0
 40
16.0
  1
2
 41
0.9882352941176435
  7
dcStyle0
 72
     5
 11
-320.5523795858046
 21
-128.5061188547498
 31
0.0
100
AcDbText
  0
ENDBLK
  5
A4
330
A2
100
AcDbEntity
  8
0
100
AcDbBlockEnd
  0
BLOCK
  5
A6
330
A5
100
AcDbEntity
  8
0
100
AcDbBlockBegin
  2
DC_GROUP_CB1-XX_7
 70
     0
 10
0.0
 20
0.0
 30
0.0
  3
DC_GROUP_CB1-XX_7
  1

  0
CIRCLE
  5
112
330
A5
100
AcDbEntity
  8
Layer0240
  6
Continuous
 62
     4
370
    25
100
AcDbCircle
 10
164.2261425181032
 20
140.8739720251059
 30
0.0
 40
18.0
  0
TEXT
  5
113
330
A5
100
AcDbEntity
  8
Layer0240
 62
     4
100
AcDbText
 10
157.8261425181032
 20
132.8739720251059
 30
0.0
 40
16.0
  1
2
 41
0.9882352941176479
  7
dcStyle0
 72
     5
 11
170.6261425181032
 21
132.8739720251059
 31
0.0
100
AcDbText
  0
ENDBLK
  5
A7
330
A5
100
AcDbEntity
  8
0
100
AcDbBlockEnd
  0
BLOCK
  5
A9
330
A8
100
AcDbEntity
  8
0
100
AcDbBlockBegin
  2
*D17
 70
     1
 10
0.0
 20
0.0
 30
0.0
  3
*D17
  1

  0
LINE
  5
114
330
A8
100
AcDbEntity
  8
0
  6
Continuous
 62
     9
370
    25
100
AcDbLine
 10
-279.8582581325533
 20
-125.6925215664359
 30
0.0
 11
-279.8582581325533
 21
-90.69252156643591
 31
0.0
  0
LINE
  5
115
330
A8
100
AcDbEntity
  8
0
  6
Continuous
 62
     9
370
    25
100
AcDbLine
 10
-251.8697518051079
 20
-125.6925215664359
 30
0.0
 11
-283.8582581325533
 21
-125.6925215664359
 31
0.0
  0
LINE
  5
116
330
A8
100
AcDbEntity
  8
0
  6
Continuous
 62
     9
370
    25
100
AcDbLine
 10
-251.8697518051079
 20
-90.69252156643591
 30
0.0
 11
-283.8582581325533
 21
-90.69252156643591
 31
0.0
  0
LINE
  5
117
330
A8
100
AcDbEntity
  8
0
  6
Continuous
 62
     9
370
    25
100
AcDbLine
 10
-279.8582581325533
 20
-209.2836415664359
 30
0.0
 11
-279.8582581325533
 21
-125.6925215664359
 31
0.0
  0
INSERT
  5
118
330
A8
100
AcDbEntity
  8
0
 62
     9
100
AcDbBlockReference
  2
_OPEN30
 10
-279.8582581325533
 20
-125.6925215664359
 30
0.0
 41
12.00001123046114
 42
11.99995747289457
 50
90.0
  0
LINE
  5
119
330
A8
100
AcDbEntity
  8
0
  6
Continuous
 62
     9
370
    25
100
AcDbLine
 10
-279.8582581325533
 20
-70.69252156643591
 30
0.0
 11
-279.8582581325533
 21
-90.69252156643591
 31
0.0
  0
INSERT
  5
11A
330
A8
100
AcDbEntity
  8
0
 62
     9
100
AcDbBlockReference
  2
_OPEN30
 10
-279.8582581325533
 20
-90.69252156643591
 30
0.0
 41
12.00001123046114
 42
11.99995747289457
 50
270.0
  0
MTEXT
  5
11B
330
A8
100
AcDbEntity
  8
0
 62
     9
100
AcDbMText
 10
-283.8582581325533
 20
-141.2836415664359
 30
0.0
 40
16.0
 41
100.0
 71
     9
 72
     1
  1
\T1.00;max35
  7
dcStyle0
 11
6.123233995736766E-17
 21
1.0
 31
0.0
 73
     1
 44
1.0
  0
ENDBLK
  5
AA
330
A8
100
AcDbEntity
  8
0
100
AcDbBlockEnd
  0
BLOCK
  5
C5
330
C4
100
AcDbEntity
  8
0
100
AcDbBlockBegin
  2
_OPEN30
 70
     0
 10
0.0
 20
0.0
 30
0.0
  3
_OPEN30
  1

  0
LINE
  5
C7
330
C4
100
AcDbEntity
  8
0
  6
ByBlock
 62
     0
370
    -2
100
AcDbLine
 10
-1.0
 20
0.267949
 30
0.0
 11
0.0
 21
0.0
 31
0.0
  0
LINE
  5
C8
330
C4
100
AcDbEntity
  8
0
  6
ByBlock
 62
     0
370
    -2
100
AcDbLine
 10
0.0
 20
0.0
 30
0.0
 11
-1.0
 21
-0.267949
 31
0.0
  0
LINE
  5
C9
330
C4
100
AcDbEntity
  8
0
  6
ByBlock
 62
     0
370
    -2
100
AcDbLine
 10
0.0
 20
0.0
 30
0.0
 11
-1.0
 21
0.0
 31
0.0
  0
ENDBLK
  5
C6
330
C4
100
AcDbEntity
  8
0
100
AcDbBlockEnd
  0
ENDSEC
  0
SECTION
  2
ENTITIES
  0
LINE
  5
11C
330
1F
100
AcDbEntity
  8
ZUWAKU
  6
Continuous
 62
    30
370
    25
100
AcDbLine
 10
-226.6333333333349
 20
-554.3155065082063
 30
0.0
 11
-224.3833333333349
 21
-548.0655065082063
 31
0.0
  0
LINE
  5
11D
330
1F
100
AcDbEntity
  8
ZUWAKU
  6
Continuous
 62
    30
370
    25
100
AcDbLine
 10
-243.2833333333349
 20
-554.3155065082063
 30
0.0
 11
-239.7833333333349
 21
-544.8155065082063
 31
0.0
  0
LINE
  5
11E
330
1F
100
AcDbEntity
  8
ZUWAKU
  6
Continuous
 62
    30
370
    25
100
AcDbLine
 10
-246.5333333333349
 20
-541.3155065082063
 30
0.0
 11
-247.7833333333349
 21
-544.8155065082063
 31
0.0
  0
LINE
  5
11F
330
1F
100
AcDbEntity
  8
ZUWAKU
  6
Continuous
 62
    30
370
    25
100
AcDbLine
 10
-235.0333333333349
 20
-554.3155065082063
 30
0.0
 11
-231.2833333333349
 21
-543.3155065082063
 31
0.0
  0
LINE
  5
120
330
1F
100
AcDbEntity
  8
ZUWAKU
  6
Continuous
 62
    30
370
    25
100
AcDbLine
 10
-182.5833333333349
 20
-554.3155065082063
 30
0.0
 11
-186.8333333333349
 21
-547.3155065082063
 31
0.0
  0
LINE
  5
121
330
1F
100
AcDbEntity
  8
ZUWAKU
  6
Continuous
 62
    30
370
    25
100
AcDbLine
 10
-246.5333333333349
 20
-541.3155065082063
 30
0.0
 11
-241.7833333333349
 21
-541.3155065082063
 31
0.0
  0
LINE
  5
122
330
1F
100
AcDbEntity
  8
ZUWAKU
  6
Continuous
 62
    30
370
    25
100
AcDbLine
 10
-221.1333333333349
 20
-539.0655065082063
 30
0.0
 11
-212.8833333333349
 21
-539.0655065082063
 31
0.0
  0
LINE
  5
123
330
1F
100
AcDbEntity
  8
ZUWAKU
  6
Continuous
 62
    30
370
    25
100
AcDbLine
 10
-203.3833333333349
 20
-538.3155065082063
 30
0.0
 11
-200.8833333333349
 21
-538.3155065082063
 31
0.0
  0
LINE
  5
124
330
1F
100
AcDbEntity
  8
ZUWAKU
  6
Continuous
 62
    30
370
    25
100
AcDbLine
 10
-219.3833333333349
 20
-534.5655065082063
 30
0.0
 11
-221.1333333333349
 21
-539.0655065082063
 31
0.0
  0
LINE
  5
125
330
1F
100
AcDbEntity
  8
ZUWAKU
  6
Continuous
 62
    30
370
    25
100
AcDbLine
 10
-211.3833333333349
 20
-534.5655065082063
 30
0.0
 11
-212.8833333333349
 21
-539.0655065082063
 31
0.0
  0
LINE
  5
126
330
1F
100
AcDbEntity
  8
ZUWAKU
  6
Continuous
 62
    30
370
    25
100
AcDbLine
 10
-243.2833333333349
 20
-554.3155065082063
 30
0.0
 11
-235.0333333333349
 21
-554.3155065082063
 31
0.0
  0
LINE
  5
127
330
1F
100
AcDbEntity
  8
ZUWAKU
  6
Continuous
 62
    30
370
    25
100
AcDbLine
 10
-230.5333333333349
 20
-534.5655065082063
 30
0.0
 11
-221.2833333333349
 21
-534.5655065082063
 31
0.0
  0
LINE
  5
128
330
1F
100
AcDbEntity
  8
ZUWAKU
  6
Continuous
 62
    30
370
    25
100
AcDbLine
 10
-189.7536307709527
 20
-539.0655065082063
 30
0.0
 11
-198.5833333333349
 21
-539.0655065082063
 31
0.0
  0
LINE
  5
129
330
1F
100
AcDbEntity
  8
ZUWAKU
  6
Continuous
 62
    30
370
    25
100
AcDbLine
 10
-180.0833333333349
 20
-534.5655065082063
 30
0.0
 11
-197.0833333333349
 21
-534.5655065082063
 31
0.0
  0
LINE
  5
12A
330
1F
100
AcDbEntity
  8
ZUWAKU
  6
Continuous
 62
    30
370
    25
100
AcDbLine
 10
-247.7833333333349
 20
-544.8155065082063
 30
0.0
 11
-239.7833333333349
 21
-544.8155065082063
 31
0.0
  0
LINE
  5
12B
330
1F
100
AcDbEntity
  8
ZUWAKU
  6
Continuous
 62
    30
370
    25
100
AcDbLine
 10
-226.6333333333349
 20
-554.3155065082063
 30
0.0
 11
-213.3833333333349
 21
-554.3155065082063
 31
0.0
  0
LINE
  5
12C
330
1F
100
AcDbEntity
  8
ZUWAKU
  6
Continuous
 62
    30
370
    25
100
AcDbLine
 10
-224.3833333333349
 20
-548.0655065082063
 30
0.0
 11
-212.3833333333349
 21
-548.0655065082063
 31
0.0
  0
LINE
  5
12D
330
1F
100
AcDbEntity
  8
ZUWAKU
  6
Continuous
 62
    30
370
    25
100
AcDbLine
 10
-182.5833333333349
 20
-554.3155065082063
 30
0.0
 11
-188.8333333333349
 21
-554.3155065082063
 31
0.0
  0
LINE
  5
12E
330
1F
100
AcDbEntity
  8
ZUWAKU
  6
Continuous
 62
    30
370
    25
100
AcDbLine
 10
-198.5833333333349
 20
-539.0655065082063
 30
0.0
 11
-197.0833333333349
 21
-534.5655065082063
 31
0.0
  0
LINE
  5
12F
330
1F
100
AcDbEntity
  8
ZUWAKU
  6
Continuous
 62
    30
370
    25
100
AcDbLine
 10
-285.533333333335
 20
-534.5655065082063
 30
0.0
 11
-289.783333333335
 21
-546.5655065082063
 31
0.0
  0
LINE
  5
130
330
1F
100
AcDbEntity
  8
ZUWAKU
  6
Continuous
 62
    30
370
    25
100
AcDbLine
 10
-289.783333333335
 20
-546.5655065082063
 30
0.0
 11
-284.033333333335
 21
-546.5655065082063
 31
0.0
  0
LINE
  5
131
330
1F
100
AcDbEntity
  8
ZUWAKU
  6
Continuous
 62
    30
370
    25
100
AcDbLine
 10
-284.033333333335
 20
-546.5655065082063
 30
0.0
 11
-279.533333333335
 21
-534.5655065082063
 31
0.0
  0
LINE
  5
132
330
1F
100
AcDbEntity
  8
ZUWAKU
  6
Continuous
 62
    30
370
    25
100
AcDbLine
 10
-279.533333333335
 20
-534.5655065082063
 30
0.0
 11
-285.533333333335
 21
-534.5655065082063
 31
0.0
  0
LINE
  5
133
330
1F
100
AcDbEntity
  8
ZUWAKU
  6
Continuous
 62
    30
370
    25
100
AcDbLine
 10
-209.3833333333349
 20
-546.5655065082063
 30
0.0
 11
-206.6333333333349
 21
-544.3155065082063
 31
0.0
  0
LINE
  5
134
330
1F
100
AcDbEntity
  8
ZUWAKU
  6
Continuous
 62
    30
370
    25
100
AcDbLine
 10
-206.6333333333349
 20
-544.3155065082063
 30
0.0
 11
-204.6333333333349
 21
-541.5655065082063
 31
0.0
  0
LINE
  5
135
330
1F
100
AcDbEntity
  8
ZUWAKU
  6
Continuous
 62
    30
370
    25
100
AcDbLine
 10
-204.6333333333349
 20
-541.5655065082063
 30
0.0
 11
-203.3833333333349
 21
-538.3155065082063
 31
0.0
  0
LINE
  5
136
330
1F
100
AcDbEntity
  8
ZUWAKU
  6
Continuous
 62
    30
370
    25
100
AcDbLine
 10
-264.9833333333349
 20
-534.5655065082063
 30
0.0
 11
-246.7333333333349
 21
-534.5655065082063
 31
0.0
  0
LINE
  5
137
330
1F
100
AcDbEntity
  8
ZUWAKU
  6
Continuous
 62
    30
370
    25
100
AcDbLine
 10
-246.7333333333349
 20
-534.5655065082063
 30
0.0
 11
-248.2333333333349
 21
-539.0655065082063
 31
0.0
  0
LINE
  5
138
330
1F
100
AcDbEntity
  8
ZUWAKU
  6
Continuous
 62
    30
370
    25
100
AcDbLine
 10
-246.7333333333349
 20
-534.5655065082063
 30
0.0
 11
-248.2333333333349
 21
-539.0655065082063
 31
0.0
  0
LINE
  5
139
330
1F
100
AcDbEntity
  8
ZUWAKU
  6
Continuous
 62
    30
370
    25
100
AcDbLine
 10
-248.2333333333349
 20
-539.0655065082063
 30
0.0
 11
-266.4833333333349
 21
-539.0655065082063
 31
0.0
  0
LINE
  5
13A
330
1F
100
AcDbEntity
  8
ZUWAKU
  6
Continuous
 62
    30
370
    25
100
AcDbLine
 10
-266.4833333333349
 20
-539.0655065082063
 30
0.0
 11
-264.9833333333349
 21
-534.5655065082063
 31
0.0
  0
LINE
  5
13B
330
1F
100
AcDbEntity
  8
ZUWAKU
  6
Continuous
 62
    30
370
    25
100
AcDbLine
 10
-266.4833333333349
 20
-539.0655065082063
 30
0.0
 11
-264.9833333333349
 21
-534.5655065082063
 31
0.0
  0
LINE
  5
13C
330
1F
100
AcDbEntity
  8
ZUWAKU
  6
Continuous
 62
    30
370
    25
100
AcDbLine
 10
-246.7333333333349
 20
-534.5655065082063
 30
0.0
 11
-264.9833333333349
 21
-534.5655065082063
 31
0.0
  0
LINE
  5
13D
330
1F
100
AcDbEntity
  8
ZUWAKU
  6
Continuous
 62
    30
370
    25
100
AcDbLine
 10
-264.9833333333349
 20
-534.5655065082063
 30
0.0
 11
-266.4833333333349
 21
-539.0655065082063
 31
0.0
  0
LINE
  5
13E
330
1F
100
AcDbEntity
  8
ZUWAKU
  6
Continuous
 62
    30
370
    25
100
AcDbLine
 10
-266.4833333333349
 20
-539.0655065082063
 30
0.0
 11
-248.2333333333349
 21
-539.0655065082063
 31
0.0
  0
LINE
  5
13F
330
1F
100
AcDbEntity
  8
ZUWAKU
  6
Continuous
 62
    30
370
    25
100
AcDbLine
 10
-257.2333333333349
 20
-553.8155065082063
 30
0.0
 11
-255.2333333333349
 21
-552.8155065082063
 31
0.0
  0
LINE
  5
140
330
1F
100
AcDbEntity
  8
ZUWAKU
  6
Continuous
 62
    30
370
    25
100
AcDbLine
 10
-255.2333333333349
 20
-552.8155065082063
 30
0.0
 11
-253.7333333333349
 21
-551.3155065082063
 31
0.0
  0
LINE
  5
141
330
1F
100
AcDbEntity
  8
ZUWAKU
  6
Continuous
 62
    30
370
    25
100
AcDbLine
 10
-253.7333333333349
 20
-551.3155065082063
 30
0.0
 11
-251.9833333333349
 21
-549.5655065082063
 31
0.0
  0
LINE
  5
142
330
1F
100
AcDbEntity
  8
ZUWAKU
  6
Continuous
 62
    30
370
    25
100
AcDbLine
 10
-251.9833333333349
 20
-549.5655065082063
 30
0.0
 11
-248.9833333333349
 21
-541.3155065082063
 31
0.0
  0
LINE
  5
143
330
1F
100
AcDbEntity
  8
ZUWAKU
  6
Continuous
 62
    30
370
    25
100
AcDbLine
 10
-248.9833333333349
 20
-541.3155065082063
 30
0.0
 11
-266.9833333333349
 21
-541.3155065082063
 31
0.0
  0
LINE
  5
144
330
1F
100
AcDbEntity
  8
ZUWAKU
  6
Continuous
 62
    30
370
    25
100
AcDbLine
 10
-266.9833333333349
 20
-541.3155065082063
 30
0.0
 11
-267.9833333333349
 21
-544.8155065082063
 31
0.0
  0
LINE
  5
145
330
1F
100
AcDbEntity
  8
ZUWAKU
  6
Continuous
 62
    30
370
    25
100
AcDbLine
 10
-267.9833333333349
 20
-544.8155065082063
 30
0.0
 11
-257.4833333333349
 21
-544.8155065082063
 31
0.0
  0
LINE
  5
146
330
1F
100
AcDbEntity
  8
ZUWAKU
  6
Continuous
 62
    30
370
    25
100
AcDbLine
 10
-257.4833333333349
 20
-544.8155065082063
 30
0.0
 11
-257.9833333333349
 21
-546.5655065082063
 31
0.0
  0
LINE
  5
147
330
1F
100
AcDbEntity
  8
ZUWAKU
  6
Continuous
 62
    30
370
    25
100
AcDbLine
 10
-257.9833333333349
 20
-546.5655065082063
 30
0.0
 11
-259.2333333333349
 21
-548.0655065082063
 31
0.0
  0
LINE
  5
148
330
1F
100
AcDbEntity
  8
ZUWAKU
  6
Continuous
 62
    30
370
    25
100
AcDbLine
 10
-259.2333333333349
 20
-548.0655065082063
 30
0.0
 11
-260.4833333333349
 21
-549.3155065082063
 31
0.0
  0
LINE
  5
149
330
1F
100
AcDbEntity
  8
ZUWAKU
  6
Continuous
 62
    30
370
    25
100
AcDbLine
 10
-260.4833333333349
 20
-549.3155065082063
 30
0.0
 11
-262.2333333333349
 21
-550.5655065082063
 31
0.0
  0
LINE
  5
14A
330
1F
100
AcDbEntity
  8
ZUWAKU
  6
Continuous
 62
    30
370
    25
100
AcDbLine
 10
-262.2333333333349
 20
-550.5655065082063
 30
0.0
 11
-270.4833333333349
 21
-550.5655065082063
 31
0.0
  0
LINE
  5
14B
330
1F
100
AcDbEntity
  8
ZUWAKU
  6
Continuous
 62
    30
370
    25
100
AcDbLine
 10
-270.4833333333349
 20
-550.5655065082063
 30
0.0
 11
-271.9833333333349
 21
-554.3155065082063
 31
0.0
  0
LINE
  5
14C
330
1F
100
AcDbEntity
  8
ZUWAKU
  6
Continuous
 62
    30
370
    25
100
AcDbLine
 10
-288.033333333335
 20
-554.3155065082063
 30
0.0
 11
-286.783333333335
 21
-550.5655065082063
 31
0.0
  0
LINE
  5
14D
330
1F
100
AcDbEntity
  8
ZUWAKU
  6
Continuous
 62
    30
370
    25
100
AcDbLine
 10
-286.783333333335
 20
-550.5655065082063
 30
0.0
 11
-284.533333333335
 21
-550.5655065082063
 31
0.0
  0
LINE
  5
14E
330
1F
100
AcDbEntity
  8
ZUWAKU
  6
Continuous
 62
    30
370
    25
100
AcDbLine
 10
-284.533333333335
 20
-550.5655065082063
 30
0.0
 11
-282.533333333335
 21
-550.3155065082063
 31
0.0
  0
LINE
  5
14F
330
1F
100
AcDbEntity
  8
ZUWAKU
  6
Continuous
 62
    30
370
    25
100
AcDbLine
 10
-282.533333333335
 20
-550.3155065082063
 30
0.0
 11
-280.533333333335
 21
-549.3155065082063
 31
0.0
  0
LINE
  5
150
330
1F
100
AcDbEntity
  8
ZUWAKU
  6
Continuous
 62
    30
370
    25
100
AcDbLine
 10
-280.533333333335
 20
-549.3155065082063
 30
0.0
 11
-279.283333333335
 21
-547.3155065082063
 31
0.0
  0
LINE
  5
151
330
1F
100
AcDbEntity
  8
ZUWAKU
  6
Continuous
 62
    30
370
    25
100
AcDbLine
 10
-279.283333333335
 20
-547.3155065082063
 30
0.0
 11
-274.533333333335
 21
-534.5655065082063
 31
0.0
  0
LINE
  5
152
330
1F
100
AcDbEntity
  8
ZUWAKU
  6
Continuous
 62
    30
370
    25
100
AcDbLine
 10
-274.533333333335
 20
-534.5655065082063
 30
0.0
 11
-267.783333333335
 21
-534.5655065082063
 31
0.0
  0
LINE
  5
153
330
1F
100
AcDbEntity
  8
ZUWAKU
  6
Continuous
 62
    30
370
    25
100
AcDbLine
 10
-267.783333333335
 20
-534.5655065082063
 30
0.0
 11
-272.783333333335
 21
-549.3155065082063
 31
0.0
  0
LINE
  5
154
330
1F
100
AcDbEntity
  8
ZUWAKU
  6
Continuous
 62
    30
370
    25
100
AcDbLine
 10
-272.783333333335
 20
-549.3155065082063
 30
0.0
 11
-274.783333333335
 21
-551.3155065082063
 31
0.0
  0
LINE
  5
155
330
1F
100
AcDbEntity
  8
ZUWAKU
  6
Continuous
 62
    30
370
    25
100
AcDbLine
 10
-274.783333333335
 20
-551.3155065082063
 30
0.0
 11
-276.783333333335
 21
-553.0655065082063
 31
0.0
  0
LINE
  5
156
330
1F
100
AcDbEntity
  8
ZUWAKU
  6
Continuous
 62
    30
370
    25
100
AcDbLine
 10
-276.783333333335
 20
-553.0655065082063
 30
0.0
 11
-279.283333333335
 21
-554.0655065082063
 31
0.0
  0
LINE
  5
157
330
1F
100
AcDbEntity
  8
ZUWAKU
  6
Continuous
 62
    30
370
    25
100
AcDbLine
 10
-221.2833333333349
 20
-534.5655065082063
 30
0.0
 11
-222.7833333333349
 21
-537.8155065082063
 31
0.0
  0
LINE
  5
158
330
1F
100
AcDbEntity
  8
ZUWAKU
  6
Continuous
 62
    30
370
    25
100
AcDbLine
 10
-222.7833333333349
 20
-537.8155065082063
 30
0.0
 11
-225.2833333333349
 21
-540.3155065082063
 31
0.0
  0
LINE
  5
159
330
1F
100
AcDbEntity
  8
ZUWAKU
  6
Continuous
 62
    30
370
    25
100
AcDbLine
 10
-222.7833333333349
 20
-537.8155065082063
 30
0.0
 11
-225.2833333333349
 21
-540.3155065082063
 31
0.0
  0
LINE
  5
15A
330
1F
100
AcDbEntity
  8
ZUWAKU
  6
Continuous
 62
    30
370
    25
100
AcDbLine
 10
-225.2833333333349
 20
-540.3155065082063
 30
0.0
 11
-228.0333333333349
 21
-542.3155065082063
 31
0.0
  0
LINE
  5
15B
330
1F
100
AcDbEntity
  8
ZUWAKU
  6
Continuous
 62
    30
370
    25
100
AcDbLine
 10
-228.0333333333349
 20
-542.3155065082063
 30
0.0
 11
-231.2833333333349
 21
-543.3155065082063
 31
0.0
  0
LINE
  5
15C
330
1F
100
AcDbEntity
  8
ZUWAKU
  6
Continuous
 62
    30
370
    25
100
AcDbLine
 10
-228.0333333333349
 20
-542.3155065082063
 30
0.0
 11
-231.2833333333349
 21
-543.3155065082063
 31
0.0
  0
LINE
  5
15D
330
1F
100
AcDbEntity
  8
ZUWAKU
  6
Continuous
 62
    30
370
    25
100
AcDbLine
 10
-231.2833333333349
 20
-543.3155065082063
 30
0.0
 11
-235.0333333333349
 21
-554.3155065082063
 31
0.0
  0
LINE
  5
15E
330
1F
100
AcDbEntity
  8
ZUWAKU
  6
Continuous
 62
    30
370
    25
100
AcDbLine
 10
-235.0333333333349
 20
-554.3155065082063
 30
0.0
 11
-243.2833333333349
 21
-554.3155065082063
 31
0.0
  0
LINE
  5
15F
330
1F
100
AcDbEntity
  8
ZUWAKU
  6
Continuous
 62
    30
370
    25
100
AcDbLine
 10
-235.0333333333349
 20
-554.3155065082063
 30
0.0
 11
-243.2833333333349
 21
-554.3155065082063
 31
0.0
  0
LINE
  5
160
330
1F
100
AcDbEntity
  8
ZUWAKU
  6
Continuous
 62
    30
370
    25
100
AcDbLine
 10
-240.1833333333349
 20
-544.8155065082063
 30
0.0
 11
-247.7833333333349
 21
-544.8155065082063
 31
0.0
  0
LINE
  5
161
330
1F
100
AcDbEntity
  8
ZUWAKU
  6
Continuous
 62
    30
370
    25
100
AcDbLine
 10
-247.7833333333349
 20
-544.8155065082063
 30
0.0
 11
-246.5333333333349
 21
-541.3155065082063
 31
0.0
  0
LINE
  5
162
330
1F
100
AcDbEntity
  8
ZUWAKU
  6
Continuous
 62
    30
370
    25
100
AcDbLine
 10
-243.2833333333349
 20
-554.3155065082063
 30
0.0
 11
-239.7833333333349
 21
-544.8155065082063
 31
0.0
  0
LINE
  5
163
330
1F
100
AcDbEntity
  8
ZUWAKU
  6
Continuous
 62
    30
370
    25
100
AcDbLine
 10
-243.2833333333349
 20
-554.3155065082063
 30
0.0
 11
-239.7833333333349
 21
-544.8155065082063
 31
0.0
  0
LINE
  5
164
330
1F
100
AcDbEntity
  8
ZUWAKU
  6
Continuous
 62
    30
370
    25
100
AcDbLine
 10
-246.5333333333349
 20
-541.3155065082063
 30
0.0
 11
-241.7833333333349
 21
-541.3155065082063
 31
0.0
  0
LINE
  5
165
330
1F
100
AcDbEntity
  8
ZUWAKU
  6
Continuous
 62
    30
370
    25
100
AcDbLine
 10
-246.5333333333349
 20
-541.3155065082063
 30
0.0
 11
-241.7833333333349
 21
-541.3155065082063
 31
0.0
  0
LINE
  5
166
330
1F
100
AcDbEntity
  8
ZUWAKU
  6
Continuous
 62
    30
370
    25
100
AcDbLine
 10
-241.7833333333349
 20
-541.3155065082063
 30
0.0
 11
-238.5333333333349
 21
-541.0655065082063
 31
0.0
  0
LINE
  5
167
330
1F
100
AcDbEntity
  8
ZUWAKU
  6
Continuous
 62
    30
370
    25
100
AcDbLine
 10
-241.7833333333349
 20
-541.3155065082063
 30
0.0
 11
-238.5333333333349
 21
-541.0655065082063
 31
0.0
  0
LINE
  5
168
330
1F
100
AcDbEntity
  8
ZUWAKU
  6
Continuous
 62
    30
370
    25
100
AcDbLine
 10
-238.5333333333349
 20
-541.0655065082063
 30
0.0
 11
-235.0333333333349
 21
-539.5655065082063
 31
0.0
  0
LINE
  5
169
330
1F
100
AcDbEntity
  8
ZUWAKU
  6
Continuous
 62
    30
370
    25
100
AcDbLine
 10
-238.5333333333349
 20
-541.0655065082063
 30
0.0
 11
-235.0333333333349
 21
-539.5655065082063
 31
0.0
  0
LINE
  5
16A
330
1F
100
AcDbEntity
  8
ZUWAKU
  6
Continuous
 62
    30
370
    25
100
AcDbLine
 10
-235.0333333333349
 20
-539.5655065082063
 30
0.0
 11
-232.5333333333349
 21
-537.3155065082063
 31
0.0
  0
LINE
  5
16B
330
1F
100
AcDbEntity
  8
ZUWAKU
  6
Continuous
 62
    30
370
    25
100
AcDbLine
 10
-235.0333333333349
 20
-539.5655065082063
 30
0.0
 11
-232.5333333333349
 21
-537.3155065082063
 31
0.0
  0
LINE
  5
16C
330
1F
100
AcDbEntity
  8
ZUWAKU
  6
Continuous
 62
    30
370
    25
100
AcDbLine
 10
-279.533333333335
 20
-534.5655065082063
 30
0.0
 11
-284.033333333335
 21
-546.5655065082063
 31
0.0
  0
LINE
  5
16D
330
1F
100
AcDbEntity
  8
ZUWAKU
  6
Continuous
 62
    30
370
    25
100
AcDbLine
 10
-284.033333333335
 20
-546.5655065082063
 30
0.0
 11
-289.783333333335
 21
-546.5655065082063
 31
0.0
  0
LINE
  5
16E
330
1F
100
AcDbEntity
  8
ZUWAKU
  6
Continuous
 62
    30
370
    25
100
AcDbLine
 10
-284.033333333335
 20
-546.5655065082063
 30
0.0
 11
-289.783333333335
 21
-546.5655065082063
 31
0.0
  0
LINE
  5
16F
330
1F
100
AcDbEntity
  8
ZUWAKU
  6
Continuous
 62
    30
370
    25
100
AcDbLine
 10
-289.783333333335
 20
-546.5655065082063
 30
0.0
 11
-285.533333333335
 21
-534.5655065082063
 31
0.0
  0
LINE
  5
170
330
1F
100
AcDbEntity
  8
ZUWAKU
  6
Continuous
 62
    30
370
    25
100
AcDbLine
 10
-285.533333333335
 20
-534.5655065082063
 30
0.0
 11
-279.533333333335
 21
-534.5655065082063
 31
0.0
  0
LINE
  5
171
330
1F
100
AcDbEntity
  8
ZUWAKU
  6
Continuous
 62
    30
370
    25
100
AcDbLine
 10
-285.533333333335
 20
-534.5655065082063
 30
0.0
 11
-279.533333333335
 21
-534.5655065082063
 31
0.0
  0
LINE
  5
172
330
1F
100
AcDbEntity
  8
ZUWAKU
  6
Continuous
 62
    30
370
    25
100
AcDbLine
 10
-197.0833333333349
 20
-534.5655065082063
 30
0.0
 11
-198.5833333333349
 21
-539.0655065082063
 31
0.0
  0
LINE
  5
173
330
1F
100
AcDbEntity
  8
ZUWAKU
  6
Continuous
 62
    30
370
    25
100
AcDbLine
 10
-198.5833333333349
 20
-539.0655065082063
 30
0.0
 11
-190.5833333333349
 21
-539.0655065082063
 31
0.0
  0
LINE
  5
174
330
1F
100
AcDbEntity
  8
ZUWAKU
  6
Continuous
 62
    30
370
    25
100
AcDbLine
 10
-198.5833333333349
 20
-539.0655065082063
 30
0.0
 11
-190.5833333333349
 21
-539.0655065082063
 31
0.0
  0
LINE
  5
175
330
1F
100
AcDbEntity
  8
ZUWAKU
  6
Continuous
 62
    30
370
    25
100
AcDbLine
 10
-204.0833333333349
 20
-550.3155065082063
 30
0.0
 11
-205.5833333333349
 21
-554.5655065082063
 31
0.0
  0
LINE
  5
176
330
1F
100
AcDbEntity
  8
ZUWAKU
  6
Continuous
 62
    30
370
    25
100
AcDbLine
 10
-204.0833333333349
 20
-550.3155065082063
 30
0.0
 11
-205.5833333333349
 21
-554.5655065082063
 31
0.0
  0
LINE
  5
177
330
1F
100
AcDbEntity
  8
ZUWAKU
  6
Continuous
 62
    30
370
    25
100
AcDbLine
 10
-205.5833333333349
 20
-554.5655065082063
 30
0.0
 11
-198.0833333333349
 21
-553.3155065082063
 31
0.0
  0
LINE
  5
178
330
1F
100
AcDbEntity
  8
ZUWAKU
  6
Continuous
 62
    30
370
    25
100
AcDbLine
 10
-198.0833333333349
 20
-553.3155065082063
 30
0.0
 11
-194.5833333333349
 21
-552.3155065082063
 31
0.0
  0
LINE
  5
179
330
1F
100
AcDbEntity
  8
ZUWAKU
  6
Continuous
 62
    30
370
    25
100
AcDbLine
 10
-198.0833333333349
 20
-553.3155065082063
 30
0.0
 11
-194.5833333333349
 21
-552.3155065082063
 31
0.0
  0
LINE
  5
17A
330
1F
100
AcDbEntity
  8
ZUWAKU
  6
Continuous
 62
    30
370
    25
100
AcDbLine
 10
-190.8333333333349
 20
-551.0655065082063
 30
0.0
 11
-188.8333333333349
 21
-554.3155065082063
 31
0.0
  0
LINE
  5
17B
330
1F
100
AcDbEntity
  8
ZUWAKU
  6
Continuous
 62
    30
370
    25
100
AcDbLine
 10
-188.8333333333349
 20
-554.3155065082063
 30
0.0
 11
-182.5833333333349
 21
-554.3155065082063
 31
0.0
  0
LINE
  5
17C
330
1F
100
AcDbEntity
  8
ZUWAKU
  6
Continuous
 62
    30
370
    25
100
AcDbLine
 10
-188.8333333333349
 20
-554.3155065082063
 30
0.0
 11
-182.5833333333349
 21
-554.3155065082063
 31
0.0
  0
LINE
  5
17D
330
1F
100
AcDbEntity
  8
ZUWAKU
  6
Continuous
 62
    30
370
    25
100
AcDbLine
 10
-186.8333333333349
 20
-547.3155065082063
 30
0.0
 11
-184.5833333333349
 21
-544.3155065082063
 31
0.0
  0
LINE
  5
17E
330
1F
100
AcDbEntity
  8
ZUWAKU
  6
Continuous
 62
    30
370
    25
100
AcDbLine
 10
-184.5833333333349
 20
-544.3155065082063
 30
0.0
 11
-182.5833333333349
 21
-541.3155065082063
 31
0.0
  0
LINE
  5
17F
330
1F
100
AcDbEntity
  8
ZUWAKU
  6
Continuous
 62
    30
370
    25
100
AcDbLine
 10
-182.5833333333349
 20
-541.3155065082063
 30
0.0
 11
-181.0833333333349
 21
-538.0655065082063
 31
0.0
  0
LINE
  5
180
330
1F
100
AcDbEntity
  8
ZUWAKU
  6
Continuous
 62
    30
370
    25
100
AcDbLine
 10
-181.0833333333349
 20
-538.0655065082063
 30
0.0
 11
-180.0833333333349
 21
-534.5655065082063
 31
0.0
  0
LINE
  5
181
330
1F
100
AcDbEntity
  8
ZUWAKU
  6
Continuous
 62
    30
370
    25
100
AcDbLine
 10
-181.0833333333349
 20
-538.0655065082063
 30
0.0
 11
-180.0833333333349
 21
-534.5655065082063
 31
0.0
  0
LINE
  5
182
330
1F
100
AcDbEntity
  8
ZUWAKU
  6
Continuous
 62
    30
370
    25
100
AcDbLine
 10
-180.0833333333349
 20
-534.5655065082063
 30
0.0
 11
-197.0833333333349
 21
-534.5655065082063
 31
0.0
  0
LINE
  5
183
330
1F
100
AcDbEntity
  8
ZUWAKU
  6
Continuous
 62
    30
370
    25
100
AcDbLine
 10
-195.3333333333349
 20
-547.0655065082063
 30
0.0
 11
-199.3333333333349
 21
-549.3155065082063
 31
0.0
  0
LINE
  5
184
330
1F
100
AcDbEntity
  8
ZUWAKU
  6
Continuous
 62
    30
370
    25
100
AcDbLine
 10
-194.5833333333349
 20
-552.3155065082063
 30
0.0
 11
-190.8333333333349
 21
-551.0655065082063
 31
0.0
  0
LINE
  5
185
330
1F
100
AcDbEntity
  8
ZUWAKU
  6
Continuous
 62
    30
370
    25
100
AcDbLine
 10
-194.5833333333349
 20
-552.3155065082063
 30
0.0
 11
-190.8333333333349
 21
-551.0655065082063
 31
0.0
  0
LINE
  5
186
330
1F
100
AcDbEntity
  8
ZUWAKU
  6
Continuous
 62
    30
370
    25
100
AcDbLine
 10
-182.5833333333349
 20
-554.3155065082063
 30
0.0
 11
-186.8333333333349
 21
-547.3155065082063
 31
0.0
  0
LINE
  5
187
330
1F
100
AcDbEntity
  8
ZUWAKU
  6
Continuous
 62
    30
370
    25
100
AcDbLine
 10
-182.5833333333349
 20
-554.3155065082063
 30
0.0
 11
-186.8333333333349
 21
-547.3155065082063
 31
0.0
  0
LINE
  5
188
330
1F
100
AcDbEntity
  8
ZUWAKU
  6
Continuous
 62
    30
370
    25
100
AcDbLine
 10
-192.0833333333349
 20
-543.3155065082063
 30
0.0
 11
-195.3333333333349
 21
-547.0655065082063
 31
0.0
  0
LINE
  5
189
330
1F
100
AcDbEntity
  8
ZUWAKU
  6
Continuous
 62
    30
370
    25
100
AcDbLine
 10
-192.0833333333349
 20
-543.3155065082063
 30
0.0
 11
-195.3333333333349
 21
-547.0655065082063
 31
0.0
  0
LINE
  5
18A
330
1F
100
AcDbEntity
  8
ZUWAKU
  6
Continuous
 62
    30
370
    25
100
AcDbLine
 10
-241.7833333333349
 20
-541.3155065082063
 30
0.0
 11
-238.5333333333349
 21
-541.0655065082063
 31
0.0
  0
LINE
  5
18B
330
1F
100
AcDbEntity
  8
ZUWAKU
  6
Continuous
 62
    30
370
    25
100
AcDbLine
 10
-238.5333333333349
 20
-541.0655065082063
 30
0.0
 11
-235.0333333333349
 21
-539.5655065082063
 31
0.0
  0
LINE
  5
18C
330
1F
100
AcDbEntity
  8
ZUWAKU
  6
Continuous
 62
    30
370
    25
100
AcDbLine
 10
-235.0333333333349
 20
-539.5655065082063
 30
0.0
 11
-232.5333333333349
 21
-537.3155065082063
 31
0.0
  0
LINE
  5
18D
330
1F
100
AcDbEntity
  8
ZUWAKU
  6
Continuous
 62
    30
370
    25
100
AcDbLine
 10
-232.5333333333349
 20
-537.3155065082063
 30
0.0
 11
-230.5333333333349
 21
-534.5655065082063
 31
0.0
  0
LINE
  5
18E
330
1F
100
AcDbEntity
  8
ZUWAKU
  6
Continuous
 62
    30
370
    25
100
AcDbLine
 10
-213.3833333333349
 20
-554.3155065082063
 30
0.0
 11
-208.8833333333349
 21
-552.3155065082063
 31
0.0
  0
LINE
  5
18F
330
1F
100
AcDbEntity
  8
ZUWAKU
  6
Continuous
 62
    30
370
    25
100
AcDbLine
 10
-208.8833333333349
 20
-552.3155065082063
 30
0.0
 11
-204.8833333333349
 21
-548.5655065082063
 31
0.0
  0
LINE
  5
190
330
1F
100
AcDbEntity
  8
ZUWAKU
  6
Continuous
 62
    30
370
    25
100
AcDbLine
 10
-204.8833333333349
 20
-548.5655065082063
 30
0.0
 11
-201.8833333333349
 21
-543.5655065082063
 31
0.0
  0
LINE
  5
191
330
1F
100
AcDbEntity
  8
ZUWAKU
  6
Continuous
 62
    30
370
    25
100
AcDbLine
 10
-201.8833333333349
 20
-543.5655065082063
 30
0.0
 11
-200.8833333333349
 21
-538.3155065082063
 31
0.0
  0
LINE
  5
192
330
1F
100
AcDbEntity
  8
ZUWAKU
  6
Continuous
 62
    30
370
    25
100
AcDbLine
 10
-204.0833333333349
 20
-550.3155065082063
 30
0.0
 11
-199.3333333333349
 21
-549.3155065082063
 31
0.0
  0
LINE
  5
193
330
1F
100
AcDbEntity
  8
ZUWAKU
  6
Continuous
 62
    30
370
    25
100
AcDbLine
 10
-199.3333333333349
 20
-549.3155065082063
 30
0.0
 11
-195.3333333333349
 21
-547.0655065082063
 31
0.0
  0
LINE
  5
194
330
1F
100
AcDbEntity
  8
ZUWAKU
  6
Continuous
 62
    30
370
    25
100
AcDbLine
 10
-195.3333333333349
 20
-547.0655065082063
 30
0.0
 11
-192.0833333333349
 21
-543.3155065082063
 31
0.0
  0
LINE
  5
195
330
1F
100
AcDbEntity
  8
ZUWAKU
  6
Continuous
 62
    30
370
    25
100
AcDbLine
 10
-231.2833333333349
 20
-543.3155065082063
 30
0.0
 11
-228.0333333333349
 21
-542.3155065082063
 31
0.0
  0
LINE
  5
196
330
1F
100
AcDbEntity
  8
ZUWAKU
  6
Continuous
 62
    30
370
    25
100
AcDbLine
 10
-228.0333333333349
 20
-542.3155065082063
 30
0.0
 11
-225.2833333333349
 21
-540.3155065082063
 31
0.0
  0
LINE
  5
197
330
1F
100
AcDbEntity
  8
ZUWAKU
  6
Continuous
 62
    30
370
    25
100
AcDbLine
 10
-225.2833333333349
 20
-540.3155065082063
 30
0.0
 11
-222.7833333333349
 21
-537.8155065082063
 31
0.0
  0
LINE
  5
198
330
1F
100
AcDbEntity
  8
ZUWAKU
  6
Continuous
 62
    30
370
    25
100
AcDbLine
 10
-222.7833333333349
 20
-537.8155065082063
 30
0.0
 11
-221.2833333333349
 21
-534.5655065082063
 31
0.0
  0
LINE
  5
199
330
1F
100
AcDbEntity
  8
ZUWAKU
  6
Continuous
 62
    30
370
    25
100
AcDbLine
 10
-186.8333333333349
 20
-547.3155065082063
 30
0.0
 11
-184.5833333333349
 21
-544.3155065082063
 31
0.0
  0
LINE
  5
19A
330
1F
100
AcDbEntity
  8
ZUWAKU
  6
Continuous
 62
    30
370
    25
100
AcDbLine
 10
-184.5833333333349
 20
-544.3155065082063
 30
0.0
 11
-182.5833333333349
 21
-541.3155065082063
 31
0.0
  0
LINE
  5
19B
330
1F
100
AcDbEntity
  8
ZUWAKU
  6
Continuous
 62
    30
370
    25
100
AcDbLine
 10
-182.5833333333349
 20
-541.3155065082063
 30
0.0
 11
-181.0833333333349
 21
-538.0655065082063
 31
0.0
  0
LINE
  5
19C
330
1F
100
AcDbEntity
  8
ZUWAKU
  6
Continuous
 62
    30
370
    25
100
AcDbLine
 10
-181.0833333333349
 20
-538.0655065082063
 30
0.0
 11
-180.0833333333349
 21
-534.5655065082063
 31
0.0
  0
LINE
  5
19D
330
1F
100
AcDbEntity
  8
ZUWAKU
  6
Continuous
 62
    30
370
    25
100
AcDbLine
 10
-198.0833333333349
 20
-553.3155065082063
 30
0.0
 11
-194.5833333333349
 21
-552.3155065082063
 31
0.0
  0
LINE
  5
19E
330
1F
100
AcDbEntity
  8
ZUWAKU
  6
Continuous
 62
    30
370
    25
100
AcDbLine
 10
-194.5833333333349
 20
-552.3155065082063
 30
0.0
 11
-190.8333333333349
 21
-551.0655065082063
 31
0.0
  0
LINE
  5
19F
330
1F
100
AcDbEntity
  8
ZUWAKU
  6
Continuous
 62
    30
370
    25
100
AcDbLine
 10
-204.6333333333349
 20
-541.5655065082063
 30
0.0
 11
-203.3833333333349
 21
-538.3155065082063
 31
0.0
  0
LINE
  5
1A0
330
1F
100
AcDbEntity
  8
ZUWAKU
  6
Continuous
 62
    30
370
    25
100
AcDbLine
 10
-203.3833333333349
 20
-538.3155065082063
 30
0.0
 11
-200.8833333333349
 21
-538.3155065082063
 31
0.0
  0
LINE
  5
1A1
330
1F
100
AcDbEntity
  8
ZUWAKU
  6
Continuous
 62
    30
370
    25
100
AcDbLine
 10
-203.3833333333349
 20
-538.3155065082063
 30
0.0
 11
-200.8833333333349
 21
-538.3155065082063
 31
0.0
  0
LINE
  5
1A2
330
1F
100
AcDbEntity
  8
ZUWAKU
  6
Continuous
 62
    30
370
    25
100
AcDbLine
 10
-200.8833333333349
 20
-538.3155065082063
 30
0.0
 11
-201.8833333333349
 21
-543.5655065082063
 31
0.0
  0
LINE
  5
1A3
330
1F
100
AcDbEntity
  8
ZUWAKU
  6
Continuous
 62
    30
370
    25
100
AcDbLine
 10
-201.8833333333349
 20
-543.5655065082063
 30
0.0
 11
-204.8833333333349
 21
-548.5655065082063
 31
0.0
  0
LINE
  5
1A4
330
1F
100
AcDbEntity
  8
ZUWAKU
  6
Continuous
 62
    30
370
    25
100
AcDbLine
 10
-201.8833333333349
 20
-543.5655065082063
 30
0.0
 11
-204.8833333333349
 21
-548.5655065082063
 31
0.0
  0
LINE
  5
1A5
330
1F
100
AcDbEntity
  8
ZUWAKU
  6
Continuous
 62
    30
370
    25
100
AcDbLine
 10
-204.8833333333349
 20
-548.5655065082063
 30
0.0
 11
-208.8833333333349
 21
-552.3155065082063
 31
0.0
  0
LINE
  5
1A6
330
1F
100
AcDbEntity
  8
ZUWAKU
  6
Continuous
 62
    30
370
    25
100
AcDbLine
 10
-213.8833333333349
 20
-554.3155065082063
 30
0.0
 11
-226.6333333333349
 21
-554.3155065082063
 31
0.0
  0
LINE
  5
1A7
330
1F
100
AcDbEntity
  8
ZUWAKU
  6
Continuous
 62
    30
370
    25
100
AcDbLine
 10
-226.6333333333349
 20
-554.3155065082063
 30
0.0
 11
-224.3833333333349
 21
-548.0655065082063
 31
0.0
  0
LINE
  5
1A8
330
1F
100
AcDbEntity
  8
ZUWAKU
  6
Continuous
 62
    30
370
    25
100
AcDbLine
 10
-226.6333333333349
 20
-554.3155065082063
 30
0.0
 11
-224.3833333333349
 21
-548.0655065082063
 31
0.0
  0
LINE
  5
1A9
330
1F
100
AcDbEntity
  8
ZUWAKU
  6
Continuous
 62
    30
370
    25
100
AcDbLine
 10
-206.6333333333349
 20
-544.3155065082063
 30
0.0
 11
-204.6333333333349
 21
-541.5655065082063
 31
0.0
  0
LINE
  5
1AA
330
1F
100
AcDbEntity
  8
ZUWAKU
  6
Continuous
 62
    30
370
    25
100
AcDbLine
 10
-224.3833333333349
 20
-548.0655065082063
 30
0.0
 11
-212.3833333333349
 21
-548.0655065082063
 31
0.0
  0
LINE
  5
1AB
330
1F
100
AcDbEntity
  8
ZUWAKU
  6
Continuous
 62
    30
370
    25
100
AcDbLine
 10
-224.3833333333349
 20
-548.0655065082063
 30
0.0
 11
-212.3833333333349
 21
-548.0655065082063
 31
0.0
  0
LINE
  5
1AC
330
1F
100
AcDbEntity
  8
ZUWAKU
  6
Continuous
 62
    30
370
    25
100
AcDbLine
 10
-212.3833333333349
 20
-548.0655065082063
 30
0.0
 11
-209.3833333333349
 21
-546.5655065082063
 31
0.0
  0
LINE
  5
1AD
330
1F
100
AcDbEntity
  8
ZUWAKU
  6
Continuous
 62
    30
370
    25
100
AcDbLine
 10
-212.3833333333349
 20
-548.0655065082063
 30
0.0
 11
-209.3833333333349
 21
-546.5655065082063
 31
0.0
  0
LINE
  5
1AE
330
1F
100
AcDbEntity
  8
ZUWAKU
  6
Continuous
 62
    30
370
    25
100
AcDbLine
 10
-209.3833333333349
 20
-546.5655065082063
 30
0.0
 11
-206.6333333333349
 21
-544.3155065082063
 31
0.0
  0
LINE
  5
1AF
330
1F
100
AcDbEntity
  8
ZUWAKU
  6
Continuous
 62
    30
370
    25
100
AcDbLine
 10
-248.9833333333349
 20
-541.3155065082063
 30
0.0
 11
-251.9833333333349
 21
-549.5655065082063
 31
0.0
  0
LINE
  5
1B0
330
1F
100
AcDbEntity
  8
ZUWAKU
  6
Continuous
 62
    30
370
    25
100
AcDbLine
 10
-251.9833333333349
 20
-549.5655065082063
 30
0.0
 11
-253.7333333333349
 21
-551.3155065082063
 31
0.0
  0
LINE
  5
1B1
330
1F
100
AcDbEntity
  8
ZUWAKU
  6
Continuous
 62
    30
370
    25
100
AcDbLine
 10
-251.9833333333349
 20
-549.5655065082063
 30
0.0
 11
-253.7333333333349
 21
-551.3155065082063
 31
0.0
  0
LINE
  5
1B2
330
1F
100
AcDbEntity
  8
ZUWAKU
  6
Continuous
 62
    30
370
    25
100
AcDbLine
 10
-253.7333333333349
 20
-551.3155065082063
 30
0.0
 11
-255.2333333333349
 21
-552.8155065082063
 31
0.0
  0
LINE
  5
1B3
330
1F
100
AcDbEntity
  8
ZUWAKU
  6
Continuous
 62
    30
370
    25
100
AcDbLine
 10
-255.2333333333349
 20
-552.8155065082063
 30
0.0
 11
-257.2333333333349
 21
-553.8155065082063
 31
0.0
  0
LINE
  5
1B4
330
1F
100
AcDbEntity
  8
ZUWAKU
  6
Continuous
 62
    30
370
    25
100
AcDbLine
 10
-255.2333333333349
 20
-552.8155065082063
 30
0.0
 11
-257.2333333333349
 21
-553.8155065082063
 31
0.0
  0
LINE
  5
1B5
330
1F
100
AcDbEntity
  8
ZUWAKU
  6
Continuous
 62
    30
370
    25
100
AcDbLine
 10
-257.2333333333349
 20
-553.8155065082063
 30
0.0
 11
-259.2333333333349
 21
-554.3155065082063
 31
0.0
  0
LINE
  5
1B6
330
1F
100
AcDbEntity
  8
ZUWAKU
  6
Continuous
 62
    30
370
    25
100
AcDbLine
 10
-259.2333333333349
 20
-554.3155065082063
 30
0.0
 11
-271.9833333333349
 21
-554.3155065082063
 31
0.0
  0
LINE
  5
1B7
330
1F
100
AcDbEntity
  8
ZUWAKU
  6
Continuous
 62
    30
370
    25
100
AcDbLine
 10
-259.2333333333349
 20
-554.3155065082063
 30
0.0
 11
-271.9833333333349
 21
-554.3155065082063
 31
0.0
  0
LINE
  5
1B8
330
1F
100
AcDbEntity
  8
ZUWAKU
  6
Continuous
 62
    30
370
    25
100
AcDbLine
 10
-271.9833333333349
 20
-554.3155065082063
 30
0.0
 11
-270.4833333333349
 21
-550.5655065082063
 31
0.0
  0
LINE
  5
1B9
330
1F
100
AcDbEntity
  8
ZUWAKU
  6
Continuous
 62
    30
370
    25
100
AcDbLine
 10
-270.4833333333349
 20
-550.5655065082063
 30
0.0
 11
-262.2333333333349
 21
-550.5655065082063
 31
0.0
  0
LINE
  5
1BA
330
1F
100
AcDbEntity
  8
ZUWAKU
  6
Continuous
 62
    30
370
    25
100
AcDbLine
 10
-270.4833333333349
 20
-550.5655065082063
 30
0.0
 11
-262.2333333333349
 21
-550.5655065082063
 31
0.0
  0
LINE
  5
1BB
330
1F
100
AcDbEntity
  8
ZUWAKU
  6
Continuous
 62
    30
370
    25
100
AcDbLine
 10
-257.4833333333349
 20
-544.8155065082063
 30
0.0
 11
-267.9833333333349
 21
-544.8155065082063
 31
0.0
  0
LINE
  5
1BC
330
1F
100
AcDbEntity
  8
ZUWAKU
  6
Continuous
 62
    30
370
    25
100
AcDbLine
 10
-267.9833333333349
 20
-544.8155065082063
 30
0.0
 11
-266.9833333333349
 21
-541.3155065082063
 31
0.0
  0
LINE
  5
1BD
330
1F
100
AcDbEntity
  8
ZUWAKU
  6
Continuous
 62
    30
370
    25
100
AcDbLine
 10
-267.9833333333349
 20
-544.8155065082063
 30
0.0
 11
-266.9833333333349
 21
-541.3155065082063
 31
0.0
  0
LINE
  5
1BE
330
1F
100
AcDbEntity
  8
ZUWAKU
  6
Continuous
 62
    30
370
    25
100
AcDbLine
 10
-262.2333333333349
 20
-550.5655065082063
 30
0.0
 11
-260.4833333333349
 21
-549.3155065082063
 31
0.0
  0
LINE
  5
1BF
330
1F
100
AcDbEntity
  8
ZUWAKU
  6
Continuous
 62
    30
370
    25
100
AcDbLine
 10
-262.2333333333349
 20
-550.5655065082063
 30
0.0
 11
-260.4833333333349
 21
-549.3155065082063
 31
0.0
  0
LINE
  5
1C0
330
1F
100
AcDbEntity
  8
ZUWAKU
  6
Continuous
 62
    30
370
    25
100
AcDbLine
 10
-260.4833333333349
 20
-549.3155065082063
 30
0.0
 11
-259.2333333333349
 21
-548.0655065082063
 31
0.0
  0
LINE
  5
1C1
330
1F
100
AcDbEntity
  8
ZUWAKU
  6
Continuous
 62
    30
370
    25
100
AcDbLine
 10
-260.4833333333349
 20
-549.3155065082063
 30
0.0
 11
-259.2333333333349
 21
-548.0655065082063
 31
0.0
  0
LINE
  5
1C2
330
1F
100
AcDbEntity
  8
ZUWAKU
  6
Continuous
 62
    30
370
    25
100
AcDbLine
 10
-259.2333333333349
 20
-548.0655065082063
 30
0.0
 11
-257.9833333333349
 21
-546.5655065082063
 31
0.0
  0
LINE
  5
1C3
330
1F
100
AcDbEntity
  8
ZUWAKU
  6
Continuous
 62
    30
370
    25
100
AcDbLine
 10
-259.2333333333349
 20
-548.0655065082063
 30
0.0
 11
-257.9833333333349
 21
-546.5655065082063
 31
0.0
  0
LINE
  5
1C4
330
1F
100
AcDbEntity
  8
ZUWAKU
  6
Continuous
 62
    30
370
    25
100
AcDbLine
 10
-257.9833333333349
 20
-546.5655065082063
 30
0.0
 11
-257.4833333333349
 21
-544.8155065082063
 31
0.0
  0
LINE
  5
1C5
330
1F
100
AcDbEntity
  8
ZUWAKU
  6
Continuous
 62
    30
370
    25
100
AcDbLine
 10
-257.9833333333349
 20
-546.5655065082063
 30
0.0
 11
-257.4833333333349
 21
-544.8155065082063
 31
0.0
  0
LINE
  5
1C6
330
1F
100
AcDbEntity
  8
ZUWAKU
  6
Continuous
 62
    30
370
    25
100
AcDbLine
 10
-273.7333333333349
 20
-534.5655065082063
 30
0.0
 11
-268.2353183845648
 21
-534.5655065082063
 31
0.0
  0
LINE
  5
1C7
330
1F
100
AcDbEntity
  8
ZUWAKU
  6
Continuous
 62
    30
370
    25
100
AcDbLine
 10
-272.783333333335
 20
-549.3155065082063
 30
0.0
 11
-274.783333333335
 21
-551.3155065082063
 31
0.0
  0
LINE
  5
1C8
330
1F
100
AcDbEntity
  8
ZUWAKU
  6
Continuous
 62
    30
370
    25
100
AcDbLine
 10
-274.783333333335
 20
-551.3155065082063
 30
0.0
 11
-276.783333333335
 21
-553.0655065082063
 31
0.0
  0
LINE
  5
1C9
330
1F
100
AcDbEntity
  8
ZUWAKU
  6
Continuous
 62
    30
370
    25
100
AcDbLine
 10
-274.783333333335
 20
-551.3155065082063
 30
0.0
 11
-276.783333333335
 21
-553.0655065082063
 31
0.0
  0
LINE
  5
1CA
330
1F
100
AcDbEntity
  8
ZUWAKU
  6
Continuous
 62
    30
370
    25
100
AcDbLine
 10
-276.783333333335
 20
-553.0655065082063
 30
0.0
 11
-279.283333333335
 21
-554.0655065082063
 31
0.0
  0
LINE
  5
1CB
330
1F
100
AcDbEntity
  8
ZUWAKU
  6
Continuous
 62
    30
370
    25
100
AcDbLine
 10
-279.283333333335
 20
-554.0655065082063
 30
0.0
 11
-281.783333333335
 21
-554.3155065082063
 31
0.0
  0
LINE
  5
1CC
330
1F
100
AcDbEntity
  8
ZUWAKU
  6
Continuous
 62
    30
370
    25
100
AcDbLine
 10
-281.783333333335
 20
-554.3155065082063
 30
0.0
 11
-288.033333333335
 21
-554.3155065082063
 31
0.0
  0
LINE
  5
1CD
330
1F
100
AcDbEntity
  8
ZUWAKU
  6
Continuous
 62
    30
370
    25
100
AcDbLine
 10
-288.033333333335
 20
-554.3155065082063
 30
0.0
 11
-286.783333333335
 21
-550.5655065082063
 31
0.0
  0
LINE
  5
1CE
330
1F
100
AcDbEntity
  8
ZUWAKU
  6
Continuous
 62
    30
370
    25
100
AcDbLine
 10
-288.033333333335
 20
-554.3155065082063
 30
0.0
 11
-286.783333333335
 21
-550.5655065082063
 31
0.0
  0
LINE
  5
1CF
330
1F
100
AcDbEntity
  8
ZUWAKU
  6
Continuous
 62
    30
370
    25
100
AcDbLine
 10
-279.283333333335
 20
-547.3155065082063
 30
0.0
 11
-274.533333333335
 21
-534.5655065082063
 31
0.0
  0
LINE
  5
1D0
330
1F
100
AcDbEntity
  8
ZUWAKU
  6
Continuous
 62
    30
370
    25
100
AcDbLine
 10
-286.783333333335
 20
-550.5655065082063
 30
0.0
 11
-284.533333333335
 21
-550.5655065082063
 31
0.0
  0
LINE
  5
1D1
330
1F
100
AcDbEntity
  8
ZUWAKU
  6
Continuous
 62
    30
370
    25
100
AcDbLine
 10
-286.783333333335
 20
-550.5655065082063
 30
0.0
 11
-284.533333333335
 21
-550.5655065082063
 31
0.0
  0
LINE
  5
1D2
330
1F
100
AcDbEntity
  8
ZUWAKU
  6
Continuous
 62
    30
370
    25
100
AcDbLine
 10
-280.533333333335
 20
-549.3155065082063
 30
0.0
 11
-279.283333333335
 21
-547.3155065082063
 31
0.0
  0
LINE
  5
1D3
330
1F
100
AcDbEntity
  8
ZUWAKU
  6
Continuous
 62
    30
370
    25
100
AcDbLine
 10
-282.533333333335
 20
-550.3155065082063
 30
0.0
 11
-280.533333333335
 21
-549.3155065082063
 31
0.0
  0
LINE
  5
1D4
330
1F
100
AcDbEntity
  8
ZUWAKU
  6
Continuous
 62
    30
370
    25
100
AcDbLine
 10
-284.533333333335
 20
-550.5655065082063
 30
0.0
 11
-282.533333333335
 21
-550.3155065082063
 31
0.0
  0
LINE
  5
1D5
330
1F
100
AcDbEntity
  8
ZUWAKU
  6
Continuous
 62
    30
370
    25
100
AcDbLine
 10
-284.533333333335
 20
-550.5655065082063
 30
0.0
 11
-282.533333333335
 21
-550.3155065082063
 31
0.0
  0
LINE
  5
1D6
330
1F
100
AcDbEntity
  8
ZUWAKU
  6
Continuous
 62
    30
370
    25
100
AcDbLine
 10
-219.3833333333349
 20
-534.5655065082063
 30
0.0
 11
-211.3833333333349
 21
-534.5655065082063
 31
0.0
  0
LINE
  5
1D7
330
1F
100
AcDbEntity
  8
ZUWAKU
  6
Continuous
 62
    30
370
    25
100
AcDbLine
 10
-211.3833333333349
 20
-534.5655065082063
 30
0.0
 11
-212.8833333333349
 21
-539.0655065082063
 31
0.0
  0
LINE
  5
1D8
330
1F
100
AcDbEntity
  8
ZUWAKU
  6
Continuous
 62
    30
370
    25
100
AcDbLine
 10
-211.3833333333349
 20
-534.5655065082063
 30
0.0
 11
-212.8833333333349
 21
-539.0655065082063
 31
0.0
  0
LINE
  5
1D9
330
1F
100
AcDbEntity
  8
ZUWAKU
  6
Continuous
 62
    30
370
    25
100
AcDbLine
 10
-213.2833333333349
 20
-539.0655065082063
 30
0.0
 11
-221.1333333333349
 21
-539.0655065082063
 31
0.0
  0
LINE
  5
1DA
330
1F
100
AcDbEntity
  8
ZUWAKU
  6
Continuous
 62
    30
370
    25
100
AcDbLine
 10
-189.7536307709527
 20
-539.0322486150347
 30
0.0
 11
-192.0833333333349
 21
-543.3155065082063
 31
0.0
  0
LINE
  5
1DB
330
1F
100
AcDbEntity
  8
ZUWAKU
  6
Continuous
 62
    30
370
    25
100
AcDbLine
 10
-182.8333333333349
 20
-534.5655065082063
 30
0.0
 11
-195.333333333335
 21
-547.0655065082063
 31
0.0
  0
LINE
  5
1DC
330
1F
100
AcDbEntity
  8
ZUWAKU
  6
Continuous
 62
    30
370
    25
100
AcDbLine
 10
-195.3333333333351
 20
-547.0655065082066
 30
0.0
 11
-202.283333333335
 21
-554.0155065082064
 31
0.0
  0
LINE
  5
1DD
330
1F
100
AcDbEntity
  8
ZUWAKU
  6
Continuous
 62
    30
370
    25
100
AcDbLine
 10
-183.9647041832334
 20
-534.5655065082063
 30
0.0
 11
-191.3303952088603
 21
-541.9311975338331
 31
0.0
  0
LINE
  5
1DE
330
1F
100
AcDbEntity
  8
ZUWAKU
  6
Continuous
 62
    30
370
    25
100
AcDbLine
 10
-197.919323847389
 20
-548.5201261723619
 30
0.0
 11
-203.6409783532132
 21
-554.241780678186
 31
0.0
  0
LINE
  5
1DF
330
1F
100
AcDbEntity
  8
ZUWAKU
  6
Continuous
 62
    30
370
    25
100
AcDbLine
 10
-185.0960750331319
 20
-534.5655065082063
 30
0.0
 11
-189.981184604752
 21
-539.4506160798264
 31
0.0
  0
LINE
  5
1E0
330
1F
100
AcDbEntity
  8
ZUWAKU
  6
Continuous
 62
    30
370
    25
100
AcDbLine
 10
-199.9828061530778
 20
-549.4522376281521
 30
0.0
 11
-204.9986233730913
 21
-554.4680548481657
 31
0.0
  0
LINE
  5
1E1
330
1F
100
AcDbEntity
  8
ZUWAKU
  6
Continuous
 62
    30
370
    25
100
AcDbLine
 10
-186.2274458830304
 20
-534.5655065082063
 30
0.0
 11
-190.7274458830304
 21
-539.0655065082063
 31
0.0
  0
LINE
  5
1E2
330
1F
100
AcDbEntity
  8
ZUWAKU
  6
Continuous
 62
    30
370
    25
100
AcDbLine
 10
-201.4158758962825
 20
-549.7539365214585
 30
0.0
 11
-205.2319992153192
 21
-553.5700598404951
 31
0.0
  0
LINE
  5
1E3
330
1F
100
AcDbEntity
  8
ZUWAKU
  6
Continuous
 62
    30
370
    25
100
AcDbLine
 10
-187.3588167329289
 20
-534.5655065082063
 30
0.0
 11
-191.8588167329289
 21
-539.0655065082063
 31
0.0
  0
LINE
  5
1E4
330
1F
100
AcDbEntity
  8
ZUWAKU
  6
Continuous
 62
    30
370
    25
100
AcDbLine
 10
-202.8489456394873
 20
-550.0556354147648
 30
0.0
 11
-204.6148878426473
 21
-551.8215776179247
 31
0.0
  0
LINE
  5
1E5
330
1F
100
AcDbEntity
  8
ZUWAKU
  6
Continuous
 62
    30
370
    25
100
AcDbLine
 10
-188.4901875828274
 20
-534.5655065082063
 30
0.0
 11
-192.9901875828274
 21
-539.0655065082063
 31
0.0
  0
LINE
  5
1E6
330
1F
100
AcDbEntity
  8
ZUWAKU
  6
Continuous
 62
    30
370
    25
100
AcDbLine
 10
-189.621558432726
 20
-534.5655065082063
 30
0.0
 11
-194.121558432726
 21
-539.0655065082063
 31
0.0
  0
LINE
  5
1E7
330
1F
100
AcDbEntity
  8
ZUWAKU
  6
Continuous
 62
    30
370
    25
100
AcDbLine
 10
-190.7529292826245
 20
-534.5655065082063
 30
0.0
 11
-195.2529292826245
 21
-539.0655065082063
 31
0.0
  0
LINE
  5
1E8
330
1F
100
AcDbEntity
  8
ZUWAKU
  6
Continuous
 62
    30
370
    25
100
AcDbLine
 10
-191.8843001325229
 20
-534.5655065082063
 30
0.0
 11
-196.3843001325229
 21
-539.0655065082063
 31
0.0
  0
LINE
  5
1E9
330
1F
100
AcDbEntity
  8
ZUWAKU
  6
Continuous
 62
    30
370
    25
100
AcDbLine
 10
-193.0156709824214
 20
-534.5655065082063
 30
0.0
 11
-197.5156709824214
 21
-539.0655065082063
 31
0.0
  0
LINE
  5
1EA
330
1F
100
AcDbEntity
  8
ZUWAKU
  6
Continuous
 62
    30
370
    25
100
AcDbLine
 10
-194.1470418323199
 20
-534.5655065082063
 30
0.0
 11
-198.5514790838424
 21
-538.9699437597288
 31
0.0
  0
LINE
  5
1EB
330
1F
100
AcDbEntity
  8
ZUWAKU
  6
Continuous
 62
    30
370
    25
100
AcDbLine
 10
-195.2784126822185
 20
-534.5655065082063
 30
0.0
 11
-197.9857936588931
 21
-537.2728874848809
 31
0.0
  0
LINE
  5
1EC
330
1F
100
AcDbEntity
  8
ZUWAKU
  6
Continuous
 62
    30
370
    25
100
AcDbLine
 10
-196.4097835321171
 20
-534.5655065082063
 30
0.0
 11
-197.4201082339439
 21
-535.5758312100331
 31
0.0
  0
LINE
  5
1ED
330
1F
100
AcDbEntity
  8
ZUWAKU
  6
Continuous
 62
    30
370
    25
100
AcDbLine
 10
-181.7019624834366
 20
-534.5655065082063
 30
0.0
 11
-200.925688313457
 21
-553.7892323382267
 31
0.0
  0
LINE
  5
1EE
330
1F
100
AcDbEntity
  8
ZUWAKU
  6
Continuous
 62
    30
370
    25
100
AcDbLine
 10
-180.5705916335378
 20
-534.5655065082063
 30
0.0
 11
-199.5680432935785
 21
-553.562958168247
 31
0.0
  0
LINE
  5
1EF
330
1F
100
AcDbEntity
  8
ZUWAKU
  6
Continuous
 62
    30
370
    25
100
AcDbLine
 10
-180.3409783532131
 20
-535.4672640777801
 30
0.0
 11
-198.2103982737003
 21
-553.3366839982673
 31
0.0
  0
LINE
  5
1F0
330
1F
100
AcDbEntity
  8
ZUWAKU
  6
Continuous
 62
    30
370
    25
100
AcDbLine
 10
-180.7935266931725
 20
-537.051183267638
 30
0.0
 11
-196.6476565739034
 21
-552.9053131483688
 31
0.0
  0
LINE
  5
1F1
330
1F
100
AcDbEntity
  8
ZUWAKU
  6
Continuous
 62
    30
370
    25
100
AcDbLine
 10
-181.4320655471856
 20
-538.8210929715497
 30
0.0
 11
-195.0637373840454
 21
-552.4527648084094
 31
0.0
  0
LINE
  5
1F2
330
1F
100
AcDbEntity
  8
ZUWAKU
  6
Continuous
 62
    30
370
    25
100
AcDbLine
 10
-182.4018119899557
 20
-540.922210264218
 30
0.0
 11
-193.4009956842485
 21
-551.9213939585109
 31
0.0
  0
LINE
  5
1F3
330
1F
100
AcDbEntity
  8
ZUWAKU
  6
Continuous
 62
    30
370
    25
100
AcDbLine
 10
-184.4225252319139
 20
-544.0742943560748
 30
0.0
 11
-191.7039394094007
 21
-551.3557085335616
 31
0.0
  0
LINE
  5
1F4
330
1F
100
AcDbEntity
  8
ZUWAKU
  6
Continuous
 62
    30
370
    25
100
AcDbLine
 10
-186.7196347647528
 20
-547.5027747388123
 30
0.0
 11
-190.6234412193585
 21
-551.4065811934179
 31
0.0
  0
LINE
  5
1F5
330
1F
100
AcDbEntity
  8
ZUWAKU
  6
Continuous
 62
    30
370
    25
100
AcDbLine
 10
-186.2922279992356
 20
-548.2067388231935
 30
0.0
 11
-190.1924428003496
 21
-552.1069536243075
 31
0.0
  0
LINE
  5
1F6
330
1F
100
AcDbEntity
  8
ZUWAKU
  6
Continuous
 62
    30
370
    25
100
AcDbLine
 10
-185.8648212337183
 20
-548.9107029075748
 30
0.0
 11
-189.7614443813406
 21
-552.8073260551971
 31
0.0
  0
LINE
  5
1F7
330
1F
100
AcDbEntity
  8
ZUWAKU
  6
Continuous
 62
    30
370
    25
100
AcDbLine
 10
-185.4374144682011
 20
-549.6146669919561
 30
0.0
 11
-189.3304459623317
 21
-553.5076984860866
 31
0.0
  0
LINE
  5
1F8
330
1F
100
AcDbEntity
  8
ZUWAKU
  6
Continuous
 62
    30
370
    25
100
AcDbLine
 10
-185.0100077026839
 20
-550.3186310763374
 30
0.0
 11
-188.8994475433227
 21
-554.2080709169761
 31
0.0
  0
LINE
  5
1F9
330
1F
100
AcDbEntity
  8
ZUWAKU
  6
Continuous
 62
    30
370
    25
100
AcDbLine
 10
-184.5826009371667
 20
-551.0225951607187
 30
0.0
 11
-187.8755122846544
 21
-554.3155065082063
 31
0.0
  0
LINE
  5
1FA
330
1F
100
AcDbEntity
  8
ZUWAKU
  6
Continuous
 62
    30
370
    25
100
AcDbLine
 10
-184.1551941716495
 20
-551.7265592451
 30
0.0
 11
-186.7441414347558
 21
-554.3155065082063
 31
0.0
  0
LINE
  5
1FB
330
1F
100
AcDbEntity
  8
ZUWAKU
  6
Continuous
 62
    30
370
    25
100
AcDbLine
 10
-183.7277874061323
 20
-552.4305233294812
 30
0.0
 11
-185.6127705848574
 21
-554.3155065082063
 31
0.0
  0
LINE
  5
1FC
330
1F
100
AcDbEntity
  8
ZUWAKU
  6
Continuous
 62
    30
370
    25
100
AcDbLine
 10
-183.3003806406151
 20
-553.1344874138624
 30
0.0
 11
-184.4813997349589
 21
-554.3155065082063
 31
0.0
  0
LINE
  5
1FD
330
1F
100
AcDbEntity
  8
ZUWAKU
  6
Continuous
 62
    30
370
    25
100
AcDbLine
 10
-182.8729738750978
 20
-553.8384514982438
 30
0.0
 11
-183.3500288850604
 21
-554.3155065082063
 31
0.0
  0
LINE
  5
1FE
330
1F
100
AcDbEntity
  8
ZUWAKU
  6
Continuous
 62
    30
370
    25
100
AcDbLine
 10
-214.0083333333349
 20
-534.5655065082063
 30
0.0
 11
-218.5083333333349
 21
-539.0655065082063
 31
0.0
  0
LINE
  5
1FF
330
1F
100
AcDbEntity
  8
ZUWAKU
  6
Continuous
 62
    30
370
    25
100
AcDbLine
 10
-215.1397041832334
 20
-534.5655065082063
 30
0.0
 11
-219.6397041832334
 21
-539.0655065082063
 31
0.0
  0
LINE
  5
200
330
1F
100
AcDbEntity
  8
ZUWAKU
  6
Continuous
 62
    30
370
    25
100
AcDbLine
 10
-216.271075033132
 20
-534.5655065082063
 30
0.0
 11
-220.771075033132
 21
-539.0655065082063
 31
0.0
  0
LINE
  5
201
330
1F
100
AcDbEntity
  8
ZUWAKU
  6
Continuous
 62
    30
370
    25
100
AcDbLine
 10
-217.4024458830303
 20
-534.5655065082063
 30
0.0
 11
-220.6438980744378
 21
-537.8069586996139
 31
0.0
  0
LINE
  5
202
330
1F
100
AcDbEntity
  8
ZUWAKU
  6
Continuous
 62
    30
370
    25
100
AcDbLine
 10
-218.5338167329289
 20
-534.5655065082063
 30
0.0
 11
-219.9239348063205
 21
-535.9556245815979
 31
0.0
  0
LINE
  5
203
330
1F
100
AcDbEntity
  8
ZUWAKU
  6
Continuous
 62
    30
370
    25
100
AcDbLine
 10
-212.8769624834367
 20
-534.5655065082063
 30
0.0
 11
-217.3769624834367
 21
-539.0655065082063
 31
0.0
  0
LINE
  5
204
330
1F
100
AcDbEntity
  8
ZUWAKU
  6
Continuous
 62
    30
370
    25
100
AcDbLine
 10
-211.7455916335379
 20
-534.5655065082063
 30
0.0
 11
-216.2455916335379
 21
-539.0655065082063
 31
0.0
  0
LINE
  5
205
330
1F
100
AcDbEntity
  8
ZUWAKU
  6
Continuous
 62
    30
370
    25
100
AcDbLine
 10
-211.7678896081826
 20
-535.7191753327496
 30
0.0
 11
-215.1142207836394
 21
-539.0655065082063
 31
0.0
  0
LINE
  5
206
330
1F
100
AcDbEntity
  8
ZUWAKU
  6
Continuous
 62
    30
370
    25
100
AcDbLine
 10
-212.3335750331318
 20
-537.4162316075972
 30
0.0
 11
-213.982849933741
 21
-539.0655065082063
 31
0.0
  0
LINE
  5
207
330
1F
100
AcDbEntity
  8
ZUWAKU
  6
Continuous
 62
    30
370
    25
100
AcDbLine
 10
-212.8514790838423
 20
-539.0655065082063
 30
0.0
 11
-212.8992604580811
 21
-539.1132878824451
 31
0.0
  0
LINE
  5
208
330
1F
100
AcDbEntity
  8
ZUWAKU
  6
Continuous
 62
    30
370
    25
100
AcDbLine
 10
-215.5083333333349
 20
-548.0655065082063
 30
0.0
 11
-221.7583333333349
 21
-554.3155065082063
 31
0.0
  0
LINE
  5
209
330
1F
100
AcDbEntity
  8
ZUWAKU
  6
Continuous
 62
    30
370
    25
100
AcDbLine
 10
-216.6397041832335
 20
-548.0655065082063
 30
0.0
 11
-222.8897041832335
 21
-554.3155065082063
 31
0.0
  0
LINE
  5
20A
330
1F
100
AcDbEntity
  8
ZUWAKU
  6
Continuous
 62
    30
370
    25
100
AcDbLine
 10
-217.7710750331319
 20
-548.0655065082063
 30
0.0
 11
-224.0210750331319
 21
-554.3155065082063
 31
0.0
  0
LINE
  5
20B
330
1F
100
AcDbEntity
  8
ZUWAKU
  6
Continuous
 62
    30
370
    25
100
AcDbLine
 10
-218.9024458830304
 20
-548.0655065082063
 30
0.0
 11
-225.1524458830304
 21
-554.3155065082063
 31
0.0
  0
LINE
  5
20C
330
1F
100
AcDbEntity
  8
ZUWAKU
  6
Continuous
 62
    30
370
    25
100
AcDbLine
 10
-220.033816732929
 20
-548.0655065082063
 30
0.0
 11
-226.2838167329289
 21
-554.3155065082063
 31
0.0
  0
LINE
  5
20D
330
1F
100
AcDbEntity
  8
ZUWAKU
  6
Continuous
 62
    30
370
    25
100
AcDbLine
 10
-221.1651875828274
 20
-548.0655065082063
 30
0.0
 11
-226.1935403179954
 21
-553.0938592433744
 31
0.0
  0
LINE
  5
20E
330
1F
100
AcDbEntity
  8
ZUWAKU
  6
Continuous
 62
    30
370
    25
100
AcDbLine
 10
-222.296558432726
 20
-548.0655065082063
 30
0.0
 11
-225.5571442149275
 21
-551.3260922904078
 31
0.0
  0
LINE
  5
20F
330
1F
100
AcDbEntity
  8
ZUWAKU
  6
Continuous
 62
    30
370
    25
100
AcDbLine
 10
-223.4279292826244
 20
-548.0655065082063
 30
0.0
 11
-224.9207481118596
 21
-549.5583253374415
 31
0.0
  0
LINE
  5
210
330
1F
100
AcDbEntity
  8
ZUWAKU
  6
Continuous
 62
    30
370
    25
100
AcDbLine
 10
-214.3769624834366
 20
-548.0655065082063
 30
0.0
 11
-220.6269624834366
 21
-554.3155065082063
 31
0.0
  0
LINE
  5
211
330
1F
100
AcDbEntity
  8
ZUWAKU
  6
Continuous
 62
    30
370
    25
100
AcDbLine
 10
-213.2455916335379
 20
-548.0655065082063
 30
0.0
 11
-219.4955916335379
 21
-554.3155065082063
 31
0.0
  0
LINE
  5
212
330
1F
100
AcDbEntity
  8
ZUWAKU
  6
Continuous
 62
    30
370
    25
100
AcDbLine
 10
-202.3642207836395
 20
-538.3155065082063
 30
0.0
 11
-204.0202786768945
 21
-539.9715644014614
 31
0.0
  0
LINE
  5
213
330
1F
100
AcDbEntity
  8
ZUWAKU
  6
Continuous
 62
    30
370
    25
100
AcDbLine
 10
-211.8451082339442
 20
-547.7963939585111
 30
0.0
 11
-218.3642207836395
 21
-554.3155065082063
 31
0.0
  0
LINE
  5
214
330
1F
100
AcDbEntity
  8
ZUWAKU
  6
Continuous
 62
    30
370
    25
100
AcDbLine
 10
-201.2328499337409
 20
-538.3155065082063
 30
0.0
 11
-205.0346223989187
 21
-542.1172789733841
 31
0.0
  0
LINE
  5
215
330
1F
100
AcDbEntity
  8
ZUWAKU
  6
Continuous
 62
    30
370
    25
100
AcDbLine
 10
-209.582366534147
 20
-546.6650231086124
 30
0.0
 11
-217.2328499337409
 21
-554.3155065082063
 31
0.0
  0
LINE
  5
216
330
1F
100
AcDbEntity
  8
ZUWAKU
  6
Continuous
 62
    30
370
    25
100
AcDbLine
 10
-201.0672990390979
 20
-539.2813264634618
 30
0.0
 11
-216.1014790838424
 21
-554.3155065082063
 31
0.0
  0
LINE
  5
217
330
1F
100
AcDbEntity
  8
ZUWAKU
  6
Continuous
 62
    30
370
    25
100
AcDbLine
 10
-201.3335039449563
 20
-540.6789022192188
 30
0.0
 11
-214.9701082339438
 21
-554.3155065082063
 31
0.0
  0
LINE
  5
218
330
1F
100
AcDbEntity
  8
ZUWAKU
  6
Continuous
 62
    30
370
    25
100
AcDbLine
 10
-201.5997088508148
 20
-542.0764779749757
 30
0.0
 11
-213.8387373840454
 21
-554.3155065082063
 31
0.0
  0
LINE
  5
219
330
1F
100
AcDbEntity
  8
ZUWAKU
  6
Continuous
 62
    30
370
    25
100
AcDbLine
 10
-201.8659137566733
 20
-543.4740537307326
 30
0.0
 11
-212.1665930947965
 21
-553.7747330688559
 31
0.0
  0
LINE
  5
21A
330
1F
100
AcDbEntity
  8
ZUWAKU
  6
Continuous
 62
    30
370
    25
100
AcDbLine
 10
-203.4693398069647
 20
-546.2088506309226
 30
0.0
 11
-210.130125564979
 21
-552.8696363889369
 31
0.0
  0
LINE
  5
21B
330
1F
100
AcDbEntity
  8
ZUWAKU
  6
Continuous
 62
    30
370
    25
100
AcDbLine
 10
-224.6583333333349
 20
-534.5655065082063
 30
0.0
 11
-242.6270833333349
 21
-552.5342565082063
 31
0.0
  0
LINE
  5
21C
330
1F
100
AcDbEntity
  8
ZUWAKU
  6
Continuous
 62
    30
370
    25
100
AcDbLine
 10
-225.7897041832335
 20
-534.5655065082063
 30
0.0
 11
-241.9671170042274
 21
-550.7429193292004
 31
0.0
  0
LINE
  5
21D
330
1F
100
AcDbEntity
  8
ZUWAKU
  6
Continuous
 62
    30
370
    25
100
AcDbLine
 10
-226.9210750331319
 20
-534.5655065082063
 30
0.0
 11
-241.3071506751201
 21
-548.9515821501946
 31
0.0
  0
LINE
  5
21E
330
1F
100
AcDbEntity
  8
ZUWAKU
  6
Continuous
 62
    30
370
    25
100
AcDbLine
 10
-228.0524458830304
 20
-534.5655065082063
 30
0.0
 11
-240.6471843460126
 21
-547.1602449711886
 31
0.0
  0
LINE
  5
21F
330
1F
100
AcDbEntity
  8
ZUWAKU
  6
Continuous
 62
    30
370
    25
100
AcDbLine
 10
-229.183816732929
 20
-534.5655065082063
 30
0.0
 11
-239.9872180169051
 21
-545.3689077921825
 31
0.0
  0
LINE
  5
220
330
1F
100
AcDbEntity
  8
ZUWAKU
  6
Continuous
 62
    30
370
    25
100
AcDbLine
 10
-230.3151875828275
 20
-534.5655065082063
 30
0.0
 11
-231.1150553346881
 21
-535.365374260067
 31
0.0
  0
LINE
  5
221
330
1F
100
AcDbEntity
  8
ZUWAKU
  6
Continuous
 62
    30
370
    25
100
AcDbLine
 10
-235.5265782699469
 20
-539.7768971953258
 30
0.0
 11
-240.5651875828275
 21
-544.8155065082063
 31
0.0
  0
LINE
  5
222
330
1F
100
AcDbEntity
  8
ZUWAKU
  6
Continuous
 62
    30
370
    25
100
AcDbLine
 10
-237.5064772572691
 20
-540.6254253327496
 30
0.0
 11
-241.6965584327259
 21
-544.8155065082063
 31
0.0
  0
LINE
  5
223
330
1F
100
AcDbEntity
  8
ZUWAKU
  6
Continuous
 62
    30
370
    25
100
AcDbLine
 10
-239.1233122783985
 20
-541.1108895039805
 30
0.0
 11
-242.8279292826244
 21
-544.8155065082063
 31
0.0
  0
LINE
  5
224
330
1F
100
AcDbEntity
  8
ZUWAKU
  6
Continuous
 62
    30
370
    25
100
AcDbLine
 10
-240.3489640324553
 20
-541.2051704081387
 30
0.0
 11
-243.9593001325229
 21
-544.8155065082063
 31
0.0
  0
LINE
  5
225
330
1F
100
AcDbEntity
  8
ZUWAKU
  6
Continuous
 62
    30
370
    25
100
AcDbLine
 10
-241.574615786512
 20
-541.2994513122968
 30
0.0
 11
-245.0906709824215
 21
-544.8155065082063
 31
0.0
  0
LINE
  5
226
330
1F
100
AcDbEntity
  8
ZUWAKU
  6
Continuous
 62
    30
370
    25
100
AcDbLine
 10
-242.72204183232
 20
-541.3155065082063
 30
0.0
 11
-246.22204183232
 21
-544.8155065082063
 31
0.0
  0
LINE
  5
227
330
1F
100
AcDbEntity
  8
ZUWAKU
  6
Continuous
 62
    30
370
    25
100
AcDbLine
 10
-243.8534126822184
 20
-541.3155065082063
 30
0.0
 11
-247.3534126822184
 21
-544.8155065082063
 31
0.0
  0
LINE
  5
228
330
1F
100
AcDbEntity
  8
ZUWAKU
  6
Continuous
 62
    30
370
    25
100
AcDbLine
 10
-244.9847835321169
 20
-541.3155065082063
 30
0.0
 11
-247.393638778456
 21
-543.7243617545455
 31
0.0
  0
LINE
  5
229
330
1F
100
AcDbEntity
  8
ZUWAKU
  6
Continuous
 62
    30
370
    25
100
AcDbLine
 10
-246.1161543820155
 20
-541.3155065082063
 30
0.0
 11
-246.7650994174013
 21
-541.9644515435922
 31
0.0
  0
LINE
  5
22A
330
1F
100
AcDbEntity
  8
ZUWAKU
  6
Continuous
 62
    30
370
    25
100
AcDbLine
 10
-223.5269624834366
 20
-534.5655065082063
 30
0.0
 11
-243.2870496624423
 21
-554.325593687212
 31
0.0
  0
LINE
  5
22B
330
1F
100
AcDbEntity
  8
ZUWAKU
  6
Continuous
 62
    30
370
    25
100
AcDbLine
 10
-222.3955916335379
 20
-534.5655065082063
 30
0.0
 11
-231.0843731002948
 21
-543.2542879749632
 31
0.0
  0
LINE
  5
22C
330
1F
100
AcDbEntity
  8
ZUWAKU
  6
Continuous
 62
    30
370
    25
100
AcDbLine
 10
-231.3545790401265
 20
-543.5244939147949
 30
0.0
 11
-242.1455916335379
 21
-554.3155065082063
 31
0.0
  0
LINE
  5
22D
330
1F
100
AcDbEntity
  8
ZUWAKU
  6
Continuous
 62
    30
370
    25
100
AcDbLine
 10
-221.2642207836394
 20
-534.5655065082063
 30
0.0
 11
-229.4501707615526
 21
-542.7514564861194
 31
0.0
  0
LINE
  5
22E
330
1F
100
AcDbEntity
  8
ZUWAKU
  6
Continuous
 62
    30
370
    25
100
AcDbLine
 10
-231.9397708590394
 20
-545.2410565836063
 30
0.0
 11
-241.0142207836394
 21
-554.3155065082063
 31
0.0
  0
LINE
  5
22F
330
1F
100
AcDbEntity
  8
ZUWAKU
  6
Continuous
 62
    30
370
    25
100
AcDbLine
 10
-222.2694619615583
 20
-536.7021185360236
 30
0.0
 11
-227.4815608681572
 21
-541.9142174426225
 31
0.0
  0
LINE
  5
230
330
1F
100
AcDbEntity
  8
ZUWAKU
  6
Continuous
 62
    30
370
    25
100
AcDbLine
 10
-232.5249626779525
 20
-546.9576192524179
 30
0.0
 11
-239.8828499337409
 21
-554.3155065082063
 31
0.0
  0
LINE
  5
231
330
1F
100
AcDbEntity
  8
ZUWAKU
  6
Continuous
 62
    30
370
    25
100
AcDbLine
 10
-233.1101544968655
 20
-548.6741819212294
 30
0.0
 11
-238.7514790838424
 21
-554.3155065082063
 31
0.0
  0
LINE
  5
232
330
1F
100
AcDbEntity
  8
ZUWAKU
  6
Continuous
 62
    30
370
    25
100
AcDbLine
 10
-233.6953463157786
 20
-550.3907445900411
 30
0.0
 11
-237.6201082339439
 21
-554.3155065082063
 31
0.0
  0
LINE
  5
233
330
1F
100
AcDbEntity
  8
ZUWAKU
  6
Continuous
 62
    30
370
    25
100
AcDbLine
 10
-234.2805381346915
 20
-552.1073072588524
 30
0.0
 11
-236.4887373840454
 21
-554.3155065082063
 31
0.0
  0
LINE
  5
234
330
1F
100
AcDbEntity
  8
ZUWAKU
  6
Continuous
 62
    30
370
    25
100
AcDbLine
 10
-234.8657299536046
 20
-553.8238699276641
 30
0.0
 11
-235.3573665341469
 21
-554.3155065082063
 31
0.0
  0
LINE
  5
235
330
1F
100
AcDbEntity
  8
ZUWAKU
  6
Continuous
 62
    30
370
    25
100
AcDbLine
 10
-254.3583333333349
 20
-534.5655065082063
 30
0.0
 11
-258.8583333333349
 21
-539.0655065082063
 31
0.0
  0
LINE
  5
236
330
1F
100
AcDbEntity
  8
ZUWAKU
  6
Continuous
 62
    30
370
    25
100
AcDbLine
 10
-255.4897041832334
 20
-534.5655065082063
 30
0.0
 11
-259.9897041832335
 21
-539.0655065082063
 31
0.0
  0
LINE
  5
237
330
1F
100
AcDbEntity
  8
ZUWAKU
  6
Continuous
 62
    30
370
    25
100
AcDbLine
 10
-256.621075033132
 20
-534.5655065082063
 30
0.0
 11
-261.121075033132
 21
-539.0655065082063
 31
0.0
  0
LINE
  5
238
330
1F
100
AcDbEntity
  8
ZUWAKU
  6
Continuous
 62
    30
370
    25
100
AcDbLine
 10
-257.7524458830304
 20
-534.5655065082063
 30
0.0
 11
-262.2524458830304
 21
-539.0655065082063
 31
0.0
  0
LINE
  5
239
330
1F
100
AcDbEntity
  8
ZUWAKU
  6
Continuous
 62
    30
370
    25
100
AcDbLine
 10
-258.8838167329289
 20
-534.5655065082063
 30
0.0
 11
-263.3838167329289
 21
-539.0655065082063
 31
0.0
  0
LINE
  5
23A
330
1F
100
AcDbEntity
  8
ZUWAKU
  6
Continuous
 62
    30
370
    25
100
AcDbLine
 10
-260.0151875828275
 20
-534.5655065082063
 30
0.0
 11
-264.5151875828275
 21
-539.0655065082063
 31
0.0
  0
LINE
  5
23B
330
1F
100
AcDbEntity
  8
ZUWAKU
  6
Continuous
 62
    30
370
    25
100
AcDbLine
 10
-261.146558432726
 20
-534.5655065082063
 30
0.0
 11
-265.646558432726
 21
-539.0655065082063
 31
0.0
  0
LINE
  5
23C
330
1F
100
AcDbEntity
  8
ZUWAKU
  6
Continuous
 62
    30
370
    25
100
AcDbLine
 10
-262.2779292826244
 20
-534.5655065082063
 30
0.0
 11
-266.3360353586902
 21
-538.6236125842721
 31
0.0
  0
LINE
  5
23D
330
1F
100
AcDbEntity
  8
ZUWAKU
  6
Continuous
 62
    30
370
    25
100
AcDbLine
 10
-263.409300132523
 20
-534.5655065082063
 30
0.0
 11
-265.7703499337409
 21
-536.9265563094243
 31
0.0
  0
LINE
  5
23E
330
1F
100
AcDbEntity
  8
ZUWAKU
  6
Continuous
 62
    30
370
    25
100
AcDbLine
 10
-264.5406709824215
 20
-534.5655065082063
 30
0.0
 11
-265.2046645087917
 21
-535.2295000345765
 31
0.0
  0
LINE
  5
23F
330
1F
100
AcDbEntity
  8
ZUWAKU
  6
Continuous
 62
    30
370
    25
100
AcDbLine
 10
-253.2269624834366
 20
-534.5655065082063
 30
0.0
 11
-257.7269624834366
 21
-539.0655065082063
 31
0.0
  0
LINE
  5
240
330
1F
100
AcDbEntity
  8
ZUWAKU
  6
Continuous
 62
    30
370
    25
100
AcDbLine
 10
-252.095591633538
 20
-534.5655065082063
 30
0.0
 11
-256.595591633538
 21
-539.0655065082063
 31
0.0
  0
LINE
  5
241
330
1F
100
AcDbEntity
  8
ZUWAKU
  6
Continuous
 62
    30
370
    25
100
AcDbLine
 10
-250.9642207836394
 20
-534.5655065082063
 30
0.0
 11
-255.4642207836394
 21
-539.0655065082063
 31
0.0
  0
LINE
  5
242
330
1F
100
AcDbEntity
  8
ZUWAKU
  6
Continuous
 62
    30
370
    25
100
AcDbLine
 10
-249.8328499337409
 20
-534.5655065082063
 30
0.0
 11
-254.3328499337409
 21
-539.0655065082063
 31
0.0
  0
LINE
  5
243
330
1F
100
AcDbEntity
  8
ZUWAKU
  6
Continuous
 62
    30
370
    25
100
AcDbLine
 10
-248.7014790838424
 20
-534.5655065082063
 30
0.0
 11
-253.2014790838424
 21
-539.0655065082063
 31
0.0
  0
LINE
  5
244
330
1F
100
AcDbEntity
  8
ZUWAKU
  6
Continuous
 62
    30
370
    25
100
AcDbLine
 10
-247.570108233944
 20
-534.5655065082063
 30
0.0
 11
-252.070108233944
 21
-539.0655065082063
 31
0.0
  0
LINE
  5
245
330
1F
100
AcDbEntity
  8
ZUWAKU
  6
Continuous
 62
    30
370
    25
100
AcDbLine
 10
-246.8806313079797
 20
-535.0074004321406
 30
0.0
 11
-250.9387373840454
 21
-539.0655065082063
 31
0.0
  0
LINE
  5
246
330
1F
100
AcDbEntity
  8
ZUWAKU
  6
Continuous
 62
    30
370
    25
100
AcDbLine
 10
-247.4463167329289
 20
-536.7044567069884
 30
0.0
 11
-249.8073665341469
 21
-539.0655065082063
 31
0.0
  0
LINE
  5
247
330
1F
100
AcDbEntity
  8
ZUWAKU
  6
Continuous
 62
    30
370
    25
100
AcDbLine
 10
-248.0120021578782
 20
-538.4015129818362
 30
0.0
 11
-248.6759956842484
 21
-539.0655065082063
 31
0.0
  0
LINE
  5
248
330
1F
100
AcDbEntity
  8
ZUWAKU
  6
Continuous
 62
    30
370
    25
100
AcDbLine
 10
-253.9833333333349
 20
-541.3155065082063
 30
0.0
 11
-257.4833333333349
 21
-544.8155065082063
 31
0.0
  0
LINE
  5
249
330
1F
100
AcDbEntity
  8
ZUWAKU
  6
Continuous
 62
    30
370
    25
100
AcDbLine
 10
-263.2333333333349
 20
-550.5655065082063
 30
0.0
 11
-266.9833333333349
 21
-554.3155065082063
 31
0.0
  0
LINE
  5
24A
330
1F
100
AcDbEntity
  8
ZUWAKU
  6
Continuous
 62
    30
370
    25
100
AcDbLine
 10
-255.1147041832334
 20
-541.3155065082063
 30
0.0
 11
-258.6147041832335
 21
-544.8155065082063
 31
0.0
  0
LINE
  5
24B
330
1F
100
AcDbEntity
  8
ZUWAKU
  6
Continuous
 62
    30
370
    25
100
AcDbLine
 10
-264.3647041832335
 20
-550.5655065082063
 30
0.0
 11
-268.1147041832335
 21
-554.3155065082063
 31
0.0
  0
LINE
  5
24C
330
1F
100
AcDbEntity
  8
ZUWAKU
  6
Continuous
 62
    30
370
    25
100
AcDbLine
 10
-256.2460750331319
 20
-541.3155065082063
 30
0.0
 11
-259.7460750331319
 21
-544.8155065082063
 31
0.0
  0
LINE
  5
24D
330
1F
100
AcDbEntity
  8
ZUWAKU
  6
Continuous
 62
    30
370
    25
100
AcDbLine
 10
-265.4960750331319
 20
-550.5655065082063
 30
0.0
 11
-269.2460750331319
 21
-554.3155065082063
 31
0.0
  0
LINE
  5
24E
330
1F
100
AcDbEntity
  8
ZUWAKU
  6
Continuous
 62
    30
370
    25
100
AcDbLine
 10
-257.3774458830304
 20
-541.3155065082063
 30
0.0
 11
-260.8774458830304
 21
-544.8155065082063
 31
0.0
  0
LINE
  5
24F
330
1F
100
AcDbEntity
  8
ZUWAKU
  6
Continuous
 62
    30
370
    25
100
AcDbLine
 10
-266.6274458830304
 20
-550.5655065082063
 30
0.0
 11
-270.3774458830304
 21
-554.3155065082063
 31
0.0
  0
LINE
  5
250
330
1F
100
AcDbEntity
  8
ZUWAKU
  6
Continuous
 62
    30
370
    25
100
AcDbLine
 10
-258.5088167329289
 20
-541.3155065082063
 30
0.0
 11
-262.0088167329289
 21
-544.8155065082063
 31
0.0
  0
LINE
  5
251
330
1F
100
AcDbEntity
  8
ZUWAKU
  6
Continuous
 62
    30
370
    25
100
AcDbLine
 10
-267.7588167329289
 20
-550.5655065082063
 30
0.0
 11
-271.5088167329289
 21
-554.3155065082063
 31
0.0
  0
LINE
  5
252
330
1F
100
AcDbEntity
  8
ZUWAKU
  6
Continuous
 62
    30
370
    25
100
AcDbLine
 10
-259.6401875828275
 20
-541.3155065082063
 30
0.0
 11
-263.1401875828275
 21
-544.8155065082063
 31
0.0
  0
LINE
  5
253
330
1F
100
AcDbEntity
  8
ZUWAKU
  6
Continuous
 62
    30
370
    25
100
AcDbLine
 10
-268.8901875828275
 20
-550.5655065082063
 30
0.0
 11
-271.5454305003399
 21
-553.2207494257187
 31
0.0
  0
LINE
  5
254
330
1F
100
AcDbEntity
  8
ZUWAKU
  6
Continuous
 62
    30
370
    25
100
AcDbLine
 10
-260.771558432726
 20
-541.3155065082063
 30
0.0
 11
-264.271558432726
 21
-544.8155065082063
 31
0.0
  0
LINE
  5
255
330
1F
100
AcDbEntity
  8
ZUWAKU
  6
Continuous
 62
    30
370
    25
100
AcDbLine
 10
-270.021558432726
 20
-550.5655065082063
 30
0.0
 11
-270.7911832670742
 21
-551.3351313425545
 31
0.0
  0
LINE
  5
256
330
1F
100
AcDbEntity
  8
ZUWAKU
  6
Continuous
 62
    30
370
    25
100
AcDbLine
 10
-261.9029292826244
 20
-541.3155065082063
 30
0.0
 11
-265.4029292826244
 21
-544.8155065082063
 31
0.0
  0
LINE
  5
257
330
1F
100
AcDbEntity
  8
ZUWAKU
  6
Continuous
 62
    30
370
    25
100
AcDbLine
 10
-263.034300132523
 20
-541.3155065082063
 30
0.0
 11
-266.534300132523
 21
-544.8155065082063
 31
0.0
  0
LINE
  5
258
330
1F
100
AcDbEntity
  8
ZUWAKU
  6
Continuous
 62
    30
370
    25
100
AcDbLine
 10
-264.1656709824215
 20
-541.3155065082063
 30
0.0
 11
-267.6656709824215
 21
-544.8155065082063
 31
0.0
  0
LINE
  5
259
330
1F
100
AcDbEntity
  8
ZUWAKU
  6
Continuous
 62
    30
370
    25
100
AcDbLine
 10
-265.29704183232
 20
-541.3155065082063
 30
0.0
 11
-267.6578499337409
 21
-543.6763146096272
 31
0.0
  0
LINE
  5
25A
330
1F
100
AcDbEntity
  8
ZUWAKU
  6
Continuous
 62
    30
370
    25
100
AcDbLine
 10
-266.4284126822184
 20
-541.3155065082063
 30
0.0
 11
-267.2053015937815
 21
-542.0923954197694
 31
0.0
  0
LINE
  5
25B
330
1F
100
AcDbEntity
  8
ZUWAKU
  6
Continuous
 62
    30
370
    25
100
AcDbLine
 10
-252.8519624834366
 20
-541.3155065082063
 30
0.0
 11
-257.9358816732943
 21
-546.399425698064
 31
0.0
  0
LINE
  5
25C
330
1F
100
AcDbEntity
  8
ZUWAKU
  6
Continuous
 62
    30
370
    25
100
AcDbLine
 10
-261.773535358691
 20
-550.2370793834607
 30
0.0
 11
-265.8519624834366
 21
-554.3155065082063
 31
0.0
  0
LINE
  5
25D
330
1F
100
AcDbEntity
  8
ZUWAKU
  6
Continuous
 62
    30
370
    25
100
AcDbLine
 10
-251.7205916335379
 20
-541.3155065082063
 30
0.0
 11
-264.7205916335379
 21
-554.3155065082063
 31
0.0
  0
LINE
  5
25E
330
1F
100
AcDbEntity
  8
ZUWAKU
  6
Continuous
 62
    30
370
    25
100
AcDbLine
 10
-250.5892207836394
 20
-541.3155065082063
 30
0.0
 11
-263.5892207836395
 21
-554.3155065082063
 31
0.0
  0
LINE
  5
25F
330
1F
100
AcDbEntity
  8
ZUWAKU
  6
Continuous
 62
    30
370
    25
100
AcDbLine
 10
-249.4578499337409
 20
-541.3155065082063
 30
0.0
 11
-262.4578499337409
 21
-554.3155065082063
 31
0.0
  0
LINE
  5
260
330
1F
100
AcDbEntity
  8
ZUWAKU
  6
Continuous
 62
    30
370
    25
100
AcDbLine
 10
-249.3586786187592
 20
-542.3477060431231
 30
0.0
 11
-261.3264790838424
 21
-554.3155065082063
 31
0.0
  0
LINE
  5
261
330
1F
100
AcDbEntity
  8
ZUWAKU
  6
Continuous
 62
    30
370
    25
100
AcDbLine
 10
-250.0051762472727
 20
-544.1255745215352
 30
0.0
 11
-260.1951082339439
 21
-554.3155065082063
 31
0.0
  0
LINE
  5
262
330
1F
100
AcDbEntity
  8
ZUWAKU
  6
Continuous
 62
    30
370
    25
100
AcDbLine
 10
-250.6516738757861
 20
-545.903442999947
 30
0.0
 11
-259.0072054009489
 21
-554.2589745251098
 31
0.0
  0
LINE
  5
263
330
1F
100
AcDbEntity
  8
ZUWAKU
  6
Continuous
 62
    30
370
    25
100
AcDbLine
 10
-251.2981715042995
 20
-547.681311478359
 30
0.0
 11
-257.4987109344175
 21
-553.881850908477
 31
0.0
  0
LINE
  5
264
330
1F
100
AcDbEntity
  8
ZUWAKU
  6
Continuous
 62
    30
370
    25
100
AcDbLine
 10
-251.944669132813
 20
-549.459179956771
 30
0.0
 11
-255.3686580351618
 21
-552.8831688591198
 31
0.0
  0
LINE
  5
265
330
1F
100
AcDbEntity
  8
ZUWAKU
  6
Continuous
 62
    30
370
    25
100
AcDbLine
 10
-268.0333333333349
 20
-534.5655065082063
 30
0.0
 11
-278.392708333335
 21
-544.9248815082063
 31
0.0
  0
LINE
  5
266
330
1F
100
AcDbEntity
  8
ZUWAKU
  6
Continuous
 62
    30
370
    25
100
AcDbLine
 10
-283.9619047619063
 20
-550.4940779367778
 30
0.0
 11
-287.7833333333349
 21
-554.3155065082063
 31
0.0
  0
LINE
  5
267
330
1F
100
AcDbEntity
  8
ZUWAKU
  6
Continuous
 62
    30
370
    25
100
AcDbLine
 10
-269.1647041832335
 20
-534.5655065082063
 30
0.0
 11
-277.7209568912077
 21
-543.1217592161805
 31
0.0
  0
LINE
  5
268
330
1F
100
AcDbEntity
  8
ZUWAKU
  6
Continuous
 62
    30
370
    25
100
AcDbLine
 10
-285.1647041832335
 20
-550.5655065082063
 30
0.0
 11
-287.5926479083856
 21
-552.9934502333585
 31
0.0
  0
LINE
  5
269
330
1F
100
AcDbEntity
  8
ZUWAKU
  6
Continuous
 62
    30
370
    25
100
AcDbLine
 10
-270.2960750331319
 20
-534.5655065082063
 30
0.0
 11
-277.0492054490805
 21
-541.3186369241549
 31
0.0
  0
LINE
  5
26A
330
1F
100
AcDbEntity
  8
ZUWAKU
  6
Continuous
 62
    30
370
    25
100
AcDbLine
 10
-286.2960750331319
 20
-550.5655065082063
 30
0.0
 11
-287.0269624834365
 21
-551.2963939585109
 31
0.0
  0
LINE
  5
26B
330
1F
100
AcDbEntity
  8
ZUWAKU
  6
Continuous
 62
    30
370
    25
100
AcDbLine
 10
-271.4274458830304
 20
-534.5655065082063
 30
0.0
 11
-276.3774540069533
 21
-539.5155146321291
 31
0.0
  0
LINE
  5
26C
330
1F
100
AcDbEntity
  8
ZUWAKU
  6
Continuous
 62
    30
370
    25
100
AcDbLine
 10
-272.558816732929
 20
-534.5655065082063
 30
0.0
 11
-275.705702564826
 21
-537.7123923401034
 31
0.0
  0
LINE
  5
26D
330
1F
100
AcDbEntity
  8
ZUWAKU
  6
Continuous
 62
    30
370
    25
100
AcDbLine
 10
-273.6901875828274
 20
-534.5655065082063
 30
0.0
 11
-275.0339511226988
 21
-535.9092700480777
 31
0.0
  0
LINE
  5
26E
330
1F
100
AcDbEntity
  8
ZUWAKU
  6
Continuous
 62
    30
370
    25
100
AcDbLine
 10
-268.2353183845648
 20
-535.8988624093345
 30
0.0
 11
-279.064459775462
 21
-546.7280038002317
 31
0.0
  0
LINE
  5
26F
330
1F
100
AcDbEntity
  8
ZUWAKU
  6
Continuous
 62
    30
370
    25
100
AcDbLine
 10
-282.6689095048798
 20
-550.3324535296495
 30
0.0
 11
-286.6519624834367
 21
-554.3155065082063
 31
0.0
  0
LINE
  5
270
330
1F
100
AcDbEntity
  8
ZUWAKU
  6
Continuous
 62
    30
370
    25
100
AcDbLine
 10
-268.8155085640001
 20
-537.6104234386684
 30
0.0
 11
-280.507849933741
 21
-549.3027648084093
 31
0.0
  0
LINE
  5
271
330
1F
100
AcDbEntity
  8
ZUWAKU
  6
Continuous
 62
    30
370
    25
100
AcDbLine
 10
-280.5545694996633
 20
-549.3494843743316
 30
0.0
 11
-285.520591633538
 21
-554.3155065082063
 31
0.0
  0
LINE
  5
272
330
1F
100
AcDbEntity
  8
ZUWAKU
  6
Continuous
 62
    30
370
    25
100
AcDbLine
 10
-269.3956987434352
 20
-539.321984468002
 30
0.0
 11
-284.3892207836394
 21
-554.3155065082063
 31
0.0
  0
LINE
  5
273
330
1F
100
AcDbEntity
  8
ZUWAKU
  6
Continuous
 62
    30
370
    25
100
AcDbLine
 10
-269.9758889228704
 20
-541.0335454973357
 30
0.0
 11
-283.257849933741
 21
-554.3155065082063
 31
0.0
  0
LINE
  5
274
330
1F
100
AcDbEntity
  8
ZUWAKU
  6
Continuous
 62
    30
370
    25
100
AcDbLine
 10
-270.5560791023055
 20
-542.7451065266695
 30
0.0
 11
-282.1264790838424
 21
-554.3155065082063
 31
0.0
  0
LINE
  5
275
330
1F
100
AcDbEntity
  8
ZUWAKU
  6
Continuous
 62
    30
370
    25
100
AcDbLine
 10
-271.1362692817406
 20
-544.4566675560029
 30
0.0
 11
-280.9075276673449
 21
-554.2279259416073
 31
0.0
  0
LINE
  5
276
330
1F
100
AcDbEntity
  8
ZUWAKU
  6
Continuous
 62
    30
370
    25
100
AcDbLine
 10
-271.7164594611757
 20
-546.1682285853366
 30
0.0
 11
-279.6504489452354
 21
-554.1022180693964
 31
0.0
  0
LINE
  5
277
330
1F
100
AcDbEntity
  8
ZUWAKU
  6
Continuous
 62
    30
370
    25
100
AcDbLine
 10
-272.2966496406109
 20
-547.8797896146704
 30
0.0
 11
-277.9483886680214
 21
-553.5315286420808
 31
0.0
  0
LINE
  5
278
330
1F
100
AcDbEntity
  8
ZUWAKU
  6
Continuous
 62
    30
370
    25
100
AcDbLine
 10
-280.058333333335
 20
-535.9655065082064
 30
0.0
 11
-289.3034946236575
 21
-545.2106677985289
 31
0.0
  0
LINE
  5
279
330
1F
100
AcDbEntity
  8
ZUWAKU
  6
Continuous
 62
    30
370
    25
100
AcDbLine
 10
-279.7897041832334
 20
-534.5655065082063
 30
0.0
 11
-288.6830654479067
 21
-543.4588677728796
 31
0.0
  0
LINE
  5
27A
330
1F
100
AcDbEntity
  8
ZUWAKU
  6
Continuous
 62
    30
370
    25
100
AcDbLine
 10
-280.9210750331318
 20
-534.5655065082063
 30
0.0
 11
-288.062636272156
 21
-541.7070677472306
 31
0.0
  0
LINE
  5
27B
330
1F
100
AcDbEntity
  8
ZUWAKU
  6
Continuous
 62
    30
370
    25
100
AcDbLine
 10
-282.0524458830305
 20
-534.5655065082063
 30
0.0
 11
-287.4422070964051
 21
-539.955267721581
 31
0.0
  0
LINE
  5
27C
330
1F
100
AcDbEntity
  8
ZUWAKU
  6
Continuous
 62
    30
370
    25
100
AcDbLine
 10
-283.1838167329289
 20
-534.5655065082063
 30
0.0
 11
-286.8217779206544
 21
-538.2034676959317
 31
0.0
  0
LINE
  5
27D
330
1F
100
AcDbEntity
  8
ZUWAKU
  6
Continuous
 62
    30
370
    25
100
AcDbLine
 10
-284.3151875828275
 20
-534.5655065082063
 30
0.0
 11
-286.2013487449036
 21
-536.4516676702824
 31
0.0
  0
LINE
  5
27E
330
1F
100
AcDbEntity
  8
ZUWAKU
  6
Continuous
 62
    30
370
    25
100
AcDbLine
 10
-285.4465584327259
 20
-534.5655065082063
 30
0.0
 11
-285.5809195691529
 21
-534.6998676446334
 31
0.0
  0
LINE
  5
27F
330
1F
100
AcDbEntity
  8
ZUWAKU
  6
Continuous
 62
    30
370
    25
100
AcDbLine
 10
-280.737155843274
 20
-537.7756998680437
 30
0.0
 11
-289.5269624834366
 21
-546.5655065082063
 31
0.0
  0
LINE
  5
280
330
1F
100
AcDbEntity
  8
ZUWAKU
  6
Continuous
 62
    30
370
    25
100
AcDbLine
 10
-281.4159783532131
 20
-539.5858932278813
 30
0.0
 11
-288.3955916335381
 21
-546.5655065082063
 31
0.0
  0
LINE
  5
281
330
1F
100
AcDbEntity
  8
ZUWAKU
  6
Continuous
 62
    30
370
    25
100
AcDbLine
 10
-282.0948008631522
 20
-541.3960865877191
 30
0.0
 11
-287.2642207836395
 21
-546.5655065082063
 31
0.0
  0
LINE
  5
282
330
1F
100
AcDbEntity
  8
ZUWAKU
  6
Continuous
 62
    30
370
    25
100
AcDbLine
 10
-282.7736233730914
 20
-543.2062799475568
 30
0.0
 11
-286.1328499337409
 21
-546.5655065082063
 31
0.0
  0
LINE
  5
283
330
1F
100
AcDbEntity
  8
ZUWAKU
  6
Continuous
 62
    30
370
    25
100
AcDbLine
 10
-283.4524458830304
 20
-545.0164733073943
 30
0.0
 11
-285.0014790838425
 21
-546.5655065082063
 31
0.0
  0
LINE
  5
284
330
1F
100
AcDbEntity
  8
ZUWAKU
  6
Continuous
 62
    30
370
    25
100
AcDbLine
 10
-323.0833333333317
 20
556.6844934917935
 30
0.0
 11
-326.4735072463752
 21
562.6824934917936
 31
0.0
  0
LINE
  5
285
330
1F
100
AcDbEntity
  8
ZUWAKU
  6
Continuous
 62
    30
370
    25
100
AcDbLine
 10
-339.985556633467
 20
567.9344934917937
 30
0.0
 11
-339.5688899668003
 21
569.1844934917935
 31
0.0
  0
LINE
  5
286
330
1F
100
AcDbEntity
  8
ZUWAKU
  6
Continuous
 62
    30
370
    25
100
AcDbLine
 10
-308.1245240935141
 20
558.1638981117023
 30
0.0
 11
-308.5793333333319
 21
557.9364934917936
 31
0.0
  0
LINE
  5
287
330
1F
100
AcDbEntity
  8
ZUWAKU
  6
Continuous
 62
    30
370
    25
100
AcDbLine
 10
-307.8333333333317
 20
556.6844934917935
 30
0.0
 11
-305.7333333333317
 21
558.7844934917939
 31
0.0
  0
LINE
  5
288
330
1F
100
AcDbEntity
  8
ZUWAKU
  6
Continuous
 62
    30
370
    25
100
AcDbLine
 10
-306.0833333333317
 20
556.6844934917935
 30
0.0
 11
-305.7333333333317
 21
558.7844934917939
 31
0.0
  0
LINE
  5
289
330
1F
100
AcDbEntity
  8
ZUWAKU
  6
Continuous
 62
    30
370
    25
100
AcDbLine
 10
-296.8333333333317
 20
558.4344934917935
 30
0.0
 11
-296.8333333333317
 21
557.9364934917935
 31
0.0
  0
LINE
  5
28A
330
1F
100
AcDbEntity
  8
ZUWAKU
  6
Continuous
 62
    30
370
    25
100
AcDbLine
 10
-285.7732511481908
 20
556.6844934917935
 30
0.0
 11
-290.3333333333317
 21
556.6844934917935
 31
0.0
  0
LINE
  5
28B
330
1F
100
AcDbEntity
  8
ZUWAKU
  6
Continuous
 62
    30
370
    25
100
AcDbLine
 10
-292.7972034267191
 20
558.4661071600796
 30
0.0
 11
-294.8333333333317
 21
556.6844934917935
 31
0.0
  0
LINE
  5
28C
330
1F
100
AcDbEntity
  8
ZUWAKU
  6
Continuous
 62
    30
370
    25
100
AcDbLine
 10
-278.3503413224158
 20
556.6844934917935
 30
0.0
 11
-283.5833333333318
 21
556.6844934917935
 31
0.0
  0
LINE
  5
28D
330
1F
100
AcDbEntity
  8
ZUWAKU
  6
Continuous
 62
    30
370
    25
100
AcDbLine
 10
-330.4888333333317
 20
557.9364934917935
 30
0.0
 11
-326.7395833333318
 21
567.9344934917937
 31
0.0
  0
LINE
  5
28E
330
1F
100
AcDbEntity
  8
ZUWAKU
  6
Continuous
 62
    30
370
    25
100
AcDbLine
 10
-326.9024467471896
 20
563.9344934917937
 30
0.0
 11
-321.0506219477698
 21
563.9344934917935
 31
0.0
  0
LINE
  5
28F
330
1F
100
AcDbEntity
  8
ZUWAKU
  6
Continuous
 62
    30
370
    25
100
AcDbLine
 10
-289.2424242424225
 20
559.6844934917937
 30
0.0
 11
-290.0833333333317
 21
559.6844934917935
 31
0.0
  0
LINE
  5
290
330
1F
100
AcDbEntity
  8
ZUWAKU
  6
Continuous
 62
    30
370
    25
100
AcDbLine
 10
-290.0833333333317
 20
559.6844934917935
 30
0.0
 11
-290.9097897692454
 21
559.6844934917935
 31
0.0
  0
LINE
  5
291
330
1F
100
AcDbEntity
  8
ZUWAKU
  6
Continuous
 62
    30
370
    25
100
AcDbLine
 10
-298.2223125421793
 20
556.6844934917935
 30
0.0
 11
-294.8333333333317
 21
556.6844934917935
 31
0.0
  0
CIRCLE
  5
292
330
1F
100
AcDbEntity
  8
ZUWAKU
  6
Continuous
 62
    30
370
    25
100
AcDbCircle
 10
-303.7156342924292
 20
563.6844934917935
 30
0.0
 40
0.7573009590974711
  0
LINE
  5
293
330
1F
100
AcDbEntity
  8
ZUWAKU
  6
Continuous
 62
    30
370
    25
100
AcDbLine
 10
-329.552083333335
 20
567.9344934917938
 30
0.0
 11
-326.7395833333318
 21
567.9344934917937
 31
0.0
  0
LINE
  5
294
330
1F
100
AcDbEntity
  8
ZUWAKU
  6
Continuous
 62
    30
370
    25
100
AcDbLine
 10
-325.4024467471896
 20
567.9344934917937
 30
0.0
 11
-321.0506219477698
 21
567.9344934917937
 31
0.0
  0
LINE
  5
295
330
1F
100
AcDbEntity
  8
ZUWAKU
  6
Continuous
 62
    30
370
    25
100
AcDbLine
 10
-333.8333333333317
 20
556.6844934917935
 30
0.0
 11
-333.3638333333317
 21
557.9364934917935
 31
0.0
  0
LINE
  5
296
330
1F
100
AcDbEntity
  8
ZUWAKU
  6
Continuous
 62
    30
370
    25
100
AcDbLine
 10
-329.552083333335
 20
567.9344934917938
 30
0.0
 11
-329.0833333333351
 21
569.1844934917935
 31
0.0
  0
LINE
  5
297
330
1F
100
AcDbEntity
  8
ZUWAKU
  6
Continuous
 62
    30
370
    25
100
AcDbLine
 10
-330.1776872145486
 20
567.9344934917938
 30
0.0
 11
-329.7089372145487
 21
569.1844934917935
 31
0.0
  0
LINE
  5
298
330
1F
100
AcDbEntity
  8
ZUWAKU
  6
Continuous
 62
    30
370
    25
100
AcDbLine
 10
-321.0506219477698
 20
569.1844934917937
 30
0.0
 11
-329.0833333333351
 21
569.1844934917935
 31
0.0
  0
LINE
  5
299
330
1F
100
AcDbEntity
  8
ZUWAKU
  6
Continuous
 62
    30
370
    25
100
AcDbLine
 10
-329.7089372145487
 20
569.1844934917935
 30
0.0
 11
-330.8965747371135
 21
569.1844934917935
 31
0.0
  0
LINE
  5
29A
330
1F
100
AcDbEntity
  8
ZUWAKU
  6
Continuous
 62
    30
370
    25
100
AcDbLine
 10
-331.3653247371134
 20
567.9344934917937
 30
0.0
 11
-330.1776872145486
 21
567.9344934917938
 31
0.0
  0
LINE
  5
29B
330
1F
100
AcDbEntity
  8
ZUWAKU
  6
Continuous
 62
    30
370
    25
100
AcDbLine
 10
-331.8207345119513
 20
567.9344934917937
 30
0.0
 11
-331.3519845119515
 21
569.1844934917935
 31
0.0
  0
LINE
  5
29C
330
1F
100
AcDbEntity
  8
ZUWAKU
  6
Continuous
 62
    30
370
    25
100
AcDbLine
 10
-331.3519845119515
 20
569.1844934917935
 30
0.0
 11
-332.3475027348891
 21
569.1844934917935
 31
0.0
  0
LINE
  5
29D
330
1F
100
AcDbEntity
  8
ZUWAKU
  6
Continuous
 62
    30
370
    25
100
AcDbLine
 10
-332.8162527348891
 20
567.9344934917937
 30
0.0
 11
-331.8207345119514
 21
567.9344934917937
 31
0.0
  0
LINE
  5
29E
330
1F
100
AcDbEntity
  8
ZUWAKU
  6
Continuous
 62
    30
370
    25
100
AcDbLine
 10
-332.816252734889
 20
567.9344934917938
 30
0.0
 11
-332.3475027348891
 21
569.1844934917937
 31
0.0
  0
LINE
  5
29F
330
1F
100
AcDbEntity
  8
ZUWAKU
  6
Continuous
 62
    30
370
    25
100
AcDbLine
 10
-333.1974500556746
 20
569.1844934917935
 30
0.0
 11
-334.1729825303548
 21
569.1844934917935
 31
0.0
  0
LINE
  5
2A0
330
1F
100
AcDbEntity
  8
ZUWAKU
  6
Continuous
 62
    30
370
    25
100
AcDbLine
 10
-334.6417325303547
 20
567.9344934917937
 30
0.0
 11
-333.6662000556745
 21
567.9344934917937
 31
0.0
  0
LINE
  5
2A1
330
1F
100
AcDbEntity
  8
ZUWAKU
  6
Continuous
 62
    30
370
    25
100
AcDbLine
 10
-334.6417325303546
 20
567.9344934917937
 30
0.0
 11
-334.1729825303548
 21
569.1844934917934
 31
0.0
  0
LINE
  5
2A2
330
1F
100
AcDbEntity
  8
ZUWAKU
  6
Continuous
 62
    30
370
    25
100
AcDbLine
 10
-331.3653247371134
 20
567.9344934917937
 30
0.0
 11
-330.8965747371135
 21
569.1844934917935
 31
0.0
  0
LINE
  5
2A3
330
1F
100
AcDbEntity
  8
ZUWAKU
  6
Continuous
 62
    30
370
    25
100
AcDbLine
 10
-333.6662000556745
 20
567.9344934917937
 30
0.0
 11
-333.1974500556746
 21
569.1844934917935
 31
0.0
  0
LINE
  5
2A4
330
1F
100
AcDbEntity
  8
ZUWAKU
  6
Continuous
 62
    30
370
    25
100
AcDbLine
 10
-335.3723913958161
 20
567.9344934917937
 30
0.0
 11
-334.9036413958161
 21
569.1844934917935
 31
0.0
  0
LINE
  5
2A5
330
1F
100
AcDbEntity
  8
ZUWAKU
  6
Continuous
 62
    30
370
    25
100
AcDbLine
 10
-334.9036413958161
 20
569.1844934917935
 30
0.0
 11
-335.8056159262954
 21
569.1844934917935
 31
0.0
  0
LINE
  5
2A6
330
1F
100
AcDbEntity
  8
ZUWAKU
  6
Continuous
 62
    30
370
    25
100
AcDbLine
 10
-336.2743659262953
 20
567.9344934917937
 30
0.0
 11
-335.3723913958161
 21
567.9344934917937
 31
0.0
  0
LINE
  5
2A7
330
1F
100
AcDbEntity
  8
ZUWAKU
  6
Continuous
 62
    30
370
    25
100
AcDbLine
 10
-336.2743659262953
 20
567.9344934917937
 30
0.0
 11
-335.8056159262954
 21
569.1844934917934
 31
0.0
  0
LINE
  5
2A8
330
1F
100
AcDbEntity
  8
ZUWAKU
  6
Continuous
 62
    30
370
    25
100
AcDbLine
 10
-337.0379034732505
 20
567.9344934917937
 30
0.0
 11
-336.5691534732505
 21
569.1844934917937
 31
0.0
  0
LINE
  5
2A9
330
1F
100
AcDbEntity
  8
ZUWAKU
  6
Continuous
 62
    30
370
    25
100
AcDbLine
 10
-336.5691534732505
 20
569.1844934917935
 30
0.0
 11
-337.3712368065838
 21
569.1844934917935
 31
0.0
  0
LINE
  5
2AA
330
1F
100
AcDbEntity
  8
ZUWAKU
  6
Continuous
 62
    30
370
    25
100
AcDbLine
 10
-337.7879034732504
 20
567.9344934917937
 30
0.0
 11
-337.0379034732505
 21
567.9344934917937
 31
0.0
  0
LINE
  5
2AB
330
1F
100
AcDbEntity
  8
ZUWAKU
  6
Continuous
 62
    30
370
    25
100
AcDbLine
 10
-337.7879034732505
 20
567.9344934917937
 30
0.0
 11
-337.3712368065838
 21
569.1844934917935
 31
0.0
  0
LINE
  5
2AC
330
1F
100
AcDbEntity
  8
ZUWAKU
  6
Continuous
 62
    30
370
    25
100
AcDbLine
 10
-338.5865935432667
 20
567.9344934917937
 30
0.0
 11
-338.1699268766
 21
569.1844934917935
 31
0.0
  0
LINE
  5
2AD
330
1F
100
AcDbEntity
  8
ZUWAKU
  6
Continuous
 62
    30
370
    25
100
AcDbLine
 10
-339.2355566334671
 20
567.9344934917937
 30
0.0
 11
-338.8188899668004
 21
569.1844934917935
 31
0.0
  0
LINE
  5
2AE
330
1F
100
AcDbEntity
  8
ZUWAKU
  6
Continuous
 62
    30
370
    25
100
AcDbLine
 10
-340.4438899668004
 20
567.9344934917937
 30
0.0
 11
-340.0272233001337
 21
569.1844934917935
 31
0.0
  0
LINE
  5
2AF
330
1F
100
AcDbEntity
  8
ZUWAKU
  6
Continuous
 62
    30
370
    25
100
AcDbLine
 10
-341.235556633467
 20
567.9344934917938
 30
0.0
 11
-340.8188899668004
 21
569.1844934917935
 31
0.0
  0
LINE
  5
2B0
330
1F
100
AcDbEntity
  8
ZUWAKU
  6
Continuous
 62
    30
370
    25
100
AcDbLine
 10
-341.4438899668003
 20
567.9344934917937
 30
0.0
 11
-341.0272233001335
 21
569.1844934917935
 31
0.0
  0
LINE
  5
2B1
330
1F
100
AcDbEntity
  8
ZUWAKU
  6
Continuous
 62
    30
370
    25
100
AcDbLine
 10
-338.1699268766
 20
569.1844934917935
 30
0.0
 11
-338.8188899668003
 21
569.1844934917935
 31
0.0
  0
LINE
  5
2B2
330
1F
100
AcDbEntity
  8
ZUWAKU
  6
Continuous
 62
    30
370
    25
100
AcDbLine
 10
-339.2355566334671
 20
567.9344934917937
 30
0.0
 11
-338.5865935432667
 21
567.9344934917937
 31
0.0
  0
LINE
  5
2B3
330
1F
100
AcDbEntity
  8
ZUWAKU
  6
Continuous
 62
    30
370
    25
100
AcDbLine
 10
-339.5688899668003
 20
569.1844934917935
 30
0.0
 11
-340.0272233001337
 21
569.1844934917935
 31
0.0
  0
LINE
  5
2B4
330
1F
100
AcDbEntity
  8
ZUWAKU
  6
Continuous
 62
    30
370
    25
100
AcDbLine
 10
-340.8188899668004
 20
569.1844934917935
 30
0.0
 11
-341.0272233001335
 21
569.1844934917935
 31
0.0
  0
LINE
  5
2B5
330
1F
100
AcDbEntity
  8
ZUWAKU
  6
Continuous
 62
    30
370
    25
100
AcDbLine
 10
-340.4438899668004
 20
567.9344934917937
 30
0.0
 11
-339.985556633467
 21
567.9344934917937
 31
0.0
  0
LINE
  5
2B6
330
1F
100
AcDbEntity
  8
ZUWAKU
  6
Continuous
 62
    30
370
    25
100
AcDbLine
 10
-341.235556633467
 20
567.9344934917937
 30
0.0
 11
-341.4438899668003
 21
567.9344934917937
 31
0.0
  0
ARC
  5
2B7
330
1F
100
AcDbEntity
  8
ZUWAKU
  6
Continuous
 62
    30
370
    25
100
AcDbCircle
 10
-321.0506219477698
 20
565.9344934917937
 30
0.0
 40
2.0
100
AcDbArc
 50
269.9999999999998
 51
89.9999999999998
  0
LINE
  5
2B8
330
1F
100
AcDbEntity
  8
ZUWAKU
  6
Continuous
 62
    30
370
    25
100
AcDbLine
 10
-333.3638333333317
 20
557.9364934917935
 30
0.0
 11
-330.4888333333317
 21
557.9364934917935
 31
0.0
  0
LINE
  5
2B9
330
1F
100
AcDbEntity
  8
ZUWAKU
  6
Continuous
 62
    30
370
    25
100
AcDbLine
 10
-333.8333333333317
 20
556.6844934917935
 30
0.0
 11
-329.6211967471896
 21
556.6844934917934
 31
0.0
  0
LINE
  5
2BA
330
1F
100
AcDbEntity
  8
ZUWAKU
  6
Continuous
 62
    30
370
    25
100
AcDbLine
 10
-329.6211967471896
 20
556.6844934917934
 30
0.0
 11
-327.3719467471894
 21
562.6824934917937
 31
0.0
  0
LINE
  5
2BB
330
1F
100
AcDbEntity
  8
ZUWAKU
  6
Continuous
 62
    30
370
    25
100
AcDbLine
 10
-326.9024467471896
 20
563.9344934917937
 30
0.0
 11
-325.4024467471896
 21
567.9344934917937
 31
0.0
  0
LINE
  5
2BC
330
1F
100
AcDbEntity
  8
ZUWAKU
  6
Continuous
 62
    30
370
    25
100
AcDbLine
 10
-327.3719467471894
 20
562.6824934917937
 30
0.0
 11
-326.4735072463752
 21
562.6824934917936
 31
0.0
  0
LINE
  5
2BD
330
1F
100
AcDbEntity
  8
ZUWAKU
  6
Continuous
 62
    30
370
    25
100
AcDbLine
 10
-325.035357184927
 20
562.6824934917938
 30
0.0
 11
-321.0506219477698
 21
562.6824934917936
 31
0.0
  0
LINE
  5
2BE
330
1F
100
AcDbEntity
  8
ZUWAKU
  6
Continuous
 62
    30
370
    25
100
AcDbLine
 10
-322.3528354457964
 20
557.9364934917936
 30
0.0
 11
-325.035357184927
 21
562.6824934917938
 31
0.0
  0
ARC
  5
2BF
330
1F
100
AcDbEntity
  8
ZUWAKU
  6
Continuous
 62
    30
370
    25
100
AcDbCircle
 10
-321.0506219477698
 20
565.9344934917937
 30
0.0
 40
3.25
100
AcDbArc
 50
269.9999999999998
 51
89.9999999999998
  0
ELLIPSE
  5
2C0
330
1F
100
AcDbEntity
  8
ZUWAKU
  6
Continuous
 62
    30
370
    25
100
AcDbEllipse
 10
-316.909795592342
 20
559.5027331365317
 30
0.0
 11
-0.3292746530997306
 21
-0.6036701973492882
 31
0.0
210
0.0
220
0.0
230
1.0
 40
0.7520987448585006
 41
0.0
 42
6.283185307179586
  0
LINE
  5
2C1
330
1F
100
AcDbEntity
  8
ZUWAKU
  6
Continuous
 62
    30
370
    25
100
AcDbLine
 10
-323.0833333333317
 20
556.6844934917935
 30
0.0
 11
-318.5833333333317
 21
556.6844934917935
 31
0.0
  0
ELLIPSE
  5
2C2
330
1F
100
AcDbEntity
  8
ZUWAKU
  6
Continuous
 62
    30
370
    25
100
AcDbEllipse
 10
-316.909795592342
 20
559.5027331365316
 30
0.0
 11
-1.05199569680417
 21
-1.928658777473629
 31
0.0
210
0.0
220
0.0
230
1.0
 40
0.7520987448585006
 41
1.163380251178049
 42
5.860160707699562
  0
LINE
  5
2C3
330
1F
100
AcDbEntity
  8
ZUWAKU
  6
Continuous
 62
    30
370
    25
100
AcDbLine
 10
-322.3528354457964
 20
557.9364934917936
 30
0.0
 11
-318.6584294731434
 21
557.9364934917924
 31
0.0
  0
ARC
  5
2C4
330
1F
100
AcDbEntity
  8
ZUWAKU
  6
Continuous
 62
    30
370
    25
100
AcDbCircle
 10
-319.0308509554524
 20
560.7443636144396
 30
0.0
 40
2.832460482715304
100
AcDbArc
 50
277.5553196692586
 51
282.6100467718114
  0
ARC
  5
2C5
330
1F
100
AcDbEntity
  8
ZUWAKU
  6
Continuous
 62
    30
370
    25
100
AcDbCircle
 10
-319.0308509554524
 20
560.7443636144396
 30
0.0
 40
4.084460482715304
100
AcDbArc
 50
276.2902926899437
 51
293.7981568412248
  0
ARC
  5
2C6
330
1F
100
AcDbEntity
  8
ZUWAKU
  6
Continuous
 62
    30
370
    25
100
AcDbCircle
 10
-319.0308509554524
 20
560.7443636144396
 30
0.0
 40
4.084460482715304
100
AcDbArc
 50
316.5712583378103
 51
318.0142678784151
  0
ARC
  5
2C7
330
1F
100
AcDbEntity
  8
ZUWAKU
  6
Continuous
 62
    30
370
    25
100
AcDbCircle
 10
-316.0971921228496
 20
559.3991094462383
 30
0.0
 40
2.715475358338919
100
AcDbArc
 50
209.331822700848
 51
211.5012652768046
  0
ARC
  5
2C8
330
1F
100
AcDbEntity
  8
ZUWAKU
  6
Continuous
 62
    30
370
    25
100
AcDbCircle
 10
-316.0971921228496
 20
559.3991094462383
 30
0.0
 40
2.715475358338919
100
AcDbArc
 50
241.7445782933702
 51
269.9999999999998
  0
ELLIPSE
  5
2C9
330
1F
100
AcDbEntity
  8
ZUWAKU
  6
Continuous
 62
    30
370
    25
100
AcDbEllipse
 10
-310.5164757086022
 20
561.1838717661444
 30
0.0
 11
-0.5481721846488767
 21
-1.130605130838489
 31
0.0
210
0.0
220
0.0
230
1.0
 40
0.4421915578426128
 41
0.0
 42
6.283185307179586
  0
ARC
  5
2CA
330
1F
100
AcDbEntity
  8
ZUWAKU
  6
Continuous
 62
    30
370
    25
100
AcDbCircle
 10
-309.3635561551535
 20
561.5147004157848
 30
0.0
 40
4.8564273479193
100
AcDbArc
 50
241.2831156408174
 51
264.0434522032776
  0
LINE
  5
2CB
330
1F
100
AcDbEntity
  8
ZUWAKU
  6
Continuous
 62
    30
370
    25
100
AcDbLine
 10
-316.0971921228496
 20
556.6844934917935
 30
0.0
 11
-313.2798043918323
 21
556.6844934917879
 31
0.0
  0
ARC
  5
2CC
330
1F
100
AcDbEntity
  8
ZUWAKU
  6
Continuous
 62
    30
370
    25
100
AcDbCircle
 10
-309.3635561551536
 20
561.5147004157849
 30
0.0
 40
3.6044273479193
100
AcDbArc
 50
251.0870810655404
 51
263.084828240724
  0
ARC
  5
2CD
330
1F
100
AcDbEntity
  8
ZUWAKU
  6
Continuous
 62
    30
370
    25
100
AcDbCircle
 10
-314.3425283019445
 20
562.108859390623
 30
0.0
 40
4.275488354901259
100
AcDbArc
 50
282.6095093602462
 51
291.9312697388031
  0
ELLIPSE
  5
2CE
330
1F
100
AcDbEntity
  8
ZUWAKU
  6
Continuous
 62
    30
370
    25
100
AcDbEllipse
 10
-310.5164757086022
 20
561.1838717661443
 30
0.0
 11
-1.751348832744042
 21
-3.612156967535269
 31
0.0
210
0.0
220
0.0
230
1.0
 40
0.4421915578426128
 41
1.162166382047794
 42
5.890609621426303
  0
LINE
  5
2CF
330
1F
100
AcDbEntity
  8
ZUWAKU
  6
Continuous
 62
    30
370
    25
100
AcDbLine
 10
-316.0645935813848
 20
557.9364934917935
 30
0.0
 11
-313.4091669147097
 21
557.9364934917935
 31
0.0
  0
ARC
  5
2D0
330
1F
100
AcDbEntity
  8
ZUWAKU
  6
Continuous
 62
    30
370
    25
100
AcDbCircle
 10
-314.3425283019445
 20
562.108859390623
 30
0.0
 40
5.527488354901259
100
AcDbArc
 50
313.5828614086837
 51
326.2493926541696
  0
ARC
  5
2D1
330
1F
100
AcDbEntity
  8
ZUWAKU
  6
Continuous
 62
    30
370
    25
100
AcDbCircle
 10
-314.3425283019445
 20
562.108859390623
 30
0.0
 40
5.527488354901259
100
AcDbArc
 50
281.0847997353326
 51
298.5950739026302
  0
LINE
  5
2D2
330
1F
100
AcDbEntity
  8
ZUWAKU
  6
Continuous
 62
    30
370
    25
100
AcDbLine
 10
-309.8675280363649
 20
556.6844934917935
 30
0.0
 11
-307.8333333333317
 21
556.6844934917935
 31
0.0
  0
LINE
  5
2D3
330
1F
100
AcDbEntity
  8
ZUWAKU
  6
Continuous
 62
    30
370
    25
100
AcDbLine
 10
-308.1245240935141
 20
558.1638981117023
 30
0.0
 11
-304.7226034405134
 21
561.5658187647075
 31
0.0
  0
LINE
  5
2D4
330
1F
100
AcDbEntity
  8
ZUWAKU
  6
Continuous
 62
    30
370
    25
100
AcDbLine
 10
-304.6053968853429
 20
557.9364934917935
 30
0.0
 11
-304.0553392244898
 21
561.2368394569127
 31
0.0
  0
LINE
  5
2D5
330
1F
100
AcDbEntity
  8
ZUWAKU
  6
Continuous
 62
    30
370
    25
100
AcDbLine
 10
-309.797528176751
 20
557.9364934917935
 30
0.0
 11
-308.5793333333319
 21
557.9364934917935
 31
0.0
  0
ARC
  5
2D6
330
1F
100
AcDbEntity
  8
ZUWAKU
  6
Continuous
 62
    30
370
    25
100
AcDbCircle
 10
-304.4385263154857
 20
561.3007039720786
 30
0.0
 40
0.3885687406812936
100
AcDbArc
 50
350.537677791977
 51
136.9775057566909
  0
ELLIPSE
  5
2D7
330
1F
100
AcDbEntity
  8
ZUWAKU
  6
Continuous
 62
    30
370
    25
100
AcDbEllipse
 10
-299.1339326417828
 20
559.0364188092987
 30
0.0
 11
-0.3647265199069239
 21
-0.6142762440537127
 31
0.0
210
0.0
220
0.0
230
1.0
 40
0.588198211994843
 41
0.0
 42
6.283185307179586
  0
LINE
  5
2D8
330
1F
100
AcDbEntity
  8
ZUWAKU
  6
Continuous
 62
    30
370
    25
100
AcDbLine
 10
-303.2851970174742
 20
557.9364934917935
 30
0.0
 11
-301.2014373125485
 21
558.9373544524271
 31
0.0
  0
LINE
  5
2D9
330
1F
100
AcDbEntity
  8
ZUWAKU
  6
Continuous
 62
    30
370
    25
100
AcDbLine
 10
-303.0833333333317
 20
556.6844934917935
 30
0.0
 11
-301.3387356749305
 21
557.4575464239763
 31
0.0
  0
LINE
  5
2DA
330
1F
100
AcDbEntity
  8
ZUWAKU
  6
Continuous
 62
    30
370
    25
100
AcDbLine
 10
-304.6053968853429
 20
557.9364934917935
 30
0.0
 11
-303.2851970174743
 21
557.9364934917935
 31
0.0
  0
LINE
  5
2DB
330
1F
100
AcDbEntity
  8
ZUWAKU
  6
Continuous
 62
    30
370
    25
100
AcDbLine
 10
-298.8058368435225
 20
557.2485669830919
 30
0.0
 11
-298.2223125421793
 21
556.6844934917935
 31
0.0
  0
LINE
  5
2DC
330
1F
100
AcDbEntity
  8
ZUWAKU
  6
Continuous
 62
    30
370
    25
100
AcDbLine
 10
-296.8333333333317
 20
557.9364934917935
 30
0.0
 11
-295.0744843637219
 21
557.9364934917935
 31
0.0
  0
LINE
  5
2DD
330
1F
100
AcDbEntity
  8
ZUWAKU
  6
Continuous
 62
    30
370
    25
100
AcDbLine
 10
-291.0767700780071
 20
561.4344934917935
 30
0.0
 11
-295.0744843637218
 21
557.9364934917935
 31
0.0
  0
ELLIPSE
  5
2DE
330
1F
100
AcDbEntity
  8
ZUWAKU
  6
Continuous
 62
    30
370
    25
100
AcDbEllipse
 10
-299.3948225169119
 20
558.888482665783
 30
0.0
 11
-1.588740837547846
 21
-1.968331158906722
 31
0.0
210
0.0
220
0.0
230
1.0
 40
0.6302087628984883
 41
2.771395296388139
 42
5.160819221064428
  0
ELLIPSE
  5
2DF
330
1F
100
AcDbEntity
  8
ZUWAKU
  6
Continuous
 62
    30
370
    25
100
AcDbEllipse
 10
-299.3948225169119
 20
558.888482665783
 30
0.0
 11
-1.588740837547846
 21
-1.968331158906722
 31
0.0
210
0.0
220
0.0
230
1.0
 40
0.6302087628984883
 41
5.887863080444726
 42
7.487602926078162
  0
LINE
  5
2E0
330
1F
100
AcDbEntity
  8
ZUWAKU
  6
Continuous
 62
    30
370
    25
100
AcDbLine
 10
-297.1624924989857
 20
561.1928768583001
 30
0.0
 11
-295.8302848364202
 21
561.1928768583001
 31
0.0
  0
LINE
  5
2E1
330
1F
100
AcDbEntity
  8
ZUWAKU
  6
Continuous
 62
    30
370
    25
100
AcDbLine
 10
-297.4649118503838
 20
560.3612236419558
 30
0.0
 11
-297.1624924989858
 21
561.1928768583
 31
0.0
  0
LINE
  5
2E2
330
1F
100
AcDbEntity
  8
ZUWAKU
  6
Continuous
 62
    30
370
    25
100
AcDbLine
 10
-296.8333333333317
 20
558.4344934917935
 30
0.0
 11
-295.8302848364202
 21
561.1928768583001
 31
0.0
  0
LINE
  5
2E3
330
1F
100
AcDbEntity
  8
ZUWAKU
  6
Continuous
 62
    30
370
    25
100
AcDbLine
 10
-293.4307411280138
 20
556.7238784815193
 30
0.0
 11
-292.7972034267191
 21
558.4661071600796
 31
0.0
  0
LINE
  5
2E4
330
1F
100
AcDbEntity
  8
ZUWAKU
  6
Continuous
 62
    30
370
    25
100
AcDbLine
 10
-290.9097897692454
 20
559.6844934917935
 30
0.0
 11
-292.0006988601546
 21
556.6844934917934
 31
0.0
  0
LINE
  5
2E5
330
1F
100
AcDbEntity
  8
ZUWAKU
  6
Continuous
 62
    30
370
    25
100
AcDbLine
 10
-290.3333333333317
 20
556.6844934917935
 30
0.0
 11
-289.2424242424225
 21
559.6844934917937
 31
0.0
  0
LINE
  5
2E6
330
1F
100
AcDbEntity
  8
ZUWAKU
  6
Continuous
 62
    30
370
    25
100
AcDbLine
 10
-287.4184945750022
 20
560.6378000771999
 30
0.0
 11
-288.4007878787864
 21
557.9364934917934
 31
0.0
  0
LINE
  5
2E7
330
1F
100
AcDbEntity
  8
ZUWAKU
  6
Continuous
 62
    30
370
    25
100
AcDbLine
 10
-287.8341607043554
 20
561.4344934917935
 30
0.0
 11
-287.4184945750022
 21
560.6378000771999
 31
0.0
  0
LINE
  5
2E8
330
1F
100
AcDbEntity
  8
ZUWAKU
  6
Continuous
 62
    30
370
    25
100
AcDbLine
 10
-290.57693859645
 20
560.6908882286752
 30
0.0
 11
-290.331001416082
 21
561.4344934917935
 31
0.0
  0
LINE
  5
2E9
330
1F
100
AcDbEntity
  8
ZUWAKU
  6
Continuous
 62
    30
370
    25
100
AcDbLine
 10
-290.57693859645
 20
560.6908882286752
 30
0.0
 11
-289.245144252222
 21
561.4344934917935
 31
0.0
  0
LINE
  5
2EA
330
1F
100
AcDbEntity
  8
ZUWAKU
  6
Continuous
 62
    30
370
    25
100
AcDbLine
 10
-287.8341607043554
 20
561.4344934917935
 30
0.0
 11
-289.2451442522218
 21
561.4344934917935
 31
0.0
  0
LINE
  5
2EB
330
1F
100
AcDbEntity
  8
ZUWAKU
  6
Continuous
 62
    30
370
    25
100
AcDbLine
 10
-290.331001416082
 20
561.4344934917935
 30
0.0
 11
-291.0767700780071
 21
561.4344934917935
 31
0.0
  0
ELLIPSE
  5
2EC
330
1F
100
AcDbEntity
  8
ZUWAKU
  6
Continuous
 62
    30
370
    25
100
AcDbEllipse
 10
-276.6768035814262
 20
559.5027331365317
 30
0.0
 11
-0.3292746530997306
 21
-0.6036701973492882
 31
0.0
210
0.0
220
0.0
230
1.0
 40
0.7520987448585006
 41
0.0
 42
6.283185307179586
  0
ELLIPSE
  5
2ED
330
1F
100
AcDbEntity
  8
ZUWAKU
  6
Continuous
 62
    30
370
    25
100
AcDbEllipse
 10
-276.6768035814262
 20
559.5027331365316
 30
0.0
 11
-1.05199569680417
 21
-1.928658777473629
 31
0.0
210
0.0
220
0.0
230
1.0
 40
0.7520987448585006
 41
1.163380251178049
 42
5.860160707699562
  0
ARC
  5
2EE
330
1F
100
AcDbEntity
  8
ZUWAKU
  6
Continuous
 62
    30
370
    25
100
AcDbCircle
 10
-278.7978589445365
 20
560.7443636144396
 30
0.0
 40
2.832460482715304
100
AcDbArc
 50
277.5553196692586
 51
282.6100467718114
  0
ARC
  5
2EF
330
1F
100
AcDbEntity
  8
ZUWAKU
  6
Continuous
 62
    30
370
    25
100
AcDbCircle
 10
-278.7978589445365
 20
560.7443636144396
 30
0.0
 40
4.084460482715304
100
AcDbArc
 50
276.2902926899437
 51
293.7981568412248
  0
ARC
  5
2F0
330
1F
100
AcDbEntity
  8
ZUWAKU
  6
Continuous
 62
    30
370
    25
100
AcDbCircle
 10
-278.7978589445365
 20
560.7443636144396
 30
0.0
 40
4.084460482715304
100
AcDbArc
 50
316.5712583378103
 51
318.0142678784151
  0
ARC
  5
2F1
330
1F
100
AcDbEntity
  8
ZUWAKU
  6
Continuous
 62
    30
370
    25
100
AcDbCircle
 10
-275.8642001119337
 20
559.3991094462383
 30
0.0
 40
2.715475358338919
100
AcDbArc
 50
209.331822700848
 51
211.5012652768046
  0
ARC
  5
2F2
330
1F
100
AcDbEntity
  8
ZUWAKU
  6
Continuous
 62
    30
370
    25
100
AcDbCircle
 10
-275.8642001119337
 20
559.3991094462383
 30
0.0
 40
2.715475358338919
100
AcDbArc
 50
241.7445782933702
 51
269.9999999999998
  0
LINE
  5
2F3
330
1F
100
AcDbEntity
  8
ZUWAKU
  6
Continuous
 62
    30
370
    25
100
AcDbLine
 10
-282.7741411128054
 20
557.9364934917936
 30
0.0
 11
-278.4254374622275
 21
557.9364934917924
 31
0.0
  0
LINE
  5
2F4
330
1F
100
AcDbEntity
  8
ZUWAKU
  6
Continuous
 62
    30
370
    25
100
AcDbLine
 10
-275.8642001119337
 20
556.6844934917935
 30
0.0
 11
-273.4567029967844
 21
556.6844934917885
 31
0.0
  0
LINE
  5
2F5
330
1F
100
AcDbEntity
  8
ZUWAKU
  6
Continuous
 62
    30
370
    25
100
AcDbLine
 10
-275.8316015704689
 20
557.9364934917935
 30
0.0
 11
-273.1761749037938
 21
557.9364934917935
 31
0.0
  0
LINE
  5
2F6
330
1F
100
AcDbEntity
  8
ZUWAKU
  6
Continuous
 62
    30
370
    25
100
AcDbLine
 10
-306.0833333333317
 20
556.6844934917935
 30
0.0
 11
-303.0833333333317
 21
556.6844934917935
 31
0.0
  0
LINE
  5
2F7
330
1F
100
AcDbEntity
  8
ZUWAKU
  6
Continuous
 62
    30
370
    25
100
AcDbLine
 10
-293.4307411280138
 20
556.7238784815193
 30
0.0
 11
-292.0006988601546
 21
556.6844934917934
 31
0.0
  0
LINE
  5
2F8
330
1F
100
AcDbEntity
  8
ZUWAKU
  6
Continuous
 62
    30
370
    25
100
AcDbLine
 10
-288.4007878787864
 20
557.9364934917934
 30
0.0
 11
-286.0889762137709
 21
557.9364934917934
 31
0.0
  0
LINE
  5
2F9
330
1F
100
AcDbEntity
  8
ZUWAKU
  6
Continuous
 62
    30
370
    25
100
AcDbLine
 10
-281.8226512620842
 20
559.7388723505513
 30
0.0
 11
-280.8887166487855
 21
560.4938028296344
 31
0.0
  0
ARC
  5
2FA
330
1F
100
AcDbEntity
  8
ZUWAKU
  6
Continuous
 62
    30
370
    25
100
AcDbCircle
 10
-282.7741411128054
 20
559.0964934917934
 30
0.0
 40
1.16
100
AcDbArc
 50
34.07537471792359
 51
269.9999999999998
  0
ARC
  5
2FB
330
1F
100
AcDbEntity
  8
ZUWAKU
  6
Continuous
 62
    30
370
    25
100
AcDbCircle
 10
-282.7741411128054
 20
559.0964934917934
 30
0.0
 40
2.346763472347094
100
AcDbArc
 50
36.54256145312625
 51
190.986120835346
  0
LINE
  5
2FC
330
1F
100
AcDbEntity
  8
ZUWAKU
  6
Continuous
 62
    30
370
    25
100
AcDbLine
 10
-285.7732511481908
 20
556.6844934917935
 30
0.0
 11
-284.5845491677218
 21
557.5591987227048
 31
0.0
  0
LINE
  5
2FD
330
1F
100
AcDbEntity
  8
ZUWAKU
  6
Continuous
 62
    30
370
    25
100
AcDbLine
 10
-285.0928034198127
 20
558.669526302442
 30
0.0
 11
-286.0889762137709
 21
557.9364934917934
 31
0.0
  0
LINE
  5
2FE
330
1F
100
AcDbEntity
  8
ZUWAKU
  6
Continuous
 62
    30
370
    25
100
AcDbLine
 10
-284.5845491677218
 20
557.5591987227048
 30
0.0
 11
-283.5833333333318
 21
556.6844934917935
 31
0.0
  0
LINE
  5
2FF
330
1F
100
AcDbEntity
  8
ZUWAKU
  6
Continuous
 62
    30
370
    25
100
AcDbLine
 10
-273.1761749037938
 20
557.9364934917935
 30
0.0
 11
-273.4567029967844
 21
556.6844934917885
 31
0.0
  0
LINE
  5
300
330
1F
100
AcDbEntity
  8
ZUWAKU
  6
Continuous
 62
    30
370
    25
100
AcDbLine
 10
-339.6626399668002
 20
568.903243491794
 30
0.0
 11
-340.3501399668004
 21
568.2157434917939
 31
0.0
  0
LINE
  5
301
330
1F
100
AcDbEntity
  8
ZUWAKU
  6
Continuous
 62
    30
370
    25
100
AcDbLine
 10
-338.2160194373831
 20
569.0462158094441
 30
0.0
 11
-339.1894640726839
 21
568.0727711741434
 31
0.0
  0
LINE
  5
302
330
1F
100
AcDbEntity
  8
ZUWAKU
  6
Continuous
 62
    30
370
    25
100
AcDbLine
 10
-336.5785284732505
 20
569.1594934917939
 30
0.0
 11
-337.7800909732506
 21
567.9579309917937
 31
0.0
  0
LINE
  5
303
330
1F
100
AcDbEntity
  8
ZUWAKU
  6
Continuous
 62
    30
370
    25
100
AcDbLine
 10
-334.9640036610559
 20
569.1844934917935
 30
0.0
 11
-336.2140036610558
 21
567.9344934917937
 31
0.0
  0
LINE
  5
304
330
1F
100
AcDbEntity
  8
ZUWAKU
  6
Continuous
 62
    30
370
    25
100
AcDbLine
 10
-333.2945912930146
 20
569.1844934917935
 30
0.0
 11
-334.5445912930145
 21
567.9344934917937
 31
0.0
  0
LINE
  5
305
330
1F
100
AcDbEntity
  8
ZUWAKU
  6
Continuous
 62
    30
370
    25
100
AcDbLine
 10
-331.4591186234204
 20
569.1844934917935
 30
0.0
 11
-332.7091186234202
 21
567.9344934917937
 31
0.0
  0
LINE
  5
306
330
1F
100
AcDbEntity
  8
ZUWAKU
  6
Continuous
 62
    30
370
    25
100
AcDbLine
 10
-329.9121309758314
 20
569.1844934917935
 30
0.0
 11
-331.1621309758312
 21
567.9344934917937
 31
0.0
  0
LINE
  5
307
330
1F
100
AcDbEntity
  8
ZUWAKU
  6
Continuous
 62
    30
370
    25
100
AcDbLine
 10
-329.4796575873189
 20
557.0619312514489
 30
0.0
 11
-329.8570953469743
 21
556.6844934917934
 31
0.0
  0
LINE
  5
308
330
1F
100
AcDbEntity
  8
ZUWAKU
  6
Continuous
 62
    30
370
    25
100
AcDbLine
 10
-328.8008350773798
 20
558.8721246112865
 30
0.0
 11
-330.9884661968728
 21
556.6844934917935
 31
0.0
  0
LINE
  5
309
330
1F
100
AcDbEntity
  8
ZUWAKU
  6
Continuous
 62
    30
370
    25
100
AcDbLine
 10
-328.1220125674406
 20
560.6823179711242
 30
0.0
 11
-330.2614311052681
 21
558.5428994332967
 31
0.0
  0
LINE
  5
30A
330
1F
100
AcDbEntity
  8
ZUWAKU
  6
Continuous
 62
    30
370
    25
100
AcDbLine
 10
-330.8678370467711
 20
557.9364934917936
 30
0.0
 11
-332.1198370467713
 21
556.6844934917935
 31
0.0
  0
LINE
  5
30B
330
1F
100
AcDbEntity
  8
ZUWAKU
  6
Continuous
 62
    30
370
    25
100
AcDbLine
 10
-327.4431900575016
 20
562.4925113309614
 30
0.0
 11
-329.5826085953291
 21
560.3530927931339
 31
0.0
  0
LINE
  5
30C
330
1F
100
AcDbEntity
  8
ZUWAKU
  6
Continuous
 62
    30
370
    25
100
AcDbLine
 10
-331.9992078966694
 20
557.9364934917936
 30
0.0
 11
-333.2512078966695
 21
556.6844934917935
 31
0.0
  0
LINE
  5
30D
330
1F
100
AcDbEntity
  8
ZUWAKU
  6
Continuous
 62
    30
370
    25
100
AcDbLine
 10
-333.130578746568
 20
557.9364934917936
 30
0.0
 11
-333.5037860853899
 21
557.5632861529717
 31
0.0
  0
LINE
  5
30E
330
1F
100
AcDbEntity
  8
ZUWAKU
  6
Continuous
 62
    30
370
    25
100
AcDbLine
 10
-325.2766912962637
 20
569.1844934917937
 30
0.0
 11
-326.8673185555729
 21
567.5938662324841
 31
0.0
  0
LINE
  5
30F
330
1F
100
AcDbEntity
  8
ZUWAKU
  6
Continuous
 62
    30
370
    25
100
AcDbLine
 10
-326.4080621461622
 20
569.1844934917935
 30
0.0
 11
-327.658062146162
 21
567.9344934917937
 31
0.0
  0
LINE
  5
310
330
1F
100
AcDbEntity
  8
ZUWAKU
  6
Continuous
 62
    30
370
    25
100
AcDbLine
 10
-327.5394329960606
 20
569.1844934917935
 30
0.0
 11
-328.7894329960603
 21
567.9344934917939
 31
0.0
  0
LINE
  5
311
330
1F
100
AcDbEntity
  8
ZUWAKU
  6
Continuous
 62
    30
370
    25
100
AcDbLine
 10
-328.6708038459593
 20
569.1844934917935
 30
0.0
 11
-329.3308510257607
 21
568.5244463119919
 31
0.0
  0
LINE
  5
312
330
1F
100
AcDbEntity
  8
ZUWAKU
  6
Continuous
 62
    30
370
    25
100
AcDbLine
 10
-317.1997449484076
 20
561.422247941071
 30
0.0
 11
-318.3965049538621
 21
560.2254879356161
 31
0.0
  0
LINE
  5
313
330
1F
100
AcDbEntity
  8
ZUWAKU
  6
Continuous
 62
    30
370
    25
100
AcDbLine
 10
-315.99492889739
 20
561.4956931421897
 30
0.0
 11
-318.691571066802
 21
558.7990509727776
 31
0.0
  0
LINE
  5
314
330
1F
100
AcDbEntity
  8
ZUWAKU
  6
Continuous
 62
    30
370
    25
100
AcDbLine
 10
-315.1207420444867
 20
560.1071382952963
 30
0.0
 11
-318.538151714154
 21
556.6897286256291
 31
0.0
  0
LINE
  5
315
330
1F
100
AcDbEntity
  8
ZUWAKU
  6
Continuous
 62
    30
370
    25
100
AcDbLine
 10
-323.0139495964668
 20
569.1844934917937
 30
0.0
 11
-324.2639495964666
 21
567.9344934917937
 31
0.0
  0
LINE
  5
316
330
1F
100
AcDbEntity
  8
ZUWAKU
  6
Continuous
 62
    30
370
    25
100
AcDbLine
 10
-326.0855450376234
 20
566.1128980506368
 30
0.0
 11
-328.2249635754509
 21
563.9734795128094
 31
0.0
  0
LINE
  5
317
330
1F
100
AcDbEntity
  8
ZUWAKU
  6
Continuous
 62
    30
370
    25
100
AcDbLine
 10
-321.8825787465679
 20
569.1844934917937
 30
0.0
 11
-323.1325787465678
 21
567.9344934917937
 31
0.0
  0
LINE
  5
318
330
1F
100
AcDbEntity
  8
ZUWAKU
  6
Continuous
 62
    30
370
    25
100
AcDbLine
 10
-326.7643675475626
 20
564.302704690799
 30
0.0
 11
-328.90378608539
 21
562.1632861529716
 31
0.0
  0
LINE
  5
319
330
1F
100
AcDbEntity
  8
ZUWAKU
  6
Continuous
 62
    30
370
    25
100
AcDbLine
 10
-320.7638818239099
 20
569.1718195645533
 30
0.0
 11
-322.0012078966695
 21
567.9344934917937
 31
0.0
  0
LINE
  5
31A
330
1F
100
AcDbEntity
  8
ZUWAKU
  6
Continuous
 62
    30
370
    25
100
AcDbLine
 10
-326.0012078966694
 20
563.9344934917937
 30
0.0
 11
-327.2532078966692
 21
562.6824934917938
 31
0.0
  0
LINE
  5
31B
330
1F
100
AcDbEntity
  8
ZUWAKU
  6
Continuous
 62
    30
370
    25
100
AcDbLine
 10
-319.8498115041014
 20
568.9545190344633
 30
0.0
 11
-320.8773564179617
 21
567.926974120603
 31
0.0
  0
LINE
  5
31C
330
1F
100
AcDbEntity
  8
ZUWAKU
  6
Continuous
 62
    30
370
    25
100
AcDbLine
 10
-324.8698370467711
 20
563.9344934917935
 30
0.0
 11
-326.3465152298514
 21
562.4578153087133
 31
0.0
  0
LINE
  5
31D
330
1F
100
AcDbEntity
  8
ZUWAKU
  6
Continuous
 62
    30
370
    25
100
AcDbLine
 10
-319.1223276274718
 20
568.5506320611945
 30
0.0
 11
-320.0227869610788
 21
567.6501727275873
 31
0.0
  0
LINE
  5
31E
330
1F
100
AcDbEntity
  8
ZUWAKU
  6
Continuous
 62
    30
370
    25
100
AcDbLine
 10
-318.5414865660094
 20
568.0001022727585
 30
0.0
 11
-319.4321406949576
 21
567.1094481438103
 31
0.0
  0
LINE
  5
31F
330
1F
100
AcDbEntity
  8
ZUWAKU
  6
Continuous
 62
    30
370
    25
100
AcDbLine
 10
-318.1041978856139
 20
567.3060201032555
 30
0.0
 11
-319.0884713432426
 21
566.3217466456267
 31
0.0
  0
LINE
  5
320
330
1F
100
AcDbEntity
  8
ZUWAKU
  6
Continuous
 62
    30
370
    25
100
AcDbLine
 10
-317.8399954095209
 20
566.4388517294498
 30
0.0
 11
-319.2863576826659
 21
564.9924894563048
 31
0.0
  0
LINE
  5
321
330
1F
100
AcDbEntity
  8
ZUWAKU
  6
Continuous
 62
    30
370
    25
100
AcDbLine
 10
-324.1453204463652
 20
569.1844934917937
 30
0.0
 11
-325.395320446365
 21
567.9344934917937
 31
0.0
  0
LINE
  5
322
330
1F
100
AcDbEntity
  8
ZUWAKU
  6
Continuous
 62
    30
370
    25
100
AcDbLine
 10
-325.4067225276843
 20
567.9230914104744
 30
0.0
 11
-327.5461410655118
 21
565.783672872647
 31
0.0
  0
LINE
  5
323
330
1F
100
AcDbEntity
  8
ZUWAKU
  6
Continuous
 62
    30
370
    25
100
AcDbLine
 10
-322.6070953469742
 20
563.9344934917935
 30
0.0
 11
-323.8590953469738
 21
562.6824934917938
 31
0.0
  0
LINE
  5
324
330
1F
100
AcDbEntity
  8
ZUWAKU
  6
Continuous
 62
    30
370
    25
100
AcDbLine
 10
-324.6105959656662
 20
561.9309928731014
 30
0.0
 11
-325.5294140604803
 21
561.0121747782874
 31
0.0
  0
LINE
  5
325
330
1F
100
AcDbEntity
  8
ZUWAKU
  6
Continuous
 62
    30
370
    25
100
AcDbLine
 10
-323.7384661968725
 20
563.9344934917935
 30
0.0
 11
-324.9904661968723
 21
562.6824934917938
 31
0.0
  0
LINE
  5
326
330
1F
100
AcDbEntity
  8
ZUWAKU
  6
Continuous
 62
    30
370
    25
100
AcDbLine
 10
-325.0191465503517
 20
562.6538131383145
 30
0.0
 11
-325.9379646451658
 21
561.7349950435004
 31
0.0
  0
LINE
  5
327
330
1F
100
AcDbEntity
  8
ZUWAKU
  6
Continuous
 62
    30
370
    25
100
AcDbLine
 10
-321.475724497076
 20
563.9344934917934
 30
0.0
 11
-322.7277244970756
 21
562.6824934917937
 31
0.0
  0
LINE
  5
328
330
1F
100
AcDbEntity
  8
ZUWAKU
  6
Continuous
 62
    30
370
    25
100
AcDbLine
 10
-324.2020453809806
 20
561.2081726078887
 30
0.0
 11
-325.1208634757949
 21
560.2893545130746
 31
0.0
  0
LINE
  5
329
330
1F
100
AcDbEntity
  8
ZUWAKU
  6
Continuous
 62
    30
370
    25
100
AcDbLine
 10
-320.108617912281
 20
564.1702292266897
 30
0.0
 11
-321.5963536471771
 21
562.6824934917937
 31
0.0
  0
LINE
  5
32A
330
1F
100
AcDbEntity
  8
ZUWAKU
  6
Continuous
 62
    30
370
    25
100
AcDbLine
 10
-323.793494796295
 20
560.4853523426758
 30
0.0
 11
-324.7123128911093
 21
559.5665342478616
 31
0.0
  0
LINE
  5
32B
330
1F
100
AcDbEntity
  8
ZUWAKU
  6
Continuous
 62
    30
370
    25
100
AcDbLine
 10
-317.8671358403291
 20
565.2803404487432
 30
0.0
 11
-320.3964689047193
 21
562.751007384353
 31
0.0
  0
LINE
  5
32C
330
1F
100
AcDbEntity
  8
ZUWAKU
  6
Continuous
 62
    30
370
    25
100
AcDbLine
 10
-323.3849442116094
 20
559.7625320774629
 30
0.0
 11
-324.3037623064237
 21
558.8437139826486
 31
0.0
  0
LINE
  5
32D
330
1F
100
AcDbEntity
  8
ZUWAKU
  6
Continuous
 62
    30
370
    25
100
AcDbLine
 10
-322.9763936269239
 20
559.0397118122501
 30
0.0
 11
-323.8952117217382
 21
558.1208937174357
 31
0.0
  0
LINE
  5
32E
330
1F
100
AcDbEntity
  8
ZUWAKU
  6
Continuous
 62
    30
370
    25
100
AcDbLine
 10
-322.5678430422384
 20
558.316891547037
 30
0.0
 11
-323.4866611370527
 21
557.3980734522228
 31
0.0
  0
LINE
  5
32F
330
1F
100
AcDbEntity
  8
ZUWAKU
  6
Continuous
 62
    30
370
    25
100
AcDbLine
 10
-321.8168702475834
 20
557.9364934917935
 30
0.0
 11
-323.0688702475834
 21
556.6844934917935
 31
0.0
  0
LINE
  5
330
330
1F
100
AcDbEntity
  8
ZUWAKU
  6
Continuous
 62
    30
370
    25
100
AcDbLine
 10
-320.6854993976854
 20
557.936493491793
 30
0.0
 11
-321.937499397685
 21
556.6844934917935
 31
0.0
  0
LINE
  5
331
330
1F
100
AcDbEntity
  8
ZUWAKU
  6
Continuous
 62
    30
370
    25
100
AcDbLine
 10
-319.5541285477871
 20
557.9364934917927
 30
0.0
 11
-320.8061285477863
 21
556.6844934917935
 31
0.0
  0
LINE
  5
332
330
1F
100
AcDbEntity
  8
ZUWAKU
  6
Continuous
 62
    30
370
    25
100
AcDbLine
 10
-315.3807074789661
 20
560.9785437107153
 30
0.0
 11
-316.4175411032389
 21
559.9417100864425
 31
0.0
  0
LINE
  5
333
330
1F
100
AcDbEntity
  8
ZUWAKU
  6
Continuous
 62
    30
370
    25
100
AcDbLine
 10
-317.3592089228761
 20
559.0000422668054
 30
0.0
 11
-319.674757697888
 21
556.6844934917935
 31
0.0
  0
LINE
  5
334
330
1F
100
AcDbEntity
  8
ZUWAKU
  6
Continuous
 62
    30
370
    25
100
AcDbLine
 10
-309.221702201382
 20
564.8748072885023
 30
0.0
 11
-312.0903784599012
 21
562.0061310299832
 31
0.0
  0
LINE
  5
335
330
1F
100
AcDbEntity
  8
ZUWAKU
  6
Continuous
 62
    30
370
    25
100
AcDbLine
 10
-315.5677890208067
 20
558.5287204690777
 30
0.0
 11
-317.1853253740098
 21
556.9111841158747
 31
0.0
  0
LINE
  5
336
330
1F
100
AcDbEntity
  8
ZUWAKU
  6
Continuous
 62
    30
370
    25
100
AcDbLine
 10
-308.4444392892303
 20
564.5206993507553
 30
0.0
 11
-312.7358478254939
 21
560.229290814492
 31
0.0
  0
LINE
  5
337
330
1F
100
AcDbEntity
  8
ZUWAKU
  6
Continuous
 62
    30
370
    25
100
AcDbLine
 10
-315.0286451481922
 20
557.9364934917936
 30
0.0
 11
-316.2756351620581
 21
556.6895034779278
 31
0.0
  0
LINE
  5
338
330
1F
100
AcDbEntity
  8
ZUWAKU
  6
Continuous
 62
    30
370
    25
100
AcDbLine
 10
-313.8972742982941
 20
557.9364934917936
 30
0.0
 11
-315.1492742982958
 21
556.6844934917916
 31
0.0
  0
LINE
  5
339
330
1F
100
AcDbEntity
  8
ZUWAKU
  6
Continuous
 62
    30
370
    25
100
AcDbLine
 10
-308.1627420629762
 20
563.6710257271117
 30
0.0
 11
-309.7918048389013
 21
562.0419629511867
 31
0.0
  0
LINE
  5
33A
330
1F
100
AcDbEntity
  8
ZUWAKU
  6
Continuous
 62
    30
370
    25
100
AcDbLine
 10
-311.2566887292642
 20
560.5770790608237
 30
0.0
 11
-312.8857515051891
 21
558.9480162848986
 31
0.0
  0
LINE
  5
33B
330
1F
100
AcDbEntity
  8
ZUWAKU
  6
Continuous
 62
    30
370
    25
100
AcDbLine
 10
-308.2278121622932
 20
562.4745847778964
 30
0.0
 11
-314.0179034484001
 21
556.6844934917895
 31
0.0
  0
LINE
  5
33C
330
1F
100
AcDbEntity
  8
ZUWAKU
  6
Continuous
 62
    30
370
    25
100
AcDbLine
 10
-308.7191838498391
 20
560.8518422404519
 30
0.0
 11
-312.7575347722867
 21
556.8134913180041
 31
0.0
  0
LINE
  5
33D
330
1F
100
AcDbEntity
  8
ZUWAKU
  6
Continuous
 62
    30
370
    25
100
AcDbLine
 10
-304.4902886689748
 20
561.6858095744734
 30
0.0
 11
-309.4916047516547
 21
556.6844934917935
 31
0.0
  0
LINE
  5
33E
330
1F
100
AcDbEntity
  8
ZUWAKU
  6
Continuous
 62
    30
370
    25
100
AcDbLine
 10
-304.1045233876119
 20
564.3343165556331
 30
0.0
 11
-304.3654573562688
 21
564.0733825869762
 31
0.0
  0
LINE
  5
33F
330
1F
100
AcDbEntity
  8
ZUWAKU
  6
Continuous
 62
    30
370
    25
100
AcDbLine
 10
-310.3817620224917
 20
558.0570779207536
 30
0.0
 11
-311.3539498524498
 21
557.0848900907955
 31
0.0
  0
LINE
  5
340
330
1F
100
AcDbEntity
  8
ZUWAKU
  6
Continuous
 62
    30
370
    25
100
AcDbLine
 10
-303.1358202114305
 20
564.1716488819163
 30
0.0
 11
-304.202789682552
 21
563.1046794107949
 31
0.0
  0
LINE
  5
341
330
1F
100
AcDbEntity
  8
ZUWAKU
  6
Continuous
 62
    30
370
    25
100
AcDbLine
 10
-309.3709756015531
 20
557.9364934917936
 30
0.0
 11
-310.5115584841054
 21
556.7959106092412
 31
0.0
  0
LINE
  5
342
330
1F
100
AcDbEntity
  8
ZUWAKU
  6
Continuous
 62
    30
370
    25
100
AcDbLine
 10
-298.3099630935466
 20
561.0779100505121
 30
0.0
 11
-302.4010525443946
 21
556.9868205996627
 31
0.0
  0
LINE
  5
343
330
1F
100
AcDbEntity
  8
ZUWAKU
  6
Continuous
 62
    30
370
    25
100
AcDbLine
 10
-303.7141213520607
 20
557.9364934917936
 30
0.0
 11
-304.9661213520608
 21
556.6844934917935
 31
0.0
  0
LINE
  5
344
330
1F
100
AcDbEntity
  8
ZUWAKU
  6
Continuous
 62
    30
370
    25
100
AcDbLine
 10
-304.5573778220196
 20
558.2246078717333
 30
0.0
 11
-306.0974922019593
 21
556.6844934917935
 31
0.0
  0
LINE
  5
345
330
1F
100
AcDbEntity
  8
ZUWAKU
  6
Continuous
 62
    30
370
    25
100
AcDbLine
 10
-304.33110365204
 20
559.5822528916112
 30
0.0
 11
-305.8542273896265
 21
558.0591291540247
 31
0.0
  0
LINE
  5
346
330
1F
100
AcDbEntity
  8
ZUWAKU
  6
Continuous
 62
    30
370
    25
100
AcDbLine
 10
-308.3602339017564
 20
556.6844934917935
 30
0.0
 11
-304.1048294820603
 21
560.9398979114892
 31
0.0
  0
LINE
  5
347
330
1F
100
AcDbEntity
  8
ZUWAKU
  6
Continuous
 62
    30
370
    25
100
AcDbLine
 10
-295.9322545859603
 20
561.1928768583001
 30
0.0
 11
-300.4331078373976
 21
556.6920236068632
 31
0.0
  0
LINE
  5
348
330
1F
100
AcDbEntity
  8
ZUWAKU
  6
Continuous
 62
    30
370
    25
100
AcDbLine
 10
-296.4185140366251
 20
559.5752465577367
 30
0.0
 11
-298.7750013016991
 21
557.2187592926626
 31
0.0
  0
LINE
  5
349
330
1F
100
AcDbEntity
  8
ZUWAKU
  6
Continuous
 62
    30
370
    25
100
AcDbLine
 10
-296.8333333333317
 20
558.0290564111316
 30
0.0
 11
-298.1778962526699
 21
556.6844934917935
 31
0.0
  0
LINE
  5
34A
330
1F
100
AcDbEntity
  8
ZUWAKU
  6
Continuous
 62
    30
370
    25
100
AcDbLine
 10
-295.7945254027714
 20
557.9364934917936
 30
0.0
 11
-297.0465254027714
 21
556.6844934917935
 31
0.0
  0
LINE
  5
34B
330
1F
100
AcDbEntity
  8
ZUWAKU
  6
Continuous
 62
    30
370
    25
100
AcDbLine
 10
-291.7838458769336
 20
560.8158021677328
 30
0.0
 11
-295.915154552873
 21
556.6844934917935
 31
0.0
  0
LINE
  5
34C
330
1F
100
AcDbEntity
  8
ZUWAKU
  6
Continuous
 62
    30
370
    25
100
AcDbLine
 10
-300.0152459134855
 20
560.5039980804702
 30
0.0
 11
-300.6582623300008
 21
559.8609816639552
 31
0.0
  0
LINE
  5
34D
330
1F
100
AcDbEntity
  8
ZUWAKU
  6
Continuous
 62
    30
370
    25
100
AcDbLine
 10
-301.9335196319498
 20
558.5857243620061
 30
0.0
 11
-303.8347505021623
 21
556.6844934917935
 31
0.0
  0
LINE
  5
34E
330
1F
100
AcDbEntity
  8
ZUWAKU
  6
Continuous
 62
    30
370
    25
100
AcDbLine
 10
-299.633328684402
 20
558.6231736097567
 30
0.0
 11
-301.1569510264624
 21
557.0995512676966
 31
0.0
  0
LINE
  5
34F
330
1F
100
AcDbEntity
  8
ZUWAKU
  6
Continuous
 62
    30
370
    25
100
AcDbLine
 10
-297.0636254358583
 20
561.1928768583001
 30
0.0
 11
-297.21898796363
 21
561.0375143305288
 31
0.0
  0
LINE
  5
350
330
1F
100
AcDbEntity
  8
ZUWAKU
  6
Continuous
 62
    30
370
    25
100
AcDbLine
 10
-297.6101115577114
 20
560.6463907364472
 30
0.0
 11
-298.685738471846
 21
559.5707638223128
 31
0.0
  0
LINE
  5
351
330
1F
100
AcDbEntity
  8
ZUWAKU
  6
Continuous
 62
    30
370
    25
100
AcDbLine
 10
-282.1814908442844
 20
561.3671904011946
 30
0.0
 11
-286.8641877536852
 21
556.6844934917935
 31
0.0
  0
LINE
  5
352
330
1F
100
AcDbEntity
  8
ZUWAKU
  6
Continuous
 62
    30
370
    25
100
AcDbLine
 10
-273.1828203435472
 20
557.9068348202409
 30
0.0
 11
-274.4051616719946
 21
556.6844934917935
 31
0.0
  0
LINE
  5
353
330
1F
100
AcDbEntity
  8
ZUWAKU
  6
Continuous
 62
    30
370
    25
100
AcDbLine
 10
-274.2984792547009
 20
557.9364934917935
 30
0.0
 11
-275.5504792547007
 21
556.6844934917935
 31
0.0
  0
LINE
  5
354
330
1F
100
AcDbEntity
  8
ZUWAKU
  6
Continuous
 62
    30
370
    25
100
AcDbLine
 10
-275.4469053673192
 20
561.3135507787691
 30
0.0
 11
-276.6097995511727
 21
560.1506565949153
 31
0.0
  0
LINE
  5
355
330
1F
100
AcDbEntity
  8
ZUWAKU
  6
Continuous
 62
    30
370
    25
100
AcDbLine
 10
-274.9838877176599
 20
560.6312508457222
 30
0.0
 11
-276.1372060905283
 21
559.4779324728537
 31
0.0
  0
LINE
  5
356
330
1F
100
AcDbEntity
  8
ZUWAKU
  6
Continuous
 62
    30
370
    25
100
AcDbLine
 10
-276.7625612140473
 20
558.8525773493346
 30
0.0
 11
-278.9306450715884
 21
556.6844934917935
 31
0.0
  0
LINE
  5
357
330
1F
100
AcDbEntity
  8
ZUWAKU
  6
Continuous
 62
    30
370
    25
100
AcDbLine
 10
-276.2909717892114
 20
561.5869084739677
 30
0.0
 11
-278.4282953915192
 21
559.4495848716597
 31
0.0
  0
LINE
  5
358
330
1F
100
AcDbEntity
  8
ZUWAKU
  6
Continuous
 62
    30
370
    25
100
AcDbLine
 10
-279.9413867713862
 20
557.9364934917928
 30
0.0
 11
-281.1933867713853
 21
556.6844934917935
 31
0.0
  0
LINE
  5
359
330
1F
100
AcDbEntity
  8
ZUWAKU
  6
Continuous
 62
    30
370
    25
100
AcDbLine
 10
-277.2109324397736
 20
559.5495237063145
 30
0.0
 11
-278.3738266236275
 21
558.3866295224606
 31
0.0
  0
LINE
  5
35A
330
1F
100
AcDbEntity
  8
ZUWAKU
  6
Continuous
 62
    30
370
    25
100
AcDbLine
 10
-278.8239626542956
 20
557.9364934917925
 30
0.0
 11
-280.0759626542945
 21
556.6844934917935
 31
0.0
  0
LINE
  5
35B
330
1F
100
AcDbEntity
  8
ZUWAKU
  6
Continuous
 62
    30
370
    25
100
AcDbLine
 10
-274.9217474403376
 20
559.5759670059535
 30
0.0
 11
-277.6826028244736
 21
556.8151116218173
 31
0.0
  0
LINE
  5
35C
330
1F
100
AcDbEntity
  8
ZUWAKU
  6
Continuous
 62
    30
370
    25
100
AcDbLine
 10
-275.4159033717916
 20
557.9364934917935
 30
0.0
 11
-276.5742786274664
 21
556.7781182361185
 31
0.0
  0
LINE
  5
35D
330
1F
100
AcDbEntity
  8
ZUWAKU
  6
Continuous
 62
    30
370
    25
100
AcDbLine
 10
-281.0867043540919
 20
557.936493491793
 30
0.0
 11
-282.3387043540914
 21
556.6844934917935
 31
0.0
  0
LINE
  5
35E
330
1F
100
AcDbEntity
  8
ZUWAKU
  6
Continuous
 62
    30
370
    25
100
AcDbLine
 10
-282.2041284711825
 20
557.9364934917934
 30
0.0
 11
-283.4561284711823
 21
556.6844934917935
 31
0.0
  0
LINE
  5
35F
330
1F
100
AcDbEntity
  8
ZUWAKU
  6
Continuous
 62
    30
370
    25
100
AcDbLine
 10
-281.4129666750934
 20
560.9903969876796
 30
0.0
 11
-282.264715762064
 21
560.1386479007087
 31
0.0
  0
LINE
  5
360
330
1F
100
AcDbEntity
  8
ZUWAKU
  6
Continuous
 62
    30
370
    25
100
AcDbLine
 10
-283.2481700717778
 20
558.0377694739041
 30
0.0
 11
-284.1267200439296
 21
557.1592195017523
 31
0.0
  0
LINE
  5
361
330
1F
100
AcDbEntity
  8
ZUWAKU
  6
Continuous
 62
    30
370
    25
100
AcDbLine
 10
-283.8162955217208
 20
558.587068141052
 30
0.0
 11
-285.56738030589
 21
556.8359833568827
 31
0.0
  0
LINE
  5
362
330
1F
100
AcDbEntity
  8
ZUWAKU
  6
Continuous
 62
    30
370
    25
100
AcDbLine
 10
-283.2774575698626
 20
561.3886477927072
 30
0.0
 11
-285.0662954137192
 21
559.5998099488506
 31
0.0
  0
LINE
  5
363
330
1F
100
AcDbEntity
  8
ZUWAKU
  6
Continuous
 62
    30
370
    25
100
AcDbLine
 10
-286.7296118707764
 20
557.9364934917934
 30
0.0
 11
-287.9816118707761
 21
556.6844934917935
 31
0.0
  0
LINE
  5
364
330
1F
100
AcDbEntity
  8
ZUWAKU
  6
Continuous
 62
    30
370
    25
100
AcDbLine
 10
-287.8749294534824
 20
557.9364934917934
 30
0.0
 11
-289.1269294534823
 21
556.6844934917935
 31
0.0
  0
LINE
  5
365
330
1F
100
AcDbEntity
  8
ZUWAKU
  6
Continuous
 62
    30
370
    25
100
AcDbLine
 10
-288.0627503406224
 20
558.8660967217443
 30
0.0
 11
-290.2443535705731
 21
556.6844934917935
 31
0.0
  0
LINE
  5
366
330
1F
100
AcDbEntity
  8
ZUWAKU
  6
Continuous
 62
    30
370
    25
100
AcDbLine
 10
-287.4246214297008
 20
560.6495432153722
 30
0.0
 11
-289.729711721933
 21
558.3444529231399
 31
0.0
  0
LINE
  5
367
330
1F
100
AcDbEntity
  8
ZUWAKU
  6
Continuous
 62
    30
370
    25
100
AcDbLine
 10
-287.8125200068088
 20
561.3930154881627
 30
0.0
 11
-289.5210420031776
 21
559.6844934917935
 31
0.0
  0
LINE
  5
368
330
1F
100
AcDbEntity
  8
ZUWAKU
  6
Continuous
 62
    30
370
    25
100
AcDbLine
 10
-291.7033599212842
 20
557.5021755736868
 30
0.0
 11
-292.5210420031776
 21
556.6844934917935
 31
0.0
  0
LINE
  5
369
330
1F
100
AcDbEntity
  8
ZUWAKU
  6
Continuous
 62
    30
370
    25
100
AcDbLine
 10
-288.9024128530763
 20
561.4344934917935
 30
0.0
 11
-290.6524128530762
 21
559.6844934917935
 31
0.0
  0
LINE
  5
36A
330
1F
100
AcDbEntity
  8
ZUWAKU
  6
Continuous
 62
    30
370
    25
100
AcDbLine
 10
-291.0568622927707
 20
559.2800440520991
 30
0.0
 11
-293.32657727925
 21
557.0103290656197
 31
0.0
  0
LINE
  5
36B
330
1F
100
AcDbEntity
  8
ZUWAKU
  6
Continuous
 62
    30
370
    25
100
AcDbLine
 10
-290.4778802070887
 20
560.9903969876796
 30
0.0
 11
-294.4369362904731
 21
557.0313409042947
 31
0.0
  0
LINE
  5
36C
330
1F
100
AcDbEntity
  8
ZUWAKU
  6
Continuous
 62
    30
370
    25
100
AcDbLine
 10
397.9166666666667
 20
-221.565506508208
 30
0.0
 11
419.9166666666666
 21
-221.565506508208
 31
0.0
  0
LINE
  5
36D
330
1F
100
AcDbEntity
  8
ZUWAKU
  6
Continuous
 62
    30
370
    25
100
AcDbLine
 10
397.9166666666667
 20
-201.5655065082081
 30
0.0
 11
419.9166666666666
 21
-201.5655065082081
 31
0.0
  0
LINE
  5
36E
330
1F
100
AcDbEntity
  8
ZUWAKU
  6
Continuous
 62
    30
370
    25
100
AcDbLine
 10
419.9166666666666
 20
-201.5655065082081
 30
0.0
 11
419.9166666666666
 21
-221.565506508208
 31
0.0
  0
LINE
  5
36F
330
1F
100
AcDbEntity
  8
ZUWAKU
  6
Continuous
 62
    30
370
    25
100
AcDbLine
 10
397.9166666666667
 20
-201.5655065082081
 30
0.0
 11
397.9166666666667
 21
-221.565506508208
 31
0.0
  0
LINE
  5
370
330
1F
100
AcDbEntity
  8
ZUWAKU
  6
Continuous
 62
    30
370
    25
100
AcDbLine
 10
419.9166666666666
 20
-221.4958672313308
 30
0.0
 11
419.8470273897894
 21
-221.565506508208
 31
0.0
  0
LINE
  5
371
330
1F
100
AcDbEntity
  8
ZUWAKU
  6
Continuous
 62
    30
370
    25
100
AcDbLine
 10
408.1782193754182
 20
-201.5655065082081
 30
0.0
 11
397.9166666666667
 21
-211.8270592169596
 31
0.0
  0
LINE
  5
372
330
1F
100
AcDbEntity
  8
ZUWAKU
  6
Continuous
 62
    30
370
    25
100
AcDbLine
 10
407.0468485255194
 20
-201.5655065082081
 30
0.0
 11
397.9166666666667
 21
-210.6956883670608
 31
0.0
  0
LINE
  5
373
330
1F
100
AcDbEntity
  8
ZUWAKU
  6
Continuous
 62
    30
370
    25
100
AcDbLine
 10
405.9154776756208
 20
-201.5655065082081
 30
0.0
 11
397.9166666666667
 21
-209.5643175171623
 31
0.0
  0
LINE
  5
374
330
1F
100
AcDbEntity
  8
ZUWAKU
  6
Continuous
 62
    30
370
    25
100
AcDbLine
 10
404.7841068257223
 20
-201.5655065082081
 30
0.0
 11
397.9166666666667
 21
-208.4329466672637
 31
0.0
  0
LINE
  5
375
330
1F
100
AcDbEntity
  8
ZUWAKU
  6
Continuous
 62
    30
370
    25
100
AcDbLine
 10
403.6527359758236
 20
-201.5655065082081
 30
0.0
 11
397.9166666666667
 21
-207.3015758173651
 31
0.0
  0
LINE
  5
376
330
1F
100
AcDbEntity
  8
ZUWAKU
  6
Continuous
 62
    30
370
    25
100
AcDbLine
 10
402.5213651259251
 20
-201.5655065082081
 30
0.0
 11
397.9166666666667
 21
-206.1702049674666
 31
0.0
  0
LINE
  5
377
330
1F
100
AcDbEntity
  8
ZUWAKU
  6
Continuous
 62
    30
370
    25
100
AcDbLine
 10
401.3899942760266
 20
-201.5655065082081
 30
0.0
 11
397.9166666666667
 21
-205.038834117568
 31
0.0
  0
LINE
  5
378
330
1F
100
AcDbEntity
  8
ZUWAKU
  6
Continuous
 62
    30
370
    25
100
AcDbLine
 10
400.2586234261281
 20
-201.5655065082081
 30
0.0
 11
397.9166666666667
 21
-203.9074632676695
 31
0.0
  0
LINE
  5
379
330
1F
100
AcDbEntity
  8
ZUWAKU
  6
Continuous
 62
    30
370
    25
100
AcDbLine
 10
399.1272525762295
 20
-201.5655065082081
 30
0.0
 11
397.9166666666667
 21
-202.776092417771
 31
0.0
  0
LINE
  5
37A
330
1F
100
AcDbEntity
  8
ZUWAKU
  6
Continuous
 62
    30
370
    25
100
AcDbLine
 10
409.3095902253165
 20
-201.5655065082081
 30
0.0
 11
397.9166666666667
 21
-212.9584300668579
 31
0.0
  0
LINE
  5
37B
330
1F
100
AcDbEntity
  8
ZUWAKU
  6
Continuous
 62
    30
370
    25
100
AcDbLine
 10
410.4409610752148
 20
-201.5655065082081
 30
0.0
 11
397.9166666666667
 21
-214.0898009167562
 31
0.0
  0
LINE
  5
37C
330
1F
100
AcDbEntity
  8
ZUWAKU
  6
Continuous
 62
    30
370
    25
100
AcDbLine
 10
411.5723319251134
 20
-201.5655065082081
 30
0.0
 11
397.9166666666667
 21
-215.2211717666547
 31
0.0
  0
LINE
  5
37D
330
1F
100
AcDbEntity
  8
ZUWAKU
  6
Continuous
 62
    30
370
    25
100
AcDbLine
 10
412.703702775012
 20
-201.5655065082081
 30
0.0
 11
397.9166666666667
 21
-216.3525426165534
 31
0.0
  0
LINE
  5
37E
330
1F
100
AcDbEntity
  8
ZUWAKU
  6
Continuous
 62
    30
370
    25
100
AcDbLine
 10
413.8350736249105
 20
-201.5655065082081
 30
0.0
 11
397.9166666666667
 21
-217.483913466452
 31
0.0
  0
LINE
  5
37F
330
1F
100
AcDbEntity
  8
ZUWAKU
  6
Continuous
 62
    30
370
    25
100
AcDbLine
 10
414.9664444748091
 20
-201.5655065082081
 30
0.0
 11
397.9166666666667
 21
-218.6152843163505
 31
0.0
  0
LINE
  5
380
330
1F
100
AcDbEntity
  8
ZUWAKU
  6
Continuous
 62
    30
370
    25
100
AcDbLine
 10
416.0978153247075
 20
-201.5655065082081
 30
0.0
 11
397.9166666666667
 21
-219.746655166249
 31
0.0
  0
LINE
  5
381
330
1F
100
AcDbEntity
  8
ZUWAKU
  6
Continuous
 62
    30
370
    25
100
AcDbLine
 10
417.2291861746061
 20
-201.5655065082081
 30
0.0
 11
397.9166666666667
 21
-220.8780260161475
 31
0.0
  0
LINE
  5
382
330
1F
100
AcDbEntity
  8
ZUWAKU
  6
Continuous
 62
    30
370
    25
100
AcDbLine
 10
418.3605570245046
 20
-201.5655065082081
 30
0.0
 11
398.3605570245048
 21
-221.565506508208
 31
0.0
  0
LINE
  5
383
330
1F
100
AcDbEntity
  8
ZUWAKU
  6
Continuous
 62
    30
370
    25
100
AcDbLine
 10
419.4919278744031
 20
-201.5655065082081
 30
0.0
 11
399.4919278744033
 21
-221.565506508208
 31
0.0
  0
LINE
  5
384
330
1F
100
AcDbEntity
  8
ZUWAKU
  6
Continuous
 62
    30
370
    25
100
AcDbLine
 10
419.9166666666666
 20
-202.2721385658431
 30
0.0
 11
400.6232987243018
 21
-221.565506508208
 31
0.0
  0
LINE
  5
385
330
1F
100
AcDbEntity
  8
ZUWAKU
  6
Continuous
 62
    30
370
    25
100
AcDbLine
 10
419.9166666666666
 20
-203.4035094157416
 30
0.0
 11
401.7546695742004
 21
-221.565506508208
 31
0.0
  0
LINE
  5
386
330
1F
100
AcDbEntity
  8
ZUWAKU
  6
Continuous
 62
    30
370
    25
100
AcDbLine
 10
419.9166666666666
 20
-204.5348802656402
 30
0.0
 11
402.8860404240989
 21
-221.565506508208
 31
0.0
  0
LINE
  5
387
330
1F
100
AcDbEntity
  8
ZUWAKU
  6
Continuous
 62
    30
370
    25
100
AcDbLine
 10
419.9166666666666
 20
-205.6662511155387
 30
0.0
 11
404.0174112739974
 21
-221.565506508208
 31
0.0
  0
LINE
  5
388
330
1F
100
AcDbEntity
  8
ZUWAKU
  6
Continuous
 62
    30
370
    25
100
AcDbLine
 10
419.9166666666666
 20
-206.7976219654372
 30
0.0
 11
405.148782123896
 21
-221.565506508208
 31
0.0
  0
LINE
  5
389
330
1F
100
AcDbEntity
  8
ZUWAKU
  6
Continuous
 62
    30
370
    25
100
AcDbLine
 10
419.9166666666666
 20
-207.9289928153358
 30
0.0
 11
406.2801529737945
 21
-221.565506508208
 31
0.0
  0
LINE
  5
38A
330
1F
100
AcDbEntity
  8
ZUWAKU
  6
Continuous
 62
    30
370
    25
100
AcDbLine
 10
419.9166666666666
 20
-209.0603636652343
 30
0.0
 11
407.411523823693
 21
-221.565506508208
 31
0.0
  0
LINE
  5
38B
330
1F
100
AcDbEntity
  8
ZUWAKU
  6
Continuous
 62
    30
370
    25
100
AcDbLine
 10
419.9166666666666
 20
-210.1917345151329
 30
0.0
 11
408.5428946735915
 21
-221.565506508208
 31
0.0
  0
LINE
  5
38C
330
1F
100
AcDbEntity
  8
ZUWAKU
  6
Continuous
 62
    30
370
    25
100
AcDbLine
 10
419.9166666666666
 20
-211.3231053650314
 30
0.0
 11
409.6742655234901
 21
-221.565506508208
 31
0.0
  0
LINE
  5
38D
330
1F
100
AcDbEntity
  8
ZUWAKU
  6
Continuous
 62
    30
370
    25
100
AcDbLine
 10
419.9166666666666
 20
-212.4544762149299
 30
0.0
 11
410.8056363733886
 21
-221.565506508208
 31
0.0
  0
LINE
  5
38E
330
1F
100
AcDbEntity
  8
ZUWAKU
  6
Continuous
 62
    30
370
    25
100
AcDbLine
 10
419.9166666666666
 20
-213.5858470648284
 30
0.0
 11
411.9370072232871
 21
-221.565506508208
 31
0.0
  0
LINE
  5
38F
330
1F
100
AcDbEntity
  8
ZUWAKU
  6
Continuous
 62
    30
370
    25
100
AcDbLine
 10
419.9166666666666
 20
-214.7172179147269
 30
0.0
 11
413.0683780731856
 21
-221.565506508208
 31
0.0
  0
LINE
  5
390
330
1F
100
AcDbEntity
  8
ZUWAKU
  6
Continuous
 62
    30
370
    25
100
AcDbLine
 10
419.9166666666666
 20
-215.8485887646255
 30
0.0
 11
414.1997489230841
 21
-221.565506508208
 31
0.0
  0
LINE
  5
391
330
1F
100
AcDbEntity
  8
ZUWAKU
  6
Continuous
 62
    30
370
    25
100
AcDbLine
 10
419.9166666666666
 20
-216.979959614524
 30
0.0
 11
415.3311197729827
 21
-221.565506508208
 31
0.0
  0
LINE
  5
392
330
1F
100
AcDbEntity
  8
ZUWAKU
  6
Continuous
 62
    30
370
    25
100
AcDbLine
 10
419.9166666666666
 20
-218.1113304644225
 30
0.0
 11
416.4624906228813
 21
-221.565506508208
 31
0.0
  0
LINE
  5
393
330
1F
100
AcDbEntity
  8
ZUWAKU
  6
Continuous
 62
    30
370
    25
100
AcDbLine
 10
419.9166666666666
 20
-219.2427013143211
 30
0.0
 11
417.5938614727798
 21
-221.565506508208
 31
0.0
  0
LINE
  5
394
330
1F
100
AcDbEntity
  8
ZUWAKU
  6
Continuous
 62
    30
370
    25
100
AcDbLine
 10
419.9166666666666
 20
-220.3740721642196
 30
0.0
 11
418.7252323226783
 21
-221.565506508208
 31
0.0
  0
LINE
  5
395
330
1F
100
AcDbEntity
  8
ZUWAKU
  6
Continuous
 62
    30
370
    25
100
AcDbLine
 10
419.9166666666666
 20
-221.5054430141181
 30
0.0
 11
419.8566031725769
 21
-221.565506508208
 31
0.0
  0
TEXT
  5
396
330
1F
100
AcDbEntity
  8
ZUWAKU
 62
    30
100
AcDbText
 10
-336.2880839558497
 20
-554.3155065082063
 30
0.0
 40
13.6
  1
株式会社
 41
0.9739130434782604
  7
dcStyle0
 72
     5
 11
-292.7680839558498
 21
-554.3155065082065
 31
0.0
100
AcDbText
  0
LINE
  5
397
330
1F
100
AcDbEntity
  8
ZUWAKU
  6
Continuous
 62
    56
370
    25
100
AcDbLine
 10
-365.3333333333317
 20
533.5599449503528
 30
0.0
 11
377.4166666666683
 21
533.5599449503528
 31
0.0
  0
LINE
  5
398
330
1F
100
AcDbEntity
  8
ZUWAKU
  6
Continuous
 62
    56
370
    25
100
AcDbLine
 10
-364.3333333333349
 20
-564.5655065082063
 30
0.0
 11
373.4166666666651
 21
-564.5655065082063
 31
0.0
  0
LINE
  5
399
330
1F
100
AcDbEntity
  8
ZUWAKU
  6
Continuous
 62
    56
370
    25
100
AcDbLine
 10
-364.3333333333349
 20
-516.3155065082063
 30
0.0
 11
373.4166666666651
 21
-516.3155065082063
 31
0.0
  0
ELLIPSE
  5
39A
330
1F
100
AcDbEntity
  8
ZUWAKU
  6
Continuous
 62
    56
370
    25
100
AcDbEllipse
 10
-307.4583333333317
 20
561.5506441226112
 30
0.0
 11
-51.125
 21
0.0
 31
0.0
210
0.0
220
0.0
230
1.0
 40
0.4036531712980696
 41
0.0
 42
6.283185307179586
  0
LINE
  5
39B
330
1F
100
AcDbEntity
  8
ZUWAKU
  6
Continuous
 62
    56
370
    25
100
AcDbLine
 10
-348.5833333333317
 20
571.4344934917937
 30
0.0
 11
-348.5833333333317
 21
551.9344934917935
 31
0.0
  0
LINE
  5
39C
330
1F
100
AcDbEntity
  8
ZUWAKU
  6
Continuous
 62
    56
370
    25
100
AcDbLine
 10
-266.0833333333317
 20
571.4344934917937
 30
0.0
 11
-266.0833333333317
 21
551.9344934917935
 31
0.0
  0
LINE
  5
39D
330
1F
100
AcDbEntity
  8
ZUWAKU
  6
Continuous
 62
    56
370
    25
100
AcDbLine
 10
-348.5833333333317
 20
571.4344934917937
 30
0.0
 11
-266.0833333333317
 21
571.4344934917937
 31
0.0
  0
LINE
  5
39E
330
1F
100
AcDbEntity
  8
ZUWAKU
  6
Continuous
 62
    56
370
    25
100
AcDbLine
 10
-348.5833333333317
 20
551.9344934917935
 30
0.0
 11
-266.0833333333317
 21
551.9344934917935
 31
0.0
  0
LINE
  5
39F
330
1F
100
AcDbEntity
  8
ZUWAKU
  6
Continuous
 62
    56
370
    25
100
AcDbLine
 10
-312.5537404709119
 20
582.0846616696223
 30
0.0
 11
-323.2039086487405
 21
571.4344934917937
 31
0.0
  0
LINE
  5
3A0
330
1F
100
AcDbEntity
  8
ZUWAKU
  6
Continuous
 62
    56
370
    25
100
AcDbLine
 10
-313.7386598668061
 20
582.0311131236265
 30
0.0
 11
-324.335279498639
 21
571.4344934917937
 31
0.0
  0
LINE
  5
3A1
330
1F
100
AcDbEntity
  8
ZUWAKU
  6
Continuous
 62
    56
370
    25
100
AcDbLine
 10
-314.9356413532079
 20
581.9655024871233
 30
0.0
 11
-325.4666503485375
 21
571.4344934917937
 31
0.0
  0
LINE
  5
3A2
330
1F
100
AcDbEntity
  8
ZUWAKU
  6
Continuous
 62
    56
370
    25
100
AcDbLine
 10
-316.1451833905423
 20
581.8873312996873
 30
0.0
 11
-326.5980211984359
 21
571.4344934917937
 31
0.0
  0
LINE
  5
3A3
330
1F
100
AcDbEntity
  8
ZUWAKU
  6
Continuous
 62
    56
370
    25
100
AcDbLine
 10
-317.3678426733914
 20
581.7960428667368
 30
0.0
 11
-327.7293920483344
 21
571.4344934917937
 31
0.0
  0
LINE
  5
3A4
330
1F
100
AcDbEntity
  8
ZUWAKU
  6
Continuous
 62
    56
370
    25
100
AcDbLine
 10
-318.6042430504494
 20
581.6910133395774
 30
0.0
 11
-328.8607628982331
 21
571.4344934917937
 31
0.0
  0
LINE
  5
3A5
330
1F
100
AcDbEntity
  8
ZUWAKU
  6
Continuous
 62
    56
370
    25
100
AcDbLine
 10
-319.8550863691392
 20
581.5715408707861
 30
0.0
 11
-329.9921337481317
 21
571.4344934917937
 31
0.0
  0
LINE
  5
3A6
330
1F
100
AcDbEntity
  8
ZUWAKU
  6
Continuous
 62
    56
370
    25
100
AcDbLine
 10
-321.1211657748239
 20
581.436832315
 30
0.0
 11
-331.1235045980302
 21
571.4344934917937
 31
0.0
  0
LINE
  5
3A7
330
1F
100
AcDbEntity
  8
ZUWAKU
  6
Continuous
 62
    56
370
    25
100
AcDbLine
 10
-322.4033821770971
 20
581.2859867626253
 30
0.0
 11
-332.2548754479287
 21
571.4344934917937
 31
0.0
  0
LINE
  5
3A8
330
1F
100
AcDbEntity
  8
ZUWAKU
  6
Continuous
 62
    56
370
    25
100
AcDbLine
 10
-323.7027648548873
 20
581.1179749347335
 30
0.0
 11
-333.3862462978273
 21
571.4344934917937
 31
0.0
  0
LINE
  5
3A9
330
1F
100
AcDbEntity
  8
ZUWAKU
  6
Continuous
 62
    56
370
    25
100
AcDbLine
 10
-325.0204975468515
 20
580.9316130926679
 30
0.0
 11
-334.5176171477257
 21
571.4344934917937
 31
0.0
  0
LINE
  5
3AA
330
1F
100
AcDbEntity
  8
ZUWAKU
  6
Continuous
 62
    56
370
    25
100
AcDbLine
 10
-326.3579519258222
 20
580.7255295635956
 30
0.0
 11
-335.6489879976242
 21
571.4344934917937
 31
0.0
  0
LINE
  5
3AB
330
1F
100
AcDbEntity
  8
ZUWAKU
  6
Continuous
 62
    56
370
    25
100
AcDbLine
 10
-327.7167311878804
 20
580.498121151436
 30
0.0
 11
-336.7803588475227
 21
571.4344934917937
 31
0.0
  0
LINE
  5
3AC
330
1F
100
AcDbEntity
  8
ZUWAKU
  6
Continuous
 62
    56
370
    25
100
AcDbLine
 10
-329.0987277701288
 20
580.2474954190861
 30
0.0
 11
-337.9117296974213
 21
571.4344934917937
 31
0.0
  0
LINE
  5
3AD
330
1F
100
AcDbEntity
  8
ZUWAKU
  6
Continuous
 62
    56
370
    25
100
AcDbLine
 10
-330.5062012467064
 20
579.9713927924071
 30
0.0
 11
-339.0431005473199
 21
571.4344934917937
 31
0.0
  0
LINE
  5
3AE
330
1F
100
AcDbEntity
  8
ZUWAKU
  6
Continuous
 62
    56
370
    25
100
AcDbLine
 10
-348.5833333333317
 20
561.8942607057818
 30
0.0
 11
-348.79310054732
 21
561.6844934917935
 31
0.0
  0
LINE
  5
3AF
330
1F
100
AcDbEntity
  8
ZUWAKU
  6
Continuous
 62
    56
370
    25
100
AcDbLine
 10
-331.9418857825573
 20
579.6670791064547
 30
0.0
 11
-340.1744713972184
 21
571.4344934917937
 31
0.0
  0
LINE
  5
3B0
330
1F
100
AcDbEntity
  8
ZUWAKU
  6
Continuous
 62
    56
370
    25
100
AcDbLine
 10
-348.5833333333317
 20
563.0256315556804
 30
0.0
 11
-349.9244713972186
 21
561.6844934917935
 31
0.0
  0
LINE
  5
3B1
330
1F
100
AcDbEntity
  8
ZUWAKU
  6
Continuous
 62
    56
370
    25
100
AcDbLine
 10
-333.4091421705334
 20
579.3311935683772
 30
0.0
 11
-341.305842247117
 21
571.4344934917937
 31
0.0
  0
LINE
  5
3B2
330
1F
100
AcDbEntity
  8
ZUWAKU
  6
Continuous
 62
    56
370
    25
100
AcDbLine
 10
-348.5833333333317
 20
564.1570024055789
 30
0.0
 11
-351.0558422471171
 21
561.6844934917935
 31
0.0
  0
LINE
  5
3B3
330
1F
100
AcDbEntity
  8
ZUWAKU
  6
Continuous
 62
    56
370
    25
100
AcDbLine
 10
-334.912179456316
 20
578.9595271324931
 30
0.0
 11
-342.4372130970156
 21
571.4344934917937
 31
0.0
  0
LINE
  5
3B4
330
1F
100
AcDbEntity
  8
ZUWAKU
  6
Continuous
 62
    56
370
    25
100
AcDbLine
 10
-348.5833333333317
 20
565.2883732554774
 30
0.0
 11
-352.1872130970157
 21
561.6844934917935
 31
0.0
  0
LINE
  5
3B5
330
1F
100
AcDbEntity
  8
ZUWAKU
  6
Continuous
 62
    56
370
    25
100
AcDbLine
 10
-336.4563896758154
 20
578.5466877628922
 30
0.0
 11
-343.568583946914
 21
571.4344934917937
 31
0.0
  0
LINE
  5
3B6
330
1F
100
AcDbEntity
  8
ZUWAKU
  6
Continuous
 62
    56
370
    25
100
AcDbLine
 10
-348.5833333333317
 20
566.4197441053759
 30
0.0
 11
-353.3185839469141
 21
561.6844934917935
 31
0.0
  0
LINE
  5
3B7
330
1F
100
AcDbEntity
  8
ZUWAKU
  6
Continuous
 62
    56
370
    25
100
AcDbLine
 10
-338.0488756714533
 20
578.0855726171529
 30
0.0
 11
-344.6999547968126
 21
571.4344934917937
 31
0.0
  0
LINE
  5
3B8
330
1F
100
AcDbEntity
  8
ZUWAKU
  6
Continuous
 62
    56
370
    25
100
AcDbLine
 10
-348.5833333333317
 20
567.5511149552744
 30
0.0
 11
-354.4499547968127
 21
561.6844934917935
 31
0.0
  0
LINE
  5
3B9
330
1F
100
AcDbEntity
  8
ZUWAKU
  6
Continuous
 62
    56
370
    25
100
AcDbLine
 10
-339.6993289636163
 20
577.5664901748885
 30
0.0
 11
-345.8313256467111
 21
571.4344934917937
 31
0.0
  0
LINE
  5
3BA
330
1F
100
AcDbEntity
  8
ZUWAKU
  6
Continuous
 62
    56
370
    25
100
AcDbLine
 10
-348.5833333333317
 20
568.682485805173
 30
0.0
 11
-355.5813256467113
 21
561.6844934917935
 31
0.0
  0
LINE
  5
3BB
330
1F
100
AcDbEntity
  8
ZUWAKU
  6
Continuous
 62
    56
370
    25
100
AcDbLine
 10
-341.4215926110638
 20
576.9755973773395
 30
0.0
 11
-346.9626964966096
 21
571.4344934917937
 31
0.0
  0
LINE
  5
3BC
330
1F
100
AcDbEntity
  8
ZUWAKU
  6
Continuous
 62
    56
370
    25
100
AcDbLine
 10
-348.5833333333317
 20
569.8138566550715
 30
0.0
 11
-356.7126964966097
 21
561.6844934917935
 31
0.0
  0
LINE
  5
3BD
330
1F
100
AcDbEntity
  8
ZUWAKU
  6
Continuous
 62
    56
370
    25
100
AcDbLine
 10
-343.2367057759021
 20
576.2918550623998
 30
0.0
 11
-348.0940673465082
 21
571.4344934917937
 31
0.0
  0
LINE
  5
3BE
330
1F
100
AcDbEntity
  8
ZUWAKU
  6
Continuous
 62
    56
370
    25
100
AcDbLine
 10
-348.5833333333317
 20
570.94522750497
 30
0.0
 11
-357.8440673465083
 21
561.6844934917935
 31
0.0
  0
LINE
  5
3BF
330
1F
100
AcDbEntity
  8
ZUWAKU
  6
Continuous
 62
    56
370
    25
100
AcDbLine
 10
-345.1796301652565
 20
575.4803015229437
 30
0.0
 11
-358.5655867261773
 21
562.0943449620232
 31
0.0
  0
LINE
  5
3C0
330
1F
100
AcDbEntity
  8
ZUWAKU
  6
Continuous
 62
    56
370
    25
100
AcDbLine
 10
-347.3172444218537
 20
574.4740581162451
 30
0.0
 11
-358.3736873911506
 21
563.4176151469484
 31
0.0
  0
LINE
  5
3C1
330
1F
100
AcDbEntity
  8
ZUWAKU
  6
Continuous
 62
    56
370
    25
100
AcDbLine
 10
-349.8160633260762
 20
573.1066100619212
 30
0.0
 11
-357.8205834084985
 21
565.1020899794992
 31
0.0
  0
LINE
  5
3C2
330
1F
100
AcDbEntity
  8
ZUWAKU
  6
Continuous
 62
    56
370
    25
100
AcDbLine
 10
-353.7111270214693
 20
570.3429172164266
 30
0.0
 11
-355.8712346346757
 21
568.1828096032202
 31
0.0
  0
LINE
  5
3C3
330
1F
100
AcDbEntity
  8
ZUWAKU
  6
Continuous
 62
    56
370
    25
100
AcDbLine
 10
-311.3804355446229
 20
582.1265957460129
 30
0.0
 11
-322.0725377988422
 21
571.4344934917937
 31
0.0
  0
LINE
  5
3C4
330
1F
100
AcDbEntity
  8
ZUWAKU
  6
Continuous
 62
    56
370
    25
100
AcDbLine
 10
-310.2183421327226
 20
582.1573183080144
 30
0.0
 11
-320.9411669489432
 21
571.4344934917937
 31
0.0
  0
LINE
  5
3C5
330
1F
100
AcDbEntity
  8
ZUWAKU
  6
Continuous
 62
    56
370
    25
100
AcDbLine
 10
-309.0670967578722
 20
582.1771928329663
 30
0.0
 11
-319.8097960990448
 21
571.4344934917937
 31
0.0
  0
LINE
  5
3C6
330
1F
100
AcDbEntity
  8
ZUWAKU
  6
Continuous
 62
    56
370
    25
100
AcDbLine
 10
-307.9263710360117
 20
582.1865477049282
 30
0.0
 11
-318.6784252491462
 21
571.4344934917937
 31
0.0
  0
LINE
  5
3C7
330
1F
100
AcDbEntity
  8
ZUWAKU
  6
Continuous
 62
    56
370
    25
100
AcDbLine
 10
-306.7958679513093
 20
582.1856799397322
 30
0.0
 11
-317.5470543992477
 21
571.4344934917937
 31
0.0
  0
LINE
  5
3C8
330
1F
100
AcDbEntity
  8
ZUWAKU
  6
Continuous
 62
    56
370
    25
100
AcDbLine
 10
-305.6753186767882
 20
582.1748583643547
 30
0.0
 11
-316.4156835493492
 21
571.4344934917937
 31
0.0
  0
LINE
  5
3C9
330
1F
100
AcDbEntity
  8
ZUWAKU
  6
Continuous
 62
    56
370
    25
100
AcDbLine
 10
-304.564479849688
 20
582.1543263415565
 30
0.0
 11
-315.2843126994507
 21
571.4344934917937
 31
0.0
  0
LINE
  5
3CA
330
1F
100
AcDbEntity
  8
ZUWAKU
  6
Continuous
 62
    56
370
    25
100
AcDbLine
 10
-303.463131228401
 20
582.124304112945
 30
0.0
 11
-314.1529418495523
 21
571.4344934917937
 31
0.0
  0
LINE
  5
3CB
330
1F
100
AcDbEntity
  8
ZUWAKU
  6
Continuous
 62
    56
370
    25
100
AcDbLine
 10
-302.3710736717525
 20
582.0849908196949
 30
0.0
 11
-313.0215709996538
 21
571.4344934917937
 31
0.0
  0
LINE
  5
3CC
330
1F
100
AcDbEntity
  8
ZUWAKU
  6
Continuous
 62
    56
370
    25
100
AcDbLine
 10
-301.2881273923877
 20
582.0365662491611
 30
0.0
 11
-311.8902001497551
 21
571.4344934917937
 31
0.0
  0
LINE
  5
3CD
330
1F
100
AcDbEntity
  8
ZUWAKU
  6
Continuous
 62
    56
370
    25
100
AcDbLine
 10
-300.2141304447794
 20
581.979192346871
 30
0.0
 11
-310.7588292998566
 21
571.4344934917937
 31
0.0
  0
LINE
  5
3CE
330
1F
100
AcDbEntity
  8
ZUWAKU
  6
Continuous
 62
    56
370
    25
100
AcDbLine
 10
-299.148937415385
 20
581.9130145263667
 30
0.0
 11
-309.6274584499581
 21
571.4344934917937
 31
0.0
  0
LINE
  5
3CF
330
1F
100
AcDbEntity
  8
ZUWAKU
  6
Continuous
 62
    56
370
    25
100
AcDbLine
 10
-298.0924182881558
 20
581.8381628036973
 30
0.0
 11
-308.4960876000595
 21
571.4344934917937
 31
0.0
  0
LINE
  5
3D0
330
1F
100
AcDbEntity
  8
ZUWAKU
  6
Continuous
 62
    56
370
    25
100
AcDbLine
 10
-297.0444574632147
 20
581.7547527787399
 30
0.0
 11
-307.364716750161
 21
571.4344934917937
 31
0.0
  0
LINE
  5
3D1
330
1F
100
AcDbEntity
  8
ZUWAKU
  6
Continuous
 62
    56
370
    25
100
AcDbLine
 10
-296.0049529103094
 20
581.6628864817468
 30
0.0
 11
-306.2333459002625
 21
571.4344934917937
 31
0.0
  0
LINE
  5
3D2
330
1F
100
AcDbEntity
  8
ZUWAKU
  6
Continuous
 62
    56
370
    25
100
AcDbLine
 10
-294.9738154417834
 20
581.5626531003743
 30
0.0
 11
-305.1019750503639
 21
571.4344934917937
 31
0.0
  0
LINE
  5
3D3
330
1F
100
AcDbEntity
  8
ZUWAKU
  6
Continuous
 62
    56
370
    25
100
AcDbLine
 10
-293.9509680924199
 20
581.4541295998391
 30
0.0
 11
-303.9706042004654
 21
571.4344934917937
 31
0.0
  0
LINE
  5
3D4
330
1F
100
AcDbEntity
  8
ZUWAKU
  6
Continuous
 62
    56
370
    25
100
AcDbLine
 10
-292.9363455957198
 20
581.3373812466408
 30
0.0
 11
-302.839233350567
 21
571.4344934917937
 31
0.0
  0
LINE
  5
3D5
330
1F
100
AcDbEntity
  8
ZUWAKU
  6
Continuous
 62
    56
370
    25
100
AcDbLine
 10
-291.9298939480461
 20
581.2124620444159
 30
0.0
 11
-301.7078625006685
 21
571.4344934917937
 31
0.0
  0
LINE
  5
3D6
330
1F
100
AcDbEntity
  8
ZUWAKU
  6
Continuous
 62
    56
370
    25
100
AcDbLine
 10
-290.9315700536906
 20
581.0794150888729
 30
0.0
 11
-300.5764916507699
 21
571.4344934917937
 31
0.0
  0
LINE
  5
3D7
330
1F
100
AcDbEntity
  8
ZUWAKU
  6
Continuous
 62
    56
370
    25
100
AcDbLine
 10
-289.9413414453222
 20
580.9382728473428
 30
0.0
 11
-299.4451208008714
 21
571.4344934917937
 31
0.0
  0
LINE
  5
3D8
330
1F
100
AcDbEntity
  8
ZUWAKU
  6
Continuous
 62
    56
370
    25
100
AcDbLine
 10
-288.9591860755374
 20
580.789057367229
 30
0.0
 11
-298.3137499509727
 21
571.4344934917937
 31
0.0
  0
LINE
  5
3D9
330
1F
100
AcDbEntity
  8
ZUWAKU
  6
Continuous
 62
    56
370
    25
100
AcDbLine
 10
-287.9850921763637
 20
580.6317804165042
 30
0.0
 11
-297.1823791010741
 21
571.4344934917937
 31
0.0
  0
LINE
  5
3DA
330
1F
100
AcDbEntity
  8
ZUWAKU
  6
Continuous
 62
    56
370
    25
100
AcDbLine
 10
-287.0190581846171
 20
580.4664435583522
 30
0.0
 11
-296.0510082511756
 21
571.4344934917937
 31
0.0
  0
LINE
  5
3DB
330
1F
100
AcDbEntity
  8
ZUWAKU
  6
Continuous
 62
    56
370
    25
100
AcDbLine
 10
-286.0610927320052
 20
580.2930381610655
 30
0.0
 11
-294.9196374012771
 21
571.4344934917937
 31
0.0
  0
LINE
  5
3DC
330
1F
100
AcDbEntity
  8
ZUWAKU
  6
Continuous
 62
    56
370
    25
100
AcDbLine
 10
-285.1112146998302
 20
580.1115453433421
 30
0.0
 11
-293.7882665513786
 21
571.4344934917937
 31
0.0
  0
LINE
  5
3DD
330
1F
100
AcDbEntity
  8
ZUWAKU
  6
Continuous
 62
    56
370
    25
100
AcDbLine
 10
-284.1694533391004
 20
579.9219358541733
 30
0.0
 11
-292.65689570148
 21
571.4344934917937
 31
0.0
  0
LINE
  5
3DE
330
1F
100
AcDbEntity
  8
ZUWAKU
  6
Continuous
 62
    56
370
    25
100
AcDbLine
 10
-283.2358484578447
 20
579.7241698855305
 30
0.0
 11
-291.5255248515816
 21
571.4344934917937
 31
0.0
  0
LINE
  5
3DF
330
1F
100
AcDbEntity
  8
ZUWAKU
  6
Continuous
 62
    56
370
    25
100
AcDbLine
 10
-282.3104506784449
 20
579.5181968150317
 30
0.0
 11
-290.3941540016831
 21
571.4344934917937
 31
0.0
  0
LINE
  5
3E0
330
1F
100
AcDbEntity
  8
ZUWAKU
  6
Continuous
 62
    56
370
    25
100
AcDbLine
 10
-281.3933217689112
 20
579.3039548746669
 30
0.0
 11
-289.2627831517845
 21
571.4344934917937
 31
0.0
  0
LINE
  5
3E1
330
1F
100
AcDbEntity
  8
ZUWAKU
  6
Continuous
 62
    56
370
    25
100
AcDbLine
 10
-280.484535053236
 20
579.0813707404436
 30
0.0
 11
-288.131412301886
 21
571.4344934917937
 31
0.0
  0
LINE
  5
3E2
330
1F
100
AcDbEntity
  8
ZUWAKU
  6
Continuous
 62
    56
370
    25
100
AcDbLine
 10
-279.5841759073229
 20
578.8503590364583
 30
0.0
 11
-287.0000414519875
 21
571.4344934917937
 31
0.0
  0
LINE
  5
3E3
330
1F
100
AcDbEntity
  8
ZUWAKU
  6
Continuous
 62
    56
370
    25
100
AcDbLine
 10
-278.6923423485343
 20
578.6108217453483
 30
0.0
 11
-285.8686706020889
 21
571.4344934917937
 31
0.0
  0
LINE
  5
3E4
330
1F
100
AcDbEntity
  8
ZUWAKU
  6
Continuous
 62
    56
370
    25
100
AcDbLine
 10
-277.8091457286916
 20
578.3626475152925
 30
0.0
 11
-284.7372997521904
 21
571.4344934917937
 31
0.0
  0
LINE
  5
3E5
330
1F
100
AcDbEntity
  8
ZUWAKU
  6
Continuous
 62
    56
370
    25
100
AcDbLine
 10
-276.9347115424549
 20
578.1057108516306
 30
0.0
 11
-283.6059289022919
 21
571.4344934917937
 31
0.0
  0
LINE
  5
3E6
330
1F
100
AcDbEntity
  8
ZUWAKU
  6
Continuous
 62
    56
370
    25
100
AcDbLine
 10
-276.0691803654901
 20
577.839871178697
 30
0.0
 11
-282.4745580523934
 21
571.4344934917937
 31
0.0
  0
LINE
  5
3E7
330
1F
100
AcDbEntity
  8
ZUWAKU
  6
Continuous
 62
    56
370
    25
100
AcDbLine
 10
-275.2127089397915
 20
577.5649717544969
 30
0.0
 11
-281.3431872024948
 21
571.4344934917937
 31
0.0
  0
LINE
  5
3E8
330
1F
100
AcDbEntity
  8
ZUWAKU
  6
Continuous
 62
    56
370
    25
100
AcDbLine
 10
-274.3654714270999
 20
577.28083841729
 30
0.0
 11
-280.2118163525963
 21
571.4344934917937
 31
0.0
  0
LINE
  5
3E9
330
1F
100
AcDbEntity
  8
ZUWAKU
  6
Continuous
 62
    56
370
    25
100
AcDbLine
 10
-273.5276608556981
 20
576.9872781387934
 30
0.0
 11
-279.080445502698
 21
571.4344934917937
 31
0.0
  0
LINE
  5
3EA
330
1F
100
AcDbEntity
  8
ZUWAKU
  6
Continuous
 62
    56
370
    25
100
AcDbLine
 10
-272.6994907911868
 20
576.6840773534062
 30
0.0
 11
-277.9490746527993
 21
571.4344934917937
 31
0.0
  0
LINE
  5
3EB
330
1F
100
AcDbEntity
  8
ZUWAKU
  6
Continuous
 62
    56
370
    25
100
AcDbLine
 10
-271.881197268409
 20
576.3710000262854
 30
0.0
 11
-276.8177038029008
 21
571.4344934917937
 31
0.0
  0
LINE
  5
3EC
330
1F
100
AcDbEntity
  8
ZUWAKU
  6
Continuous
 62
    56
370
    25
100
AcDbLine
 10
-271.0730410298633
 20
576.0477854149326
 30
0.0
 11
-275.6863329530022
 21
571.4344934917937
 31
0.0
  0
LINE
  5
3ED
330
1F
100
AcDbEntity
  8
ZUWAKU
  6
Continuous
 62
    56
370
    25
100
AcDbLine
 10
-270.2753101261872
 20
575.7141454687101
 30
0.0
 11
-274.5549621031036
 21
571.4344934917937
 31
0.0
  0
LINE
  5
3EE
330
1F
100
AcDbEntity
  8
ZUWAKU
  6
Continuous
 62
    56
370
    25
100
AcDbLine
 10
-269.4883229472346
 20
575.3697617977641
 30
0.0
 11
-273.4235912532051
 21
571.4344934917937
 31
0.0
  0
LINE
  5
3EF
330
1F
100
AcDbEntity
  8
ZUWAKU
  6
Continuous
 62
    56
370
    25
100
AcDbLine
 10
-268.7124317687554
 20
575.0142821263447
 30
0.0
 11
-272.2922204033065
 21
571.4344934917937
 31
0.0
  0
LINE
  5
3F0
330
1F
100
AcDbEntity
  8
ZUWAKU
  6
Continuous
 62
    56
370
    25
100
AcDbLine
 10
-267.948026920871
 20
574.6473161243308
 30
0.0
 11
-271.1608495534081
 21
571.4344934917937
 31
0.0
  0
LINE
  5
3F1
330
1F
100
AcDbEntity
  8
ZUWAKU
  6
Continuous
 62
    56
370
    25
100
AcDbLine
 10
-267.1955417120038
 20
574.2684304832994
 30
0.0
 11
-270.0294787035096
 21
571.4344934917937
 31
0.0
  0
LINE
  5
3F2
330
1F
100
AcDbEntity
  8
ZUWAKU
  6
Continuous
 62
    56
370
    25
100
AcDbLine
 10
-266.4554582778891
 20
573.8771430675156
 30
0.0
 11
-268.898107853611
 21
571.4344934917937
 31
0.0
  0
LINE
  5
3F3
330
1F
100
AcDbEntity
  8
ZUWAKU
  6
Continuous
 62
    56
370
    25
100
AcDbLine
 10
-265.728314572867
 20
573.4729159226392
 30
0.0
 11
-267.7667370037125
 21
571.4344934917937
 31
0.0
  0
LINE
  5
3F4
330
1F
100
AcDbEntity
  8
ZUWAKU
  6
Continuous
 62
    56
370
    25
100
AcDbLine
 10
-265.0147127843048
 20
573.0551468613028
 30
0.0
 11
-266.6353661538141
 21
571.4344934917937
 31
0.0
  0
LINE
  5
3F5
330
1F
100
AcDbEntity
  8
ZUWAKU
  6
Continuous
 62
    56
370
    25
100
AcDbLine
 10
-264.3153295371699
 20
572.6231592585392
 30
0.0
 11
-266.0833333333317
 21
570.8551554623774
 31
0.0
  0
LINE
  5
3F6
330
1F
100
AcDbEntity
  8
ZUWAKU
  6
Continuous
 62
    56
370
    25
100
AcDbLine
 10
-263.630928373971
 20
572.1761895718396
 30
0.0
 11
-266.0833333333317
 21
569.7237846124788
 31
0.0
  0
LINE
  5
3F7
330
1F
100
AcDbEntity
  8
ZUWAKU
  6
Continuous
 62
    56
370
    25
100
AcDbLine
 10
-262.9623751597417
 20
571.7133719361703
 30
0.0
 11
-266.0833333333317
 21
568.5924137625802
 31
0.0
  0
LINE
  5
3F8
330
1F
100
AcDbEntity
  8
ZUWAKU
  6
Continuous
 62
    56
370
    25
100
AcDbLine
 10
-262.3106572941161
 20
571.2337189518973
 30
0.0
 11
-266.0833333333317
 21
567.4610429126817
 31
0.0
  0
LINE
  5
3F9
330
1F
100
AcDbEntity
  8
ZUWAKU
  6
Continuous
 62
    56
370
    25
100
AcDbLine
 10
-261.6769079465676
 20
570.7360974495474
 30
0.0
 11
-266.0833333333317
 21
566.3296720627832
 31
0.0
  0
LINE
  5
3FA
330
1F
100
AcDbEntity
  8
ZUWAKU
  6
Continuous
 62
    56
370
    25
100
AcDbLine
 10
-261.0624370201315
 20
570.2191975260848
 30
0.0
 11
-266.0833333333317
 21
565.1983012128846
 31
0.0
  0
LINE
  5
3FB
330
1F
100
AcDbEntity
  8
ZUWAKU
  6
Continuous
 62
    56
370
    25
100
AcDbLine
 10
-260.4687712807158
 20
569.6814924156021
 30
0.0
 11
-266.0833333333317
 21
564.0669303629861
 31
0.0
  0
LINE
  5
3FC
330
1F
100
AcDbEntity
  8
ZUWAKU
  6
Continuous
 62
    56
370
    25
100
AcDbLine
 10
-259.8977072095697
 20
569.1211856368496
 30
0.0
 11
-266.0833333333317
 21
562.9355595130876
 31
0.0
  0
LINE
  5
3FD
330
1F
100
AcDbEntity
  8
ZUWAKU
  6
Continuous
 62
    56
370
    25
100
AcDbLine
 10
-259.351381897875
 20
568.5361400986459
 30
0.0
 11
-266.0833333333317
 21
561.8041886631892
 31
0.0
  0
LINE
  5
3FE
330
1F
100
AcDbEntity
  8
ZUWAKU
  6
Continuous
 62
    56
370
    25
100
AcDbLine
 10
-258.8323701553692
 20
567.9237809912531
 30
0.0
 11
-265.0716576548288
 21
561.6844934917935
 31
0.0
  0
LINE
  5
3FF
330
1F
100
AcDbEntity
  8
ZUWAKU
  6
Continuous
 62
    56
370
    25
100
AcDbLine
 10
-258.343820786736
 20
567.2809595099877
 30
0.0
 11
-263.9402868049302
 21
561.6844934917935
 31
0.0
  0
LINE
  5
400
330
1F
100
AcDbEntity
  8
ZUWAKU
  6
Continuous
 62
    56
370
    25
100
AcDbLine
 10
-257.8896533281173
 20
566.603756118708
 30
0.0
 11
-262.8089159550316
 21
561.6844934917935
 31
0.0
  0
LINE
  5
401
330
1F
100
AcDbEntity
  8
ZUWAKU
  6
Continuous
 62
    56
370
    25
100
AcDbLine
 10
-257.4748517679457
 20
565.887186828981
 30
0.0
 11
-261.6775451051332
 21
561.6844934917935
 31
0.0
  0
LINE
  5
402
330
1F
100
AcDbEntity
  8
ZUWAKU
  6
Continuous
 62
    56
370
    25
100
AcDbLine
 10
-257.1059211796947
 20
565.1247465673335
 30
0.0
 11
-260.5461742552346
 21
561.6844934917935
 31
0.0
  0
LINE
  5
403
330
1F
100
AcDbEntity
  8
ZUWAKU
  6
Continuous
 62
    56
370
    25
100
AcDbLine
 10
-256.7916338853477
 20
564.3076630117821
 30
0.0
 11
-259.4148034053362
 21
561.6844934917935
 31
0.0
  0
LINE
  5
404
330
1F
100
AcDbEntity
  8
ZUWAKU
  6
Continuous
 62
    56
370
    25
100
AcDbLine
 10
-256.5443279028661
 20
563.4235981443651
 30
0.0
 11
-258.2834325554375
 21
561.6844934917935
 31
0.0
  0
LINE
  5
405
330
1F
100
AcDbEntity
  8
ZUWAKU
  6
Continuous
 62
    56
370
    25
100
AcDbLine
 10
-256.3823601301504
 20
562.4541950671819
 30
0.0
 11
-257.152061705539
 21
561.6844934917935
 31
0.0
  0
LINE
  5
406
330
1F
100
AcDbEntity
  8
ZUWAKU
  6
Continuous
 62
    56
370
    25
100
AcDbLine
 10
-291.5789098270947
 20
551.9344934917935
 30
0.0
 11
-302.5023354320256
 21
541.0110678868626
 31
0.0
  0
LINE
  5
407
330
1F
100
AcDbEntity
  8
ZUWAKU
  6
Continuous
 62
    56
370
    25
100
AcDbLine
 10
-292.7102806769933
 20
551.9344934917935
 30
0.0
 11
-303.6742937383939
 21
540.9704804303929
 31
0.0
  0
LINE
  5
408
330
1F
100
AcDbEntity
  8
ZUWAKU
  6
Continuous
 62
    56
370
    25
100
AcDbLine
 10
-293.8416515268917
 20
551.9344934917935
 30
0.0
 11
-304.8350854997804
 21
540.9410595189048
 31
0.0
  0
LINE
  5
409
330
1F
100
AcDbEntity
  8
ZUWAKU
  6
Continuous
 62
    56
370
    25
100
AcDbLine
 10
-294.9730223767901
 20
551.9344934917935
 30
0.0
 11
-305.9850698270234
 21
540.9224460415602
 31
0.0
  0
LINE
  5
40A
330
1F
100
AcDbEntity
  8
ZUWAKU
  6
Continuous
 62
    56
370
    25
100
AcDbLine
 10
-296.1043932266886
 20
551.9344934917935
 30
0.0
 11
-307.1245712103293
 21
540.9143155081529
 31
0.0
  0
LINE
  5
40B
330
1F
100
AcDbEntity
  8
ZUWAKU
  6
Continuous
 62
    56
370
    25
100
AcDbLine
 10
-297.2357640765873
 20
551.9344934917935
 30
0.0
 11
-308.2538831743277
 21
540.916374394053
 31
0.0
  0
LINE
  5
40C
330
1F
100
AcDbEntity
  8
ZUWAKU
  6
Continuous
 62
    56
370
    25
100
AcDbLine
 10
-298.3671349264858
 20
551.9344934917935
 30
0.0
 11
-309.3732713992895
 21
540.9283570189898
 31
0.0
  0
LINE
  5
40D
330
1F
100
AcDbEntity
  8
ZUWAKU
  6
Continuous
 62
    56
370
    25
100
AcDbLine
 10
-299.4985057763843
 20
551.9344934917935
 30
0.0
 11
-310.4829763971082
 21
540.9500228710696
 31
0.0
  0
LINE
  5
40E
330
1F
100
AcDbEntity
  8
ZUWAKU
  6
Continuous
 62
    56
370
    25
100
AcDbLine
 10
-300.6298766262829
 20
551.9344934917935
 30
0.0
 11
-311.5832158133763
 21
540.9811543047002
 31
0.0
  0
LINE
  5
40F
330
1F
100
AcDbEntity
  8
ZUWAKU
  6
Continuous
 62
    56
370
    25
100
AcDbLine
 10
-301.7612474761813
 20
551.9344934917935
 30
0.0
 11
-312.6741864133476
 21
541.0215545546273
 31
0.0
  0
LINE
  5
410
330
1F
100
AcDbEntity
  8
ZUWAKU
  6
Continuous
 62
    56
370
    25
100
AcDbLine
 10
-302.89261832608
 20
551.9344934917935
 30
0.0
 11
-313.7560657988852
 21
541.0710460189883
 31
0.0
  0
LINE
  5
411
330
1F
100
AcDbEntity
  8
ZUWAKU
  6
Continuous
 62
    56
370
    25
100
AcDbLine
 10
-304.0239891759783
 20
551.9344934917935
 30
0.0
 11
-314.829013894964
 21
541.1294687728079
 31
0.0
  0
LINE
  5
412
330
1F
100
AcDbEntity
  8
ZUWAKU
  6
Continuous
 62
    56
370
    25
100
AcDbLine
 10
-305.1553600258769
 20
551.9344934917935
 30
0.0
 11
-315.8931742374703
 21
541.1966792802001
 31
0.0
  0
LINE
  5
413
330
1F
100
AcDbEntity
  8
ZUWAKU
  6
Continuous
 62
    56
370
    25
100
AcDbLine
 10
-306.2867308757753
 20
551.9344934917935
 30
0.0
 11
-316.9486750884938
 21
541.2725492790752
 31
0.0
  0
LINE
  5
414
330
1F
100
AcDbEntity
  8
ZUWAKU
  6
Continuous
 62
    56
370
    25
100
AcDbLine
 10
-307.418101725674
 20
551.9344934917935
 30
0.0
 11
-317.9956304008127
 21
541.3569648166548
 31
0.0
  0
LINE
  5
415
330
1F
100
AcDbEntity
  8
ZUWAKU
  6
Continuous
 62
    56
370
    25
100
AcDbLine
 10
-308.5494725755727
 20
551.9344934917935
 30
0.0
 11
-319.0341406495593
 21
541.4498254178069
 31
0.0
  0
LINE
  5
416
330
1F
100
AcDbEntity
  8
ZUWAKU
  6
Continuous
 62
    56
370
    25
100
AcDbLine
 10
-309.6808434254711
 20
551.9344934917935
 30
0.0
 11
-320.0642935459917
 21
541.551043371273
 31
0.0
  0
LINE
  5
417
330
1F
100
AcDbEntity
  8
ZUWAKU
  6
Continuous
 62
    56
370
    25
100
AcDbLine
 10
-310.8122142753696
 20
551.9344934917935
 30
0.0
 11
-321.0861646457365
 21
541.6605431214267
 31
0.0
  0
LINE
  5
418
330
1F
100
AcDbEntity
  8
ZUWAKU
  6
Continuous
 62
    56
370
    25
100
AcDbLine
 10
-311.9435851252683
 20
551.9344934917935
 30
0.0
 11
-322.0998178617018
 21
541.77826075536
 31
0.0
  0
LINE
  5
419
330
1F
100
AcDbEntity
  8
ZUWAKU
  6
Continuous
 62
    56
370
    25
100
AcDbLine
 10
-313.0749559751666
 20
551.9344934917935
 30
0.0
 11
-323.105305890025
 21
541.9041435769352
 31
0.0
  0
LINE
  5
41A
330
1F
100
AcDbEntity
  8
ZUWAKU
  6
Continuous
 62
    56
370
    25
100
AcDbLine
 10
-314.2063268250653
 20
551.9344934917935
 30
0.0
 11
-324.1026705558264
 21
542.0381497610324
 31
0.0
  0
LINE
  5
41B
330
1F
100
AcDbEntity
  8
ZUWAKU
  6
Continuous
 62
    56
370
    25
100
AcDbLine
 10
-315.3376976749638
 20
551.9344934917935
 30
0.0
 11
-325.0919430841469
 21
542.1802480826103
 31
0.0
  0
LINE
  5
41C
330
1F
100
AcDbEntity
  8
ZUWAKU
  6
Continuous
 62
    56
370
    25
100
AcDbLine
 10
-316.4690685248622
 20
551.9344934917935
 30
0.0
 11
-326.0731443002162
 21
542.3304177164396
 31
0.0
  0
LINE
  5
41D
330
1F
100
AcDbEntity
  8
ZUWAKU
  6
Continuous
 62
    56
370
    25
100
AcDbLine
 10
-317.6004393747608
 20
551.9344934917935
 30
0.0
 11
-327.046284762068
 21
542.4886481044863
 31
0.0
  0
LINE
  5
41E
330
1F
100
AcDbEntity
  8
ZUWAKU
  6
Continuous
 62
    56
370
    25
100
AcDbLine
 10
-318.7318102246593
 20
551.9344934917935
 30
0.0
 11
-328.0113648274834
 21
542.6549388889695
 31
0.0
  0
LINE
  5
41F
330
1F
100
AcDbEntity
  8
ZUWAKU
  6
Continuous
 62
    56
370
    25
100
AcDbLine
 10
-319.8631810745579
 20
551.9344934917935
 30
0.0
 11
-328.9683746562562
 21
542.8292999100952
 31
0.0
  0
LINE
  5
420
330
1F
100
AcDbEntity
  8
ZUWAKU
  6
Continuous
 62
    56
370
    25
100
AcDbLine
 10
-320.9945519244564
 20
551.9344934917935
 30
0.0
 11
-329.9172941478133
 21
543.0117512684366
 31
0.0
  0
LINE
  5
421
330
1F
100
AcDbEntity
  8
ZUWAKU
  6
Continuous
 62
    56
370
    25
100
AcDbLine
 10
-322.125922774355
 20
551.9344934917935
 30
0.0
 11
-330.8580928132641
 21
543.2023234528845
 31
0.0
  0
LINE
  5
422
330
1F
100
AcDbEntity
  8
ZUWAKU
  6
Continuous
 62
    56
370
    25
100
AcDbLine
 10
-323.2572936242535
 20
551.9344934917935
 30
0.0
 11
-331.7907295799706
 21
543.4010575360763
 31
0.0
  0
LINE
  5
423
330
1F
100
AcDbEntity
  8
ZUWAKU
  6
Continuous
 62
    56
370
    25
100
AcDbLine
 10
-324.3886644741521
 20
551.9344934917935
 30
0.0
 11
-332.7151525256944
 21
543.6080054402512
 31
0.0
  0
LINE
  5
424
330
1F
100
AcDbEntity
  8
ZUWAKU
  6
Continuous
 62
    56
370
    25
100
AcDbLine
 10
-325.5200353240504
 20
551.9344934917935
 30
0.0
 11
-333.6312985382577
 21
543.8232302775863
 31
0.0
  0
LINE
  5
425
330
1F
100
AcDbEntity
  8
ZUWAKU
  6
Continuous
 62
    56
370
    25
100
AcDbLine
 10
-326.6514061739491
 20
551.9344934917935
 30
0.0
 11
-334.539092895433
 21
544.0468067703096
 31
0.0
  0
LINE
  5
426
330
1F
100
AcDbEntity
  8
ZUWAKU
  6
Continuous
 62
    56
370
    25
100
AcDbLine
 10
-327.7827770238476
 20
551.9344934917935
 30
0.0
 11
-335.4384487583894
 21
544.2788217572518
 31
0.0
  0
LINE
  5
427
330
1F
100
AcDbEntity
  8
ZUWAKU
  6
Continuous
 62
    56
370
    25
100
AcDbLine
 10
-328.9141478737461
 20
551.9344934917935
 30
0.0
 11
-336.3292665704567
 21
544.519374795083
 31
0.0
  0
LINE
  5
428
330
1F
100
AcDbEntity
  8
ZUWAKU
  6
Continuous
 62
    56
370
    25
100
AcDbLine
 10
-330.0455187236446
 20
551.9344934917935
 30
0.0
 11
-337.2114333511414
 21
544.7685788642968
 31
0.0
  0
LINE
  5
429
330
1F
100
AcDbEntity
  8
ZUWAKU
  6
Continuous
 62
    56
370
    25
100
AcDbLine
 10
-331.1768895735432
 20
551.9344934917935
 30
0.0
 11
-338.0848218731955
 21
545.0265611921412
 31
0.0
  0
LINE
  5
42A
330
1F
100
AcDbEntity
  8
ZUWAKU
  6
Continuous
 62
    56
370
    25
100
AcDbLine
 10
-332.3082604234418
 20
551.9344934917935
 30
0.0
 11
-338.9492897080097
 21
545.2934642072256
 31
0.0
  0
LINE
  5
42B
330
1F
100
AcDbEntity
  8
ZUWAKU
  6
Continuous
 62
    56
370
    25
100
AcDbLine
 10
-333.4396312733403
 20
551.9344934917935
 30
0.0
 11
-339.8046781215721
 21
545.5694466435617
 31
0.0
  0
LINE
  5
42C
330
1F
100
AcDbEntity
  8
ZUWAKU
  6
Continuous
 62
    56
370
    25
100
AcDbLine
 10
-334.5710021232388
 20
551.9344934917935
 30
0.0
 11
-340.6508107995842
 21
545.8546848154481
 31
0.0
  0
LINE
  5
42D
330
1F
100
AcDbEntity
  8
ZUWAKU
  6
Continuous
 62
    56
370
    25
100
AcDbLine
 10
-335.7023729731372
 20
551.9344934917935
 30
0.0
 11
-341.4874923758779
 21
546.1493740890529
 31
0.0
  0
LINE
  5
42E
330
1F
100
AcDbEntity
  8
ZUWAKU
  6
Continuous
 62
    56
370
    25
100
AcDbLine
 10
-336.8337438230358
 20
551.9344934917935
 30
0.0
 11
-342.3145067328243
 21
546.453730582005
 31
0.0
  0
LINE
  5
42F
330
1F
100
AcDbEntity
  8
ZUWAKU
  6
Continuous
 62
    56
370
    25
100
AcDbLine
 10
-337.9651146729344
 20
551.9344934917935
 30
0.0
 11
-343.1316150356927
 21
546.7679931290353
 31
0.0
  0
LINE
  5
430
330
1F
100
AcDbEntity
  8
ZUWAKU
  6
Continuous
 62
    56
370
    25
100
AcDbLine
 10
-339.0964855228329
 20
551.9344934917935
 30
0.0
 11
-343.9385534545238
 21
547.0924255601027
 31
0.0
  0
LINE
  5
431
330
1F
100
AcDbEntity
  8
ZUWAKU
  6
Continuous
 62
    56
370
    25
100
AcDbLine
 10
-340.2278563727315
 20
551.9344934917935
 30
0.0
 11
-344.7350305165621
 21
547.4273193479629
 31
0.0
  0
LINE
  5
432
330
1F
100
AcDbEntity
  8
ZUWAKU
  6
Continuous
 62
    56
370
    25
100
AcDbLine
 10
-341.35922722263
 20
551.9344934917935
 30
0.0
 11
-345.5207240189756
 21
547.7729966954479
 31
0.0
  0
LINE
  5
433
330
1F
100
AcDbEntity
  8
ZUWAKU
  6
Continuous
 62
    56
370
    25
100
AcDbLine
 10
-342.4905980725285
 20
551.9344934917935
 30
0.0
 11
-346.2952774146203
 21
548.1298141497017
 31
0.0
  0
LINE
  5
434
330
1F
100
AcDbEntity
  8
ZUWAKU
  6
Continuous
 62
    56
370
    25
100
AcDbLine
 10
-343.6219689224271
 20
551.9344934917935
 30
0.0
 11
-347.0582955617715
 21
548.4981668524491
 31
0.0
  0
LINE
  5
435
330
1F
100
AcDbEntity
  8
ZUWAKU
  6
Continuous
 62
    56
370
    25
100
AcDbLine
 10
-344.7533397723256
 20
551.9344934917935
 30
0.0
 11
-347.8093397003994
 21
548.8784935637198
 31
0.0
  0
LINE
  5
436
330
1F
100
AcDbEntity
  8
ZUWAKU
  6
Continuous
 62
    56
370
    25
100
AcDbLine
 10
-345.8847106222241
 20
551.9344934917935
 30
0.0
 11
-348.5479214804157
 21
549.2712826336019
 31
0.0
  0
LINE
  5
437
330
1F
100
AcDbEntity
  8
ZUWAKU
  6
Continuous
 62
    56
370
    25
100
AcDbLine
 10
-347.0160814721226
 20
551.9344934917935
 30
0.0
 11
-349.2734958180997
 21
549.6770791458165
 31
0.0
  0
LINE
  5
438
330
1F
100
AcDbEntity
  8
ZUWAKU
  6
Continuous
 62
    56
370
    25
100
AcDbLine
 10
-348.1474523220212
 20
551.9344934917935
 30
0.0
 11
-349.9854522909889
 21
550.0964935228258
 31
0.0
  0
LINE
  5
439
330
1F
100
AcDbEntity
  8
ZUWAKU
  6
Continuous
 62
    56
370
    25
100
AcDbLine
 10
-348.5833333333317
 20
552.6299833303815
 30
0.0
 11
-350.6831046921261
 21
550.5302119715872
 31
0.0
  0
LINE
  5
43A
330
1F
100
AcDbEntity
  8
ZUWAKU
  6
Continuous
 62
    56
370
    25
100
AcDbLine
 10
-348.5833333333317
 20
553.76135418028
 30
0.0
 11
-351.3656782417375
 21
550.9790092718742
 31
0.0
  0
LINE
  5
43B
330
1F
100
AcDbEntity
  8
ZUWAKU
  6
Continuous
 62
    56
370
    25
100
AcDbLine
 10
-348.5833333333317
 20
554.8927250301786
 30
0.0
 11
-352.0322937832459
 21
551.4437645802644
 31
0.0
  0
LINE
  5
43C
330
1F
100
AcDbEntity
  8
ZUWAKU
  6
Continuous
 62
    56
370
    25
100
AcDbLine
 10
-348.5833333333317
 20
556.0240958800771
 30
0.0
 11
-352.6819480481695
 21
551.9254811652393
 31
0.0
  0
LINE
  5
43D
330
1F
100
AcDbEntity
  8
ZUWAKU
  6
Continuous
 62
    56
370
    25
100
AcDbLine
 10
-348.5833333333317
 20
557.1554667299757
 30
0.0
 11
-353.3134887253698
 21
552.4253113379376
 31
0.0
  0
LINE
  5
43E
330
1F
100
AcDbEntity
  8
ZUWAKU
  6
Continuous
 62
    56
370
    25
100
AcDbLine
 10
-348.5833333333317
 20
558.2868375798743
 30
0.0
 11
-353.9255825575747
 21
552.9445883556313
 31
0.0
  0
LINE
  5
43F
330
1F
100
AcDbEntity
  8
ZUWAKU
  6
Continuous
 62
    56
370
    25
100
AcDbLine
 10
-348.5833333333317
 20
559.4182084297728
 30
0.0
 11
-354.5166739194711
 21
553.4848678436333
 31
0.0
  0
LINE
  5
440
330
1F
100
AcDbEntity
  8
ZUWAKU
  6
Continuous
 62
    56
370
    25
100
AcDbLine
 10
-348.5833333333317
 20
560.5495792796713
 30
0.0
 11
-355.0849301512931
 21
554.0479824617098
 31
0.0
  0
LINE
  5
441
330
1F
100
AcDbEntity
  8
ZUWAKU
  6
Continuous
 62
    56
370
    25
100
AcDbLine
 10
-348.579789971108
 20
561.6844934917935
 30
0.0
 11
-355.6281680600684
 21
554.6361154028331
 31
0.0
  0
LINE
  5
442
330
1F
100
AcDbEntity
  8
ZUWAKU
  6
Continuous
 62
    56
370
    25
100
AcDbLine
 10
-349.7111608210065
 20
561.6844934917935
 30
0.0
 11
-356.1437529736751
 21
555.251901339125
 31
0.0
  0
LINE
  5
443
330
1F
100
AcDbEntity
  8
ZUWAKU
  6
Continuous
 62
    56
370
    25
100
AcDbLine
 10
-350.842531670905
 20
561.6844934917935
 30
0.0
 11
-356.6284566370032
 21
555.8985685256953
 31
0.0
  0
LINE
  5
444
330
1F
100
AcDbEntity
  8
ZUWAKU
  6
Continuous
 62
    56
370
    25
100
AcDbLine
 10
-351.9739025208036
 20
561.6844934917935
 30
0.0
 11
-357.0782513078232
 21
556.5801447047738
 31
0.0
  0
LINE
  5
445
330
1F
100
AcDbEntity
  8
ZUWAKU
  6
Continuous
 62
    56
370
    25
100
AcDbLine
 10
-353.105273370702
 20
561.6844934917935
 30
0.0
 11
-357.4880009961261
 21
557.3017658663695
 31
0.0
  0
LINE
  5
446
330
1F
100
AcDbEntity
  8
ZUWAKU
  6
Continuous
 62
    56
370
    25
100
AcDbLine
 10
-354.2366442206005
 20
561.6844934917935
 30
0.0
 11
-357.8509788753259
 21
558.0701588370682
 31
0.0
  0
LINE
  5
447
330
1F
100
AcDbEntity
  8
ZUWAKU
  6
Continuous
 62
    56
370
    25
100
AcDbLine
 10
-355.3680150704991
 20
561.6844934917935
 30
0.0
 11
-358.1580734296317
 21
558.894435132661
 31
0.0
  0
LINE
  5
448
330
1F
100
AcDbEntity
  8
ZUWAKU
  6
Continuous
 62
    56
370
    25
100
AcDbLine
 10
-356.4993859203976
 20
561.6844934917935
 30
0.0
 11
-358.3963951385476
 21
559.7874842736435
 31
0.0
  0
LINE
  5
449
330
1F
100
AcDbEntity
  8
ZUWAKU
  6
Continuous
 62
    56
370
    25
100
AcDbLine
 10
-357.6307567702962
 20
561.6844934917935
 30
0.0
 11
-358.5466137383722
 21
560.7686365237176
 31
0.0
  0
LINE
  5
44A
330
1F
100
AcDbEntity
  8
ZUWAKU
  6
Continuous
 62
    56
370
    25
100
AcDbLine
 10
-290.4475389771964
 20
551.9344934917935
 30
0.0
 11
-301.3188125494776
 21
541.0632199195122
 31
0.0
  0
LINE
  5
44B
330
1F
100
AcDbEntity
  8
ZUWAKU
  6
Continuous
 62
    56
370
    25
100
AcDbLine
 10
-289.3161681272975
 20
551.9344934917935
 30
0.0
 11
-300.1232830550806
 21
541.1273785640104
 31
0.0
  0
LINE
  5
44C
330
1F
100
AcDbEntity
  8
ZUWAKU
  6
Continuous
 62
    56
370
    25
100
AcDbLine
 10
-288.184797277399
 20
551.9344934917935
 30
0.0
 11
-298.9152548626093
 21
541.2040359065833
 31
0.0
  0
LINE
  5
44D
330
1F
100
AcDbEntity
  8
ZUWAKU
  6
Continuous
 62
    56
370
    25
100
AcDbLine
 10
-287.0534264275005
 20
551.9344934917935
 30
0.0
 11
-297.6941785994072
 21
541.2937413198869
 31
0.0
  0
LINE
  5
44E
330
1F
100
AcDbEntity
  8
ZUWAKU
  6
Continuous
 62
    56
370
    25
100
AcDbLine
 10
-285.922055577602
 20
551.9344934917935
 30
0.0
 11
-296.459438885597
 21
541.3971101837984
 31
0.0
  0
LINE
  5
44F
330
1F
100
AcDbEntity
  8
ZUWAKU
  6
Continuous
 62
    56
370
    25
100
AcDbLine
 10
-284.7906847277035
 20
551.9344934917935
 30
0.0
 11
-295.2103437418685
 21
541.5148344776285
 31
0.0
  0
LINE
  5
450
330
1F
100
AcDbEntity
  8
ZUWAKU
  6
Continuous
 62
    56
370
    25
100
AcDbLine
 10
-283.6593138778049
 20
551.9344934917935
 30
0.0
 11
-293.9461116136906
 21
541.647695755908
 31
0.0
  0
LINE
  5
451
330
1F
100
AcDbEntity
  8
ZUWAKU
  6
Continuous
 62
    56
370
    25
100
AcDbLine
 10
-282.5279430279065
 20
551.9344934917935
 30
0.0
 11
-292.6658553244823
 21
541.7965811952178
 31
0.0
  0
LINE
  5
452
330
1F
100
AcDbEntity
  8
ZUWAKU
  6
Continuous
 62
    56
370
    25
100
AcDbLine
 10
-281.396572178008
 20
551.9344934917935
 30
0.0
 11
-291.3685620217776
 21
541.9625036480239
 31
0.0
  0
LINE
  5
453
330
1F
100
AcDbEntity
  8
ZUWAKU
  6
Continuous
 62
    56
370
    25
100
AcDbLine
 10
-280.2652013281093
 20
551.9344934917935
 30
0.0
 11
-290.053067822018
 21
542.1466269978848
 31
0.0
  0
LINE
  5
454
330
1F
100
AcDbEntity
  8
ZUWAKU
  6
Continuous
 62
    56
370
    25
100
AcDbLine
 10
-279.1338304782107
 20
551.9344934917935
 30
0.0
 11
-288.7180253326533
 21
542.350298637351
 31
0.0
  0
LINE
  5
455
330
1F
100
AcDbEntity
  8
ZUWAKU
  6
Continuous
 62
    56
370
    25
100
AcDbLine
 10
-278.0024596283123
 20
551.9344934917935
 30
0.0
 11
-287.3618614387266
 21
542.5750916813791
 31
0.0
  0
LINE
  5
456
330
1F
100
AcDbEntity
  8
ZUWAKU
  6
Continuous
 62
    56
370
    25
100
AcDbLine
 10
-276.8710887784137
 20
551.9344934917935
 30
0.0
 11
-285.982721523474
 21
542.8228607467332
 31
0.0
  0
LINE
  5
457
330
1F
100
AcDbEntity
  8
ZUWAKU
  6
Continuous
 62
    56
370
    25
100
AcDbLine
 10
-265.9897179285152
 20
561.6844934917935
 30
0.0
 11
-266.0833333333317
 21
561.5908780869771
 31
0.0
  0
LINE
  5
458
330
1F
100
AcDbEntity
  8
ZUWAKU
  6
Continuous
 62
    56
370
    25
100
AcDbLine
 10
-275.7397179285152
 20
551.9344934917935
 30
0.0
 11
-284.5783943680505
 21
543.0958170522582
 31
0.0
  0
LINE
  5
459
330
1F
100
AcDbEntity
  8
ZUWAKU
  6
Continuous
 62
    56
370
    25
100
AcDbLine
 10
-264.8583470786166
 20
561.6844934917935
 30
0.0
 11
-266.0833333333317
 21
560.4595072370785
 31
0.0
  0
LINE
  5
45A
330
1F
100
AcDbEntity
  8
ZUWAKU
  6
Continuous
 62
    56
370
    25
100
AcDbLine
 10
-274.6083470786166
 20
551.9344934917935
 30
0.0
 11
-283.1462088394464
 21
543.3966317309638
 31
0.0
  0
LINE
  5
45B
330
1F
100
AcDbEntity
  8
ZUWAKU
  6
Continuous
 62
    56
370
    25
100
AcDbLine
 10
-263.7269762287181
 20
561.6844934917935
 30
0.0
 11
-266.0833333333317
 21
559.3281363871799
 31
0.0
  0
LINE
  5
45C
330
1F
100
AcDbEntity
  8
ZUWAKU
  6
Continuous
 62
    56
370
    25
100
AcDbLine
 10
-273.4769762287181
 20
551.9344934917935
 30
0.0
 11
-281.6828881823046
 21
543.728581538207
 31
0.0
  0
LINE
  5
45D
330
1F
100
AcDbEntity
  8
ZUWAKU
  6
Continuous
 62
    56
370
    25
100
AcDbLine
 10
-262.5956053788196
 20
561.6844934917935
 30
0.0
 11
-266.0833333333317
 21
558.1967655372815
 31
0.0
  0
LINE
  5
45E
330
1F
100
AcDbEntity
  8
ZUWAKU
  6
Continuous
 62
    56
370
    25
100
AcDbLine
 10
-272.3456053788196
 20
551.9344934917935
 30
0.0
 11
-280.1843384239114
 21
544.0957604467018
 31
0.0
  0
LINE
  5
45F
330
1F
100
AcDbEntity
  8
ZUWAKU
  6
Continuous
 62
    56
370
    25
100
AcDbLine
 10
-261.4642345289212
 20
561.6844934917935
 30
0.0
 11
-266.0833333333317
 21
557.065394687383
 31
0.0
  0
LINE
  5
460
330
1F
100
AcDbEntity
  8
ZUWAKU
  6
Continuous
 62
    56
370
    25
100
AcDbLine
 10
-271.2142345289212
 20
551.9344934917935
 30
0.0
 11
-278.6453302368029
 21
544.5033977839119
 31
0.0
  0
LINE
  5
461
330
1F
100
AcDbEntity
  8
ZUWAKU
  6
Continuous
 62
    56
370
    25
100
AcDbLine
 10
-260.3328636790225
 20
561.6844934917935
 30
0.0
 11
-266.0833333333317
 21
555.9340238374843
 31
0.0
  0
LINE
  5
462
330
1F
100
AcDbEntity
  8
ZUWAKU
  6
Continuous
 62
    56
370
    25
100
AcDbLine
 10
-270.0828636790225
 20
551.9344934917935
 30
0.0
 11
-277.0590000813585
 21
544.9583570894575
 31
0.0
  0
LINE
  5
463
330
1F
100
AcDbEntity
  8
ZUWAKU
  6
Continuous
 62
    56
370
    25
100
AcDbLine
 10
-259.2014928291242
 20
561.6844934917935
 30
0.0
 11
-266.0833333333317
 21
554.8026529875859
 31
0.0
  0
LINE
  5
464
330
1F
100
AcDbEntity
  8
ZUWAKU
  6
Continuous
 62
    56
370
    25
100
AcDbLine
 10
-268.9514928291242
 20
551.9344934917935
 30
0.0
 11
-275.4160262638311
 21
545.4699600570865
 31
0.0
  0
LINE
  5
465
330
1F
100
AcDbEntity
  8
ZUWAKU
  6
Continuous
 62
    56
370
    25
100
AcDbLine
 10
-258.0701219792255
 20
561.6844934917935
 30
0.0
 11
-266.0833333333317
 21
553.6712821376873
 31
0.0
  0
LINE
  5
466
330
1F
100
AcDbEntity
  8
ZUWAKU
  6
Continuous
 62
    56
370
    25
100
AcDbLine
 10
-267.8201219792255
 20
551.9344934917935
 30
0.0
 11
-273.7031752492281
 21
546.0514402217909
 31
0.0
  0
LINE
  5
467
330
1F
100
AcDbEntity
  8
ZUWAKU
  6
Continuous
 62
    56
370
    25
100
AcDbLine
 10
-256.9387511293269
 20
561.6844934917935
 30
0.0
 11
-266.0833333333317
 21
552.5399112877888
 31
0.0
  0
LINE
  5
468
330
1F
100
AcDbEntity
  8
ZUWAKU
  6
Continuous
 62
    56
370
    25
100
AcDbLine
 10
-266.6887511293269
 20
551.9344934917935
 30
0.0
 11
-271.9005040190848
 21
546.7227406020356
 31
0.0
  0
LINE
  5
469
330
1F
100
AcDbEntity
  8
ZUWAKU
  6
Continuous
 62
    56
370
    25
100
AcDbLine
 10
-256.3430243541953
 20
561.1488494170263
 30
0.0
 11
-269.9752862876149
 21
547.516587483607
 31
0.0
  0
LINE
  5
46A
330
1F
100
AcDbEntity
  8
ZUWAKU
  6
Continuous
 62
    56
370
    25
100
AcDbLine
 10
-256.5063854718222
 20
559.854117449501
 30
0.0
 11
-267.8662102484176
 21
548.4942926729058
 31
0.0
  0
LINE
  5
46B
330
1F
100
AcDbEntity
  8
ZUWAKU
  6
Continuous
 62
    56
370
    25
100
AcDbLine
 10
-256.9998022734787
 20
558.229329797946
 30
0.0
 11
-265.4270785251907
 21
549.8020535462341
 31
0.0
  0
LINE
  5
46C
330
1F
100
AcDbEntity
  8
ZUWAKU
  6
Continuous
 62
    56
370
    25
100
AcDbLine
 10
-258.526037545119
 20
555.5717236764074
 30
0.0
 11
-261.9551283319801
 21
552.1426328895462
 31
0.0
  0
LINE
  5
46D
330
1F
100
AcDbEntity
  8
ZUWAKU
  6
Continuous
 62
    56
370
    25
100
AcDbLine
 10
-364.3333333333349
 20
-509.5655065082047
 30
0.0
 11
-364.3333333333349
 21
-329.5655065082029
 31
0.0
  0
LINE
  5
46E
330
1F
100
AcDbEntity
  8
ZUWAKU
  6
Continuous
 62
    56
370
    25
100
AcDbLine
 10
-364.3333333333349
 20
-509.5655065082047
 30
0.0
 11
373.4166666666651
 21
-509.5655065082079
 31
0.0
  0
LINE
  5
46F
330
1F
100
AcDbEntity
  8
ZUWAKU
  6
Continuous
 62
    56
370
    25
100
AcDbLine
 10
373.4166666666651
 20
-509.5655065082079
 30
0.0
 11
373.4166666666651
 21
-329.5655065082061
 31
0.0
  0
LINE
  5
470
330
1F
100
AcDbEntity
  8
ZUWAKU
  6
Continuous
 62
    56
370
    25
100
AcDbLine
 10
-364.3333333333349
 20
-329.5655065082029
 30
0.0
 11
373.4166666666651
 21
-329.5655065082061
 31
0.0
  0
LINE
  5
471
330
1F
100
AcDbEntity
  8
ZUWAKU
  6
Continuous
 62
     3
370
    25
100
AcDbLine
 10
124.9166666666687
 20
573.1844934917937
 30
0.0
 11
377.4166666666683
 21
573.1844934917937
 31
0.0
  0
LINE
  5
472
330
1F
100
AcDbEntity
  8
ZUWAKU
  6
Continuous
 62
     3
370
    25
100
AcDbLine
 10
124.9166666666687
 20
573.1844934917937
 30
0.0
 11
124.9166666666687
 21
533.5599449503528
 31
0.0
  0
LINE
  5
473
330
1F
100
AcDbEntity
  8
ZUWAKU
  6
Continuous
 62
     3
370
    25
100
AcDbLine
 10
377.4166666666683
 20
573.1844934917937
 30
0.0
 11
377.4166666666683
 21
533.5599449503528
 31
0.0
  0
LINE
  5
474
330
1F
100
AcDbEntity
  8
ZUWAKU
  6
Continuous
 62
     3
370
    25
100
AcDbLine
 10
123.9166666666647
 20
-564.5655065082063
 30
0.0
 11
123.9166666666651
 21
-516.3155065082063
 31
0.0
  0
LINE
  5
475
330
1F
100
AcDbEntity
  8
ZUWAKU
  6
Continuous
 62
     3
370
    25
100
AcDbLine
 10
103.9166666666647
 20
-564.5655065082063
 30
0.0
 11
103.9166666666651
 21
-516.3155065082063
 31
0.0
  0
LINE
  5
476
330
1F
100
AcDbEntity
  8
ZUWAKU
  6
Continuous
 62
     3
370
    25
100
AcDbLine
 10
-146.3333333333349
 20
-564.5655065082063
 30
0.0
 11
-146.3333333333349
 21
-516.3155065082063
 31
0.0
  0
LINE
  5
477
330
1F
100
AcDbEntity
  8
ZUWAKU
  6
Continuous
 62
     3
370
    25
100
AcDbLine
 10
-166.3333333333349
 20
-564.5655065082063
 30
0.0
 11
-166.3333333333349
 21
-516.3155065082063
 31
0.0
  0
LINE
  5
478
330
1F
100
AcDbEntity
  8
ZUWAKU
  6
Continuous
 62
     3
370
    25
100
AcDbLine
 10
-336.5833333333349
 20
-509.5655065082047
 30
0.0
 11
-336.5833333333349
 21
-329.565506508203
 31
0.0
  0
LINE
  5
479
330
1F
100
AcDbEntity
  8
ZUWAKU
  6
Continuous
 62
     3
370
    25
100
AcDbLine
 10
-150.3333333333349
 20
-509.5655065082063
 30
0.0
 11
-150.3333333333349
 21
-329.5655065082039
 31
0.0
  0
LINE
  5
47A
330
1F
100
AcDbEntity
  8
ZUWAKU
  6
Continuous
 62
     3
370
    25
100
AcDbLine
 10
62.16666666666492
 20
-509.5655065082063
 30
0.0
 11
62.16666666666492
 21
-329.5655065082048
 31
0.0
  0
LINE
  5
47B
330
1F
100
AcDbEntity
  8
ZUWAKU
  6
Continuous
 62
     3
370
    25
100
AcDbLine
 10
106.6666666666652
 20
-509.5655065082063
 30
0.0
 11
106.6666666666652
 21
-329.565506508205
 31
0.0
  0
LINE
  5
47C
330
1F
100
AcDbEntity
  8
ZUWAKU
  6
Continuous
 62
     3
370
    25
100
AcDbLine
 10
-364.3333333333349
 20
-489.5655065082047
 30
0.0
 11
373.4166666666651
 21
-489.5655065082079
 31
0.0
  0
LINE
  5
47D
330
1F
100
AcDbEntity
  8
ZUWAKU
  6
Continuous
 62
     3
370
    25
100
AcDbLine
 10
-364.3333333333349
 20
-469.5655065082047
 30
0.0
 11
373.4166666666651
 21
-469.5655065082079
 31
0.0
  0
LINE
  5
47E
330
1F
100
AcDbEntity
  8
ZUWAKU
  6
Continuous
 62
     3
370
    25
100
AcDbLine
 10
-364.3333333333349
 20
-449.5655065082047
 30
0.0
 11
373.4166666666651
 21
-449.5655065082079
 31
0.0
  0
LINE
  5
47F
330
1F
100
AcDbEntity
  8
ZUWAKU
  6
Continuous
 62
     3
370
    25
100
AcDbLine
 10
-364.3333333333349
 20
-429.5655065082047
 30
0.0
 11
373.4166666666651
 21
-429.5655065082079
 31
0.0
  0
LINE
  5
480
330
1F
100
AcDbEntity
  8
ZUWAKU
  6
Continuous
 62
     3
370
    25
100
AcDbLine
 10
-364.3333333333349
 20
-409.5655065082047
 30
0.0
 11
373.4166666666651
 21
-409.5655065082079
 31
0.0
  0
LINE
  5
481
330
1F
100
AcDbEntity
  8
ZUWAKU
  6
Continuous
 62
     3
370
    25
100
AcDbLine
 10
-364.3333333333349
 20
-389.5655065082047
 30
0.0
 11
373.4166666666651
 21
-389.5655065082079
 31
0.0
  0
LINE
  5
482
330
1F
100
AcDbEntity
  8
ZUWAKU
  6
Continuous
 62
     3
370
    25
100
AcDbLine
 10
-364.3333333333349
 20
-369.5655065082047
 30
0.0
 11
373.4166666666651
 21
-369.5655065082079
 31
0.0
  0
LINE
  5
483
330
1F
100
AcDbEntity
  8
ZUWAKU
  6
Continuous
 62
     3
370
    25
100
AcDbLine
 10
-364.3333333333349
 20
-349.5655065082029
 30
0.0
 11
373.4166666666651
 21
-349.5655065082061
 31
0.0
  0
TEXT
  5
485
330
1F
100
AcDbEntity
  8
ZUWAKU
 62
     4
100
AcDbText
 10
-156.3353120719757
 20
-519.7469428012504
 30
0.0
 40
9.995999999999999
  1
品 名
 50
-0.0000000000001965
 41
0.8
  7
dcStyle1
100
AcDbText
  0
TEXT
  5
486
330
1F
100
AcDbEntity
  8
ZUWAKU
 62
     4
100
AcDbText
 10
113.6736414328876
 20
-519.8173286768277
 30
0.0
 40
9.995999999999999
  1
品　番
 50
-0.0000000000001965
 41
0.8
  7
dcStyle1
100
AcDbText
  0
TEXT
  5
487
330
1F
100
AcDbEntity
  8
ZUWAKU
 62
     4
100
AcDbText
 10
397.9456339928722
 20
-224.3266424859816
 30
0.0
 40
16.0
  1
洗面台
 50
269.9999999999998
 41
0.9882352941176473
  7
dcStyle0
 72
     5
 11
397.9456339928721
 21
-262.7266424859816
 31
0.0
100
AcDbText
  0
TEXT
  5
488
330
1F
100
AcDbEntity
  8
ZUWAKU
 62
     4
100
AcDbText
 10
-357.4863186560533
 20
-487.4056401146497
 30
0.0
 40
16.0
  1
1
 41
1.527272727272729
  7
dcStyle0
 72
     5
 11
-344.6863186560533
 21
-487.4056401146498
 31
0.0
100
AcDbText
  0
TEXT
  5
489
330
1F
100
AcDbEntity
  8
ZUWAKU
 62
     4
100
AcDbText
 10
-357.4863186560533
 20
-467.4056401146497
 30
0.0
 40
16.0
  1
2
 41
0.9882352941176479
  7
dcStyle0
 72
     5
 11
-344.6863186560533
 21
-467.4056401146498
 31
0.0
100
AcDbText
  0
TEXT
  5
48A
330
1F
100
AcDbEntity
  8
ZUWAKU
 62
     4
100
AcDbText
 10
-357.4863186560533
 20
-447.4056401146497
 30
0.0
 40
16.0
  1
3
 41
0.9882352941176479
  7
dcStyle0
 72
     5
 11
-344.6863186560533
 21
-447.4056401146498
 31
0.0
100
AcDbText
  0
TEXT
  5
48B
330
1F
100
AcDbEntity
  8
ZUWAKU
 62
     4
100
AcDbText
 10
-357.4863186560533
 20
-427.4056401146497
 30
0.0
 40
16.0
  1
4
 41
0.9333333333333342
  7
dcStyle0
 72
     5
 11
-344.6863186560533
 21
-427.4056401146498
 31
0.0
100
AcDbText
  0
TEXT
  5
48C
330
1F
100
AcDbEntity
  8
ZUWAKU
 62
     4
100
AcDbText
 10
-357.4863186560533
 20
-407.4056401146497
 30
0.0
 40
16.0
  1
5
 41
0.9882352941176479
  7
dcStyle0
 72
     5
 11
-344.6863186560533
 21
-407.4056401146498
 31
0.0
100
AcDbText
  0
TEXT
  5
48D
330
1F
100
AcDbEntity
  8
ZUWAKU
 62
     4
100
AcDbText
 10
-357.4863186560533
 20
-387.4056401146497
 30
0.0
 40
16.0
  1
6
 41
0.9882352941176479
  7
dcStyle0
 72
     5
 11
-344.6863186560533
 21
-387.4056401146498
 31
0.0
100
AcDbText
  0
TEXT
  5
48E
330
1F
100
AcDbEntity
  8
ZUWAKU
 62
     4
100
AcDbText
 10
-357.4863186560533
 20
-367.4056401146497
 30
0.0
 40
16.0
  1
7
 41
0.9882352941176479
  7
dcStyle0
 72
     5
 11
-344.6863186560533
 21
-367.4056401146498
 31
0.0
100
AcDbText
  0
TEXT
  5
48F
330
1F
100
AcDbEntity
  8
ZUWAKU
 62
     4
100
AcDbText
 10
207.4050714637771
 20
-507.3267055322563
 30
0.0
 40
16.0
  1
摘要・仕上
 41
0.9655172413793109
  7
dcStyle0
 72
     5
 11
271.4050714637771
 21
-507.3267055322565
 31
0.0
100
AcDbText
  0
TEXT
  5
490
330
1F
100
AcDbEntity
  8
ZUWAKU
 62
     4
100
AcDbText
 10
64.86251184087703
 20
-507.3267055322563
 30
0.0
 40
16.0
  1
個　数
 41
0.9882352941176473
  7
dcStyle0
 72
     5
 11
103.262511840877
 21
-507.3267055322564
 31
0.0
100
AcDbText
  0
TEXT
  5
491
330
1F
100
AcDbEntity
  8
ZUWAKU
 62
     4
100
AcDbText
 10
-69.52112536575517
 20
-507.3267055322563
 30
0.0
 40
16.0
  1
材　　質
 41
0.9739130434782609
  7
dcStyle0
 72
     5
 11
-18.32112536575517
 21
-507.3267055322564
 31
0.0
100
AcDbText
  0
TEXT
  5
492
330
1F
100
AcDbEntity
  8
ZUWAKU
 62
     4
100
AcDbText
 10
-275.5908044028377
 20
-507.3267055322547
 30
0.0
 40
16.0
  1
部　品　名
 41
0.9655172413793105
  7
dcStyle0
 72
     5
 11
-211.5908044028377
 21
-507.3267055322549
 31
0.0
100
AcDbText
  0
TEXT
  5
493
330
1F
100
AcDbEntity
  8
ZUWAKU
 62
     4
100
AcDbText
 10
-363.7592575284215
 20
-507.3267055322547
 30
0.0
 40
16.0
  1
部番
 41
1.018181818181819
  7
dcStyle0
 72
     5
 11
-338.1592575284215
 21
-507.3267055322548
 31
0.0
100
AcDbText
  0
TEXT
  5
494
330
1F
100
AcDbEntity
  8
ZUWAKU
 62
     4
100
AcDbText
 10
-357.4863186560533
 20
-347.4056401146479
 30
0.0
 40
16.0
  1
8
 41
0.9882352941176479
  7
dcStyle0
 72
     5
 11
-344.6863186560533
 21
-347.405640114648
 31
0.0
100
AcDbText
  0
TEXT
  5
495
330
1F
100
AcDbEntity
  8
ZUWAKU
 62
     4
100
AcDbText
 10
296.6477274273096
 20
-586.5893180050193
 30
0.0
 40
16.0
  1
120501
 41
0.9081081081081083
  7
dcStyle0
 72
     5
 11
373.4477274273096
 21
-586.5893180050195
 31
0.0
100
AcDbText
  0
POINT
  5
496
330
1F
100
AcDbEntity
  8
ZUWAKU
  6
Continuous
 62
     9
100
AcDbPoint
 10
251.1666666666683
 20
553.3722192210732
 30
0.0
  0
POINT
  5
497
330
1F
100
AcDbEntity
  8
ZUWAKU
  6
Continuous
 62
     9
100
AcDbPoint
 10
-58.00613044447963
 20
546.6192216191548
 30
0.0
  0
POINT
  5
498
330
1F
100
AcDbEntity
  8
ZUWAKU
  6
Continuous
 62
     9
100
AcDbPoint
 10
248.6666666666651
 20
-540.4405065082063
 30
0.0
  0
POINT
  5
499
330
1F
100
AcDbEntity
  8
ZUWAKU
  6
Continuous
 62
     9
100
AcDbPoint
 10
11.71252997601736
 20
-540.8625688583262
 30
0.0
  0
LINE
  5
49A
330
1F
100
AcDbEntity
  8
ZUWAKU
  6
Continuous
 62
     9
370
    25
100
AcDbLine
 10
-420.0833333333317
 20
613.916666666667
 30
0.0
 11
-420.0833333333317
 21
593.9166666666667
 31
0.0
  0
LINE
  5
49B
330
1F
100
AcDbEntity
  8
ZUWAKU
  6
Continuous
 62
     9
370
    25
100
AcDbLine
 10
-420.0833333333318
 20
593.9166666666667
 30
0.0
 11
-440.0833333333318
 21
593.9166666666667
 31
0.0
  0
LINE
  5
49C
330
1F
100
AcDbEntity
  8
ZUWAKU
  6
Continuous
 62
     9
370
    25
100
AcDbLine
 10
419.9166666666682
 20
593.9166666666667
 30
0.0
 11
439.9166666666682
 21
593.9166666666667
 31
0.0
  0
LINE
  5
49D
330
1F
100
AcDbEntity
  8
ZUWAKU
  6
Continuous
 62
     9
370
    25
100
AcDbLine
 10
419.9166666666682
 20
593.9166666666667
 30
0.0
 11
419.9166666666682
 21
613.9166666666667
 31
0.0
  0
LINE
  5
49E
330
1F
100
AcDbEntity
  8
ZUWAKU
  6
Continuous
 62
     9
370
    25
100
AcDbLine
 10
419.9166666666652
 20
-614.0833333333333
 30
0.0
 11
419.916666666665
 21
-594.0833333333333
 31
0.0
  0
LINE
  5
49F
330
1F
100
AcDbEntity
  8
ZUWAKU
  6
Continuous
 62
     9
370
    25
100
AcDbLine
 10
419.916666666665
 20
-594.0833333333333
 30
0.0
 11
439.916666666665
 21
-594.0833333333333
 31
0.0
  0
LINE
  5
4A0
330
1F
100
AcDbEntity
  8
ZUWAKU
  6
Continuous
 62
     9
370
    25
100
AcDbLine
 10
-440.1758257093211
 20
-594.0833333333333
 30
0.0
 11
-420.083333333335
 21
-594.0833333333333
 31
0.0
  0
LINE
  5
4A1
330
1F
100
AcDbEntity
  8
ZUWAKU
  6
Continuous
 62
     9
370
    25
100
AcDbLine
 10
-420.083333333335
 20
-594.2213759359392
 30
0.0
 11
-420.083333333335
 21
-614.0831194611995
 31
0.0
  0
POINT
  5
4A2
330
1F
100
AcDbEntity
  8
ZUWAKU
  6
Continuous
 62
     9
100
AcDbPoint
 10
84.41666666666515
 20
-479.5655065082063
 30
0.0
  0
POINT
  5
4A3
330
1F
100
AcDbEntity
  8
ZUWAKU
  6
Continuous
 62
     9
100
AcDbPoint
 10
-332.5833333333349
 20
-479.5655065082047
 30
0.0
  0
POINT
  5
4A4
330
1F
100
AcDbEntity
  8
ZUWAKU
  6
Continuous
 62
     9
100
AcDbPoint
 10
-146.3333333333349
 20
-479.5655065082063
 30
0.0
  0
POINT
  5
4A5
330
1F
100
AcDbEntity
  8
ZUWAKU
  6
Continuous
 62
     9
100
AcDbPoint
 10
110.6666666666652
 20
-479.5655065082063
 30
0.0
  0
POINT
  5
4A6
330
1F
100
AcDbEntity
  8
ZUWAKU
  6
Continuous
 62
     9
100
AcDbPoint
 10
84.41666666666515
 20
-459.5655065082063
 30
0.0
  0
POINT
  5
4A7
330
1F
100
AcDbEntity
  8
ZUWAKU
  6
Continuous
 62
     9
100
AcDbPoint
 10
-332.5833333333349
 20
-459.5655065082047
 30
0.0
  0
POINT
  5
4A8
330
1F
100
AcDbEntity
  8
ZUWAKU
  6
Continuous
 62
     9
100
AcDbPoint
 10
-146.3333333333349
 20
-459.5655065082063
 30
0.0
  0
POINT
  5
4A9
330
1F
100
AcDbEntity
  8
ZUWAKU
  6
Continuous
 62
     9
100
AcDbPoint
 10
110.6666666666652
 20
-459.5655065082063
 30
0.0
  0
POINT
  5
4AA
330
1F
100
AcDbEntity
  8
ZUWAKU
  6
Continuous
 62
     9
100
AcDbPoint
 10
84.41666666666515
 20
-439.5655065082063
 30
0.0
  0
POINT
  5
4AB
330
1F
100
AcDbEntity
  8
ZUWAKU
  6
Continuous
 62
     9
100
AcDbPoint
 10
-332.5833333333349
 20
-439.5655065082047
 30
0.0
  0
POINT
  5
4AC
330
1F
100
AcDbEntity
  8
ZUWAKU
  6
Continuous
 62
     9
100
AcDbPoint
 10
-146.3333333333349
 20
-439.5655065082063
 30
0.0
  0
POINT
  5
4AD
330
1F
100
AcDbEntity
  8
ZUWAKU
  6
Continuous
 62
     9
100
AcDbPoint
 10
110.6666666666652
 20
-439.5655065082063
 30
0.0
  0
POINT
  5
4AE
330
1F
100
AcDbEntity
  8
ZUWAKU
  6
Continuous
 62
     9
100
AcDbPoint
 10
84.41666666666515
 20
-419.5655065082063
 30
0.0
  0
POINT
  5
4AF
330
1F
100
AcDbEntity
  8
ZUWAKU
  6
Continuous
 62
     9
100
AcDbPoint
 10
-332.5833333333349
 20
-419.5655065082047
 30
0.0
  0
POINT
  5
4B0
330
1F
100
AcDbEntity
  8
ZUWAKU
  6
Continuous
 62
     9
100
AcDbPoint
 10
-146.3333333333349
 20
-419.5655065082063
 30
0.0
  0
POINT
  5
4B1
330
1F
100
AcDbEntity
  8
ZUWAKU
  6
Continuous
 62
     9
100
AcDbPoint
 10
110.6666666666652
 20
-419.5655065082063
 30
0.0
  0
POINT
  5
4B2
330
1F
100
AcDbEntity
  8
ZUWAKU
  6
Continuous
 62
     9
100
AcDbPoint
 10
84.41666666666555
 20
-399.5655065082063
 30
0.0
  0
POINT
  5
4B3
330
1F
100
AcDbEntity
  8
ZUWAKU
  6
Continuous
 62
     9
100
AcDbPoint
 10
-332.5833333333349
 20
-399.5655065082047
 30
0.0
  0
POINT
  5
4B4
330
1F
100
AcDbEntity
  8
ZUWAKU
  6
Continuous
 62
     9
100
AcDbPoint
 10
-146.3333333333349
 20
-399.5655065082063
 30
0.0
  0
POINT
  5
4B5
330
1F
100
AcDbEntity
  8
ZUWAKU
  6
Continuous
 62
     9
100
AcDbPoint
 10
110.6666666666655
 20
-399.5655065082063
 30
0.0
  0
POINT
  5
4B6
330
1F
100
AcDbEntity
  8
ZUWAKU
  6
Continuous
 62
     9
100
AcDbPoint
 10
84.41666666666555
 20
-379.5655065082063
 30
0.0
  0
POINT
  5
4B7
330
1F
100
AcDbEntity
  8
ZUWAKU
  6
Continuous
 62
     9
100
AcDbPoint
 10
-332.5833333333349
 20
-379.5655065082047
 30
0.0
  0
POINT
  5
4B8
330
1F
100
AcDbEntity
  8
ZUWAKU
  6
Continuous
 62
     9
100
AcDbPoint
 10
-146.3333333333349
 20
-379.5655065082063
 30
0.0
  0
POINT
  5
4B9
330
1F
100
AcDbEntity
  8
ZUWAKU
  6
Continuous
 62
     9
100
AcDbPoint
 10
110.6666666666655
 20
-379.5655065082063
 30
0.0
  0
POINT
  5
4BA
330
1F
100
AcDbEntity
  8
ZUWAKU
  6
Continuous
 62
     9
100
AcDbPoint
 10
84.41666666666555
 20
-359.5655065082063
 30
0.0
  0
POINT
  5
4BB
330
1F
100
AcDbEntity
  8
ZUWAKU
  6
Continuous
 62
     9
100
AcDbPoint
 10
-332.5833333333349
 20
-359.5655065082047
 30
0.0
  0
POINT
  5
4BC
330
1F
100
AcDbEntity
  8
ZUWAKU
  6
Continuous
 62
     9
100
AcDbPoint
 10
-146.3333333333349
 20
-359.5655065082063
 30
0.0
  0
POINT
  5
4BD
330
1F
100
AcDbEntity
  8
ZUWAKU
  6
Continuous
 62
     9
100
AcDbPoint
 10
110.6666666666655
 20
-359.5655065082063
 30
0.0
  0
POINT
  5
4BE
330
1F
100
AcDbEntity
  8
ZUWAKU
  6
Continuous
 62
     9
100
AcDbPoint
 10
84.41666666666526
 20
-339.5655065082045
 30
0.0
  0
POINT
  5
4BF
330
1F
100
AcDbEntity
  8
ZUWAKU
  6
Continuous
 62
     9
100
AcDbPoint
 10
-332.5833333333349
 20
-339.5655065082029
 30
0.0
  0
POINT
  5
4C0
330
1F
100
AcDbEntity
  8
ZUWAKU
  6
Continuous
 62
     9
100
AcDbPoint
 10
-146.3333333333347
 20
-339.5655065082045
 30
0.0
  0
POINT
  5
4C1
330
1F
100
AcDbEntity
  8
ZUWAKU
  6
Continuous
 62
     9
100
AcDbPoint
 10
110.6666666666653
 20
-339.5655065082045
 30
0.0
  0
LINE
  5
4C2
330
1F
100
AcDbEntity
  8
ZUWAKU
  6
Continuous
 62
     9
370
    25
100
AcDbLine
 10
104.7680237659538
 20
432.5888279319139
 30
0.0
 11
104.7680237659538
 21
288.5888279319139
 31
0.0
  0
POINT
  5
4C3
330
1F
100
AcDbEntity
  8
ZUWAKU
  6
Continuous
 62
     9
100
AcDbPoint
 10
205.907739976891
 20
348.5888279319139
 30
0.0
  0
POINT
  5
4C4
330
1F
100
AcDbEntity
  8
ZUWAKU
  6
Continuous
 62
     9
100
AcDbPoint
 10
205.907739976891
 20
372.5888279319139
 30
0.0
  0
POINT
  5
4C5
330
1F
100
AcDbEntity
  8
ZUWAKU
  6
Continuous
 62
     9
100
AcDbPoint
 10
205.907739976891
 20
396.5888279319139
 30
0.0
  0
POINT
  5
4C6
330
1F
100
AcDbEntity
  8
ZUWAKU
  6
Continuous
 62
     9
100
AcDbPoint
 10
205.907739976891
 20
300.5888279319139
 30
0.0
  0
POINT
  5
4C7
330
1F
100
AcDbEntity
  8
ZUWAKU
  6
Continuous
 62
     9
100
AcDbPoint
 10
205.907739976891
 20
324.5888279319139
 30
0.0
  0
LINE
  5
4C8
330
1F
100
AcDbEntity
  8
ZUWAKU
  6
Continuous
 62
     9
370
    25
100
AcDbLine
 10
104.7680237659538
 20
408.5888279319139
 30
0.0
 11
377.6100555480601
 21
408.5888279319139
 31
0.0
  0
LINE
  5
4C9
330
1F
100
AcDbEntity
  8
ZUWAKU
  6
Continuous
 62
     9
370
    25
100
AcDbLine
 10
104.7680237659538
 20
384.5888279319139
 30
0.0
 11
377.6100555480601
 21
384.5888279319139
 31
0.0
  0
LINE
  5
4CA
330
1F
100
AcDbEntity
  8
ZUWAKU
  6
Continuous
 62
     9
370
    25
100
AcDbLine
 10
104.7680237659538
 20
360.5888279319139
 30
0.0
 11
377.6100555480601
 21
360.5888279319139
 31
0.0
  0
LINE
  5
4CB
330
1F
100
AcDbEntity
  8
ZUWAKU
  6
Continuous
 62
     9
370
    25
100
AcDbLine
 10
104.7680237659538
 20
336.5888279319139
 30
0.0
 11
377.6100555480601
 21
336.5888279319139
 31
0.0
  0
LINE
  5
4CC
330
1F
100
AcDbEntity
  8
ZUWAKU
  6
Continuous
 62
     9
370
    25
100
AcDbLine
 10
104.7680237659538
 20
312.5888279319139
 30
0.0
 11
377.6100555480601
 21
312.5888279319139
 31
0.0
  0
LINE
  5
4CD
330
1F
100
AcDbEntity
  8
ZUWAKU
  6
Continuous
 62
     9
370
    25
100
AcDbLine
 10
104.7680237659538
 20
288.5888279319139
 30
0.0
 11
377.6100555480601
 21
288.5888279319139
 31
0.0
  0
LINE
  5
4CE
330
1F
100
AcDbEntity
  8
ZUWAKU
  6
Continuous
 62
     9
370
    25
100
AcDbLine
 10
203.907739976891
 20
432.5888279319139
 30
0.0
 11
203.907739976891
 21
288.5888279319139
 31
0.0
  0
LINE
  5
4CF
330
1F
100
AcDbEntity
  8
ZUWAKU
  6
Continuous
 62
     9
370
    25
100
AcDbLine
 10
377.6100555480601
 20
432.5888279319139
 30
0.0
 11
377.6100555480601
 21
288.5888279319139
 31
0.0
  0
POINT
  5
4D0
330
1F
100
AcDbEntity
  8
ZUWAKU
  6
Continuous
 62
     9
100
AcDbPoint
 10
-25.0852671351271
 20
-552.0618335367205
 30
0.0
  0
LINE
  5
4D1
330
1F
100
AcDbEntity
  8
ZUWAKU
  6
Continuous
 62
     9
370
    25
100
AcDbLine
 10
104.7680237659538
 20
432.5888279319139
 30
0.0
 11
377.6100555480601
 21
432.5888279319139
 31
0.0
  0
TEXT
  5
4D2
330
1F
100
AcDbEntity
  8
Layer0240
 62
     7
100
AcDbText
 10
216.6666666666322
 20
-548.4405065082062
 30
0.0
 40
15.99999999999999
  1
CB1-xx
 41
0.8470588235294118
  7
dcStyle0
 72
     5
 11
293.4666666666321
 21
-548.4405065082065
 31
0.0
100
AcDbText
  0
TEXT
  5
4D3
330
1F
100
AcDbEntity
  8
Layer0240
 62
     7
100
AcDbText
 10
216.6666666666353
 20
544.9567808460973
 30
0.0
 40
15.99999999999999
  1
CB1-xx
 41
0.8470588235294118
  7
dcStyle0
 72
     5
 11
293.4666666666353
 21
544.9567808460971
 31
0.0
100
AcDbText
  0
TEXT
  5
4D4
330
1F
100
AcDbEntity
  8
Layer0240
 62
     7
100
AcDbText
 10
237.6067062068924
 20
-252.9535206318787
 30
0.0
 40
16.0
  1
重量　1.4ｋｇ
 41
0.9810218978102191
  7
dcStyle0
 72
     5
 11
340.0067062068924
 21
-252.953520631879
 31
0.0
100
AcDbText
  0
TEXT
  5
4D5
330
1F
100
AcDbEntity
  8
Layer0240
 62
     7
100
AcDbText
 10
237.6067062068924
 20
-272.9535206318785
 30
0.0
 40
16.0
  1
容量　3Ｌ
 41
0.9438202247191015
  7
dcStyle0
 72
     5
 11
301.6067062068925
 21
-272.9535206318787
 31
0.0
100
AcDbText
  0
TEXT
  5
4D6
330
1F
100
AcDbEntity
  8
Layer0240
 62
     7
100
AcDbText
 10
-332.583333333335
 20
-487.5655065082046
 30
0.0
 40
16.0
  1
手洗器本体
 41
0.9655172413793105
  7
dcStyle0
 72
     5
 11
-268.583333333335
 21
-487.5655065082049
 31
0.0
100
AcDbText
  0
TEXT
  5
4D7
330
1F
100
AcDbEntity
  8
Layer0240
 62
     7
100
AcDbText
 10
-146.3333333333349
 20
-487.5655065082063
 30
0.0
 40
16.0
  1
ガラス
 41
0.9882352941176473
  7
dcStyle0
 72
     5
 11
-107.9333333333349
 21
-487.5655065082065
 31
0.0
100
AcDbText
  0
TEXT
  5
4D8
330
1F
100
AcDbEntity
  8
Layer0240
 62
     7
100
AcDbText
 10
78.01666666666509
 20
-487.5655065082063
 30
0.0
 40
16.0
  1
１
 41
1.120000000000001
  7
dcStyle0
 72
     5
 11
90.8166666666651
 21
-487.5655065082063
 31
0.0
100
AcDbText
  0
TEXT
  5
4D9
330
1F
100
AcDbEntity
  8
Layer0240
 62
     7
100
AcDbText
 10
78.01666666666512
 20
-467.5655065082063
 30
0.0
 40
16.0
  1
1
 41
1.527272727272729
  7
dcStyle0
 72
     5
 11
90.81666666666513
 21
-467.5655065082063
 31
0.0
100
AcDbText
  0
TEXT
  5
4DA
330
1F
100
AcDbEntity
  8
Layer0240
 62
     7
100
AcDbText
 10
-97.00837374560754
 20
540.4284554784605
 30
0.0
 40
16.0
  1
置き型手洗器
 41
0.9600000000000002
  7
dcStyle0
 72
     5
 11
-20.20837374560754
 21
540.4284554784603
 31
0.0
100
AcDbText
  0
TEXT
  5
4DB
330
1F
100
AcDbEntity
  8
Layer0240
 62
     7
100
AcDbText
 10
110.6666666666655
 20
-487.5655065082062
 30
0.0
 40
16.0
  1
別表参照
 41
0.9739130434782612
  7
dcStyle0
 72
     5
 11
161.8666666666656
 21
-487.5655065082064
 31
0.0
100
AcDbText
  0
TEXT
  5
4DC
330
1F
100
AcDbEntity
  8
Layer0240
 62
     7
100
AcDbText
 10
-112.11999364962
 20
-317.2841055699718
 30
0.0
 40
16.0
  1
※本製品は一品一品職人が製作しているため、寸法、色調等にばらつきがあります。
 41
0.9374449339207046
  7
dcStyle0
 72
     5
 11
374.2800063503801
 21
-317.2841055699735
 31
0.0
100
AcDbText
  0
TEXT
  5
4DD
330
1F
100
AcDbEntity
  8
Layer0240
 62
     7
100
AcDbText
 10
-332.583333333335
 20
-467.5655065082046
 30
0.0
 40
16.0
  1
取付リング
 41
0.9655172413793105
  7
dcStyle0
 72
     5
 11
-268.583333333335
 21
-467.5655065082049
 31
0.0
100
AcDbText
  0
TEXT
  5
4DE
330
1F
100
AcDbEntity
  8
Layer0240
 62
     7
100
AcDbText
 10
-146.3333333333349
 20
-467.5655065082063
 30
0.0
 40
16.0
  1
ABS
 41
0.9
  7
dcStyle0
 72
     5
 11
-107.9333333333349
 21
-467.5655065082065
 31
0.0
100
AcDbText
  0
TEXT
  5
4DF
330
1F
100
AcDbEntity
  8
Layer0240
 62
     7
100
AcDbText
 10
110.6666666666655
 20
-467.5655065082062
 30
0.0
 40
16.0
  1
黒
 41
1.12
  7
dcStyle0
 72
     5
 11
123.4666666666655
 21
-467.5655065082063
 31
0.0
100
AcDbText
  0
TEXT
  5
4E0
330
1F
100
AcDbEntity
  8
Layer0240
 62
     7
100
AcDbText
 10
-139.0174460431344
 20
561.161411957022
 30
0.0
 40
16.0
  1
MoonGlassシリーズ
 41
0.9413793103448275
  7
dcStyle0
 72
     5
 11
27.38255395686553
 21
561.1614119570214
 31
0.0
100
AcDbText
  0
TEXT
  5
4E1
330
1F
100
AcDbEntity
  8
Layer0240
 62
     7
100
AcDbText
 10
-64.087510436255
 20
-558.2525996774149
 30
0.0
 40
16.0
  1
置き型手洗器
 41
0.9599999999999997
  7
dcStyle0
 72
     5
 11
12.71248956374499
 21
-558.2525996774151
 31
0.0
100
AcDbText
  0
TEXT
  5
4E2
330
1F
100
AcDbEntity
  8
Layer0240
 62
     7
100
AcDbText
 10
-106.0965827337819
 20
-537.5196431988534
 30
0.0
 40
16.0
  1
MoonGlassシリーズ
 41
0.9413793103448275
  7
dcStyle0
 72
     5
 11
60.30341726621806
 21
-537.5196431988539
 31
0.0
100
AcDbText
  0
LINE
  5
4E3
330
1F
100
AcDbEntity
  8
0
  6
CENTER
 62
     9
370
    25
100
AcDbLine
 10
-112.8574234703706
 20
-133.9294482551335
 30
0.0
 11
-112.8574234703705
 21
18.28051262794828
 31
0.0
  0
LINE
  5
4E4
330
1F
100
AcDbEntity
  8
0
  6
CENTER
 62
     9
370
    25
100
AcDbLine
 10
-112.8574234703705
 20
101.5544282232672
 30
0.0
 11
-112.8574234703705
 21
394.9711336556868
 31
0.0
  0
LINE
  5
4E5
330
1F
100
AcDbEntity
  8
0
  6
CENTER
 62
     9
370
    25
100
AcDbLine
 10
50.09660144443914
 20
243.6106510010864
 30
0.0
 11
-274.247289958276
 21
243.6106510010864
 31
0.0
  0
LINE
  5
4E6
330
1F
100
AcDbEntity
  8
0
  6
CENTER
 62
     9
370
    25
100
AcDbLine
 10
-112.8574234703706
 20
-109.9885320253839
 30
0.0
 11
-112.8574234703706
 21
-133.9294482551335
 31
0.0
  0
LINE
  5
4E7
330
1F
100
AcDbEntity
  8
0
  6
CENTER
 62
     9
370
    25
100
AcDbLine
 10
232.8460834010679
 20
-36.43832502093833
 30
0.0
 11
232.8460834010679
 21
-60.37924125068796
 31
0.0
  0
LINE
  5
4E8
330
1F
100
AcDbEntity
  8
0
  6
CENTER
 62
     9
370
    25
100
AcDbLine
 10
180.2849948899496
 20
78.80968943181588
 30
0.0
 11
284.4374112468269
 21
78.80968943181591
 31
0.0
  0
LINE
  5
4E9
330
1F
100
AcDbEntity
  8
0
  6
CENTER
 62
     9
370
    25
100
AcDbLine
 10
232.8460834010679
 20
131.7140736002981
 30
0.0
 11
232.8460834010679
 21
26.82559776386689
 31
0.0
  0
CIRCLE
  5
4EA
330
1F
100
AcDbEntity
  8
0
  6
Continuous
 62
     9
370
    25
100
AcDbCircle
 10
-112.8574234703705
 20
243.6106510010864
 30
0.0
 40
126.8708658327409
  0
LINE
  5
4EB
330
1F
100
AcDbEntity
  8
0
  6
Continuous
 62
     3
370
    25
100
AcDbLine
 10
-142.8574234703705
 20
-106.5629324180294
 30
0.0
 11
-82.85742347037056
 21
-106.5629324180294
 31
0.0
  0
LINE
  5
4EC
330
1F
100
AcDbEntity
  8
0
  6
Continuous
 62
     3
370
    25
100
AcDbLine
 10
-243.7360998383729
 20
3.437067581970609
 30
0.0
 11
18.02125289763185
 21
3.437067581970609
 31
0.0
  0
LINE
  5
4ED
330
1F
100
AcDbEntity
  8
0
  6
Continuous
 62
     3
370
    25
100
AcDbLine
 10
-142.8574234703705
 20
-106.5629324180294
 30
0.0
 11
-145.5118940433001
 21
-96.65631337265961
 31
0.0
  0
ARC
  5
4EE
330
1F
100
AcDbEntity
  8
0
  6
Continuous
 62
     3
370
    25
100
AcDbCircle
 10
-177.8574234703705
 20
3.437067581970609
 30
0.0
 40
70.0
100
AcDbArc
 50
183.4746007930722
 51
209.8070488841832
  0
ARC
  5
4EF
330
1F
100
AcDbEntity
  8
0
  6
Continuous
 62
     3
370
    25
100
AcDbCircle
 10
-143.1492512317519
 20
23.32029618937702
 30
0.0
 40
110.0
100
AcDbArc
 50
209.8070488841832
 51
262.2522371232465
  0
ARC
  5
4F0
330
1F
100
AcDbEntity
  8
0
  6
Continuous
 62
     3
370
    25
100
AcDbCircle
 10
-160.0007814376362
 20
-100.5385990491974
 30
0.0
 40
15.0
100
AcDbArc
 50
14.99999999999998
 51
82.25223712324647
  0
LINE
  5
4F1
330
1F
100
AcDbEntity
  8
0
  6
Continuous
 62
     3
370
    25
100
AcDbLine
 10
-82.85742347037056
 20
-106.5629324180294
 30
0.0
 11
-80.20295289744095
 21
-96.65631337265961
 31
0.0
  0
ARC
  5
4F2
330
1F
100
AcDbEntity
  8
0
  6
Continuous
 62
     3
370
    25
100
AcDbCircle
 10
-47.85742347037058
 20
3.437067581970609
 30
0.0
 40
70.0
100
AcDbArc
 50
330.1929511158168
 51
356.5253992069278
  0
ARC
  5
4F3
330
1F
100
AcDbEntity
  8
0
  6
Continuous
 62
     3
370
    25
100
AcDbCircle
 10
-82.56559570898918
 20
23.32029618937702
 30
0.0
 40
110.0
100
AcDbArc
 50
277.7477628767535
 51
330.1929511158168
  0
ARC
  5
4F4
330
1F
100
AcDbEntity
  8
0
  6
Continuous
 62
     3
370
    25
100
AcDbCircle
 10
-65.71406550310493
 20
-100.5385990491974
 30
0.0
 40
15.0
100
AcDbArc
 50
97.74776287675354
 51
165.0
  0
ARC
  5
4F5
330
1F
100
AcDbEntity
  8
0
  6
Continuous
 62
     3
370
    25
100
AcDbCircle
 10
-243.7360998383729
 20
-0.5629324180293906
 30
0.0
 40
4.0
100
AcDbArc
 50
90.0
 51
183.4746007930723
  0
ARC
  5
4F6
330
1F
100
AcDbEntity
  8
0
  6
Continuous
 62
     3
370
    25
100
AcDbCircle
 10
18.02125289763185
 20
-0.5629324180293906
 30
0.0
 40
4.0
100
AcDbArc
 50
356.5253992069277
 51
90.0
  0
CIRCLE
  5
4F7
330
1F
100
AcDbEntity
  8
0
  6
Continuous
 62
     3
370
    25
100
AcDbCircle
 10
-112.8574234703705
 20
243.6106510010864
 30
0.0
 40
134.8713234206086
  0
CIRCLE
  5
4F8
330
1F
100
AcDbEntity
  8
0
  6
Continuous
 62
     3
370
    25
100
AcDbCircle
 10
-112.8574234703705
 20
243.6106510010864
 30
0.0
 40
20.0
  0
LINE
  5
4F9
330
1F
100
AcDbEntity
  8
0
  6
Continuous
 62
     3
370
    25
100
AcDbLine
 10
277.8460834010678
 20
-43.40043142095323
 30
0.0
 11
277.8460834010678
 21
-48.40043142095323
 31
0.0
  0
LINE
  5
4FA
330
1F
100
AcDbEntity
  8
0
  6
Continuous
 62
     3
370
    25
100
AcDbLine
 10
277.8460834010678
 20
-43.40043142095323
 30
0.0
 11
187.8460834010678
 21
-43.40043142095323
 31
0.0
  0
LINE
  5
4FB
330
1F
100
AcDbEntity
  8
0
  6
Continuous
 62
     3
370
    25
100
AcDbLine
 10
187.8460834010678
 20
-43.40043142095323
 30
0.0
 11
187.8460834010678
 21
-48.40043142095323
 31
0.0
  0
LINE
  5
4FC
330
1F
100
AcDbEntity
  8
0
  6
Continuous
 62
     3
370
    25
100
AcDbLine
 10
187.8460834010678
 20
-48.40043142095323
 30
0.0
 11
232.8460834010679
 21
-48.40043142095323
 31
0.0
  0
LINE
  5
4FD
330
1F
100
AcDbEntity
  8
0
  6
Continuous
 62
     3
370
    25
100
AcDbLine
 10
232.8460834010679
 20
-48.40043142095323
 30
0.0
 11
277.8460834010678
 21
-48.40043142095323
 31
0.0
  0
CIRCLE
  5
4FE
330
1F
100
AcDbEntity
  8
0
  6
Continuous
 62
     3
370
    25
100
AcDbCircle
 10
232.8460834010679
 20
78.80968943181591
 30
0.0
 40
44.99999999999996
  0
CIRCLE
  5
4FF
330
1F
100
AcDbEntity
  8
0
  6
Continuous
 62
     3
370
    25
100
AcDbCircle
 10
232.8460834010679
 20
78.80968943181591
 30
0.0
 40
37.0
  0
LINE
  5
500
330
1F
100
AcDbEntity
  8
0
  6
Continuous
 62
     3
370
    25
100
AcDbLine
 10
193.8460834010678
 20
-55.40043142095323
 30
0.0
 11
271.8460834010678
 21
-55.40043142095323
 31
0.0
  0
LINE
  5
501
330
1F
100
AcDbEntity
  8
0
  6
Continuous
 62
     3
370
    25
100
AcDbLine
 10
271.8460834010678
 20
-48.40043142095323
 30
0.0
 11
271.8460834010678
 21
-55.40043142095323
 31
0.0
  0
LINE
  5
502
330
1F
100
AcDbEntity
  8
0
  6
Continuous
 62
     3
370
    25
100
AcDbLine
 10
193.8460834010678
 20
-48.40043142095323
 30
0.0
 11
193.8460834010678
 21
-55.40043142095323
 31
0.0
  0
CIRCLE
  5
503
330
1F
100
AcDbEntity
  8
0
  6
Continuous
 62
     3
370
    25
100
AcDbCircle
 10
232.8460834010679
 20
78.80968943181588
 30
0.0
 40
41.00000000000003
  0
CIRCLE
  5
504
330
1F
100
AcDbEntity
  8
0
  6
Continuous
 62
     3
370
    25
100
AcDbCircle
 10
232.8460834010679
 20
78.80968943181588
 30
0.0
 40
38.93782217350891
  0
LINE
  5
505
330
1F
100
AcDbEntity
  8
0
  6
Continuous
 62
     3
370
    25
100
AcDbLine
 10
195.8460834010678
 20
-55.40043142095323
 30
0.0
 11
195.8460834010678
 21
-55.38571126618435
 31
0.0
  0
LINE
  5
506
330
1F
100
AcDbEntity
  8
0
  6
Continuous
 62
     3
370
    25
100
AcDbLine
 10
187.8460834010678
 20
-43.40043142095323
 30
0.0
 11
187.9641898998475
 21
-43.46862023981672
 31
0.0
  0
LINE
  5
507
330
1F
100
AcDbEntity
  8
0
  6
DASHED2
 62
     2
370
    25
100
AcDbLine
 10
-92.85742347037058
 20
-106.5629324180294
 30
0.0
 11
-92.85742347037058
 21
-100.1257191486275
 31
0.0
  0
LINE
  5
508
330
1F
100
AcDbEntity
  8
0
  6
DASHED2
 62
     2
370
    25
100
AcDbLine
 10
-132.8574234703706
 20
-106.5629324180294
 30
0.0
 11
-132.8574234703705
 21
-100.1257191486275
 31
0.0
  0
ARC
  5
509
330
1F
100
AcDbEntity
  8
0
  6
DASHED2
 62
     2
370
    25
100
AcDbCircle
 10
-177.8574234703705
 20
3.437067581970609
 30
0.0
 40
62.0
100
AcDbArc
 50
183.6986035042666
 51
209.8070488841832
  0
ARC
  5
50A
330
1F
100
AcDbEntity
  8
0
  6
DASHED2
 62
     2
370
    25
100
AcDbCircle
 10
-143.1492512317519
 20
23.32029618937702
 30
0.0
 40
102.0
100
AcDbArc
 50
209.8070488841832
 51
264.5820189823812
  0
ARC
  5
50B
330
1F
100
AcDbEntity
  8
0
  6
DASHED2
 62
     2
370
    25
100
AcDbCircle
 10
-47.85742347037058
 20
3.437067581970609
 30
0.0
 40
62.0
100
AcDbArc
 50
330.1929511158168
 51
356.3013964957335
  0
ARC
  5
50C
330
1F
100
AcDbEntity
  8
0
  6
DASHED2
 62
     2
370
    25
100
AcDbCircle
 10
-82.56559570898918
 20
23.32029618937702
 30
0.0
 40
102.0
100
AcDbArc
 50
275.4179810176188
 51
330.1929511158168
  0
ARC
  5
50D
330
1F
100
AcDbEntity
  8
0
  6
DASHED2
 62
     2
370
    25
100
AcDbCircle
 10
-154.8574234703705
 20
-100.1257191486275
 30
0.0
 40
22.0
100
AcDbArc
 50
359.9999999999999
 51
84.5820189823812
  0
ARC
  5
50E
330
1F
100
AcDbEntity
  8
0
  6
DASHED2
 62
     2
370
    25
100
AcDbCircle
 10
-70.85742347037056
 20
-100.1257191486275
 30
0.0
 40
22.0
100
AcDbArc
 50
95.41798101761881
 51
180.0000000000001
  0
ARC
  5
50F
330
1F
100
AcDbEntity
  8
0
  6
DASHED2
 62
     2
370
    25
100
AcDbCircle
 10
-243.7360998383729
 20
-0.5629324180293906
 30
0.0
 40
4.0
100
AcDbArc
 50
0.0
 51
90.0
  0
ARC
  5
510
330
1F
100
AcDbEntity
  8
0
  6
DASHED2
 62
     2
370
    25
100
AcDbCircle
 10
18.02125289763185
 20
-0.5629324180293906
 30
0.0
 40
4.0
100
AcDbArc
 50
90.00000000000001
 51
180.0
  0
LINE
  5
511
330
1F
100
AcDbEntity
  8
0
  6
DASHED2
 62
     6
370
    25
100
AcDbLine
 10
-67.85742347037062
 20
-85.69252156643591
 30
0.0
 11
-67.85742347037062
 21
-90.69252156643591
 31
0.0
  0
LINE
  5
512
330
1F
100
AcDbEntity
  8
0
  6
DASHED2
 62
     6
370
    25
100
AcDbLine
 10
-67.85742347037062
 20
-85.69252156643591
 30
0.0
 11
-157.8574234703706
 21
-85.69252156643591
 31
0.0
  0
LINE
  5
513
330
1F
100
AcDbEntity
  8
0
  6
DASHED2
 62
     6
370
    25
100
AcDbLine
 10
-157.8574234703706
 20
-85.69252156643591
 30
0.0
 11
-157.8574234703706
 21
-90.69252156643591
 31
0.0
  0
LINE
  5
514
330
1F
100
AcDbEntity
  8
0
  6
DASHED2
 62
     6
370
    25
100
AcDbLine
 10
-157.8574234703706
 20
-90.69252156643591
 30
0.0
 11
-112.8574234703706
 21
-90.69252156643591
 31
0.0
  0
LINE
  5
515
330
1F
100
AcDbEntity
  8
0
  6
DASHED2
 62
     6
370
    25
100
AcDbLine
 10
-112.8574234703706
 20
-90.69252156643591
 30
0.0
 11
-67.85742347037062
 21
-90.69252156643591
 31
0.0
  0
LINE
  5
516
330
1F
100
AcDbEntity
  8
0
  6
DASHED2
 62
     6
370
    25
100
AcDbLine
 10
-151.8574234703706
 20
-97.69252156643591
 30
0.0
 11
-73.85742347037062
 21
-97.69252156643591
 31
0.0
  0
LINE
  5
517
330
1F
100
AcDbEntity
  8
0
  6
DASHED2
 62
     6
370
    25
100
AcDbLine
 10
-73.85742347037062
 20
-90.69252156643591
 30
0.0
 11
-73.85742347037062
 21
-97.69252156643591
 31
0.0
  0
LINE
  5
518
330
1F
100
AcDbEntity
  8
0
  6
DASHED2
 62
     6
370
    25
100
AcDbLine
 10
-151.8574234703706
 20
-90.69252156643591
 30
0.0
 11
-151.8574234703706
 21
-97.69252156643591
 31
0.0
  0
LINE
  5
519
330
1F
100
AcDbEntity
  8
0
  6
DASHED2
 62
     6
370
    25
100
AcDbLine
 10
-157.8574234703706
 20
-90.69252156643591
 30
0.0
 11
-247.8697518051079
 21
-90.69252156643591
 31
0.0
  0
LINE
  5
51A
330
1F
100
AcDbEntity
  8
0
  6
DASHED2
 62
     6
370
    25
100
AcDbLine
 10
-67.85742347037062
 20
-90.69252156643591
 30
0.0
 11
42.13341634004549
 21
-90.69252156643591
 31
0.0
  0
LINE
  5
51B
330
1F
100
AcDbEntity
  8
0
  6
DASHED2
 62
     6
370
    25
100
AcDbLine
 10
-72.85742347037059
 20
-90.69252156643591
 30
0.0
 11
-72.85742347037059
 21
-125.6925215664359
 31
0.0
  0
LINE
  5
51C
330
1F
100
AcDbEntity
  8
0
  6
DASHED2
 62
     6
370
    25
100
AcDbLine
 10
-152.8574234703706
 20
-90.69252156643591
 30
0.0
 11
-152.8574234703706
 21
-125.6925215664359
 31
0.0
  0
LINE
  5
51D
330
1F
100
AcDbEntity
  8
0
  6
DIVIDE
 62
     6
370
    25
100
AcDbLine
 10
-247.8697518051079
 20
-125.6925215664359
 30
0.0
 11
42.1334163400455
 21
-125.6925215664359
 31
0.0
  0
CIRCLE
  5
51E
330
1F
100
AcDbEntity
  8
Layer0016
  6
DASHED2
 62
     2
370
    25
100
AcDbCircle
 10
-112.8574234703705
 20
243.6106510010864
 30
0.0
 40
40.0
  0
INSERT
  5
51F
330
1F
100
AcDbEntity
  8
0
  6
Continuous
100
AcDbBlockReference
  2
DC_GROUP_CB1-XX_1
 10
0.0
 20
0.0
 30
0.0
  0
DIMENSION
  5
520
330
1F
100
AcDbEntity
  8
0
  6
Continuous
370
    25
100
AcDbDimension
  2
*D2
 10
-279.8582581325533
 20
3.437067581970609
 30
0.0
 11
-279.8582581325533
 21
-43.62772699223265
 31
0.0
 70
   160
  1
(95)
 71
     8
 42
-1.0
  3
dc_Rotated
100
AcDbAlignedDimension
 13
-245.8697518051079
 23
-90.69252156643591
 33
0.0
 14
-241.7360998383729
 24
3.437067581970609
 34
0.0
 50
90.0
100
AcDbRotatedDimension
1001
ACAD
1000
DSTYLE
1002
{
1070
   274
1070
     4
1070
    41
1040
12.00000762939453
1070
    79
1070
     2
1070
   343
1005
C4
1070
   344
1005
C4
1070
   176
1070
     9
1070
   177
1070
     9
1070
   178
1070
     9
1070
   271
1070
     2
1070
    44
1040
2.0
1070
    42
1040
4.0
1070
   147
1040
2.0
1070
   173
1070
     1
1070
    77
1070
     3
1070
    73
1070
     0
1070
   172
1070
     1
1070
    74
1070
     0
1070
   283
1070
     0
1070
   340
1005
484
1070
   140
1040
16.0
1070
   284
1070
     8
1070
   288
1070
     1
1070
    78
1070
     8
1070
    90
1070
     1
1002
}
  0
DIMENSION
  5
522
330
1F
100
AcDbEntity
  8
0
  6
Continuous
370
    25
100
AcDbDimension
  2
*D3
 10
80.35851239102604
 20
3.437067581970606
 30
0.0
 11
80.35851239102604
 21
-51.56293241802939
 31
0.0
 70
   160
 71
     8
 42
-1.0
  3
dc_Rotated
100
AcDbAlignedDimension
 13
-84.85742347037056
 23
-106.5629324180294
 33
0.0
 14
16.02125289763185
 24
3.43706758197061
 34
0.0
 50
90.0
100
AcDbRotatedDimension
1001
ACAD
1000
DSTYLE
1002
{
1070
   274
1070
     4
1070
    41
1040
12.00000762939453
1070
    79
1070
     2
1070
   343
1005
C4
1070
   344
1005
C4
1070
   176
1070
     9
1070
   177
1070
     9
1070
   178
1070
     7
1070
   271
1070
     2
1070
    44
1040
4.0
1070
    42
1040
4.0
1070
   147
1040
2.0
1070
   173
1070
     1
1070
    77
1070
     3
1070
    73
1070
     0
1070
   172
1070
     1
1070
    74
1070
     0
1070
   283
1070
     0
1070
   340
1005
484
1070
   140
1040
16.0
1070
   284
1070
     8
1070
   288
1070
     1
1070
    78
1070
     8
1070
    90
1070
     1
1002
}
  0
DIMENSION
  5
523
330
1F
100
AcDbEntity
  8
0
  6
Continuous
370
    25
100
AcDbDimension
  2
*D4
 10
-72.85742347037059
 20
-183.3798948805361
 30
0.0
 11
-112.8574234703706
 21
-183.3798948805361
 31
0.0
 70
   160
  1
φ<>
 71
     8
 42
-1.0
  3
dc_Rotated
100
AcDbAlignedDimension
 13
-152.8574234703706
 23
-123.6925215664359
 33
0.0
 14
-72.85742347037059
 24
-123.6925215664359
 34
0.0
100
AcDbRotatedDimension
1001
ACAD
1000
DSTYLE
1002
{
1070
   274
1070
     4
1070
    41
1040
12.00000762939453
1070
    79
1070
     2
1070
   343
1005
C4
1070
   344
1005
C4
1070
   176
1070
     9
1070
   177
1070
     9
1070
   178
1070
     7
1070
   271
1070
     2
1070
    44
1040
4.0
1070
    42
1040
4.0
1070
   147
1040
2.0
1070
   173
1070
     1
1070
    77
1070
     3
1070
    73
1070
     0
1070
   174
1070
     1
1070
   172
1070
     1
1070
    74
1070
     0
1070
   283
1070
     0
1070
   340
1005
484
1070
   140
1040
16.0
1070
   284
1070
     8
1070
   288
1070
     1
1070
    78
1070
     8
1070
    90
1070
     1
1002
}
  0
DIMENSION
  5
524
330
1F
100
AcDbEntity
  8
0
  6
Continuous
370
    25
100
AcDbDimension
  2
*D5
 10
22.01389995023806
 20
64.44024648918761
 30
0.0
 11
-112.8574234703705
 21
64.44024648918761
 31
0.0
 70
   160
  1
φ270
 71
     8
 42
-1.0
  3
dc_Rotated
100
AcDbAlignedDimension
 13
-247.7287468909792
 23
245.6106510010864
 33
0.0
 14
22.01389995023806
 24
245.6106510010864
 34
0.0
100
AcDbRotatedDimension
1001
ACAD
1000
DSTYLE
1002
{
1070
   274
1070
     4
1070
    41
1040
12.00000762939453
1070
    79
1070
     2
1070
   343
1005
C4
1070
   344
1005
C4
1070
   176
1070
     9
1070
   177
1070
     9
1070
   178
1070
     9
1070
   271
1070
     2
1070
    44
1040
4.0
1070
    42
1040
4.0
1070
   147
1040
2.0
1070
   173
1070
     1
1070
    77
1070
     3
1070
    73
1070
     0
1070
   174
1070
     1
1070
   172
1070
     1
1070
    74
1070
     0
1070
   283
1070
     0
1070
   340
1005
484
1070
   140
1040
16.0
1070
   284
1070
     8
1070
   288
1070
     1
1070
    78
1070
     8
1070
    90
1070
     1
1002
}
  0
DIMENSION
  5
525
330
1F
100
AcDbEntity
  8
0
  6
Continuous
370
    13
100
AcDbDimension
  2
*D6
 10
-127.7183650950527
 20
230.2258680731571
 30
0.0
 11
20.62334051975339
 21
344.7384052810585
 31
0.0
 70
   163
  1
φ40
 71
     8
 42
-1.0
  3
dc_Diam06
100
AcDbDiametricDimension
 15
-97.99648184568835
 25
256.9954339290157
 35
0.0
 40
0.0
1001
ACAD
1000
DSTYLE
1002
{
1070
   274
1070
     4
1070
    41
1040
12.00000762939453
1070
    79
1070
     2
1070
   343
1005
C4
1070
   344
1005
C4
1070
   176
1070
     9
1070
   177
1070
     9
1070
   178
1070
     7
1070
   271
1070
     2
1070
    44
1040
4.0
1070
    42
1040
4.0
1070
   147
1040
2.0
1070
   173
1070
     1
1070
    77
1070
     2
1070
   283
1070
     0
1070
   340
1005
484
1070
   140
1040
16.0
1070
   284
1070
     8
1070
   288
1070
     1
1070
    78
1070
     8
1070
    90
1070
     1
1002
}
  0
DIMENSION
  5
527
330
1F
100
AcDbEntity
  8
0
  6
Continuous
370
    25
100
AcDbDimension
  2
*D10
 10
271.8460834010678
 20
-93.6030671919914
 30
0.0
 11
232.8460834010678
 21
-93.6030671919914
 31
0.0
 70
   160
  1
φ<>
 71
     8
 42
-1.0
  3
dc_Rotated
100
AcDbAlignedDimension
 13
193.8460834010678
 23
-52.27564292329891
 33
0.0
 14
271.8460834010678
 24
-52.27564292329891
 34
0.0
100
AcDbRotatedDimension
1001
ACAD
1000
DSTYLE
1002
{
1070
   274
1070
     4
1070
    41
1040
12.00000762939453
1070
    79
1070
     2
1070
   343
1005
C4
1070
   344
1005
C4
1070
   176
1070
     9
1070
   177
1070
     9
1070
   178
1070
     7
1070
   271
1070
     2
1070
    44
1040
4.0
1070
    42
1040
4.0
1070
   147
1040
1.0
1070
   173
1070
     1
1070
    77
1070
     3
1070
    73
1070
     0
1070
   172
1070
     1
1070
    74
1070
     0
1070
   283
1070
     0
1070
   340
1005
484
1070
   140
1040
16.0
1070
   284
1070
     8
1070
   288
1070
     1
1070
    78
1070
     8
1070
    90
1070
     1
1002
}
  0
DIMENSION
  5
528
330
1F
100
AcDbEntity
  8
0
  6
Continuous
370
    25
100
AcDbDimension
  2
*D11
 10
277.8460834010678
 20
-120.0838876108348
 30
0.0
 11
232.8460834010678
 21
-120.0838876108348
 31
0.0
 70
   160
  1
φ<>
 71
     8
 42
-1.0
  3
dc_Rotated
100
AcDbAlignedDimension
 13
187.8460834010678
 23
-45.40043142095323
 33
0.0
 14
277.8460834010678
 24
-45.40043142095323
 34
0.0
100
AcDbRotatedDimension
1001
ACAD
1000
DSTYLE
1002
{
1070
   274
1070
     4
1070
    41
1040
12.00000762939453
1070
    79
1070
     2
1070
   343
1005
C4
1070
   344
1005
C4
1070
   176
1070
     9
1070
   177
1070
     9
1070
   178
1070
     7
1070
   271
1070
     2
1070
    44
1040
4.0
1070
    42
1040
4.0
1070
   147
1040
1.0
1070
   173
1070
     1
1070
    77
1070
     3
1070
    73
1070
     0
1070
   172
1070
     1
1070
    74
1070
     0
1070
   283
1070
     0
1070
   340
1005
484
1070
   140
1040
16.0
1070
   284
1070
     8
1070
   288
1070
     1
1070
    78
1070
     8
1070
    90
1070
     1
1002
}
  0
DIMENSION
  5
529
330
1F
100
AcDbEntity
  8
0
  6
Continuous
370
    25
100
AcDbDimension
  2
*D12
 10
315.5514643948686
 20
-43.40043142095323
 30
0.0
 11
315.5514643948686
 21
-83.79155142095324
 31
0.0
 70
   160
 71
     8
 42
-1.0
  3
dc_Rotated
100
AcDbAlignedDimension
 13
268.8460834010678
 23
-55.40043142095323
 33
0.0
 14
274.8460834010678
 24
-43.40043142095323
 34
0.0
 50
90.0
100
AcDbRotatedDimension
1001
ACAD
1000
DSTYLE
1002
{
1070
   274
1070
     4
1070
    41
1040
12.00000762939453
1070
    79
1070
     2
1070
   343
1005
C4
1070
   344
1005
C4
1070
   176
1070
     9
1070
   177
1070
     9
1070
   178
1070
     7
1070
   271
1070
     2
1070
    44
1040
4.0
1070
    42
1040
4.0
1070
   147
1040
4.0
1070
   173
1070
     1
1070
    77
1070
     3
1070
    73
1070
     0
1070
   172
1070
     1
1070
    74
1070
     0
1070
   283
1070
     0
1070
   340
1005
484
1070
   140
1040
16.0
1070
   284
1070
     8
1070
   288
1070
     1
1070
    78
1070
     8
1070
    90
1070
     1
1002
}
  0
DIMENSION
  5
52A
330
1F
100
AcDbEntity
  8
0
  6
Continuous
370
    13
100
AcDbDimension
  2
*D17
 10
-279.8582581325533
 20
-90.69252156643591
 30
0.0
 11
-279.8582581325533
 21
-173.2836415664359
 31
0.0
 70
   160
  1
max<>
 71
     8
 42
-1.0
  3
dc_Rotated
100
AcDbAlignedDimension
 13
-247.8697518051079
 23
-125.6925215664359
 33
0.0
 14
-247.8697518051079
 24
-90.69252156643591
 34
0.0
 50
90.0
100
AcDbRotatedDimension
1001
ACAD
1000
DSTYLE
1002
{
1070
   274
1070
     4
1070
    41
1040
12.00000762939453
1070
    79
1070
     2
1070
   343
1005
C4
1070
   344
1005
C4
1070
   176
1070
     9
1070
   177
1070
     9
1070
   178
1070
     9
1070
   271
1070
     2
1070
    44
1040
4.0
1070
    42
1040
4.0
1070
   147
1040
4.0
1070
   173
1070
     1
1070
    77
1070
     3
1070
    73
1070
     0
1070
   172
1070
     1
1070
    74
1070
     0
1070
   283
1070
     0
1070
   340
1005
484
1070
   140
1040
16.0
1070
   284
1070
     8
1070
   288
1070
     1
1070
    78
1070
     8
1070
    90
1070
     1
1002
}
  0
INSERT
  5
52B
330
1F
100
AcDbEntity
  8
Layer0016
  6
Continuous
100
AcDbBlockReference
  2
DC_GROUP_CB1-XX_2
 10
0.0
 20
0.0
 30
0.0
  0
INSERT
  5
52C
330
1F
100
AcDbEntity
  8
Layer0016
  6
Continuous
100
AcDbBlockReference
  2
DC_GROUP_CB1-XX_3
 10
0.0
 20
0.0
 30
0.0
  0
INSERT
  5
52D
330
1F
100
AcDbEntity
  8
Layer0016
  6
Continuous
100
AcDbBlockReference
  2
DC_GROUP_CB1-XX_4
 10
0.0
 20
0.0
 30
0.0
  0
DIMENSION
  5
52E
330
1F
100
AcDbEntity
  8
Layer0016
  6
Continuous
370
    25
100
AcDbDimension
  2
*D13
 10
269.8460834010679
 20
-3.256738704172847
 30
0.0
 11
232.8460834010679
 21
-3.256738704172847
 31
0.0
 70
   160
  1
φ<>
 71
     8
 42
-1.0
  3
dc_Rotated
100
AcDbAlignedDimension
 13
195.8460834010679
 23
80.80968943181591
 33
0.0
 14
269.8460834010679
 24
80.80968943181591
 34
0.0
100
AcDbRotatedDimension
1001
ACAD
1000
DSTYLE
1002
{
1070
   274
1070
     4
1070
    41
1040
12.00000762939453
1070
    79
1070
     2
1070
   343
1005
C4
1070
   344
1005
C4
1070
   176
1070
     9
1070
   177
1070
     9
1070
   178
1070
     7
1070
   271
1070
     2
1070
    44
1040
4.0
1070
    42
1040
4.0
1070
   147
1040
2.0
1070
   173
1070
     1
1070
    77
1070
     3
1070
    73
1070
     0
1070
   172
1070
     1
1070
    74
1070
     0
1070
   283
1070
     0
1070
   340
1005
484
1070
   140
1040
16.0
1070
   284
1070
     8
1070
   288
1070
     1
1070
    78
1070
     8
1070
    90
1070
     1
1002
}
  0
TEXT
  5
52F
330
1F
100
AcDbEntity
  8
ZUWAKU
 62
     9
100
AcDbText
 10
143.1864418577198
 20
289.5888645471972
 30
0.0
 40
20.0
  1
品番
 41
1.018181818181818
  7
dcStyle0
 72
     5
 11
175.1864418577198
 21
289.5888645471972
 31
0.0
100
AcDbText
  0
TEXT
  5
530
330
1F
100
AcDbEntity
  8
ZUWAKU
 62
     9
100
AcDbText
 10
105.8195655474473
 20
313.5888645471972
 30
0.0
 40
20.0
  1
CB1-OP
 41
0.7875000000000001
  7
dcStyle0
 72
     5
 11
201.8195655474473
 21
313.5888645471972
 31
0.0
100
AcDbText
  0
TEXT
  5
531
330
1F
100
AcDbEntity
  8
ZUWAKU
 62
     9
100
AcDbText
 10
105.8195655474473
 20
337.5888645471972
 30
0.0
 40
20.0
  1
CB1-DS
 41
0.8
  7
dcStyle0
 72
     5
 11
201.8195655474473
 21
337.5888645471972
 31
0.0
100
AcDbText
  0
TEXT
  5
532
330
1F
100
AcDbEntity
  8
ZUWAKU
 62
     9
100
AcDbText
 10
105.8195655474473
 20
361.5888645471972
 30
0.0
 40
20.0
  1
CB1-OW
 41
0.7636363636363637
  7
dcStyle0
 72
     5
 11
201.8195655474473
 21
361.5888645471972
 31
0.0
100
AcDbText
  0
TEXT
  5
533
330
1F
100
AcDbEntity
  8
ZUWAKU
 62
     9
100
AcDbText
 10
105.8195655474473
 20
385.5888645471972
 30
0.0
 40
20.0
  1
CB1-OG
 41
0.7875000000000001
  7
dcStyle0
 72
     5
 11
201.8195655474473
 21
385.5888645471972
 31
0.0
100
AcDbText
  0
TEXT
  5
534
330
1F
100
AcDbEntity
  8
ZUWAKU
 62
     9
100
AcDbText
 10
105.8195655474473
 20
409.5888645471972
 30
0.0
 40
20.0
  1
CB1-SP
 41
0.8
  7
dcStyle0
 72
     5
 11
201.8195655474473
 21
409.5888645471972
 31
0.0
100
AcDbText
  0
TEXT
  5
535
330
1F
100
AcDbEntity
  8
Layer0240
 62
     9
100
AcDbText
 10
289.3924825811306
 20
292.5888279319139
 30
0.0
 40
16.0
  1
色
 41
1.120000000000001
  7
dcStyle0
 72
     5
 11
302.1924825811306
 21
292.5888279319139
 31
0.0
100
AcDbText
  0
TEXT
  5
536
330
1F
100
AcDbEntity
  8
Layer0240
 62
     9
100
AcDbText
 10
205.907739976891
 20
316.5888279319139
 30
0.0
 40
16.0
  1
オパール
 41
0.9739130434782607
  7
dcStyle0
 72
     5
 11
257.107739976891
 21
316.5888279319139
 31
0.0
100
AcDbText
  0
TEXT
  5
537
330
1F
100
AcDbEntity
  8
Layer0240
 62
     9
100
AcDbText
 10
205.907739976891
 20
340.5888279319139
 30
0.0
 40
16.0
  1
ダークスモーク
 41
0.95609756097561
  7
dcStyle0
 72
     5
 11
295.507739976891
 21
340.5888279319139
 31
0.0
100
AcDbText
  0
TEXT
  5
538
330
1F
100
AcDbEntity
  8
Layer0240
 62
     9
100
AcDbText
 10
205.907739976891
 20
364.5888279319139
 30
0.0
 40
16.0
  1
外側ホワイト（内側グレー）
 41
0.9454545454545454
  7
dcStyle0
 72
     5
 11
372.307739976891
 21
364.5888279319139
 31
0.0
100
AcDbText
  0
TEXT
  5
539
330
1F
100
AcDbEntity
  8
Layer0240
 62
     9
100
AcDbText
 10
205.907739976891
 20
388.5888279319139
 30
0.0
 40
16.0
  1
外側グレー（内側ホワイト）
 41
0.9454545454545454
  7
dcStyle0
 72
     5
 11
372.307739976891
 21
388.5888279319139
 31
0.0
100
AcDbText
  0
TEXT
  5
53A
330
1F
100
AcDbEntity
  8
Layer0240
 62
     9
100
AcDbText
 10
205.907739976891
 20
412.5888279319139
 30
0.0
 40
16.0
  1
スパイラル
 41
0.9655172413793105
  7
dcStyle0
 72
     5
 11
269.907739976891
 21
412.5888279319139
 31
0.0
100
AcDbText
  0
INSERT
  5
53B
330
1F
100
AcDbEntity
  8
Layer0240
  6
Continuous
100
AcDbBlockReference
  2
DC_GROUP_CB1-XX_5
 10
0.0
 20
0.0
 30
0.0
  0
INSERT
  5
53C
330
1F
100
AcDbEntity
  8
Layer0240
  6
Continuous
100
AcDbBlockReference
  2
DC_GROUP_CB1-XX_6
 10
0.0
 20
0.0
 30
0.0
  0
INSERT
  5
53D
330
1F
100
AcDbEntity
  8
Layer0240
  6
Continuous
100
AcDbBlockReference
  2
DC_GROUP_CB1-XX_7
 10
0.0
 20
0.0
 30
0.0
  0
POINT
  5
53E
330
1F
100
AcDbEntity
  8
0
  6
Continuous
 62
     5
100
AcDbPoint
 10
-594.5
 20
-420.5
 30
0.0
  0
POINT
  5
53F
330
1F
100
AcDbEntity
  8
0
  6
Continuous
 62
     5
100
AcDbPoint
 10
260.4882078614257
 20
420.9269820119919
 30
0.0
  0
VIEWPORT
  5
77
330
1B
100
AcDbEntity
 67
     1
  8
0
100
AcDbViewport
 10
-77.54166666666583
 20
-0.0833333333331439
 30
0.0
 40
3104.750000000005
 41
3684.000000000001
 68
     1
 69
     1
 12
-77.54166666666583
 22
-0.0833333333331439
 13
0.0
 23
0.0
 14
0.5
 24
0.5
 15
0.0
 25
0.0
 16
0.0
 26
0.0
 36
1.0
 17
0.0
 27
0.0
 37
0.0
 42
50.0
 43
0.0
 44
0.0
 45
3684.000000000001
 50
0.0
 51
0.0
 72
   100
 90
   557152
  1

281
     0
 71
     1
 74
     0
110
0.0
120
0.0
130
0.0
111
1.0
121
0.0
131
0.0
112
0.0
122
1.0
132
0.0
 79
     0
146
0.0
  0
ENDSEC
  0
SECTION
  2
OBJECTS
  0
DICTIONARY
  5
C
330
0
100
AcDbDictionary
281
     1
  3
ACAD_GROUP
350
D
  3
ACAD_LAYOUT
350
1A
  3
ACAD_MATERIAL
350
3B
  3
ACAD_MLEADERSTYLE
350
564
  3
ACAD_MLINESTYLE
350
17
  3
ACAD_PLOTSETTINGS
350
19
  3
ACAD_PLOTSTYLENAME
350
E
  3
ACAD_SCALELIST
350
540
  3
ACAD_VISUALSTYLE
350
2A
  3
AcDbVariableDictionary
350
562
  0
DICTIONARY
  5
D
102
{ACAD_REACTORS
330
C
102
}
330
C
100
AcDbDictionary
281
     1
  0
DICTIONARY
  5
1A
102
{ACAD_REACTORS
330
C
102
}
330
C
100
AcDbDictionary
281
     1
  3
Layout1
350
1E
  3
Layout2
350
26
  3
Model
350
22
  0
DICTIONARY
  5
3B
102
{ACAD_REACTORS
330
C
102
}
330
C
100
AcDbDictionary
281
     1
  3
ByBlock
350
3D
  3
ByLayer
350
3C
  3
Global
350
3E
  0
DICTIONARY
  5
564
102
{ACAD_REACTORS
330
C
102
}
330
C
100
AcDbDictionary
281
     1
  0
DICTIONARY
  5
17
102
{ACAD_REACTORS
330
C
102
}
330
C
100
AcDbDictionary
281
     1
  3
Standard
350
18
  0
DICTIONARY
  5
19
102
{ACAD_REACTORS
330
C
102
}
330
C
100
AcDbDictionary
281
     1
  0
ACDBDICTIONARYWDFLT
  5
E
102
{ACAD_REACTORS
330
C
102
}
330
C
100
AcDbDictionary
281
     1
  3
Normal
350
F
100
AcDbDictionaryWithDefault
340
F
  0
DICTIONARY
  5
540
102
{ACAD_REACTORS
330
C
102
}
330
C
100
AcDbDictionary
281
     1
  3
A0
350
541
  3
A1
350
542
  3
A2
350
543
  3
A3
350
544
  3
A4
350
545
  3
A5
350
546
  3
A6
350
547
  3
A7
350
548
  3
A8
350
549
  3
A9
350
54A
  3
B0
350
54B
  3
B1
350
54C
  3
B2
350
54D
  3
B3
350
54E
  3
B4
350
54F
  3
B5
350
550
  3
B6
350
551
  3
B7
350
552
  3
B8
350
553
  3
B9
350
554
  3
C0
350
555
  3
C1
350
556
  3
C2
350
557
  3
C3
350
558
  3
C4
350
559
  3
C5
350
55A
  3
C6
350
55B
  3
C7
350
55C
  3
C8
350
55D
  3
C9
350
55E
  3
D0
350
55F
  3
D1
350
560
  3
D2
350
561
  0
DICTIONARY
  5
2A
102
{ACAD_REACTORS
330
C
102
}
330
C
100
AcDbDictionary
281
     1
  3
2dWireframe
350
2F
  3
3D Hidden
350
31
  3
3dWireframe
350
30
  3
Basic
350
32
  3
Brighten
350
36
  3
ColorChange
350
3A
  3
Conceptual
350
34
  3
Dim
350
35
  3
Facepattern
350
39
  3
Flat
350
2B
  3
FlatWithEdges
350
2C
  3
Gouraud
350
2D
  3
GouraudWithEdges
350
2E
  3
Linepattern
350
38
  3
Realistic
350
33
  3
Thicken
350
37
  0
DICTIONARY
  5
562
102
{ACAD_REACTORS
330
C
102
}
330
C
100
AcDbDictionary
281
     1
  3
CANNOSCALE
350
565
  3
DIMASSOC
350
566
  3
HIDETEXT
350
567
  0
LAYOUT
  5
1E
102
{ACAD_REACTORS
330
1A
102
}
330
1A
100
AcDbPlotSettings
  1

  2
none_device
  4

  6

 40
0.0
 41
0.0
 42
0.0
 43
0.0
 44
0.0
 45
0.0
 46
0.0
 47
0.0
 48
0.0
 49
0.0
140
0.0
141
0.0
142
1.0
143
1.0
 70
   688
 72
     0
 73
     0
 74
     5
  7

 75
    16
147
1.0
148
0.0
149
0.0
100
AcDbLayout
  1
Layout1
 70
     0
 71
     1
 10
0.0
 20
0.0
 11
12.0
 21
9.0
 12
0.0
 22
0.0
 32
0.0
 14
1.000000000000000E+20
 24
1.000000000000000E+20
 34
1.000000000000000E+20
 15
-1.000000000000000E+20
 25
-1.000000000000000E+20
 35
-1.000000000000000E+20
146
0.0
 13
0.0
 23
0.0
 33
0.0
 16
1.0
 26
0.0
 36
0.0
 17
0.0
 27
1.0
 37
0.0
 76
     0
330
1B
331
77
  0
LAYOUT
  5
26
102
{ACAD_REACTORS
330
1A
102
}
330
1A
100
AcDbPlotSettings
  1

  2
none_device
  4

  6

 40
0.0
 41
0.0
 42
0.0
 43
0.0
 44
0.0
 45
0.0
 46
0.0
 47
0.0
 48
0.0
 49
0.0
140
0.0
141
0.0
142
1.0
143
1.0
 70
   688
 72
     0
 73
     0
 74
     5
  7

 75
    16
147
1.0
148
0.0
149
0.0
100
AcDbLayout
  1
Layout2
 70
     1
 71
     2
 10
0.0
 20
0.0
 11
0.0
 21
0.0
 12
0.0
 22
0.0
 32
0.0
 14
0.0
 24
0.0
 34
0.0
 15
0.0
 25
0.0
 35
0.0
146
0.0
 13
0.0
 23
0.0
 33
0.0
 16
1.0
 26
0.0
 36
0.0
 17
0.0
 27
1.0
 37
0.0
 76
     0
330
23
  0
LAYOUT
  5
22
102
{ACAD_REACTORS
330
1A
102
}
330
1A
100
AcDbPlotSettings
  1

  2
none_device
  4

  6

 40
0.0
 41
0.0
 42
0.0
 43
0.0
 44
0.0
 45
0.0
 46
0.0
 47
0.0
 48
0.0
 49
0.0
140
0.0
141
0.0
142
1.0
143
1.0
 70
  1712
 72
     0
 73
     0
 74
     0
  7

 75
     0
147
1.0
148
0.0
149
0.0
100
AcDbLayout
  1
Model
 70
     1
 71
     0
 10
-420.0
 20
-594.0
 11
420.0
 21
594.0
 12
0.0
 22
0.0
 32
0.0
 14
-1629.916666666668
 24
-1842.083333333333
 34
0.0
 15
1474.833333333337
 25
1841.916666666667
 35
0.0
146
0.0
 13
0.0
 23
0.0
 33
0.0
 16
1.0
 26
0.0
 36
0.0
 17
0.0
 27
1.0
 37
0.0
 76
     0
330
1F
331
29
  0
MATERIAL
  5
3D
102
{ACAD_REACTORS
330
3B
102
}
102
{ACAD_XDICTIONARY
360
58B
102
}
330
3B
100
AcDbMaterial
  1
ByBlock
  0
MATERIAL
  5
3C
102
{ACAD_REACTORS
330
3B
102
}
102
{ACAD_XDICTIONARY
360
589
102
}
330
3B
100
AcDbMaterial
  1
ByLayer
  0
MATERIAL
  5
3E
102
{ACAD_REACTORS
330
3B
102
}
102
{ACAD_XDICTIONARY
360
58D
102
}
330
3B
100
AcDbMaterial
  1
Global
  0
MLINESTYLE
  5
18
102
{ACAD_REACTORS
330
17
102
}
330
17
100
AcDbMlineStyle
  2
Standard
 70
     0
  3

 62
   256
 51
90.0
 52
90.0
 71
     2
 49
0.5
 62
   256
  6
BYLAYER
 49
-0.5
 62
   256
  6
BYLAYER
  0
ACDBPLACEHOLDER
  5
F
102
{ACAD_REACTORS
330
E
102
}
330
E
  0
SCALE
  5
541
102
{ACAD_REACTORS
330
540
102
}
330
540
100
AcDbScale
 70
     0
300
1:1
140
1.0
141
1.0
290
     1
  0
SCALE
  5
542
102
{ACAD_REACTORS
330
540
102
}
330
540
100
AcDbScale
 70
     0
300
1:2
140
1.0
141
2.0
290
     0
  0
SCALE
  5
543
102
{ACAD_REACTORS
330
540
102
}
330
540
100
AcDbScale
 70
     0
300
1:4
140
1.0
141
4.0
290
     0
  0
SCALE
  5
544
102
{ACAD_REACTORS
330
540
102
}
330
540
100
AcDbScale
 70
     0
300
1:5
140
1.0
141
5.0
290
     0
  0
SCALE
  5
545
102
{ACAD_REACTORS
330
540
102
}
330
540
100
AcDbScale
 70
     0
300
1:8
140
1.0
141
8.0
290
     0
  0
SCALE
  5
546
102
{ACAD_REACTORS
330
540
102
}
330
540
100
AcDbScale
 70
     0
300
1:10
140
1.0
141
10.0
290
     0
  0
SCALE
  5
547
102
{ACAD_REACTORS
330
540
102
}
330
540
100
AcDbScale
 70
     0
300
1:16
140
1.0
141
16.0
290
     0
  0
SCALE
  5
548
102
{ACAD_REACTORS
330
540
102
}
330
540
100
AcDbScale
 70
     0
300
1:20
140
1.0
141
20.0
290
     0
  0
SCALE
  5
549
102
{ACAD_REACTORS
330
540
102
}
330
540
100
AcDbScale
 70
     0
300
1:30
140
1.0
141
30.0
290
     0
  0
SCALE
  5
54A
102
{ACAD_REACTORS
330
540
102
}
330
540
100
AcDbScale
 70
     0
300
1:40
140
1.0
141
40.0
290
     0
  0
SCALE
  5
54B
102
{ACAD_REACTORS
330
540
102
}
330
540
100
AcDbScale
 70
     0
300
1:50
140
1.0
141
50.0
290
     0
  0
SCALE
  5
54C
102
{ACAD_REACTORS
330
540
102
}
330
540
100
AcDbScale
 70
     0
300
1:100
140
1.0
141
100.0
290
     0
  0
SCALE
  5
54D
102
{ACAD_REACTORS
330
540
102
}
330
540
100
AcDbScale
 70
     0
300
2:1
140
2.0
141
1.0
290
     0
  0
SCALE
  5
54E
102
{ACAD_REACTORS
330
540
102
}
330
540
100
AcDbScale
 70
     0
300
4:1
140
4.0
141
1.0
290
     0
  0
SCALE
  5
54F
102
{ACAD_REACTORS
330
540
102
}
330
540
100
AcDbScale
 70
     0
300
8:1
140
8.0
141
1.0
290
     0
  0
SCALE
  5
550
102
{ACAD_REACTORS
330
540
102
}
330
540
100
AcDbScale
 70
     0
300
10:1
140
10.0
141
1.0
290
     0
  0
SCALE
  5
551
102
{ACAD_REACTORS
330
540
102
}
330
540
100
AcDbScale
 70
     0
300
100:1
140
100.0
141
1.0
290
     0
  0
SCALE
  5
552
102
{ACAD_REACTORS
330
540
102
}
330
540
100
AcDbScale
 70
     0
300
1/128" = 1'-0"
140
0.0078125
141
12.0
290
     0
  0
SCALE
  5
553
102
{ACAD_REACTORS
330
540
102
}
330
540
100
AcDbScale
 70
     0
300
1/64" = 1'-0"
140
0.015625
141
12.0
290
     0
  0
SCALE
  5
554
102
{ACAD_REACTORS
330
540
102
}
330
540
100
AcDbScale
 70
     0
300
1/32" = 1'-0"
140
0.03125
141
12.0
290
     0
  0
SCALE
  5
555
102
{ACAD_REACTORS
330
540
102
}
330
540
100
AcDbScale
 70
     0
300
1/16" = 1'-0"
140
0.0625
141
12.0
290
     0
  0
SCALE
  5
556
102
{ACAD_REACTORS
330
540
102
}
330
540
100
AcDbScale
 70
     0
300
3/32" = 1'-0"
140
0.09375
141
12.0
290
     0
  0
SCALE
  5
557
102
{ACAD_REACTORS
330
540
102
}
330
540
100
AcDbScale
 70
     0
300
1/8" = 1'-0"
140
0.125
141
12.0
290
     0
  0
SCALE
  5
558
102
{ACAD_REACTORS
330
540
102
}
330
540
100
AcDbScale
 70
     0
300
3/16" = 1'-0"
140
0.1875
141
12.0
290
     0
  0
SCALE
  5
559
102
{ACAD_REACTORS
330
540
102
}
330
540
100
AcDbScale
 70
     0
300
1/4" = 1'-0"
140
0.25
141
12.0
290
     0
  0
SCALE
  5
55A
102
{ACAD_REACTORS
330
540
102
}
330
540
100
AcDbScale
 70
     0
300
3/8" = 1'-0"
140
0.375
141
12.0
290
     0
  0
SCALE
  5
55B
102
{ACAD_REACTORS
330
540
102
}
330
540
100
AcDbScale
 70
     0
300
1/2" = 1'-0"
140
0.5
141
12.0
290
     0
  0
SCALE
  5
55C
102
{ACAD_REACTORS
330
540
102
}
330
540
100
AcDbScale
 70
     0
300
3/4" = 1'-0"
140
0.75
141
12.0
290
     0
  0
SCALE
  5
55D
102
{ACAD_REACTORS
330
540
102
}
330
540
100
AcDbScale
 70
     0
300
1" = 1'-0"
140
1.0
141
12.0
290
     0
  0
SCALE
  5
55E
102
{ACAD_REACTORS
330
540
102
}
330
540
100
AcDbScale
 70
     0
300
1-1/2" = 1'-0"
140
1.5
141
12.0
290
     0
  0
SCALE
  5
55F
102
{ACAD_REACTORS
330
540
102
}
330
540
100
AcDbScale
 70
     0
300
3" = 1'-0"
140
3.0
141
12.0
290
     0
  0
SCALE
  5
560
102
{ACAD_REACTORS
330
540
102
}
330
540
100
AcDbScale
 70
     0
300
6" = 1'-0"
140
6.0
141
12.0
290
     0
  0
SCALE
  5
561
102
{ACAD_REACTORS
330
540
102
}
330
540
100
AcDbScale
 70
     0
300
1'-0" = 1'-0"
140
12.0
141
12.0
290
     0
  0
VISUALSTYLE
  5
2F
102
{ACAD_REACTORS
330
2A
102
}
102
{ACAD_XDICTIONARY
360
571
102
}
330
2A
100
AcDbVisualStyle
  2
2dWireframe
 70
     4
 71
     0
 72
     2
 73
     0
 90
        0
 40
-0.6
 41
-30.0
 62
     5
 63
     7
 74
     1
 91
        4
 64
     7
 65
   257
 75
     1
175
     1
 42
1.0
 92
        0
 66
   257
 43
1.0
 76
     1
 77
     6
 78
     2
 67
     7
 79
     5
170
     0
171
     0
290
     0
174
     0
 93
        1
 44
0.0
173
     0
291
     0
 45
0.0
1001
ACAD
1000
AcDbSavedByObjectVersion
1070
     0
  0
VISUALSTYLE
  5
31
102
{ACAD_REACTORS
330
2A
102
}
102
{ACAD_XDICTIONARY
360
575
102
}
330
2A
100
AcDbVisualStyle
  2
3D Hidden
 70
     6
 71
     1
 72
     2
 73
     2
 90
        0
 40
-0.6
 41
-30.0
 62
     5
 63
     7
 74
     2
 91
        2
 64
     7
 65
   257
 75
     2
175
     1
 42
40.0
 92
        0
 66
   257
 43
1.0
 76
     1
 77
     6
 78
     2
 67
     7
 79
     3
170
     0
171
     0
290
     0
174
     0
 93
        1
 44
0.0
173
     0
291
     0
 45
0.0
1001
ACAD
1000
AcDbSavedByObjectVersion
1070
     0
  0
VISUALSTYLE
  5
30
102
{ACAD_REACTORS
330
2A
102
}
102
{ACAD_XDICTIONARY
360
573
102
}
330
2A
100
AcDbVisualStyle
  2
3dWireframe
 70
     5
 71
     0
 72
     2
 73
     0
 90
        0
 40
-0.6
 41
-30.0
 62
     5
 63
     7
 74
     1
 91
        4
 64
     7
 65
   257
 75
     1
175
     1
 42
1.0
 92
        0
 66
   257
 43
1.0
 76
     1
 77
     6
 78
     2
 67
     7
 79
     5
170
     0
171
     0
290
     0
174
     0
 93
        1
 44
0.0
173
     0
291
     0
 45
0.0
1001
ACAD
1000
AcDbSavedByObjectVersion
1070
     0
  0
VISUALSTYLE
  5
32
102
{ACAD_REACTORS
330
2A
102
}
102
{ACAD_XDICTIONARY
360
577
102
}
330
2A
100
AcDbVisualStyle
  2
Basic
 70
     7
 71
     1
 72
     0
 73
     1
 90
        0
 40
-0.6
 41
-30.0
 62
     5
 63
     7
 74
     0
 91
        4
 64
     7
 65
   257
 75
     1
175
     1
 42
1.0
 92
        8
 66
     7
 43
1.0
 76
     1
 77
     6
 78
     2
 67
     7
 79
     5
170
     0
171
     0
290
     0
174
     0
 93
        1
 44
0.0
173
     0
291
     1
 45
0.0
1001
ACAD
1000
AcDbSavedByObjectVersion
1070
     0
  0
VISUALSTYLE
  5
36
102
{ACAD_REACTORS
330
2A
102
}
102
{ACAD_XDICTIONARY
360
57F
102
}
330
2A
100
AcDbVisualStyle
  2
Brighten
 70
    12
 71
     2
 72
     2
 73
     0
 90
        0
 40
-0.6
 41
-30.0
 62
     5
 63
     7
 74
     1
 91
        4
 64
     7
 65
   257
 75
     1
175
     1
 42
1.0
 92
        8
 66
     7
 43
1.0
 76
     1
 77
     6
 78
     2
 67
     7
 79
     5
170
     0
171
     0
290
     0
174
     0
 93
        1
 44
50.0
173
     0
291
     1
 45
0.0
1001
ACAD
1000
AcDbSavedByObjectVersion
1070
     0
  0
VISUALSTYLE
  5
3A
102
{ACAD_REACTORS
330
2A
102
}
102
{ACAD_XDICTIONARY
360
587
102
}
330
2A
100
AcDbVisualStyle
  2
ColorChange
 70
    16
 71
     2
 72
     2
 73
     3
 90
        0
 40
-0.6
 41
-30.0
 62
     5
 63
     8
 74
     1
 91
        4
 64
     7
 65
   257
 75
     1
175
     1
 42
1.0
 92
        8
 66
     8
 43
1.0
 76
     1
 77
     6
 78
     2
 67
     7
 79
     5
170
     0
171
     0
290
     0
174
     0
 93
        1
 44
0.0
173
     0
291
     1
 45
0.0
1001
ACAD
1000
AcDbSavedByObjectVersion
1070
     0
  0
VISUALSTYLE
  5
34
102
{ACAD_REACTORS
330
2A
102
}
102
{ACAD_XDICTIONARY
360
57B
102
}
330
2A
100
AcDbVisualStyle
  2
Conceptual
 70
     9
 71
     3
 72
     2
 73
     0
 90
        0
 40
-0.6
 41
-30.0
 62
     5
 63
     7
 74
     2
 91
        2
 64
     7
 65
   257
 75
     1
175
     1
 42
40.0
 92
        8
 66
     7
 43
1.0
 76
     1
 77
     6
 78
     2
 67
     7
 79
     3
170
     0
171
     0
290
     0
174
     0
 93
        1
 44
0.0
173
     0
291
     0
 45
0.0
1001
ACAD
1000
AcDbSavedByObjectVersion
1070
     0
  0
VISUALSTYLE
  5
35
102
{ACAD_REACTORS
330
2A
102
}
102
{ACAD_XDICTIONARY
360
57D
102
}
330
2A
100
AcDbVisualStyle
  2
Dim
 70
    11
 71
     2
 72
     2
 73
     0
 90
        0
 40
-0.6
 41
-30.0
 62
     5
 63
     7
 74
     1
 91
        4
 64
     7
 65
   257
 75
     1
175
     1
 42
1.0
 92
        8
 66
     7
 43
1.0
 76
     1
 77
     6
 78
     2
 67
     7
 79
     5
170
     0
171
     0
290
     0
174
     0
 93
        1
 44
-50.0
173
     0
291
     1
 45
0.0
1001
ACAD
1000
AcDbSavedByObjectVersion
1070
     0
  0
VISUALSTYLE
  5
39
102
{ACAD_REACTORS
330
2A
102
}
102
{ACAD_XDICTIONARY
360
585
102
}
330
2A
100
AcDbVisualStyle
  2
Facepattern
 70
    15
 71
     2
 72
     2
 73
     0
 90
        0
 40
-0.6
 41
-30.0
 62
     5
 63
     7
 74
     1
 91
        4
 64
     7
 65
   257
 75
     1
175
     1
 42
1.0
 92
        8
 66
     7
 43
1.0
 76
     1
 77
     6
 78
     2
 67
     7
 79
     5
170
     0
171
     0
290
     0
174
     0
 93
        1
 44
0.0
173
     0
291
     1
 45
0.0
1001
ACAD
1000
AcDbSavedByObjectVersion
1070
     0
  0
VISUALSTYLE
  5
2B
102
{ACAD_REACTORS
330
2A
102
}
102
{ACAD_XDICTIONARY
360
569
102
}
330
2A
100
AcDbVisualStyle
  2
Flat
 70
     0
 71
     2
 72
     1
 73
     1
 90
        2
 40
-0.6
 41
30.0
 62
     5
 63
     7
 74
     0
 91
        4
 64
     7
 65
   257
 75
     1
175
     1
 42
1.0
 92
        8
 66
     7
 43
1.0
 76
     1
 77
     6
 78
     2
 67
     7
 79
     5
170
     0
171
     0
290
     0
174
     0
 93
       13
 44
0.0
173
     0
291
     1
 45
0.0
1001
ACAD
1000
AcDbSavedByObjectVersion
1070
     0
  0
VISUALSTYLE
  5
2C
102
{ACAD_REACTORS
330
2A
102
}
102
{ACAD_XDICTIONARY
360
56B
102
}
330
2A
100
AcDbVisualStyle
  2
FlatWithEdges
 70
     1
 71
     2
 72
     1
 73
     1
 90
        2
 40
-0.6
 41
30.0
 62
     5
 63
     7
 74
     1
 91
        4
 64
     7
 65
   257
 75
     1
175
     1
 42
1.0
 92
        0
 66
   257
 43
1.0
 76
     1
 77
     6
 78
     2
 67
     7
 79
     5
170
     0
171
     0
290
     0
174
     0
 93
       13
 44
0.0
173
     0
291
     1
 45
0.0
1001
ACAD
1000
AcDbSavedByObjectVersion
1070
     0
  0
VISUALSTYLE
  5
2D
102
{ACAD_REACTORS
330
2A
102
}
102
{ACAD_XDICTIONARY
360
56D
102
}
330
2A
100
AcDbVisualStyle
  2
Gouraud
 70
     2
 71
     2
 72
     2
 73
     1
 90
        2
 40
-0.6
 41
30.0
 62
     5
 63
     7
 74
     0
 91
        4
 64
     7
 65
   257
 75
     1
175
     1
 42
1.0
 92
        0
 66
     7
 43
1.0
 76
     1
 77
     6
 78
     2
 67
     7
 79
     5
170
     0
171
     0
290
     0
174
     0
 93
       13
 44
0.0
173
     0
291
     1
 45
0.0
1001
ACAD
1000
AcDbSavedByObjectVersion
1070
     0
  0
VISUALSTYLE
  5
2E
102
{ACAD_REACTORS
330
2A
102
}
102
{ACAD_XDICTIONARY
360
56F
102
}
330
2A
100
AcDbVisualStyle
  2
GouraudWithEdges
 70
     3
 71
     2
 72
     2
 73
     1
 90
        2
 40
-0.6
 41
30.0
 62
     5
 63
     7
 74
     1
 91
        4
 64
     7
 65
   257
 75
     1
175
     1
 42
1.0
 92
        0
 66
   257
 43
1.0
 76
     1
 77
     6
 78
     2
 67
     7
 79
     5
170
     0
171
     0
290
     0
174
     0
 93
       13
 44
0.0
173
     0
291
     1
 45
0.0
1001
ACAD
1000
AcDbSavedByObjectVersion
1070
     0
  0
VISUALSTYLE
  5
38
102
{ACAD_REACTORS
330
2A
102
}
102
{ACAD_XDICTIONARY
360
583
102
}
330
2A
100
AcDbVisualStyle
  2
Linepattern
 70
    14
 71
     2
 72
     2
 73
     0
 90
        0
 40
-0.6
 41
-30.0
 62
     5
 63
     7
 74
     1
 91
        4
 64
     7
 65
   257
 75
     7
175
     7
 42
1.0
 92
        8
 66
     7
 43
1.0
 76
     1
 77
     6
 78
     2
 67
     7
 79
     5
170
     0
171
     0
290
     0
174
     0
 93
        1
 44
0.0
173
     0
291
     1
 45
0.0
1001
ACAD
1000
AcDbSavedByObjectVersion
1070
     0
  0
VISUALSTYLE
  5
33
102
{ACAD_REACTORS
330
2A
102
}
102
{ACAD_XDICTIONARY
360
579
102
}
330
2A
100
AcDbVisualStyle
  2
Realistic
 70
     8
 71
     2
 72
     2
 73
     0
 90
        0
 40
-0.6
 41
-30.0
 62
     5
 63
     7
 74
     1
 91
        0
 64
     7
 65
   257
 75
     1
175
     1
 42
1.0
 92
        8
 66
     8
 43
1.0
 76
     1
 77
     6
 78
     2
 67
     7
 79
     5
170
     0
171
     0
290
     0
174
     0
 93
       13
 44
0.0
173
     0
291
     0
 45
0.0
1001
ACAD
1000
AcDbSavedByObjectVersion
1070
     0
  0
VISUALSTYLE
  5
37
102
{ACAD_REACTORS
330
2A
102
}
102
{ACAD_XDICTIONARY
360
581
102
}
330
2A
100
AcDbVisualStyle
  2
Thicken
 70
    13
 71
     2
 72
     2
 73
     0
 90
        0
 40
-0.6
 41
-30.0
 62
     5
 63
     7
 74
     1
 91
        4
 64
     7
 65
   257
 75
     1
175
     1
 42
1.0
 92
       12
 66
     7
 43
1.0
 76
     1
 77
     6
 78
     2
 67
     7
 79
     5
170
     0
171
     0
290
     0
174
     0
 93
        1
 44
0.0
173
     0
291
     1
 45
0.0
1001
ACAD
1000
AcDbSavedByObjectVersion
1070
     0
  0
DICTIONARYVAR
  5
565
102
{ACAD_REACTORS
330
562
102
}
330
562
100
DictionaryVariables
280
     0
  1
1:1
  0
DICTIONARYVAR
  5
566
102
{ACAD_REACTORS
330
562
102
}
330
562
100
DictionaryVariables
280
     0
  1
2
  0
DICTIONARYVAR
  5
567
102
{ACAD_REACTORS
330
562
102
}
330
562
100
DictionaryVariables
280
     0
  1
1
  0
DICTIONARY
  5
58B
330
3D
100
AcDbDictionary
280
     1
281
     1
  3
ACAD_XREC_ROUNDTRIP
360
58C
  0
DICTIONARY
  5
589
330
3C
100
AcDbDictionary
280
     1
281
     1
  3
ACAD_XREC_ROUNDTRIP
360
58A
  0
DICTIONARY
  5
58D
330
3E
100
AcDbDictionary
280
     1
281
     1
  3
ACAD_XREC_ROUNDTRIP
360
58E
  0
DICTIONARY
  5
571
330
2F
100
AcDbDictionary
280
     1
281
     1
  3
ACAD_XREC_ROUNDTRIP
360
572
  0
DICTIONARY
  5
575
330
31
100
AcDbDictionary
280
     1
281
     1
  3
ACAD_XREC_ROUNDTRIP
360
576
  0
DICTIONARY
  5
573
330
30
100
AcDbDictionary
280
     1
281
     1
  3
ACAD_XREC_ROUNDTRIP
360
574
  0
DICTIONARY
  5
577
330
32
100
AcDbDictionary
280
     1
281
     1
  3
ACAD_XREC_ROUNDTRIP
360
578
  0
DICTIONARY
  5
57F
330
36
100
AcDbDictionary
280
     1
281
     1
  3
ACAD_XREC_ROUNDTRIP
360
580
  0
DICTIONARY
  5
587
330
3A
100
AcDbDictionary
280
     1
281
     1
  3
ACAD_XREC_ROUNDTRIP
360
588
  0
DICTIONARY
  5
57B
330
34
100
AcDbDictionary
280
     1
281
     1
  3
ACAD_XREC_ROUNDTRIP
360
57C
  0
DICTIONARY
  5
57D
330
35
100
AcDbDictionary
280
     1
281
     1
  3
ACAD_XREC_ROUNDTRIP
360
57E
  0
DICTIONARY
  5
585
330
39
100
AcDbDictionary
280
     1
281
     1
  3
ACAD_XREC_ROUNDTRIP
360
586
  0
DICTIONARY
  5
569
330
2B
100
AcDbDictionary
280
     1
281
     1
  3
ACAD_XREC_ROUNDTRIP
360
56A
  0
DICTIONARY
  5
56B
330
2C
100
AcDbDictionary
280
     1
281
     1
  3
ACAD_XREC_ROUNDTRIP
360
56C
  0
DICTIONARY
  5
56D
330
2D
100
AcDbDictionary
280
     1
281
     1
  3
ACAD_XREC_ROUNDTRIP
360
56E
  0
DICTIONARY
  5
56F
330
2E
100
AcDbDictionary
280
     1
281
     1
  3
ACAD_XREC_ROUNDTRIP
360
570
  0
DICTIONARY
  5
583
330
38
100
AcDbDictionary
280
     1
281
     1
  3
ACAD_XREC_ROUNDTRIP
360
584
  0
DICTIONARY
  5
579
330
33
100
AcDbDictionary
280
     1
281
     1
  3
ACAD_XREC_ROUNDTRIP
360
57A
  0
DICTIONARY
  5
581
330
37
100
AcDbDictionary
280
     1
281
     1
  3
ACAD_XREC_ROUNDTRIP
360
582
  0
XRECORD
  5
58C
102
{ACAD_REACTORS
330
58B
102
}
330
58B
100
AcDbXrecord
280
     1
102
MATERIAL
148
0.0
149
0.0
149
0.0
 93
        0
 94
      127
282
     0
 72
     1
 77
     1
171
     1
175
     1
179
     1
273
     0
  0
XRECORD
  5
58A
102
{ACAD_REACTORS
330
589
102
}
330
589
100
AcDbXrecord
280
     1
102
MATERIAL
148
0.0
149
0.0
149
0.0
 93
        0
 94
      127
282
     0
 72
     1
 77
     1
171
     1
175
     1
179
     1
273
     0
  0
XRECORD
  5
58E
102
{ACAD_REACTORS
330
58D
102
}
330
58D
100
AcDbXrecord
280
     1
102
MATERIAL
148
0.0
149
0.0
149
0.0
 93
        0
 94
      127
282
     0
 72
     1
 77
     1
171
     1
175
     1
179
     1
273
     0
  0
XRECORD
  5
572
102
{ACAD_REACTORS
330
571
102
}
330
571
100
AcDbXrecord
280
     1
102
RTVSPropertyOp0
 70
     1
102
RTVSPropertyOp1
 70
     1
102
RTVSPropertyOp2
 70
     1
102
RTVSPropertyOp3
 70
     1
102
RTVSPropertyOp4
 70
     1
102
RTVSPropertyOp5
 70
     1
102
RTVSPropertyOp6
 70
     1
102
RTVSPropertyOp7
 70
     1
102
RTVSPropertyOp8
 70
     1
102
RTVSPropertyOp9
 70
     1
102
RTVSPropertyOp10
 70
     1
102
RTVSPropertyOp11
 70
     1
102
RTVSPropertyOp12
 70
     1
102
RTVSPropertyOp13
 70
     1
102
RTVSPropertyOp14
 70
     1
102
RTVSPropertyOp15
 70
     1
102
RTVSPropertyOp16
 70
     1
102
RTVSPropertyOp17
 70
     1
102
RTVSPropertyOp18
 70
     1
102
RTVSPropertyOp19
 70
     1
102
RTVSPropertyOp20
 70
     1
102
RTVSPropertyOp21
 70
     1
102
RTVSPropertyOp22
 70
     1
102
RTVSPropertyOp23
 70
     1
102
RTVSPropertyOp24
 70
     1
102
RTVSPropertyOp25
 70
     1
102
RTVSPropertyOp26
 70
     1
102
RTVSPropertyOp27
 70
     1
102
RTVSPropertyOp28
 70
     1
102
RTVSPropertyOp29
 70
     1
102
RTVSPropertyOp30
 70
     1
102
RTVSPropertyOp31
 70
     1
102
RTVSPropertyOp32
 70
     1
  0
XRECORD
  5
576
102
{ACAD_REACTORS
330
575
102
}
330
575
100
AcDbXrecord
280
     1
102
RTVSPropertyOp0
 70
     1
102
RTVSPropertyOp1
 70
     1
102
RTVSPropertyOp2
 70
     1
102
RTVSPropertyOp3
 70
     1
102
RTVSPropertyOp4
 70
     1
102
RTVSPropertyOp5
 70
     1
102
RTVSPropertyOp6
 70
     1
102
RTVSPropertyOp7
 70
     1
102
RTVSPropertyOp8
 70
     1
102
RTVSPropertyOp9
 70
     1
102
RTVSPropertyOp10
 70
     1
102
RTVSPropertyOp11
 70
     1
102
RTVSPropertyOp12
 70
     1
102
RTVSPropertyOp13
 70
     1
102
RTVSPropertyOp14
 70
     1
102
RTVSPropertyOp15
 70
     1
102
RTVSPropertyOp16
 70
     1
102
RTVSPropertyOp17
 70
     1
102
RTVSPropertyOp18
 70
     1
102
RTVSPropertyOp19
 70
     1
102
RTVSPropertyOp20
 70
     1
102
RTVSPropertyOp21
 70
     1
102
RTVSPropertyOp22
 70
     1
102
RTVSPropertyOp23
 70
     1
102
RTVSPropertyOp24
 70
     1
102
RTVSPropertyOp25
 70
     1
102
RTVSPropertyOp26
 70
     1
102
RTVSPropertyOp27
 70
     1
102
RTVSPropertyOp28
 70
     1
102
RTVSPropertyOp29
 70
     1
102
RTVSPropertyOp30
 70
     1
102
RTVSPropertyOp31
 70
     1
102
RTVSPropertyOp32
 70
     1
  0
XRECORD
  5
574
102
{ACAD_REACTORS
330
573
102
}
330
573
100
AcDbXrecord
280
     1
102
RTVSPropertyOp0
 70
     1
102
RTVSPropertyOp1
 70
     1
102
RTVSPropertyOp2
 70
     1
102
RTVSPropertyOp3
 70
     1
102
RTVSPropertyOp4
 70
     1
102
RTVSPropertyOp5
 70
     1
102
RTVSPropertyOp6
 70
     1
102
RTVSPropertyOp7
 70
     1
102
RTVSPropertyOp8
 70
     1
102
RTVSPropertyOp9
 70
     1
102
RTVSPropertyOp10
 70
     1
102
RTVSPropertyOp11
 70
     1
102
RTVSPropertyOp12
 70
     1
102
RTVSPropertyOp13
 70
     1
102
RTVSPropertyOp14
 70
     1
102
RTVSPropertyOp15
 70
     1
102
RTVSPropertyOp16
 70
     1
102
RTVSPropertyOp17
 70
     1
102
RTVSPropertyOp18
 70
     1
102
RTVSPropertyOp19
 70
     1
102
RTVSPropertyOp20
 70
     1
102
RTVSPropertyOp21
 70
     1
102
RTVSPropertyOp22
 70
     1
102
RTVSPropertyOp23
 70
     1
102
RTVSPropertyOp24
 70
     1
102
RTVSPropertyOp25
 70
     1
102
RTVSPropertyOp26
 70
     1
102
RTVSPropertyOp27
 70
     1
102
RTVSPropertyOp28
 70
     1
102
RTVSPropertyOp29
 70
     1
102
RTVSPropertyOp30
 70
     1
102
RTVSPropertyOp31
 70
     1
102
RTVSPropertyOp32
 70
     1
  0
XRECORD
  5
578
102
{ACAD_REACTORS
330
577
102
}
330
577
100
AcDbXrecord
280
     1
102
RTVSPropertyOp0
 70
     1
102
RTVSPropertyOp1
 70
     1
102
RTVSPropertyOp2
 70
     1
102
RTVSPropertyOp3
 70
     1
102
RTVSPropertyOp4
 70
     1
102
RTVSPropertyOp5
 70
     1
102
RTVSPropertyOp6
 70
     1
102
RTVSPropertyOp7
 70
     1
102
RTVSPropertyOp8
 70
     1
102
RTVSPropertyOp9
 70
     1
102
RTVSPropertyOp10
 70
     1
102
RTVSPropertyOp11
 70
     1
102
RTVSPropertyOp12
 70
     1
102
RTVSPropertyOp13
 70
     1
102
RTVSPropertyOp14
 70
     1
102
RTVSPropertyOp15
 70
     1
102
RTVSPropertyOp16
 70
     1
102
RTVSPropertyOp17
 70
     1
102
RTVSPropertyOp18
 70
     1
102
RTVSPropertyOp19
 70
     1
102
RTVSPropertyOp20
 70
     1
102
RTVSPropertyOp21
 70
     1
102
RTVSPropertyOp22
 70
     1
102
RTVSPropertyOp23
 70
     1
102
RTVSPropertyOp24
 70
     1
102
RTVSPropertyOp25
 70
     1
102
RTVSPropertyOp26
 70
     1
102
RTVSPropertyOp27
 70
     1
102
RTVSPropertyOp28
 70
     1
102
RTVSPropertyOp29
 70
     1
102
RTVSPropertyOp30
 70
     1
102
RTVSPropertyOp31
 70
     1
102
RTVSPropertyOp32
 70
     1
  0
XRECORD
  5
580
102
{ACAD_REACTORS
330
57F
102
}
330
57F
100
AcDbXrecord
280
     1
102
RTVSPropertyOp0
 70
     1
102
RTVSPropertyOp1
 70
     1
102
RTVSPropertyOp2
 70
     1
102
RTVSPropertyOp3
 70
     1
102
RTVSPropertyOp4
 70
     1
102
RTVSPropertyOp5
 70
     1
102
RTVSPropertyOp6
 70
     1
102
RTVSPropertyOp7
 70
     1
102
RTVSPropertyOp8
 70
     1
102
RTVSPropertyOp9
 70
     1
102
RTVSPropertyOp10
 70
     1
102
RTVSPropertyOp11
 70
     1
102
RTVSPropertyOp12
 70
     1
102
RTVSPropertyOp13
 70
     1
102
RTVSPropertyOp14
 70
     1
102
RTVSPropertyOp15
 70
     1
102
RTVSPropertyOp16
 70
     1
102
RTVSPropertyOp17
 70
     1
102
RTVSPropertyOp18
 70
     1
102
RTVSPropertyOp19
 70
     1
102
RTVSPropertyOp20
 70
     1
102
RTVSPropertyOp21
 70
     1
102
RTVSPropertyOp22
 70
     1
102
RTVSPropertyOp23
 70
     1
102
RTVSPropertyOp24
 70
     1
102
RTVSPropertyOp25
 70
     1
102
RTVSPropertyOp26
 70
     1
102
RTVSPropertyOp27
 70
     1
102
RTVSPropertyOp28
 70
     1
102
RTVSPropertyOp29
 70
     1
102
RTVSPropertyOp30
 70
     1
102
RTVSPropertyOp31
 70
     1
102
RTVSPropertyOp32
 70
     1
  0
XRECORD
  5
588
102
{ACAD_REACTORS
330
587
102
}
330
587
100
AcDbXrecord
280
     1
102
RTVSPropertyOp0
 70
     1
102
RTVSPropertyOp1
 70
     1
102
RTVSPropertyOp2
 70
     1
102
RTVSPropertyOp3
 70
     1
102
RTVSPropertyOp4
 70
     1
102
RTVSPropertyOp5
 70
     1
102
RTVSPropertyOp6
 70
     1
102
RTVSPropertyOp7
 70
     1
102
RTVSPropertyOp8
 70
     1
102
RTVSPropertyOp9
 70
     1
102
RTVSPropertyOp10
 70
     1
102
RTVSPropertyOp11
 70
     1
102
RTVSPropertyOp12
 70
     1
102
RTVSPropertyOp13
 70
     1
102
RTVSPropertyOp14
 70
     1
102
RTVSPropertyOp15
 70
     1
102
RTVSPropertyOp16
 70
     1
102
RTVSPropertyOp17
 70
     1
102
RTVSPropertyOp18
 70
     1
102
RTVSPropertyOp19
 70
     1
102
RTVSPropertyOp20
 70
     1
102
RTVSPropertyOp21
 70
     1
102
RTVSPropertyOp22
 70
     1
102
RTVSPropertyOp23
 70
     1
102
RTVSPropertyOp24
 70
     1
102
RTVSPropertyOp25
 70
     1
102
RTVSPropertyOp26
 70
     1
102
RTVSPropertyOp27
 70
     1
102
RTVSPropertyOp28
 70
     1
102
RTVSPropertyOp29
 70
     1
102
RTVSPropertyOp30
 70
     1
102
RTVSPropertyOp31
 70
     1
102
RTVSPropertyOp32
 70
     1
  0
XRECORD
  5
57C
102
{ACAD_REACTORS
330
57B
102
}
330
57B
100
AcDbXrecord
280
     1
102
RTVSPropertyOp0
 70
     1
102
RTVSPropertyOp1
 70
     1
102
RTVSPropertyOp2
 70
     1
102
RTVSPropertyOp3
 70
     1
102
RTVSPropertyOp4
 70
     1
102
RTVSPropertyOp5
 70
     1
102
RTVSPropertyOp6
 70
     1
102
RTVSPropertyOp7
 70
     1
102
RTVSPropertyOp8
 70
     1
102
RTVSPropertyOp9
 70
     1
102
RTVSPropertyOp10
 70
     1
102
RTVSPropertyOp11
 70
     1
102
RTVSPropertyOp12
 70
     1
102
RTVSPropertyOp13
 70
     1
102
RTVSPropertyOp14
 70
     1
102
RTVSPropertyOp15
 70
     1
102
RTVSPropertyOp16
 70
     1
102
RTVSPropertyOp17
 70
     1
102
RTVSPropertyOp18
 70
     1
102
RTVSPropertyOp19
 70
     1
102
RTVSPropertyOp20
 70
     1
102
RTVSPropertyOp21
 70
     1
102
RTVSPropertyOp22
 70
     1
102
RTVSPropertyOp23
 70
     1
102
RTVSPropertyOp24
 70
     1
102
RTVSPropertyOp25
 70
     1
102
RTVSPropertyOp26
 70
     1
102
RTVSPropertyOp27
 70
     1
102
RTVSPropertyOp28
 70
     1
102
RTVSPropertyOp29
 70
     1
102
RTVSPropertyOp30
 70
     1
102
RTVSPropertyOp31
 70
     1
102
RTVSPropertyOp32
 70
     1
  0
XRECORD
  5
57E
102
{ACAD_REACTORS
330
57D
102
}
330
57D
100
AcDbXrecord
280
     1
102
RTVSPropertyOp0
 70
     1
102
RTVSPropertyOp1
 70
     1
102
RTVSPropertyOp2
 70
     1
102
RTVSPropertyOp3
 70
     1
102
RTVSPropertyOp4
 70
     1
102
RTVSPropertyOp5
 70
     1
102
RTVSPropertyOp6
 70
     1
102
RTVSPropertyOp7
 70
     1
102
RTVSPropertyOp8
 70
     1
102
RTVSPropertyOp9
 70
     1
102
RTVSPropertyOp10
 70
     1
102
RTVSPropertyOp11
 70
     1
102
RTVSPropertyOp12
 70
     1
102
RTVSPropertyOp13
 70
     1
102
RTVSPropertyOp14
 70
     1
102
RTVSPropertyOp15
 70
     1
102
RTVSPropertyOp16
 70
     1
102
RTVSPropertyOp17
 70
     1
102
RTVSPropertyOp18
 70
     1
102
RTVSPropertyOp19
 70
     1
102
RTVSPropertyOp20
 70
     1
102
RTVSPropertyOp21
 70
     1
102
RTVSPropertyOp22
 70
     1
102
RTVSPropertyOp23
 70
     1
102
RTVSPropertyOp24
 70
     1
102
RTVSPropertyOp25
 70
     1
102
RTVSPropertyOp26
 70
     1
102
RTVSPropertyOp27
 70
     1
102
RTVSPropertyOp28
 70
     1
102
RTVSPropertyOp29
 70
     1
102
RTVSPropertyOp30
 70
     1
102
RTVSPropertyOp31
 70
     1
102
RTVSPropertyOp32
 70
     1
  0
XRECORD
  5
586
102
{ACAD_REACTORS
330
585
102
}
330
585
100
AcDbXrecord
280
     1
102
RTVSPropertyOp0
 70
     1
102
RTVSPropertyOp1
 70
     1
102
RTVSPropertyOp2
 70
     1
102
RTVSPropertyOp3
 70
     1
102
RTVSPropertyOp4
 70
     1
102
RTVSPropertyOp5
 70
     1
102
RTVSPropertyOp6
 70
     1
102
RTVSPropertyOp7
 70
     1
102
RTVSPropertyOp8
 70
     1
102
RTVSPropertyOp9
 70
     1
102
RTVSPropertyOp10
 70
     1
102
RTVSPropertyOp11
 70
     1
102
RTVSPropertyOp12
 70
     1
102
RTVSPropertyOp13
 70
     1
102
RTVSPropertyOp14
 70
     1
102
RTVSPropertyOp15
 70
     1
102
RTVSPropertyOp16
 70
     1
102
RTVSPropertyOp17
 70
     1
102
RTVSPropertyOp18
 70
     1
102
RTVSPropertyOp19
 70
     1
102
RTVSPropertyOp20
 70
     1
102
RTVSPropertyOp21
 70
     1
102
RTVSPropertyOp22
 70
     1
102
RTVSPropertyOp23
 70
     1
102
RTVSPropertyOp24
 70
     1
102
RTVSPropertyOp25
 70
     1
102
RTVSPropertyOp26
 70
     1
102
RTVSPropertyOp27
 70
     1
102
RTVSPropertyOp28
 70
     1
102
RTVSPropertyOp29
 70
     1
102
RTVSPropertyOp30
 70
     1
102
RTVSPropertyOp31
 70
     1
102
RTVSPropertyOp32
 70
     1
  0
XRECORD
  5
56A
102
{ACAD_REACTORS
330
569
102
}
330
569
100
AcDbXrecord
280
     1
102
RTVSPropertyOp0
 70
     1
102
RTVSPropertyOp1
 70
     1
102
RTVSPropertyOp2
 70
     1
102
RTVSPropertyOp3
 70
     1
102
RTVSPropertyOp4
 70
     1
102
RTVSPropertyOp5
 70
     1
102
RTVSPropertyOp6
 70
     1
102
RTVSPropertyOp7
 70
     1
102
RTVSPropertyOp8
 70
     1
102
RTVSPropertyOp9
 70
     1
102
RTVSPropertyOp10
 70
     1
102
RTVSPropertyOp11
 70
     1
102
RTVSPropertyOp12
 70
     1
102
RTVSPropertyOp13
 70
     1
102
RTVSPropertyOp14
 70
     1
102
RTVSPropertyOp15
 70
     1
102
RTVSPropertyOp16
 70
     1
102
RTVSPropertyOp17
 70
     1
102
RTVSPropertyOp18
 70
     1
102
RTVSPropertyOp19
 70
     1
102
RTVSPropertyOp20
 70
     1
102
RTVSPropertyOp21
 70
     1
102
RTVSPropertyOp22
 70
     1
102
RTVSPropertyOp23
 70
     1
102
RTVSPropertyOp24
 70
     1
102
RTVSPropertyOp25
 70
     1
102
RTVSPropertyOp26
 70
     1
102
RTVSPropertyOp27
 70
     1
102
RTVSPropertyOp28
 70
     1
102
RTVSPropertyOp29
 70
     1
102
RTVSPropertyOp30
 70
     1
102
RTVSPropertyOp31
 70
     1
102
RTVSPropertyOp32
 70
     1
  0
XRECORD
  5
56C
102
{ACAD_REACTORS
330
56B
102
}
330
56B
100
AcDbXrecord
280
     1
102
RTVSPropertyOp0
 70
     1
102
RTVSPropertyOp1
 70
     1
102
RTVSPropertyOp2
 70
     1
102
RTVSPropertyOp3
 70
     1
102
RTVSPropertyOp4
 70
     1
102
RTVSPropertyOp5
 70
     1
102
RTVSPropertyOp6
 70
     1
102
RTVSPropertyOp7
 70
     1
102
RTVSPropertyOp8
 70
     1
102
RTVSPropertyOp9
 70
     1
102
RTVSPropertyOp10
 70
     1
102
RTVSPropertyOp11
 70
     1
102
RTVSPropertyOp12
 70
     1
102
RTVSPropertyOp13
 70
     1
102
RTVSPropertyOp14
 70
     1
102
RTVSPropertyOp15
 70
     1
102
RTVSPropertyOp16
 70
     1
102
RTVSPropertyOp17
 70
     1
102
RTVSPropertyOp18
 70
     1
102
RTVSPropertyOp19
 70
     1
102
RTVSPropertyOp20
 70
     1
102
RTVSPropertyOp21
 70
     1
102
RTVSPropertyOp22
 70
     1
102
RTVSPropertyOp23
 70
     1
102
RTVSPropertyOp24
 70
     1
102
RTVSPropertyOp25
 70
     1
102
RTVSPropertyOp26
 70
     1
102
RTVSPropertyOp27
 70
     1
102
RTVSPropertyOp28
 70
     1
102
RTVSPropertyOp29
 70
     1
102
RTVSPropertyOp30
 70
     1
102
RTVSPropertyOp31
 70
     1
102
RTVSPropertyOp32
 70
     1
  0
XRECORD
  5
56E
102
{ACAD_REACTORS
330
56D
102
}
330
56D
100
AcDbXrecord
280
     1
102
RTVSPropertyOp0
 70
     1
102
RTVSPropertyOp1
 70
     1
102
RTVSPropertyOp2
 70
     1
102
RTVSPropertyOp3
 70
     1
102
RTVSPropertyOp4
 70
     1
102
RTVSPropertyOp5
 70
     1
102
RTVSPropertyOp6
 70
     1
102
RTVSPropertyOp7
 70
     1
102
RTVSPropertyOp8
 70
     1
102
RTVSPropertyOp9
 70
     1
102
RTVSPropertyOp10
 70
     1
102
RTVSPropertyOp11
 70
     1
102
RTVSPropertyOp12
 70
     1
102
RTVSPropertyOp13
 70
     1
102
RTVSPropertyOp14
 70
     1
102
RTVSPropertyOp15
 70
     1
102
RTVSPropertyOp16
 70
     1
102
RTVSPropertyOp17
 70
     1
102
RTVSPropertyOp18
 70
     1
102
RTVSPropertyOp19
 70
     1
102
RTVSPropertyOp20
 70
     1
102
RTVSPropertyOp21
 70
     1
102
RTVSPropertyOp22
 70
     1
102
RTVSPropertyOp23
 70
     1
102
RTVSPropertyOp24
 70
     1
102
RTVSPropertyOp25
 70
     1
102
RTVSPropertyOp26
 70
     1
102
RTVSPropertyOp27
 70
     1
102
RTVSPropertyOp28
 70
     1
102
RTVSPropertyOp29
 70
     1
102
RTVSPropertyOp30
 70
     1
102
RTVSPropertyOp31
 70
     1
102
RTVSPropertyOp32
 70
     1
  0
XRECORD
  5
570
102
{ACAD_REACTORS
330
56F
102
}
330
56F
100
AcDbXrecord
280
     1
102
RTVSPropertyOp0
 70
     1
102
RTVSPropertyOp1
 70
     1
102
RTVSPropertyOp2
 70
     1
102
RTVSPropertyOp3
 70
     1
102
RTVSPropertyOp4
 70
     1
102
RTVSPropertyOp5
 70
     1
102
RTVSPropertyOp6
 70
     1
102
RTVSPropertyOp7
 70
     1
102
RTVSPropertyOp8
 70
     1
102
RTVSPropertyOp9
 70
     1
102
RTVSPropertyOp10
 70
     1
102
RTVSPropertyOp11
 70
     1
102
RTVSPropertyOp12
 70
     1
102
RTVSPropertyOp13
 70
     1
102
RTVSPropertyOp14
 70
     1
102
RTVSPropertyOp15
 70
     1
102
RTVSPropertyOp16
 70
     1
102
RTVSPropertyOp17
 70
     1
102
RTVSPropertyOp18
 70
     1
102
RTVSPropertyOp19
 70
     1
102
RTVSPropertyOp20
 70
     1
102
RTVSPropertyOp21
 70
     1
102
RTVSPropertyOp22
 70
     1
102
RTVSPropertyOp23
 70
     1
102
RTVSPropertyOp24
 70
     1
102
RTVSPropertyOp25
 70
     1
102
RTVSPropertyOp26
 70
     1
102
RTVSPropertyOp27
 70
     1
102
RTVSPropertyOp28
 70
     1
102
RTVSPropertyOp29
 70
     1
102
RTVSPropertyOp30
 70
     1
102
RTVSPropertyOp31
 70
     1
102
RTVSPropertyOp32
 70
     1
  0
XRECORD
  5
584
102
{ACAD_REACTORS
330
583
102
}
330
583
100
AcDbXrecord
280
     1
102
RTVSPropertyOp0
 70
     1
102
RTVSPropertyOp1
 70
     1
102
RTVSPropertyOp2
 70
     1
102
RTVSPropertyOp3
 70
     1
102
RTVSPropertyOp4
 70
     1
102
RTVSPropertyOp5
 70
     1
102
RTVSPropertyOp6
 70
     1
102
RTVSPropertyOp7
 70
     1
102
RTVSPropertyOp8
 70
     1
102
RTVSPropertyOp9
 70
     1
102
RTVSPropertyOp10
 70
     1
102
RTVSPropertyOp11
 70
     1
102
RTVSPropertyOp12
 70
     1
102
RTVSPropertyOp13
 70
     1
102
RTVSPropertyOp14
 70
     1
102
RTVSPropertyOp15
 70
     1
102
RTVSPropertyOp16
 70
     1
102
RTVSPropertyOp17
 70
     1
102
RTVSPropertyOp18
 70
     1
102
RTVSPropertyOp19
 70
     1
102
RTVSPropertyOp20
 70
     1
102
RTVSPropertyOp21
 70
     1
102
RTVSPropertyOp22
 70
     1
102
RTVSPropertyOp23
 70
     1
102
RTVSPropertyOp24
 70
     1
102
RTVSPropertyOp25
 70
     1
102
RTVSPropertyOp26
 70
     1
102
RTVSPropertyOp27
 70
     1
102
RTVSPropertyOp28
 70
     1
102
RTVSPropertyOp29
 70
     1
102
RTVSPropertyOp30
 70
     1
102
RTVSPropertyOp31
 70
     1
102
RTVSPropertyOp32
 70
     1
  0
XRECORD
  5
57A
102
{ACAD_REACTORS
330
579
102
}
330
579
100
AcDbXrecord
280
     1
102
RTVSPropertyOp0
 70
     1
102
RTVSPropertyOp1
 70
     1
102
RTVSPropertyOp2
 70
     1
102
RTVSPropertyOp3
 70
     1
102
RTVSPropertyOp4
 70
     1
102
RTVSPropertyOp5
 70
     1
102
RTVSPropertyOp6
 70
     1
102
RTVSPropertyOp7
 70
     1
102
RTVSPropertyOp8
 70
     1
102
RTVSPropertyOp9
 70
     1
102
RTVSPropertyOp10
 70
     1
102
RTVSPropertyOp11
 70
     1
102
RTVSPropertyOp12
 70
     1
102
RTVSPropertyOp13
 70
     1
102
RTVSPropertyOp14
 70
     1
102
RTVSPropertyOp15
 70
     1
102
RTVSPropertyOp16
 70
     1
102
RTVSPropertyOp17
 70
     1
102
RTVSPropertyOp18
 70
     1
102
RTVSPropertyOp19
 70
     1
102
RTVSPropertyOp20
 70
     1
102
RTVSPropertyOp21
 70
     1
102
RTVSPropertyOp22
 70
     1
102
RTVSPropertyOp23
 70
     1
102
RTVSPropertyOp24
 70
     1
102
RTVSPropertyOp25
 70
     1
102
RTVSPropertyOp26
 70
     1
102
RTVSPropertyOp27
 70
     1
102
RTVSPropertyOp28
 70
     1
102
RTVSPropertyOp29
 70
     1
102
RTVSPropertyOp30
 70
     1
102
RTVSPropertyOp31
 70
     1
102
RTVSPropertyOp32
 70
     1
  0
XRECORD
  5
582
102
{ACAD_REACTORS
330
581
102
}
330
581
100
AcDbXrecord
280
     1
102
RTVSPropertyOp0
 70
     1
102
RTVSPropertyOp1
 70
     1
102
RTVSPropertyOp2
 70
     1
102
RTVSPropertyOp3
 70
     1
102
RTVSPropertyOp4
 70
     1
102
RTVSPropertyOp5
 70
     1
102
RTVSPropertyOp6
 70
     1
102
RTVSPropertyOp7
 70
     1
102
RTVSPropertyOp8
 70
     1
102
RTVSPropertyOp9
 70
     1
102
RTVSPropertyOp10
 70
     1
102
RTVSPropertyOp11
 70
     1
102
RTVSPropertyOp12
 70
     1
102
RTVSPropertyOp13
 70
     1
102
RTVSPropertyOp14
 70
     1
102
RTVSPropertyOp15
 70
     1
102
RTVSPropertyOp16
 70
     1
102
RTVSPropertyOp17
 70
     1
102
RTVSPropertyOp18
 70
     1
102
RTVSPropertyOp19
 70
     1
102
RTVSPropertyOp20
 70
     1
102
RTVSPropertyOp21
 70
     1
102
RTVSPropertyOp22
 70
     1
102
RTVSPropertyOp23
 70
     1
102
RTVSPropertyOp24
 70
     1
102
RTVSPropertyOp25
 70
     1
102
RTVSPropertyOp26
 70
     1
102
RTVSPropertyOp27
 70
     1
102
RTVSPropertyOp28
 70
     1
102
RTVSPropertyOp29
 70
     1
102
RTVSPropertyOp30
 70
     1
102
RTVSPropertyOp31
 70
     1
102
RTVSPropertyOp32
 70
     1
  0
ENDSEC
  0
EOF
