999
DXF file: 1003676_7_d.dxf
999
Pro/ENGINEER 2005030 by Parametric Technology Corporation
0
SECTION
2
HEADER
9
$EXTMAX
10
34.0000000000
20
22.0000000000
30
0.0000000000
9
$EXTMIN
10
0.0000000000
20
0.0000000000
30
0.0000000000
9
$LIMMIN
10
0.0000000000
20
0.0000000000
9
$LIMMAX
10
34.0000000000
20
22.0000000000
9
$VIEWCTR
10
17.0000000000
20
11.0000000000
9
$VIEWSIZE
40
22.0000000000
9
$CLAYER
8
0
9
$LTSCALE
40
1.8700000000
9
$CELTYPE
6
BYLAYER
9
$DIMSCALE
40
1
9
$DIMASZ
40
0.1875000000
9
$DIMEXO
40
0.2125000000
9
$DIMDLI
40
1.2920000000
9
$DIMEXE
40
0.6120000000
9
$DIMCEN
40
0.3060000000
9
$DIMLFAC
40
1.0000000000
9
$DIMBLK
1
_FILLED
9
$DIMTXT
40
0.1562500000
9
$PDMODE
70
3
9
$PDSIZE
40
0.3125000000
0
ENDSEC
0
SECTION
2
TABLES
0
TABLE
2
LTYPE
70
6
0
LTYPE
2
BYBLOCK
70
0
3

72
65
73
0
40
0.0
0
LTYPE
2
BYLAYER
70
0
3

72
65
73
0
40
0.0
0
LTYPE
2
CONTINUOUS
70
64
3
Solid line
72
65
73
0
40
0
0
LTYPE
2
CENTER
70
64
3
____ _ ____ _ ____ _ ____ _ ____ _ ____ _ ____
72
65
73
4
40
0.6
49
0.375
49
-0.075
49
0.075
49
-0.075
0
LTYPE
2
HIDDEN
70
64
3
- - - - - - - - - - - - - - - - - - - -
72
65
73
2
40
0.2
49
0.1
49
-0.1
0
LTYPE
2
PHANTOM
70
64
3
_____ _ _ _____ _ _ _____ _ _ _____
72
65
73
6
40
0.8
49
0.45
49
-0.05
49
0.1
49
-0.05
49
0.1
49
-0.05
0
LTYPE
2
DOT
70
64
3
. . . . . . . . . . . . . . . . . . . .
72
65
73
2
40
0.2
49
0.1
49
-0.1
0
LTYPE
2
DASHED
70
64
3
- - - - - - - - - - - - - - - - - - - -
72
65
73
2
40
0.2
49
0.1
49
-0.1
0
ENDTAB
0
TABLE
2
LAYER
70
36
0
LAYER
2
0
70
0
62
7
6
CONTINUOUS
0
LAYER
2
DEFAULT_1
70
0
62
7
6
CENTER
0
LAYER
2
DEFAULT_2
70
0
62
8
6
HIDDEN
0
LAYER
2
DEFAULT_3
70
0
62
7
6
PHANTOM
0
LAYER
2
_2D_DELETED_OBJS
70
0
62
7
6
CONTINUOUS
0
LAYER
2
0
70
0
62
7
6
CONTINUOUS
0
LAYER
2
ADM
70
0
62
7
6
CONTINUOUS
0
LAYER
2
AUX
70
0
62
7
6
CONTINUOUS
0
LAYER
2
BAK
70
0
62
7
6
CONTINUOUS
0
LAYER
2
BOT
70
0
62
7
6
CONTINUOUS
0
LAYER
2
BOTDIM
70
0
62
7
6
CONTINUOUS
0
LAYER
2
DRAFT_ENT
70
0
62
7
6
CONTINUOUS
0
LAYER
2
FRN
70
0
62
7
6
CONTINUOUS
0
LAYER
2
FRNDIM
70
0
62
7
6
CONTINUOUS
0
LAYER
2
ISO
70
0
62
7
6
CONTINUOUS
0
LAYER
2
LSD
70
0
62
7
6
CONTINUOUS
0
LAYER
2
LSDDIM
70
0
62
7
6
CONTINUOUS
0
LAYER
2
MDL
70
0
62
7
6
CONTINUOUS
0
LAYER
2
NOTE
70
0
62
7
6
CONTINUOUS
0
LAYER
2
PSPTBK
70
0
62
7
6
CONTINUOUS
0
LAYER
2
PSPTXT
70
0
62
7
6
CONTINUOUS
0
LAYER
2
PSPWIN
70
0
62
7
6
CONTINUOUS
0
LAYER
2
RSD
70
0
62
7
6
CONTINUOUS
0
LAYER
2
RSDDIM
70
0
62
7
6
CONTINUOUS
0
LAYER
2
SEC
70
0
62
7
6
CONTINUOUS
0
LAYER
2
SYMBOL
70
0
62
7
6
CONTINUOUS
0
LAYER
2
TOP
70
0
62
7
6
CONTINUOUS
0
LAYER
2
TOPDIM
70
0
62
7
6
CONTINUOUS
0
LAYER
2
VEW
70
0
62
7
6
CONTINUOUS
0
LAYER
2
___NOTE
70
0
62
7
6
CONTINUOUS
0
LAYER
2
___SYMBOL
70
0
62
7
6
CONTINUOUS
0
ENDTAB
0
TABLE
2
STYLE
70
1
0
STYLE
2
STANDARD
70
0
40
0.0
41
0.8000000000
50
0.0
71
0
42
0.2
3
txt
4

0
ENDTAB
0
ENDSEC
0
SECTION
2
BLOCKS
0
BLOCK
8
0
62
2
6
CONTINUOUS
2
*D0
70
65
10
0.0000000000
20
0.0000000000
0
TEXT
8
0
62
2
6
CONTINUOUS
10
15.8008498392
20
13.3376446455
7
STANDARD
40
0.1562499609
1
"
41
0.8000000000
72
0
0
TEXT
8
0
62
2
6
CONTINUOUS
10
14.9258500579
20
13.1032697041
7
STANDARD
40
0.1562499609
1
(42,5 cm)
41
0.8000000000
72
0
0
TEXT
8
0
62
2
6
CONTINUOUS
10
15.0508500267
20
13.3376446455
7
STANDARD
40
0.1562499609
1
16-3/4
41
0.8000000000
72
0
0
LINE
8
0
62
2
6
CONTINUOUS
10
15.7456993435
20
20.0441318731
11
15.3633499173
21
20.0441318731
0
LINE
8
0
62
2
6
CONTINUOUS
10
15.7456993435
20
3.2941360606
11
15.3633499173
21
3.2941360606
0
LINE
8
0
62
2
6
CONTINUOUS
10
15.4883499173
20
20.0441318731
11
15.4883499173
21
13.5720195869
0
LINE
8
0
62
2
6
CONTINUOUS
10
15.4883499173
20
3.2941360606
11
15.4883499173
21
13.0251447236
0
INSERT
8
0
62
2
6
CONTINUOUS
2
_FILLED
10
15.4883499173
20
20.0441318731
41
  0.187500
42
  0.187500
43
  0.187500
50
 90.000000
0
INSERT
8
0
62
2
6
CONTINUOUS
2
_FILLED
10
15.4883499173
20
3.2941360606
41
  0.187500
42
  0.187500
43
  0.187500
50
270.000000
0
ENDBLK
8
0
6
BYBLOCK
62
0
0
BLOCK
8
0
62
2
6
CONTINUOUS
2
*D1
70
65
10
0.0000000000
20
0.0000000000
0
TEXT
8
0
62
2
6
CONTINUOUS
10
13.3523876837
20
11.5946703032
7
STANDARD
40
0.1562506276
1
"
41
0.8000000000
72
0
0
TEXT
8
0
62
2
6
CONTINUOUS
10
12.5398844202
20
11.3602943618
7
STANDARD
40
0.1562506276
1
(54,6 cm
41
0.8000000000
72
0
0
TEXT
8
0
62
2
6
CONTINUOUS
10
12.6023846712
20
11.5946703032
7
STANDARD
40
0.1562506276
1
21-1/2
41
0.8000000000
72
0
0
LINE
8
0
62
2
6
CONTINUOUS
10
4.7444316373
20
11.3712407316
11
4.7444316373
21
11.7977956170
0
LINE
8
0
62
2
6
CONTINUOUS
10
26.2444262623
20
11.3946134439
11
26.2444262623
21
11.7977956170
0
LINE
8
0
62
2
6
CONTINUOUS
10
4.7444316373
20
11.6727956170
11
12.4617591064
21
11.6727956170
0
LINE
8
0
62
2
6
CONTINUOUS
10
26.2444262623
20
11.6727956170
11
13.6180137507
21
11.6727956170
0
INSERT
8
0
62
2
6
CONTINUOUS
2
_FILLED
10
4.7444316373
20
11.6727956170
41
  0.187500
42
  0.187500
43
  0.187500
50
180.000000
0
INSERT
8
0
62
2
6
CONTINUOUS
2
_FILLED
10
26.2444262623
20
11.6727956170
41
  0.187500
42
  0.187500
43
  0.187500
0
ENDBLK
8
0
6
BYBLOCK
62
0
0
BLOCK
8
0
2
_FILLED
70
64
10
0.0000000000
20
0.0000000000
0
SOLID
8
0
6
BYBLOCK
62
0
10
0.0000000000
20
0.0000000000
11
-1.0000000000
21
0.1666666667
12
-1.0000000000
22
-0.1666666667
13
-1.0000000000
23
-0.1666666667
0
ENDBLK
8
0
6
BYBLOCK
62
0
0
ENDSEC
0
SECTION
2
ENTITIES
0
SOLID
8
DRAFT_ENT
62
2
6
CONTINUOUS
10
19.4838762051
20
18.6696505709
11
19.5699788042
21
18.7720388084
12
19.6900174296
22
18.7720388084
13
19.6900174296
23
18.7720388084
0
SOLID
8
DRAFT_ENT
62
2
6
CONTINUOUS
10
19.6900174296
20
18.7720388084
11
19.5567027801
21
18.6135086472
12
19.4838762051
22
18.6696505709
13
19.4838762051
23
18.6696505709
0
SOLID
8
DRAFT_ENT
62
2
6
CONTINUOUS
10
19.4838762051
20
18.5317801880
11
19.5567027801
21
18.6135086472
12
19.5799624119
22
18.4058427992
13
19.5799624119
23
18.4058427992
0
SOLID
8
DRAFT_ENT
62
2
6
CONTINUOUS
10
19.5567027801
20
18.6135086472
11
19.7151451674
21
18.4058427992
12
19.5799624119
22
18.4058427992
13
19.5799624119
23
18.4058427992
0
SOLID
8
DRAFT_ENT
62
2
6
CONTINUOUS
10
19.4838762051
20
18.4058427992
11
19.3748135697
21
18.4058277970
12
19.4838762051
22
18.5317801880
13
19.4838762051
23
18.5317801880
0
SOLID
8
DRAFT_ENT
62
2
6
CONTINUOUS
10
19.5567027801
20
18.6135086472
11
19.4838762051
21
18.5317801880
12
19.4838762051
22
18.6696505709
13
19.4838762051
23
18.6696505709
0
SOLID
8
DRAFT_ENT
62
2
6
CONTINUOUS
10
19.4838762051
20
18.5317801880
11
19.3748135697
21
18.4058277970
12
19.4838762051
22
18.6696505709
13
19.4838762051
23
18.6696505709
0
SOLID
8
DRAFT_ENT
62
2
6
CONTINUOUS
10
19.4838762051
20
18.6696505709
11
19.3748135697
21
18.4058277970
12
19.4838762051
22
18.7720388084
13
19.4838762051
23
18.7720388084
0
SOLID
8
DRAFT_ENT
62
2
6
CONTINUOUS
10
19.3748135697
20
18.4058277970
11
19.3748135697
21
18.7720388084
12
19.4838762051
22
18.7720388084
13
19.4838762051
23
18.7720388084
0
SOLID
8
DRAFT_ENT
62
2
6
CONTINUOUS
10
19.7678978423
20
18.7654079254
11
19.8059910616
21
18.7735048891
12
19.8449353060
22
18.7735048891
13
19.8449353060
23
18.7735048891
0
SOLID
8
DRAFT_ENT
62
2
6
CONTINUOUS
10
19.8449353060
20
18.7735048891
11
19.8830285253
21
18.7654079254
12
19.7678978423
22
18.7654079254
13
19.7678978423
23
18.7654079254
0
SOLID
8
DRAFT_ENT
62
2
6
CONTINUOUS
10
19.7323205046
20
18.7495678741
11
19.7678978423
21
18.7654079254
12
19.8830285253
22
18.7654079254
13
19.8830285253
23
18.7654079254
0
SOLID
8
DRAFT_ENT
62
2
6
CONTINUOUS
10
19.8830285253
20
18.7654079254
11
19.9186058630
21
18.7495678741
12
19.7323205046
22
18.7495678741
13
19.7323205046
23
18.7495678741
0
SOLID
8
DRAFT_ENT
62
2
6
CONTINUOUS
10
19.7008139490
20
18.7266770215
11
19.7323205046
21
18.7495678741
12
19.9186058630
22
18.7495678741
13
19.9186058630
23
18.7495678741
0
SOLID
8
DRAFT_ENT
62
2
6
CONTINUOUS
10
19.9186058630
20
18.7495678741
11
19.9501124186
21
18.7266770215
12
19.7008139490
22
18.7266770215
13
19.7008139490
23
18.7266770215
0
SOLID
8
DRAFT_ENT
62
2
6
CONTINUOUS
10
19.6747551631
20
18.6977358078
11
19.7008139490
21
18.7266770215
12
19.9501124186
22
18.7266770215
13
19.9501124186
23
18.7266770215
0
SOLID
8
DRAFT_ENT
62
2
6
CONTINUOUS
10
19.9501124186
20
18.7266770215
11
19.9761712045
21
18.6977358078
12
19.6747551631
22
18.6977358078
13
19.6747551631
23
18.6977358078
0
SOLID
8
DRAFT_ENT
62
2
6
CONTINUOUS
10
19.8254631838
20
18.6662209012
11
19.6552830408
21
18.6640091027
12
19.9761712045
22
18.6977358078
13
19.9761712045
23
18.6977358078
0
SOLID
8
DRAFT_ENT
62
2
6
CONTINUOUS
10
19.6552830408
20
18.6640091027
11
19.6747551631
21
18.6977358078
12
19.9761712045
22
18.6977358078
13
19.9761712045
23
18.6977358078
0
SOLID
8
DRAFT_ENT
62
2
6
CONTINUOUS
10
19.9761712045
20
18.6977358078
11
19.9956433267
21
18.6640091027
12
19.8254631838
22
18.6662209012
13
19.8254631838
23
18.6662209012
0
SOLID
8
DRAFT_ENT
62
2
6
CONTINUOUS
10
19.8254631838
20
18.6662209012
11
19.8013657667
21
18.6624042453
12
19.6552830408
22
18.6640091027
13
19.6552830408
23
18.6640091027
0
SOLID
8
DRAFT_ENT
62
2
6
CONTINUOUS
10
19.8495606009
20
18.6624042453
11
19.8254631838
21
18.6662209012
12
19.9956433267
22
18.6640091027
13
19.9956433267
23
18.6640091027
0
SOLID
8
DRAFT_ENT
62
2
6
CONTINUOUS
10
19.7623753268
20
18.6340760325
11
19.6432486075
21
18.6269709252
12
19.7796271727
22
18.6513278784
13
19.7796271727
23
18.6513278784
0
SOLID
8
DRAFT_ENT
62
2
6
CONTINUOUS
10
19.7796271727
20
18.6513278784
11
19.6432486075
21
18.6269709252
12
19.8013657667
22
18.6624042453
13
19.8013657667
23
18.6624042453
0
SOLID
8
DRAFT_ENT
62
2
6
CONTINUOUS
10
19.6432486075
20
18.6269709252
11
19.6552830408
21
18.6640091027
12
19.8013657667
22
18.6624042453
13
19.8013657667
23
18.6624042453
0
SOLID
8
DRAFT_ENT
62
2
6
CONTINUOUS
10
19.8495606009
20
18.6624042453
11
19.9956433267
21
18.6640091027
12
19.8712991949
22
18.6513278784
13
19.8712991949
23
18.6513278784
0
SOLID
8
DRAFT_ENT
62
2
6
CONTINUOUS
10
19.8712991949
20
18.6513278784
11
19.9956433267
21
18.6640091027
12
19.8885510408
22
18.6340760325
13
19.8885510408
23
18.6340760325
0
SOLID
8
DRAFT_ENT
62
2
6
CONTINUOUS
10
19.9956433267
20
18.6640091027
11
20.0076777601
21
18.6269709252
12
19.8885510408
22
18.6340760325
13
19.8885510408
23
18.6340760325
0
SOLID
8
DRAFT_ENT
62
2
6
CONTINUOUS
10
19.7623753268
20
18.6340760325
11
19.7512989599
21
18.6123374385
12
19.6432486075
22
18.6269709252
13
19.6432486075
23
18.6269709252
0
SOLID
8
DRAFT_ENT
62
2
6
CONTINUOUS
10
19.8996274077
20
18.6123374385
11
19.8885510408
21
18.6340760325
12
20.0076777601
22
18.6269709252
13
20.0076777601
23
18.6269709252
0
SOLID
8
DRAFT_ENT
62
2
6
CONTINUOUS
10
19.6391778254
20
18.5882400214
11
19.6432486075
21
18.6269709252
12
19.7512989599
22
18.6123374385
13
19.7512989599
23
18.6123374385
0
SOLID
8
DRAFT_ENT
62
2
6
CONTINUOUS
10
19.7512989599
20
18.6123374385
11
19.7474823040
21
18.5882400214
12
19.6391778254
22
18.5882400214
13
19.6391778254
23
18.5882400214
0
SOLID
8
DRAFT_ENT
62
2
6
CONTINUOUS
10
19.8996274077
20
18.6123374385
11
20.0076777601
21
18.6269709252
12
19.9034440636
22
18.5882400214
13
19.9034440636
23
18.5882400214
0
SOLID
8
DRAFT_ENT
62
2
6
CONTINUOUS
10
20.0076777601
20
18.6269709252
11
20.0117485421
21
18.5882400214
12
19.9034440636
22
18.5882400214
13
19.9034440636
23
18.5882400214
0
SOLID
8
DRAFT_ENT
62
2
6
CONTINUOUS
10
19.8996274077
20
18.5641426043
11
19.9034440636
21
18.5882400214
12
20.0117485421
22
18.5882400214
13
20.0117485421
23
18.5882400214
0
SOLID
8
DRAFT_ENT
62
2
6
CONTINUOUS
10
19.7512989599
20
18.5641426043
11
19.6432486075
21
18.5495091176
12
19.7474823040
22
18.5882400214
13
19.7474823040
23
18.5882400214
0
SOLID
8
DRAFT_ENT
62
2
6
CONTINUOUS
10
19.6432486075
20
18.5495091176
11
19.6391778254
21
18.5882400214
12
19.7474823040
22
18.5882400214
13
19.7474823040
23
18.5882400214
0
SOLID
8
DRAFT_ENT
62
2
6
CONTINUOUS
10
20.0117485421
20
18.5882400214
11
20.0076777601
21
18.5495091176
12
19.8996274077
22
18.5641426043
13
19.8996274077
23
18.5641426043
0
SOLID
8
DRAFT_ENT
62
2
6
CONTINUOUS
10
19.7512989599
20
18.5641426043
11
19.7623753268
21
18.5424040103
12
19.6432486075
22
18.5495091176
13
19.6432486075
23
18.5495091176
0
SOLID
8
DRAFT_ENT
62
2
6
CONTINUOUS
10
19.8885510408
20
18.5424040103
11
19.8996274077
21
18.5641426043
12
20.0076777601
22
18.5495091176
13
20.0076777601
23
18.5495091176
0
SOLID
8
DRAFT_ENT
62
2
6
CONTINUOUS
10
19.8013657667
20
18.5140757975
11
19.6552830408
21
18.5124709401
12
19.7796271727
22
18.5251521644
13
19.7796271727
23
18.5251521644
0
SOLID
8
DRAFT_ENT
62
2
6
CONTINUOUS
10
19.7796271727
20
18.5251521644
11
19.6552830408
21
18.5124709401
12
19.7623753268
22
18.5424040103
13
19.7623753268
23
18.5424040103
0
SOLID
8
DRAFT_ENT
62
2
6
CONTINUOUS
10
19.6552830408
20
18.5124709401
11
19.6432486075
21
18.5495091176
12
19.7623753268
22
18.5424040103
13
19.7623753268
23
18.5424040103
0
SOLID
8
DRAFT_ENT
62
2
6
CONTINUOUS
10
19.8885510408
20
18.5424040103
11
20.0076777601
21
18.5495091176
12
19.8712991949
22
18.5251521644
13
19.8712991949
23
18.5251521644
0
SOLID
8
DRAFT_ENT
62
2
6
CONTINUOUS
10
19.8712991949
20
18.5251521644
11
20.0076777601
21
18.5495091176
12
19.8495606009
22
18.5140757975
13
19.8495606009
23
18.5140757975
0
SOLID
8
DRAFT_ENT
62
2
6
CONTINUOUS
10
20.0076777601
20
18.5495091176
11
19.9956433267
21
18.5124709401
12
19.8495606009
22
18.5140757975
13
19.8495606009
23
18.5140757975
0
SOLID
8
DRAFT_ENT
62
2
6
CONTINUOUS
10
19.8013657667
20
18.5140757975
11
19.8254631838
21
18.5102591416
12
19.6552830408
22
18.5124709401
13
19.6552830408
23
18.5124709401
0
SOLID
8
DRAFT_ENT
62
2
6
CONTINUOUS
10
19.8254631838
20
18.5102591416
11
19.8495606009
21
18.5140757975
12
19.9956433267
22
18.5124709401
13
19.9956433267
23
18.5124709401
0
SOLID
8
DRAFT_ENT
62
2
6
CONTINUOUS
10
19.6747551631
20
18.4787442351
11
19.6552830408
21
18.5124709401
12
19.8254631838
22
18.5102591416
13
19.8254631838
23
18.5102591416
0
SOLID
8
DRAFT_ENT
62
2
6
CONTINUOUS
10
19.8254631838
20
18.5102591416
11
19.9956433267
21
18.5124709401
12
19.6747551631
22
18.4787442351
13
19.6747551631
23
18.4787442351
0
SOLID
8
DRAFT_ENT
62
2
6
CONTINUOUS
10
19.9956433267
20
18.5124709401
11
19.9761712045
21
18.4787442351
12
19.6747551631
22
18.4787442351
13
19.6747551631
23
18.4787442351
0
SOLID
8
DRAFT_ENT
62
2
6
CONTINUOUS
10
19.7008139490
20
18.4498030213
11
19.6747551631
21
18.4787442351
12
19.9761712045
22
18.4787442351
13
19.9761712045
23
18.4787442351
0
SOLID
8
DRAFT_ENT
62
2
6
CONTINUOUS
10
19.9761712045
20
18.4787442351
11
19.9501124186
21
18.4498030213
12
19.7008139490
22
18.4498030213
13
19.7008139490
23
18.4498030213
0
SOLID
8
DRAFT_ENT
62
2
6
CONTINUOUS
10
19.7323205046
20
18.4269121687
11
19.7008139490
21
18.4498030213
12
19.9501124186
22
18.4498030213
13
19.9501124186
23
18.4498030213
0
SOLID
8
DRAFT_ENT
62
2
6
CONTINUOUS
10
19.9501124186
20
18.4498030213
11
19.9186058630
21
18.4269121687
12
19.7323205046
22
18.4269121687
13
19.7323205046
23
18.4269121687
0
SOLID
8
DRAFT_ENT
62
2
6
CONTINUOUS
10
19.7678978423
20
18.4110721175
11
19.7323205046
21
18.4269121687
12
19.9186058630
22
18.4269121687
13
19.9186058630
23
18.4269121687
0
SOLID
8
DRAFT_ENT
62
2
6
CONTINUOUS
10
19.9186058630
20
18.4269121687
11
19.8830285253
21
18.4110721175
12
19.7678978423
22
18.4110721175
13
19.7678978423
23
18.4110721175
0
SOLID
8
DRAFT_ENT
62
2
6
CONTINUOUS
10
19.8059910616
20
18.4029751537
11
19.7678978423
21
18.4110721175
12
19.8830285253
22
18.4110721175
13
19.8830285253
23
18.4110721175
0
SOLID
8
DRAFT_ENT
62
2
6
CONTINUOUS
10
19.8830285253
20
18.4110721175
11
19.8449353060
21
18.4029751537
12
19.8059910616
22
18.4029751537
13
19.8059910616
23
18.4029751537
0
SOLID
8
DRAFT_ENT
62
2
6
CONTINUOUS
10
20.2179021164
20
18.6342989667
11
20.2179021164
21
18.7720388084
12
20.3208606602
22
18.7720388084
13
20.3208606602
23
18.7720388084
0
SOLID
8
DRAFT_ENT
62
2
6
CONTINUOUS
10
20.2179021164
20
18.6342989667
11
20.1254041150
21
18.5485456719
12
20.1254041150
22
18.6342989667
13
20.1254041150
23
18.6342989667
0
SOLID
8
DRAFT_ENT
62
2
6
CONTINUOUS
10
20.1254041150
20
18.5485456719
11
20.0224455711
21
18.4058427992
12
20.1254041150
22
18.6342989667
13
20.1254041150
23
18.6342989667
0
SOLID
8
DRAFT_ENT
62
2
6
CONTINUOUS
10
20.1254041150
20
18.6342989667
11
20.0224455711
21
18.4058427992
12
20.1254041150
22
18.7720388084
13
20.1254041150
23
18.7720388084
0
SOLID
8
DRAFT_ENT
62
2
6
CONTINUOUS
10
20.0224455711
20
18.4058427992
11
20.0224455711
21
18.7720388084
12
20.1254041150
22
18.7720388084
13
20.1254041150
23
18.7720388084
0
SOLID
8
DRAFT_ENT
62
2
6
CONTINUOUS
10
20.1254041150
20
18.5485456719
11
20.1254041150
21
18.4058427992
12
20.0224455711
22
18.4058427992
13
20.0224455711
23
18.4058427992
0
SOLID
8
DRAFT_ENT
62
2
6
CONTINUOUS
10
20.1254041150
20
18.5485456719
11
20.2179021164
21
18.6342989667
12
20.2179021164
22
18.5485456719
13
20.2179021164
23
18.5485456719
0
SOLID
8
DRAFT_ENT
62
2
6
CONTINUOUS
10
20.2179021164
20
18.6342989667
11
20.3208606602
21
18.7720388084
12
20.2179021164
22
18.5485456719
13
20.2179021164
23
18.5485456719
0
SOLID
8
DRAFT_ENT
62
2
6
CONTINUOUS
10
20.2179021164
20
18.5485456719
11
20.3208606602
21
18.7720388084
12
20.2179021164
22
18.4058427992
13
20.2179021164
23
18.4058427992
0
SOLID
8
DRAFT_ENT
62
2
6
CONTINUOUS
10
20.3208606602
20
18.7720388084
11
20.3208606602
21
18.4058427992
12
20.2179021164
22
18.4058427992
13
20.2179021164
23
18.4058427992
0
SOLID
8
DRAFT_ENT
62
2
6
CONTINUOUS
10
20.5444700076
20
18.4941095172
11
20.3490136862
21
18.4058427992
12
20.4427924699
22
18.4941095172
13
20.4427924699
23
18.4941095172
0
SOLID
8
DRAFT_ENT
62
2
6
CONTINUOUS
10
20.4427924699
20
18.4941095172
11
20.3490136862
21
18.4058427992
12
20.4427924699
22
18.7720388084
13
20.4427924699
23
18.7720388084
0
SOLID
8
DRAFT_ENT
62
2
6
CONTINUOUS
10
20.3490136862
20
18.4058427992
11
20.3490136862
21
18.7720388084
12
20.4427924699
22
18.7720388084
13
20.4427924699
23
18.7720388084
0
SOLID
8
DRAFT_ENT
62
2
6
CONTINUOUS
10
20.3490136862
20
18.4058427992
11
20.5444700076
21
18.4941095172
12
20.4427924699
22
18.4058427992
13
20.4427924699
23
18.4058427992
0
SOLID
8
DRAFT_ENT
62
2
6
CONTINUOUS
10
20.5444700076
20
18.4941095172
11
20.5444700076
21
18.4058427992
12
20.4427924699
22
18.4058427992
13
20.4427924699
23
18.4058427992
0
SOLID
8
DRAFT_ENT
62
2
6
CONTINUOUS
10
20.7558774413
20
18.7720388084
11
20.7558774413
21
18.6828141907
12
20.6615914948
22
18.6828141907
13
20.6615914948
23
18.6828141907
0
SOLID
8
DRAFT_ENT
62
2
6
CONTINUOUS
10
20.7558774413
20
18.6342989667
11
20.7558774413
21
18.5440604711
12
20.6615914948
22
18.5440604711
13
20.6615914948
23
18.5440604711
0
SOLID
8
DRAFT_ENT
62
2
6
CONTINUOUS
10
20.7558774413
20
18.4941095172
11
20.5626873432
21
18.4058427992
12
20.6615914948
22
18.4941095172
13
20.6615914948
23
18.4941095172
0
SOLID
8
DRAFT_ENT
62
2
6
CONTINUOUS
10
20.6615914948
20
18.4941095172
11
20.5626873432
21
18.4058427992
12
20.6615914948
22
18.5440604711
13
20.6615914948
23
18.5440604711
0
SOLID
8
DRAFT_ENT
62
2
6
CONTINUOUS
10
20.7558774413
20
18.6342989667
11
20.6615914948
21
18.5440604711
12
20.6615914948
22
18.6342989667
13
20.6615914948
23
18.6342989667
0
SOLID
8
DRAFT_ENT
62
2
6
CONTINUOUS
10
20.6615914948
20
18.5440604711
11
20.5626873432
21
18.4058427992
12
20.6615914948
22
18.6342989667
13
20.6615914948
23
18.6342989667
0
SOLID
8
DRAFT_ENT
62
2
6
CONTINUOUS
10
20.6615914948
20
18.6342989667
11
20.5626873432
21
18.4058427992
12
20.6615914948
22
18.6828141907
13
20.6615914948
23
18.6828141907
0
SOLID
8
DRAFT_ENT
62
2
6
CONTINUOUS
10
20.7558774413
20
18.7720388084
11
20.6615914948
21
18.6828141907
12
20.6704691964
22
18.7720388084
13
20.6704691964
23
18.7720388084
0
SOLID
8
DRAFT_ENT
62
2
6
CONTINUOUS
10
20.6615914948
20
18.6828141907
11
20.5626873432
21
18.4058427992
12
20.6704691964
22
18.7720388084
13
20.6704691964
23
18.7720388084
0
SOLID
8
DRAFT_ENT
62
2
6
CONTINUOUS
10
20.5626873432
20
18.4058427992
11
20.5626873432
21
18.7720388084
12
20.6704691964
22
18.7720388084
13
20.6704691964
23
18.7720388084
0
SOLID
8
DRAFT_ENT
62
2
6
CONTINUOUS
10
20.7558774413
20
18.4941095172
11
20.7558774413
21
18.4058427992
12
20.5626873432
22
18.4058427992
13
20.5626873432
23
18.4058427992
0
SOLID
8
DRAFT_ENT
62
2
6
CONTINUOUS
10
20.9298573782
20
18.7720432494
11
20.9591905161
21
18.7680368443
12
20.7838900739
22
18.7720388084
13
20.7838900739
23
18.7720388084
0
SOLID
8
DRAFT_ENT
62
2
6
CONTINUOUS
10
20.8780499574
20
18.6829270428
11
21.0367622862
21
18.6858203773
12
20.9130061312
22
18.6829270428
13
20.9130061312
23
18.6829270428
0
SOLID
8
DRAFT_ENT
62
2
6
CONTINUOUS
10
20.9130061312
20
18.6829270428
11
21.0367622862
21
18.6858203773
12
20.9278327439
22
18.6794681878
13
20.9278327439
23
18.6794681878
0
SOLID
8
DRAFT_ENT
62
2
6
CONTINUOUS
10
20.9278327439
20
18.6794681878
11
21.0367622862
21
18.6858203773
12
20.9395983605
22
18.6698057665
13
20.9395983605
23
18.6698057665
0
SOLID
8
DRAFT_ENT
62
2
6
CONTINUOUS
10
21.0367622862
20
18.6858203773
11
21.0390580651
21
18.6563040486
12
20.9395983605
22
18.6698057665
13
20.9395983605
23
18.6698057665
0
SOLID
8
DRAFT_ENT
62
2
6
CONTINUOUS
10
20.9458739467
20
18.6559346044
11
20.9395983605
21
18.6698057665
12
21.0390580651
22
18.6563040486
13
21.0390580651
23
18.6563040486
0
SOLID
8
DRAFT_ENT
62
2
6
CONTINUOUS
10
20.9458739467
20
18.6559346044
11
21.0390580651
21
18.6563040486
12
20.9453638957
22
18.6407184299
13
20.9453638957
23
18.6407184299
0
SOLID
8
DRAFT_ENT
62
2
6
CONTINUOUS
10
20.9453638957
20
18.6407184299
11
21.0390580651
21
18.6563040486
12
20.9381735084
22
18.6272986515
13
20.9381735084
23
18.6272986515
0
SOLID
8
DRAFT_ENT
62
2
6
CONTINUOUS
10
21.0390580651
20
18.6563040486
11
21.0333545631
21
18.6272531565
12
20.9381735084
22
18.6272986515
13
20.9381735084
23
18.6272986515
0
SOLID
8
DRAFT_ENT
62
2
6
CONTINUOUS
10
20.9257872542
20
18.6184458086
11
20.9381735084
21
18.6272986515
12
21.0333545631
22
18.6272531565
13
21.0333545631
23
18.6272531565
0
SOLID
8
DRAFT_ENT
62
2
6
CONTINUOUS
10
20.9257872542
20
18.6184458086
11
21.0333545631
21
18.6272531565
12
20.9107622993
22
18.6159875877
13
20.9107622993
23
18.6159875877
0
SOLID
8
DRAFT_ENT
62
2
6
CONTINUOUS
10
21.0333545631
20
18.6272531565
11
21.0200695791
21
18.6007957669
12
20.9107622993
22
18.6159875877
13
20.9107622993
23
18.6159875877
0
SOLID
8
DRAFT_ENT
62
2
6
CONTINUOUS
10
20.9751319053
20
18.5630818782
11
20.8780499574
21
18.5289405237
12
21.0001762783
22
18.5788699636
13
21.0001762783
23
18.5788699636
0
SOLID
8
DRAFT_ENT
62
2
6
CONTINUOUS
10
21.0001762783
20
18.5788699636
11
20.8780499574
21
18.5289405237
12
21.0200695791
22
18.6007957669
13
21.0200695791
23
18.6007957669
0
SOLID
8
DRAFT_ENT
62
2
6
CONTINUOUS
10
21.0200695791
20
18.6007957669
11
20.8780499574
21
18.5289405237
12
20.9107622993
22
18.6159875877
13
20.9107622993
23
18.6159875877
0
SOLID
8
DRAFT_ENT
62
2
6
CONTINUOUS
10
20.8780499574
20
18.5289405237
11
20.7838900739
21
18.4058427992
12
20.9107622993
22
18.6159875877
13
20.9107622993
23
18.6159875877
0
SOLID
8
DRAFT_ENT
62
2
6
CONTINUOUS
10
20.9107622993
20
18.6159875877
11
20.7838900739
21
18.4058427992
12
20.8780499574
22
18.6159875877
13
20.8780499574
23
18.6159875877
0
SOLID
8
DRAFT_ENT
62
2
6
CONTINUOUS
10
20.8780499574
20
18.6159875877
11
20.7838900739
21
18.4058427992
12
20.8780499574
22
18.6829270428
13
20.8780499574
23
18.6829270428
0
SOLID
8
DRAFT_ENT
62
2
6
CONTINUOUS
10
21.0367622862
20
18.6858203773
11
20.8780499574
21
18.6829270428
12
21.0266353992
22
18.7136399824
13
21.0266353992
23
18.7136399824
0
SOLID
8
DRAFT_ENT
62
2
6
CONTINUOUS
10
21.0266353992
20
18.7136399824
11
20.8780499574
21
18.6829270428
12
21.0094192293
22
18.7377249934
13
21.0094192293
23
18.7377249934
0
SOLID
8
DRAFT_ENT
62
2
6
CONTINUOUS
10
21.0094192293
20
18.7377249934
11
20.8780499574
21
18.6829270428
12
20.9863749130
22
18.7563111105
13
20.9863749130
23
18.7563111105
0
SOLID
8
DRAFT_ENT
62
2
6
CONTINUOUS
10
20.9863749130
20
18.7563111105
11
20.8780499574
21
18.6829270428
12
20.9591905161
22
18.7680368443
13
20.9591905161
23
18.7680368443
0
SOLID
8
DRAFT_ENT
62
2
6
CONTINUOUS
10
20.9591905161
20
18.7680368443
11
20.8780499574
21
18.6829270428
12
20.7838900739
22
18.7720388084
13
20.7838900739
23
18.7720388084
0
SOLID
8
DRAFT_ENT
62
2
6
CONTINUOUS
10
20.7838900739
20
18.4058427992
11
20.7838900739
21
18.7720388084
12
20.8780499574
22
18.6829270428
13
20.8780499574
23
18.6829270428
0
SOLID
8
DRAFT_ENT
62
2
6
CONTINUOUS
10
20.8780499574
20
18.5289405237
11
20.8780499574
21
18.4058427992
12
20.7838900739
22
18.4058427992
13
20.7838900739
23
18.4058427992
0
SOLID
8
DRAFT_ENT
62
2
6
CONTINUOUS
10
20.8780499574
20
18.5289405237
11
20.9751319053
21
18.5630818782
12
20.9560645960
22
18.4058427992
13
20.9560645960
23
18.4058427992
0
SOLID
8
DRAFT_ENT
62
2
6
CONTINUOUS
10
20.9751319053
20
18.5630818782
11
21.0747839262
21
18.4058427992
12
20.9560645960
22
18.4058427992
13
20.9560645960
23
18.4058427992
0
SOLID
8
DRAFT_ENT
62
2
6
CONTINUOUS
10
18.2193341321
20
8.6085050526
11
18.2193341321
21
8.7098675273
12
18.9324214538
22
8.7098675273
13
18.9324214538
23
8.7098675273
0
SOLID
8
DRAFT_ENT
62
2
6
CONTINUOUS
10
18.9324214538
20
8.7098675273
11
18.9324214538
21
8.6085050526
12
18.2193341321
22
8.6085050526
13
18.2193341321
23
8.6085050526
0
SOLID
8
DRAFT_ENT
62
2
6
CONTINUOUS
10
18.2193341321
20
8.3696613623
11
18.2193341321
21
8.3988113551
12
18.9324214538
22
8.3988113551
13
18.9324214538
23
8.3988113551
0
SOLID
8
DRAFT_ENT
62
2
6
CONTINUOUS
10
18.9324214538
20
8.3988113551
11
18.9324214538
21
8.3696613623
12
18.2193341321
22
8.3696613623
13
18.2193341321
23
8.3696613623
0
SOLID
8
DRAFT_ENT
62
2
6
CONTINUOUS
10
18.2582091224
20
8.7473675179
11
18.2582091224
21
8.7987425051
12
18.9712964441
22
8.7987425051
13
18.9712964441
23
8.7987425051
0
SOLID
8
DRAFT_ENT
62
2
6
CONTINUOUS
10
18.9712964441
20
8.7987425051
11
18.9712964441
21
8.7473675179
12
18.2582091224
22
8.7473675179
13
18.2582091224
23
8.7473675179
0
SOLID
8
DRAFT_ENT
62
2
6
CONTINUOUS
10
18.2582091224
20
8.8529049915
11
18.2582091224
21
8.9042737287
12
18.9712964441
22
8.9042737287
13
18.9712964441
23
8.9042737287
0
SOLID
8
DRAFT_ENT
62
2
6
CONTINUOUS
10
18.9712964441
20
8.9042737287
11
18.9712964441
21
8.8529049915
12
18.2582091224
22
8.8529049915
13
18.2582091224
23
8.8529049915
0
SOLID
8
DRAFT_ENT
62
2
6
CONTINUOUS
10
18.2582091224
20
8.9362237207
11
18.2582091224
21
8.9875924579
12
18.9712964441
22
8.9875924579
13
18.9712964441
23
8.9875924579
0
SOLID
8
DRAFT_ENT
62
2
6
CONTINUOUS
10
18.9712964441
20
8.9875924579
11
18.9712964441
21
8.9362237207
12
18.2582091224
22
8.9362237207
13
18.2582091224
23
8.9362237207
0
SOLID
8
DRAFT_ENT
62
2
6
CONTINUOUS
10
18.2582091224
20
9.0195361999
11
18.2582091224
21
9.0709111870
12
18.9712964441
22
9.0709111870
13
18.9712964441
23
9.0709111870
0
SOLID
8
DRAFT_ENT
62
2
6
CONTINUOUS
10
18.9712964441
20
9.0709111870
11
18.9712964441
21
9.0195361999
12
18.2582091224
22
9.0195361999
13
18.2582091224
23
9.0195361999
0
SOLID
8
DRAFT_ENT
62
2
6
CONTINUOUS
10
18.2582091224
20
9.1028549290
11
18.2582091224
21
9.1542299162
12
18.9712964441
22
9.1542299162
13
18.9712964441
23
9.1542299162
0
SOLID
8
DRAFT_ENT
62
2
6
CONTINUOUS
10
18.9712964441
20
9.1542299162
11
18.9712964441
21
9.1028549290
12
18.2582091224
22
9.1028549290
13
18.2582091224
23
9.1028549290
0
SOLID
8
DRAFT_ENT
62
2
6
CONTINUOUS
10
19.5428400512
20
8.6085050526
11
19.5428400512
21
8.7098675273
12
19.8286337298
22
8.7098675273
13
19.8286337298
23
8.7098675273
0
SOLID
8
DRAFT_ENT
62
2
6
CONTINUOUS
10
19.8286337298
20
8.7098675273
11
19.8286337298
21
8.6085050526
12
19.5428400512
22
8.6085050526
13
19.5428400512
23
8.6085050526
0
DIMENSION
8
0
62
2
6
CONTINUOUS
2
*D0
10
15.4883499173
20
3.2941360606
11
15.4883499173
21
13.2985821552
70
128
13
15.7456993435
23
20.0441318731
14
15.7456993435
24
3.2941360606
50
270.000000
0
DIMENSION
8
0
62
2
6
CONTINUOUS
2
*D1
10
26.2444262623
20
11.6727956170
11
13.0398864285
21
11.5556076463
70
128
13
4.7444316373
23
11.3712407316
14
26.2444262623
24
11.3946134439
0
TEXT
8
0
62
2
6
CONTINUOUS
10
22.8643939373
20
3.9764160753
7
STANDARD
40
0.1559999610
1
2005 KOHLER CO.
41
1.0000000000
72
0
0
TEXT
8
0
62
2
6
CONTINUOUS
10
5.8811862933
20
3.4683873356
7
STANDARD
40
0.1559999610
1
1003676-7
41
1.0000000000
72
0
0
TEXT
8
0
62
2
6
CONTINUOUS
10
7.2851859423
20
3.4683873356
7
STANDARD
40
0.1559999610
1
-D
41
1.0000000000
72
0
0
TEXT
8
0
62
2
6
CONTINUOUS
10
5.8811862933
20
2.1337496965
7
STANDARD
40
0.1559999610
1
1003676-7
41
1.0000000000
72
0
0
TEXT
8
0
62
2
6
CONTINUOUS
10
7.2851859423
20
2.1337496965
7
STANDARD
40
0.1559999610
1
-D
41
1.0000000000
72
0
0
TEXT
8
NOTE
62
2
6
CONTINUOUS
10
19.3895406693
20
18.1027979054
7
STANDARD
40
0.1562499609
1
CUT-OUT TEMPLATE
41
0.8000000000
72
0
0
TEXT
8
NOTE
62
2
6
CONTINUOUS
10
19.3895406693
20
17.8684229640
7
STANDARD
40
0.1562499609
1
SELF-RIMMING LAVATORY
41
0.8000000000
72
0
0
TEXT
8
NOTE
62
2
6
CONTINUOUS
10
19.3895406693
20
17.6340479746
7
STANDARD
40
0.1562499993
1
PLANTILLA DE RECORTE
41
0.8000000000
72
0
0
TEXT
8
NOTE
62
2
6
CONTINUOUS
10
19.3895406693
20
17.3996729756
7
STANDARD
40
0.1562499993
1
LAVABO CON BORDE TERMINADO
41
0.8000000000
72
0
0
TEXT
8
NOTE
62
2
6
CONTINUOUS
10
19.3895406693
20
17.1652980246
7
STANDARD
40
0.1562499609
1
GABARIT
41
0.8000000000
72
0
0
TEXT
8
NOTE
62
2
6
CONTINUOUS
10
19.3895406693
20
16.9309230832
7
STANDARD
40
0.1562499609
1
LAVABO À REBORD INTÉGRÉ
41
0.8000000000
72
0
0
TEXT
8
NOTE
62
2
6
CONTINUOUS
10
19.3895406693
20
16.6965481418
7
STANDARD
40
0.1562499609
1
 
41
0.8000000000
72
0
0
TEXT
8
NOTE
62
2
6
CONTINUOUS
10
19.3895406693
20
16.4621731524
7
STANDARD
40
0.1562499993
1
MEMOIRS
41
1.0000000000
72
0
0
TEXT
8
NOTE
62
2
6
CONTINUOUS
10
20.4832906645
20
16.4621731524
7
STANDARD
40
0.1562499609
1
  
41
0.8000000000
72
0
0
TEXT
8
NOTE
62
2
6
CONTINUOUS
10
20.7332906020
20
16.4621731524
7
STANDARD
40
0.1562499993
1
2241-**-**-BB
41
1.0000000000
72
0
0
TEXT
8
NOTE
62
2
6
CONTINUOUS
10
19.3895406693
20
16.2277982014
7
STANDARD
40
0.1562499609
1
 
41
0.8000000000
72
0
0
TEXT
8
NOTE
62
2
6
CONTINUOUS
10
19.3895406693
20
15.9934232600
7
STANDARD
40
0.1562499609
1
ARTIST EDITION  14229-**-**-AA
41
0.8000000000
72
0
0
TEXT
8
NOTE
62
2
6
CONTINUOUS
10
19.3895406693
20
15.7590483186
7
STANDARD
40
0.1562499609
1
 
41
0.8000000000
72
0
0
TEXT
8
NOTE
62
2
6
CONTINUOUS
10
19.3895406693
20
15.5246725439
7
STANDARD
40
0.1562506276
1
MEMOIRS  2337-**-AA
41
0.8000000000
72
0
0
TEXT
8
NOTE
62
2
6
CONTINUOUS
10
18.2155097764
20
8.4744284257
7
STANDARD
40
0.0799999800
1
XXXXX-XX-X-XX
41
0.8500000000
72
0
0
TEXT
8
NOTE
62
2
6
CONTINUOUS
10
19.6827413687
20
8.3715922994
7
STANDARD
40
0.0387499903
1
xxxxxx-xx
41
0.8000000000
72
0
0
TEXT
8
NOTE
62
2
6
CONTINUOUS
10
6.1497011222
20
9.3126282601
7
STANDARD
40
0.1562499609
1
CUT ALONG THIS LINE
41
0.8000000000
72
0
0
TEXT
8
NOTE
62
2
6
CONTINUOUS
10
6.1497011222
20
9.0782533187
7
STANDARD
40
0.1562499609
1
CORTE A LO LARGO DE ESTA LÍNEA
41
0.8000000000
72
0
0
LINE
8
NOTE
62
2
6
CONTINUOUS
10
4.7444316373
20
8.7790582083
11
5.8997011222
21
9.3907532405
0
LINE
8
NOTE
62
2
6
CONTINUOUS
10
5.8997011222
20
9.3907532405
11
6.1497011222
21
9.3907532405
0
SOLID
8
NOTE
62
2
6
CONTINUOUS
10
4.8955140029
20
8.8944138814
11
4.7444316373
21
8.7790582083
12
4.9247600393
22
8.8391787534
13
4.9247600393
23
8.8391787534
0
TEXT
8
NOTE
62
2
6
CONTINUOUS
10
6.2868194854
20
7.0273222064
7
STANDARD
40
0.1562499609
1
RIM OF LAVATORY
41
0.8000000000
72
0
0
TEXT
8
NOTE
62
2
6
CONTINUOUS
10
6.2868194854
20
6.7929472650
7
STANDARD
40
0.1562499609
1
BORDE DEL LAVABO
41
0.8000000000
72
0
0
LINE
8
NOTE
62
2
6
CONTINUOUS
10
4.1194317935
20
5.9064379753
11
6.0368194854
21
7.1054471869
0
LINE
8
NOTE
62
2
6
CONTINUOUS
10
6.0368194854
20
7.1054471869
11
6.2868194854
21
7.1054471869
0
SOLID
8
NOTE
62
2
6
CONTINUOUS
10
4.2618387059
20
6.0323470053
11
4.1194317935
21
5.9064379753
12
4.2949763960
22
5.9793550861
13
4.2949763960
23
5.9793550861
0
TEXT
8
NOTE
62
2
6
CONTINUOUS
10
22.5437302541
20
16.4646342035
7
STANDARD
40
0.1562499609
1
 
41
0.8000000000
72
0
0
TEXT
8
NOTE
62
2
6
CONTINUOUS
10
17.9506257822
20
9.8007583765
7
STANDARD
40
0.1562506276
1
PACKAGING/UPC LABEL ON BOX
41
0.8000000000
72
0
0
TEXT
8
NOTE
62
2
6
CONTINUOUS
10
17.9506257822
20
9.5663824351
7
STANDARD
40
0.1562506276
1
ETIQUETA DE EMBALAJE/UPC EN LA CAJA
41
0.8000000000
72
0
0
TEXT
8
NOTE
62
2
6
CONTINUOUS
10
17.4304834876
20
8.0277170023
7
STANDARD
40
0.1562506276
1
The template and the label suffixes circled
41
0.8000000000
72
0
0
TEXT
8
NOTE
62
2
6
CONTINUOUS
10
17.4304834876
20
7.7933410609
7
STANDARD
40
0.1562506276
1
must match for proper cut-out.
41
0.8000000000
72
0
0
TEXT
8
NOTE
62
2
6
CONTINUOUS
10
17.4304834876
20
7.5589651195
7
STANDARD
40
0.1562506276
1
 
41
0.8000000000
72
0
0
TEXT
8
NOTE
62
2
6
CONTINUOUS
10
17.4304834876
20
7.3245891781
7
STANDARD
40
0.1562506276
1
A fin de realizar el corte apropiado, la plantilla y
41
0.8000000000
72
0
0
TEXT
8
NOTE
62
2
6
CONTINUOUS
10
17.4304834876
20
7.0902132367
7
STANDARD
40
0.1562506276
1
los sufijos de la etiqueta demarcados deben concordar
41
0.8000000000
72
0
0
TEXT
8
NOTE
62
2
6
CONTINUOUS
10
6.8078296102
20
16.6963062600
7
STANDARD
40
0.1562506276
1
When plotting template full size: Make sure horizontal
41
0.8000000000
72
0
0
TEXT
8
NOTE
62
2
6
CONTINUOUS
10
6.8078296102
20
16.4619303186
7
STANDARD
40
0.1562506276
1
and vertical dimensions match the dimensions labeled
41
0.8000000000
72
0
0
TEXT
8
NOTE
62
2
6
CONTINUOUS
10
6.8078296102
20
16.2275543772
7
STANDARD
40
0.1562506276
1
on the template.
41
0.8000000000
72
0
0
TEXT
8
NOTE
62
2
6
CONTINUOUS
10
6.8078296102
20
15.9931784358
7
STANDARD
40
0.1562506276
1
 
41
0.8000000000
72
0
0
TEXT
8
NOTE
62
2
6
CONTINUOUS
10
6.8078296102
20
15.7588024944
7
STANDARD
40
0.1562506276
1
Al trazar una plantilla a escala, asegúrese de que
41
0.8000000000
72
0
0
TEXT
8
NOTE
62
2
6
CONTINUOUS
10
6.8078296102
20
15.5244265530
7
STANDARD
40
0.1562506276
1
las dimensiones horizontales y verticales concuerden
41
0.8000000000
72
0
0
TEXT
8
NOTE
62
2
6
CONTINUOUS
10
6.8078296102
20
15.2900506116
7
STANDARD
40
0.1562506276
1
con las dimensiones marcadas en la plantilla
41
0.8000000000
72
0
0
TEXT
8
NOTE
62
2
6
CONTINUOUS
10
22.6929662837
20
4.0118504006
7
STANDARD
40
0.0999999750
1
C
41
0.8000000000
72
0
0
TEXT
8
NOTE
62
2
6
CONTINUOUS
10
17.4214147677
20
6.6617455968
7
STANDARD
40
0.1562506276
1
Pour une découpe adéquate, assurez-vous que les suffixes
41
0.8000000000
72
0
0
TEXT
8
NOTE
62
2
6
CONTINUOUS
10
17.4214147677
20
6.4273696554
7
STANDARD
40
0.1562506276
1
de l'étiquette et du gabarit soient identiques
41
0.8000000000
72
0
0
TEXT
8
NOTE
62
2
6
CONTINUOUS
10
17.9685837903
20
9.3069134864
7
STANDARD
40
0.1562499609
1
EMBALLAGE/ÉTIGUETTE UPC SUR LA BOITE
41
0.8000000000
72
0
0
TEXT
8
NOTE
62
2
6
CONTINUOUS
10
6.8258613340
20
14.8440560519
7
STANDARD
40
0.1562506276
1
Lorsque vous imprimez ce dessin, assurez-vous que les
41
0.8000000000
72
0
0
TEXT
8
NOTE
62
2
6
CONTINUOUS
10
6.8258613340
20
14.6096801105
7
STANDARD
40
0.1562506276
1
dimensions horizontales et verticales correspondent
41
0.8000000000
72
0
0
TEXT
8
NOTE
62
2
6
CONTINUOUS
10
6.8258613340
20
14.3753041691
7
STANDARD
40
0.1562506276
1
aux dimensions indiquées sur l'étiquette.
41
0.8000000000
72
0
0
TEXT
8
NOTE
62
2
6
CONTINUOUS
10
6.2308657027
20
8.8148807072
7
STANDARD
40
0.1562499609
1
DÉCOUPEZ EN SUIVANT CETTE LIGNE
41
0.8000000000
72
0
0
TEXT
8
NOTE
62
2
6
CONTINUOUS
10
6.3764492003
20
6.5479979041
7
STANDARD
40
0.1562499609
1
BORD DU LAVABO
41
0.8000000000
72
0
0
TEXT
8
0
62
2
6
CONTINUOUS
10
20.4746562016
20
16.5524520188
7
STANDARD
40
0.0704999824
1
TM
41
1.0000000000
72
0
0
TEXT
8
0
62
2
6
CONTINUOUS
10
21.1487985928
20
16.0901829506
7
STANDARD
40
0.0704999824
1
TM
41
1.0000000000
72
0
0
TEXT
8
0
62
2
6
CONTINUOUS
10
22.9610564963
20
15.9831039241
7
STANDARD
40
0.1562499609
1
 
41
0.8000000000
72
0
0
TEXT
8
___NOTE
62
2
6
CONTINUOUS
10
20.2686485016
20
15.6645775769
7
STANDARD
40
0.0704999824
1
TM
41
1.0000000000
72
0
0
POLYLINE
8
0
62
7
6
DASHED
66
1
70
0
0
VERTEX
8
0
62
7
6
DASHED
10
4.1194351571
20
2.8566378380
0
VERTEX
8
0
62
7
6
DASHED
10
4.1196474947
20
2.8477157260
0
VERTEX
8
0
62
7
6
DASHED
10
4.1202840848
20
2.8388138857
0
VERTEX
8
0
62
7
6
DASHED
10
4.1213434856
20
2.8299524789
0
VERTEX
8
0
62
7
6
DASHED
10
4.1228232975
20
2.8211515757
0
VERTEX
8
0
62
7
6
DASHED
10
4.1247201689
20
2.8124311093
0
VERTEX
8
0
62
7
6
DASHED
10
4.1270298037
20
2.8038108305
0
VERTEX
8
0
62
7
6
DASHED
10
4.1297469708
20
2.7953102636
0
VERTEX
8
0
62
7
6
DASHED
10
4.1328655161
20
2.7869486612
0
VERTEX
8
0
62
7
6
DASHED
10
4.1363783763
20
2.7787449617
0
VERTEX
8
0
62
7
6
DASHED
10
4.1402775952
20
2.7707177455
0
VERTEX
8
0
62
7
6
DASHED
10
4.1445543416
20
2.7628851934
0
VERTEX
8
0
62
7
6
DASHED
10
4.1491989289
20
2.7552650454
0
VERTEX
8
0
62
7
6
DASHED
10
4.1542008378
20
2.7478745603
0
VERTEX
8
0
62
7
6
DASHED
10
4.1595487393
20
2.7407304768
0
VERTEX
8
0
62
7
6
DASHED
10
4.1652305211
20
2.7338489754
0
VERTEX
8
0
62
7
6
DASHED
10
4.1712333145
20
2.7272456422
0
VERTEX
8
0
62
7
6
DASHED
10
4.1775435239
20
2.7209354329
0
VERTEX
8
0
62
7
6
DASHED
10
4.1841468571
20
2.7149326394
0
VERTEX
8
0
62
7
6
DASHED
10
4.1910283584
20
2.7092508576
0
VERTEX
8
0
62
7
6
DASHED
10
4.1981724420
20
2.7039029561
0
VERTEX
8
0
62
7
6
DASHED
10
4.2055629271
20
2.6989010473
0
VERTEX
8
0
62
7
6
DASHED
10
4.2131830751
20
2.6942564599
0
VERTEX
8
0
62
7
6
DASHED
10
4.2210156271
20
2.6899797136
0
VERTEX
8
0
62
7
6
DASHED
10
4.2290428434
20
2.6860804946
0
VERTEX
8
0
62
7
6
DASHED
10
4.2372465429
20
2.6825676344
0
VERTEX
8
0
62
7
6
DASHED
10
4.2456081452
20
2.6794490891
0
VERTEX
8
0
62
7
6
DASHED
10
4.2541087122
20
2.6767319221
0
VERTEX
8
0
62
7
6
DASHED
10
4.2627289910
20
2.6744222872
0
VERTEX
8
0
62
7
6
DASHED
10
4.2714494574
20
2.6725254158
0
VERTEX
8
0
62
7
6
DASHED
10
4.2802503606
20
2.6710456039
0
VERTEX
8
0
62
7
6
DASHED
10
4.2891117674
20
2.6699862032
0
VERTEX
8
0
62
7
6
DASHED
10
4.2980136077
20
2.6693496131
0
VERTEX
8
0
62
7
6
DASHED
10
4.3069357197
20
2.6691372754
0
SEQEND
0
POLYLINE
8
0
62
7
6
CONTINUOUS
66
1
70
0
0
VERTEX
8
0
62
7
6
CONTINUOUS
10
4.7444350008
20
4.2941365202
0
VERTEX
8
0
62
7
6
CONTINUOUS
10
4.7448428173
20
4.2655803921
0
VERTEX
8
0
62
7
6
CONTINUOUS
10
4.7460659142
20
4.2370475609
0
VERTEX
8
0
62
7
6
CONTINUOUS
10
4.7481032939
20
4.2085612982
0
VERTEX
8
0
62
7
6
CONTINUOUS
10
4.7509532948
20
4.1801448376
0
VERTEX
8
0
62
7
6
CONTINUOUS
10
4.7546135923
20
4.1518213557
0
VERTEX
8
0
62
7
6
CONTINUOUS
10
4.7590812012
20
4.1236139534
0
VERTEX
8
0
62
7
6
CONTINUOUS
10
4.7643524775
20
4.0955456369
0
VERTEX
8
0
62
7
6
CONTINUOUS
10
4.7704231220
20
4.0676392988
0
VERTEX
8
0
62
7
6
CONTINUOUS
10
4.7772881834
20
4.0399176998
0
VERTEX
8
0
62
7
6
CONTINUOUS
10
4.7849420626
20
4.0124034499
0
VERTEX
8
0
62
7
6
CONTINUOUS
10
4.7933785169
20
3.9851189898
0
VERTEX
8
0
62
7
6
CONTINUOUS
10
4.8025906656
20
3.9580865730
0
VERTEX
8
0
62
7
6
CONTINUOUS
10
4.8125709951
20
3.9313282472
0
VERTEX
8
0
62
7
6
CONTINUOUS
10
4.8233113654
20
3.9048658369
0
VERTEX
8
0
62
7
6
CONTINUOUS
10
4.8348030166
20
3.8787209248
0
VERTEX
8
0
62
7
6
CONTINUOUS
10
4.8470365760
20
3.8529148351
0
VERTEX
8
0
62
7
6
CONTINUOUS
10
4.8600020659
20
3.8274686153
0
VERTEX
8
0
62
7
6
CONTINUOUS
10
4.8736889115
20
3.8024030195
0
VERTEX
8
0
62
7
6
CONTINUOUS
10
4.8880859496
20
3.7777384915
0
VERTEX
8
0
62
7
6
CONTINUOUS
10
4.9031814380
20
3.7534951478
0
VERTEX
8
0
62
7
6
CONTINUOUS
10
4.9189630647
20
3.7296927614
0
VERTEX
8
0
62
7
6
CONTINUOUS
10
4.9354179580
20
3.7063507458
0
VERTEX
8
0
62
7
6
CONTINUOUS
10
4.9525326973
20
3.6834881389
0
VERTEX
8
0
62
7
6
CONTINUOUS
10
4.9702933236
20
3.6611235875
0
VERTEX
8
0
62
7
6
CONTINUOUS
10
4.9886853512
20
3.6392753325
0
VERTEX
8
0
62
7
6
CONTINUOUS
10
5.0076937795
20
3.6179611933
0
VERTEX
8
0
62
7
6
CONTINUOUS
10
5.0273031050
20
3.5971985540
0
VERTEX
8
0
62
7
6
CONTINUOUS
10
5.0474973343
20
3.5770043486
0
VERTEX
8
0
62
7
6
CONTINUOUS
10
5.0682599967
20
3.5573950478
0
VERTEX
8
0
62
7
6
CONTINUOUS
10
5.0895741581
20
3.5383866451
0
VERTEX
8
0
62
7
6
CONTINUOUS
10
5.1114224345
20
3.5199946437
0
VERTEX
8
0
62
7
6
CONTINUOUS
10
5.1337870064
20
3.5022340445
0
VERTEX
8
0
62
7
6
CONTINUOUS
10
5.1566496329
20
3.4851193329
0
VERTEX
8
0
62
7
6
CONTINUOUS
10
5.1799916671
20
3.4686644681
0
VERTEX
8
0
62
7
6
CONTINUOUS
10
5.2037940712
20
3.4528828705
0
VERTEX
8
0
62
7
6
CONTINUOUS
10
5.2280374317
20
3.4377874119
0
VERTEX
8
0
62
7
6
CONTINUOUS
10
5.2527019756
20
3.4233904042
0
VERTEX
8
0
62
7
6
CONTINUOUS
10
5.2777675862
20
3.4097035897
0
VERTEX
8
0
62
7
6
CONTINUOUS
10
5.3032138199
20
3.3967381315
0
VERTEX
8
0
62
7
6
CONTINUOUS
10
5.3290199225
20
3.3845046042
0
VERTEX
8
0
62
7
6
CONTINUOUS
10
5.3551648464
20
3.3730129857
0
VERTEX
8
0
62
7
6
CONTINUOUS
10
5.3816272676
20
3.3622726486
0
VERTEX
8
0
62
7
6
CONTINUOUS
10
5.4083856032
20
3.3522923528
0
VERTEX
8
0
62
7
6
CONTINUOUS
10
5.4354180288
20
3.3430802382
0
VERTEX
8
0
62
7
6
CONTINUOUS
10
5.4627024966
20
3.3346438185
0
VERTEX
8
0
62
7
6
CONTINUOUS
10
5.4902167533
20
3.3269899743
0
VERTEX
8
0
62
7
6
CONTINUOUS
10
5.5179383579
20
3.3201249482
0
VERTEX
8
0
62
7
6
CONTINUOUS
10
5.5458447005
20
3.3140543393
0
VERTEX
8
0
62
7
6
CONTINUOUS
10
5.5739130206
20
3.3087830990
0
VERTEX
8
0
62
7
6
CONTINUOUS
10
5.6021204253
20
3.3043155264
0
VERTEX
8
0
62
7
6
CONTINUOUS
10
5.6304439086
20
3.3006552653
0
VERTEX
8
0
62
7
6
CONTINUOUS
10
5.6588603696
20
3.2978053011
0
VERTEX
8
0
62
7
6
CONTINUOUS
10
5.6873466315
20
3.2957679583
0
VERTEX
8
0
62
7
6
CONTINUOUS
10
5.7158794609
20
3.2945448984
0
VERTEX
8
0
62
7
6
CONTINUOUS
10
5.7444355861
20
3.2941371191
0
SEQEND
0
LINE
8
0
62
7
6
DASHED
10
4.1194317935
20
20.4816317637
11
4.1194317935
21
2.8566361699
0
LINE
8
0
62
7
6
CONTINUOUS
10
4.7444316373
20
19.0441321231
11
4.7444316373
21
4.2941358106
0
POLYLINE
8
0
62
7
6
DASHED
66
1
70
0
0
VERTEX
8
0
62
7
6
DASHED
10
26.6819350637
20
2.6691372754
0
VERTEX
8
0
62
7
6
DASHED
10
26.6908564182
20
2.6693498592
0
VERTEX
8
0
62
7
6
DASHED
10
26.6997575486
20
2.6699866805
0
VERTEX
8
0
62
7
6
DASHED
10
26.7086182925
20
2.6710462968
0
VERTEX
8
0
62
7
6
DASHED
10
26.7174185791
20
2.6725263080
0
VERTEX
8
0
62
7
6
DASHED
10
26.7261384746
20
2.6744233616
0
VERTEX
8
0
62
7
6
DASHED
10
26.7347582271
20
2.6767331606
0
VERTEX
8
0
62
7
6
DASHED
10
26.7432583117
20
2.6794504729
0
VERTEX
8
0
62
7
6
DASHED
10
26.7516194746
20
2.6825691434
0
VERTEX
8
0
62
7
6
DASHED
10
26.7598227765
20
2.6860821078
0
VERTEX
8
0
62
7
6
DASHED
10
26.7678496357
20
2.6899814090
0
VERTEX
8
0
62
7
6
DASHED
10
26.7756818703
20
2.6942582143
0
VERTEX
8
0
62
7
6
DASHED
10
26.7833017393
20
2.6989028362
0
VERTEX
8
0
62
7
6
DASHED
10
26.7906919825
20
2.7039047539
0
VERTEX
8
0
62
7
6
DASHED
10
26.7978358599
20
2.7092526376
0
VERTEX
8
0
62
7
6
DASHED
10
26.8047171898
20
2.7149343733
0
VERTEX
8
0
62
7
6
DASHED
10
26.8113203849
20
2.7209370913
0
VERTEX
8
0
62
7
6
DASHED
10
26.8176304881
20
2.7272471945
0
VERTEX
8
0
62
7
6
DASHED
10
26.8236332061
20
2.7338503896
0
VERTEX
8
0
62
7
6
DASHED
10
26.8293149418
20
2.7407317195
0
VERTEX
8
0
62
7
6
DASHED
10
26.8346628255
20
2.7478755969
0
VERTEX
8
0
62
7
6
DASHED
10
26.8396647432
20
2.7552658401
0
VERTEX
8
0
62
7
6
DASHED
10
26.8443093652
20
2.7628857091
0
VERTEX
8
0
62
7
6
DASHED
10
26.8485861704
20
2.7707179437
0
VERTEX
8
0
62
7
6
DASHED
10
26.8524854716
20
2.7787448030
0
VERTEX
8
0
62
7
6
DASHED
10
26.8559984361
20
2.7869481048
0
VERTEX
8
0
62
7
6
DASHED
10
26.8591171065
20
2.7953092677
0
VERTEX
8
0
62
7
6
DASHED
10
26.8618344188
20
2.8038093523
0
VERTEX
8
0
62
7
6
DASHED
10
26.8641442178
20
2.8124291048
0
VERTEX
8
0
62
7
6
DASHED
10
26.8660412714
20
2.8211490003
0
VERTEX
8
0
62
7
6
DASHED
10
26.8675212826
20
2.8299492869
0
VERTEX
8
0
62
7
6
DASHED
10
26.8685808989
20
2.8388100309
0
VERTEX
8
0
62
7
6
DASHED
10
26.8692177202
20
2.8477111612
0
VERTEX
8
0
62
7
6
DASHED
10
26.8694303040
20
2.8566325157
0
SEQEND
0
LINE
8
0
62
7
6
DASHED
10
4.3069317467
20
2.6691362168
11
26.6819261529
21
2.6691362168
0
POLYLINE
8
0
62
7
6
CONTINUOUS
66
1
70
0
0
VERTEX
8
0
62
7
6
CONTINUOUS
10
25.2444252068
20
3.2941371191
0
VERTEX
8
0
62
7
6
CONTINUOUS
10
25.2729815782
20
3.2945447734
0
VERTEX
8
0
62
7
6
CONTINUOUS
10
25.3015146528
20
3.2957677179
0
VERTEX
8
0
62
7
6
CONTINUOUS
10
25.3300011589
20
3.2978049552
0
VERTEX
8
0
62
7
6
CONTINUOUS
10
25.3584178623
20
3.3006548238
0
VERTEX
8
0
62
7
6
CONTINUOUS
10
25.3867415860
20
3.3043149992
0
VERTEX
8
0
62
7
6
CONTINUOUS
10
25.4149492290
20
3.3087824962
0
VERTEX
8
0
62
7
6
CONTINUOUS
10
25.4430177846
20
3.3140536710
0
VERTEX
8
0
62
7
6
CONTINUOUS
10
25.4709243599
20
3.3201242243
0
VERTEX
8
0
62
7
6
CONTINUOUS
10
25.4986461937
20
3.3269892051
0
VERTEX
8
0
62
7
6
CONTINUOUS
10
25.5261606760
20
3.3346430140
0
VERTEX
8
0
62
7
6
CONTINUOUS
10
25.5534453654
20
3.3430794085
0
VERTEX
8
0
62
7
6
CONTINUOUS
10
25.5804780083
20
3.3522915079
0
VERTEX
8
0
62
7
6
CONTINUOUS
10
25.6072365565
20
3.3622717986
0
VERTEX
8
0
62
7
6
CONTINUOUS
10
25.6336991854
20
3.3730121405
0
VERTEX
8
0
62
7
6
CONTINUOUS
10
25.6598443117
20
3.3845037737
0
VERTEX
8
0
62
7
6
CONTINUOUS
10
25.6856506112
20
3.3967373255
0
VERTEX
8
0
62
7
6
CONTINUOUS
10
25.7110970358
20
3.4097028181
0
VERTEX
8
0
62
7
6
CONTINUOUS
10
25.7361628311
20
3.4233896765
0
VERTEX
8
0
62
7
6
CONTINUOUS
10
25.7608275533
20
3.4377867377
0
VERTEX
8
0
62
7
6
CONTINUOUS
10
25.7850710854
20
3.4528822592
0
VERTEX
8
0
62
7
6
CONTINUOUS
10
25.8088736540
20
3.4686639289
0
VERTEX
8
0
62
7
6
CONTINUOUS
10
25.8322158455
20
3.4851188751
0
VERTEX
8
0
62
7
6
CONTINUOUS
10
25.8550786218
20
3.5022336769
0
VERTEX
8
0
62
7
6
CONTINUOUS
10
25.8774433356
20
3.5199943753
0
VERTEX
8
0
62
7
6
CONTINUOUS
10
25.8992917460
20
3.5383864844
0
VERTEX
8
0
62
7
6
CONTINUOUS
10
25.9206060331
20
3.5573950034
0
VERTEX
8
0
62
7
6
CONTINUOUS
10
25.9413688128
20
3.5770044287
0
VERTEX
8
0
62
7
6
CONTINUOUS
10
25.9615631507
20
3.5971987666
0
VERTEX
8
0
62
7
6
CONTINUOUS
10
25.9811725760
20
3.6179615463
0
VERTEX
8
0
62
7
6
CONTINUOUS
10
26.0001810950
20
3.6392758334
0
VERTEX
8
0
62
7
6
CONTINUOUS
10
26.0185732041
20
3.6611242438
0
VERTEX
8
0
62
7
6
CONTINUOUS
10
26.0363339025
20
3.6834889576
0
VERTEX
8
0
62
7
6
CONTINUOUS
10
26.0534487043
20
3.7063517339
0
VERTEX
8
0
62
7
6
CONTINUOUS
10
26.0699036505
20
3.7296939254
0
VERTEX
8
0
62
7
6
CONTINUOUS
10
26.0856853202
20
3.7534964941
0
VERTEX
8
0
62
7
6
CONTINUOUS
10
26.1007808417
20
3.7777400261
0
VERTEX
8
0
62
7
6
CONTINUOUS
10
26.1151779029
20
3.8024047483
0
VERTEX
8
0
62
7
6
CONTINUOUS
10
26.1288647614
20
3.8274705436
0
VERTEX
8
0
62
7
6
CONTINUOUS
10
26.1418302539
20
3.8529169683
0
VERTEX
8
0
62
7
6
CONTINUOUS
10
26.1540638057
20
3.8787232677
0
VERTEX
8
0
62
7
6
CONTINUOUS
10
26.1655554389
20
3.9048683940
0
VERTEX
8
0
62
7
6
CONTINUOUS
10
26.1762957809
20
3.9313310229
0
VERTEX
8
0
62
7
6
CONTINUOUS
10
26.1862760715
20
3.9580895711
0
VERTEX
8
0
62
7
6
CONTINUOUS
10
26.1954881709
20
3.9851222140
0
VERTEX
8
0
62
7
6
CONTINUOUS
10
26.2039245655
20
4.0124069034
0
VERTEX
8
0
62
7
6
CONTINUOUS
10
26.2115783744
20
4.0399213857
0
VERTEX
8
0
62
7
6
CONTINUOUS
10
26.2184433551
20
4.0676432195
0
VERTEX
8
0
62
7
6
CONTINUOUS
10
26.2245139084
20
4.0955497948
0
VERTEX
8
0
62
7
6
CONTINUOUS
10
26.2297850832
20
4.1236183504
0
VERTEX
8
0
62
7
6
CONTINUOUS
10
26.2342525802
20
4.1518259934
0
VERTEX
8
0
62
7
6
CONTINUOUS
10
26.2379127556
20
4.1801497172
0
VERTEX
8
0
62
7
6
CONTINUOUS
10
26.2407626242
20
4.2085664206
0
VERTEX
8
0
62
7
6
CONTINUOUS
10
26.2427998615
20
4.2370529266
0
VERTEX
8
0
62
7
6
CONTINUOUS
10
26.2440228060
20
4.2655860012
0
VERTEX
8
0
62
7
6
CONTINUOUS
10
26.2444304603
20
4.2941423726
0
SEQEND
0
LINE
8
0
62
7
6
CONTINUOUS
10
5.7444313873
20
3.2941360606
11
25.2444265123
21
3.2941360606
0
LINE
8
DRAFT_ENT
62
2
6
CONTINUOUS
10
19.5699788042
20
18.7720388084
11
19.4838762051
21
18.6696505709
0
LINE
8
DRAFT_ENT
62
2
6
CONTINUOUS
10
19.6900174296
20
18.7720388084
11
19.5567027801
21
18.6135086472
0
LINE
8
DRAFT_ENT
62
2
6
CONTINUOUS
10
20.0280836799
20
8.2939613813
11
18.1509466492
21
8.2939613813
0
LINE
8
DRAFT_ENT
62
2
6
CONTINUOUS
10
19.9996211870
20
8.3501426172
11
18.1787528922
21
8.3501426172
0
LINE
8
DEFAULT_1
62
7
6
CENTER
10
15.4944289498
20
21.1691315918
11
15.4944289498
21
20.0441318731
0
LINE
8
DEFAULT_1
62
7
6
CENTER
10
15.4944289498
20
3.2941360606
11
15.4944289498
21
2.1691363418
0
LINE
8
DRAFT_ENT
62
2
6
CONTINUOUS
10
18.1787528922
20
9.1776674103
11
19.9996211870
21
9.1776674103
0
LINE
8
DRAFT_ENT
62
2
6
CONTINUOUS
10
18.1509466492
20
9.2047174036
11
20.0280836799
21
9.2047174036
0
LINE
8
DRAFT_ENT
62
2
6
CONTINUOUS
10
18.1509466492
20
8.2939613813
11
18.1509466492
21
9.2047174036
0
LINE
8
DRAFT_ENT
62
2
6
CONTINUOUS
10
18.1787528922
20
8.3501426172
11
18.1787528922
21
9.1776674103
0
LINE
8
DEFAULT_1
62
7
6
CENTER
10
3.6194319185
20
11.6691339668
11
4.7444316373
21
11.6691339668
0
LINE
8
DEFAULT_1
62
7
6
CENTER
10
26.2444262623
20
11.6691339668
11
27.3694259810
21
11.6691339668
0
LINE
8
DRAFT_ENT
62
2
6
CONTINUOUS
10
19.3748135697
20
18.7720388084
11
19.3748135697
21
18.4058277970
0
LINE
8
DRAFT_ENT
62
2
6
CONTINUOUS
10
19.4838762051
20
18.7720388084
11
19.4838762051
21
18.6696505709
0
LINE
8
DRAFT_ENT
62
2
6
CONTINUOUS
10
19.4838762051
20
18.5317801880
11
19.4838762051
21
18.4058427992
0
LINE
8
DRAFT_ENT
62
2
6
CONTINUOUS
10
19.9996211870
20
9.1776674103
11
19.9996211870
21
8.3501426172
0
LINE
8
DRAFT_ENT
62
2
6
CONTINUOUS
10
20.0224455711
20
18.7720388084
11
20.0224455711
21
18.4058427992
0
LINE
8
DRAFT_ENT
62
2
6
CONTINUOUS
10
20.0280836799
20
9.2047174036
11
20.0280836799
21
8.2939613813
0
LINE
8
DRAFT_ENT
62
2
6
CONTINUOUS
10
20.1254041150
20
18.7720388084
11
20.1254041150
21
18.6342989667
0
LINE
8
DRAFT_ENT
62
2
6
CONTINUOUS
10
20.1254041150
20
18.5485456719
11
20.1254041150
21
18.4058427992
0
LINE
8
DRAFT_ENT
62
2
6
CONTINUOUS
10
20.2179021164
20
18.7720388084
11
20.2179021164
21
18.6342989667
0
LINE
8
DRAFT_ENT
62
2
6
CONTINUOUS
10
20.2179021164
20
18.5485456719
11
20.2179021164
21
18.4058427992
0
LINE
8
DRAFT_ENT
62
2
6
CONTINUOUS
10
20.3208606602
20
18.7720388084
11
20.3208606602
21
18.4058427992
0
LINE
8
DRAFT_ENT
62
2
6
CONTINUOUS
10
20.3490136862
20
18.4058427992
11
20.3490136862
21
18.7720388084
0
LINE
8
DRAFT_ENT
62
2
6
CONTINUOUS
10
20.4427924699
20
18.7720388084
11
20.4427924699
21
18.4941095172
0
LINE
8
DRAFT_ENT
62
2
6
CONTINUOUS
10
20.5444700076
20
18.4941095172
11
20.5444700076
21
18.4058427992
0
LINE
8
DRAFT_ENT
62
2
6
CONTINUOUS
10
20.5626873432
20
18.4058427992
11
20.5626873432
21
18.7720388084
0
LINE
8
DRAFT_ENT
62
2
6
CONTINUOUS
10
20.6615914948
20
18.6828141907
11
20.6615914948
21
18.6342989667
0
LINE
8
DRAFT_ENT
62
2
6
CONTINUOUS
10
20.6615914948
20
18.5440604711
11
20.6615914948
21
18.4941095172
0
LINE
8
DRAFT_ENT
62
2
6
CONTINUOUS
10
20.7558774413
20
18.4058427992
11
20.7558774413
21
18.4941095172
0
LINE
8
DRAFT_ENT
62
2
6
CONTINUOUS
10
20.7558774413
20
18.5440604711
11
20.7558774413
21
18.6342989667
0
LINE
8
DRAFT_ENT
62
2
6
CONTINUOUS
10
20.7558774413
20
18.6828141907
11
20.7558774413
21
18.7720388084
0
LINE
8
DRAFT_ENT
62
2
6
CONTINUOUS
10
20.7838900739
20
18.4058427992
11
20.7838900739
21
18.7720388084
0
LINE
8
DRAFT_ENT
62
2
6
CONTINUOUS
10
20.8780499574
20
18.6829270428
11
20.8780499574
21
18.6159875877
0
LINE
8
DRAFT_ENT
62
2
6
CONTINUOUS
10
20.8780499574
20
18.5289405237
11
20.8780499574
21
18.4058427992
0
LINE
8
DRAFT_ENT
62
2
6
CONTINUOUS
10
21.1528364061
20
18.3853173687
11
21.1528364061
21
18.4265462405
0
LINE
8
DRAFT_ENT
62
2
6
CONTINUOUS
10
19.5799624119
20
18.4058427992
11
19.4838762051
21
18.5317801880
0
LINE
8
DRAFT_ENT
62
2
6
CONTINUOUS
10
19.7151451674
20
18.4058427992
11
19.5567027801
21
18.6135086472
0
LINE
8
DRAFT_ENT
62
2
6
CONTINUOUS
10
19.4838762051
20
18.4058427992
11
19.3748135697
21
18.4058277970
0
LINE
8
DRAFT_ENT
62
2
6
CONTINUOUS
10
21.1680109883
20
18.4055067058
11
21.1528364061
21
18.4055067058
0
LINE
8
DRAFT_ENT
62
2
6
CONTINUOUS
10
20.3208606602
20
18.4058427992
11
20.2179021164
21
18.4058427992
0
LINE
8
DRAFT_ENT
62
2
6
CONTINUOUS
10
20.1254041150
20
18.4058427992
11
20.0224455711
21
18.4058427992
0
LINE
8
DRAFT_ENT
62
2
6
CONTINUOUS
10
19.5799624119
20
18.4058427992
11
19.7151451674
21
18.4058427992
0
LINE
8
DRAFT_ENT
62
2
6
CONTINUOUS
10
20.3490136862
20
18.4058427992
11
20.5444700076
21
18.4058427992
0
LINE
8
DRAFT_ENT
62
2
6
CONTINUOUS
10
20.5626873432
20
18.4058427992
11
20.7558774413
21
18.4058427992
0
LINE
8
DRAFT_ENT
62
2
6
CONTINUOUS
10
20.7838900739
20
18.4058427992
11
20.8780499574
21
18.4058427992
0
LINE
8
DRAFT_ENT
62
2
6
CONTINUOUS
10
20.9560645960
20
18.4058427992
11
21.0747839262
21
18.4058427992
0
LINE
8
DRAFT_ENT
62
2
6
CONTINUOUS
10
21.1528364061
20
18.4265462405
11
21.1680109883
21
18.4265462405
0
LINE
8
DRAFT_ENT
62
2
6
CONTINUOUS
10
20.4427924699
20
18.4941095172
11
20.5444700076
21
18.4941095172
0
LINE
8
DRAFT_ENT
62
2
6
CONTINUOUS
10
20.6615914948
20
18.4941095172
11
20.7558774413
21
18.4941095172
0
LINE
8
DRAFT_ENT
62
2
6
CONTINUOUS
10
20.6615914948
20
18.5440604711
11
20.7558774413
21
18.5440604711
0
LINE
8
DRAFT_ENT
62
2
6
CONTINUOUS
10
20.1254041150
20
18.5485456719
11
20.2179021164
21
18.5485456719
0
LINE
8
DRAFT_ENT
62
2
6
CONTINUOUS
10
20.8780499574
20
18.6159875877
11
20.9107622993
21
18.6159875877
0
LINE
8
DRAFT_ENT
62
2
6
CONTINUOUS
10
20.1254041150
20
18.6342989667
11
20.2179021164
21
18.6342989667
0
LINE
8
DRAFT_ENT
62
2
6
CONTINUOUS
10
20.6615914948
20
18.6342989667
11
20.7558774413
21
18.6342989667
0
LINE
8
DRAFT_ENT
62
2
6
CONTINUOUS
10
20.6615914948
20
18.6828141907
11
20.7558774413
21
18.6828141907
0
LINE
8
DRAFT_ENT
62
2
6
CONTINUOUS
10
20.9130061312
20
18.6829270428
11
20.8780499574
21
18.6829270428
0
LINE
8
DRAFT_ENT
62
2
6
CONTINUOUS
10
19.3748135697
20
18.7720388084
11
19.4838762051
21
18.7720388084
0
LINE
8
DRAFT_ENT
62
2
6
CONTINUOUS
10
19.5699788042
20
18.7720388084
11
19.6900174296
21
18.7720388084
0
LINE
8
DRAFT_ENT
62
2
6
CONTINUOUS
10
20.0224455711
20
18.7720388084
11
20.1254041150
21
18.7720388084
0
LINE
8
DRAFT_ENT
62
2
6
CONTINUOUS
10
20.2179021164
20
18.7720388084
11
20.3208606602
21
18.7720388084
0
LINE
8
DRAFT_ENT
62
2
6
CONTINUOUS
10
20.3490136862
20
18.7720388084
11
20.4427924699
21
18.7720388084
0
LINE
8
DRAFT_ENT
62
2
6
CONTINUOUS
10
20.5626873432
20
18.7720388084
11
20.7558774413
21
18.7720388084
0
LINE
8
DRAFT_ENT
62
2
6
CONTINUOUS
10
20.7838900739
20
18.7720388084
11
20.9298573782
21
18.7720388084
0
LINE
8
DRAFT_ENT
62
2
6
CONTINUOUS
10
21.1600851408
20
18.4055067058
11
21.1800026476
21
18.3853173687
0
LINE
8
DRAFT_ENT
62
2
6
CONTINUOUS
10
20.9560645960
20
18.4058427992
11
20.8780499574
21
18.5289405237
0
LINE
8
DRAFT_ENT
62
2
6
CONTINUOUS
10
21.0747839262
20
18.4058427992
11
20.9751319053
21
18.5630818782
0
POLYLINE
8
0
62
7
6
CONTINUOUS
66
1
70
0
0
VERTEX
8
0
62
7
6
CONTINUOUS
10
26.2444304603
20
19.0441260093
0
VERTEX
8
0
62
7
6
CONTINUOUS
10
26.2440228060
20
19.0726823806
0
VERTEX
8
0
62
7
6
CONTINUOUS
10
26.2427998615
20
19.1012154553
0
VERTEX
8
0
62
7
6
CONTINUOUS
10
26.2407626242
20
19.1297019613
0
VERTEX
8
0
62
7
6
CONTINUOUS
10
26.2379127556
20
19.1581186647
0
VERTEX
8
0
62
7
6
CONTINUOUS
10
26.2342525802
20
19.1864423884
0
VERTEX
8
0
62
7
6
CONTINUOUS
10
26.2297850832
20
19.2146500314
0
VERTEX
8
0
62
7
6
CONTINUOUS
10
26.2245139084
20
19.2427185870
0
VERTEX
8
0
62
7
6
CONTINUOUS
10
26.2184433551
20
19.2706251623
0
VERTEX
8
0
62
7
6
CONTINUOUS
10
26.2115783744
20
19.2983469962
0
VERTEX
8
0
62
7
6
CONTINUOUS
10
26.2039245655
20
19.3258614784
0
VERTEX
8
0
62
7
6
CONTINUOUS
10
26.1954881709
20
19.3531461678
0
VERTEX
8
0
62
7
6
CONTINUOUS
10
26.1862760715
20
19.3801788107
0
VERTEX
8
0
62
7
6
CONTINUOUS
10
26.1762957809
20
19.4069373589
0
VERTEX
8
0
62
7
6
CONTINUOUS
10
26.1655554389
20
19.4333999878
0
VERTEX
8
0
62
7
6
CONTINUOUS
10
26.1540638057
20
19.4595451141
0
VERTEX
8
0
62
7
6
CONTINUOUS
10
26.1418302539
20
19.4853514136
0
VERTEX
8
0
62
7
6
CONTINUOUS
10
26.1288647614
20
19.5107978382
0
VERTEX
8
0
62
7
6
CONTINUOUS
10
26.1151779029
20
19.5358636336
0
VERTEX
8
0
62
7
6
CONTINUOUS
10
26.1007808417
20
19.5605283557
0
VERTEX
8
0
62
7
6
CONTINUOUS
10
26.0856853202
20
19.5847718878
0
VERTEX
8
0
62
7
6
CONTINUOUS
10
26.0699036505
20
19.6085744564
0
VERTEX
8
0
62
7
6
CONTINUOUS
10
26.0534487043
20
19.6319166480
0
VERTEX
8
0
62
7
6
CONTINUOUS
10
26.0363339025
20
19.6547794242
0
VERTEX
8
0
62
7
6
CONTINUOUS
10
26.0185732041
20
19.6771441380
0
VERTEX
8
0
62
7
6
CONTINUOUS
10
26.0001810950
20
19.6989925484
0
VERTEX
8
0
62
7
6
CONTINUOUS
10
25.9811725760
20
19.7203068356
0
VERTEX
8
0
62
7
6
CONTINUOUS
10
25.9615631507
20
19.7410696153
0
VERTEX
8
0
62
7
6
CONTINUOUS
10
25.9413688128
20
19.7612639531
0
VERTEX
8
0
62
7
6
CONTINUOUS
10
25.9206060331
20
19.7808733784
0
VERTEX
8
0
62
7
6
CONTINUOUS
10
25.8992917460
20
19.7998818974
0
VERTEX
8
0
62
7
6
CONTINUOUS
10
25.8774433356
20
19.8182740065
0
VERTEX
8
0
62
7
6
CONTINUOUS
10
25.8550786218
20
19.8360347049
0
VERTEX
8
0
62
7
6
CONTINUOUS
10
25.8322158455
20
19.8531495067
0
VERTEX
8
0
62
7
6
CONTINUOUS
10
25.8088736540
20
19.8696044529
0
VERTEX
8
0
62
7
6
CONTINUOUS
10
25.7850710854
20
19.8853861226
0
VERTEX
8
0
62
7
6
CONTINUOUS
10
25.7608275533
20
19.9004816441
0
VERTEX
8
0
62
7
6
CONTINUOUS
10
25.7361628311
20
19.9148787053
0
VERTEX
8
0
62
7
6
CONTINUOUS
10
25.7110970358
20
19.9285655638
0
VERTEX
8
0
62
7
6
CONTINUOUS
10
25.6856506112
20
19.9415310563
0
VERTEX
8
0
62
7
6
CONTINUOUS
10
25.6598443117
20
19.9537646081
0
VERTEX
8
0
62
7
6
CONTINUOUS
10
25.6336991854
20
19.9652562413
0
VERTEX
8
0
62
7
6
CONTINUOUS
10
25.6072365565
20
19.9759965833
0
VERTEX
8
0
62
7
6
CONTINUOUS
10
25.5804780083
20
19.9859768739
0
VERTEX
8
0
62
7
6
CONTINUOUS
10
25.5534453654
20
19.9951889733
0
VERTEX
8
0
62
7
6
CONTINUOUS
10
25.5261606760
20
20.0036253679
0
VERTEX
8
0
62
7
6
CONTINUOUS
10
25.4986461937
20
20.0112791768
0
VERTEX
8
0
62
7
6
CONTINUOUS
10
25.4709243599
20
20.0181441575
0
VERTEX
8
0
62
7
6
CONTINUOUS
10
25.4430177846
20
20.0242147109
0
VERTEX
8
0
62
7
6
CONTINUOUS
10
25.4149492290
20
20.0294858856
0
VERTEX
8
0
62
7
6
CONTINUOUS
10
25.3867415860
20
20.0339533826
0
VERTEX
8
0
62
7
6
CONTINUOUS
10
25.3584178623
20
20.0376135580
0
VERTEX
8
0
62
7
6
CONTINUOUS
10
25.3300011589
20
20.0404634266
0
VERTEX
8
0
62
7
6
CONTINUOUS
10
25.3015146528
20
20.0425006639
0
VERTEX
8
0
62
7
6
CONTINUOUS
10
25.2729815782
20
20.0437236085
0
VERTEX
8
0
62
7
6
CONTINUOUS
10
25.2444252068
20
20.0441312627
0
SEQEND
0
LINE
8
0
62
7
6
CONTINUOUS
10
26.2444262623
20
19.0441321231
11
26.2444262623
21
4.2941358106
0
POLYLINE
8
0
62
7
6
CONTINUOUS
66
1
70
0
0
VERTEX
8
0
62
7
6
CONTINUOUS
10
5.7444355861
20
20.0441312627
0
VERTEX
8
0
62
7
6
CONTINUOUS
10
5.7158794610
20
20.0437234834
0
VERTEX
8
0
62
7
6
CONTINUOUS
10
5.6873466316
20
20.0425004235
0
VERTEX
8
0
62
7
6
CONTINUOUS
10
5.6588603696
20
20.0404630807
0
VERTEX
8
0
62
7
6
CONTINUOUS
10
5.6304439087
20
20.0376131165
0
VERTEX
8
0
62
7
6
CONTINUOUS
10
5.6021204254
20
20.0339528555
0
VERTEX
8
0
62
7
6
CONTINUOUS
10
5.5739130206
20
20.0294852829
0
VERTEX
8
0
62
7
6
CONTINUOUS
10
5.5458447006
20
20.0242140425
0
VERTEX
8
0
62
7
6
CONTINUOUS
10
5.5179383579
20
20.0181434337
0
VERTEX
8
0
62
7
6
CONTINUOUS
10
5.4902167533
20
20.0112784076
0
VERTEX
8
0
62
7
6
CONTINUOUS
10
5.4627024967
20
20.0036245634
0
VERTEX
8
0
62
7
6
CONTINUOUS
10
5.4354180288
20
19.9951881436
0
VERTEX
8
0
62
7
6
CONTINUOUS
10
5.4083856032
20
19.9859760291
0
VERTEX
8
0
62
7
6
CONTINUOUS
10
5.3816272676
20
19.9759957332
0
VERTEX
8
0
62
7
6
CONTINUOUS
10
5.3551648464
20
19.9652553961
0
VERTEX
8
0
62
7
6
CONTINUOUS
10
5.3290199225
20
19.9537637776
0
VERTEX
8
0
62
7
6
CONTINUOUS
10
5.3032138199
20
19.9415302504
0
VERTEX
8
0
62
7
6
CONTINUOUS
10
5.2777675862
20
19.9285647921
0
VERTEX
8
0
62
7
6
CONTINUOUS
10
5.2527019756
20
19.9148779776
0
VERTEX
8
0
62
7
6
CONTINUOUS
10
5.2280374318
20
19.9004809699
0
VERTEX
8
0
62
7
6
CONTINUOUS
10
5.2037940713
20
19.8853855113
0
VERTEX
8
0
62
7
6
CONTINUOUS
10
5.1799916672
20
19.8696039138
0
VERTEX
8
0
62
7
6
CONTINUOUS
10
5.1566496329
20
19.8531490489
0
VERTEX
8
0
62
7
6
CONTINUOUS
10
5.1337870064
20
19.8360343374
0
VERTEX
8
0
62
7
6
CONTINUOUS
10
5.1114224346
20
19.8182737381
0
VERTEX
8
0
62
7
6
CONTINUOUS
10
5.0895741582
20
19.7998817368
0
VERTEX
8
0
62
7
6
CONTINUOUS
10
5.0682599967
20
19.7808733340
0
VERTEX
8
0
62
7
6
CONTINUOUS
10
5.0474973343
20
19.7612640332
0
VERTEX
8
0
62
7
6
CONTINUOUS
10
5.0273031050
20
19.7410698279
0
VERTEX
8
0
62
7
6
CONTINUOUS
10
5.0076937795
20
19.7203071886
0
VERTEX
8
0
62
7
6
CONTINUOUS
10
4.9886853512
20
19.6989930494
0
VERTEX
8
0
62
7
6
CONTINUOUS
10
4.9702933236
20
19.6771447943
0
VERTEX
8
0
62
7
6
CONTINUOUS
10
4.9525326973
20
19.6547802430
0
VERTEX
8
0
62
7
6
CONTINUOUS
10
4.9354179580
20
19.6319176361
0
VERTEX
8
0
62
7
6
CONTINUOUS
10
4.9189630647
20
19.6085756205
0
VERTEX
8
0
62
7
6
CONTINUOUS
10
4.9031814380
20
19.5847732341
0
VERTEX
8
0
62
7
6
CONTINUOUS
10
4.8880859496
20
19.5605298904
0
VERTEX
8
0
62
7
6
CONTINUOUS
10
4.8736889115
20
19.5358653624
0
VERTEX
8
0
62
7
6
CONTINUOUS
10
4.8600020659
20
19.5107997666
0
VERTEX
8
0
62
7
6
CONTINUOUS
10
4.8470365761
20
19.4853535468
0
VERTEX
8
0
62
7
6
CONTINUOUS
10
4.8348030166
20
19.4595474571
0
VERTEX
8
0
62
7
6
CONTINUOUS
10
4.8233113654
20
19.4334025450
0
VERTEX
8
0
62
7
6
CONTINUOUS
10
4.8125709951
20
19.4069401346
0
VERTEX
8
0
62
7
6
CONTINUOUS
10
4.8025906656
20
19.3801818089
0
VERTEX
8
0
62
7
6
CONTINUOUS
10
4.7933785169
20
19.3531493921
0
VERTEX
8
0
62
7
6
CONTINUOUS
10
4.7849420626
20
19.3258649320
0
VERTEX
8
0
62
7
6
CONTINUOUS
10
4.7772881834
20
19.2983506820
0
VERTEX
8
0
62
7
6
CONTINUOUS
10
4.7704231220
20
19.2706290831
0
VERTEX
8
0
62
7
6
CONTINUOUS
10
4.7643524775
20
19.2427227450
0
VERTEX
8
0
62
7
6
CONTINUOUS
10
4.7590812012
20
19.2146544285
0
VERTEX
8
0
62
7
6
CONTINUOUS
10
4.7546135923
20
19.1864470262
0
VERTEX
8
0
62
7
6
CONTINUOUS
10
4.7509532948
20
19.1581235443
0
VERTEX
8
0
62
7
6
CONTINUOUS
10
4.7481032939
20
19.1297070837
0
VERTEX
8
0
62
7
6
CONTINUOUS
10
4.7460659142
20
19.1012208210
0
VERTEX
8
0
62
7
6
CONTINUOUS
10
4.7448428173
20
19.0726879898
0
VERTEX
8
0
62
7
6
CONTINUOUS
10
4.7444350008
20
19.0441318617
0
SEQEND
0
LINE
8
0
62
7
6
CONTINUOUS
10
5.7444313873
20
20.0441318731
11
25.2444265123
21
20.0441318731
0
POLYLINE
8
0
62
7
6
DASHED
66
1
70
0
0
VERTEX
8
0
62
7
6
DASHED
10
26.8694303040
20
20.4816303732
0
VERTEX
8
0
62
7
6
DASHED
10
26.8692179609
20
20.4905518120
0
VERTEX
8
0
62
7
6
DASHED
10
26.8685813384
20
20.4994530710
0
VERTEX
8
0
62
7
6
DASHED
10
26.8675218788
20
20.5083139837
0
VERTEX
8
0
62
7
6
DASHED
10
26.8660419824
20
20.5171144754
0
VERTEX
8
0
62
7
6
DASHED
10
26.8641450019
20
20.5258346081
0
VERTEX
8
0
62
7
6
DASHED
10
26.8618352351
20
20.5344546258
0
VERTEX
8
0
62
7
6
DASHED
10
26.8591179149
20
20.5429549996
0
VERTEX
8
0
62
7
6
DASHED
10
26.8559991974
20
20.5513164713
0
VERTEX
8
0
62
7
6
DASHED
10
26.8524861483
20
20.5595200977
0
VERTEX
8
0
62
7
6
DASHED
10
26.8485867266
20
20.5675472929
0
VERTEX
8
0
62
7
6
DASHED
10
26.8443097667
20
20.5753798710
0
VERTEX
8
0
62
7
6
DASHED
10
26.8396649581
20
20.5830000868
0
VERTEX
8
0
62
7
6
DASHED
10
26.8346628240
20
20.5903906764
0
VERTEX
8
0
62
7
6
DASHED
10
26.8293146969
20
20.5975348961
0
VERTEX
8
0
62
7
6
DASHED
10
26.8236326933
20
20.6044165601
0
VERTEX
8
0
62
7
6
DASHED
10
26.8176296861
20
20.6110200778
0
VERTEX
8
0
62
7
6
DASHED
10
26.8113192754
20
20.6173304885
0
VERTEX
8
0
62
7
6
DASHED
10
26.8047157577
20
20.6233334957
0
VERTEX
8
0
62
7
6
DASHED
10
26.7978340936
20
20.6290154993
0
VERTEX
8
0
62
7
6
DASHED
10
26.7906898740
20
20.6343636264
0
VERTEX
8
0
62
7
6
DASHED
10
26.7832992844
20
20.6393657605
0
VERTEX
8
0
62
7
6
DASHED
10
26.7756790686
20
20.6440105691
0
VERTEX
8
0
62
7
6
DASHED
10
26.7678464905
20
20.6482875290
0
VERTEX
8
0
62
7
6
DASHED
10
26.7598192952
20
20.6521869507
0
VERTEX
8
0
62
7
6
DASHED
10
26.7516156689
20
20.6556999998
0
VERTEX
8
0
62
7
6
DASHED
10
26.7432541972
20
20.6588187173
0
VERTEX
8
0
62
7
6
DASHED
10
26.7347538234
20
20.6615360376
0
VERTEX
8
0
62
7
6
DASHED
10
26.7261338057
20
20.6638458044
0
VERTEX
8
0
62
7
6
DASHED
10
26.7174136730
20
20.6657427848
0
VERTEX
8
0
62
7
6
DASHED
10
26.7086131813
20
20.6672226812
0
VERTEX
8
0
62
7
6
DASHED
10
26.6997522685
20
20.6682821408
0
VERTEX
8
0
62
7
6
DASHED
10
26.6908510096
20
20.6689187633
0
VERTEX
8
0
62
7
6
DASHED
10
26.6819295707
20
20.6691311064
0
SEQEND
0
LINE
8
0
62
7
6
DASHED
10
26.8694261060
20
20.4816317637
11
26.8694261060
21
2.8566361699
0
POLYLINE
8
0
62
7
6
DASHED
66
1
70
0
0
VERTEX
8
0
62
7
6
DASHED
10
4.3069341355
20
20.6691311064
0
VERTEX
8
0
62
7
6
DASHED
10
4.2980123756
20
20.6689186931
0
VERTEX
8
0
62
7
6
DASHED
10
4.2891108563
20
20.6682820270
0
VERTEX
8
0
62
7
6
DASHED
10
4.2802497403
20
20.6672225501
0
VERTEX
8
0
62
7
6
DASHED
10
4.2714490990
20
20.6657426624
0
VERTEX
8
0
62
7
6
DASHED
10
4.2627288664
20
20.6638457159
0
VERTEX
8
0
62
7
6
DASHED
10
4.2541087947
20
20.6615360073
0
VERTEX
8
0
62
7
6
DASHED
10
4.2456084092
20
20.6588187683
0
VERTEX
8
0
62
7
6
DASHED
10
4.2372469639
20
20.6557001538
0
VERTEX
8
0
62
7
6
DASHED
10
4.2290433984
20
20.6521872276
0
VERTEX
8
0
62
7
6
DASHED
10
4.2210162943
20
20.6482879469
0
VERTEX
8
0
62
7
6
DASHED
10
4.2131838338
20
20.6440111439
0
VERTEX
8
0
62
7
6
DASHED
10
4.2055637582
20
20.6393665059
0
VERTEX
8
0
62
7
6
DASHED
10
4.1981733276
20
20.6343645535
0
VERTEX
8
0
62
7
6
DASHED
10
4.1910292819
20
20.6290166164
0
VERTEX
8
0
62
7
6
DASHED
10
4.1841478030
20
20.6233348083
0
VERTEX
8
0
62
7
6
DASHED
10
4.1775444782
20
20.6173319990
0
VERTEX
8
0
62
7
6
DASHED
10
4.1712342645
20
20.6110217853
0
VERTEX
8
0
62
7
6
DASHED
10
4.1652314552
20
20.6044184605
0
VERTEX
8
0
62
7
6
DASHED
10
4.1595496471
20
20.5975369817
0
VERTEX
8
0
62
7
6
DASHED
10
4.1542017100
20
20.5903929360
0
VERTEX
8
0
62
7
6
DASHED
10
4.1491997576
20
20.5830025053
0
VERTEX
8
0
62
7
6
DASHED
10
4.1445551196
20
20.5753824297
0
VERTEX
8
0
62
7
6
DASHED
10
4.1402783166
20
20.5675499692
0
VERTEX
8
0
62
7
6
DASHED
10
4.1363790359
20
20.5595228651
0
VERTEX
8
0
62
7
6
DASHED
10
4.1328661097
20
20.5513192996
0
VERTEX
8
0
62
7
6
DASHED
10
4.1297474952
20
20.5429578543
0
VERTEX
8
0
62
7
6
DASHED
10
4.1270302563
20
20.5344574688
0
VERTEX
8
0
62
7
6
DASHED
10
4.1247205477
20
20.5258373971
0
VERTEX
8
0
62
7
6
DASHED
10
4.1228236011
20
20.5171171646
0
VERTEX
8
0
62
7
6
DASHED
10
4.1213437134
20
20.5083165232
0
VERTEX
8
0
62
7
6
DASHED
10
4.1202842366
20
20.4994554072
0
VERTEX
8
0
62
7
6
DASHED
10
4.1196475704
20
20.4905538879
0
VERTEX
8
0
62
7
6
DASHED
10
4.1194351571
20
20.4816321280
0
SEQEND
0
LINE
8
0
62
7
6
DASHED
10
4.3069317467
20
20.6691317168
11
26.6819261529
21
20.6691317168
0
CIRCLE
8
DRAFT_ENT
62
2
6
CONTINUOUS
10
19.8254631838
20
18.5882400214
40
0.1862853584
0
CIRCLE
8
DRAFT_ENT
62
2
6
CONTINUOUS
10
19.8254631838
20
18.5882400214
40
0.0779808798
0
ARC
8
DRAFT_ENT
62
2
6
CONTINUOUS
10
20.9298573782
20
18.6626578706
40
0.1093853787
50
294.4500166359
51
90.0000000000
0
ARC
8
DRAFT_ENT
62
2
6
CONTINUOUS
10
20.9130060675
20
18.6494197104
40
0.0335073324
50
266.1604009902
51
89.9998910512
0
CIRCLE
8
DRAFT_ENT
62
2
6
CONTINUOUS
10
21.1627651552
20
18.4058427992
40
0.0408486676
0
ARC
8
DRAFT_ENT
62
2
6
CONTINUOUS
10
21.1680109883
20
18.4160265851
40
0.0105196554
50
270.0000000000
51
90.0000000000
0
CIRCLE
8
DRAFT_ENT
62
7
6
CONTINUOUS
10
19.0328653158
20
8.5166418544
40
0.0807841781
0
CIRCLE
8
0
62
7
6
CONTINUOUS
10
21.6435017651
20
15.5961469051
40
0.1738630103
0
CIRCLE
8
NOTE
62
2
6
CONTINUOUS
10
22.6062302385
20
16.5427591839
40
0.1781737717
0
CIRCLE
8
NOTE
62
2
6
CONTINUOUS
10
22.7329662737
20
4.0618503881
40
0.1140312139
0
CIRCLE
8
0
62
2
6
CONTINUOUS
10
23.0235564806
20
16.0612289045
40
0.1781737717
0
ENDSEC
0
EOF
