999
DXF file: 1155261-7.dxf
999
Pro/ENGINEER 2009220 by Parametric Technology Corporation
  0
SECTION
  2
HEADER
  9
$EXTMAX
 10
44.0
 20
34.0
 30
0.0
  9
$EXTMIN
 10
0.0
 20
0.0
 30
0.0
  9
$LIMMIN
 10
0.0
 20
0.0
  9
$LIMMAX
 10
44.0
 20
34.0
  9
$VIEWCTR
 10
22.0
 20
17.0
  9
$VIEWSIZE
 40
34.0
  9
$CLAYER
  8
0
  9
$LTSCALE
 40
2.42
  9
$CELTYPE
  6
BYLAYER
  9
$DIMSCALE
 40
1.0
  9
$DIMASZ
 40
0.1875
  9
$DIMEXO
 40
0.275
  9
$DIMDLI
 40
1.672
  9
$DIMEXE
 40
0.792
  9
$DIMCEN
 40
0.396
  9
$DIMLFAC
 40
1.0
  9
$DIMBLK
  1
_FILLED
  9
$DIMTXT
 40
0.15625
  9
$PDMODE
 70
3
  9
$PDSIZE
 40
0.3125
  9
$TILEMODE
 70
1
  0
ENDSEC
  0
SECTION
  2
TABLES
  0
TABLE
  2
LTYPE
 70
6
  0
LTYPE
  2
BYBLOCK
 70
0
  3

 72
65
 73
0
 40
0.0
  0
LTYPE
  2
BYLAYER
 70
0
  3

 72
65
 73
0
 40
0.0
  0
LTYPE
  2
CONTINUOUS
 70
64
  3
Solid line
 72
65
 73
0
 40
0.0
  0
LTYPE
  2
CENTER
 70
64
  3
____ _ ____ _ ____ _ ____ _ ____ _ ____ _ ____
 72
65
 73
4
 40
0.6
 49
0.375
 49
-0.075
 49
0.075
 49
-0.075
  0
LTYPE
  2
HIDDEN
 70
64
  3
- - - - - - - - - - - - - - - - - - - -
 72
65
 73
2
 40
0.2
 49
0.1
 49
-0.1
  0
LTYPE
  2
PHANTOM
 70
64
  3
_____ _ _ _____ _ _ _____ _ _ _____
 72
65
 73
6
 40
0.8
 49
0.45
 49
-0.05
 49
0.1
 49
-0.05
 49
0.1
 49
-0.05
  0
LTYPE
  2
DOT
 70
64
  3
. . . . . . . . . . . . . . . . . . . .
 72
65
 73
2
 40
0.2
 49
0.1
 49
-0.1
  0
LTYPE
  2
DASHED
 70
64
  3
- - - - - - - - - - - - - - - - - - - -
 72
65
 73
2
 40
0.2
 49
0.1
 49
-0.1
  0
ENDTAB
  0
TABLE
  2
LAYER
 70
36
  0
LAYER
  2
0
 70
0
 62
7
  6
CONTINUOUS
  0
LAYER
  2
DEFAULT_1
 70
0
 62
7
  6
CENTER
  0
LAYER
  2
DEFAULT_2
 70
0
 62
8
  6
HIDDEN
  0
LAYER
  2
DEFAULT_3
 70
0
 62
7
  6
PHANTOM
  0
LAYER
  2
DATUMS
 70
0
 62
7
  6
CONTINUOUS
  0
LAYER
  2
DATUM_AXIS
 70
0
 62
7
  6
CONTINUOUS
  0
LAYER
  2
DATUM_CSYS
 70
0
 62
7
  6
CONTINUOUS
  0
LAYER
  2
DATUM_PLANE
 70
0
 62
7
  6
CONTINUOUS
  0
LAYER
  2
DATUM_POINT
 70
0
 62
7
  6
CONTINUOUS
  0
LAYER
  2
_CURVE
 70
0
 62
7
  6
CONTINUOUS
  0
LAYER
  2
_SURFACE
 70
0
 62
7
  6
CONTINUOUS
  0
LAYER
  2
__REF_CURVE
 70
0
 62
7
  6
CONTINUOUS
  0
LAYER
  2
__REF_SURFACE
 70
0
 62
7
  6
CONTINUOUS
  0
LAYER
  2
___NOTE
 70
0
 62
7
  6
CONTINUOUS
  0
LAYER
  2
___SYMBOL
 70
0
 62
7
  6
CONTINUOUS
  0
ENDTAB
  0
TABLE
  2
STYLE
 70
1
  0
STYLE
  2
STANDARD
 70
0
 40
0.0
 41
0.8
 50
0.0
 71
0
 42
0.2
  3
txt
  4

  0
STYLE
  2
TEXTSTYLE_1
 70
0
 40
0.0
 41
0.8
 50
0.0
 71
0
 42
0.2
  3
gdt
  4

  0
ENDTAB
  0
ENDSEC
  0
SECTION
  2
BLOCKS
  0
BLOCK
  8
___SYMBOL
 62
2
  6
CONTINUOUS
  2
SKU_LAV_KOHLER_BL2
 70
64
 10
17.5106534884
 20
22.0439139535
  0
LINE
  8
___SYMBOL
 62
2
  6
CONTINUOUS
 10
15.4171424548
 20
23.6633296756
 11
15.2038390029
 21
23.4096814027
  0
LINE
  8
___SYMBOL
 62
2
  6
CONTINUOUS
 10
15.2250806427
 20
23.6633296756
 11
15.4171424548
 21
23.6633296756
  0
LINE
  8
___SYMBOL
 62
2
  6
CONTINUOUS
 10
15.2250806427
 20
23.6633296756
 11
15.087316476
 21
23.4995084859
  0
LINE
  8
___SYMBOL
 62
2
  6
CONTINUOUS
 10
15.087316476
 20
23.6633296756
 11
15.087316476
 21
23.4995084859
  0
LINE
  8
___SYMBOL
 62
2
  6
CONTINUOUS
 10
14.912816249
 20
23.6633296756
 11
15.087316476
 21
23.6633296756
  0
LINE
  8
___SYMBOL
 62
2
  6
CONTINUOUS
 10
14.912816249
 20
23.6633296756
 11
14.912816249
 21
23.0773920228
  0
LINE
  8
___SYMBOL
 62
2
  6
CONTINUOUS
 10
15.087316476
 20
23.0774160263
 11
14.912816249
 21
23.0773920228
  0
LINE
  8
___SYMBOL
 62
2
  6
CONTINUOUS
 10
15.087316476
 20
23.2789158603
 11
15.087316476
 21
23.0774160263
  0
LINE
  8
___SYMBOL
 62
2
  6
CONTINUOUS
 10
15.241054416
 20
23.0774160263
 11
15.087316476
 21
23.2789158603
  0
LINE
  8
___SYMBOL
 62
2
  6
CONTINUOUS
 10
15.241054416
 20
23.0774160263
 11
15.4573468376
 21
23.0774160263
  0
LINE
  8
___SYMBOL
 62
2
  6
CONTINUOUS
 10
15.4573468376
 20
23.0774160263
 11
15.2038390029
 21
23.4096814027
  0
SOLID
  8
___SYMBOL
 62
2
  6
CONTINUOUS
 10
15.087316476
 20
23.4995084859
 11
15.2250806427
 21
23.6633296756
 12
15.4171424548
 22
23.6633296756
 13
15.4171424548
 23
23.6633296756
  0
SOLID
  8
___SYMBOL
 62
2
  6
CONTINUOUS
 10
15.4171424548
 20
23.6633296756
 11
15.2038390029
 21
23.4096814027
 12
15.087316476
 22
23.4995084859
 13
15.087316476
 23
23.4995084859
  0
SOLID
  8
___SYMBOL
 62
2
  6
CONTINUOUS
 10
15.087316476
 20
23.2789158603
 11
15.2038390029
 21
23.4096814027
 12
15.241054416
 22
23.0774160263
 13
15.241054416
 23
23.0774160263
  0
SOLID
  8
___SYMBOL
 62
2
  6
CONTINUOUS
 10
15.2038390029
 20
23.4096814027
 11
15.4573468376
 21
23.0774160263
 12
15.241054416
 22
23.0774160263
 13
15.241054416
 23
23.0774160263
  0
SOLID
  8
___SYMBOL
 62
2
  6
CONTINUOUS
 10
15.087316476
 20
23.0774160263
 11
14.912816249
 21
23.0773920228
 12
15.087316476
 22
23.2789158603
 13
15.087316476
 23
23.2789158603
  0
SOLID
  8
___SYMBOL
 62
2
  6
CONTINUOUS
 10
15.2038390029
 20
23.4096814027
 11
15.087316476
 21
23.2789158603
 12
15.087316476
 22
23.4995084859
 13
15.087316476
 23
23.4995084859
  0
SOLID
  8
___SYMBOL
 62
2
  6
CONTINUOUS
 10
15.087316476
 20
23.2789158603
 11
14.912816249
 21
23.0773920228
 12
15.087316476
 22
23.4995084859
 13
15.087316476
 23
23.4995084859
  0
SOLID
  8
___SYMBOL
 62
2
  6
CONTINUOUS
 10
15.087316476
 20
23.4995084859
 11
14.912816249
 21
23.0773920228
 12
15.087316476
 22
23.6633296756
 13
15.087316476
 23
23.6633296756
  0
SOLID
  8
___SYMBOL
 62
2
  6
CONTINUOUS
 10
14.912816249
 20
23.0773920228
 11
14.912816249
 21
23.6633296756
 12
15.087316476
 22
23.6633296756
 13
15.087316476
 23
23.6633296756
  0
CIRCLE
  8
___SYMBOL
 62
2
  6
CONTINUOUS
 10
15.6338556742
 20
23.3692515991
 40
0.298056591
  0
CIRCLE
  8
___SYMBOL
 62
2
  6
CONTINUOUS
 10
15.6338556742
 20
23.3692515991
 40
0.1247694151
  0
SOLID
  8
___SYMBOL
 62
2
  6
CONTINUOUS
 10
15.5417511223
 20
23.6527202622
 11
15.6027002768
 21
23.6656754049
 12
15.6650110717
 22
23.6656754049
 13
15.6650110717
 23
23.6656754049
  0
SOLID
  8
___SYMBOL
 62
2
  6
CONTINUOUS
 10
15.6650110717
 20
23.6656754049
 11
15.7259602261
 21
23.6527202622
 12
15.5417511223
 22
23.6527202622
 13
15.5417511223
 23
23.6527202622
  0
SOLID
  8
___SYMBOL
 62
2
  6
CONTINUOUS
 10
15.4848273787
 20
23.6273761786
 11
15.5417511223
 21
23.6527202622
 12
15.7259602261
 22
23.6527202622
 13
15.7259602261
 23
23.6527202622
  0
SOLID
  8
___SYMBOL
 62
2
  6
CONTINUOUS
 10
15.7259602261
 20
23.6527202622
 11
15.7828839697
 21
23.6273761786
 12
15.4848273787
 22
23.6273761786
 13
15.4848273787
 23
23.6273761786
  0
SOLID
  8
___SYMBOL
 62
2
  6
CONTINUOUS
 10
15.4344168868
 20
23.5907508124
 11
15.4848273787
 21
23.6273761786
 12
15.7828839697
 22
23.6273761786
 13
15.7828839697
 23
23.6273761786
  0
SOLID
  8
___SYMBOL
 62
2
  6
CONTINUOUS
 10
15.7828839697
 20
23.6273761786
 11
15.8332944617
 21
23.5907508124
 12
15.4344168868
 22
23.5907508124
 13
15.4344168868
 23
23.5907508124
  0
SOLID
  8
___SYMBOL
 62
2
  6
CONTINUOUS
 10
15.3927228268
 20
23.5444448676
 11
15.4344168868
 21
23.5907508124
 12
15.8332944617
 22
23.5907508124
 13
15.8332944617
 23
23.5907508124
  0
SOLID
  8
___SYMBOL
 62
2
  6
CONTINUOUS
 10
15.8332944617
 20
23.5907508124
 11
15.8749885216
 21
23.5444448676
 12
15.3927228268
 22
23.5444448676
 13
15.3927228268
 23
23.5444448676
  0
SOLID
  8
___SYMBOL
 62
2
  6
CONTINUOUS
 10
15.6338556742
 20
23.4940210141
 11
15.3615674294
 21
23.4904821363
 12
15.8749885216
 22
23.5444448676
 13
15.8749885216
 23
23.5444448676
  0
SOLID
  8
___SYMBOL
 62
2
  6
CONTINUOUS
 10
15.3615674294
 20
23.4904821363
 11
15.3927228268
 21
23.5444448676
 12
15.8749885216
 22
23.5444448676
 13
15.8749885216
 23
23.5444448676
  0
SOLID
  8
___SYMBOL
 62
2
  6
CONTINUOUS
 10
15.8749885216
 20
23.5444448676
 11
15.9061439191
 21
23.4904821363
 12
15.6338556742
 22
23.4940210141
 13
15.6338556742
 23
23.4940210141
  0
SOLID
  8
___SYMBOL
 62
2
  6
CONTINUOUS
 10
15.6338556742
 20
23.4940210141
 11
15.5952998046
 21
23.4879143643
 12
15.3615674294
 22
23.4904821363
 13
15.3615674294
 23
23.4904821363
  0
SOLID
  8
___SYMBOL
 62
2
  6
CONTINUOUS
 10
15.6724115439
 20
23.4879143643
 11
15.6338556742
 21
23.4940210141
 12
15.9061439191
 22
23.4904821363
 13
15.9061439191
 23
23.4904821363
  0
SOLID
  8
___SYMBOL
 62
2
  6
CONTINUOUS
 10
15.5329150971
 20
23.4425892212
 11
15.3423123349
 21
23.4312210489
 12
15.5605180521
 22
23.4701921762
 13
15.5605180521
 23
23.4701921762
  0
SOLID
  8
___SYMBOL
 62
2
  6
CONTINUOUS
 10
15.5605180521
 20
23.4701921762
 11
15.3423123349
 21
23.4312210489
 12
15.5952998046
 22
23.4879143643
 13
15.5952998046
 23
23.4879143643
  0
SOLID
  8
___SYMBOL
 62
2
  6
CONTINUOUS
 10
15.3423123349
 20
23.4312210489
 11
15.3615674294
 21
23.4904821363
 12
15.5952998046
 22
23.4879143643
 13
15.5952998046
 23
23.4879143643
  0
SOLID
  8
___SYMBOL
 62
2
  6
CONTINUOUS
 10
15.6724115439
 20
23.4879143643
 11
15.9061439191
 21
23.4904821363
 12
15.7071932964
 22
23.4701921762
 13
15.7071932964
 23
23.4701921762
  0
SOLID
  8
___SYMBOL
 62
2
  6
CONTINUOUS
 10
15.7071932964
 20
23.4701921762
 11
15.9061439191
 21
23.4904821363
 12
15.7347962514
 22
23.4425892212
 13
15.7347962514
 23
23.4425892212
  0
SOLID
  8
___SYMBOL
 62
2
  6
CONTINUOUS
 10
15.9061439191
 20
23.4904821363
 11
15.9253990136
 21
23.4312210489
 12
15.7347962514
 22
23.4425892212
 13
15.7347962514
 23
23.4425892212
  0
SOLID
  8
___SYMBOL
 62
2
  6
CONTINUOUS
 10
15.5329150971
 20
23.4425892212
 11
15.515192909
 21
23.4078074687
 12
15.3423123349
 22
23.4312210489
 13
15.3423123349
 23
23.4312210489
  0
SOLID
  8
___SYMBOL
 62
2
  6
CONTINUOUS
 10
15.7525184395
 20
23.4078074687
 11
15.7347962514
 21
23.4425892212
 12
15.9253990136
 22
23.4312210489
 13
15.9253990136
 23
23.4312210489
  0
SOLID
  8
___SYMBOL
 62
2
  6
CONTINUOUS
 10
15.3357990832
 20
23.3692515991
 11
15.3423123349
 21
23.4312210489
 12
15.515192909
 22
23.4078074687
 13
15.515192909
 23
23.4078074687
  0
SOLID
  8
___SYMBOL
 62
2
  6
CONTINUOUS
 10
15.515192909
 20
23.4078074687
 11
15.5090862592
 21
23.3692515991
 12
15.3357990832
 22
23.3692515991
 13
15.3357990832
 23
23.3692515991
  0
SOLID
  8
___SYMBOL
 62
2
  6
CONTINUOUS
 10
15.7525184395
 20
23.4078074687
 11
15.9253990136
 21
23.4312210489
 12
15.7586250893
 22
23.3692515991
 13
15.7586250893
 23
23.3692515991
  0
SOLID
  8
___SYMBOL
 62
2
  6
CONTINUOUS
 10
15.9253990136
 20
23.4312210489
 11
15.9319122652
 21
23.3692515991
 12
15.7586250893
 22
23.3692515991
 13
15.7586250893
 23
23.3692515991
  0
SOLID
  8
___SYMBOL
 62
2
  6
CONTINUOUS
 10
15.7525184395
 20
23.3306957294
 11
15.7586250893
 21
23.3692515991
 12
15.9319122652
 22
23.3692515991
 13
15.9319122652
 23
23.3692515991
  0
SOLID
  8
___SYMBOL
 62
2
  6
CONTINUOUS
 10
15.515192909
 20
23.3306957294
 11
15.3423123349
 21
23.3072821493
 12
15.5090862592
 22
23.3692515991
 13
15.5090862592
 23
23.3692515991
  0
SOLID
  8
___SYMBOL
 62
2
  6
CONTINUOUS
 10
15.3423123349
 20
23.3072821493
 11
15.3357990832
 21
23.3692515991
 12
15.5090862592
 22
23.3692515991
 13
15.5090862592
 23
23.3692515991
  0
SOLID
  8
___SYMBOL
 62
2
  6
CONTINUOUS
 10
15.9319122652
 20
23.3692515991
 11
15.9253990136
 21
23.3072821493
 12
15.7525184395
 22
23.3306957294
 13
15.7525184395
 23
23.3306957294
  0
SOLID
  8
___SYMBOL
 62
2
  6
CONTINUOUS
 10
15.515192909
 20
23.3306957294
 11
15.5329150971
 21
23.2959139769
 12
15.3423123349
 22
23.3072821493
 13
15.3423123349
 23
23.3072821493
  0
SOLID
  8
___SYMBOL
 62
2
  6
CONTINUOUS
 10
15.7347962514
 20
23.2959139769
 11
15.7525184395
 21
23.3306957294
 12
15.9253990136
 22
23.3072821493
 13
15.9253990136
 23
23.3072821493
  0
SOLID
  8
___SYMBOL
 62
2
  6
CONTINUOUS
 10
15.5952998046
 20
23.2505888338
 11
15.3615674294
 21
23.2480210618
 12
15.5605180521
 22
23.2683110219
 13
15.5605180521
 23
23.2683110219
  0
SOLID
  8
___SYMBOL
 62
2
  6
CONTINUOUS
 10
15.5605180521
 20
23.2683110219
 11
15.3615674294
 21
23.2480210618
 12
15.5329150971
 22
23.2959139769
 13
15.5329150971
 23
23.2959139769
  0
SOLID
  8
___SYMBOL
 62
2
  6
CONTINUOUS
 10
15.3615674294
 20
23.2480210618
 11
15.3423123349
 21
23.3072821493
 12
15.5329150971
 22
23.2959139769
 13
15.5329150971
 23
23.2959139769
  0
SOLID
  8
___SYMBOL
 62
2
  6
CONTINUOUS
 10
15.7347962514
 20
23.2959139769
 11
15.9253990136
 21
23.3072821493
 12
15.7071932964
 22
23.2683110219
 13
15.7071932964
 23
23.2683110219
  0
SOLID
  8
___SYMBOL
 62
2
  6
CONTINUOUS
 10
15.7071932964
 20
23.2683110219
 11
15.9253990136
 21
23.3072821493
 12
15.6724115439
 22
23.2505888338
 13
15.6724115439
 23
23.2505888338
  0
SOLID
  8
___SYMBOL
 62
2
  6
CONTINUOUS
 10
15.9253990136
 20
23.3072821493
 11
15.9061439191
 21
23.2480210618
 12
15.6724115439
 22
23.2505888338
 13
15.6724115439
 23
23.2505888338
  0
SOLID
  8
___SYMBOL
 62
2
  6
CONTINUOUS
 10
15.5952998046
 20
23.2505888338
 11
15.6338556742
 21
23.244482184
 12
15.3615674294
 22
23.2480210618
 13
15.3615674294
 23
23.2480210618
  0
SOLID
  8
___SYMBOL
 62
2
  6
CONTINUOUS
 10
15.6338556742
 20
23.244482184
 11
15.6724115439
 21
23.2505888338
 12
15.9061439191
 22
23.2480210618
 13
15.9061439191
 23
23.2480210618
  0
SOLID
  8
___SYMBOL
 62
2
  6
CONTINUOUS
 10
15.3927228268
 20
23.1940583305
 11
15.3615674294
 21
23.2480210618
 12
15.6338556742
 22
23.244482184
 13
15.6338556742
 23
23.244482184
  0
SOLID
  8
___SYMBOL
 62
2
  6
CONTINUOUS
 10
15.6338556742
 20
23.244482184
 11
15.9061439191
 21
23.2480210618
 12
15.3927228268
 22
23.1940583305
 13
15.3927228268
 23
23.1940583305
  0
SOLID
  8
___SYMBOL
 62
2
  6
CONTINUOUS
 10
15.9061439191
 20
23.2480210618
 11
15.8749885216
 21
23.1940583305
 12
15.3927228268
 22
23.1940583305
 13
15.3927228268
 23
23.1940583305
  0
SOLID
  8
___SYMBOL
 62
2
  6
CONTINUOUS
 10
15.4344168868
 20
23.1477523858
 11
15.3927228268
 21
23.1940583305
 12
15.8749885216
 22
23.1940583305
 13
15.8749885216
 23
23.1940583305
  0
SOLID
  8
___SYMBOL
 62
2
  6
CONTINUOUS
 10
15.8749885216
 20
23.1940583305
 11
15.8332944617
 21
23.1477523858
 12
15.4344168868
 22
23.1477523858
 13
15.4344168868
 23
23.1477523858
  0
SOLID
  8
___SYMBOL
 62
2
  6
CONTINUOUS
 10
15.4848273787
 20
23.1111270195
 11
15.4344168868
 21
23.1477523858
 12
15.8332944617
 22
23.1477523858
 13
15.8332944617
 23
23.1477523858
  0
SOLID
  8
___SYMBOL
 62
2
  6
CONTINUOUS
 10
15.8332944617
 20
23.1477523858
 11
15.7828839697
 21
23.1111270195
 12
15.4848273787
 22
23.1111270195
 13
15.4848273787
 23
23.1111270195
  0
SOLID
  8
___SYMBOL
 62
2
  6
CONTINUOUS
 10
15.5417511223
 20
23.085782936
 11
15.4848273787
 21
23.1111270195
 12
15.7828839697
 22
23.1111270195
 13
15.7828839697
 23
23.1111270195
  0
SOLID
  8
___SYMBOL
 62
2
  6
CONTINUOUS
 10
15.7828839697
 20
23.1111270195
 11
15.7259602261
 21
23.085782936
 12
15.5417511223
 22
23.085782936
 13
15.5417511223
 23
23.085782936
  0
SOLID
  8
___SYMBOL
 62
2
  6
CONTINUOUS
 10
15.6027002768
 20
23.0728277933
 11
15.5417511223
 21
23.085782936
 12
15.7259602261
 22
23.085782936
 13
15.7259602261
 23
23.085782936
  0
SOLID
  8
___SYMBOL
 62
2
  6
CONTINUOUS
 10
15.7259602261
 20
23.085782936
 11
15.6650110717
 21
23.0728277933
 12
15.6027002768
 22
23.0728277933
 13
15.6027002768
 23
23.0728277933
  0
LINE
  8
___SYMBOL
 62
2
  6
CONTINUOUS
 10
16.4264916834
 20
23.6633296756
 11
16.4264916834
 21
23.0774160263
  0
LINE
  8
___SYMBOL
 62
2
  6
CONTINUOUS
 10
16.4264916834
 20
23.0774160263
 11
16.2617580036
 21
23.0774160263
  0
LINE
  8
___SYMBOL
 62
2
  6
CONTINUOUS
 10
16.2617580036
 20
23.305740636
 11
16.2617580036
 21
23.0774160263
  0
LINE
  8
___SYMBOL
 62
2
  6
CONTINUOUS
 10
16.1137611925
 20
23.305740636
 11
16.2617580036
 21
23.305740636
  0
LINE
  8
___SYMBOL
 62
2
  6
CONTINUOUS
 10
16.1137611925
 20
23.305740636
 11
16.1137611925
 21
23.0774160263
  0
LINE
  8
___SYMBOL
 62
2
  6
CONTINUOUS
 10
16.1137611925
 20
23.0774160263
 11
15.9490275126
 21
23.0774160263
  0
LINE
  8
___SYMBOL
 62
2
  6
CONTINUOUS
 10
15.9490275126
 20
23.6633296756
 11
15.9490275126
 21
23.0774160263
  0
LINE
  8
___SYMBOL
 62
2
  6
CONTINUOUS
 10
15.9490275126
 20
23.6633296756
 11
16.1137611925
 21
23.6633296756
  0
LINE
  8
___SYMBOL
 62
2
  6
CONTINUOUS
 10
16.1137611925
 20
23.6633296756
 11
16.1137611925
 21
23.442945916
  0
LINE
  8
___SYMBOL
 62
2
  6
CONTINUOUS
 10
16.1137611925
 20
23.442945916
 11
16.2617580036
 21
23.442945916
  0
LINE
  8
___SYMBOL
 62
2
  6
CONTINUOUS
 10
16.2617580036
 20
23.6633296756
 11
16.2617580036
 21
23.442945916
  0
LINE
  8
___SYMBOL
 62
2
  6
CONTINUOUS
 10
16.2617580036
 20
23.6633296756
 11
16.4264916834
 21
23.6633296756
  0
SOLID
  8
___SYMBOL
 62
2
  6
CONTINUOUS
 10
16.2617580036
 20
23.442945916
 11
16.2617580036
 21
23.6633296756
 12
16.4264916834
 22
23.6633296756
 13
16.4264916834
 23
23.6633296756
  0
SOLID
  8
___SYMBOL
 62
2
  6
CONTINUOUS
 10
16.2617580036
 20
23.442945916
 11
16.1137611925
 21
23.305740636
 12
16.1137611925
 22
23.442945916
 13
16.1137611925
 23
23.442945916
  0
SOLID
  8
___SYMBOL
 62
2
  6
CONTINUOUS
 10
16.1137611925
 20
23.305740636
 11
15.9490275126
 21
23.0774160263
 12
16.1137611925
 22
23.442945916
 13
16.1137611925
 23
23.442945916
  0
SOLID
  8
___SYMBOL
 62
2
  6
CONTINUOUS
 10
16.1137611925
 20
23.442945916
 11
15.9490275126
 21
23.0774160263
 12
16.1137611925
 22
23.6633296756
 13
16.1137611925
 23
23.6633296756
  0
SOLID
  8
___SYMBOL
 62
2
  6
CONTINUOUS
 10
15.9490275126
 20
23.0774160263
 11
15.9490275126
 21
23.6633296756
 12
16.1137611925
 22
23.6633296756
 13
16.1137611925
 23
23.6633296756
  0
SOLID
  8
___SYMBOL
 62
2
  6
CONTINUOUS
 10
16.1137611925
 20
23.305740636
 11
16.1137611925
 21
23.0774160263
 12
15.9490275126
 22
23.0774160263
 13
15.9490275126
 23
23.0774160263
  0
SOLID
  8
___SYMBOL
 62
2
  6
CONTINUOUS
 10
16.1137611925
 20
23.305740636
 11
16.2617580036
 21
23.442945916
 12
16.2617580036
 22
23.305740636
 13
16.2617580036
 23
23.305740636
  0
SOLID
  8
___SYMBOL
 62
2
  6
CONTINUOUS
 10
16.2617580036
 20
23.442945916
 11
16.4264916834
 21
23.6633296756
 12
16.2617580036
 22
23.305740636
 13
16.2617580036
 23
23.305740636
  0
SOLID
  8
___SYMBOL
 62
2
  6
CONTINUOUS
 10
16.2617580036
 20
23.305740636
 11
16.4264916834
 21
23.6633296756
 12
16.2617580036
 22
23.0774160263
 13
16.2617580036
 23
23.0774160263
  0
SOLID
  8
___SYMBOL
 62
2
  6
CONTINUOUS
 10
16.4264916834
 20
23.6633296756
 11
16.4264916834
 21
23.0774160263
 12
16.2617580036
 22
23.0774160263
 13
16.2617580036
 23
23.0774160263
  0
LINE
  8
___SYMBOL
 62
2
  6
CONTINUOUS
 10
16.6215825904
 20
23.0774160263
 11
16.7842666603
 21
23.0774160263
  0
LINE
  8
___SYMBOL
 62
2
  6
CONTINUOUS
 10
16.6215825904
 20
23.0774160263
 11
16.4715365276
 21
23.0774160263
  0
LINE
  8
___SYMBOL
 62
2
  6
CONTINUOUS
 10
16.4715365276
 20
23.0774160263
 11
16.4715365276
 21
23.6633296756
  0
LINE
  8
___SYMBOL
 62
2
  6
CONTINUOUS
 10
16.4715365276
 20
23.6633296756
 11
16.6215825904
 21
23.6633296756
  0
LINE
  8
___SYMBOL
 62
2
  6
CONTINUOUS
 10
16.6215825904
 20
23.6633296756
 11
16.6215825904
 21
23.2186427834
  0
LINE
  8
___SYMBOL
 62
2
  6
CONTINUOUS
 10
16.6215825904
 20
23.2186427834
 11
16.7842666603
 21
23.2186427834
  0
LINE
  8
___SYMBOL
 62
2
  6
CONTINUOUS
 10
16.7842666603
 20
23.2186427834
 11
16.7842666603
 21
23.0774160263
  0
SOLID
  8
___SYMBOL
 62
2
  6
CONTINUOUS
 10
16.7842666603
 20
23.2186427834
 11
16.4715365276
 21
23.0774160263
 12
16.6215825904
 22
23.2186427834
 13
16.6215825904
 23
23.2186427834
  0
SOLID
  8
___SYMBOL
 62
2
  6
CONTINUOUS
 10
16.6215825904
 20
23.2186427834
 11
16.4715365276
 21
23.0774160263
 12
16.6215825904
 22
23.6633296756
 13
16.6215825904
 23
23.6633296756
  0
SOLID
  8
___SYMBOL
 62
2
  6
CONTINUOUS
 10
16.4715365276
 20
23.0774160263
 11
16.4715365276
 21
23.6633296756
 12
16.6215825904
 22
23.6633296756
 13
16.6215825904
 23
23.6633296756
  0
SOLID
  8
___SYMBOL
 62
2
  6
CONTINUOUS
 10
16.4715365276
 20
23.0774160263
 11
16.7842666603
 21
23.2186427834
 12
16.6215825904
 22
23.0774160263
 13
16.6215825904
 23
23.0774160263
  0
SOLID
  8
___SYMBOL
 62
2
  6
CONTINUOUS
 10
16.7842666603
 20
23.2186427834
 11
16.7842666603
 21
23.0774160263
 12
16.6215825904
 22
23.0774160263
 13
16.6215825904
 23
23.0774160263
  0
LINE
  8
___SYMBOL
 62
2
  6
CONTINUOUS
 10
17.1225185744
 20
23.2985643144
 11
17.1225185744
 21
23.442945916
  0
LINE
  8
___SYMBOL
 62
2
  6
CONTINUOUS
 10
16.971661051
 20
23.442945916
 11
17.1225185744
 21
23.442945916
  0
LINE
  8
___SYMBOL
 62
2
  6
CONTINUOUS
 10
16.971661051
 20
23.5205702788
 11
16.971661051
 21
23.442945916
  0
LINE
  8
___SYMBOL
 62
2
  6
CONTINUOUS
 10
16.971661051
 20
23.5205702788
 11
17.1225185744
 21
23.5205702788
  0
LINE
  8
___SYMBOL
 62
2
  6
CONTINUOUS
 10
17.1225185744
 20
23.5205702788
 11
17.1225185744
 21
23.6633296756
  0
LINE
  8
___SYMBOL
 62
2
  6
CONTINUOUS
 10
16.9858653743
 20
23.6633296756
 11
17.1225185744
 21
23.6633296756
  0
LINE
  8
___SYMBOL
 62
2
  6
CONTINUOUS
 10
16.813414399
 20
23.6633296756
 11
16.9858653743
 21
23.6633296756
  0
LINE
  8
___SYMBOL
 62
2
  6
CONTINUOUS
 10
16.813414399
 20
23.0774160263
 11
16.813414399
 21
23.6633296756
  0
LINE
  8
___SYMBOL
 62
2
  6
CONTINUOUS
 10
16.813414399
 20
23.0774160263
 11
17.1225185744
 21
23.0774160263
  0
LINE
  8
___SYMBOL
 62
2
  6
CONTINUOUS
 10
17.1225185744
 20
23.0774160263
 11
17.1225185744
 21
23.2186427834
  0
LINE
  8
___SYMBOL
 62
2
  6
CONTINUOUS
 10
16.971661051
 20
23.2186427834
 11
17.1225185744
 21
23.2186427834
  0
LINE
  8
___SYMBOL
 62
2
  6
CONTINUOUS
 10
16.971661051
 20
23.2985643144
 11
16.971661051
 21
23.2186427834
  0
LINE
  8
___SYMBOL
 62
2
  6
CONTINUOUS
 10
16.971661051
 20
23.2985643144
 11
17.1225185744
 21
23.2985643144
  0
SOLID
  8
___SYMBOL
 62
2
  6
CONTINUOUS
 10
17.1225185744
 20
23.6633296756
 11
17.1225185744
 21
23.5205702788
 12
16.971661051
 22
23.5205702788
 13
16.971661051
 23
23.5205702788
  0
SOLID
  8
___SYMBOL
 62
2
  6
CONTINUOUS
 10
17.1225185744
 20
23.442945916
 11
17.1225185744
 21
23.2985643144
 12
16.971661051
 22
23.2985643144
 13
16.971661051
 23
23.2985643144
  0
SOLID
  8
___SYMBOL
 62
2
  6
CONTINUOUS
 10
17.1225185744
 20
23.2186427834
 11
16.813414399
 21
23.0774160263
 12
16.971661051
 22
23.2186427834
 13
16.971661051
 23
23.2186427834
  0
SOLID
  8
___SYMBOL
 62
2
  6
CONTINUOUS
 10
16.971661051
 20
23.2186427834
 11
16.813414399
 21
23.0774160263
 12
16.971661051
 22
23.2985643144
 13
16.971661051
 23
23.2985643144
  0
SOLID
  8
___SYMBOL
 62
2
  6
CONTINUOUS
 10
17.1225185744
 20
23.442945916
 11
16.971661051
 21
23.2985643144
 12
16.971661051
 22
23.442945916
 13
16.971661051
 23
23.442945916
  0
SOLID
  8
___SYMBOL
 62
2
  6
CONTINUOUS
 10
16.971661051
 20
23.2985643144
 11
16.813414399
 21
23.0774160263
 12
16.971661051
 22
23.442945916
 13
16.971661051
 23
23.442945916
  0
SOLID
  8
___SYMBOL
 62
2
  6
CONTINUOUS
 10
16.971661051
 20
23.442945916
 11
16.813414399
 21
23.0774160263
 12
16.971661051
 22
23.5205702788
 13
16.971661051
 23
23.5205702788
  0
SOLID
  8
___SYMBOL
 62
2
  6
CONTINUOUS
 10
17.1225185744
 20
23.6633296756
 11
16.971661051
 21
23.5205702788
 12
16.9858653743
 22
23.6633296756
 13
16.9858653743
 23
23.6633296756
  0
SOLID
  8
___SYMBOL
 62
2
  6
CONTINUOUS
 10
16.971661051
 20
23.5205702788
 11
16.813414399
 21
23.0774160263
 12
16.9858653743
 22
23.6633296756
 13
16.9858653743
 23
23.6633296756
  0
SOLID
  8
___SYMBOL
 62
2
  6
CONTINUOUS
 10
16.813414399
 20
23.0774160263
 11
16.813414399
 21
23.6633296756
 12
16.9858653743
 22
23.6633296756
 13
16.9858653743
 23
23.6633296756
  0
SOLID
  8
___SYMBOL
 62
2
  6
CONTINUOUS
 10
17.1225185744
 20
23.2186427834
 11
17.1225185744
 21
23.0774160263
 12
16.813414399
 22
23.0774160263
 13
16.813414399
 23
23.0774160263
  0
LINE
  8
___SYMBOL
 62
2
  6
CONTINUOUS
 10
17.6327689803
 20
23.0774160263
 11
17.4733257374
 21
23.3289985675
  0
ARC
  8
___SYMBOL
 62
2
  6
CONTINUOUS
 10
17.4008864897
 20
23.4883201649
 40
0.1750166163
 50
294.4500166359
 51
90.0
  0
LINE
  8
___SYMBOL
 62
2
  6
CONTINUOUS
 10
17.1673387891
 20
23.6633296756
 11
17.4008864897
 21
23.6633296756
  0
LINE
  8
___SYMBOL
 62
2
  6
CONTINUOUS
 10
17.1673387891
 20
23.0774160263
 11
17.1673387891
 21
23.6633296756
  0
LINE
  8
___SYMBOL
 62
2
  6
CONTINUOUS
 10
17.1673387891
 20
23.0774160263
 11
17.3179946116
 21
23.0774160263
  0
LINE
  8
___SYMBOL
 62
2
  6
CONTINUOUS
 10
17.3179946116
 20
23.2743723971
 11
17.3179946116
 21
23.0774160263
  0
LINE
  8
___SYMBOL
 62
2
  6
CONTINUOUS
 10
17.4428180408
 20
23.0774160263
 11
17.3179946116
 21
23.2743723971
  0
LINE
  8
___SYMBOL
 62
2
  6
CONTINUOUS
 10
17.4428180408
 20
23.0774160263
 11
17.6327689803
 21
23.0774160263
  0
LINE
  8
___SYMBOL
 62
2
  6
CONTINUOUS
 10
17.3179946116
 20
23.4136477078
 11
17.3703343618
 21
23.4136477078
  0
ARC
  8
___SYMBOL
 62
2
  6
CONTINUOUS
 10
17.3739243911
 20
23.4671391073
 40
0.053611735
 50
266.1604009902
 51
89.9998910512
  0
LINE
  8
___SYMBOL
 62
2
  6
CONTINUOUS
 10
17.3739244931
 20
23.5207508423
 11
17.3179946116
 21
23.5207508423
  0
LINE
  8
___SYMBOL
 62
2
  6
CONTINUOUS
 10
17.3179946116
 20
23.5207508423
 11
17.3179946116
 21
23.4136477078
  0
SOLID
  8
___SYMBOL
 62
2
  6
CONTINUOUS
 10
17.4008864897
 20
23.6633367812
 11
17.4478195133
 21
23.6569265328
 12
17.1673387891
 22
23.6633296756
 13
17.1673387891
 23
23.6633296756
  0
SOLID
  8
___SYMBOL
 62
2
  6
CONTINUOUS
 10
17.3179946116
 20
23.5207508423
 11
17.5719343527
 21
23.5253801778
 12
17.3739244931
 22
23.5207508423
 13
17.3739244931
 23
23.5207508423
  0
SOLID
  8
___SYMBOL
 62
2
  6
CONTINUOUS
 10
17.3739244931
 20
23.5207508423
 11
17.5719343527
 21
23.5253801778
 12
17.3976470747
 22
23.5152166739
 13
17.3976470747
 23
23.5152166739
  0
SOLID
  8
___SYMBOL
 62
2
  6
CONTINUOUS
 10
17.3976470747
 20
23.5152166739
 11
17.5719343527
 21
23.5253801778
 12
17.4164720623
 22
23.4997567989
 13
17.4164720623
 23
23.4997567989
  0
SOLID
  8
___SYMBOL
 62
2
  6
CONTINUOUS
 10
17.5719343527
 20
23.5253801778
 11
17.5756075991
 21
23.478154049
 12
17.4164720623
 22
23.4997567989
 13
17.4164720623
 23
23.4997567989
  0
SOLID
  8
___SYMBOL
 62
2
  6
CONTINUOUS
 10
17.4265130009
 20
23.4775629383
 11
17.4164720623
 21
23.4997567989
 12
17.5756075991
 22
23.478154049
 13
17.5756075991
 23
23.478154049
  0
SOLID
  8
___SYMBOL
 62
2
  6
CONTINUOUS
 10
17.4265130009
 20
23.4775629383
 11
17.5756075991
 21
23.478154049
 12
17.4256969192
 22
23.4532170576
 13
17.4256969192
 23
23.4532170576
  0
SOLID
  8
___SYMBOL
 62
2
  6
CONTINUOUS
 10
17.4256969192
 20
23.4532170576
 11
17.5756075991
 21
23.478154049
 12
17.4141922989
 22
23.431745411
 13
17.4141922989
 23
23.431745411
  0
SOLID
  8
___SYMBOL
 62
2
  6
CONTINUOUS
 10
17.5756075991
 20
23.478154049
 11
17.5664819955
 21
23.4316726189
 12
17.4141922989
 22
23.431745411
 13
17.4141922989
 23
23.431745411
  0
SOLID
  8
___SYMBOL
 62
2
  6
CONTINUOUS
 10
17.3943742911
 20
23.4175808615
 11
17.4141922989
 21
23.431745411
 12
17.5664819955
 22
23.4316726189
 13
17.5664819955
 23
23.4316726189
  0
SOLID
  8
___SYMBOL
 62
2
  6
CONTINUOUS
 10
17.3943742911
 20
23.4175808615
 11
17.5664819955
 21
23.4316726189
 12
17.3703343618
 22
23.4136477078
 13
17.3703343618
 23
23.4136477078
  0
SOLID
  8
___SYMBOL
 62
2
  6
CONTINUOUS
 10
17.5664819955
 20
23.4316726189
 11
17.5452260198
 21
23.3893407931
 12
17.3703343618
 22
23.4136477078
 13
17.3703343618
 23
23.4136477078
  0
SOLID
  8
___SYMBOL
 62
2
  6
CONTINUOUS
 10
17.4733257374
 20
23.3289985675
 11
17.3179946116
 21
23.2743723971
 12
17.5133967366
 22
23.3542595058
 13
17.5133967366
 23
23.3542595058
  0
SOLID
  8
___SYMBOL
 62
2
  6
CONTINUOUS
 10
17.5133967366
 20
23.3542595058
 11
17.3179946116
 21
23.2743723971
 12
17.5452260198
 22
23.3893407931
 13
17.5452260198
 23
23.3893407931
  0
SOLID
  8
___SYMBOL
 62
2
  6
CONTINUOUS
 10
17.5452260198
 20
23.3893407931
 11
17.3179946116
 21
23.2743723971
 12
17.3703343618
 22
23.4136477078
 13
17.3703343618
 23
23.4136477078
  0
SOLID
  8
___SYMBOL
 62
2
  6
CONTINUOUS
 10
17.3179946116
 20
23.2743723971
 11
17.1673387891
 21
23.0774160263
 12
17.3703343618
 22
23.4136477078
 13
17.3703343618
 23
23.4136477078
  0
SOLID
  8
___SYMBOL
 62
2
  6
CONTINUOUS
 10
17.3703343618
 20
23.4136477078
 11
17.1673387891
 21
23.0774160263
 12
17.3179946116
 22
23.4136477078
 13
17.3179946116
 23
23.4136477078
  0
SOLID
  8
___SYMBOL
 62
2
  6
CONTINUOUS
 10
17.3179946116
 20
23.4136477078
 11
17.1673387891
 21
23.0774160263
 12
17.3179946116
 22
23.5207508423
 13
17.3179946116
 23
23.5207508423
  0
SOLID
  8
___SYMBOL
 62
2
  6
CONTINUOUS
 10
17.5719343527
 20
23.5253801778
 11
17.3179946116
 21
23.5207508423
 12
17.5557313326
 22
23.5698915485
 13
17.5557313326
 23
23.5698915485
  0
SOLID
  8
___SYMBOL
 62
2
  6
CONTINUOUS
 10
17.5557313326
 20
23.5698915485
 11
17.3179946116
 21
23.5207508423
 12
17.5281854591
 22
23.6084275685
 13
17.5281854591
 23
23.6084275685
  0
SOLID
  8
___SYMBOL
 62
2
  6
CONTINUOUS
 10
17.5281854591
 20
23.6084275685
 11
17.3179946116
 21
23.5207508423
 12
17.4913145508
 22
23.6381653576
 13
17.4913145508
 23
23.6381653576
  0
SOLID
  8
___SYMBOL
 62
2
  6
CONTINUOUS
 10
17.4913145508
 20
23.6381653576
 11
17.3179946116
 21
23.5207508423
 12
17.4478195133
 22
23.6569265328
 13
17.4478195133
 23
23.6569265328
  0
SOLID
  8
___SYMBOL
 62
2
  6
CONTINUOUS
 10
17.4478195133
 20
23.6569265328
 11
17.3179946116
 21
23.5207508423
 12
17.1673387891
 22
23.6633296756
 13
17.1673387891
 23
23.6633296756
  0
SOLID
  8
___SYMBOL
 62
2
  6
CONTINUOUS
 10
17.1673387891
 20
23.0774160263
 11
17.1673387891
 21
23.6633296756
 12
17.3179946116
 22
23.5207508423
 13
17.3179946116
 23
23.5207508423
  0
SOLID
  8
___SYMBOL
 62
2
  6
CONTINUOUS
 10
17.3179946116
 20
23.2743723971
 11
17.3179946116
 21
23.0774160263
 12
17.1673387891
 22
23.0774160263
 13
17.1673387891
 23
23.0774160263
  0
SOLID
  8
___SYMBOL
 62
2
  6
CONTINUOUS
 10
17.3179946116
 20
23.2743723971
 11
17.4733257374
 21
23.3289985675
 12
17.4428180408
 22
23.0774160263
 13
17.4428180408
 23
23.0774160263
  0
SOLID
  8
___SYMBOL
 62
2
  6
CONTINUOUS
 10
17.4733257374
 20
23.3289985675
 11
17.6327689803
 21
23.0774160263
 12
17.4428180408
 22
23.0774160263
 13
17.4428180408
 23
23.0774160263
  0
CIRCLE
  8
___SYMBOL
 62
2
  6
CONTINUOUS
 10
17.773538955
 20
23.0774160263
 40
0.0653578721
  0
LINE
  8
___SYMBOL
 62
2
  6
CONTINUOUS
 10
17.7692509317
 20
23.0768782768
 11
17.8011189445
 21
23.0445753355
  0
LINE
  8
___SYMBOL
 62
2
  6
CONTINUOUS
 10
17.7576529556
 20
23.0445753355
 11
17.7576529556
 21
23.1105415344
  0
LINE
  8
___SYMBOL
 62
2
  6
CONTINUOUS
 10
17.7576529556
 20
23.1105415344
 11
17.7819322885
 21
23.1105415344
  0
ARC
  8
___SYMBOL
 62
2
  6
CONTINUOUS
 10
17.7819322885
 20
23.0937100847
 40
0.0168314496
 50
270.0
 51
90.0
  0
LINE
  8
___SYMBOL
 62
2
  6
CONTINUOUS
 10
17.7819322885
 20
23.0768782768
 11
17.7576529556
 21
23.0768782768
  0
TEXT
  8
___SYMBOL
 62
2
  6
CONTINUOUS
 10
14.9106534884
 20
22.6705197169
  7
STANDARD
 40
0.25
  1
CUT-OUT TEMPLATE
 41
0.8
 72
0
  0
TEXT
  8
___SYMBOL
 62
2
  6
CONTINUOUS
 10
14.9106534884
 20
22.2955197169
  7
STANDARD
 40
0.25
  1
SELF-RIMMING LAVATORY
 41
0.8
 72
0
  0
TEXT
  8
___SYMBOL
 62
2
  6
CONTINUOUS
 10
14.9106534884
 20
21.9205197169
  7
STANDARD
 40
0.25
  1
PLANTILLA DE RECORTE
 41
0.8
 72
0
  0
TEXT
  8
___SYMBOL
 62
2
  6
CONTINUOUS
 10
14.9106534884
 20
21.5455197169
  7
STANDARD
 40
0.25
  1
LAVABO CON BORDE TERMINADO
 41
0.8
 72
0
  0
TEXT
  8
___SYMBOL
 62
2
  6
CONTINUOUS
 10
14.9106534884
 20
21.1705197169
  7
STANDARD
 40
0.25
  1
PLAN DE DÉCOUPE
 41
0.8
 72
0
  0
TEXT
  8
___SYMBOL
 62
2
  6
CONTINUOUS
 10
14.9106534884
 20
20.7955197169
  7
STANDARD
 40
0.25
  1
LAVABO À REBORD INTÉGRÉ
 41
0.8
 72
0
  0
TEXT
  8
___SYMBOL
 62
2
  6
CONTINUOUS
 10
15.5106534884
 20
20.4205197169
  7
STANDARD
 40
0.25
  1
2699
 41
0.8
 72
0
  0
TEXT
  8
___SYMBOL
 62
2
  6
CONTINUOUS
 10
16.3106534884
 20
20.4205197169
  7
STANDARD
 40
0.25
  1
-**-
 41
0.8
 72
0
  0
ENDBLK
  8
0
  6
BYBLOCK
 62
0
  0
BLOCK
  8
___SYMBOL
 62
2
  6
CONTINUOUS
  2
WHEN_PLOTTING_TEMPLATE_N_BL1
 70
64
 10
26.0136594906
 20
16.762325457
  0
TEXT
  8
___SYMBOL
 62
2
  6
CONTINUOUS
 10
22.7011592582
 20
17.973263042
  7
STANDARD
 40
0.156250011
  1
WHEN PLOTTING TEMPLATE FULL SIZE:
 41
0.8
 72
0
  0
TEXT
  8
___SYMBOL
 62
2
  6
CONTINUOUS
 10
22.7011592582
 20
17.7388880255
  7
STANDARD
 40
0.156250011
  1
Make sure horizontal and vertical dimensions
 41
0.8
 72
0
  0
TEXT
  8
___SYMBOL
 62
2
  6
CONTINUOUS
 10
22.7011592582
 20
17.5045130091
  7
STANDARD
 40
0.156250011
  1
match the dimensions labeled on the template.
 41
0.8
 72
0
  0
TEXT
  8
___SYMBOL
 62
2
  6
CONTINUOUS
 10
22.7011592582
 20
17.0357629762
  7
STANDARD
 40
0.156250011
  1
AL TRAZAR LA PLANTILLA A ESCALA,
 41
0.8
 72
0
  0
TEXT
  8
___SYMBOL
 62
2
  6
CONTINUOUS
 10
22.7011592582
 20
16.8013879598
  7
STANDARD
 40
0.156250011
  1
asegúrese de que las dimensiones horizontales
 41
0.8
 72
0
  0
TEXT
  8
___SYMBOL
 62
2
  6
CONTINUOUS
 10
22.7011592582
 20
16.5670129433
  7
STANDARD
 40
0.156250011
  1
y verticales concuerden con las dimensiones marcadas
 41
0.8
 72
0
  0
TEXT
  8
___SYMBOL
 62
2
  6
CONTINUOUS
 10
22.7011592582
 20
16.3326379269
  7
STANDARD
 40
0.156250011
  1
en la plantilla.
 41
0.8
 72
0
  0
TEXT
  8
___SYMBOL
 62
2
  6
CONTINUOUS
 10
22.7011592582
 20
15.863887894
  7
STANDARD
 40
0.156250011
  1
AU MOMENT DE TRACER LA DÉCOUPE À L'ÉCHELLE,
 41
0.8
 72
0
  0
TEXT
  8
___SYMBOL
 62
2
  6
CONTINUOUS
 10
22.7011592582
 20
15.6295128775
  7
STANDARD
 40
0.156250011
  1
Assurez vos que les dimensions horizotales et
 41
0.8
 72
0
  0
TEXT
  8
___SYMBOL
 62
2
  6
CONTINUOUS
 10
22.7011592582
 20
15.3951378611
  7
STANDARD
 40
0.156250011
  1
verticales correspondent avec les dimensions du plan.
 41
0.8
 72
0
  0
ENDBLK
  8
0
  6
BYBLOCK
 62
0
  0
BLOCK
  8
___SYMBOL
 62
2
  6
CONTINUOUS
  2
SCISSORS_BL0
 70
64
 10
31.163307961
 20
21.4845211605
  0
LINE
  8
___SYMBOL
 62
7
  6
CONTINUOUS
 10
31.0092585192
 20
21.5994113559
 11
30.7145756917
 21
22.0813464363
  0
LINE
  8
___SYMBOL
 62
7
  6
CONTINUOUS
 10
30.9738864725
 20
21.555142595
 11
30.7145756917
 21
22.0813464363
  0
LINE
  8
___SYMBOL
 62
7
  6
CONTINUOUS
 10
31.0676023709
 20
21.5188220038
 11
31.0487364062
 21
21.5660724194
  0
LINE
  8
___SYMBOL
 62
7
  6
CONTINUOUS
 10
31.0638938411
 20
21.5723129042
 11
31.0828896232
 21
21.5247373569
  0
LINE
  8
___SYMBOL
 62
7
  6
CONTINUOUS
 10
30.9976687376
 20
21.7369615638
 11
31.0335935349
 21
22.1870991529
  0
LINE
  8
___SYMBOL
 62
7
  6
CONTINUOUS
 10
30.9787750967
 20
21.4552395405
 11
30.9883381109
 21
21.5240740828
  0
LINE
  8
___SYMBOL
 62
7
  6
CONTINUOUS
 10
31.1259047245
 20
21.5809614973
 11
31.1072875055
 21
21.9846266325
  0
LINE
  8
___SYMBOL
 62
7
  6
CONTINUOUS
 10
31.0698173399
 20
21.649192233
 11
31.0092585192
 21
21.5994113559
  0
LINE
  8
___SYMBOL
 62
7
  6
CONTINUOUS
 10
31.1729080997
 20
21.5237815291
 11
31.1663653667
 21
21.3742621372
  0
LINE
  8
___SYMBOL
 62
7
  6
CONTINUOUS
 10
31.0757962715
 20
21.3460988372
 11
31.1015511121
 21
21.4042113252
  0
LINE
  8
___SYMBOL
 62
7
  6
CONTINUOUS
 10
30.7145756917
 20
22.0813464363
 11
31.1729080997
 21
21.5237815291
  0
LINE
  8
___SYMBOL
 62
7
  6
CONTINUOUS
 10
31.0757962715
 20
21.3460988372
 11
30.9787750967
 21
21.4552395405
  0
ARC
  8
___SYMBOL
 62
7
  6
CONTINUOUS
 10
30.7465904942
 20
21.9679911229
 40
0.3610804262
 50
2.6406360869
 51
37.3593639131
  0
ARC
  8
___SYMBOL
 62
7
  6
CONTINUOUS
 10
31.2643115147
 20
21.6713395511
 40
0.3128073492
 50
201.8059909349
 51
251.752660067
  0
CIRCLE
  8
___SYMBOL
 62
7
  6
CONTINUOUS
 10
31.066033732
 20
21.5455872564
 40
0.0268111801
  0
ARC
  8
___SYMBOL
 62
7
  6
CONTINUOUS
 10
31.3432151777
 20
21.2502609407
 40
0.0146088562
 50
205.3133793157
 51
334.0675041521
  0
ARC
  8
___SYMBOL
 62
7
  6
CONTINUOUS
 10
31.0313083326
 20
21.1287329106
 40
0.0146087357
 50
253.3109272841
 51
19.4467240969
  0
POLYLINE
  8
___SYMBOL
 62
7
  6
CONTINUOUS
 66
1
 70
0
  0
VERTEX
  8
___SYMBOL
 62
7
  6
CONTINUOUS
 10
31.3880335762
 20
21.016766955
  0
VERTEX
  8
___SYMBOL
 62
7
  6
CONTINUOUS
 10
31.3813903158
 20
21.0252556654
  0
VERTEX
  8
___SYMBOL
 62
7
  6
CONTINUOUS
 10
31.3749840681
 20
21.0339169268
  0
VERTEX
  8
___SYMBOL
 62
7
  6
CONTINUOUS
 10
31.368805276
 20
21.0427412802
  0
VERTEX
  8
___SYMBOL
 62
7
  6
CONTINUOUS
 10
31.3628443827
 20
21.0517192663
  0
VERTEX
  8
___SYMBOL
 62
7
  6
CONTINUOUS
 10
31.3570918311
 20
21.0608414261
  0
VERTEX
  8
___SYMBOL
 62
7
  6
CONTINUOUS
 10
31.3515380643
 20
21.0700983004
  0
VERTEX
  8
___SYMBOL
 62
7
  6
CONTINUOUS
 10
31.3461735253
 20
21.07948043
  0
VERTEX
  8
___SYMBOL
 62
7
  6
CONTINUOUS
 10
31.3409886571
 20
21.0889783558
  0
VERTEX
  8
___SYMBOL
 62
7
  6
CONTINUOUS
 10
31.3359739029
 20
21.0985826187
  0
VERTEX
  8
___SYMBOL
 62
7
  6
CONTINUOUS
 10
31.3311197055
 20
21.1082837596
  0
VERTEX
  8
___SYMBOL
 62
7
  6
CONTINUOUS
 10
31.326416508
 20
21.1180723192
  0
VERTEX
  8
___SYMBOL
 62
7
  6
CONTINUOUS
 10
31.3218547536
 20
21.1279388385
  0
VERTEX
  8
___SYMBOL
 62
7
  6
CONTINUOUS
 10
31.3174248852
 20
21.1378738584
  0
VERTEX
  8
___SYMBOL
 62
7
  6
CONTINUOUS
 10
31.3131173457
 20
21.1478679196
  0
VERTEX
  8
___SYMBOL
 62
7
  6
CONTINUOUS
 10
31.3089225784
 20
21.157911563
  0
VERTEX
  8
___SYMBOL
 62
7
  6
CONTINUOUS
 10
31.3048310262
 20
21.1679953296
  0
VERTEX
  8
___SYMBOL
 62
7
  6
CONTINUOUS
 10
31.3008331321
 20
21.1781097601
  0
VERTEX
  8
___SYMBOL
 62
7
  6
CONTINUOUS
 10
31.2969193392
 20
21.1882453954
  0
VERTEX
  8
___SYMBOL
 62
7
  6
CONTINUOUS
 10
31.2930800905
 20
21.1983927765
  0
VERTEX
  8
___SYMBOL
 62
7
  6
CONTINUOUS
 10
31.289305829
 20
21.208542444
  0
VERTEX
  8
___SYMBOL
 62
7
  6
CONTINUOUS
 10
31.2838332793
 20
21.2234898227
  0
VERTEX
  8
___SYMBOL
 62
7
  6
CONTINUOUS
 10
31.2784014897
 20
21.2384162239
  0
VERTEX
  8
___SYMBOL
 62
7
  6
CONTINUOUS
 10
31.2729308139
 20
21.2533162502
  0
VERTEX
  8
___SYMBOL
 62
7
  6
CONTINUOUS
 10
31.2673416056
 20
21.2681845047
  0
VERTEX
  8
___SYMBOL
 62
7
  6
CONTINUOUS
 10
31.2615542183
 20
21.28301559
  0
VERTEX
  8
___SYMBOL
 62
7
  6
CONTINUOUS
 10
31.2588038717
 20
21.2898173135
  0
VERTEX
  8
___SYMBOL
 62
7
  6
CONTINUOUS
 10
31.2559781564
 20
21.2965965358
  0
VERTEX
  8
___SYMBOL
 62
7
  6
CONTINUOUS
 10
31.253060415
 20
21.3033397507
  0
VERTEX
  8
___SYMBOL
 62
7
  6
CONTINUOUS
 10
31.2500339899
 20
21.3100334522
  0
VERTEX
  8
___SYMBOL
 62
7
  6
CONTINUOUS
 10
31.2468822236
 20
21.3166641344
  0
VERTEX
  8
___SYMBOL
 62
7
  6
CONTINUOUS
 10
31.2435884586
 20
21.3232182911
  0
VERTEX
  8
___SYMBOL
 62
7
  6
CONTINUOUS
 10
31.2401360372
 20
21.3296824163
  0
VERTEX
  8
___SYMBOL
 62
7
  6
CONTINUOUS
 10
31.2365083021
 20
21.336043004
  0
VERTEX
  8
___SYMBOL
 62
7
  6
CONTINUOUS
 10
31.2326885955
 20
21.3422865481
  0
VERTEX
  8
___SYMBOL
 62
7
  6
CONTINUOUS
 10
31.2286602601
 20
21.3483995426
  0
VERTEX
  8
___SYMBOL
 62
7
  6
CONTINUOUS
 10
31.2244066382
 20
21.3543684815
  0
VERTEX
  8
___SYMBOL
 62
7
  6
CONTINUOUS
 10
31.2199110723
 20
21.3601798587
  0
VERTEX
  8
___SYMBOL
 62
7
  6
CONTINUOUS
 10
31.2178804012
 20
21.3626393353
  0
VERTEX
  8
___SYMBOL
 62
7
  6
CONTINUOUS
 10
31.2157760893
 20
21.365031912
  0
VERTEX
  8
___SYMBOL
 62
7
  6
CONTINUOUS
 10
31.2135730219
 20
21.3673227895
  0
VERTEX
  8
___SYMBOL
 62
7
  6
CONTINUOUS
 10
31.2112460846
 20
21.3694771689
  0
VERTEX
  8
___SYMBOL
 62
7
  6
CONTINUOUS
 10
31.2087701631
 20
21.3714602508
  0
VERTEX
  8
___SYMBOL
 62
7
  6
CONTINUOUS
 10
31.2061201428
 20
21.3732372363
  0
VERTEX
  8
___SYMBOL
 62
7
  6
CONTINUOUS
 10
31.2033785497
 20
21.3747309091
  0
VERTEX
  8
___SYMBOL
 62
7
  6
CONTINUOUS
 10
31.2004794575
 20
21.3759972659
  0
VERTEX
  8
___SYMBOL
 62
7
  6
CONTINUOUS
 10
31.1974514355
 20
21.3770339911
  0
VERTEX
  8
___SYMBOL
 62
7
  6
CONTINUOUS
 10
31.1943230533
 20
21.3778387695
  0
VERTEX
  8
___SYMBOL
 62
7
  6
CONTINUOUS
 10
31.1911228803
 20
21.3784092857
  0
VERTEX
  8
___SYMBOL
 62
7
  6
CONTINUOUS
 10
31.1878794861
 20
21.3787432244
  0
VERTEX
  8
___SYMBOL
 62
7
  6
CONTINUOUS
 10
31.18462144
 20
21.3788382703
  0
VERTEX
  8
___SYMBOL
 62
7
  6
CONTINUOUS
 10
31.1813773116
 20
21.3786921081
  0
VERTEX
  8
___SYMBOL
 62
7
  6
CONTINUOUS
 10
31.1781756704
 20
21.3783024223
  0
VERTEX
  8
___SYMBOL
 62
7
  6
CONTINUOUS
 10
31.1750450859
 20
21.3776668976
  0
VERTEX
  8
___SYMBOL
 62
7
  6
CONTINUOUS
 10
31.1720141274
 20
21.3767832188
  0
VERTEX
  8
___SYMBOL
 62
7
  6
CONTINUOUS
 10
31.1691113645
 20
21.3756490704
  0
VERTEX
  8
___SYMBOL
 62
7
  6
CONTINUOUS
 10
31.1663653667
 20
21.3742621372
  0
SEQEND
  0
POLYLINE
  8
___SYMBOL
 62
7
  6
CONTINUOUS
 66
1
 70
0
  0
VERTEX
  8
___SYMBOL
 62
7
  6
CONTINUOUS
 10
31.330009024
 20
21.2440146472
  0
VERTEX
  8
___SYMBOL
 62
7
  6
CONTINUOUS
 10
31.3268030472
 20
21.2510017997
  0
VERTEX
  8
___SYMBOL
 62
7
  6
CONTINUOUS
 10
31.3237528291
 20
21.2580525757
  0
VERTEX
  8
___SYMBOL
 62
7
  6
CONTINUOUS
 10
31.320464623
 20
21.2661201126
  0
VERTEX
  8
___SYMBOL
 62
7
  6
CONTINUOUS
 10
31.3173476902
 20
21.2742381531
  0
VERTEX
  8
___SYMBOL
 62
7
  6
CONTINUOUS
 10
31.3143788416
 20
21.2824087926
  0
VERTEX
  8
___SYMBOL
 62
7
  6
CONTINUOUS
 10
31.311534888
 20
21.2906341266
  0
VERTEX
  8
___SYMBOL
 62
7
  6
CONTINUOUS
 10
31.3087926401
 20
21.2989162506
  0
VERTEX
  8
___SYMBOL
 62
7
  6
CONTINUOUS
 10
31.3061289087
 20
21.30725726
  0
VERTEX
  8
___SYMBOL
 62
7
  6
CONTINUOUS
 10
31.3035205045
 20
21.3156592503
  0
VERTEX
  8
___SYMBOL
 62
7
  6
CONTINUOUS
 10
31.3009442385
 20
21.3241243169
  0
VERTEX
  8
___SYMBOL
 62
7
  6
CONTINUOUS
 10
31.2993250136
 20
21.3294937635
  0
VERTEX
  8
___SYMBOL
 62
7
  6
CONTINUOUS
 10
31.2976987043
 20
21.3348797406
  0
VERTEX
  8
___SYMBOL
 62
7
  6
CONTINUOUS
 10
31.2960546681
 20
21.3402728659
  0
VERTEX
  8
___SYMBOL
 62
7
  6
CONTINUOUS
 10
31.2943822627
 20
21.3456637574
  0
VERTEX
  8
___SYMBOL
 62
7
  6
CONTINUOUS
 10
31.2926708454
 20
21.3510430328
  0
VERTEX
  8
___SYMBOL
 62
7
  6
CONTINUOUS
 10
31.2909097739
 20
21.35640131
  0
VERTEX
  8
___SYMBOL
 62
7
  6
CONTINUOUS
 10
31.2890884056
 20
21.3617292067
  0
VERTEX
  8
___SYMBOL
 62
7
  6
CONTINUOUS
 10
31.2871960981
 20
21.3670173409
  0
VERTEX
  8
___SYMBOL
 62
7
  6
CONTINUOUS
 10
31.2852222089
 20
21.3722563303
  0
VERTEX
  8
___SYMBOL
 62
7
  6
CONTINUOUS
 10
31.2831560955
 20
21.3774367927
  0
VERTEX
  8
___SYMBOL
 62
7
  6
CONTINUOUS
 10
31.2809871154
 20
21.3825493461
  0
VERTEX
  8
___SYMBOL
 62
7
  6
CONTINUOUS
 10
31.2787046263
 20
21.3875846081
  0
VERTEX
  8
___SYMBOL
 62
7
  6
CONTINUOUS
 10
31.2762979855
 20
21.3925331967
  0
VERTEX
  8
___SYMBOL
 62
7
  6
CONTINUOUS
 10
31.2737565506
 20
21.3973857296
  0
VERTEX
  8
___SYMBOL
 62
7
  6
CONTINUOUS
 10
31.2710696792
 20
21.4021328247
  0
VERTEX
  8
___SYMBOL
 62
7
  6
CONTINUOUS
 10
31.2682267287
 20
21.4067650998
  0
VERTEX
  8
___SYMBOL
 62
7
  6
CONTINUOUS
 10
31.2652170567
 20
21.4112731727
  0
VERTEX
  8
___SYMBOL
 62
7
  6
CONTINUOUS
 10
31.2620300208
 20
21.4156476613
  0
VERTEX
  8
___SYMBOL
 62
7
  6
CONTINUOUS
 10
31.2586549783
 20
21.4198791834
  0
VERTEX
  8
___SYMBOL
 62
7
  6
CONTINUOUS
 10
31.2553185386
 20
21.4237073464
  0
VERTEX
  8
___SYMBOL
 62
7
  6
CONTINUOUS
 10
31.251824133
 20
21.4274143373
  0
VERTEX
  8
___SYMBOL
 62
7
  6
CONTINUOUS
 10
31.2481880129
 20
21.4310125953
  0
VERTEX
  8
___SYMBOL
 62
7
  6
CONTINUOUS
 10
31.2444264294
 20
21.4345145594
  0
VERTEX
  8
___SYMBOL
 62
7
  6
CONTINUOUS
 10
31.2405556335
 20
21.4379326688
  0
VERTEX
  8
___SYMBOL
 62
7
  6
CONTINUOUS
 10
31.2365918764
 20
21.4412793626
  0
VERTEX
  8
___SYMBOL
 62
7
  6
CONTINUOUS
 10
31.2325514092
 20
21.4445670798
  0
VERTEX
  8
___SYMBOL
 62
7
  6
CONTINUOUS
 10
31.2284504831
 20
21.4478082595
  0
VERTEX
  8
___SYMBOL
 62
7
  6
CONTINUOUS
 10
31.2243053492
 20
21.451015341
  0
VERTEX
  8
___SYMBOL
 62
7
  6
CONTINUOUS
 10
31.2201322587
 20
21.4542007631
  0
VERTEX
  8
___SYMBOL
 62
7
  6
CONTINUOUS
 10
31.2171298565
 20
21.4564839353
  0
VERTEX
  8
___SYMBOL
 62
7
  6
CONTINUOUS
 10
31.2141426879
 20
21.4587793491
  0
VERTEX
  8
___SYMBOL
 62
7
  6
CONTINUOUS
 10
31.2111920231
 20
21.4611040007
  0
VERTEX
  8
___SYMBOL
 62
7
  6
CONTINUOUS
 10
31.2082991321
 20
21.4634748866
  0
VERTEX
  8
___SYMBOL
 62
7
  6
CONTINUOUS
 10
31.2054852852
 20
21.4659090032
  0
VERTEX
  8
___SYMBOL
 62
7
  6
CONTINUOUS
 10
31.2027717524
 20
21.4684233467
  0
VERTEX
  8
___SYMBOL
 62
7
  6
CONTINUOUS
 10
31.2001798038
 20
21.4710349136
  0
VERTEX
  8
___SYMBOL
 62
7
  6
CONTINUOUS
 10
31.1977307097
 20
21.4737607002
  0
VERTEX
  8
___SYMBOL
 62
7
  6
CONTINUOUS
 10
31.19544574
 20
21.4766177028
  0
VERTEX
  8
___SYMBOL
 62
7
  6
CONTINUOUS
 10
31.1934658273
 20
21.4794252572
  0
VERTEX
  8
___SYMBOL
 62
7
  6
CONTINUOUS
 10
31.1916317677
 20
21.4823464236
  0
VERTEX
  8
___SYMBOL
 62
7
  6
CONTINUOUS
 10
31.1899264771
 20
21.485364555
  0
VERTEX
  8
___SYMBOL
 62
7
  6
CONTINUOUS
 10
31.1883328712
 20
21.4884630041
  0
VERTEX
  8
___SYMBOL
 62
7
  6
CONTINUOUS
 10
31.1868338656
 20
21.4916251238
  0
VERTEX
  8
___SYMBOL
 62
7
  6
CONTINUOUS
 10
31.1854123762
 20
21.4948342671
  0
VERTEX
  8
___SYMBOL
 62
7
  6
CONTINUOUS
 10
31.1840513188
 20
21.4980737868
  0
VERTEX
  8
___SYMBOL
 62
7
  6
CONTINUOUS
 10
31.1827336089
 20
21.5013270357
  0
VERTEX
  8
___SYMBOL
 62
7
  6
CONTINUOUS
 10
31.1812148557
 20
21.5051505832
  0
VERTEX
  8
___SYMBOL
 62
7
  6
CONTINUOUS
 10
31.179696489
 20
21.5089579162
  0
VERTEX
  8
___SYMBOL
 62
7
  6
CONTINUOUS
 10
31.1781425694
 20
21.512736856
  0
VERTEX
  8
___SYMBOL
 62
7
  6
CONTINUOUS
 10
31.1765171576
 20
21.5164752239
  0
VERTEX
  8
___SYMBOL
 62
7
  6
CONTINUOUS
 10
31.1747843142
 20
21.5201608411
  0
VERTEX
  8
___SYMBOL
 62
7
  6
CONTINUOUS
 10
31.1729080997
 20
21.5237815291
  0
SEQEND
  0
POLYLINE
  8
___SYMBOL
 62
7
  6
CONTINUOUS
 66
1
 70
0
  0
VERTEX
  8
___SYMBOL
 62
7
  6
CONTINUOUS
 10
31.1498197675
 20
20.971201696
  0
VERTEX
  8
___SYMBOL
 62
7
  6
CONTINUOUS
 10
31.1487917811
 20
20.9798647834
  0
VERTEX
  8
___SYMBOL
 62
7
  6
CONTINUOUS
 10
31.1475180048
 20
20.9884905227
  0
VERTEX
  8
___SYMBOL
 62
7
  6
CONTINUOUS
 10
31.1460129027
 20
20.997079446
  0
VERTEX
  8
___SYMBOL
 62
7
  6
CONTINUOUS
 10
31.1442909387
 20
21.0056320855
  0
VERTEX
  8
___SYMBOL
 62
7
  6
CONTINUOUS
 10
31.1423665766
 20
21.0141489733
  0
VERTEX
  8
___SYMBOL
 62
7
  6
CONTINUOUS
 10
31.1402542804
 20
21.0226306414
  0
VERTEX
  8
___SYMBOL
 62
7
  6
CONTINUOUS
 10
31.1379685139
 20
21.0310776221
  0
VERTEX
  8
___SYMBOL
 62
7
  6
CONTINUOUS
 10
31.1355237412
 20
21.0394904475
  0
VERTEX
  8
___SYMBOL
 62
7
  6
CONTINUOUS
 10
31.132934426
 20
21.0478696495
  0
VERTEX
  8
___SYMBOL
 62
7
  6
CONTINUOUS
 10
31.1302150323
 20
21.0562157604
  0
VERTEX
  8
___SYMBOL
 62
7
  6
CONTINUOUS
 10
31.127380024
 20
21.0645293124
  0
VERTEX
  8
___SYMBOL
 62
7
  6
CONTINUOUS
 10
31.1244438651
 20
21.0728108374
  0
VERTEX
  8
___SYMBOL
 62
7
  6
CONTINUOUS
 10
31.1214210193
 20
21.0810608676
  0
VERTEX
  8
___SYMBOL
 62
7
  6
CONTINUOUS
 10
31.1171327594
 20
21.092401594
  0
VERTEX
  8
___SYMBOL
 62
7
  6
CONTINUOUS
 10
31.1127488067
 20
21.1036953169
  0
VERTEX
  8
___SYMBOL
 62
7
  6
CONTINUOUS
 10
31.1083111228
 20
21.1149540467
  0
VERTEX
  8
___SYMBOL
 62
7
  6
CONTINUOUS
 10
31.1038616693
 20
21.1261897939
  0
VERTEX
  8
___SYMBOL
 62
7
  6
CONTINUOUS
 10
31.0994424078
 20
21.1374145687
  0
VERTEX
  8
___SYMBOL
 62
7
  6
CONTINUOUS
 10
31.0950953001
 20
21.1486403816
  0
VERTEX
  8
___SYMBOL
 62
7
  6
CONTINUOUS
 10
31.0908623077
 20
21.1598792429
  0
VERTEX
  8
___SYMBOL
 62
7
  6
CONTINUOUS
 10
31.0867853923
 20
21.1711431631
  0
VERTEX
  8
___SYMBOL
 62
7
  6
CONTINUOUS
 10
31.0829065155
 20
21.1824441525
  0
VERTEX
  8
___SYMBOL
 62
7
  6
CONTINUOUS
 10
31.078921503
 20
21.1948559029
  0
VERTEX
  8
___SYMBOL
 62
7
  6
CONTINUOUS
 10
31.0751553878
 20
21.2073427634
  0
VERTEX
  8
___SYMBOL
 62
7
  6
CONTINUOUS
 10
31.0715402095
 20
21.2199211822
  0
VERTEX
  8
___SYMBOL
 62
7
  6
CONTINUOUS
 10
31.0680080073
 20
21.2326076075
  0
VERTEX
  8
___SYMBOL
 62
7
  6
CONTINUOUS
 10
31.0644908207
 20
21.2454184873
  0
VERTEX
  8
___SYMBOL
 62
7
  6
CONTINUOUS
 10
31.0609206892
 20
21.25837027
  0
VERTEX
  8
___SYMBOL
 62
7
  6
CONTINUOUS
 10
31.0598324737
 20
21.2622875176
  0
VERTEX
  8
___SYMBOL
 62
7
  6
CONTINUOUS
 10
31.0587551787
 20
21.2662164647
  0
VERTEX
  8
___SYMBOL
 62
7
  6
CONTINUOUS
 10
31.0577106188
 20
21.2701546326
  0
VERTEX
  8
___SYMBOL
 62
7
  6
CONTINUOUS
 10
31.0567206085
 20
21.2740995429
  0
VERTEX
  8
___SYMBOL
 62
7
  6
CONTINUOUS
 10
31.0558069626
 20
21.2780487169
  0
VERTEX
  8
___SYMBOL
 62
7
  6
CONTINUOUS
 10
31.0549914955
 20
21.2819996762
  0
VERTEX
  8
___SYMBOL
 62
7
  6
CONTINUOUS
 10
31.0542960218
 20
21.2859499422
  0
VERTEX
  8
___SYMBOL
 62
7
  6
CONTINUOUS
 10
31.0537423562
 20
21.2898970364
  0
VERTEX
  8
___SYMBOL
 62
7
  6
CONTINUOUS
 10
31.0533523131
 20
21.2938384802
  0
VERTEX
  8
___SYMBOL
 62
7
  6
CONTINUOUS
 10
31.0531477073
 20
21.2977717952
  0
VERTEX
  8
___SYMBOL
 62
7
  6
CONTINUOUS
 10
31.0531503532
 20
21.3016945026
  0
VERTEX
  8
___SYMBOL
 62
7
  6
CONTINUOUS
 10
31.0533820654
 20
21.3056041241
  0
VERTEX
  8
___SYMBOL
 62
7
  6
CONTINUOUS
 10
31.0538646587
 20
21.3094981811
  0
VERTEX
  8
___SYMBOL
 62
7
  6
CONTINUOUS
 10
31.0546199474
 20
21.313374195
  0
VERTEX
  8
___SYMBOL
 62
7
  6
CONTINUOUS
 10
31.0555421646
 20
21.3168269863
  0
VERTEX
  8
___SYMBOL
 62
7
  6
CONTINUOUS
 10
31.0566918797
 20
21.3202435285
  0
VERTEX
  8
___SYMBOL
 62
7
  6
CONTINUOUS
 10
31.0580601202
 20
21.3236040495
  0
VERTEX
  8
___SYMBOL
 62
7
  6
CONTINUOUS
 10
31.0596379137
 20
21.3268887777
  0
VERTEX
  8
___SYMBOL
 62
7
  6
CONTINUOUS
 10
31.0614162879
 20
21.3300779411
  0
VERTEX
  8
___SYMBOL
 62
7
  6
CONTINUOUS
 10
31.0633862703
 20
21.3331517678
  0
VERTEX
  8
___SYMBOL
 62
7
  6
CONTINUOUS
 10
31.0655388885
 20
21.3360904861
  0
VERTEX
  8
___SYMBOL
 62
7
  6
CONTINUOUS
 10
31.0678651702
 20
21.338874324
  0
VERTEX
  8
___SYMBOL
 62
7
  6
CONTINUOUS
 10
31.0703561428
 20
21.3414835097
  0
VERTEX
  8
___SYMBOL
 62
7
  6
CONTINUOUS
 10
31.0730028341
 20
21.3438982714
  0
VERTEX
  8
___SYMBOL
 62
7
  6
CONTINUOUS
 10
31.0757962715
 20
21.3460988372
  0
SEQEND
  0
POLYLINE
  8
___SYMBOL
 62
7
  6
CONTINUOUS
 66
1
 70
0
  0
VERTEX
  8
___SYMBOL
 62
7
  6
CONTINUOUS
 10
31.0450836614
 20
21.1335966
  0
VERTEX
  8
___SYMBOL
 62
7
  6
CONTINUOUS
 10
31.0400041655
 20
21.1476682102
  0
VERTEX
  8
___SYMBOL
 62
7
  6
CONTINUOUS
 10
31.0347744741
 20
21.1616975104
  0
VERTEX
  8
___SYMBOL
 62
7
  6
CONTINUOUS
 10
31.0309286104
 20
21.1718673768
  0
VERTEX
  8
___SYMBOL
 62
7
  6
CONTINUOUS
 10
31.0270672083
 20
21.1820478846
  0
VERTEX
  8
___SYMBOL
 62
7
  6
CONTINUOUS
 10
31.0232193823
 20
21.1922410608
  0
VERTEX
  8
___SYMBOL
 62
7
  6
CONTINUOUS
 10
31.0194142473
 20
21.202448932
  0
VERTEX
  8
___SYMBOL
 62
7
  6
CONTINUOUS
 10
31.0156809182
 20
21.2126735252
  0
VERTEX
  8
___SYMBOL
 62
7
  6
CONTINUOUS
 10
31.0120485095
 20
21.2229168671
  0
VERTEX
  8
___SYMBOL
 62
7
  6
CONTINUOUS
 10
31.0085461363
 20
21.2331809845
  0
VERTEX
  8
___SYMBOL
 62
7
  6
CONTINUOUS
 10
31.0052029131
 20
21.2434679043
  0
VERTEX
  8
___SYMBOL
 62
7
  6
CONTINUOUS
 10
31.0020479549
 20
21.2537796533
  0
VERTEX
  8
___SYMBOL
 62
7
  6
CONTINUOUS
 10
30.9991103763
 20
21.2641182582
  0
VERTEX
  8
___SYMBOL
 62
7
  6
CONTINUOUS
 10
30.9975486173
 20
21.2700130827
  0
VERTEX
  8
___SYMBOL
 62
7
  6
CONTINUOUS
 10
30.9960788987
 20
21.2759234648
  0
VERTEX
  8
___SYMBOL
 62
7
  6
CONTINUOUS
 10
30.9947134986
 20
21.2818556163
  0
VERTEX
  8
___SYMBOL
 62
7
  6
CONTINUOUS
 10
30.9934646947
 20
21.2878157487
  0
VERTEX
  8
___SYMBOL
 62
7
  6
CONTINUOUS
 10
30.9923447649
 20
21.2938100735
  0
VERTEX
  8
___SYMBOL
 62
7
  6
CONTINUOUS
 10
30.9913659871
 20
21.2998448024
  0
VERTEX
  8
___SYMBOL
 62
7
  6
CONTINUOUS
 10
30.9905406393
 20
21.3059261469
  0
VERTEX
  8
___SYMBOL
 62
7
  6
CONTINUOUS
 10
30.9898809992
 20
21.3120603187
  0
VERTEX
  8
___SYMBOL
 62
7
  6
CONTINUOUS
 10
30.9893993448
 20
21.3182535293
  0
VERTEX
  8
___SYMBOL
 62
7
  6
CONTINUOUS
 10
30.989107954
 20
21.3245119903
  0
VERTEX
  8
___SYMBOL
 62
7
  6
CONTINUOUS
 10
30.9890191045
 20
21.3308419134
  0
VERTEX
  8
___SYMBOL
 62
7
  6
CONTINUOUS
 10
30.9891450744
 20
21.33724951
  0
VERTEX
  8
___SYMBOL
 62
7
  6
CONTINUOUS
 10
30.9894981415
 20
21.3437409918
  0
VERTEX
  8
___SYMBOL
 62
7
  6
CONTINUOUS
 10
30.9897806208
 20
21.3472293785
  0
VERTEX
  8
___SYMBOL
 62
7
  6
CONTINUOUS
 10
30.9901202492
 20
21.3507389955
  0
VERTEX
  8
___SYMBOL
 62
7
  6
CONTINUOUS
 10
30.9905064475
 20
21.3542655815
  0
VERTEX
  8
___SYMBOL
 62
7
  6
CONTINUOUS
 10
30.9909286367
 20
21.3578048751
  0
VERTEX
  8
___SYMBOL
 62
7
  6
CONTINUOUS
 10
30.9913762377
 20
21.3613526148
  0
VERTEX
  8
___SYMBOL
 62
7
  6
CONTINUOUS
 10
30.9918386712
 20
21.3649045393
  0
VERTEX
  8
___SYMBOL
 62
7
  6
CONTINUOUS
 10
30.9923053583
 20
21.3684563872
  0
VERTEX
  8
___SYMBOL
 62
7
  6
CONTINUOUS
 10
30.9927657199
 20
21.3720038971
  0
VERTEX
  8
___SYMBOL
 62
7
  6
CONTINUOUS
 10
30.9932091768
 20
21.3755428076
  0
VERTEX
  8
___SYMBOL
 62
7
  6
CONTINUOUS
 10
30.9936251499
 20
21.3790688573
  0
VERTEX
  8
___SYMBOL
 62
7
  6
CONTINUOUS
 10
30.9940030602
 20
21.3825777848
  0
VERTEX
  8
___SYMBOL
 62
7
  6
CONTINUOUS
 10
30.9943323285
 20
21.3860653287
  0
VERTEX
  8
___SYMBOL
 62
7
  6
CONTINUOUS
 10
30.9946023758
 20
21.3895272277
  0
VERTEX
  8
___SYMBOL
 62
7
  6
CONTINUOUS
 10
30.9948026229
 20
21.3929592203
  0
VERTEX
  8
___SYMBOL
 62
7
  6
CONTINUOUS
 10
30.9949224907
 20
21.3963570451
  0
VERTEX
  8
___SYMBOL
 62
7
  6
CONTINUOUS
 10
30.9949514001
 20
21.3997164408
  0
VERTEX
  8
___SYMBOL
 62
7
  6
CONTINUOUS
 10
30.9948787721
 20
21.4030331459
  0
VERTEX
  8
___SYMBOL
 62
7
  6
CONTINUOUS
 10
30.9946940276
 20
21.4063028991
  0
VERTEX
  8
___SYMBOL
 62
7
  6
CONTINUOUS
 10
30.9943865873
 20
21.409521439
  0
VERTEX
  8
___SYMBOL
 62
7
  6
CONTINUOUS
 10
30.9939458723
 20
21.4126845041
  0
VERTEX
  8
___SYMBOL
 62
7
  6
CONTINUOUS
 10
30.9933613035
 20
21.4157878332
  0
VERTEX
  8
___SYMBOL
 62
7
  6
CONTINUOUS
 10
30.9926223016
 20
21.4188271647
  0
VERTEX
  8
___SYMBOL
 62
7
  6
CONTINUOUS
 10
30.9917182877
 20
21.4217982373
  0
VERTEX
  8
___SYMBOL
 62
7
  6
CONTINUOUS
 10
30.9906386826
 20
21.4246967897
  0
VERTEX
  8
___SYMBOL
 62
7
  6
CONTINUOUS
 10
30.9893729073
 20
21.4275185603
  0
VERTEX
  8
___SYMBOL
 62
7
  6
CONTINUOUS
 10
30.9879103826
 20
21.4302592879
  0
VERTEX
  8
___SYMBOL
 62
7
  6
CONTINUOUS
 10
30.9862405294
 20
21.4329147109
  0
VERTEX
  8
___SYMBOL
 62
7
  6
CONTINUOUS
 10
30.9843527686
 20
21.4354805682
  0
VERTEX
  8
___SYMBOL
 62
7
  6
CONTINUOUS
 10
30.9833670698
 20
21.4366897869
  0
VERTEX
  8
___SYMBOL
 62
7
  6
CONTINUOUS
 10
30.9823646227
 20
21.4379031738
  0
VERTEX
  8
___SYMBOL
 62
7
  6
CONTINUOUS
 10
30.981381879
 20
21.4391467431
  0
VERTEX
  8
___SYMBOL
 62
7
  6
CONTINUOUS
 10
30.9804552898
 20
21.4404465091
  0
VERTEX
  8
___SYMBOL
 62
7
  6
CONTINUOUS
 10
30.9796213067
 20
21.4418284861
  0
VERTEX
  8
___SYMBOL
 62
7
  6
CONTINUOUS
 10
30.978948903
 20
21.4432230246
  0
VERTEX
  8
___SYMBOL
 62
7
  6
CONTINUOUS
 10
30.9784002007
 20
21.4446920888
  0
VERTEX
  8
___SYMBOL
 62
7
  6
CONTINUOUS
 10
30.9779841542
 20
21.4462139797
  0
VERTEX
  8
___SYMBOL
 62
7
  6
CONTINUOUS
 10
30.977709718
 20
21.4477669984
  0
VERTEX
  8
___SYMBOL
 62
7
  6
CONTINUOUS
 10
30.9775858465
 20
21.4493294457
  0
VERTEX
  8
___SYMBOL
 62
7
  6
CONTINUOUS
 10
30.9776214941
 20
21.4508796226
  0
VERTEX
  8
___SYMBOL
 62
7
  6
CONTINUOUS
 10
30.9778256154
 20
21.45239583
  0
VERTEX
  8
___SYMBOL
 62
7
  6
CONTINUOUS
 10
30.9782071648
 20
21.453856369
  0
VERTEX
  8
___SYMBOL
 62
7
  6
CONTINUOUS
 10
30.9787750967
 20
21.4552395405
  0
SEQEND
  0
POLYLINE
  8
___SYMBOL
 62
7
  6
CONTINUOUS
 66
1
 70
0
  0
VERTEX
  8
___SYMBOL
 62
7
  6
CONTINUOUS
 10
31.5238479993
 20
21.0111349961
  0
VERTEX
  8
___SYMBOL
 62
7
  6
CONTINUOUS
 10
31.5421824814
 20
21.0221589916
  0
VERTEX
  8
___SYMBOL
 62
7
  6
CONTINUOUS
 10
31.5575013876
 20
21.038633934
  0
VERTEX
  8
___SYMBOL
 62
7
  6
CONTINUOUS
 10
31.5684627673
 20
21.0591163844
  0
VERTEX
  8
___SYMBOL
 62
7
  6
CONTINUOUS
 10
31.574932355
 20
21.0833562693
  0
VERTEX
  8
___SYMBOL
 62
7
  6
CONTINUOUS
 10
31.5763436145
 20
21.1092294244
  0
VERTEX
  8
___SYMBOL
 62
7
  6
CONTINUOUS
 10
31.5726789407
 20
21.1364200012
  0
VERTEX
  8
___SYMBOL
 62
7
  6
CONTINUOUS
 10
31.5642597625
 20
21.1625453838
  0
VERTEX
  8
___SYMBOL
 62
7
  6
CONTINUOUS
 10
31.5514790901
 20
21.1868368024
  0
VERTEX
  8
___SYMBOL
 62
7
  6
CONTINUOUS
 10
31.5346113442
 20
21.2084754971
  0
VERTEX
  8
___SYMBOL
 62
7
  6
CONTINUOUS
 10
31.5151345066
 20
21.2255655886
  0
VERTEX
  8
___SYMBOL
 62
7
  6
CONTINUOUS
 10
31.4932865255
 20
21.23789802
  0
VERTEX
  8
___SYMBOL
 62
7
  6
CONTINUOUS
 10
31.4709816728
 20
21.2443923237
  0
VERTEX
  8
___SYMBOL
 62
7
  6
CONTINUOUS
 10
31.4484924269
 20
21.2449693077
  0
VERTEX
  8
___SYMBOL
 62
7
  6
CONTINUOUS
 10
31.4277894576
 20
21.2395782829
  0
VERTEX
  8
___SYMBOL
 62
7
  6
CONTINUOUS
 10
31.4094550452
 20
21.2285544369
  0
VERTEX
  8
___SYMBOL
 62
7
  6
CONTINUOUS
 10
31.3941360294
 20
21.2120794546
  0
VERTEX
  8
___SYMBOL
 62
7
  6
CONTINUOUS
 10
31.3831747992
 20
21.1915969344
  0
VERTEX
  8
___SYMBOL
 62
7
  6
CONTINUOUS
 10
31.3767051018
 20
21.1673570096
  0
VERTEX
  8
___SYMBOL
 62
7
  6
CONTINUOUS
 10
31.375293952
 20
21.1414838945
  0
VERTEX
  8
___SYMBOL
 62
7
  6
CONTINUOUS
 10
31.3789585161
 20
21.1142932778
  0
VERTEX
  8
___SYMBOL
 62
7
  6
CONTINUOUS
 10
31.3873776943
 20
21.0881678952
  0
VERTEX
  8
___SYMBOL
 62
7
  6
CONTINUOUS
 10
31.4001583667
 20
21.0638764766
  0
VERTEX
  8
___SYMBOL
 62
7
  6
CONTINUOUS
 10
31.4170261127
 20
21.0422377819
  0
VERTEX
  8
___SYMBOL
 62
7
  6
CONTINUOUS
 10
31.4365030598
 20
21.0251477302
  0
VERTEX
  8
___SYMBOL
 62
7
  6
CONTINUOUS
 10
31.4583510409
 20
21.0128152989
  0
VERTEX
  8
___SYMBOL
 62
7
  6
CONTINUOUS
 10
31.4806558937
 20
21.0063209952
  0
VERTEX
  8
___SYMBOL
 62
7
  6
CONTINUOUS
 10
31.5031449901
 20
21.0057440809
  0
VERTEX
  8
___SYMBOL
 62
7
  6
CONTINUOUS
 10
31.5238479993
 20
21.0111349961
  0
SEQEND
  0
POLYLINE
  8
___SYMBOL
 62
7
  6
CONTINUOUS
 66
1
 70
0
  0
VERTEX
  8
___SYMBOL
 62
7
  6
CONTINUOUS
 10
31.3880335762
 20
21.016766955
  0
VERTEX
  8
___SYMBOL
 62
7
  6
CONTINUOUS
 10
31.3940512528
 20
21.0088843001
  0
VERTEX
  8
___SYMBOL
 62
7
  6
CONTINUOUS
 10
31.400329428
 20
21.0013727083
  0
VERTEX
  8
___SYMBOL
 62
7
  6
CONTINUOUS
 10
31.4068481007
 20
20.9942561103
  0
VERTEX
  8
___SYMBOL
 62
7
  6
CONTINUOUS
 10
31.4135865032
 20
20.9875571785
  0
VERTEX
  8
___SYMBOL
 62
7
  6
CONTINUOUS
 10
31.4205231682
 20
20.9812972546
  0
VERTEX
  8
___SYMBOL
 62
7
  6
CONTINUOUS
 10
31.4276359964
 20
20.9754962819
  0
VERTEX
  8
___SYMBOL
 62
7
  6
CONTINUOUS
 10
31.4349023274
 20
20.9701727414
  0
VERTEX
  8
___SYMBOL
 62
7
  6
CONTINUOUS
 10
31.4422990119
 20
20.9653435929
  0
VERTEX
  8
___SYMBOL
 62
7
  6
CONTINUOUS
 10
31.4498024851
 20
20.9610242215
  0
VERTEX
  8
___SYMBOL
 62
7
  6
CONTINUOUS
 10
31.4573888421
 20
20.957228388
  0
VERTEX
  8
___SYMBOL
 62
7
  6
CONTINUOUS
 10
31.465033914
 20
20.9539681853
  0
VERTEX
  8
___SYMBOL
 62
7
  6
CONTINUOUS
 10
31.4727133448
 20
20.951254
  0
VERTEX
  8
___SYMBOL
 62
7
  6
CONTINUOUS
 10
31.4804026688
 20
20.949094479
  0
VERTEX
  8
___SYMBOL
 62
7
  6
CONTINUOUS
 10
31.4880773892
 20
20.9474965022
  0
VERTEX
  8
___SYMBOL
 62
7
  6
CONTINUOUS
 10
31.4957130554
 20
20.9464651606
  0
VERTEX
  8
___SYMBOL
 62
7
  6
CONTINUOUS
 10
31.5032853415
 20
20.9460037398
  0
VERTEX
  8
___SYMBOL
 62
7
  6
CONTINUOUS
 10
31.5107701232
 20
20.9461137099
  0
VERTEX
  8
___SYMBOL
 62
7
  6
CONTINUOUS
 10
31.5181435551
 20
20.9467947204
  0
VERTEX
  8
___SYMBOL
 62
7
  6
CONTINUOUS
 10
31.5253821468
 20
20.9480446019
  0
VERTEX
  8
___SYMBOL
 62
7
  6
CONTINUOUS
 10
31.532462837
 20
20.9498593723
  0
VERTEX
  8
___SYMBOL
 62
7
  6
CONTINUOUS
 10
31.5393630679
 20
20.9522332502
  0
VERTEX
  8
___SYMBOL
 62
7
  6
CONTINUOUS
 10
31.5460608563
 20
20.9551586726
  0
VERTEX
  8
___SYMBOL
 62
7
  6
CONTINUOUS
 10
31.5525348641
 20
20.9586263197
  0
VERTEX
  8
___SYMBOL
 62
7
  6
CONTINUOUS
 10
31.5587644662
 20
20.962625144
  0
VERTEX
  8
___SYMBOL
 62
7
  6
CONTINUOUS
 10
31.5647298159
 20
20.9671424059
  0
VERTEX
  8
___SYMBOL
 62
7
  6
CONTINUOUS
 10
31.5704119086
 20
20.9721637142
  0
VERTEX
  8
___SYMBOL
 62
7
  6
CONTINUOUS
 10
31.575792642
 20
20.9776730716
  0
VERTEX
  8
___SYMBOL
 62
7
  6
CONTINUOUS
 10
31.5808548739
 20
20.9836529262
  0
VERTEX
  8
___SYMBOL
 62
7
  6
CONTINUOUS
 10
31.5855824768
 20
20.9900842271
  0
VERTEX
  8
___SYMBOL
 62
7
  6
CONTINUOUS
 10
31.5899603894
 20
20.9969464853
  0
VERTEX
  8
___SYMBOL
 62
7
  6
CONTINUOUS
 10
31.5939746642
 20
21.0042178385
  0
VERTEX
  8
___SYMBOL
 62
7
  6
CONTINUOUS
 10
31.5976125123
 20
21.0118751213
  0
VERTEX
  8
___SYMBOL
 62
7
  6
CONTINUOUS
 10
31.6008623442
 20
21.0198939389
  0
VERTEX
  8
___SYMBOL
 62
7
  6
CONTINUOUS
 10
31.6037138064
 20
21.0282487445
  0
VERTEX
  8
___SYMBOL
 62
7
  6
CONTINUOUS
 10
31.6061578146
 20
21.036912921
  0
VERTEX
  8
___SYMBOL
 62
7
  6
CONTINUOUS
 10
31.6081865825
 20
21.0458588657
  0
VERTEX
  8
___SYMBOL
 62
7
  6
CONTINUOUS
 10
31.6097936468
 20
21.0550580781
  0
VERTEX
  8
___SYMBOL
 62
7
  6
CONTINUOUS
 10
31.6109738876
 20
21.0644812509
  0
VERTEX
  8
___SYMBOL
 62
7
  6
CONTINUOUS
 10
31.6117235449
 20
21.0740983634
  0
VERTEX
  8
___SYMBOL
 62
7
  6
CONTINUOUS
 10
31.6120402303
 20
21.083878777
  0
VERTEX
  8
___SYMBOL
 62
7
  6
CONTINUOUS
 10
31.611922935
 20
21.0937913327
  0
VERTEX
  8
___SYMBOL
 62
7
  6
CONTINUOUS
 10
31.6113720326
 20
21.1038044506
  0
VERTEX
  8
___SYMBOL
 62
7
  6
CONTINUOUS
 10
31.6103892783
 20
21.1138862305
  0
VERTEX
  8
___SYMBOL
 62
7
  6
CONTINUOUS
 10
31.6089778029
 20
21.1240045534
  0
VERTEX
  8
___SYMBOL
 62
7
  6
CONTINUOUS
 10
31.6071421032
 20
21.1341271839
  0
VERTEX
  8
___SYMBOL
 62
7
  6
CONTINUOUS
 10
31.6048880274
 20
21.1442218728
  0
VERTEX
  8
___SYMBOL
 62
7
  6
CONTINUOUS
 10
31.6022227567
 20
21.15425646
  0
VERTEX
  8
___SYMBOL
 62
7
  6
CONTINUOUS
 10
31.5991547823
 20
21.1641989768
  0
VERTEX
  8
___SYMBOL
 62
7
  6
CONTINUOUS
 10
31.5956938781
 20
21.1740177479
  0
VERTEX
  8
___SYMBOL
 62
7
  6
CONTINUOUS
 10
31.5918510702
 20
21.1836814923
  0
VERTEX
  8
___SYMBOL
 62
7
  6
CONTINUOUS
 10
31.5876386011
 20
21.1931594226
  0
VERTEX
  8
___SYMBOL
 62
7
  6
CONTINUOUS
 10
31.5830698911
 20
21.2024213437
  0
VERTEX
  8
___SYMBOL
 62
7
  6
CONTINUOUS
 10
31.5781594954
 20
21.2114377484
  0
VERTEX
  8
___SYMBOL
 62
7
  6
CONTINUOUS
 10
31.5729230578
 20
21.220179912
  0
VERTEX
  8
___SYMBOL
 62
7
  6
CONTINUOUS
 10
31.5673772608
 20
21.2286199833
  0
VERTEX
  8
___SYMBOL
 62
7
  6
CONTINUOUS
 10
31.5615397723
 20
21.2367310734
  0
VERTEX
  8
___SYMBOL
 62
7
  6
CONTINUOUS
 10
31.5554291899
 20
21.2444873416
  0
VERTEX
  8
___SYMBOL
 62
7
  6
CONTINUOUS
 10
31.5490649808
 20
21.2518640778
  0
VERTEX
  8
___SYMBOL
 62
7
  6
CONTINUOUS
 10
31.5424674204
 20
21.2588377806
  0
VERTEX
  8
___SYMBOL
 62
7
  6
CONTINUOUS
 10
31.5356575276
 20
21.2653862331
  0
VERTEX
  8
___SYMBOL
 62
7
  6
CONTINUOUS
 10
31.5286569977
 20
21.2714885728
  0
VERTEX
  8
___SYMBOL
 62
7
  6
CONTINUOUS
 10
31.5214881331
 20
21.2771253586
  0
VERTEX
  8
___SYMBOL
 62
7
  6
CONTINUOUS
 10
31.514173773
 20
21.2822786325
  0
VERTEX
  8
___SYMBOL
 62
7
  6
CONTINUOUS
 10
31.5067372196
 20
21.2869319771
  0
VERTEX
  8
___SYMBOL
 62
7
  6
CONTINUOUS
 10
31.4992021647
 20
21.2910705675
  0
VERTEX
  8
___SYMBOL
 62
7
  6
CONTINUOUS
 10
31.4915926138
 20
21.2946812188
  0
VERTEX
  8
___SYMBOL
 62
7
  6
CONTINUOUS
 10
31.4839328098
 20
21.297752428
  0
VERTEX
  8
___SYMBOL
 62
7
  6
CONTINUOUS
 10
31.4762471556
 20
21.3002744106
  0
VERTEX
  8
___SYMBOL
 62
7
  6
CONTINUOUS
 10
31.4685601366
 20
21.3022391321
  0
VERTEX
  8
___SYMBOL
 62
7
  6
CONTINUOUS
 10
31.4608962424
 20
21.3036403331
  0
VERTEX
  8
___SYMBOL
 62
7
  6
CONTINUOUS
 10
31.4532798891
 20
21.3044735497
  0
VERTEX
  8
___SYMBOL
 62
7
  6
CONTINUOUS
 10
31.4457353411
 20
21.3047361273
  0
VERTEX
  8
___SYMBOL
 62
7
  6
CONTINUOUS
 10
31.4382866342
 20
21.3044272294
  0
VERTEX
  8
___SYMBOL
 62
7
  6
CONTINUOUS
 10
31.4309574988
 20
21.3035478401
  0
VERTEX
  8
___SYMBOL
 62
7
  6
CONTINUOUS
 10
31.4237712846
 20
21.302100761
  0
VERTEX
  8
___SYMBOL
 62
7
  6
CONTINUOUS
 10
31.4167508855
 20
21.3000906022
  0
VERTEX
  8
___SYMBOL
 62
7
  6
CONTINUOUS
 10
31.4099186676
 20
21.2975237679
  0
VERTEX
  8
___SYMBOL
 62
7
  6
CONTINUOUS
 10
31.4032963973
 20
21.2944084356
  0
VERTEX
  8
___SYMBOL
 62
7
  6
CONTINUOUS
 10
31.396905172
 20
21.2907545302
  0
VERTEX
  8
___SYMBOL
 62
7
  6
CONTINUOUS
 10
31.3907653533
 20
21.2865736925
  0
VERTEX
  8
___SYMBOL
 62
7
  6
CONTINUOUS
 10
31.3848965017
 20
21.2818792421
  0
VERTEX
  8
___SYMBOL
 62
7
  6
CONTINUOUS
 10
31.3793173144
 20
21.2766861347
  0
VERTEX
  8
___SYMBOL
 62
7
  6
CONTINUOUS
 10
31.3740455658
 20
21.2710109147
  0
VERTEX
  8
___SYMBOL
 62
7
  6
CONTINUOUS
 10
31.369098051
 20
21.2648716626
  0
VERTEX
  8
___SYMBOL
 62
7
  6
CONTINUOUS
 10
31.364490532
 20
21.2582879371
  0
VERTEX
  8
___SYMBOL
 62
7
  6
CONTINUOUS
 10
31.3602376876
 20
21.2512807129
  0
VERTEX
  8
___SYMBOL
 62
7
  6
CONTINUOUS
 10
31.3563530667
 20
21.2438723139
  0
SEQEND
  0
POLYLINE
  8
___SYMBOL
 62
7
  6
CONTINUOUS
 66
1
 70
0
  0
VERTEX
  8
___SYMBOL
 62
7
  6
CONTINUOUS
 10
31.0658327777
 20
20.8590777047
  0
VERTEX
  8
___SYMBOL
 62
7
  6
CONTINUOUS
 10
31.08269784
 20
20.8711115966
  0
VERTEX
  8
___SYMBOL
 62
7
  6
CONTINUOUS
 10
31.0961753936
 20
20.8883635017
  0
VERTEX
  8
___SYMBOL
 62
7
  6
CONTINUOUS
 10
31.1050845738
 20
20.9093215085
  0
VERTEX
  8
___SYMBOL
 62
7
  6
CONTINUOUS
 10
31.1093165475
 20
20.9337297813
  0
VERTEX
  8
___SYMBOL
 62
7
  6
CONTINUOUS
 10
31.108500532
 20
20.9594496345
  0
VERTEX
  8
___SYMBOL
 62
7
  6
CONTINUOUS
 10
31.1026464203
 20
20.986166912
  0
VERTEX
  8
___SYMBOL
 62
7
  6
CONTINUOUS
 10
31.0922672277
 20
21.0115404293
  0
VERTEX
  8
___SYMBOL
 62
7
  6
CONTINUOUS
 10
31.0778094278
 20
21.0348325433
  0
VERTEX
  8
___SYMBOL
 62
7
  6
CONTINUOUS
 10
31.0596086847
 20
21.0552483986
  0
VERTEX
  8
___SYMBOL
 62
7
  6
CONTINUOUS
 10
31.0392596695
 20
21.070999504
  0
VERTEX
  8
___SYMBOL
 62
7
  6
CONTINUOUS
 10
31.0170109733
 20
21.0818930887
  0
VERTEX
  8
___SYMBOL
 62
7
  6
CONTINUOUS
 10
30.994812127
 20
21.0869748435
  0
VERTEX
  8
___SYMBOL
 62
7
  6
CONTINUOUS
 10
30.9729342191
 20
21.086182696
  0
VERTEX
  8
___SYMBOL
 62
7
  6
CONTINUOUS
 10
30.9532942566
 20
21.0795859407
  0
VERTEX
  8
___SYMBOL
 62
7
  6
CONTINUOUS
 10
30.9364292342
 20
21.0675519392
  0
VERTEX
  8
___SYMBOL
 62
7
  6
CONTINUOUS
 10
30.9229516407
 20
21.0503001437
  0
VERTEX
  8
___SYMBOL
 62
7
  6
CONTINUOUS
 10
30.9140424605
 20
21.0293421369
  0
VERTEX
  8
___SYMBOL
 62
7
  6
CONTINUOUS
 10
30.9098104718
 20
21.0049337346
  0
VERTEX
  8
___SYMBOL
 62
7
  6
CONTINUOUS
 10
30.9106265422
 20
20.9792139013
  0
VERTEX
  8
___SYMBOL
 62
7
  6
CONTINUOUS
 10
30.9164806139
 20
20.9524967334
  0
VERTEX
  8
___SYMBOL
 62
7
  6
CONTINUOUS
 10
30.9268598066
 20
20.9271232161
  0
VERTEX
  8
___SYMBOL
 62
7
  6
CONTINUOUS
 10
30.9413176065
 20
20.9038311021
  0
VERTEX
  8
___SYMBOL
 62
7
  6
CONTINUOUS
 10
30.9595183895
 20
20.8834151372
  0
VERTEX
  8
___SYMBOL
 62
7
  6
CONTINUOUS
 10
30.9798673648
 20
20.8676641414
  0
VERTEX
  8
___SYMBOL
 62
7
  6
CONTINUOUS
 10
31.002116061
 20
20.8567705567
  0
VERTEX
  8
___SYMBOL
 62
7
  6
CONTINUOUS
 10
31.0243149073
 20
20.8516888019
  0
VERTEX
  8
___SYMBOL
 62
7
  6
CONTINUOUS
 10
31.0461928152
 20
20.8524809494
  0
VERTEX
  8
___SYMBOL
 62
7
  6
CONTINUOUS
 10
31.0658327777
 20
20.8590777047
  0
SEQEND
  0
POLYLINE
  8
___SYMBOL
 62
7
  6
CONTINUOUS
 66
1
 70
0
  0
VERTEX
  8
___SYMBOL
 62
7
  6
CONTINUOUS
 10
31.0271130274
 20
21.1147395346
  0
VERTEX
  8
___SYMBOL
 62
7
  6
CONTINUOUS
 10
31.0189036574
 20
21.1169038049
  0
VERTEX
  8
___SYMBOL
 62
7
  6
CONTINUOUS
 10
31.0106935754
 20
21.1184754441
  0
VERTEX
  8
___SYMBOL
 62
7
  6
CONTINUOUS
 10
31.002512086
 20
21.1194488425
  0
VERTEX
  8
___SYMBOL
 62
7
  6
CONTINUOUS
 10
30.9943883917
 20
21.1198205258
  0
VERTEX
  8
___SYMBOL
 62
7
  6
CONTINUOUS
 10
30.9863514886
 20
21.1195891672
  0
VERTEX
  8
___SYMBOL
 62
7
  6
CONTINUOUS
 10
30.978430063
 20
21.1187555926
  0
VERTEX
  8
___SYMBOL
 62
7
  6
CONTINUOUS
 10
30.9706523892
 20
21.1173227772
  0
VERTEX
  8
___SYMBOL
 62
7
  6
CONTINUOUS
 10
30.9630462284
 20
21.1152958353
  0
VERTEX
  8
___SYMBOL
 62
7
  6
CONTINUOUS
 10
30.9556387293
 20
21.1126820017
  0
VERTEX
  8
___SYMBOL
 62
7
  6
CONTINUOUS
 10
30.9484563319
 20
21.109490606
  0
VERTEX
  8
___SYMBOL
 62
7
  6
CONTINUOUS
 10
30.9415246725
 20
21.1057330394
  0
VERTEX
  8
___SYMBOL
 62
7
  6
CONTINUOUS
 10
30.9348684925
 20
21.1014227139
  0
VERTEX
  8
___SYMBOL
 62
7
  6
CONTINUOUS
 10
30.92851155
 20
21.0965750144
  0
VERTEX
  8
___SYMBOL
 62
7
  6
CONTINUOUS
 10
30.9224765351
 20
21.0912072441
  0
VERTEX
  8
___SYMBOL
 62
7
  6
CONTINUOUS
 10
30.9167849888
 20
21.0853385623
  0
VERTEX
  8
___SYMBOL
 62
7
  6
CONTINUOUS
 10
30.911457226
 20
21.0789899162
  0
VERTEX
  8
___SYMBOL
 62
7
  6
CONTINUOUS
 10
30.9065122634
 20
21.0721839663
  0
VERTEX
  8
___SYMBOL
 62
7
  6
CONTINUOUS
 10
30.9019677511
 20
21.0649450053
  0
VERTEX
  8
___SYMBOL
 62
7
  6
CONTINUOUS
 10
30.89783991
 20
21.0572988715
  0
VERTEX
  8
___SYMBOL
 62
7
  6
CONTINUOUS
 10
30.8941434738
 20
21.0492728564
  0
VERTEX
  8
___SYMBOL
 62
7
  6
CONTINUOUS
 10
30.8908916363
 20
21.0408956076
  0
VERTEX
  8
___SYMBOL
 62
7
  6
CONTINUOUS
 10
30.8880960043
 20
21.0321970262
  0
VERTEX
  8
___SYMBOL
 62
7
  6
CONTINUOUS
 10
30.8857665564
 20
21.0232081605
  0
VERTEX
  8
___SYMBOL
 62
7
  6
CONTINUOUS
 10
30.8839116072
 20
21.0139610946
  0
VERTEX
  8
___SYMBOL
 62
7
  6
CONTINUOUS
 10
30.8825377777
 20
21.0044888343
  0
VERTEX
  8
___SYMBOL
 62
7
  6
CONTINUOUS
 10
30.8816499713
 20
20.9948251895
  0
VERTEX
  8
___SYMBOL
 62
7
  6
CONTINUOUS
 10
30.8812513572
 20
20.9850046527
  0
VERTEX
  8
___SYMBOL
 62
7
  6
CONTINUOUS
 10
30.8813433579
 20
20.9750622768
  0
VERTEX
  8
___SYMBOL
 62
7
  6
CONTINUOUS
 10
30.8819256452
 20
20.9650335494
  0
VERTEX
  8
___SYMBOL
 62
7
  6
CONTINUOUS
 10
30.8829961407
 20
20.9549542664
  0
VERTEX
  8
___SYMBOL
 62
7
  6
CONTINUOUS
 10
30.8845510234
 20
20.9448604041
  0
VERTEX
  8
___SYMBOL
 62
7
  6
CONTINUOUS
 10
30.8865847434
 20
20.9347879909
  0
VERTEX
  8
___SYMBOL
 62
7
  6
CONTINUOUS
 10
30.8890900417
 20
20.9247729785
  0
VERTEX
  8
___SYMBOL
 62
7
  6
CONTINUOUS
 10
30.892057976
 20
20.9148511139
  0
VERTEX
  8
___SYMBOL
 62
7
  6
CONTINUOUS
 10
30.8954779529
 20
20.9050578115
  0
VERTEX
  8
___SYMBOL
 62
7
  6
CONTINUOUS
 10
30.8993377652
 20
20.8954280268
  0
VERTEX
  8
___SYMBOL
 62
7
  6
CONTINUOUS
 10
30.9036236361
 20
20.8859961318
  0
VERTEX
  8
___SYMBOL
 62
7
  6
CONTINUOUS
 10
30.9083202678
 20
20.876795792
  0
VERTEX
  8
___SYMBOL
 62
7
  6
CONTINUOUS
 10
30.9134108964
 20
20.8678598466
  0
VERTEX
  8
___SYMBOL
 62
7
  6
CONTINUOUS
 10
30.9188773519
 20
20.8592201908
  0
VERTEX
  8
___SYMBOL
 62
7
  6
CONTINUOUS
 10
30.9247001226
 20
20.8509076624
  0
VERTEX
  8
___SYMBOL
 62
7
  6
CONTINUOUS
 10
30.9308584252
 20
20.8429519318
  0
VERTEX
  8
___SYMBOL
 62
7
  6
CONTINUOUS
 10
30.9373302785
 20
20.8353813954
  0
VERTEX
  8
___SYMBOL
 62
7
  6
CONTINUOUS
 10
30.9440925825
 20
20.8282230751
  0
VERTEX
  8
___SYMBOL
 62
7
  6
CONTINUOUS
 10
30.9511212001
 20
20.8215025213
  0
VERTEX
  8
___SYMBOL
 62
7
  6
CONTINUOUS
 10
30.9583910439
 20
20.8152437219
  0
VERTEX
  8
___SYMBOL
 62
7
  6
CONTINUOUS
 10
30.9658761654
 20
20.8094690166
  0
VERTEX
  8
___SYMBOL
 62
7
  6
CONTINUOUS
 10
30.9735498478
 20
20.8041990172
  0
VERTEX
  8
___SYMBOL
 62
7
  6
CONTINUOUS
 10
30.9813847011
 20
20.7994525343
  0
VERTEX
  8
___SYMBOL
 62
7
  6
CONTINUOUS
 10
30.9893527601
 20
20.7952465094
  0
VERTEX
  8
___SYMBOL
 62
7
  6
CONTINUOUS
 10
30.9974255841
 20
20.7915959554
  0
VERTEX
  8
___SYMBOL
 62
7
  6
CONTINUOUS
 10
31.0055743586
 20
20.7885139023
  0
VERTEX
  8
___SYMBOL
 62
7
  6
CONTINUOUS
 10
31.0137699978
 20
20.7860113509
  0
VERTEX
  8
___SYMBOL
 62
7
  6
CONTINUOUS
 10
31.0219832488
 20
20.7840972337
  0
VERTEX
  8
___SYMBOL
 62
7
  6
CONTINUOUS
 10
31.0301847959
 20
20.7827783828
  0
VERTEX
  8
___SYMBOL
 62
7
  6
CONTINUOUS
 10
31.0383453648
 20
20.7820595056
  0
VERTEX
  8
___SYMBOL
 62
7
  6
CONTINUOUS
 10
31.0464358279
 20
20.781943168
  0
VERTEX
  8
___SYMBOL
 62
7
  6
CONTINUOUS
 10
31.0544273076
 20
20.7824297854
  0
VERTEX
  8
___SYMBOL
 62
7
  6
CONTINUOUS
 10
31.0622912796
 20
20.7835176207
  0
VERTEX
  8
___SYMBOL
 62
7
  6
CONTINUOUS
 10
31.0699996748
 20
20.7852027912
  0
VERTEX
  8
___SYMBOL
 62
7
  6
CONTINUOUS
 10
31.0775249794
 20
20.7874792818
  0
VERTEX
  8
___SYMBOL
 62
7
  6
CONTINUOUS
 10
31.084840333
 20
20.7903389671
  0
VERTEX
  8
___SYMBOL
 62
7
  6
CONTINUOUS
 10
31.0919196248
 20
20.7937716399
  0
VERTEX
  8
___SYMBOL
 62
7
  6
CONTINUOUS
 10
31.0987375863
 20
20.7977650479
  0
VERTEX
  8
___SYMBOL
 62
7
  6
CONTINUOUS
 10
31.105269882
 20
20.8023049371
  0
VERTEX
  8
___SYMBOL
 62
7
  6
CONTINUOUS
 10
31.1114931961
 20
20.8073751033
  0
VERTEX
  8
___SYMBOL
 62
7
  6
CONTINUOUS
 10
31.1173853153
 20
20.8129574494
  0
VERTEX
  8
___SYMBOL
 62
7
  6
CONTINUOUS
 10
31.1229252087
 20
20.81903205
  0
VERTEX
  8
___SYMBOL
 62
7
  6
CONTINUOUS
 10
31.1280931027
 20
20.825577223
  0
VERTEX
  8
___SYMBOL
 62
7
  6
CONTINUOUS
 10
31.1328705513
 20
20.8325696064
  0
VERTEX
  8
___SYMBOL
 62
7
  6
CONTINUOUS
 10
31.1372405022
 20
20.8399842421
  0
VERTEX
  8
___SYMBOL
 62
7
  6
CONTINUOUS
 10
31.1411873576
 20
20.8477946647
  0
VERTEX
  8
___SYMBOL
 62
7
  6
CONTINUOUS
 10
31.1446970298
 20
20.8559729963
  0
VERTEX
  8
___SYMBOL
 62
7
  6
CONTINUOUS
 10
31.1477569917
 20
20.8644900458
  0
VERTEX
  8
___SYMBOL
 62
7
  6
CONTINUOUS
 10
31.1503563212
 20
20.8733154128
  0
VERTEX
  8
___SYMBOL
 62
7
  6
CONTINUOUS
 10
31.1524857405
 20
20.8824175967
  0
VERTEX
  8
___SYMBOL
 62
7
  6
CONTINUOUS
 10
31.1541376489
 20
20.8917641089
  0
VERTEX
  8
___SYMBOL
 62
7
  6
CONTINUOUS
 10
31.1553061503
 20
20.9013215885
  0
VERTEX
  8
___SYMBOL
 62
7
  6
CONTINUOUS
 10
31.1559870738
 20
20.9110559217
  0
VERTEX
  8
___SYMBOL
 62
7
  6
CONTINUOUS
 10
31.1561779891
 20
20.9209323633
  0
VERTEX
  8
___SYMBOL
 62
7
  6
CONTINUOUS
 10
31.1558782147
 20
20.9309156612
  0
VERTEX
  8
___SYMBOL
 62
7
  6
CONTINUOUS
 10
31.1550888206
 20
20.9409701815
  0
VERTEX
  8
___SYMBOL
 62
7
  6
CONTINUOUS
 10
31.1538126243
 20
20.9510600364
  0
VERTEX
  8
___SYMBOL
 62
7
  6
CONTINUOUS
 10
31.1520541812
 20
20.9611492118
  0
VERTEX
  8
___SYMBOL
 62
7
  6
CONTINUOUS
 10
31.1498197676
 20
20.971201696
  0
SEQEND
  0
ENDBLK
  8
0
  6
BYBLOCK
 62
0
  0
BLOCK
  8
0
  2
_FILLED
 70
64
 10
0.0
 20
0.0
  0
SOLID
  8
0
  6
BYBLOCK
 62
0
 10
0.0
 20
0.0
 11
-1.0
 21
0.1666666667
 12
-1.0
 22
-0.1666666667
 13
-1.0
 23
-0.1666666667
  0
ENDBLK
  8
0
  6
BYBLOCK
 62
0
  0
BLOCK
  8
0
 62
2
  6
CONTINUOUS
  2
*D0
 70
65
 10
0.0
 20
0.0
  0
TEXT
  8
0
 62
2
  6
CONTINUOUS
 10
19.8925394239
 20
18.7585550161
  7
STANDARD
 40
0.15625
  1
15-23/32
 41
0.8
 72
0
  0
TEXT
  8
0
 62
2
  6
CONTINUOUS
 10
20.8925394239
 20
18.7585550161
  7
STANDARD
 40
0.15625
  1
"
 41
0.8
 72
0
  0
TEXT
  8
0
 62
2
  6
CONTINUOUS
 10
19.8925394239
 20
18.5241800161
  7
STANDARD
 40
0.15625
  1
[39,9 cm]
 41
0.8
 72
0
  0
LINE
  8
0
 62
2
  6
CONTINUOUS
 10
21.7503941129
 20
10.9773845721
 11
20.3300394239
 21
10.9773845721
  0
LINE
  8
0
 62
2
  6
CONTINUOUS
 10
21.6363601453
 20
26.6959754602
 11
20.3300394239
 21
26.6959754602
  0
LINE
  8
0
 62
2
  6
CONTINUOUS
 10
20.4550394239
 20
10.9773845721
 11
20.4550394239
 21
18.4460550161
  0
LINE
  8
0
 62
2
  6
CONTINUOUS
 10
20.4550394239
 20
26.6959754602
 11
20.4550394239
 21
18.9929300161
  0
INSERT
  8
0
 62
2
  6
CONTINUOUS
  2
_FILLED
 10
20.4550394239
 20
10.9773845721
 41
0.1875
 42
0.1875
 43
0.1875
 50
270.0
  0
INSERT
  8
0
 62
2
  6
CONTINUOUS
  2
_FILLED
 10
20.4550394239
 20
26.6959754602
 41
0.1875
 42
0.1875
 43
0.1875
 50
90.0
  0
ENDBLK
  8
0
  6
BYBLOCK
 62
0
  0
BLOCK
  8
0
 62
2
  6
CONTINUOUS
  2
*D1
 70
65
 10
0.0
 20
0.0
  0
TEXT
  8
0
 62
2
  6
CONTINUOUS
 10
21.5689593219
 20
20.1647005814
  7
STANDARD
 40
0.15625
  1
19-7/32
 41
0.8
 72
0
  0
TEXT
  8
0
 62
2
  6
CONTINUOUS
 10
22.4439593219
 20
20.1647005814
  7
STANDARD
 40
0.15625
  1
"
 41
0.8
 72
0
  0
TEXT
  8
0
 62
2
  6
CONTINUOUS
 10
21.5689593219
 20
19.9303255814
  7
STANDARD
 40
0.15625
  1
[48,8 cm]
 41
0.8
 72
0
  0
LINE
  8
0
 62
2
  6
CONTINUOUS
 10
12.4648019152
 20
18.6693998505
 11
12.4648019152
 21
20.3678255814
  0
LINE
  8
0
 62
2
  6
CONTINUOUS
 10
31.6731167287
 20
18.6592724463
 11
31.6731167287
 21
20.3678255814
  0
LINE
  8
0
 62
2
  6
CONTINUOUS
 10
12.4648019152
 20
20.2428255814
 11
21.4908343219
 21
20.2428255814
  0
LINE
  8
0
 62
2
  6
CONTINUOUS
 10
31.6731167287
 20
20.2428255814
 11
22.7720843219
 21
20.2428255814
  0
INSERT
  8
0
 62
2
  6
CONTINUOUS
  2
_FILLED
 10
12.4648019152
 20
20.2428255814
 41
0.1875
 42
0.1875
 43
0.1875
 50
180.0
  0
INSERT
  8
0
 62
2
  6
CONTINUOUS
  2
_FILLED
 10
31.6731167287
 20
20.2428255814
 41
0.1875
 42
0.1875
 43
0.1875
  0
ENDBLK
  8
0
  6
BYBLOCK
 62
0
  0
ENDSEC
  0
SECTION
  2
ENTITIES
  0
DIMENSION
  8
0
 62
2
  6
CONTINUOUS
  2
*D0
 10
20.4550394239
 20
26.6959754602
 11
20.4550394239
 21
18.7194925161
 70
128
 13
21.7503941129
 23
10.9773845721
 14
21.6363601453
 24
26.6959754602
 50
90.0
  0
DIMENSION
  8
0
 62
2
  6
CONTINUOUS
  2
*D1
 10
31.6731167287
 20
20.2428255814
 11
22.1314593219
 21
20.1256380814
 70
128
 13
12.4648019152
 23
18.6693998505
 14
31.6731167287
 24
18.6592724463
  0
TEXT
  8
___NOTE
 62
2
  6
CONTINUOUS
 10
18.2694959672
 20
13.2460587287
  7
STANDARD
 40
0.15625
  1
1155261-7-A
 41
0.8
 72
0
  0
TEXT
  8
___NOTE
 62
2
  6
CONTINUOUS
 10
18.2612658649
 20
10.1149162989
  7
STANDARD
 40
0.15625
  1
1155261-7-A
 41
0.8
 72
0
  0
TEXT
  8
___NOTE
 62
2
  6
CONTINUOUS
 10
23.9384933253
 20
13.220365378
  7
STANDARD
 40
0.15625
  1
COPYRIGHT 2010 KOHLER CO.
 41
0.8
 72
0
  0
TEXT
  8
___NOTE
 62
2
  6
CONTINUOUS
 10
24.4528747207
 20
10.0873968943
  7
STANDARD
 40
0.15625
  1
COPYRIGHT 2010 KOHLER CO.
 41
0.8
 72
0
  0
TEXT
  8
___NOTE
 62
2
  6
CONTINUOUS
 10
26.7180625957
 20
23.3249126275
  7
STANDARD
 40
0.15625
  1
RIM OF LAV
 41
0.8
 72
2
 11
27.9680625957
 21
23.3249126275
  0
TEXT
  8
___NOTE
 62
2
  6
CONTINUOUS
 10
25.7180625957
 20
23.0905376275
  7
STANDARD
 40
0.15625
  1
REBORDE DEL LAVABO
 41
0.8
 72
2
 11
27.9680625957
 21
23.0905376275
  0
TEXT
  8
___NOTE
 62
2
  6
CONTINUOUS
 10
25.9680625957
 20
22.8561626275
  7
STANDARD
 40
0.15625
  1
REBORD DU LAVABO
 41
0.8
 72
2
 11
27.9680625957
 21
22.8561626275
  0
LINE
  8
___NOTE
 62
2
  6
CONTINUOUS
 10
29.1079950079
 20
24.7888456653
 11
28.2180625957
 21
23.4030376275
  0
LINE
  8
___NOTE
 62
2
  6
CONTINUOUS
 10
28.2180625957
 20
23.4030376275
 11
27.9680625957
 21
23.4030376275
  0
SOLID
  8
___NOTE
 62
2
  6
CONTINUOUS
 10
29.0329740044
 20
24.6141898279
 11
29.1079950079
 21
24.7888456653
 12
28.9803840574
 22
24.6479618203
 13
28.9803840574
 23
24.6479618203
  0
TEXT
  8
___NOTE
 62
2
  6
CONTINUOUS
 10
25.5910189613
 20
21.6980989377
  7
STANDARD
 40
0.15625
  1
FOR SELF-RIMMING INSTALLATION
 41
0.8
 72
2
 11
29.2160189613
 21
21.6980989377
  0
TEXT
  8
___NOTE
 62
2
  6
CONTINUOUS
 10
26.8410189613
 20
21.4637239377
  7
STANDARD
 40
0.15625
  1
CUT ALONG THIS LINE
 41
0.8
 72
2
 11
29.2160189613
 21
21.4637239377
  0
TEXT
  8
___NOTE
 62
2
  6
CONTINUOUS
 10
24.4660189613
 20
21.2293489377
  7
STANDARD
 40
0.15625
  1
PARA INSTALACIONES DE BORDE TERMINADO,
 41
0.8
 72
2
 11
29.2160189613
 21
21.2293489377
  0
TEXT
  8
___NOTE
 62
2
  6
CONTINUOUS
 10
25.4660189613
 20
20.9949739377
  7
STANDARD
 40
0.15625
  1
CORTE A LO LARGO DE ESTA LÍNEA
 41
0.8
 72
2
 11
29.2160189613
 21
20.9949739377
  0
TEXT
  8
___NOTE
 62
2
  6
CONTINUOUS
 10
24.2160189613
 20
20.7605989377
  7
STANDARD
 40
0.15625
  1
POUR DES INSTALLATIONS À REBORD INTÉGRÉ,
 41
0.8
 72
2
 11
29.2160189613
 21
20.7605989377
  0
TEXT
  8
___NOTE
 62
2
  6
CONTINUOUS
 10
25.3410189613
 20
20.5262239377
  7
STANDARD
 40
0.15625
  1
DÉCOUPER AU LONG DE CETTE LIGNE
 41
0.8
 72
2
 11
29.2160189613
 21
20.5262239377
  0
LINE
  8
___NOTE
 62
2
  6
CONTINUOUS
 10
30.54204843
 20
22.5679370532
 11
29.4660189613
 21
21.7762239377
  0
LINE
  8
___NOTE
 62
2
  6
CONTINUOUS
 10
29.4660189613
 20
21.7762239377
 11
29.2160189613
 21
21.7762239377
  0
SOLID
  8
___NOTE
 62
2
  6
CONTINUOUS
 10
30.409543388
 20
22.4316460911
 11
30.54204843
 21
22.5679370532
 12
30.3725033485
 22
22.4819877783
 13
30.3725033485
 23
22.4819877783
  0
INSERT
  8
___SYMBOL
 62
2
  6
CONTINUOUS
  2
SCISSORS_BL0
 10
31.163307961
 20
21.4845211605
  0
INSERT
  8
___SYMBOL
 62
2
  6
CONTINUOUS
  2
WHEN_PLOTTING_TEMPLATE_N_BL1
 10
26.0136594906
 20
16.762325457
  0
INSERT
  8
___SYMBOL
 62
2
  6
CONTINUOUS
  2
SKU_LAV_KOHLER_BL2
 10
17.5106534884
 20
22.0439139535
  0
LINE
  8
DEFAULT_1
 62
2
  6
CENTER
 10
22.0692202986
 20
10.1366100161
 11
22.0689700675
 21
11.7080556327
  0
LINE
  8
DEFAULT_1
 62
2
  6
CENTER
 10
22.0687896066
 20
25.9759262705
 11
22.0690507104
 21
27.7760243971
  0
LINE
  8
DEFAULT_1
 62
2
  6
CENTER
 10
31.8531167287
 20
18.899154237
 11
31.0673939204
 21
18.8990291215
  0
LINE
  8
DEFAULT_1
 62
2
  6
CENTER
 10
11.499079856
 20
18.8959131375
 11
13.0705254726
 21
18.8961633686
  0
LINE
  8
DEFAULT_1
 62
2
  6
CENTER
 10
31.8531167287
 20
18.899154237
 11
32.6624665146
 21
18.8991537238
  0
POLYLINE
  8
_CURVE
 62
4
  6
CONTINUOUS
 66
1
 70
0
  0
VERTEX
  8
_CURVE
 62
4
  6
CONTINUOUS
 10
12.4648019152
 20
18.8991543512
  0
VERTEX
  8
_CURVE
 62
4
  6
CONTINUOUS
 10
12.4659647121
 20
18.7779351276
  0
VERTEX
  8
_CURVE
 62
4
  6
CONTINUOUS
 10
12.4694520175
 20
18.6567509352
  0
VERTEX
  8
_CURVE
 62
4
  6
CONTINUOUS
 10
12.4732405126
 20
18.572641973
  0
VERTEX
  8
_CURVE
 62
4
  6
CONTINUOUS
 10
12.4781478371
 20
18.4885881091
  0
VERTEX
  8
_CURVE
 62
4
  6
CONTINUOUS
 10
12.4841724683
 20
18.4046021281
  0
VERTEX
  8
_CURVE
 62
4
  6
CONTINUOUS
 10
12.491305449
 20
18.3207760818
  0
VERTEX
  8
_CURVE
 62
4
  6
CONTINUOUS
 10
12.4995495266
 20
18.237044514
  0
VERTEX
  8
_CURVE
 62
4
  6
CONTINUOUS
 10
12.5089021168
 20
18.1534213872
  0
VERTEX
  8
_CURVE
 62
4
  6
CONTINUOUS
 10
12.519497217
 20
18.068885021
  0
VERTEX
  8
_CURVE
 62
4
  6
CONTINUOUS
 10
12.5312222456
 20
17.9844877627
  0
VERTEX
  8
_CURVE
 62
4
  6
CONTINUOUS
 10
12.5440735808
 20
17.9002432589
  0
VERTEX
  8
_CURVE
 62
4
  6
CONTINUOUS
 10
12.5583313515
 20
17.8145255209
  0
VERTEX
  8
_CURVE
 62
4
  6
CONTINUOUS
 10
12.5737510376
 20
17.7289951596
  0
VERTEX
  8
_CURVE
 62
4
  6
CONTINUOUS
 10
12.5903276077
 20
17.64366659
  0
VERTEX
  8
_CURVE
 62
4
  6
CONTINUOUS
 10
12.6081559962
 20
17.5580892508
  0
VERTEX
  8
_CURVE
 62
4
  6
CONTINUOUS
 10
12.6271429083
 20
17.4727442273
  0
VERTEX
  8
_CURVE
 62
4
  6
CONTINUOUS
 10
12.6472823826
 20
17.3876452573
  0
VERTEX
  8
_CURVE
 62
4
  6
CONTINUOUS
 10
12.6686285288
 20
17.3025724723
  0
VERTEX
  8
_CURVE
 62
4
  6
CONTINUOUS
 10
12.6911202473
 20
17.2177750336
  0
VERTEX
  8
_CURVE
 62
4
  6
CONTINUOUS
 10
12.7147501755
 20
17.133267061
  0
VERTEX
  8
_CURVE
 62
4
  6
CONTINUOUS
 10
12.7396736044
 20
17.0485226282
  0
VERTEX
  8
_CURVE
 62
4
  6
CONTINUOUS
 10
12.7657347464
 20
16.9640990109
  0
VERTEX
  8
_CURVE
 62
4
  6
CONTINUOUS
 10
12.7929258931
 20
16.8800095264
  0
VERTEX
  8
_CURVE
 62
4
  6
CONTINUOUS
 10
12.8215113876
 20
16.7954793674
  0
VERTEX
  8
_CURVE
 62
4
  6
CONTINUOUS
 10
12.8512316394
 20
16.7113141093
  0
VERTEX
  8
_CURVE
 62
4
  6
CONTINUOUS
 10
12.8820778521
 20
16.6275246222
  0
VERTEX
  8
_CURVE
 62
4
  6
CONTINUOUS
 10
12.9143669771
 20
16.5432879092
  0
VERTEX
  8
_CURVE
 62
4
  6
CONTINUOUS
 10
12.9477841267
 20
16.4594602134
  0
VERTEX
  8
_CURVE
 62
4
  6
CONTINUOUS
 10
12.9823176409
 20
16.376056117
  0
VERTEX
  8
_CURVE
 62
4
  6
CONTINUOUS
 10
13.0183325623
 20
16.2922293457
  0
VERTEX
  8
_CURVE
 62
4
  6
CONTINUOUS
 10
13.0554652531
 20
16.2088623474
  0
VERTEX
  8
_CURVE
 62
4
  6
CONTINUOUS
 10
13.0937056828
 20
16.1259675523
  0
VERTEX
  8
_CURVE
 62
4
  6
CONTINUOUS
 10
13.1334810342
 20
16.0426557884
  0
VERTEX
  8
_CURVE
 62
4
  6
CONTINUOUS
 10
13.174367043
 20
15.9598476013
  0
VERTEX
  8
_CURVE
 62
4
  6
CONTINUOUS
 10
13.2163524549
 20
15.8775512489
  0
VERTEX
  8
_CURVE
 62
4
  6
CONTINUOUS
 10
13.2599359161
 20
15.7948219497
  0
VERTEX
  8
_CURVE
 62
4
  6
CONTINUOUS
 10
13.304618029
 20
15.7126386859
  0
VERTEX
  8
_CURVE
 62
4
  6
CONTINUOUS
 10
13.3503836785
 20
15.6310151562
  0
VERTEX
  8
_CURVE
 62
4
  6
CONTINUOUS
 10
13.397812269
 20
15.5489518493
  0
VERTEX
  8
_CURVE
 62
4
  6
CONTINUOUS
 10
13.4463239995
 20
15.4674866756
  0
VERTEX
  8
_CURVE
 62
4
  6
CONTINUOUS
 10
13.4959066276
 20
15.3866298653
  0
VERTEX
  8
_CURVE
 62
4
  6
CONTINUOUS
 10
13.5472304934
 20
15.3053246476
  0
VERTEX
  8
_CURVE
 62
4
  6
CONTINUOUS
 10
13.5996275497
 20
15.2246613212
  0
VERTEX
  8
_CURVE
 62
4
  6
CONTINUOUS
 10
13.6530838931
 20
15.1446465669
  0
VERTEX
  8
_CURVE
 62
4
  6
CONTINUOUS
 10
13.7083648756
 20
15.064168015
  0
VERTEX
  8
_CURVE
 62
4
  6
CONTINUOUS
 10
13.7647031313
 20
14.9843756164
  0
VERTEX
  8
_CURVE
 62
4
  6
CONTINUOUS
 10
13.8220807098
 20
14.9052815684
  0
VERTEX
  8
_CURVE
 62
4
  6
CONTINUOUS
 10
13.881366686
 20
14.8257235862
  0
VERTEX
  8
_CURVE
 62
4
  6
CONTINUOUS
 10
13.9416912099
 20
14.7469053094
  0
VERTEX
  8
_CURVE
 62
4
  6
CONTINUOUS
 10
14.0030404972
 20
14.6688343577
  0
VERTEX
  8
_CURVE
 62
4
  6
CONTINUOUS
 10
14.0663912737
 20
14.5903054029
  0
VERTEX
  8
_CURVE
 62
4
  6
CONTINUOUS
 10
14.130768606
 20
14.5125604982
  0
VERTEX
  8
_CURVE
 62
4
  6
CONTINUOUS
 10
14.1961559528
 20
14.4356047643
  0
VERTEX
  8
_CURVE
 62
4
  6
CONTINUOUS
 10
14.2636264347
 20
14.3582093414
  0
VERTEX
  8
_CURVE
 62
4
  6
CONTINUOUS
 10
14.3321028835
 20
14.281644638
  0
VERTEX
  8
_CURVE
 62
4
  6
CONTINUOUS
 10
14.4015651423
 20
14.2059209775
  0
VERTEX
  8
_CURVE
 62
4
  6
CONTINUOUS
 10
14.4731775611
 20
14.1298054065
  0
VERTEX
  8
_CURVE
 62
4
  6
CONTINUOUS
 10
14.5457732341
 20
14.0545746851
  0
VERTEX
  8
_CURVE
 62
4
  6
CONTINUOUS
 10
14.6193372617
 20
13.9802336426
  0
VERTEX
  8
_CURVE
 62
4
  6
CONTINUOUS
 10
14.6951210485
 20
13.9055539074
  0
VERTEX
  8
_CURVE
 62
4
  6
CONTINUOUS
 10
14.771871439
 20
13.8318030939
  0
VERTEX
  8
_CURVE
 62
4
  6
CONTINUOUS
 10
14.8495690968
 20
13.7589851387
  0
VERTEX
  8
_CURVE
 62
4
  6
CONTINUOUS
 10
14.9295356703
 20
13.6858938612
  0
VERTEX
  8
_CURVE
 62
4
  6
CONTINUOUS
 10
15.0104408812
 20
13.613779353
  0
VERTEX
  8
_CURVE
 62
4
  6
CONTINUOUS
 10
15.0922637004
 20
13.5426495495
  0
VERTEX
  8
_CURVE
 62
4
  6
CONTINUOUS
 10
15.1763947179
 20
13.471330363
  0
VERTEX
  8
_CURVE
 62
4
  6
CONTINUOUS
 10
15.2614371125
 20
13.4010397392
  0
VERTEX
  8
_CURVE
 62
4
  6
CONTINUOUS
 10
15.3473750115
 20
13.3317796437
  0
VERTEX
  8
_CURVE
 62
4
  6
CONTINUOUS
 10
15.4356577909
 20
13.2624147016
  0
VERTEX
  8
_CURVE
 62
4
  6
CONTINUOUS
 10
15.5248278618
 20
13.1941205723
  0
VERTEX
  8
_CURVE
 62
4
  6
CONTINUOUS
 10
15.614863076
 20
13.1269005865
  0
VERTEX
  8
_CURVE
 62
4
  6
CONTINUOUS
 10
15.7072555658
 20
13.0596707864
  0
VERTEX
  8
_CURVE
 62
4
  6
CONTINUOUS
 10
15.8004991763
 20
12.99355954
  0
VERTEX
  8
_CURVE
 62
4
  6
CONTINUOUS
 10
15.8945738473
 20
12.9285719013
  0
VERTEX
  8
_CURVE
 62
4
  6
CONTINUOUS
 10
15.9910086659
 20
12.8636835609
  0
VERTEX
  8
_CURVE
 62
4
  6
CONTINUOUS
 10
16.0882635918
 20
12.7999604404
  0
VERTEX
  8
_CURVE
 62
4
  6
CONTINUOUS
 10
16.1863211594
 20
12.7374021166
  0
VERTEX
  8
_CURVE
 62
4
  6
CONTINUOUS
 10
16.2867298467
 20
12.6750487157
  0
VERTEX
  8
_CURVE
 62
4
  6
CONTINUOUS
 10
16.387924804
 20
12.613899852
  0
VERTEX
  8
_CURVE
 62
4
  6
CONTINUOUS
 10
16.4898821347
 20
12.553958629
  0
VERTEX
  8
_CURVE
 62
4
  6
CONTINUOUS
 10
16.5941569201
 20
12.494338229
  0
VERTEX
  8
_CURVE
 62
4
  6
CONTINUOUS
 10
16.6991751199
 20
12.4359677196
  0
VERTEX
  8
_CURVE
 62
4
  6
CONTINUOUS
 10
16.8049188882
 20
12.3788488925
  0
VERTEX
  8
_CURVE
 62
4
  6
CONTINUOUS
 10
16.9129625937
 20
12.3221595033
  0
VERTEX
  8
_CURVE
 62
4
  6
CONTINUOUS
 10
17.0217147726
 20
12.2667598705
  0
VERTEX
  8
_CURVE
 62
4
  6
CONTINUOUS
 10
17.1311549134
 20
12.212648617
  0
VERTEX
  8
_CURVE
 62
4
  6
CONTINUOUS
 10
17.2427466745
 20
12.1591238103
  0
VERTEX
  8
_CURVE
 62
4
  6
CONTINUOUS
 10
17.3550015734
 20
12.1069233836
  0
VERTEX
  8
_CURVE
 62
4
  6
CONTINUOUS
 10
17.4678972355
 20
12.0560498861
  0
VERTEX
  8
_CURVE
 62
4
  6
CONTINUOUS
 10
17.5836582672
 20
12.0055409642
  0
VERTEX
  8
_CURVE
 62
4
  6
CONTINUOUS
 10
17.7000447456
 20
11.9564131243
  0
VERTEX
  8
_CURVE
 62
4
  6
CONTINUOUS
 10
17.8170390836
 20
11.9086649854
  0
VERTEX
  8
_CURVE
 62
4
  6
CONTINUOUS
 10
17.9349529152
 20
11.8621674299
  0
VERTEX
  8
_CURVE
 62
4
  6
CONTINUOUS
 10
18.0534375591
 20
11.8170555506
  0
VERTEX
  8
_CURVE
 62
4
  6
CONTINUOUS
 10
18.1724702449
 20
11.7733289741
  0
VERTEX
  8
_CURVE
 62
4
  6
CONTINUOUS
 10
18.2870129726
 20
11.732732517
  0
VERTEX
  8
_CURVE
 62
4
  6
CONTINUOUS
 10
18.4020216868
 20
11.6934083947
  0
VERTEX
  8
_CURVE
 62
4
  6
CONTINUOUS
 10
18.5174801655
 20
11.6553575526
  0
VERTEX
  8
_CURVE
 62
4
  6
CONTINUOUS
 10
18.6236620202
 20
11.6216079281
  0
VERTEX
  8
_CURVE
 62
4
  6
CONTINUOUS
 10
18.7301970161
 20
11.5889262194
  0
VERTEX
  8
_CURVE
 62
4
  6
CONTINUOUS
 10
18.8370742485
 20
11.5573103753
  0
VERTEX
  8
_CURVE
 62
4
  6
CONTINUOUS
 10
18.9811224457
 20
11.5165261342
  0
VERTEX
  8
_CURVE
 62
4
  6
CONTINUOUS
 10
19.1257311137
 20
11.4776613539
  0
VERTEX
  8
_CURVE
 62
4
  6
CONTINUOUS
 10
19.2557451011
 20
11.4444701752
  0
VERTEX
  8
_CURVE
 62
4
  6
CONTINUOUS
 10
19.3861606754
 20
11.4128209807
  0
VERTEX
  8
_CURVE
 62
4
  6
CONTINUOUS
 10
19.5043056074
 20
11.3855553634
  0
VERTEX
  8
_CURVE
 62
4
  6
CONTINUOUS
 10
19.6227499226
 20
11.3595467453
  0
VERTEX
  8
_CURVE
 62
4
  6
CONTINUOUS
 10
19.7304655367
 20
11.337034765
  0
VERTEX
  8
_CURVE
 62
4
  6
CONTINUOUS
 10
19.8384047944
 20
11.3155559355
  0
VERTEX
  8
_CURVE
 62
4
  6
CONTINUOUS
 10
19.9368079803
 20
11.2969088966
  0
VERTEX
  8
_CURVE
 62
4
  6
CONTINUOUS
 10
20.0353782931
 20
11.2791165951
  0
VERTEX
  8
_CURVE
 62
4
  6
CONTINUOUS
 10
20.1254354747
 20
11.2636311293
  0
VERTEX
  8
_CURVE
 62
4
  6
CONTINUOUS
 10
20.2156182182
 20
11.2488565286
  0
VERTEX
  8
_CURVE
 62
4
  6
CONTINUOUS
 10
20.2982078526
 20
11.2359654203
  0
VERTEX
  8
_CURVE
 62
4
  6
CONTINUOUS
 10
20.3808929625
 20
11.2236687929
  0
VERTEX
  8
_CURVE
 62
4
  6
CONTINUOUS
 10
20.5327484609
 20
11.2026639441
  0
VERTEX
  8
_CURVE
 62
4
  6
CONTINUOUS
 10
20.672418265
 20
11.1851368272
  0
VERTEX
  8
_CURVE
 62
4
  6
CONTINUOUS
 10
20.8010880827
 20
11.1704997183
  0
VERTEX
  8
_CURVE
 62
4
  6
CONTINUOUS
 10
20.9197876219
 20
11.1582734854
  0
VERTEX
  8
_CURVE
 62
4
  6
CONTINUOUS
 10
21.0293170037
 20
11.1480732608
  0
VERTEX
  8
_CURVE
 62
4
  6
CONTINUOUS
 10
21.1304600405
 20
11.139572182
  0
VERTEX
  8
_CURVE
 62
4
  6
CONTINUOUS
 10
21.2239415219
 20
11.1324965561
  0
VERTEX
  8
_CURVE
 62
4
  6
CONTINUOUS
 10
21.296180379
 20
11.1275417427
  0
SEQEND
  0
POLYLINE
  8
_CURVE
 62
8
  6
PHANTOM
 66
1
 70
0
  0
VERTEX
  8
_CURVE
 62
8
  6
PHANTOM
 10
12.0148019152
 20
18.8991540658
  0
VERTEX
  8
_CURVE
 62
8
  6
PHANTOM
 10
12.0155103185
 20
18.9970749753
  0
VERTEX
  8
_CURVE
 62
8
  6
PHANTOM
 10
12.0176348775
 20
19.0949805217
  0
VERTEX
  8
_CURVE
 62
8
  6
PHANTOM
 10
12.0211747689
 20
19.1928467655
  0
VERTEX
  8
_CURVE
 62
8
  6
PHANTOM
 10
12.0264706266
 20
19.2965093449
  0
VERTEX
  8
_CURVE
 62
8
  6
PHANTOM
 10
12.0333524604
 20
19.4000776427
  0
VERTEX
  8
_CURVE
 62
8
  6
PHANTOM
 10
12.0418171168
 20
19.5035284262
  0
VERTEX
  8
_CURVE
 62
8
  6
PHANTOM
 10
12.0521443668
 20
19.6095329912
  0
VERTEX
  8
_CURVE
 62
8
  6
PHANTOM
 10
12.0641290579
 20
19.7153634851
  0
VERTEX
  8
_CURVE
 62
8
  6
PHANTOM
 10
12.0777654161
 20
19.8209940272
  0
VERTEX
  8
_CURVE
 62
8
  6
PHANTOM
 10
12.0932036255
 20
19.9274206146
  0
VERTEX
  8
_CURVE
 62
8
  6
PHANTOM
 10
12.1103115545
 20
20.0335915285
  0
VERTEX
  8
_CURVE
 62
8
  6
PHANTOM
 10
12.1290809305
 20
20.1394813319
  0
VERTEX
  8
_CURVE
 62
8
  6
PHANTOM
 10
12.1495806513
 20
20.2454493214
  0
VERTEX
  8
_CURVE
 62
8
  6
PHANTOM
 10
12.1717351881
 20
20.3510837822
  0
VERTEX
  8
_CURVE
 62
8
  6
PHANTOM
 10
12.195534099
 20
20.4563599738
  0
VERTEX
  8
_CURVE
 62
8
  6
PHANTOM
 10
12.2211597643
 20
20.5620239387
  0
VERTEX
  8
_CURVE
 62
8
  6
PHANTOM
 10
12.2484304496
 20
20.6672754017
  0
VERTEX
  8
_CURVE
 62
8
  6
PHANTOM
 10
12.2773331027
 20
20.7720905289
  0
VERTEX
  8
_CURVE
 62
8
  6
PHANTOM
 10
12.308199304
 20
20.8775911817
  0
VERTEX
  8
_CURVE
 62
8
  6
PHANTOM
 10
12.3407059677
 20
20.9825980267
  0
VERTEX
  8
_CURVE
 62
8
  6
PHANTOM
 10
12.3748388208
 20
21.0870876069
  0
VERTEX
  8
_CURVE
 62
8
  6
PHANTOM
 10
12.4110165109
 20
21.1922662971
  0
VERTEX
  8
_CURVE
 62
8
  6
PHANTOM
 10
12.4488261774
 20
21.2968695163
  0
VERTEX
  8
_CURVE
 62
8
  6
PHANTOM
 10
12.4882494211
 20
21.4008754169
  0
VERTEX
  8
_CURVE
 62
8
  6
PHANTOM
 10
12.529784708
 20
21.5055361879
  0
VERTEX
  8
_CURVE
 62
8
  6
PHANTOM
 10
12.5729358627
 20
21.6095412139
  0
VERTEX
  8
_CURVE
 62
8
  6
PHANTOM
 10
12.617683902
 20
21.7128693156
  0
VERTEX
  8
_CURVE
 62
8
  6
PHANTOM
 10
12.6646405581
 20
21.816868725
  0
VERTEX
  8
_CURVE
 62
8
  6
PHANTOM
 10
12.7131973214
 20
21.9201308133
  0
VERTEX
  8
_CURVE
 62
8
  6
PHANTOM
 10
12.7633338659
 20
22.0226351801
  0
VERTEX
  8
_CURVE
 62
8
  6
PHANTOM
 10
12.8157884848
 20
22.1258279283
  0
VERTEX
  8
_CURVE
 62
8
  6
PHANTOM
 10
12.8698230891
 20
22.2282023546
  0
VERTEX
  8
_CURVE
 62
8
  6
PHANTOM
 10
12.9254127602
 20
22.3297409362
  0
VERTEX
  8
_CURVE
 62
8
  6
PHANTOM
 10
12.9834363712
 20
22.4319903227
  0
VERTEX
  8
_CURVE
 62
8
  6
PHANTOM
 10
13.0430154456
 20
22.5333412527
  0
VERTEX
  8
_CURVE
 62
8
  6
PHANTOM
 10
13.1041271753
 20
22.6337754752
  0
VERTEX
  8
_CURVE
 62
8
  6
PHANTOM
 10
13.1678095756
 20
22.7349338049
  0
VERTEX
  8
_CURVE
 62
8
  6
PHANTOM
 10
13.2330248717
 20
22.8351109516
  0
VERTEX
  8
_CURVE
 62
8
  6
PHANTOM
 10
13.2997451162
 20
22.9342922696
  0
VERTEX
  8
_CURVE
 62
8
  6
PHANTOM
 10
13.3691747863
 20
23.0342084837
  0
VERTEX
  8
_CURVE
 62
8
  6
PHANTOM
 10
13.4401074496
 20
23.1330634162
  0
VERTEX
  8
_CURVE
 62
8
  6
PHANTOM
 10
13.5125158337
 20
23.2308427002
  0
VERTEX
  8
_CURVE
 62
8
  6
PHANTOM
 10
13.5877803528
 20
23.3293465567
  0
VERTEX
  8
_CURVE
 62
8
  6
PHANTOM
 10
13.6645199245
 20
23.4267057893
  0
VERTEX
  8
_CURVE
 62
8
  6
PHANTOM
 10
13.7427059639
 20
23.522907321
  0
VERTEX
  8
_CURVE
 62
8
  6
PHANTOM
 10
13.8238732578
 20
23.6197771917
  0
VERTEX
  8
_CURVE
 62
8
  6
PHANTOM
 10
13.9064822754
 20
23.7154207505
  0
VERTEX
  8
_CURVE
 62
8
  6
PHANTOM
 10
13.990501112
 20
23.8098284932
  0
VERTEX
  8
_CURVE
 62
8
  6
PHANTOM
 10
14.0776078772
 20
23.9048277557
  0
VERTEX
  8
_CURVE
 62
8
  6
PHANTOM
 10
14.1661184842
 20
23.9985204661
  0
VERTEX
  8
_CURVE
 62
8
  6
PHANTOM
 10
14.2560036012
 20
24.0908953349
  0
VERTEX
  8
_CURVE
 62
8
  6
PHANTOM
 10
14.3490687237
 20
24.1837466374
  0
VERTEX
  8
_CURVE
 62
8
  6
PHANTOM
 10
14.4434991253
 20
24.2752093886
  0
VERTEX
  8
_CURVE
 62
8
  6
PHANTOM
 10
14.5392606456
 20
24.3652777832
  0
VERTEX
  8
_CURVE
 62
8
  6
PHANTOM
 10
14.6382630829
 20
24.4556949119
  0
VERTEX
  8
_CURVE
 62
8
  6
PHANTOM
 10
14.7385830683
 20
24.5446479478
  0
VERTEX
  8
_CURVE
 62
8
  6
PHANTOM
 10
14.8401890926
 20
24.6321292051
  0
VERTEX
  8
_CURVE
 62
8
  6
PHANTOM
 10
14.945088069
 20
24.719810795
  0
VERTEX
  8
_CURVE
 62
8
  6
PHANTOM
 10
15.0512575405
 20
24.8059498817
  0
VERTEX
  8
_CURVE
 62
8
  6
PHANTOM
 10
15.158663563
 20
24.8905422847
  0
VERTEX
  8
_CURVE
 62
8
  6
PHANTOM
 10
15.2693777858
 20
24.9751695939
  0
VERTEX
  8
_CURVE
 62
8
  6
PHANTOM
 10
15.3813075603
 20
25.0581826603
  0
VERTEX
  8
_CURVE
 62
8
  6
PHANTOM
 10
15.494419019
 20
25.1395784739
  0
VERTEX
  8
_CURVE
 62
8
  6
PHANTOM
 10
15.6108322172
 20
25.2208345134
  0
VERTEX
  8
_CURVE
 62
8
  6
PHANTOM
 10
15.7284036979
 20
25.3004054869
  0
VERTEX
  8
_CURVE
 62
8
  6
PHANTOM
 10
15.8471004732
 20
25.378287931
  0
VERTEX
  8
_CURVE
 62
8
  6
PHANTOM
 10
15.9690620698
 20
25.4558391645
  0
VERTEX
  8
_CURVE
 62
8
  6
PHANTOM
 10
16.0921207436
 20
25.5316377996
  0
VERTEX
  8
_CURVE
 62
8
  6
PHANTOM
 10
16.216241467
 20
25.6056848782
  0
VERTEX
  8
_CURVE
 62
8
  6
PHANTOM
 10
16.3435577557
 20
25.6792127111
  0
VERTEX
  8
_CURVE
 62
8
  6
PHANTOM
 10
16.4719045073
 20
25.7509266337
  0
VERTEX
  8
_CURVE
 62
8
  6
PHANTOM
 10
16.601249422
 20
25.8208241688
  0
VERTEX
  8
_CURVE
 62
8
  6
PHANTOM
 10
16.7337716489
 20
25.890039355
  0
VERTEX
  8
_CURVE
 62
8
  6
PHANTOM
 10
16.8672578753
 20
25.9573770483
  0
VERTEX
  8
_CURVE
 62
8
  6
PHANTOM
 10
17.0016732974
 20
26.0228406519
  0
VERTEX
  8
_CURVE
 62
8
  6
PHANTOM
 10
17.1390748962
 20
26.0873977498
  0
VERTEX
  8
_CURVE
 62
8
  6
PHANTOM
 10
17.2773666981
 20
26.1500251351
  0
VERTEX
  8
_CURVE
 62
8
  6
PHANTOM
 10
17.4165167488
 20
26.2107218552
  0
VERTEX
  8
_CURVE
 62
8
  6
PHANTOM
 10
17.5591457796
 20
26.2705796559
  0
VERTEX
  8
_CURVE
 62
8
  6
PHANTOM
 10
17.702598385
 20
26.328436339
  0
VERTEX
  8
_CURVE
 62
8
  6
PHANTOM
 10
17.8468403227
 20
26.3842960946
  0
VERTEX
  8
_CURVE
 62
8
  6
PHANTOM
 10
17.9875279975
 20
26.4365939506
  0
VERTEX
  8
_CURVE
 62
8
  6
PHANTOM
 10
18.1288983414
 20
26.4870158509
  0
VERTEX
  8
_CURVE
 62
8
  6
PHANTOM
 10
18.2709230479
 20
26.5355621557
  0
VERTEX
  8
_CURVE
 62
8
  6
PHANTOM
 10
18.3995052844
 20
26.5777227607
  0
VERTEX
  8
_CURVE
 62
8
  6
PHANTOM
 10
18.5285760066
 20
26.6183613784
  0
VERTEX
  8
_CURVE
 62
8
  6
PHANTOM
 10
18.6581148275
 20
26.6574802544
  0
VERTEX
  8
_CURVE
 62
8
  6
PHANTOM
 10
18.7724923572
 20
26.6906530012
  0
VERTEX
  8
_CURVE
 62
8
  6
PHANTOM
 10
18.8872033822
 20
26.7226518776
  0
VERTEX
  8
_CURVE
 62
8
  6
PHANTOM
 10
19.0022346158
 20
26.7534784135
  0
VERTEX
  8
_CURVE
 62
8
  6
PHANTOM
 10
19.1554379441
 20
26.7925982342
  0
VERTEX
  8
_CURVE
 62
8
  6
PHANTOM
 10
19.3091530089
 20
26.829653775
  0
VERTEX
  8
_CURVE
 62
8
  6
PHANTOM
 10
19.4464804439
 20
26.8609226371
  0
VERTEX
  8
_CURVE
 62
8
  6
PHANTOM
 10
19.5841696636
 20
26.8905561251
  0
VERTEX
  8
_CURVE
 62
8
  6
PHANTOM
 10
19.707648943
 20
26.9156849554
  0
VERTEX
  8
_CURVE
 62
8
  6
PHANTOM
 10
19.8313865379
 20
26.9395078886
  0
VERTEX
  8
_CURVE
 62
8
  6
PHANTOM
 10
19.942770983
 20
26.9597994779
  0
VERTEX
  8
_CURVE
 62
8
  6
PHANTOM
 10
20.0543418633
 20
26.9790385641
  0
VERTEX
  8
_CURVE
 62
8
  6
PHANTOM
 10
20.1550006675
 20
26.9954694605
  0
VERTEX
  8
_CURVE
 62
8
  6
PHANTOM
 10
20.2557949131
 20
27.0110471103
  0
VERTEX
  8
_CURVE
 62
8
  6
PHANTOM
 10
20.3470007144
 20
27.0243919885
  0
VERTEX
  8
_CURVE
 62
8
  6
PHANTOM
 10
20.4383055893
 20
27.0370406088
  0
VERTEX
  8
_CURVE
 62
8
  6
PHANTOM
 10
20.6038287208
 20
27.0581686836
  0
VERTEX
  8
_CURVE
 62
8
  6
PHANTOM
 10
20.7541899263
 20
27.0753603334
  0
VERTEX
  8
_CURVE
 62
8
  6
PHANTOM
 10
20.8909982306
 20
27.0893574777
  0
VERTEX
  8
_CURVE
 62
8
  6
PHANTOM
 10
21.0155207016
 20
27.1007425296
  0
VERTEX
  8
_CURVE
 62
8
  6
PHANTOM
 10
21.1290052797
 20
27.1099983781
  0
VERTEX
  8
_CURVE
 62
8
  6
PHANTOM
 10
21.2325998564
 20
27.1175180855
  0
VERTEX
  8
_CURVE
 62
8
  6
PHANTOM
 10
21.3272052411
 20
27.123612386
  0
VERTEX
  8
_CURVE
 62
8
  6
PHANTOM
 10
21.4136871394
 20
27.1285393452
  0
VERTEX
  8
_CURVE
 62
8
  6
PHANTOM
 10
21.4929173541
 20
27.1325142159
  0
VERTEX
  8
_CURVE
 62
8
  6
PHANTOM
 10
21.5656142549
 20
27.1357086538
  0
VERTEX
  8
_CURVE
 62
8
  6
PHANTOM
 10
21.6322468938
 20
27.1382565666
  0
VERTEX
  8
_CURVE
 62
8
  6
PHANTOM
 10
21.6932561298
 20
27.1402709367
  0
VERTEX
  8
_CURVE
 62
8
  6
PHANTOM
 10
21.7490847909
 20
27.1418476297
  0
VERTEX
  8
_CURVE
 62
8
  6
PHANTOM
 10
21.8001801154
 20
27.1430674433
  0
VERTEX
  8
_CURVE
 62
8
  6
PHANTOM
 10
21.8468721576
 20
27.1439956749
  0
VERTEX
  8
_CURVE
 62
8
  6
PHANTOM
 10
21.88925539
 20
27.1446841488
  0
VERTEX
  8
_CURVE
 62
8
  6
PHANTOM
 10
21.9273824251
 20
27.1451782874
  0
SEQEND
  0
POLYLINE
  8
_CURVE
 62
4
  6
CONTINUOUS
 66
1
 70
0
  0
VERTEX
  8
_CURVE
 62
4
  6
CONTINUOUS
 10
22.8417382661
 20
11.1275417428
  0
VERTEX
  8
_CURVE
 62
4
  6
CONTINUOUS
 10
22.9143018912
 20
11.1325198407
  0
VERTEX
  8
_CURVE
 62
4
  6
CONTINUOUS
 10
23.0077794412
 20
11.1395977577
  0
VERTEX
  8
_CURVE
 62
4
  6
CONTINUOUS
 10
23.1089182725
 20
11.1481012564
  0
VERTEX
  8
_CURVE
 62
4
  6
CONTINUOUS
 10
23.218443173
 20
11.1583040364
  0
VERTEX
  8
_CURVE
 62
4
  6
CONTINUOUS
 10
23.3371379572
 20
11.1705329682
  0
VERTEX
  8
_CURVE
 62
4
  6
CONTINUOUS
 10
23.4658027507
 20
11.1851729258
  0
VERTEX
  8
_CURVE
 62
4
  6
CONTINUOUS
 10
23.6054672544
 20
11.2027030488
  0
VERTEX
  8
_CURVE
 62
4
  6
CONTINUOUS
 10
23.7573171621
 20
11.2237110731
  0
VERTEX
  8
_CURVE
 62
4
  6
CONTINUOUS
 10
23.839999338
 20
11.2360093978
  0
VERTEX
  8
_CURVE
 62
4
  6
CONTINUOUS
 10
23.9225860299
 20
11.2489021666
  0
VERTEX
  8
_CURVE
 62
4
  6
CONTINUOUS
 10
24.0127656904
 20
11.2636785641
  0
VERTEX
  8
_CURVE
 62
4
  6
CONTINUOUS
 10
24.1028197768
 20
11.2791657846
  0
VERTEX
  8
_CURVE
 62
4
  6
CONTINUOUS
 10
24.2013868471
 20
11.2969599923
  0
VERTEX
  8
_CURVE
 62
4
  6
CONTINUOUS
 10
24.2997867758
 20
11.3156088899
  0
VERTEX
  8
_CURVE
 62
4
  6
CONTINUOUS
 10
24.4077226176
 20
11.3370897436
  0
VERTEX
  8
_CURVE
 62
4
  6
CONTINUOUS
 10
24.5154347994
 20
11.3596036948
  0
VERTEX
  8
_CURVE
 62
4
  6
CONTINUOUS
 10
24.6338755112
 20
11.3856144687
  0
VERTEX
  8
_CURVE
 62
4
  6
CONTINUOUS
 10
24.752016825
 20
11.4128821817
  0
VERTEX
  8
_CURVE
 62
4
  6
CONTINUOUS
 10
24.8824285968
 20
11.4445336784
  0
VERTEX
  8
_CURVE
 62
4
  6
CONTINUOUS
 10
25.012438761
 20
11.4777270875
  0
VERTEX
  8
_CURVE
 62
4
  6
CONTINUOUS
 10
25.1570433832
 20
11.51659434
  0
VERTEX
  8
_CURVE
 62
4
  6
CONTINUOUS
 10
25.3010875014
 20
11.5573809716
  0
VERTEX
  8
_CURVE
 62
4
  6
CONTINUOUS
 10
25.4079618516
 20
11.5889985972
  0
VERTEX
  8
_CURVE
 62
4
  6
CONTINUOUS
 10
25.5144939509
 20
11.6216820476
  0
VERTEX
  8
_CURVE
 62
4
  6
CONTINUOUS
 10
25.620672898
 20
11.6554333739
  0
VERTEX
  8
_CURVE
 62
4
  6
CONTINUOUS
 10
25.7361283088
 20
11.6934860662
  0
VERTEX
  8
_CURVE
 62
4
  6
CONTINUOUS
 10
25.8511339412
 20
11.7328119913
  0
VERTEX
  8
_CURVE
 62
4
  6
CONTINUOUS
 10
25.96567357
 20
11.7734102019
  0
VERTEX
  8
_CURVE
 62
4
  6
CONTINUOUS
 10
26.0847030118
 20
11.8171385589
  0
VERTEX
  8
_CURVE
 62
4
  6
CONTINUOUS
 10
26.2031843919
 20
11.8622521659
  0
VERTEX
  8
_CURVE
 62
4
  6
CONTINUOUS
 10
26.3210949423
 20
11.9087513992
  0
VERTEX
  8
_CURVE
 62
4
  6
CONTINUOUS
 10
26.4380859091
 20
11.9565011286
  0
VERTEX
  8
_CURVE
 62
4
  6
CONTINUOUS
 10
26.5544690047
 20
12.0056305077
  0
VERTEX
  8
_CURVE
 62
4
  6
CONTINUOUS
 10
26.6702266439
 20
12.0561409149
  0
VERTEX
  8
_CURVE
 62
4
  6
CONTINUOUS
 10
26.7831188577
 20
12.1070157626
  0
VERTEX
  8
_CURVE
 62
4
  6
CONTINUOUS
 10
26.8953702989
 20
12.1592174827
  0
VERTEX
  8
_CURVE
 62
4
  6
CONTINUOUS
 10
27.0069585895
 20
12.2127435262
  0
VERTEX
  8
_CURVE
 62
4
  6
CONTINUOUS
 10
27.1163952034
 20
12.2668559008
  0
VERTEX
  8
_CURVE
 62
4
  6
CONTINUOUS
 10
27.2251438466
 20
12.3222565995
  0
VERTEX
  8
_CURVE
 62
4
  6
CONTINUOUS
 10
27.3331840132
 20
12.3789470007
  0
VERTEX
  8
_CURVE
 62
4
  6
CONTINUOUS
 10
27.4389242133
 20
12.436066728
  0
VERTEX
  8
_CURVE
 62
4
  6
CONTINUOUS
 10
27.5439388458
 20
12.4944380817
  0
VERTEX
  8
_CURVE
 62
4
  6
CONTINUOUS
 10
27.648210062
 20
12.5540592664
  0
VERTEX
  8
_CURVE
 62
4
  6
CONTINUOUS
 10
27.7501637994
 20
12.6140011573
  0
VERTEX
  8
_CURVE
 62
4
  6
CONTINUOUS
 10
27.8513551616
 20
12.6751506289
  0
VERTEX
  8
_CURVE
 62
4
  6
CONTINUOUS
 10
27.9517602533
 20
12.7375045802
  0
VERTEX
  8
_CURVE
 62
4
  6
CONTINUOUS
 10
28.0498142166
 20
12.8000633492
  0
VERTEX
  8
_CURVE
 62
4
  6
CONTINUOUS
 10
28.1470655441
 20
12.8637868591
  0
VERTEX
  8
_CURVE
 62
4
  6
CONTINUOUS
 10
28.2434967741
 20
12.9286755323
  0
VERTEX
  8
_CURVE
 62
4
  6
CONTINUOUS
 10
28.3375678664
 20
12.9936634002
  0
VERTEX
  8
_CURVE
 62
4
  6
CONTINUOUS
 10
28.4308079091
 20
13.0597748164
  0
VERTEX
  8
_CURVE
 62
4
  6
CONTINUOUS
 10
28.5231968386
 20
13.1270047246
  0
VERTEX
  8
_CURVE
 62
4
  6
CONTINUOUS
 10
28.613228505
 20
13.194224717
  0
VERTEX
  8
_CURVE
 62
4
  6
CONTINUOUS
 10
28.7023950368
 20
13.2625187931
  0
VERTEX
  8
_CURVE
 62
4
  6
CONTINUOUS
 10
28.7906742903
 20
13.3318836254
  0
VERTEX
  8
_CURVE
 62
4
  6
CONTINUOUS
 10
28.8766086926
 20
13.401143523
  0
VERTEX
  8
_CURVE
 62
4
  6
CONTINUOUS
 10
28.9616476098
 20
13.471433894
  0
VERTEX
  8
_CURVE
 62
4
  6
CONTINUOUS
 10
29.0457751705
 20
13.5427527705
  0
VERTEX
  8
_CURVE
 62
4
  6
CONTINUOUS
 10
29.1275945747
 20
13.6138821789
  0
VERTEX
  8
_CURVE
 62
4
  6
CONTINUOUS
 10
29.208496391
 20
13.6859962328
  0
VERTEX
  8
_CURVE
 62
4
  6
CONTINUOUS
 10
29.2884595883
 20
13.7590869959
  0
VERTEX
  8
_CURVE
 62
4
  6
CONTINUOUS
 10
29.3661539124
 20
13.8319043571
  0
VERTEX
  8
_CURVE
 62
4
  6
CONTINUOUS
 10
29.4429009904
 20
13.9056545199
  0
VERTEX
  8
_CURVE
 62
4
  6
CONTINUOUS
 10
29.5186814906
 20
13.9803335504
  0
VERTEX
  8
_CURVE
 62
4
  6
CONTINUOUS
 10
29.5922422895
 20
14.0546738236
  0
VERTEX
  8
_CURVE
 62
4
  6
CONTINUOUS
 10
29.6648347641
 20
14.129903723
  0
VERTEX
  8
_CURVE
 62
4
  6
CONTINUOUS
 10
29.7364440147
 20
14.2060184169
  0
VERTEX
  8
_CURVE
 62
4
  6
CONTINUOUS
 10
29.8059031677
 20
14.2817411378
  0
VERTEX
  8
_CURVE
 62
4
  6
CONTINUOUS
 10
29.8743765407
 20
14.3583048457
  0
VERTEX
  8
_CURVE
 62
4
  6
CONTINUOUS
 10
29.9418439765
 20
14.4356992181
  0
VERTEX
  8
_CURVE
 62
4
  6
CONTINUOUS
 10
30.0072283418
 20
14.5126538489
  0
VERTEX
  8
_CURVE
 62
4
  6
CONTINUOUS
 10
30.0716027255
 20
14.5903975994
  0
VERTEX
  8
_CURVE
 62
4
  6
CONTINUOUS
 10
30.13495059
 20
14.6689253509
  0
VERTEX
  8
_CURVE
 62
4
  6
CONTINUOUS
 10
30.1962970399
 20
14.7469950594
  0
VERTEX
  8
_CURVE
 62
4
  6
CONTINUOUS
 10
30.2566187658
 20
14.8258120448
  0
VERTEX
  8
_CURVE
 62
4
  6
CONTINUOUS
 10
30.3159019827
 20
14.9053686853
  0
VERTEX
  8
_CURVE
 62
4
  6
CONTINUOUS
 10
30.3732768775
 20
14.9844613559
  0
VERTEX
  8
_CURVE
 62
4
  6
CONTINUOUS
 10
30.4296124879
 20
15.0642523274
  0
VERTEX
  8
_CURVE
 62
4
  6
CONTINUOUS
 10
30.4848908647
 20
15.1447294042
  0
VERTEX
  8
_CURVE
 62
4
  6
CONTINUOUS
 10
30.5383446786
 20
15.2247426581
  0
VERTEX
  8
_CURVE
 62
4
  6
CONTINUOUS
 10
30.5907392476
 20
15.3054044402
  0
VERTEX
  8
_CURVE
 62
4
  6
CONTINUOUS
 10
30.6420606711
 20
15.3867080713
  0
VERTEX
  8
_CURVE
 62
4
  6
CONTINUOUS
 10
30.6916409394
 20
15.4675632815
  0
VERTEX
  8
_CURVE
 62
4
  6
CONTINUOUS
 10
30.7401503563
 20
15.5490268136
  0
VERTEX
  8
_CURVE
 62
4
  6
CONTINUOUS
 10
30.7875766794
 20
15.6310884357
  0
VERTEX
  8
_CURVE
 62
4
  6
CONTINUOUS
 10
30.8333401416
 20
15.7127102704
  0
VERTEX
  8
_CURVE
 62
4
  6
CONTINUOUS
 10
30.8780201131
 20
15.7948917977
  0
VERTEX
  8
_CURVE
 62
4
  6
CONTINUOUS
 10
30.92160148
 20
15.8776193212
  0
VERTEX
  8
_CURVE
 62
4
  6
CONTINUOUS
 10
30.9635848782
 20
15.9599138988
  0
VERTEX
  8
_CURVE
 62
4
  6
CONTINUOUS
 10
31.0044689221
 20
16.0427202759
  0
VERTEX
  8
_CURVE
 62
4
  6
CONTINUOUS
 10
31.0442423596
 20
16.1260301958
  0
VERTEX
  8
_CURVE
 62
4
  6
CONTINUOUS
 10
31.0824809584
 20
16.2089231571
  0
VERTEX
  8
_CURVE
 62
4
  6
CONTINUOUS
 10
31.1196118697
 20
16.2922882887
  0
VERTEX
  8
_CURVE
 62
4
  6
CONTINUOUS
 10
31.1556250629
 20
16.3761131595
  0
VERTEX
  8
_CURVE
 62
4
  6
CONTINUOUS
 10
31.1901569292
 20
16.4595153702
  0
VERTEX
  8
_CURVE
 62
4
  6
CONTINUOUS
 10
31.2235724817
 20
16.5433411487
  0
VERTEX
  8
_CURVE
 62
4
  6
CONTINUOUS
 10
31.2558600615
 20
16.6275759146
  0
VERTEX
  8
_CURVE
 62
4
  6
CONTINUOUS
 10
31.2867048081
 20
16.7113634786
  0
VERTEX
  8
_CURVE
 62
4
  6
CONTINUOUS
 10
31.316423646
 20
16.7955267874
  0
VERTEX
  8
_CURVE
 62
4
  6
CONTINUOUS
 10
31.3450077802
 20
16.880054972
  0
VERTEX
  8
_CURVE
 62
4
  6
CONTINUOUS
 10
31.372197645
 20
16.9641425139
  0
VERTEX
  8
_CURVE
 62
4
  6
CONTINUOUS
 10
31.3982575582
 20
17.0485641654
  0
VERTEX
  8
_CURVE
 62
4
  6
CONTINUOUS
 10
31.423179812
 20
17.1333066095
  0
VERTEX
  8
_CURVE
 62
4
  6
CONTINUOUS
 10
31.446808639
 20
17.217812631
  0
VERTEX
  8
_CURVE
 62
4
  6
CONTINUOUS
 10
31.4692993092
 20
17.3026080979
  0
VERTEX
  8
_CURVE
 62
4
  6
CONTINUOUS
 10
31.4906444606
 20
17.3876788918
  0
VERTEX
  8
_CURVE
 62
4
  6
CONTINUOUS
 10
31.5107830101
 20
17.4727759158
  0
VERTEX
  8
_CURVE
 62
4
  6
CONTINUOUS
 10
31.5297690505
 20
17.5581189767
  0
VERTEX
  8
_CURVE
 62
4
  6
CONTINUOUS
 10
31.5475966209
 20
17.6436943372
  0
VERTEX
  8
_CURVE
 62
4
  6
CONTINUOUS
 10
31.5641724414
 20
17.7290209792
  0
VERTEX
  8
_CURVE
 62
4
  6
CONTINUOUS
 10
31.5795914305
 20
17.8145493991
  0
VERTEX
  8
_CURVE
 62
4
  6
CONTINUOUS
 10
31.5938485571
 20
17.9002651829
  0
VERTEX
  8
_CURVE
 62
4
  6
CONTINUOUS
 10
31.606699317
 20
17.9845077898
  0
VERTEX
  8
_CURVE
 62
4
  6
CONTINUOUS
 10
31.618423821
 20
18.0689031409
  0
VERTEX
  8
_CURVE
 62
4
  6
CONTINUOUS
 10
31.6290184479
 20
18.1534375904
  0
VERTEX
  8
_CURVE
 62
4
  6
CONTINUOUS
 10
31.6383706261
 20
18.2370588631
  0
VERTEX
  8
_CURVE
 62
4
  6
CONTINUOUS
 10
31.6466143409
 20
18.3207885697
  0
VERTEX
  8
_CURVE
 62
4
  6
CONTINUOUS
 10
31.6537470083
 20
18.4046127484
  0
VERTEX
  8
_CURVE
 62
4
  6
CONTINUOUS
 10
31.6597713807
 20
18.4885969299
  0
VERTEX
  8
_CURVE
 62
4
  6
CONTINUOUS
 10
31.6646784942
 20
18.5726489899
  0
VERTEX
  8
_CURVE
 62
4
  6
CONTINUOUS
 10
31.6684668263
 20
18.6567561445
  0
VERTEX
  8
_CURVE
 62
4
  6
CONTINUOUS
 10
31.6719539818
 20
18.7779377334
  0
VERTEX
  8
_CURVE
 62
4
  6
CONTINUOUS
 10
31.6731167287
 20
18.8991543512
  0
SEQEND
  0
LINE
  8
_CURVE
 62
8
  6
PHANTOM
 10
22.2152269775
 20
10.6531842429
 11
22.1493793015
 21
10.6525848324
  0
POLYLINE
  8
_CURVE
 62
4
  6
CONTINUOUS
 66
1
 70
0
  0
VERTEX
  8
_CURVE
 62
4
  6
CONTINUOUS
 10
22.0689622658
 20
10.9773845723
  0
VERTEX
  8
_CURVE
 62
4
  6
CONTINUOUS
 10
22.0967642025
 20
10.9775702507
  0
VERTEX
  8
_CURVE
 62
4
  6
CONTINUOUS
 10
22.1245627501
 20
10.978125073
  0
VERTEX
  8
_CURVE
 62
4
  6
CONTINUOUS
 10
22.1523527622
 20
10.9790489549
  0
VERTEX
  8
_CURVE
 62
4
  6
CONTINUOUS
 10
22.1801290925
 20
10.9803418123
  0
VERTEX
  8
_CURVE
 62
4
  6
CONTINUOUS
 10
22.2085229517
 20
10.982046113
  0
VERTEX
  8
_CURVE
 62
4
  6
CONTINUOUS
 10
22.2368922255
 20
10.9841370463
  0
VERTEX
  8
_CURVE
 62
4
  6
CONTINUOUS
 10
22.2652320302
 20
10.9866152411
  0
VERTEX
  8
_CURVE
 62
4
  6
CONTINUOUS
 10
22.2935374821
 20
10.9894813262
  0
VERTEX
  8
_CURVE
 62
4
  6
CONTINUOUS
 10
22.3217687135
 20
10.9927316066
  0
VERTEX
  8
_CURVE
 62
4
  6
CONTINUOUS
 10
22.3499552061
 20
10.9963696711
  0
VERTEX
  8
_CURVE
 62
4
  6
CONTINUOUS
 10
22.3780913607
 20
11.0003957431
  0
VERTEX
  8
_CURVE
 62
4
  6
CONTINUOUS
 10
22.4061715782
 20
11.004810046
  0
VERTEX
  8
_CURVE
 62
4
  6
CONTINUOUS
 10
22.4339909346
 20
11.0095772032
  0
VERTEX
  8
_CURVE
 62
4
  6
CONTINUOUS
 10
22.4617443734
 20
11.0147274413
  0
VERTEX
  8
_CURVE
 62
4
  6
CONTINUOUS
 10
22.4894266397
 20
11.0202609013
  0
VERTEX
  8
_CURVE
 62
4
  6
CONTINUOUS
 10
22.5170324786
 20
11.0261777246
  0
VERTEX
  8
_CURVE
 62
4
  6
CONTINUOUS
 10
22.5443549181
 20
11.0324303736
  0
VERTEX
  8
_CURVE
 62
4
  6
CONTINUOUS
 10
22.5715909774
 20
11.039060662
  0
VERTEX
  8
_CURVE
 62
4
  6
CONTINUOUS
 10
22.598734765
 20
11.0460683301
  0
VERTEX
  8
_CURVE
 62
4
  6
CONTINUOUS
 10
22.6257803891
 20
11.0534531187
  0
VERTEX
  8
_CURVE
 62
4
  6
CONTINUOUS
 10
22.6525314748
 20
11.0611582735
  0
VERTEX
  8
_CURVE
 62
4
  6
CONTINUOUS
 10
22.6791747877
 20
11.0692337816
  0
VERTEX
  8
_CURVE
 62
4
  6
CONTINUOUS
 10
22.7057051402
 20
11.0776784586
  0
VERTEX
  8
_CURVE
 62
4
  6
CONTINUOUS
 10
22.7321173449
 20
11.08649112
  0
VERTEX
  8
_CURVE
 62
4
  6
CONTINUOUS
 10
22.7582291779
 20
11.0956074703
  0
VERTEX
  8
_CURVE
 62
4
  6
CONTINUOUS
 10
22.784214136
 20
11.1050849707
  0
VERTEX
  8
_CURVE
 62
4
  6
CONTINUOUS
 10
22.8100670202
 20
11.1149229057
  0
VERTEX
  8
_CURVE
 62
4
  6
CONTINUOUS
 10
22.8357826316
 20
11.1251205603
  0
VERTEX
  8
_CURVE
 62
4
  6
CONTINUOUS
 10
22.8417382661
 20
11.1275417428
  0
SEQEND
  0
LINE
  8
_CURVE
 62
8
  6
PHANTOM
 10
22.1493793015
 20
10.6525848324
 11
22.0938980673
 21
10.6523545167
  0
LINE
  8
_CURVE
 62
8
  6
PHANTOM
 10
22.0938980673
 20
10.6523545167
 11
22.0443798662
 21
10.652353844
  0
LINE
  8
_CURVE
 62
8
  6
PHANTOM
 10
22.0443798662
 20
10.652353844
 11
21.9889006905
 21
10.6525825192
  0
POLYLINE
  8
_CURVE
 62
8
  6
PHANTOM
 66
1
 70
0
  0
VERTEX
  8
_CURVE
 62
8
  6
PHANTOM
 10
21.9889006905
 20
10.6525825192
  0
VERTEX
  8
_CURVE
 62
8
  6
PHANTOM
 10
21.9230537085
 20
10.6531799804
  0
VERTEX
  8
_CURVE
 62
8
  6
PHANTOM
 10
21.8853931619
 20
10.6536806516
  0
VERTEX
  8
_CURVE
 62
8
  6
PHANTOM
 10
21.8442569571
 20
10.6543597402
  0
VERTEX
  8
_CURVE
 62
8
  6
PHANTOM
 10
21.7994777682
 20
10.65525601
  0
VERTEX
  8
_CURVE
 62
8
  6
PHANTOM
 10
21.7508584051
 20
10.6564145866
  0
VERTEX
  8
_CURVE
 62
8
  6
PHANTOM
 10
21.6981660611
 20
10.6578883133
  0
VERTEX
  8
_CURVE
 62
8
  6
PHANTOM
 10
21.6411488283
 20
10.6597386786
  0
VERTEX
  8
_CURVE
 62
8
  6
PHANTOM
 10
21.5795540725
 20
10.6620363874
  0
VERTEX
  8
_CURVE
 62
8
  6
PHANTOM
 10
21.5131322377
 20
10.6648621796
  0
VERTEX
  8
_CURVE
 62
8
  6
PHANTOM
 10
21.441612012
 20
10.6683090695
  0
VERTEX
  8
_CURVE
 62
8
  6
PHANTOM
 10
21.3646186262
 20
10.6724888425
  0
VERTEX
  8
_CURVE
 62
8
  6
PHANTOM
 10
21.2815376739
 20
10.6775455649
  0
VERTEX
  8
_CURVE
 62
8
  6
PHANTOM
 10
21.191767195
 20
10.683648238
  0
VERTEX
  8
_CURVE
 62
8
  6
PHANTOM
 10
21.0947076653
 20
10.6909946885
  0
VERTEX
  8
_CURVE
 62
8
  6
PHANTOM
 10
20.9896902288
 20
10.6998214134
  0
VERTEX
  8
_CURVE
 62
8
  6
PHANTOM
 10
20.8759605146
 20
10.7104128099
  0
VERTEX
  8
_CURVE
 62
8
  6
PHANTOM
 10
20.7527013585
 20
10.7231086982
  0
VERTEX
  8
_CURVE
 62
8
  6
PHANTOM
 10
20.6190798403
 20
10.738309106
  0
VERTEX
  8
_CURVE
 62
8
  6
PHANTOM
 10
20.4740254267
 20
10.7565119461
  0
VERTEX
  8
_CURVE
 62
8
  6
PHANTOM
 10
20.3163004043
 20
10.7783286966
  0
VERTEX
  8
_CURVE
 62
8
  6
PHANTOM
 10
20.2304118155
 20
10.7911017389
  0
VERTEX
  8
_CURVE
 62
8
  6
PHANTOM
 10
20.1446173869
 20
10.8044930716
  0
VERTEX
  8
_CURVE
 62
8
  6
PHANTOM
 10
20.0509297869
 20
10.8198418709
  0
VERTEX
  8
_CURVE
 62
8
  6
PHANTOM
 10
19.9573662644
 20
10.8359302647
  0
VERTEX
  8
_CURVE
 62
8
  6
PHANTOM
 10
19.8549498523
 20
10.8544168123
  0
VERTEX
  8
_CURVE
 62
8
  6
PHANTOM
 10
19.752697931
 20
10.8737931784
  0
VERTEX
  8
_CURVE
 62
8
  6
PHANTOM
 10
19.6405258077
 20
10.8961143063
  0
VERTEX
  8
_CURVE
 62
8
  6
PHANTOM
 10
19.5285730811
 20
10.9195118347
  0
VERTEX
  8
_CURVE
 62
8
  6
PHANTOM
 10
19.4054532689
 20
10.9465471487
  0
VERTEX
  8
_CURVE
 62
8
  6
PHANTOM
 10
19.2826282933
 20
10.9748928521
  0
VERTEX
  8
_CURVE
 62
8
  6
PHANTOM
 10
19.147028946
 20
11.0078000705
  0
VERTEX
  8
_CURVE
 62
8
  6
PHANTOM
 10
19.0118295185
 20
11.0423150244
  0
VERTEX
  8
_CURVE
 62
8
  6
PHANTOM
 10
18.8614317633
 20
11.0827356373
  0
VERTEX
  8
_CURVE
 62
8
  6
PHANTOM
 10
18.7115866915
 20
11.1251612424
  0
VERTEX
  8
_CURVE
 62
8
  6
PHANTOM
 10
18.6003841663
 20
11.1580566551
  0
VERTEX
  8
_CURVE
 62
8
  6
PHANTOM
 10
18.4895173277
 20
11.1920672816
  0
VERTEX
  8
_CURVE
 62
8
  6
PHANTOM
 10
18.3789991206
 20
11.2271951999
  0
VERTEX
  8
_CURVE
 62
8
  6
PHANTOM
 10
18.2588053037
 20
11.2668066232
  0
VERTEX
  8
_CURVE
 62
8
  6
PHANTOM
 10
18.1390585766
 20
11.3077507731
  0
VERTEX
  8
_CURVE
 62
8
  6
PHANTOM
 10
18.0197754272
 20
11.3500273173
  0
VERTEX
  8
_CURVE
 62
8
  6
PHANTOM
 10
17.8957924797
 20
11.3955723318
  0
VERTEX
  8
_CURVE
 62
8
  6
PHANTOM
 10
17.7723530507
 20
11.4425707515
  0
VERTEX
  8
_CURVE
 62
8
  6
PHANTOM
 10
17.6494777214
 20
11.4910249611
  0
VERTEX
  8
_CURVE
 62
8
  6
PHANTOM
 10
17.5275278091
 20
11.5407957409
  0
VERTEX
  8
_CURVE
 62
8
  6
PHANTOM
 10
17.4061803262
 20
11.59201771
  0
VERTEX
  8
_CURVE
 62
8
  6
PHANTOM
 10
17.2854562816
 20
11.6446920147
  0
VERTEX
  8
_CURVE
 62
8
  6
PHANTOM
 10
17.1676940766
 20
11.6977583836
  0
VERTEX
  8
_CURVE
 62
8
  6
PHANTOM
 10
17.0505717135
 20
11.752222264
  0
VERTEX
  8
_CURVE
 62
8
  6
PHANTOM
 10
16.9341092864
 20
11.8080833925
  0
VERTEX
  8
_CURVE
 62
8
  6
PHANTOM
 10
16.8198582917
 20
11.8645734242
  0
VERTEX
  8
_CURVE
 62
8
  6
PHANTOM
 10
16.7062912141
 20
11.9224259192
  0
VERTEX
  8
_CURVE
 62
8
  6
PHANTOM
 10
16.5934298583
 20
11.9816431646
  0
VERTEX
  8
_CURVE
 62
8
  6
PHANTOM
 10
16.4829379427
 20
12.0413268228
  0
VERTEX
  8
_CURVE
 62
8
  6
PHANTOM
 10
16.3731723555
 20
12.1023359887
  0
VERTEX
  8
_CURVE
 62
8
  6
PHANTOM
 10
16.2641531183
 20
12.1646690053
  0
VERTEX
  8
_CURVE
 62
8
  6
PHANTOM
 10
16.1575270754
 20
12.2273548931
  0
VERTEX
  8
_CURVE
 62
8
  6
PHANTOM
 10
16.0516657421
 20
12.2913235628
  0
VERTEX
  8
_CURVE
 62
8
  6
PHANTOM
 10
15.9465903932
 20
12.3565751746
  0
VERTEX
  8
_CURVE
 62
8
  6
PHANTOM
 10
15.8439369591
 20
12.4220657613
  0
VERTEX
  8
_CURVE
 62
8
  6
PHANTOM
 10
15.742087347
 20
12.4887994719
  0
VERTEX
  8
_CURVE
 62
8
  6
PHANTOM
 10
15.6410630211
 20
12.5567759075
  0
VERTEX
  8
_CURVE
 62
8
  6
PHANTOM
 10
15.5424804847
 20
12.6248775509
  0
VERTEX
  8
_CURVE
 62
8
  6
PHANTOM
 10
15.4447375895
 20
12.6941788679
  0
VERTEX
  8
_CURVE
 62
8
  6
PHANTOM
 10
15.3478540901
 20
12.7646766207
  0
VERTEX
  8
_CURVE
 62
8
  6
PHANTOM
 10
15.2534088816
 20
12.8351891179
  0
VERTEX
  8
_CURVE
 62
8
  6
PHANTOM
 10
15.159836183
 20
12.9068552609
  0
VERTEX
  8
_CURVE
 62
8
  6
PHANTOM
 10
15.0671577969
 20
12.9796741018
  0
VERTEX
  8
_CURVE
 62
8
  6
PHANTOM
 10
14.9769042175
 20
13.0524125446
  0
VERTEX
  8
_CURVE
 62
8
  6
PHANTOM
 10
14.8875569338
 20
13.1262613596
  0
VERTEX
  8
_CURVE
 62
8
  6
PHANTOM
 10
14.7991361532
 20
13.2012169191
  0
VERTEX
  8
_CURVE
 62
8
  6
PHANTOM
 10
14.7131131267
 20
13.2759978877
  0
VERTEX
  8
_CURVE
 62
8
  6
PHANTOM
 10
14.6280250038
 20
13.3518408494
  0
VERTEX
  8
_CURVE
 62
8
  6
PHANTOM
 10
14.5438912921
 20
13.4287411688
  0
VERTEX
  8
_CURVE
 62
8
  6
PHANTOM
 10
14.4621104445
 20
13.5053860205
  0
VERTEX
  8
_CURVE
 62
8
  6
PHANTOM
 10
14.3812925637
 20
13.5830454729
  0
VERTEX
  8
_CURVE
 62
8
  6
PHANTOM
 10
14.3014589049
 20
13.6617162172
  0
VERTEX
  8
_CURVE
 62
8
  6
PHANTOM
 10
14.2239316224
 20
13.7400625238
  0
VERTEX
  8
_CURVE
 62
8
  6
PHANTOM
 10
14.1473951962
 20
13.8193770671
  0
VERTEX
  8
_CURVE
 62
8
  6
PHANTOM
 10
14.0718681348
 20
13.8996533114
  0
VERTEX
  8
_CURVE
 62
8
  6
PHANTOM
 10
13.9985836597
 20
13.9795435759
  0
VERTEX
  8
_CURVE
 62
8
  6
PHANTOM
 10
13.9263123463
 20
14.0603514458
  0
VERTEX
  8
_CURVE
 62
8
  6
PHANTOM
 10
13.855072952
 20
14.1420704621
  0
VERTEX
  8
_CURVE
 62
8
  6
PHANTOM
 10
13.786001861
 20
14.2233619074
  0
VERTEX
  8
_CURVE
 62
8
  6
PHANTOM
 10
13.7179677147
 20
14.305523059
  0
VERTEX
  8
_CURVE
 62
8
  6
PHANTOM
 10
13.6509902134
 20
14.3885477228
  0
VERTEX
  8
_CURVE
 62
8
  6
PHANTOM
 10
13.586102894
 20
14.4711211387
  0
VERTEX
  8
_CURVE
 62
8
  6
PHANTOM
 10
13.5222753216
 20
14.5545164214
  0
VERTEX
  8
_CURVE
 62
8
  6
PHANTOM
 10
13.4595240402
 20
14.6387245177
  0
VERTEX
  8
_CURVE
 62
8
  6
PHANTOM
 10
13.39877156
 20
14.7224706788
  0
VERTEX
  8
_CURVE
 62
8
  6
PHANTOM
 10
13.3390970815
 20
14.806988288
  0
VERTEX
  8
_CURVE
 62
8
  6
PHANTOM
 10
13.2805179231
 20
14.8922686795
  0
VERTEX
  8
_CURVE
 62
8
  6
PHANTOM
 10
13.223846814
 20
14.9770956743
  0
VERTEX
  8
_CURVE
 62
8
  6
PHANTOM
 10
13.1682748745
 20
15.0626467319
  0
VERTEX
  8
_CURVE
 62
8
  6
PHANTOM
 10
13.1138195143
 20
15.1489127269
  0
VERTEX
  8
_CURVE
 62
8
  6
PHANTOM
 10
13.0611923612
 20
15.2347344258
  0
VERTEX
  8
_CURVE
 62
8
  6
PHANTOM
 10
13.0096838254
 20
15.3212321229
  0
VERTEX
  8
_CURVE
 62
8
  6
PHANTOM
 10
12.9593082005
 20
15.4083944686
  0
VERTEX
  8
_CURVE
 62
8
  6
PHANTOM
 10
12.9106825627
 20
15.495118714
  0
VERTEX
  8
_CURVE
 62
8
  6
PHANTOM
 10
12.8631911639
 20
15.582469172
  0
VERTEX
  8
_CURVE
 62
8
  6
PHANTOM
 10
12.8168492744
 20
15.6704348354
  0
VERTEX
  8
_CURVE
 62
8
  6
PHANTOM
 10
12.7721879995
 20
15.7579765614
  0
VERTEX
  8
_CURVE
 62
8
  6
PHANTOM
 10
12.7286792791
 20
15.8460967555
  0
VERTEX
  8
_CURVE
 62
8
  6
PHANTOM
 10
12.686337679
 20
15.9347835846
  0
VERTEX
  8
_CURVE
 62
8
  6
PHANTOM
 10
12.6456173494
 20
16.0230540895
  0
VERTEX
  8
_CURVE
 62
8
  6
PHANTOM
 10
12.6060647849
 20
16.111853987
  0
VERTEX
  8
_CURVE
 62
8
  6
PHANTOM
 10
12.5676915575
 20
16.2011698369
  0
VERTEX
  8
_CURVE
 62
8
  6
PHANTOM
 10
12.5308860161
 20
16.290061226
  0
VERTEX
  8
_CURVE
 62
8
  6
PHANTOM
 10
12.4952593946
 20
16.3794315816
  0
VERTEX
  8
_CURVE
 62
8
  6
PHANTOM
 10
12.460824092
 20
16.4692676488
  0
VERTEX
  8
_CURVE
 62
8
  6
PHANTOM
 10
12.4279163553
 20
16.5586573068
  0
VERTEX
  8
_CURVE
 62
8
  6
PHANTOM
 10
12.396199646
 20
16.648476442
  0
VERTEX
  8
_CURVE
 62
8
  6
PHANTOM
 10
12.3656850584
 20
16.7387110154
  0
VERTEX
  8
_CURVE
 62
8
  6
PHANTOM
 10
12.3366513654
 20
16.8284986244
  0
VERTEX
  8
_CURVE
 62
8
  6
PHANTOM
 10
12.3088173783
 20
16.9186653412
  0
VERTEX
  8
_CURVE
 62
8
  6
PHANTOM
 10
12.2821921388
 20
17.0091963357
  0
VERTEX
  8
_CURVE
 62
8
  6
PHANTOM
 10
12.2569429036
 20
17.0994955594
  0
VERTEX
  8
_CURVE
 62
8
  6
PHANTOM
 10
12.2329044424
 20
17.1901245989
  0
VERTEX
  8
_CURVE
 62
8
  6
PHANTOM
 10
12.2100852354
 20
17.2810682688
  0
VERTEX
  8
_CURVE
 62
8
  6
PHANTOM
 10
12.1885512576
 20
17.3720598575
  0
VERTEX
  8
_CURVE
 62
8
  6
PHANTOM
 10
12.1682454308
 20
17.4633333851
  0
VERTEX
  8
_CURVE
 62
8
  6
PHANTOM
 10
12.1491749168
 20
17.5548729908
  0
VERTEX
  8
_CURVE
 62
8
  6
PHANTOM
 10
12.1314402852
 20
17.6461628233
  0
VERTEX
  8
_CURVE
 62
8
  6
PHANTOM
 10
12.114940598
 20
17.7376838844
  0
VERTEX
  8
_CURVE
 62
8
  6
PHANTOM
 10
12.0996818035
 20
17.8294198995
  0
VERTEX
  8
_CURVE
 62
8
  6
PHANTOM
 10
12.0859261966
 20
17.9195923766
  0
VERTEX
  8
_CURVE
 62
8
  6
PHANTOM
 10
12.0733744822
 20
18.0099402388
  0
VERTEX
  8
_CURVE
 62
8
  6
PHANTOM
 10
12.0620310041
 20
18.1004477273
  0
VERTEX
  8
_CURVE
 62
8
  6
PHANTOM
 10
12.0520167547
 20
18.1899868999
  0
VERTEX
  8
_CURVE
 62
8
  6
PHANTOM
 10
12.0431886051
 20
18.2796507045
  0
VERTEX
  8
_CURVE
 62
8
  6
PHANTOM
 10
12.0355496225
 20
18.3694234109
  0
VERTEX
  8
_CURVE
 62
8
  6
PHANTOM
 10
12.0290971477
 20
18.4593742171
  0
VERTEX
  8
_CURVE
 62
8
  6
PHANTOM
 10
12.023840995
 20
18.5494030928
  0
VERTEX
  8
_CURVE
 62
8
  6
PHANTOM
 10
12.019783001
 20
18.6394947597
  0
VERTEX
  8
_CURVE
 62
8
  6
PHANTOM
 10
12.0170160944
 20
18.7260261887
  0
VERTEX
  8
_CURVE
 62
8
  6
PHANTOM
 10
12.0153555691
 20
18.8125848193
  0
VERTEX
  8
_CURVE
 62
8
  6
PHANTOM
 10
12.0148019152
 20
18.8991540658
  0
SEQEND
  0
POLYLINE
  8
_CURVE
 62
4
  6
CONTINUOUS
 66
1
 70
0
  0
VERTEX
  8
_CURVE
 62
4
  6
CONTINUOUS
 10
21.296180379
 20
11.1275417427
  0
VERTEX
  8
_CURVE
 62
4
  6
CONTINUOUS
 10
21.3021871227
 20
11.1250998797
  0
VERTEX
  8
_CURVE
 62
4
  6
CONTINUOUS
 10
21.3279041881
 20
11.1149024844
  0
VERTEX
  8
_CURVE
 62
4
  6
CONTINUOUS
 10
21.3537585278
 20
11.1050648433
  0
VERTEX
  8
_CURVE
 62
4
  6
CONTINUOUS
 10
21.3797449401
 20
11.0955876723
  0
VERTEX
  8
_CURVE
 62
4
  6
CONTINUOUS
 10
21.4058582233
 20
11.0864716874
  0
VERTEX
  8
_CURVE
 62
4
  6
CONTINUOUS
 10
21.432271873
 20
11.0776594338
  0
VERTEX
  8
_CURVE
 62
4
  6
CONTINUOUS
 10
21.4588036701
 20
11.0692151998
  0
VERTEX
  8
_CURVE
 62
4
  6
CONTINUOUS
 10
21.4854484335
 20
11.061140168
  0
VERTEX
  8
_CURVE
 62
4
  6
CONTINUOUS
 10
21.5122009819
 20
11.0534355209
  0
VERTEX
  8
_CURVE
 62
4
  6
CONTINUOUS
 10
21.5392480824
 20
11.0460512777
  0
VERTEX
  8
_CURVE
 62
4
  6
CONTINUOUS
 10
21.5663933422
 20
11.0390441903
  0
VERTEX
  8
_CURVE
 62
4
  6
CONTINUOUS
 10
21.5936308463
 20
11.0324145239
  0
VERTEX
  8
_CURVE
 62
4
  6
CONTINUOUS
 10
21.6209546801
 20
11.0261625436
  0
VERTEX
  8
_CURVE
 62
4
  6
CONTINUOUS
 10
21.6485618483
 20
11.0202464461
  0
VERTEX
  8
_CURVE
 62
4
  6
CONTINUOUS
 10
21.6762454306
 20
11.0147137452
  0
VERTEX
  8
_CURVE
 62
4
  6
CONTINUOUS
 10
21.7040002335
 20
11.00956428
  0
VERTEX
  8
_CURVE
 62
4
  6
CONTINUOUS
 10
21.7318210636
 20
11.0047978898
  0
VERTEX
  8
_CURVE
 62
4
  6
CONTINUOUS
 10
21.7599028923
 20
11.0003843487
  0
VERTEX
  8
_CURVE
 62
4
  6
CONTINUOUS
 10
21.7880406853
 20
10.9963590733
  0
VERTEX
  8
_CURVE
 62
4
  6
CONTINUOUS
 10
21.8162286967
 20
10.9927219015
  0
VERTEX
  8
_CURVE
 62
4
  6
CONTINUOUS
 10
21.844461181
 20
10.9894726708
  0
VERTEX
  8
_CURVE
 62
4
  6
CONTINUOUS
 10
21.8727675284
 20
10.9866078123
  0
VERTEX
  8
_CURVE
 62
4
  6
CONTINUOUS
 10
21.9011080279
 20
10.984130864
  0
VERTEX
  8
_CURVE
 62
4
  6
CONTINUOUS
 10
21.9294780086
 20
10.982040998
  0
VERTEX
  8
_CURVE
 62
4
  6
CONTINUOUS
 10
21.9578727997
 20
10.9803373866
  0
VERTEX
  8
_CURVE
 62
4
  6
CONTINUOUS
 10
21.9856281884
 20
10.9790456797
  0
VERTEX
  8
_CURVE
 62
4
  6
CONTINUOUS
 10
22.0133981116
 20
10.9781224737
  0
VERTEX
  8
_CURVE
 62
4
  6
CONTINUOUS
 10
22.0411778884
 20
10.9775685205
  0
VERTEX
  8
_CURVE
 62
4
  6
CONTINUOUS
 10
22.0689628375
 20
10.9773845723
  0
SEQEND
  0
POLYLINE
  8
_CURVE
 62
4
  6
CONTINUOUS
 66
1
 70
0
  0
VERTEX
  8
_CURVE
 62
4
  6
CONTINUOUS
 10
21.8957864596
 20
26.6947315456
  0
VERTEX
  8
_CURVE
 62
4
  6
CONTINUOUS
 10
21.8549589642
 20
26.6940683435
  0
VERTEX
  8
_CURVE
 62
4
  6
CONTINUOUS
 10
21.8099816726
 20
26.693174201
  0
VERTEX
  8
_CURVE
 62
4
  6
CONTINUOUS
 10
21.7607630584
 20
26.6919991907
  0
VERTEX
  8
_CURVE
 62
4
  6
CONTINUOUS
 10
21.7069851874
 20
26.6904804155
  0
VERTEX
  8
_CURVE
 62
4
  6
CONTINUOUS
 10
21.6482173193
 20
26.6885400498
  0
VERTEX
  8
_CURVE
 62
4
  6
CONTINUOUS
 10
21.5840330435
 20
26.6860857583
  0
VERTEX
  8
_CURVE
 62
4
  6
CONTINUOUS
 10
21.5140081192
 20
26.6830087325
  0
VERTEX
  8
_CURVE
 62
4
  6
CONTINUOUS
 10
21.4376914938
 20
26.6791800335
  0
VERTEX
  8
_CURVE
 62
4
  6
CONTINUOUS
 10
21.3543917366
 20
26.6744343651
  0
VERTEX
  8
_CURVE
 62
4
  6
CONTINUOUS
 10
21.2632697916
 20
26.6685644631
  0
VERTEX
  8
_CURVE
 62
4
  6
CONTINUOUS
 10
21.1634929683
 20
26.6613218807
  0
VERTEX
  8
_CURVE
 62
4
  6
CONTINUOUS
 10
21.0541942092
 20
26.6524074319
  0
VERTEX
  8
_CURVE
 62
4
  6
CONTINUOUS
 10
20.9342696098
 20
26.6414427673
  0
VERTEX
  8
_CURVE
 62
4
  6
CONTINUOUS
 10
20.80252157
 20
26.6279633596
  0
VERTEX
  8
_CURVE
 62
4
  6
CONTINUOUS
 10
20.6577327749
 20
26.6114088455
  0
VERTEX
  8
_CURVE
 62
4
  6
CONTINUOUS
 10
20.4983563962
 20
26.5910653846
  0
VERTEX
  8
_CURVE
 62
4
  6
CONTINUOUS
 10
20.4104495761
 20
26.5788875106
  0
VERTEX
  8
_CURVE
 62
4
  6
CONTINUOUS
 10
20.3226437261
 20
26.5660401034
  0
VERTEX
  8
_CURVE
 62
4
  6
CONTINUOUS
 10
20.2256131722
 20
26.5510441289
  0
VERTEX
  8
_CURVE
 62
4
  6
CONTINUOUS
 10
20.1287197849
 20
26.5352278784
  0
VERTEX
  8
_CURVE
 62
4
  6
CONTINUOUS
 10
20.0213308448
 20
26.5167099302
  0
VERTEX
  8
_CURVE
 62
4
  6
CONTINUOUS
 10
19.9141308316
 20
26.4971806547
  0
VERTEX
  8
_CURVE
 62
4
  6
CONTINUOUS
 10
19.7950540361
 20
26.4742550534
  0
VERTEX
  8
_CURVE
 62
4
  6
CONTINUOUS
 10
19.676240616
 20
26.450075774
  0
VERTEX
  8
_CURVE
 62
4
  6
CONTINUOUS
 10
19.5437734497
 20
26.4215662178
  0
VERTEX
  8
_CURVE
 62
4
  6
CONTINUOUS
 10
19.4116736191
 20
26.3914876826
  0
VERTEX
  8
_CURVE
 62
4
  6
CONTINUOUS
 10
19.2638313058
 20
26.3558478863
  0
VERTEX
  8
_CURVE
 62
4
  6
CONTINUOUS
 10
19.1165040164
 20
26.3182284806
  0
VERTEX
  8
_CURVE
 62
4
  6
CONTINUOUS
 10
19.0059006824
 20
26.2885885116
  0
VERTEX
  8
_CURVE
 62
4
  6
CONTINUOUS
 10
18.8956212508
 20
26.2578258539
  0
VERTEX
  8
_CURVE
 62
4
  6
CONTINUOUS
 10
18.7856810788
 20
26.2259401618
  0
VERTEX
  8
_CURVE
 62
4
  6
CONTINUOUS
 10
18.6611928261
 20
26.1883466136
  0
VERTEX
  8
_CURVE
 62
4
  6
CONTINUOUS
 10
18.5371800212
 20
26.14930056
  0
VERTEX
  8
_CURVE
 62
4
  6
CONTINUOUS
 10
18.413660285
 20
26.1087998318
  0
VERTEX
  8
_CURVE
 62
4
  6
CONTINUOUS
 10
18.2772537838
 20
26.0621738002
  0
VERTEX
  8
_CURVE
 62
4
  6
CONTINUOUS
 10
18.1415059311
 20
26.0137572261
  0
VERTEX
  8
_CURVE
 62
4
  6
CONTINUOUS
 10
18.0064470834
 20
25.9635518945
  0
VERTEX
  8
_CURVE
 62
4
  6
CONTINUOUS
 10
17.8680141012
 20
25.9099419178
  0
VERTEX
  8
_CURVE
 62
4
  6
CONTINUOUS
 10
17.7303775905
 20
25.8544311078
  0
VERTEX
  8
_CURVE
 62
4
  6
CONTINUOUS
 10
17.593570027
 20
25.797016481
  0
VERTEX
  8
_CURVE
 62
4
  6
CONTINUOUS
 10
17.4601373346
 20
25.7388135716
  0
VERTEX
  8
_CURVE
 62
4
  6
CONTINUOUS
 10
17.3275667221
 20
25.6787770466
  0
VERTEX
  8
_CURVE
 62
4
  6
CONTINUOUS
 10
17.1958905019
 20
25.6169100205
  0
VERTEX
  8
_CURVE
 62
4
  6
CONTINUOUS
 10
17.0671178273
 20
25.5541947069
  0
VERTEX
  8
_CURVE
 62
4
  6
CONTINUOUS
 10
16.9392777721
 20
25.4897054388
  0
VERTEX
  8
_CURVE
 62
4
  6
CONTINUOUS
 10
16.8124041535
 20
25.4234406269
  0
VERTEX
  8
_CURVE
 62
4
  6
CONTINUOUS
 10
16.6886152543
 20
25.3565455558
  0
VERTEX
  8
_CURVE
 62
4
  6
CONTINUOUS
 10
16.5658244634
 20
25.2879359791
  0
VERTEX
  8
_CURVE
 62
4
  6
CONTINUOUS
 10
16.4440626238
 20
25.2176159146
  0
VERTEX
  8
_CURVE
 62
4
  6
CONTINUOUS
 10
16.3253995433
 20
25.1468247437
  0
VERTEX
  8
_CURVE
 62
4
  6
CONTINUOUS
 10
16.2077959192
 20
25.074386351
  0
VERTEX
  8
_CURVE
 62
4
  6
CONTINUOUS
 10
16.0912870546
 20
25.000302596
  0
VERTEX
  8
_CURVE
 62
4
  6
CONTINUOUS
 10
15.9779436671
 20
24.9259329312
  0
VERTEX
  8
_CURVE
 62
4
  6
CONTINUOUS
 10
15.8657199366
 20
24.8499812655
  0
VERTEX
  8
_CURVE
 62
4
  6
CONTINUOUS
 10
15.7546451835
 20
24.7724513252
  0
VERTEX
  8
_CURVE
 62
4
  6
CONTINUOUS
 10
15.6467620816
 20
24.6948177518
  0
VERTEX
  8
_CURVE
 62
4
  6
CONTINUOUS
 10
15.5400493475
 20
24.6156740153
  0
VERTEX
  8
_CURVE
 62
4
  6
CONTINUOUS
 10
15.4345420317
 20
24.5350270664
  0
VERTEX
  8
_CURVE
 62
4
  6
CONTINUOUS
 10
15.3322347625
 20
24.4544507291
  0
VERTEX
  8
_CURVE
 62
4
  6
CONTINUOUS
 10
15.2311507093
 20
24.3724377626
  0
VERTEX
  8
_CURVE
 62
4
  6
CONTINUOUS
 10
15.1313190966
 20
24.2889917388
  0
VERTEX
  8
_CURVE
 62
4
  6
CONTINUOUS
 10
15.0346612335
 20
24.205770605
  0
VERTEX
  8
_CURVE
 62
4
  6
CONTINUOUS
 10
14.939267701
 20
24.1211858084
  0
VERTEX
  8
_CURVE
 62
4
  6
CONTINUOUS
 10
14.8451702029
 20
24.0352484773
  0
VERTEX
  8
_CURVE
 62
4
  6
CONTINUOUS
 10
14.7541966816
 20
23.9496836995
  0
VERTEX
  8
_CURVE
 62
4
  6
CONTINUOUS
 10
14.6645303987
 20
23.8628355896
  0
VERTEX
  8
_CURVE
 62
4
  6
CONTINUOUS
 10
14.5762021301
 20
23.7747104173
  0
VERTEX
  8
_CURVE
 62
4
  6
CONTINUOUS
 10
14.490931433
 20
23.6870778175
  0
VERTEX
  8
_CURVE
 62
4
  6
CONTINUOUS
 10
14.4070028411
 20
23.5982353411
  0
VERTEX
  8
_CURVE
 62
4
  6
CONTINUOUS
 10
14.3244427428
 20
23.5081946303
  0
VERTEX
  8
_CURVE
 62
4
  6
CONTINUOUS
 10
14.2448452231
 20
23.4187548859
  0
VERTEX
  8
_CURVE
 62
4
  6
CONTINUOUS
 10
14.1666198997
 20
23.328186931
  0
VERTEX
  8
_CURVE
 62
4
  6
CONTINUOUS
 10
14.0897978701
 20
23.2365033953
  0
VERTEX
  8
_CURVE
 62
4
  6
CONTINUOUS
 10
14.0158352354
 20
23.1454987838
  0
VERTEX
  8
_CURVE
 62
4
  6
CONTINUOUS
 10
13.9432759681
 20
23.0534431522
  0
VERTEX
  8
_CURVE
 62
4
  6
CONTINUOUS
 10
13.8721433055
 20
22.9603467084
  0
VERTEX
  8
_CURVE
 62
4
  6
CONTINUOUS
 10
13.8037387477
 20
22.8679738928
  0
VERTEX
  8
_CURVE
 62
4
  6
CONTINUOUS
 10
13.7367577353
 20
22.7746262318
  0
VERTEX
  8
_CURVE
 62
4
  6
CONTINUOUS
 10
13.671227186
 20
22.6803216574
  0
VERTEX
  8
_CURVE
 62
4
  6
CONTINUOUS
 10
13.608285399
 20
22.5867575592
  0
VERTEX
  8
_CURVE
 62
4
  6
CONTINUOUS
 10
13.5467929492
 20
22.4922993148
  0
VERTEX
  8
_CURVE
 62
4
  6
CONTINUOUS
 10
13.4867732167
 20
22.3969590758
  0
VERTEX
  8
_CURVE
 62
4
  6
CONTINUOUS
 10
13.429201003
 20
22.3023418059
  0
VERTEX
  8
_CURVE
 62
4
  6
CONTINUOUS
 10
13.3730963255
 20
22.2069011778
  0
VERTEX
  8
_CURVE
 62
4
  6
CONTINUOUS
 10
13.3184795039
 20
22.1106552565
  0
VERTEX
  8
_CURVE
 62
4
  6
CONTINUOUS
 10
13.2661758449
 20
22.0151189173
  0
VERTEX
  8
_CURVE
 62
4
  6
CONTINUOUS
 10
13.2153571558
 20
21.9188376858
  0
VERTEX
  8
_CURVE
 62
4
  6
CONTINUOUS
 10
13.1660462162
 20
21.8218298941
  0
VERTEX
  8
_CURVE
 62
4
  6
CONTINUOUS
 10
13.1189353643
 20
21.7255119688
  0
VERTEX
  8
_CURVE
 62
4
  6
CONTINUOUS
 10
13.0733277292
 20
21.6285215903
  0
VERTEX
  8
_CURVE
 62
4
  6
CONTINUOUS
 10
13.0292393403
 20
21.5308744772
  0
VERTEX
  8
_CURVE
 62
4
  6
CONTINUOUS
 10
12.9872386983
 20
21.4338901779
  0
VERTEX
  8
_CURVE
 62
4
  6
CONTINUOUS
 10
12.9467507747
 20
21.3363043515
  0
VERTEX
  8
_CURVE
 62
4
  6
CONTINUOUS
 10
12.9077933092
 20
21.238139662
  0
VERTEX
  8
_CURVE
 62
4
  6
CONTINUOUS
 10
12.870831043
 20
21.1406267219
  0
VERTEX
  8
_CURVE
 62
4
  6
CONTINUOUS
 10
12.8353947718
 20
21.0425898735
  0
VERTEX
  8
_CURVE
 62
4
  6
CONTINUOUS
 10
12.8014998634
 20
20.9440479105
  0
VERTEX
  8
_CURVE
 62
4
  6
CONTINUOUS
 10
12.769531126
 20
20.8461833573
  0
VERTEX
  8
_CURVE
 62
4
  6
CONTINUOUS
 10
12.7390946853
 20
20.7478640198
  0
VERTEX
  8
_CURVE
 62
4
  6
CONTINUOUS
 10
12.7102023839
 20
20.649110102
  0
VERTEX
  8
_CURVE
 62
4
  6
CONTINUOUS
 10
12.6831551268
 20
20.5510236286
  0
VERTEX
  8
_CURVE
 62
4
  6
CONTINUOUS
 10
12.6576415621
 20
20.4525540252
  0
VERTEX
  8
_CURVE
 62
4
  6
CONTINUOUS
 10
12.6336730818
 20
20.3537235683
  0
VERTEX
  8
_CURVE
 62
4
  6
CONTINUOUS
 10
12.6114187373
 20
20.2552801813
  0
VERTEX
  8
_CURVE
 62
4
  6
CONTINUOUS
 10
12.5907068476
 20
20.1565244244
  0
VERTEX
  8
_CURVE
 62
4
  6
CONTINUOUS
 10
12.5715460521
 20
20.0574775753
  0
VERTEX
  8
_CURVE
 62
4
  6
CONTINUOUS
 10
12.5540058734
 20
19.9585225983
  0
VERTEX
  8
_CURVE
 62
4
  6
CONTINUOUS
 10
12.538021116
 20
19.8593222371
  0
VERTEX
  8
_CURVE
 62
4
  6
CONTINUOUS
 10
12.5235987855
 20
19.7598989644
  0
VERTEX
  8
_CURVE
 62
4
  6
CONTINUOUS
 10
12.5108615945
 20
19.6612337685
  0
VERTEX
  8
_CURVE
 62
4
  6
CONTINUOUS
 10
12.4996686401
 20
19.5623947369
  0
VERTEX
  8
_CURVE
 62
4
  6
CONTINUOUS
 10
12.490024749
 20
19.4634046382
  0
VERTEX
  8
_CURVE
 62
4
  6
CONTINUOUS
 10
12.4821209445
 20
19.3668089106
  0
VERTEX
  8
_CURVE
 62
4
  6
CONTINUOUS
 10
12.4756956022
 20
19.270110892
  0
VERTEX
  8
_CURVE
 62
4
  6
CONTINUOUS
 10
12.4707513492
 20
19.1733301446
  0
VERTEX
  8
_CURVE
 62
4
  6
CONTINUOUS
 10
12.4674466017
 20
19.0819642024
  0
VERTEX
  8
_CURVE
 62
4
  6
CONTINUOUS
 10
12.4654632261
 20
18.9905645821
  0
VERTEX
  8
_CURVE
 62
4
  6
CONTINUOUS
 10
12.4648019152
 20
18.8991538306
  0
SEQEND
  0
LINE
  8
_CURVE
 62
4
  6
CONTINUOUS
 10
21.9652754443
 20
26.6955357881
 11
21.8957864596
 21
26.6947315456
  0
LINE
  8
_CURVE
 62
4
  6
CONTINUOUS
 10
22.0212064472
 20
26.6958860468
 11
21.9652754443
 21
26.6955357881
  0
LINE
  8
_CURVE
 62
4
  6
CONTINUOUS
 10
22.0688940495
 20
26.6959753357
 11
22.0212064472
 21
26.6958860468
  0
LINE
  8
_CURVE
 62
4
  6
CONTINUOUS
 10
22.1167121967
 20
26.6958860468
 11
22.0690245943
 21
26.6959753357
  0
LINE
  8
_CURVE
 62
4
  6
CONTINUOUS
 10
22.1726431995
 20
26.6955357881
 11
22.1167121967
 21
26.6958860468
  0
LINE
  8
_CURVE
 62
8
  6
PHANTOM
 10
21.9273824251
 20
27.1451782874
 11
21.9918472791
 21
27.1457440771
  0
LINE
  8
_CURVE
 62
8
  6
PHANTOM
 10
21.9918472791
 20
27.1457440771
 11
22.0449247147
 21
27.1459552877
  0
LINE
  8
_CURVE
 62
8
  6
PHANTOM
 10
22.0449247147
 20
27.1459552877
 11
22.0929939292
 21
27.1459552877
  0
LINE
  8
_CURVE
 62
8
  6
PHANTOM
 10
22.0929939292
 20
27.1459552877
 11
22.1460713648
 21
27.1457440771
  0
POLYLINE
  8
_CURVE
 62
8
  6
PHANTOM
 66
1
 70
0
  0
VERTEX
  8
_CURVE
 62
8
  6
PHANTOM
 10
22.1460713648
 20
27.1457440771
  0
VERTEX
  8
_CURVE
 62
8
  6
PHANTOM
 10
22.2105362188
 20
27.1451782874
  0
VERTEX
  8
_CURVE
 62
8
  6
PHANTOM
 10
22.2486632538
 20
27.1446841488
  0
VERTEX
  8
_CURVE
 62
8
  6
PHANTOM
 10
22.2910464863
 20
27.1439956749
  0
VERTEX
  8
_CURVE
 62
8
  6
PHANTOM
 10
22.3377385285
 20
27.1430674433
  0
VERTEX
  8
_CURVE
 62
8
  6
PHANTOM
 10
22.388833853
 20
27.1418476297
  0
VERTEX
  8
_CURVE
 62
8
  6
PHANTOM
 10
22.4446625141
 20
27.1402709367
  0
VERTEX
  8
_CURVE
 62
8
  6
PHANTOM
 10
22.50567175
 20
27.1382565666
  0
VERTEX
  8
_CURVE
 62
8
  6
PHANTOM
 10
22.572304389
 20
27.1357086538
  0
VERTEX
  8
_CURVE
 62
8
  6
PHANTOM
 10
22.6450012898
 20
27.1325142159
  0
VERTEX
  8
_CURVE
 62
8
  6
PHANTOM
 10
22.7242315045
 20
27.1285393452
  0
VERTEX
  8
_CURVE
 62
8
  6
PHANTOM
 10
22.8107134028
 20
27.123612386
  0
VERTEX
  8
_CURVE
 62
8
  6
PHANTOM
 10
22.9053187875
 20
27.1175180855
  0
VERTEX
  8
_CURVE
 62
8
  6
PHANTOM
 10
23.0089133642
 20
27.1099983781
  0
VERTEX
  8
_CURVE
 62
8
  6
PHANTOM
 10
23.1223979423
 20
27.1007425296
  0
VERTEX
  8
_CURVE
 62
8
  6
PHANTOM
 10
23.2469204133
 20
27.0893574777
  0
VERTEX
  8
_CURVE
 62
8
  6
PHANTOM
 10
23.3837287176
 20
27.0753603334
  0
VERTEX
  8
_CURVE
 62
8
  6
PHANTOM
 10
23.5340899231
 20
27.0581686836
  0
VERTEX
  8
_CURVE
 62
8
  6
PHANTOM
 10
23.6996130545
 20
27.0370406088
  0
VERTEX
  8
_CURVE
 62
8
  6
PHANTOM
 10
23.7909179295
 20
27.0243919885
  0
VERTEX
  8
_CURVE
 62
8
  6
PHANTOM
 10
23.8821237308
 20
27.0110471103
  0
VERTEX
  8
_CURVE
 62
8
  6
PHANTOM
 10
23.9829179764
 20
26.9954694605
  0
VERTEX
  8
_CURVE
 62
8
  6
PHANTOM
 10
24.0835767806
 20
26.9790385641
  0
VERTEX
  8
_CURVE
 62
8
  6
PHANTOM
 10
24.1951476609
 20
26.9597994779
  0
VERTEX
  8
_CURVE
 62
8
  6
PHANTOM
 10
24.306532106
 20
26.9395078886
  0
VERTEX
  8
_CURVE
 62
8
  6
PHANTOM
 10
24.4302697009
 20
26.9156849554
  0
VERTEX
  8
_CURVE
 62
8
  6
PHANTOM
 10
24.5537489803
 20
26.8905561251
  0
VERTEX
  8
_CURVE
 62
8
  6
PHANTOM
 10
24.6914382
 20
26.8609226371
  0
VERTEX
  8
_CURVE
 62
8
  6
PHANTOM
 10
24.828765635
 20
26.829653775
  0
VERTEX
  8
_CURVE
 62
8
  6
PHANTOM
 10
24.9824806998
 20
26.7925982342
  0
VERTEX
  8
_CURVE
 62
8
  6
PHANTOM
 10
25.1356840281
 20
26.7534784135
  0
VERTEX
  8
_CURVE
 62
8
  6
PHANTOM
 10
25.2507152617
 20
26.7226518776
  0
VERTEX
  8
_CURVE
 62
8
  6
PHANTOM
 10
25.3654262867
 20
26.6906530012
  0
VERTEX
  8
_CURVE
 62
8
  6
PHANTOM
 10
25.4798038164
 20
26.6574802544
  0
VERTEX
  8
_CURVE
 62
8
  6
PHANTOM
 10
25.6093426373
 20
26.6183613784
  0
VERTEX
  8
_CURVE
 62
8
  6
PHANTOM
 10
25.7384133595
 20
26.5777227607
  0
VERTEX
  8
_CURVE
 62
8
  6
PHANTOM
 10
25.866995596
 20
26.5355621557
  0
VERTEX
  8
_CURVE
 62
8
  6
PHANTOM
 10
26.0090203025
 20
26.4870158509
  0
VERTEX
  8
_CURVE
 62
8
  6
PHANTOM
 10
26.1503906464
 20
26.4365939506
  0
VERTEX
  8
_CURVE
 62
8
  6
PHANTOM
 10
26.2910783212
 20
26.3842960946
  0
VERTEX
  8
_CURVE
 62
8
  6
PHANTOM
 10
26.4353202589
 20
26.328436339
  0
VERTEX
  8
_CURVE
 62
8
  6
PHANTOM
 10
26.5787728643
 20
26.2705796559
  0
VERTEX
  8
_CURVE
 62
8
  6
PHANTOM
 10
26.721401895
 20
26.2107218552
  0
VERTEX
  8
_CURVE
 62
8
  6
PHANTOM
 10
26.8605519458
 20
26.1500251351
  0
VERTEX
  8
_CURVE
 62
8
  6
PHANTOM
 10
26.9988437477
 20
26.0873977498
  0
VERTEX
  8
_CURVE
 62
8
  6
PHANTOM
 10
27.1362453465
 20
26.0228406519
  0
VERTEX
  8
_CURVE
 62
8
  6
PHANTOM
 10
27.2706607686
 20
25.9573770483
  0
VERTEX
  8
_CURVE
 62
8
  6
PHANTOM
 10
27.404146995
 20
25.890039355
  0
VERTEX
  8
_CURVE
 62
8
  6
PHANTOM
 10
27.5366692219
 20
25.8208241688
  0
VERTEX
  8
_CURVE
 62
8
  6
PHANTOM
 10
27.6660141366
 20
25.7509266337
  0
VERTEX
  8
_CURVE
 62
8
  6
PHANTOM
 10
27.7943608882
 20
25.6792127111
  0
VERTEX
  8
_CURVE
 62
8
  6
PHANTOM
 10
27.9216771769
 20
25.6056848782
  0
VERTEX
  8
_CURVE
 62
8
  6
PHANTOM
 10
28.0457979003
 20
25.5316377996
  0
VERTEX
  8
_CURVE
 62
8
  6
PHANTOM
 10
28.1688565741
 20
25.4558391645
  0
VERTEX
  8
_CURVE
 62
8
  6
PHANTOM
 10
28.2908181707
 20
25.378287931
  0
VERTEX
  8
_CURVE
 62
8
  6
PHANTOM
 10
28.409514946
 20
25.3004054869
  0
VERTEX
  8
_CURVE
 62
8
  6
PHANTOM
 10
28.5270864267
 20
25.2208345134
  0
VERTEX
  8
_CURVE
 62
8
  6
PHANTOM
 10
28.6434996249
 20
25.1395784739
  0
VERTEX
  8
_CURVE
 62
8
  6
PHANTOM
 10
28.7566110836
 20
25.0581826603
  0
VERTEX
  8
_CURVE
 62
8
  6
PHANTOM
 10
28.8685408581
 20
24.9751695939
  0
VERTEX
  8
_CURVE
 62
8
  6
PHANTOM
 10
28.9792550809
 20
24.8905422847
  0
VERTEX
  8
_CURVE
 62
8
  6
PHANTOM
 10
29.0866611034
 20
24.8059498817
  0
VERTEX
  8
_CURVE
 62
8
  6
PHANTOM
 10
29.1928305749
 20
24.719810795
  0
VERTEX
  8
_CURVE
 62
8
  6
PHANTOM
 10
29.2977295513
 20
24.6321292051
  0
VERTEX
  8
_CURVE
 62
8
  6
PHANTOM
 10
29.3993355755
 20
24.5446479478
  0
VERTEX
  8
_CURVE
 62
8
  6
PHANTOM
 10
29.499655561
 20
24.4556949119
  0
VERTEX
  8
_CURVE
 62
8
  6
PHANTOM
 10
29.5986579983
 20
24.3652777832
  0
VERTEX
  8
_CURVE
 62
8
  6
PHANTOM
 10
29.6944195185
 20
24.2752093886
  0
VERTEX
  8
_CURVE
 62
8
  6
PHANTOM
 10
29.7888499202
 20
24.1837466374
  0
VERTEX
  8
_CURVE
 62
8
  6
PHANTOM
 10
29.8819150427
 20
24.0908953349
  0
VERTEX
  8
_CURVE
 62
8
  6
PHANTOM
 10
29.9718001596
 20
23.9985204661
  0
VERTEX
  8
_CURVE
 62
8
  6
PHANTOM
 10
30.0603107667
 20
23.9048277557
  0
VERTEX
  8
_CURVE
 62
8
  6
PHANTOM
 10
30.1474175319
 20
23.8098284932
  0
VERTEX
  8
_CURVE
 62
8
  6
PHANTOM
 10
30.2314363685
 20
23.7154207505
  0
VERTEX
  8
_CURVE
 62
8
  6
PHANTOM
 10
30.3140453861
 20
23.6197771917
  0
VERTEX
  8
_CURVE
 62
8
  6
PHANTOM
 10
30.39521268
 20
23.522907321
  0
VERTEX
  8
_CURVE
 62
8
  6
PHANTOM
 10
30.4733987194
 20
23.4267057893
  0
VERTEX
  8
_CURVE
 62
8
  6
PHANTOM
 10
30.5501382911
 20
23.3293465567
  0
VERTEX
  8
_CURVE
 62
8
  6
PHANTOM
 10
30.6254028101
 20
23.2308427002
  0
VERTEX
  8
_CURVE
 62
8
  6
PHANTOM
 10
30.6978111943
 20
23.1330634162
  0
VERTEX
  8
_CURVE
 62
8
  6
PHANTOM
 10
30.7687438576
 20
23.0342084837
  0
VERTEX
  8
_CURVE
 62
8
  6
PHANTOM
 10
30.8381735277
 20
22.9342922696
  0
VERTEX
  8
_CURVE
 62
8
  6
PHANTOM
 10
30.9048937722
 20
22.8351109516
  0
VERTEX
  8
_CURVE
 62
8
  6
PHANTOM
 10
30.9701090683
 20
22.7349338049
  0
VERTEX
  8
_CURVE
 62
8
  6
PHANTOM
 10
31.0337914685
 20
22.6337754752
  0
VERTEX
  8
_CURVE
 62
8
  6
PHANTOM
 10
31.0949031983
 20
22.5333412527
  0
VERTEX
  8
_CURVE
 62
8
  6
PHANTOM
 10
31.1544822727
 20
22.4319903227
  0
VERTEX
  8
_CURVE
 62
8
  6
PHANTOM
 10
31.2125058836
 20
22.3297409362
  0
VERTEX
  8
_CURVE
 62
8
  6
PHANTOM
 10
31.2680955548
 20
22.2282023546
  0
VERTEX
  8
_CURVE
 62
8
  6
PHANTOM
 10
31.322130159
 20
22.1258279283
  0
VERTEX
  8
_CURVE
 62
8
  6
PHANTOM
 10
31.374584778
 20
22.0226351801
  0
VERTEX
  8
_CURVE
 62
8
  6
PHANTOM
 10
31.4247213225
 20
21.9201308133
  0
VERTEX
  8
_CURVE
 62
8
  6
PHANTOM
 10
31.4732780857
 20
21.816868725
  0
VERTEX
  8
_CURVE
 62
8
  6
PHANTOM
 10
31.5202347419
 20
21.7128693156
  0
VERTEX
  8
_CURVE
 62
8
  6
PHANTOM
 10
31.5649827812
 20
21.6095412139
  0
VERTEX
  8
_CURVE
 62
8
  6
PHANTOM
 10
31.6081339359
 20
21.5055361879
  0
VERTEX
  8
_CURVE
 62
8
  6
PHANTOM
 10
31.6496692228
 20
21.4008754169
  0
VERTEX
  8
_CURVE
 62
8
  6
PHANTOM
 10
31.6890924665
 20
21.2968695163
  0
VERTEX
  8
_CURVE
 62
8
  6
PHANTOM
 10
31.726902133
 20
21.192266297
  0
VERTEX
  8
_CURVE
 62
8
  6
PHANTOM
 10
31.763079823
 20
21.0870876069
  0
VERTEX
  8
_CURVE
 62
8
  6
PHANTOM
 10
31.7972126762
 20
20.9825980267
  0
VERTEX
  8
_CURVE
 62
8
  6
PHANTOM
 10
31.8297193399
 20
20.8775911817
  0
VERTEX
  8
_CURVE
 62
8
  6
PHANTOM
 10
31.8605855412
 20
20.7720905289
  0
VERTEX
  8
_CURVE
 62
8
  6
PHANTOM
 10
31.8894881943
 20
20.6672754017
  0
VERTEX
  8
_CURVE
 62
8
  6
PHANTOM
 10
31.9167588796
 20
20.5620239387
  0
VERTEX
  8
_CURVE
 62
8
  6
PHANTOM
 10
31.9423845449
 20
20.4563599738
  0
VERTEX
  8
_CURVE
 62
8
  6
PHANTOM
 10
31.9661834557
 20
20.3510837822
  0
VERTEX
  8
_CURVE
 62
8
  6
PHANTOM
 10
31.9883379926
 20
20.2454493214
  0
VERTEX
  8
_CURVE
 62
8
  6
PHANTOM
 10
32.0088377134
 20
20.1394813319
  0
VERTEX
  8
_CURVE
 62
8
  6
PHANTOM
 10
32.0276070894
 20
20.0335915285
  0
VERTEX
  8
_CURVE
 62
8
  6
PHANTOM
 10
32.0447150184
 20
19.9274206146
  0
VERTEX
  8
_CURVE
 62
8
  6
PHANTOM
 10
32.0601532278
 20
19.8209940272
  0
VERTEX
  8
_CURVE
 62
8
  6
PHANTOM
 10
32.0737895859
 20
19.7153634851
  0
VERTEX
  8
_CURVE
 62
8
  6
PHANTOM
 10
32.0857742771
 20
19.6095329912
  0
VERTEX
  8
_CURVE
 62
8
  6
PHANTOM
 10
32.0961015271
 20
19.5035284262
  0
VERTEX
  8
_CURVE
 62
8
  6
PHANTOM
 10
32.1045661835
 20
19.4000776427
  0
VERTEX
  8
_CURVE
 62
8
  6
PHANTOM
 10
32.1114480173
 20
19.2965093449
  0
VERTEX
  8
_CURVE
 62
8
  6
PHANTOM
 10
32.116743875
 20
19.1928467655
  0
VERTEX
  8
_CURVE
 62
8
  6
PHANTOM
 10
32.1202837664
 20
19.0949805217
  0
VERTEX
  8
_CURVE
 62
8
  6
PHANTOM
 10
32.1224083254
 20
18.9970749753
  0
VERTEX
  8
_CURVE
 62
8
  6
PHANTOM
 10
32.1231167287
 20
18.8991540658
  0
SEQEND
  0
POLYLINE
  8
_CURVE
 62
4
  6
CONTINUOUS
 66
1
 70
0
  0
VERTEX
  8
_CURVE
 62
4
  6
CONTINUOUS
 10
31.6731167287
 20
18.8991538306
  0
VERTEX
  8
_CURVE
 62
4
  6
CONTINUOUS
 10
31.6724554178
 20
18.9905645821
  0
VERTEX
  8
_CURVE
 62
4
  6
CONTINUOUS
 10
31.6704720422
 20
19.0819642024
  0
VERTEX
  8
_CURVE
 62
4
  6
CONTINUOUS
 10
31.6671672947
 20
19.1733301446
  0
VERTEX
  8
_CURVE
 62
4
  6
CONTINUOUS
 10
31.6622230416
 20
19.270110892
  0
VERTEX
  8
_CURVE
 62
4
  6
CONTINUOUS
 10
31.6557976994
 20
19.3668089106
  0
VERTEX
  8
_CURVE
 62
4
  6
CONTINUOUS
 10
31.6478938949
 20
19.4634046382
  0
VERTEX
  8
_CURVE
 62
4
  6
CONTINUOUS
 10
31.6382500037
 20
19.5623947369
  0
VERTEX
  8
_CURVE
 62
4
  6
CONTINUOUS
 10
31.6270570494
 20
19.6612337685
  0
VERTEX
  8
_CURVE
 62
4
  6
CONTINUOUS
 10
31.6143198584
 20
19.7598989644
  0
VERTEX
  8
_CURVE
 62
4
  6
CONTINUOUS
 10
31.5998975279
 20
19.8593222371
  0
VERTEX
  8
_CURVE
 62
4
  6
CONTINUOUS
 10
31.5839127705
 20
19.9585225983
  0
VERTEX
  8
_CURVE
 62
4
  6
CONTINUOUS
 10
31.5663725917
 20
20.0574775753
  0
VERTEX
  8
_CURVE
 62
4
  6
CONTINUOUS
 10
31.5472117962
 20
20.1565244244
  0
VERTEX
  8
_CURVE
 62
4
  6
CONTINUOUS
 10
31.5264999066
 20
20.2552801813
  0
VERTEX
  8
_CURVE
 62
4
  6
CONTINUOUS
 10
31.5042455621
 20
20.3537235683
  0
VERTEX
  8
_CURVE
 62
4
  6
CONTINUOUS
 10
31.4802770818
 20
20.4525540252
  0
VERTEX
  8
_CURVE
 62
4
  6
CONTINUOUS
 10
31.4547635171
 20
20.5510236286
  0
VERTEX
  8
_CURVE
 62
4
  6
CONTINUOUS
 10
31.42771626
 20
20.649110102
  0
VERTEX
  8
_CURVE
 62
4
  6
CONTINUOUS
 10
31.3988239586
 20
20.7478640198
  0
VERTEX
  8
_CURVE
 62
4
  6
CONTINUOUS
 10
31.3683875178
 20
20.8461833573
  0
VERTEX
  8
_CURVE
 62
4
  6
CONTINUOUS
 10
31.3364187805
 20
20.9440479105
  0
VERTEX
  8
_CURVE
 62
4
  6
CONTINUOUS
 10
31.3025238721
 20
21.0425898735
  0
VERTEX
  8
_CURVE
 62
4
  6
CONTINUOUS
 10
31.2670876009
 20
21.1406267219
  0
VERTEX
  8
_CURVE
 62
4
  6
CONTINUOUS
 10
31.2301253346
 20
21.238139662
  0
VERTEX
  8
_CURVE
 62
4
  6
CONTINUOUS
 10
31.1911678691
 20
21.3363043515
  0
VERTEX
  8
_CURVE
 62
4
  6
CONTINUOUS
 10
31.1506799456
 20
21.4338901779
  0
VERTEX
  8
_CURVE
 62
4
  6
CONTINUOUS
 10
31.1086793036
 20
21.5308744772
  0
VERTEX
  8
_CURVE
 62
4
  6
CONTINUOUS
 10
31.0645909147
 20
21.6285215903
  0
VERTEX
  8
_CURVE
 62
4
  6
CONTINUOUS
 10
31.0189832796
 20
21.7255119688
  0
VERTEX
  8
_CURVE
 62
4
  6
CONTINUOUS
 10
30.9718724277
 20
21.8218298941
  0
VERTEX
  8
_CURVE
 62
4
  6
CONTINUOUS
 10
30.9225614881
 20
21.9188376858
  0
VERTEX
  8
_CURVE
 62
4
  6
CONTINUOUS
 10
30.8717427989
 20
22.0151189173
  0
VERTEX
  8
_CURVE
 62
4
  6
CONTINUOUS
 10
30.81943914
 20
22.1106552565
  0
VERTEX
  8
_CURVE
 62
4
  6
CONTINUOUS
 10
30.7648223184
 20
22.2069011778
  0
VERTEX
  8
_CURVE
 62
4
  6
CONTINUOUS
 10
30.7087176409
 20
22.3023418059
  0
VERTEX
  8
_CURVE
 62
4
  6
CONTINUOUS
 10
30.6511454272
 20
22.3969590758
  0
VERTEX
  8
_CURVE
 62
4
  6
CONTINUOUS
 10
30.5911256947
 20
22.4922993148
  0
VERTEX
  8
_CURVE
 62
4
  6
CONTINUOUS
 10
30.5296332449
 20
22.5867575592
  0
VERTEX
  8
_CURVE
 62
4
  6
CONTINUOUS
 10
30.4666914579
 20
22.6803216574
  0
VERTEX
  8
_CURVE
 62
4
  6
CONTINUOUS
 10
30.4011609086
 20
22.7746262318
  0
VERTEX
  8
_CURVE
 62
4
  6
CONTINUOUS
 10
30.3341798961
 20
22.8679738928
  0
VERTEX
  8
_CURVE
 62
4
  6
CONTINUOUS
 10
30.2657753384
 20
22.9603467084
  0
VERTEX
  8
_CURVE
 62
4
  6
CONTINUOUS
 10
30.1946426758
 20
23.0534431522
  0
VERTEX
  8
_CURVE
 62
4
  6
CONTINUOUS
 10
30.1220834085
 20
23.1454987838
  0
VERTEX
  8
_CURVE
 62
4
  6
CONTINUOUS
 10
30.0481207738
 20
23.2365033953
  0
VERTEX
  8
_CURVE
 62
4
  6
CONTINUOUS
 10
29.9712987442
 20
23.328186931
  0
VERTEX
  8
_CURVE
 62
4
  6
CONTINUOUS
 10
29.8930734208
 20
23.4187548859
  0
VERTEX
  8
_CURVE
 62
4
  6
CONTINUOUS
 10
29.8134759011
 20
23.5081946303
  0
VERTEX
  8
_CURVE
 62
4
  6
CONTINUOUS
 10
29.7309158028
 20
23.5982353411
  0
VERTEX
  8
_CURVE
 62
4
  6
CONTINUOUS
 10
29.6469872109
 20
23.6870778175
  0
VERTEX
  8
_CURVE
 62
4
  6
CONTINUOUS
 10
29.5617165138
 20
23.7747104173
  0
VERTEX
  8
_CURVE
 62
4
  6
CONTINUOUS
 10
29.4733882452
 20
23.8628355896
  0
VERTEX
  8
_CURVE
 62
4
  6
CONTINUOUS
 10
29.3837219623
 20
23.9496836995
  0
VERTEX
  8
_CURVE
 62
4
  6
CONTINUOUS
 10
29.292748441
 20
24.0352484773
  0
VERTEX
  8
_CURVE
 62
4
  6
CONTINUOUS
 10
29.1986509429
 20
24.1211858084
  0
VERTEX
  8
_CURVE
 62
4
  6
CONTINUOUS
 10
29.1032574104
 20
24.205770605
  0
VERTEX
  8
_CURVE
 62
4
  6
CONTINUOUS
 10
29.0065995473
 20
24.2889917388
  0
VERTEX
  8
_CURVE
 62
4
  6
CONTINUOUS
 10
28.9067679346
 20
24.3724377626
  0
VERTEX
  8
_CURVE
 62
4
  6
CONTINUOUS
 10
28.8056838814
 20
24.4544507291
  0
VERTEX
  8
_CURVE
 62
4
  6
CONTINUOUS
 10
28.7033766122
 20
24.5350270664
  0
VERTEX
  8
_CURVE
 62
4
  6
CONTINUOUS
 10
28.5978692964
 20
24.6156740153
  0
VERTEX
  8
_CURVE
 62
4
  6
CONTINUOUS
 10
28.4911565623
 20
24.6948177518
  0
VERTEX
  8
_CURVE
 62
4
  6
CONTINUOUS
 10
28.3832734604
 20
24.7724513252
  0
VERTEX
  8
_CURVE
 62
4
  6
CONTINUOUS
 10
28.2721987073
 20
24.8499812655
  0
VERTEX
  8
_CURVE
 62
4
  6
CONTINUOUS
 10
28.1599749768
 20
24.9259329312
  0
VERTEX
  8
_CURVE
 62
4
  6
CONTINUOUS
 10
28.0466315893
 20
25.000302596
  0
VERTEX
  8
_CURVE
 62
4
  6
CONTINUOUS
 10
27.9301227247
 20
25.074386351
  0
VERTEX
  8
_CURVE
 62
4
  6
CONTINUOUS
 10
27.8125191006
 20
25.1468247437
  0
VERTEX
  8
_CURVE
 62
4
  6
CONTINUOUS
 10
27.6938560201
 20
25.2176159146
  0
VERTEX
  8
_CURVE
 62
4
  6
CONTINUOUS
 10
27.5720941805
 20
25.2879359791
  0
VERTEX
  8
_CURVE
 62
4
  6
CONTINUOUS
 10
27.4493033896
 20
25.3565455558
  0
VERTEX
  8
_CURVE
 62
4
  6
CONTINUOUS
 10
27.3255144904
 20
25.4234406269
  0
VERTEX
  8
_CURVE
 62
4
  6
CONTINUOUS
 10
27.1986408717
 20
25.4897054388
  0
VERTEX
  8
_CURVE
 62
4
  6
CONTINUOUS
 10
27.0708008166
 20
25.5541947069
  0
VERTEX
  8
_CURVE
 62
4
  6
CONTINUOUS
 10
26.942028142
 20
25.6169100205
  0
VERTEX
  8
_CURVE
 62
4
  6
CONTINUOUS
 10
26.8103519218
 20
25.6787770466
  0
VERTEX
  8
_CURVE
 62
4
  6
CONTINUOUS
 10
26.6777813093
 20
25.7388135716
  0
VERTEX
  8
_CURVE
 62
4
  6
CONTINUOUS
 10
26.5443486169
 20
25.797016481
  0
VERTEX
  8
_CURVE
 62
4
  6
CONTINUOUS
 10
26.4075410533
 20
25.8544311078
  0
VERTEX
  8
_CURVE
 62
4
  6
CONTINUOUS
 10
26.2699045427
 20
25.9099419178
  0
VERTEX
  8
_CURVE
 62
4
  6
CONTINUOUS
 10
26.1314715605
 20
25.9635518945
  0
VERTEX
  8
_CURVE
 62
4
  6
CONTINUOUS
 10
25.9964127128
 20
26.0137572261
  0
VERTEX
  8
_CURVE
 62
4
  6
CONTINUOUS
 10
25.8606648601
 20
26.0621738002
  0
VERTEX
  8
_CURVE
 62
4
  6
CONTINUOUS
 10
25.7242583588
 20
26.1087998318
  0
VERTEX
  8
_CURVE
 62
4
  6
CONTINUOUS
 10
25.6007386227
 20
26.14930056
  0
VERTEX
  8
_CURVE
 62
4
  6
CONTINUOUS
 10
25.4767258178
 20
26.1883466136
  0
VERTEX
  8
_CURVE
 62
4
  6
CONTINUOUS
 10
25.3522375651
 20
26.2259401618
  0
VERTEX
  8
_CURVE
 62
4
  6
CONTINUOUS
 10
25.2422973931
 20
26.2578258539
  0
VERTEX
  8
_CURVE
 62
4
  6
CONTINUOUS
 10
25.1320179615
 20
26.2885885116
  0
VERTEX
  8
_CURVE
 62
4
  6
CONTINUOUS
 10
25.0214146275
 20
26.3182284806
  0
VERTEX
  8
_CURVE
 62
4
  6
CONTINUOUS
 10
24.8740873381
 20
26.3558478863
  0
VERTEX
  8
_CURVE
 62
4
  6
CONTINUOUS
 10
24.7262450248
 20
26.3914876826
  0
VERTEX
  8
_CURVE
 62
4
  6
CONTINUOUS
 10
24.5941451942
 20
26.4215662178
  0
VERTEX
  8
_CURVE
 62
4
  6
CONTINUOUS
 10
24.4616780279
 20
26.450075774
  0
VERTEX
  8
_CURVE
 62
4
  6
CONTINUOUS
 10
24.3428646078
 20
26.4742550534
  0
VERTEX
  8
_CURVE
 62
4
  6
CONTINUOUS
 10
24.2237878123
 20
26.4971806547
  0
VERTEX
  8
_CURVE
 62
4
  6
CONTINUOUS
 10
24.1165877991
 20
26.5167099302
  0
VERTEX
  8
_CURVE
 62
4
  6
CONTINUOUS
 10
24.009198859
 20
26.5352278784
  0
VERTEX
  8
_CURVE
 62
4
  6
CONTINUOUS
 10
23.9123054717
 20
26.5510441289
  0
VERTEX
  8
_CURVE
 62
4
  6
CONTINUOUS
 10
23.8152749178
 20
26.5660401034
  0
VERTEX
  8
_CURVE
 62
4
  6
CONTINUOUS
 10
23.7274690678
 20
26.5788875106
  0
VERTEX
  8
_CURVE
 62
4
  6
CONTINUOUS
 10
23.6395622477
 20
26.5910653846
  0
VERTEX
  8
_CURVE
 62
4
  6
CONTINUOUS
 10
23.480185869
 20
26.6114088455
  0
VERTEX
  8
_CURVE
 62
4
  6
CONTINUOUS
 10
23.3353970739
 20
26.6279633596
  0
VERTEX
  8
_CURVE
 62
4
  6
CONTINUOUS
 10
23.2036490341
 20
26.6414427673
  0
VERTEX
  8
_CURVE
 62
4
  6
CONTINUOUS
 10
23.0837244347
 20
26.6524074319
  0
VERTEX
  8
_CURVE
 62
4
  6
CONTINUOUS
 10
22.9744256756
 20
26.6613218807
  0
VERTEX
  8
_CURVE
 62
4
  6
CONTINUOUS
 10
22.8746488522
 20
26.6685644631
  0
VERTEX
  8
_CURVE
 62
4
  6
CONTINUOUS
 10
22.7835269073
 20
26.6744343651
  0
VERTEX
  8
_CURVE
 62
4
  6
CONTINUOUS
 10
22.70022715
 20
26.6791800335
  0
VERTEX
  8
_CURVE
 62
4
  6
CONTINUOUS
 10
22.6239105247
 20
26.6830087325
  0
VERTEX
  8
_CURVE
 62
4
  6
CONTINUOUS
 10
22.5538856004
 20
26.6860857583
  0
VERTEX
  8
_CURVE
 62
4
  6
CONTINUOUS
 10
22.4897013246
 20
26.6885400498
  0
VERTEX
  8
_CURVE
 62
4
  6
CONTINUOUS
 10
22.4309334565
 20
26.6904804155
  0
VERTEX
  8
_CURVE
 62
4
  6
CONTINUOUS
 10
22.3771555855
 20
26.6919991907
  0
VERTEX
  8
_CURVE
 62
4
  6
CONTINUOUS
 10
22.3279369713
 20
26.693174201
  0
VERTEX
  8
_CURVE
 62
4
  6
CONTINUOUS
 10
22.2829596797
 20
26.6940683435
  0
VERTEX
  8
_CURVE
 62
4
  6
CONTINUOUS
 10
22.2421321843
 20
26.6947315456
  0
VERTEX
  8
_CURVE
 62
4
  6
CONTINUOUS
 10
22.1726431995
 20
26.6955357881
  0
SEQEND
  0
POLYLINE
  8
_CURVE
 62
8
  6
PHANTOM
 66
1
 70
0
  0
VERTEX
  8
_CURVE
 62
8
  6
PHANTOM
 10
32.1231167287
 20
18.8991540658
  0
VERTEX
  8
_CURVE
 62
8
  6
PHANTOM
 10
32.1225630986
 20
18.8125866803
  0
VERTEX
  8
_CURVE
 62
8
  6
PHANTOM
 10
32.1209026447
 20
18.7260299101
  0
VERTEX
  8
_CURVE
 62
8
  6
PHANTOM
 10
32.1181358571
 20
18.6395003396
  0
VERTEX
  8
_CURVE
 62
8
  6
PHANTOM
 10
32.1140780375
 20
18.5494106086
  0
VERTEX
  8
_CURVE
 62
8
  6
PHANTOM
 10
32.1088221108
 20
18.4593836647
  0
VERTEX
  8
_CURVE
 62
8
  6
PHANTOM
 10
32.1023699133
 20
18.3694347852
  0
VERTEX
  8
_CURVE
 62
8
  6
PHANTOM
 10
32.0947312662
 20
18.2796640778
  0
VERTEX
  8
_CURVE
 62
8
  6
PHANTOM
 10
32.0859035049
 20
18.190002265
  0
VERTEX
  8
_CURVE
 62
8
  6
PHANTOM
 10
32.0758896963
 20
18.1004650759
  0
VERTEX
  8
_CURVE
 62
8
  6
PHANTOM
 10
32.0645467248
 20
18.0099596373
  0
VERTEX
  8
_CURVE
 62
8
  6
PHANTOM
 10
32.0519955715
 20
17.9196138142
  0
VERTEX
  8
_CURVE
 62
8
  6
PHANTOM
 10
32.03824058
 20
17.8294433644
  0
VERTEX
  8
_CURVE
 62
8
  6
PHANTOM
 10
32.0229824742
 20
17.737709437
  0
VERTEX
  8
_CURVE
 62
8
  6
PHANTOM
 10
32.0064835321
 20
17.6461904491
  0
VERTEX
  8
_CURVE
 62
8
  6
PHANTOM
 10
31.9887497015
 20
17.5549026741
  0
VERTEX
  8
_CURVE
 62
8
  6
PHANTOM
 10
31.9696800614
 20
17.4633651792
  0
VERTEX
  8
_CURVE
 62
8
  6
PHANTOM
 10
31.9493751654
 20
17.3720937442
  0
VERTEX
  8
_CURVE
 62
8
  6
PHANTOM
 10
31.9278421746
 20
17.2811042286
  0
VERTEX
  8
_CURVE
 62
8
  6
PHANTOM
 10
31.9050240289
 20
17.1901626788
  0
VERTEX
  8
_CURVE
 62
8
  6
PHANTOM
 10
31.8809866857
 20
17.0995357374
  0
VERTEX
  8
_CURVE
 62
8
  6
PHANTOM
 10
31.8557386245
 20
17.0092385888
  0
VERTEX
  8
_CURVE
 62
8
  6
PHANTOM
 10
31.8291146375
 20
16.9187097091
  0
VERTEX
  8
_CURVE
 62
8
  6
PHANTOM
 10
31.8012819595
 20
16.8285450814
  0
VERTEX
  8
_CURVE
 62
8
  6
PHANTOM
 10
31.7722496314
 20
16.7387595347
  0
VERTEX
  8
_CURVE
 62
8
  6
PHANTOM
 10
31.7417364913
 20
16.6485270551
  0
VERTEX
  8
_CURVE
 62
8
  6
PHANTOM
 10
31.7100212851
 20
16.5587099844
  0
VERTEX
  8
_CURVE
 62
8
  6
PHANTOM
 10
31.6771151062
 20
16.4693223607
  0
VERTEX
  8
_CURVE
 62
8
  6
PHANTOM
 10
31.6426814442
 20
16.3794883511
  0
VERTEX
  8
_CURVE
 62
8
  6
PHANTOM
 10
31.6070565178
 20
16.2901200203
  0
VERTEX
  8
_CURVE
 62
8
  6
PHANTOM
 10
31.570252725
 20
16.2012306222
  0
VERTEX
  8
_CURVE
 62
8
  6
PHANTOM
 10
31.5318813314
 20
16.1119167797
  0
VERTEX
  8
_CURVE
 62
8
  6
PHANTOM
 10
31.4923306546
 20
16.0231188528
  0
VERTEX
  8
_CURVE
 62
8
  6
PHANTOM
 10
31.4516122655
 20
15.934850281
  0
VERTEX
  8
_CURVE
 62
8
  6
PHANTOM
 10
31.4092726917
 20
15.846165392
  0
VERTEX
  8
_CURVE
 62
8
  6
PHANTOM
 10
31.3657660494
 20
15.758047098
  0
VERTEX
  8
_CURVE
 62
8
  6
PHANTOM
 10
31.3211069024
 20
15.6705072321
  0
VERTEX
  8
_CURVE
 62
8
  6
PHANTOM
 10
31.2747672243
 20
15.5825434274
  0
VERTEX
  8
_CURVE
 62
8
  6
PHANTOM
 10
31.2272780856
 20
15.4951947858
  0
VERTEX
  8
_CURVE
 62
8
  6
PHANTOM
 10
31.178654756
 20
15.4084723132
  0
VERTEX
  8
_CURVE
 62
8
  6
PHANTOM
 10
31.1282815242
 20
15.3213117303
  0
VERTEX
  8
_CURVE
 62
8
  6
PHANTOM
 10
31.0767754291
 20
15.2348157498
  0
VERTEX
  8
_CURVE
 62
8
  6
PHANTOM
 10
31.0241507631
 20
15.1489957208
  0
VERTEX
  8
_CURVE
 62
8
  6
PHANTOM
 10
30.9696979733
 20
15.0627313763
  0
VERTEX
  8
_CURVE
 62
8
  6
PHANTOM
 10
30.9141286486
 20
14.9771819207
  0
VERTEX
  8
_CURVE
 62
8
  6
PHANTOM
 10
30.8574601964
 20
14.8923564795
  0
VERTEX
  8
_CURVE
 62
8
  6
PHANTOM
 10
30.7988837734
 20
14.8070776136
  0
VERTEX
  8
_CURVE
 62
8
  6
PHANTOM
 10
30.7392120711
 20
14.7225614795
  0
VERTEX
  8
_CURVE
 62
8
  6
PHANTOM
 10
30.6784624074
 20
14.6388167421
  0
VERTEX
  8
_CURVE
 62
8
  6
PHANTOM
 10
30.6157140216
 20
14.5546100323
  0
VERTEX
  8
_CURVE
 62
8
  6
PHANTOM
 10
30.5518893841
 20
14.4712160824
  0
VERTEX
  8
_CURVE
 62
8
  6
PHANTOM
 10
30.4870050371
 20
14.3886439454
  0
VERTEX
  8
_CURVE
 62
8
  6
PHANTOM
 10
30.4200305813
 20
14.3056205128
  0
VERTEX
  8
_CURVE
 62
8
  6
PHANTOM
 10
30.3519995152
 20
14.2234605375
  0
VERTEX
  8
_CURVE
 62
8
  6
PHANTOM
 10
30.2829315369
 20
14.1421702143
  0
VERTEX
  8
_CURVE
 62
8
  6
PHANTOM
 10
30.2116953225
 20
14.0604522654
  0
VERTEX
  8
_CURVE
 62
8
  6
PHANTOM
 10
30.1394272202
 20
13.9796454065
  0
VERTEX
  8
_CURVE
 62
8
  6
PHANTOM
 10
30.0661459869
 20
13.8997560955
  0
VERTEX
  8
_CURVE
 62
8
  6
PHANTOM
 10
29.9906222317
 20
13.8194807387
  0
VERTEX
  8
_CURVE
 62
8
  6
PHANTOM
 10
29.9140891407
 20
13.7401670238
  0
VERTEX
  8
_CURVE
 62
8
  6
PHANTOM
 10
29.8365652201
 20
13.661821487
  0
VERTEX
  8
_CURVE
 62
8
  6
PHANTOM
 10
29.7567349772
 20
13.5831514396
  0
VERTEX
  8
_CURVE
 62
8
  6
PHANTOM
 10
29.6759205358
 20
13.5054926257
  0
VERTEX
  8
_CURVE
 62
8
  6
PHANTOM
 10
29.5941431494
 20
13.4288483542
  0
VERTEX
  8
_CURVE
 62
8
  6
PHANTOM
 10
29.5100129447
 20
13.3519485347
  0
VERTEX
  8
_CURVE
 62
8
  6
PHANTOM
 10
29.4249283492
 20
13.2761060126
  0
VERTEX
  8
_CURVE
 62
8
  6
PHANTOM
 10
29.3389088705
 20
13.2013254225
  0
VERTEX
  8
_CURVE
 62
8
  6
PHANTOM
 10
29.2504916777
 20
13.1263701505
  0
VERTEX
  8
_CURVE
 62
8
  6
PHANTOM
 10
29.1611479994
 20
13.0525215613
  0
VERTEX
  8
_CURVE
 62
8
  6
PHANTOM
 10
29.0708980401
 20
12.9797832844
  0
VERTEX
  8
_CURVE
 62
8
  6
PHANTOM
 10
28.9782232985
 20
12.9069645142
  0
VERTEX
  8
_CURVE
 62
8
  6
PHANTOM
 10
28.8846542557
 20
12.8352983826
  0
VERTEX
  8
_CURVE
 62
8
  6
PHANTOM
 10
28.7902127137
 20
12.7647858372
  0
VERTEX
  8
_CURVE
 62
8
  6
PHANTOM
 10
28.6933328977
 20
12.6942879344
  0
VERTEX
  8
_CURVE
 62
8
  6
PHANTOM
 10
28.5955936951
 20
12.6249864058
  0
VERTEX
  8
_CURVE
 62
8
  6
PHANTOM
 10
28.4970148603
 20
12.5568844888
  0
VERTEX
  8
_CURVE
 62
8
  6
PHANTOM
 10
28.3959942396
 20
12.4889076684
  0
VERTEX
  8
_CURVE
 62
8
  6
PHANTOM
 10
28.294148338
 20
12.422173512
  0
VERTEX
  8
_CURVE
 62
8
  6
PHANTOM
 10
28.1914986173
 20
12.3566824212
  0
VERTEX
  8
_CURVE
 62
8
  6
PHANTOM
 10
28.0864269704
 20
12.2914301958
  0
VERTEX
  8
_CURVE
 62
8
  6
PHANTOM
 10
27.9805693392
 20
12.2274608545
  0
VERTEX
  8
_CURVE
 62
8
  6
PHANTOM
 10
27.8739469987
 20
12.1647742353
  0
VERTEX
  8
_CURVE
 62
8
  6
PHANTOM
 10
27.764931441
 20
12.1024403684
  0
VERTEX
  8
_CURVE
 62
8
  6
PHANTOM
 10
27.6551695314
 20
12.0414302918
  0
VERTEX
  8
_CURVE
 62
8
  6
PHANTOM
 10
27.5446812902
 20
11.9817456641
  0
VERTEX
  8
_CURVE
 62
8
  6
PHANTOM
 10
27.4318235706
 20
11.9225273299
  0
VERTEX
  8
_CURVE
 62
8
  6
PHANTOM
 10
27.318260122
 20
11.8646736897
  0
VERTEX
  8
_CURVE
 62
8
  6
PHANTOM
 10
27.2040127484
 20
11.8081824573
  0
VERTEX
  8
_CURVE
 62
8
  6
PHANTOM
 10
27.0875538877
 20
11.7523200113
  0
VERTEX
  8
_CURVE
 62
8
  6
PHANTOM
 10
26.9704350811
 20
11.6978547575
  0
VERTEX
  8
_CURVE
 62
8
  6
PHANTOM
 10
26.8526764228
 20
11.6447869576
  0
VERTEX
  8
_CURVE
 62
8
  6
PHANTOM
 10
26.7319558636
 20
11.5921110811
  0
VERTEX
  8
_CURVE
 62
8
  6
PHANTOM
 10
26.6106118532
 20
11.5408874842
  0
VERTEX
  8
_CURVE
 62
8
  6
PHANTOM
 10
26.4886653985
 20
11.4911150236
  0
VERTEX
  8
_CURVE
 62
8
  6
PHANTOM
 10
26.3657934308
 20
11.4426590429
  0
VERTEX
  8
_CURVE
 62
8
  6
PHANTOM
 10
26.2423573461
 20
11.395658802
  0
VERTEX
  8
_CURVE
 62
8
  6
PHANTOM
 10
26.1183777261
 20
11.3501119139
  0
VERTEX
  8
_CURVE
 62
8
  6
PHANTOM
 10
25.999097761
 20
11.3078335282
  0
VERTEX
  8
_CURVE
 62
8
  6
PHANTOM
 10
25.8793542023
 20
11.2668874873
  0
VERTEX
  8
_CURVE
 62
8
  6
PHANTOM
 10
25.759163537
 20
11.2272741244
  0
VERTEX
  8
_CURVE
 62
8
  6
PHANTOM
 10
25.6486483136
 20
11.1921444212
  0
VERTEX
  8
_CURVE
 62
8
  6
PHANTOM
 10
25.5377844439
 20
11.1581319682
  0
VERTEX
  8
_CURVE
 62
8
  6
PHANTOM
 10
25.4265848723
 20
11.1252346886
  0
VERTEX
  8
_CURVE
 62
8
  6
PHANTOM
 10
25.2767439875
 20
11.082806581
  0
VERTEX
  8
_CURVE
 62
8
  6
PHANTOM
 10
25.1263503923
 20
11.0423833839
  0
VERTEX
  8
_CURVE
 62
8
  6
PHANTOM
 10
24.9911549059
 20
11.0078661019
  0
VERTEX
  8
_CURVE
 62
8
  6
PHANTOM
 10
24.8555594784
 20
10.9749564814
  0
VERTEX
  8
_CURVE
 62
8
  6
PHANTOM
 10
24.7327382293
 20
10.9466085913
  0
VERTEX
  8
_CURVE
 62
8
  6
PHANTOM
 10
24.609622125
 20
10.9195710282
  0
VERTEX
  8
_CURVE
 62
8
  6
PHANTOM
 10
24.4976729322
 20
10.8961714443
  0
VERTEX
  8
_CURVE
 62
8
  6
PHANTOM
 10
24.3855043269
 20
10.8738482064
  0
VERTEX
  8
_CURVE
 62
8
  6
PHANTOM
 10
24.2832557634
 20
10.8544699039
  0
VERTEX
  8
_CURVE
 62
8
  6
PHANTOM
 10
24.1808426956
 20
10.8359813713
  0
VERTEX
  8
_CURVE
 62
8
  6
PHANTOM
 10
24.0872823684
 20
10.819891151
  0
VERTEX
  8
_CURVE
 62
8
  6
PHANTOM
 10
23.993597952
 20
10.8045404818
  0
VERTEX
  8
_CURVE
 62
8
  6
PHANTOM
 10
23.9078065632
 20
10.7911474215
  0
VERTEX
  8
_CURVE
 62
8
  6
PHANTOM
 10
23.8219210041
 20
10.7783726135
  0
VERTEX
  8
_CURVE
 62
8
  6
PHANTOM
 10
23.6642017535
 20
10.7565525601
  0
VERTEX
  8
_CURVE
 62
8
  6
PHANTOM
 10
23.519152822
 20
10.738346595
  0
VERTEX
  8
_CURVE
 62
8
  6
PHANTOM
 10
23.3855365003
 20
10.7231432264
  0
VERTEX
  8
_CURVE
 62
8
  6
PHANTOM
 10
23.2622822598
 20
10.7104445333
  0
VERTEX
  8
_CURVE
 62
8
  6
PHANTOM
 10
23.148557182
 20
10.6998504819
  0
VERTEX
  8
_CURVE
 62
8
  6
PHANTOM
 10
23.0435441014
 20
10.6910212436
  0
VERTEX
  8
_CURVE
 62
8
  6
PHANTOM
 10
22.9464886437
 20
10.6836724134
  0
VERTEX
  8
_CURVE
 62
8
  6
PHANTOM
 10
22.8567219498
 20
10.6775674888
  0
VERTEX
  8
_CURVE
 62
8
  6
PHANTOM
 10
22.7736444912
 20
10.6725086372
  0
VERTEX
  8
_CURVE
 62
8
  6
PHANTOM
 10
22.6966543022
 20
10.6683268499
  0
VERTEX
  8
_CURVE
 62
8
  6
PHANTOM
 10
22.6251369701
 20
10.6648780523
  0
VERTEX
  8
_CURVE
 62
8
  6
PHANTOM
 10
22.5587177199
 20
10.6620504562
  0
VERTEX
  8
_CURVE
 62
8
  6
PHANTOM
 10
22.4971252337
 20
10.6597510466
  0
VERTEX
  8
_CURVE
 62
8
  6
PHANTOM
 10
22.4401099524
 20
10.6578990832
  0
VERTEX
  8
_CURVE
 62
8
  6
PHANTOM
 10
22.3874192353
 20
10.6564238595
  0
VERTEX
  8
_CURVE
 62
8
  6
PHANTOM
 10
22.3388011663
 20
10.6552638855
  0
VERTEX
  8
_CURVE
 62
8
  6
PHANTOM
 10
22.2940229302
 20
10.6543663155
  0
VERTEX
  8
_CURVE
 62
8
  6
PHANTOM
 10
22.2528873149
 20
10.6536860229
  0
VERTEX
  8
_CURVE
 62
8
  6
PHANTOM
 10
22.2152269775
 20
10.6531842429
  0
SEQEND
  0
ENDSEC
  0
EOF
