999
DXF file: 1162721_7_a.dxf
999
Pro/ENGINEER 2009220 by Parametric Technology Corporation
  0
SECTION
  2
HEADER
  9
$EXTMAX
 10
44.0
 20
34.0
 30
0.0
  9
$EXTMIN
 10
0.0
 20
0.0
 30
0.0
  9
$LIMMIN
 10
0.0
 20
0.0
  9
$LIMMAX
 10
44.0
 20
34.0
  9
$VIEWCTR
 10
22.0
 20
17.0
  9
$VIEWSIZE
 40
34.0
  9
$CLAYER
  8
0
  9
$LTSCALE
 40
2.42
  9
$CELTYPE
  6
BYLAYER
  9
$DIMSCALE
 40
1.0
  9
$DIMASZ
 40
0.1875
  9
$DIMEXO
 40
0.275
  9
$DIMDLI
 40
1.672
  9
$DIMEXE
 40
0.792
  9
$DIMCEN
 40
0.396
  9
$DIMLFAC
 40
1.0
  9
$DIMBLK
  1
_FILLED
  9
$DIMTXT
 40
0.15625
  9
$PDMODE
 70
3
  9
$PDSIZE
 40
0.3125
  9
$TILEMODE
 70
1
  0
ENDSEC
  0
SECTION
  2
TABLES
  0
TABLE
  2
LTYPE
 70
6
  0
LTYPE
  2
BYBLOCK
 70
0
  3

 72
65
 73
0
 40
0.0
  0
LTYPE
  2
BYLAYER
 70
0
  3

 72
65
 73
0
 40
0.0
  0
LTYPE
  2
CONTINUOUS
 70
64
  3
Solid line
 72
65
 73
0
 40
0.0
  0
LTYPE
  2
CENTER
 70
64
  3
____ _ ____ _ ____ _ ____ _ ____ _ ____ _ ____
 72
65
 73
4
 40
0.6
 49
0.375
 49
-0.075
 49
0.075
 49
-0.075
  0
LTYPE
  2
HIDDEN
 70
64
  3
- - - - - - - - - - - - - - - - - - - -
 72
65
 73
2
 40
0.2
 49
0.1
 49
-0.1
  0
LTYPE
  2
PHANTOM
 70
64
  3
_____ _ _ _____ _ _ _____ _ _ _____
 72
65
 73
6
 40
0.8
 49
0.45
 49
-0.05
 49
0.1
 49
-0.05
 49
0.1
 49
-0.05
  0
LTYPE
  2
DOT
 70
64
  3
. . . . . . . . . . . . . . . . . . . .
 72
65
 73
2
 40
0.2
 49
0.1
 49
-0.1
  0
LTYPE
  2
DASHED
 70
64
  3
- - - - - - - - - - - - - - - - - - - -
 72
65
 73
2
 40
0.2
 49
0.1
 49
-0.1
  0
ENDTAB
  0
TABLE
  2
LAYER
 70
36
  0
LAYER
  2
0
 70
0
 62
7
  6
CONTINUOUS
  0
LAYER
  2
DEFAULT_1
 70
0
 62
7
  6
CENTER
  0
LAYER
  2
DEFAULT_2
 70
0
 62
8
  6
HIDDEN
  0
LAYER
  2
DEFAULT_3
 70
0
 62
7
  6
PHANTOM
  0
LAYER
  2
DATUMS
 70
0
 62
7
  6
CONTINUOUS
  0
LAYER
  2
DATUM_AXIS
 70
0
 62
7
  6
CONTINUOUS
  0
LAYER
  2
DATUM_CSYS
 70
0
 62
7
  6
CONTINUOUS
  0
LAYER
  2
DATUM_PLANE
 70
0
 62
7
  6
CONTINUOUS
  0
LAYER
  2
DATUM_POINT
 70
0
 62
7
  6
CONTINUOUS
  0
LAYER
  2
_CURVE
 70
0
 62
7
  6
CONTINUOUS
  0
LAYER
  2
_SURFACE
 70
0
 62
7
  6
CONTINUOUS
  0
LAYER
  2
__REF_CURVE
 70
0
 62
7
  6
CONTINUOUS
  0
LAYER
  2
__REF_SURFACE
 70
0
 62
7
  6
CONTINUOUS
  0
LAYER
  2
___NOTE
 70
0
 62
7
  6
CONTINUOUS
  0
LAYER
  2
___SYMBOL
 70
0
 62
7
  6
CONTINUOUS
  0
ENDTAB
  0
TABLE
  2
STYLE
 70
1
  0
STYLE
  2
STANDARD
 70
0
 40
0.0
 41
0.8
 50
0.0
 71
0
 42
0.2
  3
txt
  4

  0
STYLE
  2
TEXTSTYLE_1
 70
0
 40
0.0
 41
0.8
 50
0.0
 71
0
 42
0.2
  3
gdt
  4

  0
STYLE
  2
TEXTSTYLE_2
 70
0
 40
0.0
 41
1.0
 50
0.0
 71
0
 42
0.2
  3
txt
  4

  0
ENDTAB
  0
ENDSEC
  0
SECTION
  2
BLOCKS
  0
BLOCK
  8
___SYMBOL
 62
2
  6
CONTINUOUS
  2
SCISSORS_BL5
 70
64
 10
31.6560457725
 20
20.3834898905
  0
LINE
  8
___SYMBOL
 62
7
  6
CONTINUOUS
 10
31.6254550884
 20
20.5013630629
 11
31.5133753152
 21
21.0550213646
  0
LINE
  8
___SYMBOL
 62
7
  6
CONTINUOUS
 10
31.5770754292
 20
20.4718619874
 11
31.5133753152
 21
21.0550213646
  0
LINE
  8
___SYMBOL
 62
7
  6
CONTINUOUS
 10
31.6527171936
 20
20.4056790709
 11
31.6511495797
 21
20.4565324777
  0
LINE
  8
___SYMBOL
 62
7
  6
CONTINUOUS
 10
31.667527281
 20
20.4572124671
 11
31.6691056817
 21
20.4060091364
  0
LINE
  8
___SYMBOL
 62
7
  6
CONTINUOUS
 10
31.661609198
 20
20.634581917
 11
31.8493235877
 21
21.0452858835
  0
LINE
  8
___SYMBOL
 62
7
  6
CONTINUOUS
 10
31.5475003763
 20
20.3763118164
 11
31.5800294702
 21
20.4377243843
  0
LINE
  8
___SYMBOL
 62
7
  6
CONTINUOUS
 10
31.7287564435
 20
20.444130515
 11
31.8493235877
 21
20.8298191278
  0
LINE
  8
___SYMBOL
 62
7
  6
CONTINUOUS
 10
31.6993878281
 20
20.5274294492
 11
31.6254550884
 21
20.5013630629
  0
LINE
  8
___SYMBOL
 62
7
  6
CONTINUOUS
 10
31.7533684674
 20
20.3743228198
 11
31.6960816657
 21
20.236058297
  0
LINE
  8
___SYMBOL
 62
7
  6
CONTINUOUS
 10
31.6013421393
 20
20.2405699067
 11
31.6454194145
 21
20.2863691086
  0
LINE
  8
___SYMBOL
 62
7
  6
CONTINUOUS
 10
31.5133753152
 20
21.0550213646
 11
31.7533684674
 21
20.3743228198
  0
LINE
  8
___SYMBOL
 62
7
  6
CONTINUOUS
 10
31.6013421393
 20
20.2405699067
 11
31.5475003763
 21
20.3763118164
  0
ARC
  8
___SYMBOL
 62
7
  6
CONTINUOUS
 10
31.5046895883
 20
20.9375525057
 40
0.3610804262
 50
342.6406360869
 51
17.3593639131
  0
ARC
  8
___SYMBOL
 62
7
  6
CONTINUOUS
 10
31.8897273978
 20
20.4817201951
 40
0.3128073492
 50
181.8059909349
 51
231.752660067
  0
CIRCLE
  8
___SYMBOL
 62
7
  6
CONTINUOUS
 10
31.6603974107
 20
20.4313666874
 40
0.0268111801
  0
ARC
  8
___SYMBOL
 62
7
  6
CONTINUOUS
 10
31.8198552211
 20
20.05904909
 40
0.0146088562
 50
185.3133793157
 51
314.0675041521
  0
ARC
  8
___SYMBOL
 62
7
  6
CONTINUOUS
 10
31.485193626
 20
20.0515285207
 40
0.0146087357
 50
233.3109272841
 51
359.4467240969
  0
POLYLINE
  8
___SYMBOL
 62
7
  6
CONTINUOUS
 66
1
 70
0
  0
VERTEX
  8
___SYMBOL
 62
7
  6
CONTINUOUS
 10
31.7821110929
 20
19.8243077195
  0
VERTEX
  8
___SYMBOL
 62
7
  6
CONTINUOUS
 10
31.7787717801
 20
19.8345566269
  0
VERTEX
  8
___SYMBOL
 62
7
  6
CONTINUOUS
 10
31.7757142023
 20
19.8448866161
  0
VERTEX
  8
___SYMBOL
 62
7
  6
CONTINUOUS
 10
31.7729261436
 20
19.8552920672
  0
VERTEX
  8
___SYMBOL
 62
7
  6
CONTINUOUS
 10
31.7703953882
 20
19.8657673601
  0
VERTEX
  8
___SYMBOL
 62
7
  6
CONTINUOUS
 10
31.7681097203
 20
19.8763068749
  0
VERTEX
  8
___SYMBOL
 62
7
  6
CONTINUOUS
 10
31.7660569241
 20
19.8869049914
  0
VERTEX
  8
___SYMBOL
 62
7
  6
CONTINUOUS
 10
31.7642247837
 20
19.8975560898
  0
VERTEX
  8
___SYMBOL
 62
7
  6
CONTINUOUS
 10
31.7626010833
 20
19.90825455
  0
VERTEX
  8
___SYMBOL
 62
7
  6
CONTINUOUS
 10
31.7611736071
 20
19.918994752
  0
VERTEX
  8
___SYMBOL
 62
7
  6
CONTINUOUS
 10
31.7599301392
 20
19.9297710757
  0
VERTEX
  8
___SYMBOL
 62
7
  6
CONTINUOUS
 10
31.7588584639
 20
19.9405779012
  0
VERTEX
  8
___SYMBOL
 62
7
  6
CONTINUOUS
 10
31.7579463652
 20
19.9514096085
  0
VERTEX
  8
___SYMBOL
 62
7
  6
CONTINUOUS
 10
31.7571816274
 20
19.9622605776
  0
VERTEX
  8
___SYMBOL
 62
7
  6
CONTINUOUS
 10
31.7565520347
 20
19.9731251884
  0
VERTEX
  8
___SYMBOL
 62
7
  6
CONTINUOUS
 10
31.7560453712
 20
19.983997821
  0
VERTEX
  8
___SYMBOL
 62
7
  6
CONTINUOUS
 10
31.755649421
 20
19.9948728553
  0
VERTEX
  8
___SYMBOL
 62
7
  6
CONTINUOUS
 10
31.7553519684
 20
20.0057446713
  0
VERTEX
  8
___SYMBOL
 62
7
  6
CONTINUOUS
 10
31.7551407976
 20
20.016607649
  0
VERTEX
  8
___SYMBOL
 62
7
  6
CONTINUOUS
 10
31.7550036926
 20
20.0274561685
  0
VERTEX
  8
___SYMBOL
 62
7
  6
CONTINUOUS
 10
31.7549284377
 20
20.0382846097
  0
VERTEX
  8
___SYMBOL
 62
7
  6
CONTINUOUS
 10
31.7548982277
 20
20.0542022734
  0
VERTEX
  8
___SYMBOL
 62
7
  6
CONTINUOUS
 10
31.7548991449
 20
20.0700862838
  0
VERTEX
  8
___SYMBOL
 62
7
  6
CONTINUOUS
 10
31.7548545005
 20
20.08595881
  0
VERTEX
  8
___SYMBOL
 62
7
  6
CONTINUOUS
 10
31.7546876052
 20
20.1018420208
  0
VERTEX
  8
___SYMBOL
 62
7
  6
CONTINUOUS
 10
31.75432177
 20
20.1177580853
  0
VERTEX
  8
___SYMBOL
 62
7
  6
CONTINUOUS
 10
31.754063616
 20
20.1250902886
  0
VERTEX
  8
___SYMBOL
 62
7
  6
CONTINUOUS
 10
31.7537269427
 20
20.1324271253
  0
VERTEX
  8
___SYMBOL
 62
7
  6
CONTINUOUS
 10
31.753291478
 20
20.1397616009
  0
VERTEX
  8
___SYMBOL
 62
7
  6
CONTINUOUS
 10
31.7527369494
 20
20.1470867212
  0
VERTEX
  8
___SYMBOL
 62
7
  6
CONTINUOUS
 10
31.7520430848
 20
20.1543954918
  0
VERTEX
  8
___SYMBOL
 62
7
  6
CONTINUOUS
 10
31.7511896117
 20
20.1616809185
  0
VERTEX
  8
___SYMBOL
 62
7
  6
CONTINUOUS
 10
31.7501562578
 20
20.1689360069
  0
VERTEX
  8
___SYMBOL
 62
7
  6
CONTINUOUS
 10
31.748922751
 20
20.1761537627
  0
VERTEX
  8
___SYMBOL
 62
7
  6
CONTINUOUS
 10
31.7474688188
 20
20.1833271916
  0
VERTEX
  8
___SYMBOL
 62
7
  6
CONTINUOUS
 10
31.745774189
 20
20.1904492994
  0
VERTEX
  8
___SYMBOL
 62
7
  6
CONTINUOUS
 10
31.7438185892
 20
20.1975130915
  0
VERTEX
  8
___SYMBOL
 62
7
  6
CONTINUOUS
 10
31.7415817472
 20
20.2045115739
  0
VERTEX
  8
___SYMBOL
 62
7
  6
CONTINUOUS
 10
31.7405147311
 20
20.2075172563
  0
VERTEX
  8
___SYMBOL
 62
7
  6
CONTINUOUS
 10
31.7393556341
 20
20.21048526
  0
VERTEX
  8
___SYMBOL
 62
7
  6
CONTINUOUS
 10
31.7380689542
 20
20.2133914742
  0
VERTEX
  8
___SYMBOL
 62
7
  6
CONTINUOUS
 10
31.7366191896
 20
20.216211788
  0
VERTEX
  8
___SYMBOL
 62
7
  6
CONTINUOUS
 10
31.7349708383
 20
20.2189220905
  0
VERTEX
  8
___SYMBOL
 62
7
  6
CONTINUOUS
 10
31.7330883986
 20
20.221498271
  0
VERTEX
  8
___SYMBOL
 62
7
  6
CONTINUOUS
 10
31.7310230101
 20
20.2238395444
  0
VERTEX
  8
___SYMBOL
 62
7
  6
CONTINUOUS
 10
31.728731874
 20
20.2260210784
  0
VERTEX
  8
___SYMBOL
 62
7
  6
CONTINUOUS
 10
31.726241045
 20
20.2280309259
  0
VERTEX
  8
___SYMBOL
 62
7
  6
CONTINUOUS
 10
31.7235765777
 20
20.22985714
  0
VERTEX
  8
___SYMBOL
 62
7
  6
CONTINUOUS
 10
31.7207645268
 20
20.2314877735
  0
VERTEX
  8
___SYMBOL
 62
7
  6
CONTINUOUS
 10
31.717830947
 20
20.2329108794
  0
VERTEX
  8
___SYMBOL
 62
7
  6
CONTINUOUS
 10
31.7148018927
 20
20.2341145107
  0
VERTEX
  8
___SYMBOL
 62
7
  6
CONTINUOUS
 10
31.7117034188
 20
20.2350867204
  0
VERTEX
  8
___SYMBOL
 62
7
  6
CONTINUOUS
 10
31.7085615798
 20
20.2358155613
  0
VERTEX
  8
___SYMBOL
 62
7
  6
CONTINUOUS
 10
31.7054024304
 20
20.2362890865
  0
VERTEX
  8
___SYMBOL
 62
7
  6
CONTINUOUS
 10
31.7022520251
 20
20.2364953488
  0
VERTEX
  8
___SYMBOL
 62
7
  6
CONTINUOUS
 10
31.6991364187
 20
20.2364224014
  0
VERTEX
  8
___SYMBOL
 62
7
  6
CONTINUOUS
 10
31.6960816657
 20
20.236058297
  0
SEQEND
  0
POLYLINE
  8
___SYMBOL
 62
7
  6
CONTINUOUS
 66
1
 70
0
  0
VERTEX
  8
___SYMBOL
 62
7
  6
CONTINUOUS
 10
31.8053091376
 20
20.0576962646
  0
VERTEX
  8
___SYMBOL
 62
7
  6
CONTINUOUS
 10
31.8046862518
 20
20.065358549
  0
VERTEX
  8
___SYMBOL
 62
7
  6
CONTINUOUS
 10
31.8042314918
 20
20.0730273471
  0
VERTEX
  8
___SYMBOL
 62
7
  6
CONTINUOUS
 10
31.8039008489
 20
20.0817329848
  0
VERTEX
  8
___SYMBOL
 62
7
  6
CONTINUOUS
 10
31.8037484236
 20
20.0904275013
  0
VERTEX
  8
___SYMBOL
 62
7
  6
CONTINUOUS
 10
31.8037531418
 20
20.099120797
  0
VERTEX
  8
___SYMBOL
 62
7
  6
CONTINUOUS
 10
31.8038939294
 20
20.1078227721
  0
VERTEX
  8
___SYMBOL
 62
7
  6
CONTINUOUS
 10
31.8041497125
 20
20.1165433269
  0
VERTEX
  8
___SYMBOL
 62
7
  6
CONTINUOUS
 10
31.804499417
 20
20.1252923617
  0
VERTEX
  8
___SYMBOL
 62
7
  6
CONTINUOUS
 10
31.8049219688
 20
20.1340797767
  0
VERTEX
  8
___SYMBOL
 62
7
  6
CONTINUOUS
 10
31.8053962939
 20
20.1429154722
  0
VERTEX
  8
___SYMBOL
 62
7
  6
CONTINUOUS
 10
31.8057111791
 20
20.1485149091
  0
VERTEX
  8
___SYMBOL
 62
7
  6
CONTINUOUS
 10
31.8060250609
 20
20.1541323026
  0
VERTEX
  8
___SYMBOL
 62
7
  6
CONTINUOUS
 10
31.8063247298
 20
20.1597624762
  0
VERTEX
  8
___SYMBOL
 62
7
  6
CONTINUOUS
 10
31.8065969762
 20
20.1654002534
  0
VERTEX
  8
___SYMBOL
 62
7
  6
CONTINUOUS
 10
31.8068285906
 20
20.171040458
  0
VERTEX
  8
___SYMBOL
 62
7
  6
CONTINUOUS
 10
31.8070063634
 20
20.1766779135
  0
VERTEX
  8
___SYMBOL
 62
7
  6
CONTINUOUS
 10
31.807117085
 20
20.1823074434
  0
VERTEX
  8
___SYMBOL
 62
7
  6
CONTINUOUS
 10
31.807147546
 20
20.1879238713
  0
VERTEX
  8
___SYMBOL
 62
7
  6
CONTINUOUS
 10
31.8070845368
 20
20.1935220209
  0
VERTEX
  8
___SYMBOL
 62
7
  6
CONTINUOUS
 10
31.8069148478
 20
20.1990967156
  0
VERTEX
  8
___SYMBOL
 62
7
  6
CONTINUOUS
 10
31.8066252695
 20
20.2046427791
  0
VERTEX
  8
___SYMBOL
 62
7
  6
CONTINUOUS
 10
31.8062025923
 20
20.210155035
  0
VERTEX
  8
___SYMBOL
 62
7
  6
CONTINUOUS
 10
31.8056336067
 20
20.2156283067
  0
VERTEX
  8
___SYMBOL
 62
7
  6
CONTINUOUS
 10
31.8049051031
 20
20.221057418
  0
VERTEX
  8
___SYMBOL
 62
7
  6
CONTINUOUS
 10
31.804003872
 20
20.2264371924
  0
VERTEX
  8
___SYMBOL
 62
7
  6
CONTINUOUS
 10
31.8029167038
 20
20.2317624535
  0
VERTEX
  8
___SYMBOL
 62
7
  6
CONTINUOUS
 10
31.801630389
 20
20.2370280248
  0
VERTEX
  8
___SYMBOL
 62
7
  6
CONTINUOUS
 10
31.8001317181
 20
20.2422287299
  0
VERTEX
  8
___SYMBOL
 62
7
  6
CONTINUOUS
 10
31.7984074814
 20
20.2473593925
  0
VERTEX
  8
___SYMBOL
 62
7
  6
CONTINUOUS
 10
31.7965815624
 20
20.2520978186
  0
VERTEX
  8
___SYMBOL
 62
7
  6
CONTINUOUS
 10
31.7945657609
 20
20.2567764077
  0
VERTEX
  8
___SYMBOL
 62
7
  6
CONTINUOUS
 10
31.7923796023
 20
20.2614012905
  0
VERTEX
  8
___SYMBOL
 62
7
  6
CONTINUOUS
 10
31.7900426123
 20
20.2659785977
  0
VERTEX
  8
___SYMBOL
 62
7
  6
CONTINUOUS
 10
31.7875743162
 20
20.27051446
  0
VERTEX
  8
___SYMBOL
 62
7
  6
CONTINUOUS
 10
31.7849942396
 20
20.2750150082
  0
VERTEX
  8
___SYMBOL
 62
7
  6
CONTINUOUS
 10
31.7823219079
 20
20.279486373
  0
VERTEX
  8
___SYMBOL
 62
7
  6
CONTINUOUS
 10
31.7795768467
 20
20.283934685
  0
VERTEX
  8
___SYMBOL
 62
7
  6
CONTINUOUS
 10
31.7767785814
 20
20.2883660751
  0
VERTEX
  8
___SYMBOL
 62
7
  6
CONTINUOUS
 10
31.7739466376
 20
20.2927866738
  0
VERTEX
  8
___SYMBOL
 62
7
  6
CONTINUOUS
 10
31.7719061933
 20
20.2959590359
  0
VERTEX
  8
___SYMBOL
 62
7
  6
CONTINUOUS
 10
31.7698842507
 20
20.2991376911
  0
VERTEX
  8
___SYMBOL
 62
7
  6
CONTINUOUS
 10
31.7679066105
 20
20.3023313359
  0
VERTEX
  8
___SYMBOL
 62
7
  6
CONTINUOUS
 10
31.7659990729
 20
20.3055486669
  0
VERTEX
  8
___SYMBOL
 62
7
  6
CONTINUOUS
 10
31.7641874386
 20
20.3087983806
  0
VERTEX
  8
___SYMBOL
 62
7
  6
CONTINUOUS
 10
31.762497508
 20
20.3120891735
  0
VERTEX
  8
___SYMBOL
 62
7
  6
CONTINUOUS
 10
31.7609550816
 20
20.3154297423
  0
VERTEX
  8
___SYMBOL
 62
7
  6
CONTINUOUS
 10
31.7595859598
 20
20.3188287833
  0
VERTEX
  8
___SYMBOL
 62
7
  6
CONTINUOUS
 10
31.7584159431
 20
20.3222949933
  0
VERTEX
  8
___SYMBOL
 62
7
  6
CONTINUOUS
 10
31.7575156739
 20
20.3256104015
  0
VERTEX
  8
___SYMBOL
 62
7
  6
CONTINUOUS
 10
31.7567913194
 20
20.3289826853
  0
VERTEX
  8
___SYMBOL
 62
7
  6
CONTINUOUS
 10
31.7562211321
 20
20.3324020448
  0
VERTEX
  8
___SYMBOL
 62
7
  6
CONTINUOUS
 10
31.7557833643
 20
20.3358586799
  0
VERTEX
  8
___SYMBOL
 62
7
  6
CONTINUOUS
 10
31.7554562686
 20
20.3393427905
  0
VERTEX
  8
___SYMBOL
 62
7
  6
CONTINUOUS
 10
31.7552180971
 20
20.3428445768
  0
VERTEX
  8
___SYMBOL
 62
7
  6
CONTINUOUS
 10
31.7550471024
 20
20.3463542386
  0
VERTEX
  8
___SYMBOL
 62
7
  6
CONTINUOUS
 10
31.7549215369
 20
20.349861976
  0
VERTEX
  8
___SYMBOL
 62
7
  6
CONTINUOUS
 10
31.7548021059
 20
20.3539743795
  0
VERTEX
  8
___SYMBOL
 62
7
  6
CONTINUOUS
 10
31.7546774925
 20
20.3580714143
  0
VERTEX
  8
___SYMBOL
 62
7
  6
CONTINUOUS
 10
31.7545097593
 20
20.3621539279
  0
VERTEX
  8
___SYMBOL
 62
7
  6
CONTINUOUS
 10
31.754260969
 20
20.3662227682
  0
VERTEX
  8
___SYMBOL
 62
7
  6
CONTINUOUS
 10
31.7538931841
 20
20.3702787829
  0
VERTEX
  8
___SYMBOL
 62
7
  6
CONTINUOUS
 10
31.7533684674
 20
20.3743228198
  0
SEQEND
  0
POLYLINE
  8
___SYMBOL
 62
7
  6
CONTINUOUS
 66
1
 70
0
  0
VERTEX
  8
___SYMBOL
 62
7
  6
CONTINUOUS
 10
31.5426790984
 20
19.8629643029
  0
VERTEX
  8
___SYMBOL
 62
7
  6
CONTINUOUS
 10
31.5446760574
 20
19.8714565342
  0
VERTEX
  8
___SYMBOL
 62
7
  6
CONTINUOUS
 10
31.5464292759
 20
19.8799977349
  0
VERTEX
  8
___SYMBOL
 62
7
  6
CONTINUOUS
 10
31.5479525273
 20
19.888583458
  0
VERTEX
  8
___SYMBOL
 62
7
  6
CONTINUOUS
 10
31.5492595854
 20
19.8972092567
  0
VERTEX
  8
___SYMBOL
 62
7
  6
CONTINUOUS
 10
31.5503642238
 20
19.9058706838
  0
VERTEX
  8
___SYMBOL
 62
7
  6
CONTINUOUS
 10
31.551280216
 20
19.9145632927
  0
VERTEX
  8
___SYMBOL
 62
7
  6
CONTINUOUS
 10
31.5520213356
 20
19.9232826363
  0
VERTEX
  8
___SYMBOL
 62
7
  6
CONTINUOUS
 10
31.5526013564
 20
19.9320242677
  0
VERTEX
  8
___SYMBOL
 62
7
  6
CONTINUOUS
 10
31.553034052
 20
19.94078374
  0
VERTEX
  8
___SYMBOL
 62
7
  6
CONTINUOUS
 10
31.5533331958
 20
19.9495566062
  0
VERTEX
  8
___SYMBOL
 62
7
  6
CONTINUOUS
 10
31.5535125617
 20
19.9583384196
  0
VERTEX
  8
___SYMBOL
 62
7
  6
CONTINUOUS
 10
31.5535859231
 20
19.967124733
  0
VERTEX
  8
___SYMBOL
 62
7
  6
CONTINUOUS
 10
31.5535670538
 20
19.9759110997
  0
VERTEX
  8
___SYMBOL
 62
7
  6
CONTINUOUS
 10
31.5534161645
 20
19.9880345678
  0
VERTEX
  8
___SYMBOL
 62
7
  6
CONTINUOUS
 10
31.5531592772
 20
20.0001465961
  0
VERTEX
  8
___SYMBOL
 62
7
  6
CONTINUOUS
 10
31.5528399308
 20
20.0122441187
  0
VERTEX
  8
___SYMBOL
 62
7
  6
CONTINUOUS
 10
31.552501664
 20
20.0243240701
  0
VERTEX
  8
___SYMBOL
 62
7
  6
CONTINUOUS
 10
31.5521880157
 20
20.0363833846
  0
VERTEX
  8
___SYMBOL
 62
7
  6
CONTINUOUS
 10
31.5519425248
 20
20.0484189965
  0
VERTEX
  8
___SYMBOL
 62
7
  6
CONTINUOUS
 10
31.5518087301
 20
20.0604278403
  0
VERTEX
  8
___SYMBOL
 62
7
  6
CONTINUOUS
 10
31.5518301703
 20
20.0724068501
  0
VERTEX
  8
___SYMBOL
 62
7
  6
CONTINUOUS
 10
31.5520503844
 20
20.0843529605
  0
VERTEX
  8
___SYMBOL
 62
7
  6
CONTINUOUS
 10
31.5525507662
 20
20.0973791453
  0
VERTEX
  8
___SYMBOL
 62
7
  6
CONTINUOUS
 10
31.5532825334
 20
20.1104010433
  0
VERTEX
  8
___SYMBOL
 62
7
  6
CONTINUOUS
 10
31.5541874496
 20
20.1234573544
  0
VERTEX
  8
___SYMBOL
 62
7
  6
CONTINUOUS
 10
31.5552072783
 20
20.1365867789
  0
VERTEX
  8
___SYMBOL
 62
7
  6
CONTINUOUS
 10
31.556283783
 20
20.1498280168
  0
VERTEX
  8
___SYMBOL
 62
7
  6
CONTINUOUS
 10
31.5573587272
 20
20.1632197683
  0
VERTEX
  8
___SYMBOL
 62
7
  6
CONTINUOUS
 10
31.5576759168
 20
20.1672729686
  0
VERTEX
  8
___SYMBOL
 62
7
  6
CONTINUOUS
 10
31.5580073696
 20
20.1713334278
  0
VERTEX
  8
___SYMBOL
 62
7
  6
CONTINUOUS
 10
31.5583727372
 20
20.1753913556
  0
VERTEX
  8
___SYMBOL
 62
7
  6
CONTINUOUS
 10
31.5587916707
 20
20.1794369621
  0
VERTEX
  8
___SYMBOL
 62
7
  6
CONTINUOUS
 10
31.5592838214
 20
20.1834604572
  0
VERTEX
  8
___SYMBOL
 62
7
  6
CONTINUOUS
 10
31.5598688406
 20
20.1874520507
  0
VERTEX
  8
___SYMBOL
 62
7
  6
CONTINUOUS
 10
31.5605663797
 20
20.1914019525
  0
VERTEX
  8
___SYMBOL
 62
7
  6
CONTINUOUS
 10
31.5613960899
 20
20.1953003726
  0
VERTEX
  8
___SYMBOL
 62
7
  6
CONTINUOUS
 10
31.5623776225
 20
20.1991375208
  0
VERTEX
  8
___SYMBOL
 62
7
  6
CONTINUOUS
 10
31.5635306288
 20
20.2029036071
  0
VERTEX
  8
___SYMBOL
 62
7
  6
CONTINUOUS
 10
31.5648747601
 20
20.2065888414
  0
VERTEX
  8
___SYMBOL
 62
7
  6
CONTINUOUS
 10
31.5664296677
 20
20.2101834336
  0
VERTEX
  8
___SYMBOL
 62
7
  6
CONTINUOUS
 10
31.5682150029
 20
20.2136775936
  0
VERTEX
  8
___SYMBOL
 62
7
  6
CONTINUOUS
 10
31.570250417
 20
20.2170615313
  0
VERTEX
  8
___SYMBOL
 62
7
  6
CONTINUOUS
 10
31.5722979419
 20
20.219990677
  0
VERTEX
  8
___SYMBOL
 62
7
  6
CONTINUOUS
 10
31.5745468469
 20
20.2228079507
  0
VERTEX
  8
___SYMBOL
 62
7
  6
CONTINUOUS
 10
31.5769819383
 20
20.2254978418
  0
VERTEX
  8
___SYMBOL
 62
7
  6
CONTINUOUS
 10
31.5795880225
 20
20.2280448394
  0
VERTEX
  8
___SYMBOL
 62
7
  6
CONTINUOUS
 10
31.5823499057
 20
20.2304334329
  0
VERTEX
  8
___SYMBOL
 62
7
  6
CONTINUOUS
 10
31.5852523943
 20
20.2326481116
  0
VERTEX
  8
___SYMBOL
 62
7
  6
CONTINUOUS
 10
31.5882802946
 20
20.2346733646
  0
VERTEX
  8
___SYMBOL
 62
7
  6
CONTINUOUS
 10
31.5914184129
 20
20.2364936814
  0
VERTEX
  8
___SYMBOL
 62
7
  6
CONTINUOUS
 10
31.5946515556
 20
20.2380935512
  0
VERTEX
  8
___SYMBOL
 62
7
  6
CONTINUOUS
 10
31.5979645289
 20
20.2394574632
  0
VERTEX
  8
___SYMBOL
 62
7
  6
CONTINUOUS
 10
31.6013421393
 20
20.2405699067
  0
SEQEND
  0
POLYLINE
  8
___SYMBOL
 62
7
  6
CONTINUOUS
 66
1
 70
0
  0
VERTEX
  8
___SYMBOL
 62
7
  6
CONTINUOUS
 10
31.4998016806
 20
20.0513874539
  0
VERTEX
  8
___SYMBOL
 62
7
  6
CONTINUOUS
 10
31.4998412899
 20
20.066347732
  0
VERTEX
  8
___SYMBOL
 62
7
  6
CONTINUOUS
 10
31.4997252908
 20
20.0813196217
  0
VERTEX
  8
___SYMBOL
 62
7
  6
CONTINUOUS
 10
31.4995896602
 20
20.0921915329
  0
VERTEX
  8
___SYMBOL
 62
7
  6
CONTINUOUS
 10
31.4994430679
 20
20.1030787584
  0
VERTEX
  8
___SYMBOL
 62
7
  6
CONTINUOUS
 10
31.4993135658
 20
20.1139732448
  0
VERTEX
  8
___SYMBOL
 62
7
  6
CONTINUOUS
 10
31.4992292061
 20
20.1248669389
  0
VERTEX
  8
___SYMBOL
 62
7
  6
CONTINUOUS
 10
31.4992180411
 20
20.1357517874
  0
VERTEX
  8
___SYMBOL
 62
7
  6
CONTINUOUS
 10
31.4993081228
 20
20.1466197371
  0
VERTEX
  8
___SYMBOL
 62
7
  6
CONTINUOUS
 10
31.4995275034
 20
20.1574627347
  0
VERTEX
  8
___SYMBOL
 62
7
  6
CONTINUOUS
 10
31.499904235
 20
20.168272727
  0
VERTEX
  8
___SYMBOL
 62
7
  6
CONTINUOUS
 10
31.5004663699
 20
20.1790416607
  0
VERTEX
  8
___SYMBOL
 62
7
  6
CONTINUOUS
 10
31.5012419601
 20
20.1897614825
  0
VERTEX
  8
___SYMBOL
 62
7
  6
CONTINUOUS
 10
31.5017905354
 20
20.1958349586
  0
VERTEX
  8
___SYMBOL
 62
7
  6
CONTINUOUS
 10
31.5024309215
 20
20.2018915744
  0
VERTEX
  8
___SYMBOL
 62
7
  6
CONTINUOUS
 10
31.5031767803
 20
20.2079329678
  0
VERTEX
  8
___SYMBOL
 62
7
  6
CONTINUOUS
 10
31.5040417738
 20
20.2139607762
  0
VERTEX
  8
___SYMBOL
 62
7
  6
CONTINUOUS
 10
31.5050395639
 20
20.2199766376
  0
VERTEX
  8
___SYMBOL
 62
7
  6
CONTINUOUS
 10
31.5061838125
 20
20.2259821895
  0
VERTEX
  8
___SYMBOL
 62
7
  6
CONTINUOUS
 10
31.5074881816
 20
20.2319790697
  0
VERTEX
  8
___SYMBOL
 62
7
  6
CONTINUOUS
 10
31.508966333
 20
20.2379689158
  0
VERTEX
  8
___SYMBOL
 62
7
  6
CONTINUOUS
 10
31.5106319287
 20
20.2439533656
  0
VERTEX
  8
___SYMBOL
 62
7
  6
CONTINUOUS
 10
31.5124986306
 20
20.2499340568
  0
VERTEX
  8
___SYMBOL
 62
7
  6
CONTINUOUS
 10
31.5145801006
 20
20.2559126271
  0
VERTEX
  8
___SYMBOL
 62
7
  6
CONTINUOUS
 10
31.5168900007
 20
20.2618907141
  0
VERTEX
  8
___SYMBOL
 62
7
  6
CONTINUOUS
 10
31.5194419927
 20
20.2678699556
  0
VERTEX
  8
___SYMBOL
 62
7
  6
CONTINUOUS
 10
31.520900535
 20
20.2710513532
  0
VERTEX
  8
___SYMBOL
 62
7
  6
CONTINUOUS
 10
31.522420041
 20
20.2742331547
  0
VERTEX
  8
___SYMBOL
 62
7
  6
CONTINUOUS
 10
31.5239891122
 20
20.2774149739
  0
VERTEX
  8
___SYMBOL
 62
7
  6
CONTINUOUS
 10
31.5255963499
 20
20.2805964248
  0
VERTEX
  8
___SYMBOL
 62
7
  6
CONTINUOUS
 10
31.5272303557
 20
20.2837771211
  0
VERTEX
  8
___SYMBOL
 62
7
  6
CONTINUOUS
 10
31.5288797308
 20
20.2869566767
  0
VERTEX
  8
___SYMBOL
 62
7
  6
CONTINUOUS
 10
31.5305330768
 20
20.2901347056
  0
VERTEX
  8
___SYMBOL
 62
7
  6
CONTINUOUS
 10
31.532178995
 20
20.2933108216
  0
VERTEX
  8
___SYMBOL
 62
7
  6
CONTINUOUS
 10
31.5338060868
 20
20.2964846384
  0
VERTEX
  8
___SYMBOL
 62
7
  6
CONTINUOUS
 10
31.5354029537
 20
20.2996557701
  0
VERTEX
  8
___SYMBOL
 62
7
  6
CONTINUOUS
 10
31.5369581971
 20
20.3028238305
  0
VERTEX
  8
___SYMBOL
 62
7
  6
CONTINUOUS
 10
31.5384604184
 20
20.3059884334
  0
VERTEX
  8
___SYMBOL
 62
7
  6
CONTINUOUS
 10
31.539898219
 20
20.3091491927
  0
VERTEX
  8
___SYMBOL
 62
7
  6
CONTINUOUS
 10
31.5412602003
 20
20.3123057223
  0
VERTEX
  8
___SYMBOL
 62
7
  6
CONTINUOUS
 10
31.5425349638
 20
20.315457636
  0
VERTEX
  8
___SYMBOL
 62
7
  6
CONTINUOUS
 10
31.5437111108
 20
20.3186045477
  0
VERTEX
  8
___SYMBOL
 62
7
  6
CONTINUOUS
 10
31.5447772427
 20
20.3217460713
  0
VERTEX
  8
___SYMBOL
 62
7
  6
CONTINUOUS
 10
31.5457219611
 20
20.3248818206
  0
VERTEX
  8
___SYMBOL
 62
7
  6
CONTINUOUS
 10
31.5465338672
 20
20.3280114095
  0
VERTEX
  8
___SYMBOL
 62
7
  6
CONTINUOUS
 10
31.5472015626
 20
20.3311344519
  0
VERTEX
  8
___SYMBOL
 62
7
  6
CONTINUOUS
 10
31.5477136486
 20
20.3342505616
  0
VERTEX
  8
___SYMBOL
 62
7
  6
CONTINUOUS
 10
31.5480587266
 20
20.3373593525
  0
VERTEX
  8
___SYMBOL
 62
7
  6
CONTINUOUS
 10
31.5482253981
 20
20.3404604385
  0
VERTEX
  8
___SYMBOL
 62
7
  6
CONTINUOUS
 10
31.5482022644
 20
20.3435534334
  0
VERTEX
  8
___SYMBOL
 62
7
  6
CONTINUOUS
 10
31.5479779271
 20
20.3466379511
  0
VERTEX
  8
___SYMBOL
 62
7
  6
CONTINUOUS
 10
31.5475409874
 20
20.3497136055
  0
VERTEX
  8
___SYMBOL
 62
7
  6
CONTINUOUS
 10
31.5468800469
 20
20.3527800104
  0
VERTEX
  8
___SYMBOL
 62
7
  6
CONTINUOUS
 10
31.5459837069
 20
20.3558367797
  0
VERTEX
  8
___SYMBOL
 62
7
  6
CONTINUOUS
 10
31.5454710301
 20
20.3573102025
  0
VERTEX
  8
___SYMBOL
 62
7
  6
CONTINUOUS
 10
31.5449440408
 20
20.3587932703
  0
VERTEX
  8
___SYMBOL
 62
7
  6
CONTINUOUS
 10
31.5444458895
 20
20.3602979613
  0
VERTEX
  8
___SYMBOL
 62
7
  6
CONTINUOUS
 10
31.5440197266
 20
20.361836254
  0
VERTEX
  8
___SYMBOL
 62
7
  6
CONTINUOUS
 10
31.5437087028
 20
20.3634201266
  0
VERTEX
  8
___SYMBOL
 62
7
  6
CONTINUOUS
 10
31.5435538103
 20
20.3649605398
  0
VERTEX
  8
___SYMBOL
 62
7
  6
CONTINUOUS
 10
31.5435406483
 20
20.3665286758
  0
VERTEX
  8
___SYMBOL
 62
7
  6
CONTINUOUS
 10
31.5436702099
 20
20.3681010818
  0
VERTEX
  8
___SYMBOL
 62
7
  6
CONTINUOUS
 10
31.5439434878
 20
20.3696543047
  0
VERTEX
  8
___SYMBOL
 62
7
  6
CONTINUOUS
 10
31.5443614751
 20
20.3711648914
  0
VERTEX
  8
___SYMBOL
 62
7
  6
CONTINUOUS
 10
31.5449251647
 20
20.372609389
  0
VERTEX
  8
___SYMBOL
 62
7
  6
CONTINUOUS
 10
31.5456355495
 20
20.3739643444
  0
VERTEX
  8
___SYMBOL
 62
7
  6
CONTINUOUS
 10
31.5464936224
 20
20.3752063045
  0
VERTEX
  8
___SYMBOL
 62
7
  6
CONTINUOUS
 10
31.5475003763
 20
20.3763118164
  0
SEQEND
  0
POLYLINE
  8
___SYMBOL
 62
7
  6
CONTINUOUS
 66
1
 70
0
  0
VERTEX
  8
___SYMBOL
 62
7
  6
CONTINUOUS
 10
31.9078086607
 20
19.7725641409
  0
VERTEX
  8
___SYMBOL
 62
7
  6
CONTINUOUS
 10
31.9288078667
 20
19.7766525459
  0
VERTEX
  8
___SYMBOL
 62
7
  6
CONTINUOUS
 10
31.948837692
 20
19.7868945532
  0
VERTEX
  8
___SYMBOL
 62
7
  6
CONTINUOUS
 10
31.9661434303
 20
19.8023927481
  0
VERTEX
  8
___SYMBOL
 62
7
  6
CONTINUOUS
 10
31.9805133831
 20
19.8229580597
  0
VERTEX
  8
___SYMBOL
 62
7
  6
CONTINUOUS
 10
31.9906886733
 20
19.8467881935
  0
VERTEX
  8
___SYMBOL
 62
7
  6
CONTINUOUS
 10
31.9965447315
 20
19.8735923701
  0
VERTEX
  8
___SYMBOL
 62
7
  6
CONTINUOUS
 10
31.9975686989
 20
19.9010217279
  0
VERTEX
  8
___SYMBOL
 62
7
  6
CONTINUOUS
 10
31.9938669498
 20
19.928219442
  0
VERTEX
  8
___SYMBOL
 62
7
  6
CONTINUOUS
 10
31.9854173229
 20
19.9543222727
  0
VERTEX
  8
___SYMBOL
 62
7
  6
CONTINUOUS
 10
31.972960238
 20
19.9770431763
  0
VERTEX
  8
___SYMBOL
 62
7
  6
CONTINUOUS
 10
31.9566477913
 20
19.9961043207
  0
VERTEX
  8
___SYMBOL
 62
7
  6
CONTINUOUS
 10
31.9379092684
 20
20.0098356789
  0
VERTEX
  8
___SYMBOL
 62
7
  6
CONTINUOUS
 10
31.9169736302
 20
20.0180696416
  0
VERTEX
  8
___SYMBOL
 62
7
  6
CONTINUOUS
 10
31.8956753636
 20
20.0200845679
  0
VERTEX
  8
___SYMBOL
 62
7
  6
CONTINUOUS
 10
31.8746762742
 20
20.0159962796
  0
VERTEX
  8
___SYMBOL
 62
7
  6
CONTINUOUS
 10
31.8546463323
 20
20.0057542722
  0
VERTEX
  8
___SYMBOL
 62
7
  6
CONTINUOUS
 10
31.8373407106
 20
19.9902559607
  0
VERTEX
  8
___SYMBOL
 62
7
  6
CONTINUOUS
 10
31.8229706413
 20
19.9696906491
  0
VERTEX
  8
___SYMBOL
 62
7
  6
CONTINUOUS
 10
31.8127954676
 20
19.9458605153
  0
VERTEX
  8
___SYMBOL
 62
7
  6
CONTINUOUS
 10
31.8069392928
 20
19.9190563387
  0
VERTEX
  8
___SYMBOL
 62
7
  6
CONTINUOUS
 10
31.8059153254
 20
19.8916269809
  0
VERTEX
  8
___SYMBOL
 62
7
  6
CONTINUOUS
 10
31.8096170745
 20
19.8644292668
  0
VERTEX
  8
___SYMBOL
 62
7
  6
CONTINUOUS
 10
31.8180667014
 20
19.8383264362
  0
VERTEX
  8
___SYMBOL
 62
7
  6
CONTINUOUS
 10
31.830523903
 20
19.8156055325
  0
VERTEX
  8
___SYMBOL
 62
7
  6
CONTINUOUS
 10
31.8468363497
 20
19.7965443881
  0
VERTEX
  8
___SYMBOL
 62
7
  6
CONTINUOUS
 10
31.8655748726
 20
19.7828130299
  0
VERTEX
  8
___SYMBOL
 62
7
  6
CONTINUOUS
 10
31.8865103941
 20
19.7745791838
  0
VERTEX
  8
___SYMBOL
 62
7
  6
CONTINUOUS
 10
31.9078086607
 20
19.7725641409
  0
SEQEND
  0
POLYLINE
  8
___SYMBOL
 62
7
  6
CONTINUOUS
 66
1
 70
0
  0
VERTEX
  8
___SYMBOL
 62
7
  6
CONTINUOUS
 10
31.7821110929
 20
19.8243077195
  0
VERTEX
  8
___SYMBOL
 62
7
  6
CONTINUOUS
 10
31.7852623684
 20
19.8142732151
  0
VERTEX
  8
___SYMBOL
 62
7
  6
CONTINUOUS
 10
31.7888313504
 20
19.8045329534
  0
VERTEX
  8
___SYMBOL
 62
7
  6
CONTINUOUS
 10
31.7928052402
 20
19.795121864
  0
VERTEX
  8
___SYMBOL
 62
7
  6
CONTINUOUS
 10
31.7971697872
 20
19.7860736957
  0
VERTEX
  8
___SYMBOL
 62
7
  6
CONTINUOUS
 10
31.8019093396
 20
19.7774208963
  0
VERTEX
  8
___SYMBOL
 62
7
  6
CONTINUOUS
 10
31.8070069011
 20
19.7691944953
  0
VERTEX
  8
___SYMBOL
 62
7
  6
CONTINUOUS
 10
31.8124441913
 20
19.7614239934
  0
VERTEX
  8
___SYMBOL
 62
7
  6
CONTINUOUS
 10
31.8182017115
 20
19.7541372564
  0
VERTEX
  8
___SYMBOL
 62
7
  6
CONTINUOUS
 10
31.8242588148
 20
19.747360415
  0
VERTEX
  8
___SYMBOL
 62
7
  6
CONTINUOUS
 10
31.83059378
 20
19.7411177718
  0
VERTEX
  8
___SYMBOL
 62
7
  6
CONTINUOUS
 10
31.8371838891
 20
19.7354317132
  0
VERTEX
  8
___SYMBOL
 62
7
  6
CONTINUOUS
 10
31.8440055096
 20
19.7303226302
  0
VERTEX
  8
___SYMBOL
 62
7
  6
CONTINUOUS
 10
31.8510341784
 20
19.7258088442
  0
VERTEX
  8
___SYMBOL
 62
7
  6
CONTINUOUS
 10
31.8582446902
 20
19.7219065422
  0
VERTEX
  8
___SYMBOL
 62
7
  6
CONTINUOUS
 10
31.8656111873
 20
19.7186297182
  0
VERTEX
  8
___SYMBOL
 62
7
  6
CONTINUOUS
 10
31.8731072529
 20
19.7159901231
  0
VERTEX
  8
___SYMBOL
 62
7
  6
CONTINUOUS
 10
31.8807060054
 20
19.7139972227
  0
VERTEX
  8
___SYMBOL
 62
7
  6
CONTINUOUS
 10
31.8883801949
 20
19.7126581638
  0
VERTEX
  8
___SYMBOL
 62
7
  6
CONTINUOUS
 10
31.8961023013
 20
19.7119777484
  0
VERTEX
  8
___SYMBOL
 62
7
  6
CONTINUOUS
 10
31.9038446322
 20
19.7119584164
  0
VERTEX
  8
___SYMBOL
 62
7
  6
CONTINUOUS
 10
31.911579423
 20
19.7126002373
  0
VERTEX
  8
___SYMBOL
 62
7
  6
CONTINUOUS
 10
31.9192789361
 20
19.7139009094
  0
VERTEX
  8
___SYMBOL
 62
7
  6
CONTINUOUS
 10
31.9269155602
 20
19.7158557683
  0
VERTEX
  8
___SYMBOL
 62
7
  6
CONTINUOUS
 10
31.9344619098
 20
19.7184578039
  0
VERTEX
  8
___SYMBOL
 62
7
  6
CONTINUOUS
 10
31.941890923
 20
19.7216976848
  0
VERTEX
  8
___SYMBOL
 62
7
  6
CONTINUOUS
 10
31.9491759587
 20
19.7255637927
  0
VERTEX
  8
___SYMBOL
 62
7
  6
CONTINUOUS
 10
31.9562908921
 20
19.7300422633
  0
VERTEX
  8
___SYMBOL
 62
7
  6
CONTINUOUS
 10
31.9632102083
 20
19.7351170364
  0
VERTEX
  8
___SYMBOL
 62
7
  6
CONTINUOUS
 10
31.9699090942
 20
19.7407699134
  0
VERTEX
  8
___SYMBOL
 62
7
  6
CONTINUOUS
 10
31.9763635269
 20
19.7469806227
  0
VERTEX
  8
___SYMBOL
 62
7
  6
CONTINUOUS
 10
31.9825503601
 20
19.7537268919
  0
VERTEX
  8
___SYMBOL
 62
7
  6
CONTINUOUS
 10
31.9884474075
 20
19.7609845286
  0
VERTEX
  8
___SYMBOL
 62
7
  6
CONTINUOUS
 10
31.9940335216
 20
19.7687275059
  0
VERTEX
  8
___SYMBOL
 62
7
  6
CONTINUOUS
 10
31.9992886701
 20
19.7769280571
  0
VERTEX
  8
___SYMBOL
 62
7
  6
CONTINUOUS
 10
32.0041940077
 20
19.7855567741
  0
VERTEX
  8
___SYMBOL
 62
7
  6
CONTINUOUS
 10
32.0087319432
 20
19.7945827136
  0
VERTEX
  8
___SYMBOL
 62
7
  6
CONTINUOUS
 10
32.0128862034
 20
19.8039735077
  0
VERTEX
  8
___SYMBOL
 62
7
  6
CONTINUOUS
 10
32.0166418905
 20
19.8136954803
  0
VERTEX
  8
___SYMBOL
 62
7
  6
CONTINUOUS
 10
32.0199855365
 20
19.8237137675
  0
VERTEX
  8
___SYMBOL
 62
7
  6
CONTINUOUS
 10
32.0229051506
 20
19.8339924428
  0
VERTEX
  8
___SYMBOL
 62
7
  6
CONTINUOUS
 10
32.0253902629
 20
19.8444946459
  0
VERTEX
  8
___SYMBOL
 62
7
  6
CONTINUOUS
 10
32.0274319615
 20
19.855182715
  0
VERTEX
  8
___SYMBOL
 62
7
  6
CONTINUOUS
 10
32.0290229248
 20
19.8660183217
  0
VERTEX
  8
___SYMBOL
 62
7
  6
CONTINUOUS
 10
32.0301574474
 20
19.8769626086
  0
VERTEX
  8
___SYMBOL
 62
7
  6
CONTINUOUS
 10
32.0308314607
 20
19.8879763284
  0
VERTEX
  8
___SYMBOL
 62
7
  6
CONTINUOUS
 10
32.0310425478
 20
19.899019985
  0
VERTEX
  8
___SYMBOL
 62
7
  6
CONTINUOUS
 10
32.0307899516
 20
19.9100539749
  0
VERTEX
  8
___SYMBOL
 62
7
  6
CONTINUOUS
 10
32.030074578
 20
19.9210387291
  0
VERTEX
  8
___SYMBOL
 62
7
  6
CONTINUOUS
 10
32.0288989924
 20
19.9319348553
  0
VERTEX
  8
___SYMBOL
 62
7
  6
CONTINUOUS
 10
32.0272674105
 20
19.9427032791
  0
VERTEX
  8
___SYMBOL
 62
7
  6
CONTINUOUS
 10
32.0251856833
 20
19.9533053839
  0
VERTEX
  8
___SYMBOL
 62
7
  6
CONTINUOUS
 10
32.022661276
 20
19.9637031496
  0
VERTEX
  8
___SYMBOL
 62
7
  6
CONTINUOUS
 10
32.0197032416
 20
19.9738592889
  0
VERTEX
  8
___SYMBOL
 62
7
  6
CONTINUOUS
 10
32.0163221876
 20
19.9837373809
  0
VERTEX
  8
___SYMBOL
 62
7
  6
CONTINUOUS
 10
32.0125302389
 20
19.9933020021
  0
VERTEX
  8
___SYMBOL
 62
7
  6
CONTINUOUS
 10
32.0083409938
 20
20.0025188526
  0
VERTEX
  8
___SYMBOL
 62
7
  6
CONTINUOUS
 10
32.0037694752
 20
20.0113548802
  0
VERTEX
  8
___SYMBOL
 62
7
  6
CONTINUOUS
 10
31.998832077
 20
20.0197783979
  0
VERTEX
  8
___SYMBOL
 62
7
  6
CONTINUOUS
 10
31.9935465052
 20
20.0277591984
  0
VERTEX
  8
___SYMBOL
 62
7
  6
CONTINUOUS
 10
31.9879317144
 20
20.0352686617
  0
VERTEX
  8
___SYMBOL
 62
7
  6
CONTINUOUS
 10
31.9820078396
 20
20.0422798582
  0
VERTEX
  8
___SYMBOL
 62
7
  6
CONTINUOUS
 10
31.9757961244
 20
20.0487676452
  0
VERTEX
  8
___SYMBOL
 62
7
  6
CONTINUOUS
 10
31.9693188446
 20
20.0547087569
  0
VERTEX
  8
___SYMBOL
 62
7
  6
CONTINUOUS
 10
31.9625992282
 20
20.0600818879
  0
VERTEX
  8
___SYMBOL
 62
7
  6
CONTINUOUS
 10
31.9556613725
 20
20.0648677696
  0
VERTEX
  8
___SYMBOL
 62
7
  6
CONTINUOUS
 10
31.9485301573
 20
20.0690492396
  0
VERTEX
  8
___SYMBOL
 62
7
  6
CONTINUOUS
 10
31.9412311556
 20
20.0726113026
  0
VERTEX
  8
___SYMBOL
 62
7
  6
CONTINUOUS
 10
31.9337905423
 20
20.0755411847
  0
VERTEX
  8
___SYMBOL
 62
7
  6
CONTINUOUS
 10
31.9262350003
 20
20.0778283792
  0
VERTEX
  8
___SYMBOL
 62
7
  6
CONTINUOUS
 10
31.9185916242
 20
20.079464684
  0
VERTEX
  8
___SYMBOL
 62
7
  6
CONTINUOUS
 10
31.910887824
 20
20.0804442311
  0
VERTEX
  8
___SYMBOL
 62
7
  6
CONTINUOUS
 10
31.9031512262
 20
20.0807635078
  0
VERTEX
  8
___SYMBOL
 62
7
  6
CONTINUOUS
 10
31.8954095749
 20
20.0804213691
  0
VERTEX
  8
___SYMBOL
 62
7
  6
CONTINUOUS
 10
31.8876906324
 20
20.079419042
  0
VERTEX
  8
___SYMBOL
 62
7
  6
CONTINUOUS
 10
31.8800220794
 20
20.0777601209
  0
VERTEX
  8
___SYMBOL
 62
7
  6
CONTINUOUS
 10
31.8724314162
 20
20.0754505548
  0
VERTEX
  8
___SYMBOL
 62
7
  6
CONTINUOUS
 10
31.8649458635
 20
20.0724986262
  0
VERTEX
  8
___SYMBOL
 62
7
  6
CONTINUOUS
 10
31.8575922651
 20
20.0689149207
  0
VERTEX
  8
___SYMBOL
 62
7
  6
CONTINUOUS
 10
31.8503969918
 20
20.06471229
  0
VERTEX
  8
___SYMBOL
 62
7
  6
CONTINUOUS
 10
31.8433858464
 20
20.059905805
  0
VERTEX
  8
___SYMBOL
 62
7
  6
CONTINUOUS
 10
31.8365839715
 20
20.0545127022
  0
VERTEX
  8
___SYMBOL
 62
7
  6
CONTINUOUS
 10
31.8300157593
 20
20.0485523218
  0
SEQEND
  0
POLYLINE
  8
___SYMBOL
 62
7
  6
CONTINUOUS
 66
1
 70
0
  0
VERTEX
  8
___SYMBOL
 62
7
  6
CONTINUOUS
 10
31.4254084802
 20
19.7863274579
  0
VERTEX
  8
___SYMBOL
 62
7
  6
CONTINUOUS
 10
31.4453722882
 20
19.7918674263
  0
VERTEX
  8
___SYMBOL
 62
7
  6
CONTINUOUS
 10
31.463937545
 20
19.8034693194
  0
VERTEX
  8
___SYMBOL
 62
7
  6
CONTINUOUS
 10
31.4794774963
 20
19.8201162847
  0
VERTEX
  8
___SYMBOL
 62
7
  6
CONTINUOUS
 10
31.4918023718
 20
19.8416051382
  0
VERTEX
  8
___SYMBOL
 62
7
  6
CONTINUOUS
 10
31.4998322758
 20
19.8660529883
  0
VERTEX
  8
___SYMBOL
 62
7
  6
CONTINUOUS
 10
31.5034690574
 20
19.8931612409
  0
VERTEX
  8
___SYMBOL
 62
7
  6
CONTINUOUS
 10
31.5023940607
 20
19.9205544408
  0
VERTEX
  8
___SYMBOL
 62
7
  6
CONTINUOUS
 10
31.496774545
 20
19.9473867272
  0
VERTEX
  8
___SYMBOL
 62
7
  6
CONTINUOUS
 10
31.4866540747
 20
19.9727963766
  0
VERTEX
  8
___SYMBOL
 62
7
  6
CONTINUOUS
 10
31.4729194507
 20
19.9945573472
  0
VERTEX
  8
___SYMBOL
 62
7
  6
CONTINUOUS
 10
31.4557383404
 20
20.0124034706
  0
VERTEX
  8
___SYMBOL
 62
7
  6
CONTINUOUS
 10
31.4366163108
 20
20.0247712107
  0
VERTEX
  8
___SYMBOL
 62
7
  6
CONTINUOUS
 10
31.4157868718
 20
20.0315095208
  0
VERTEX
  8
___SYMBOL
 62
7
  6
CONTINUOUS
 10
31.3950751208
 20
20.0320278613
  0
VERTEX
  8
___SYMBOL
 62
7
  6
CONTINUOUS
 10
31.3751113128
 20
20.0264877762
  0
VERTEX
  8
___SYMBOL
 62
7
  6
CONTINUOUS
 10
31.3565460561
 20
20.0148859998
  0
VERTEX
  8
___SYMBOL
 62
7
  6
CONTINUOUS
 10
31.3410061047
 20
19.9982390345
  0
VERTEX
  8
___SYMBOL
 62
7
  6
CONTINUOUS
 10
31.3286811709
 20
19.9767500644
  0
VERTEX
  8
___SYMBOL
 62
7
  6
CONTINUOUS
 10
31.3206513252
 20
19.9523022143
  0
VERTEX
  8
___SYMBOL
 62
7
  6
CONTINUOUS
 10
31.3170145436
 20
19.9251940783
  0
VERTEX
  8
___SYMBOL
 62
7
  6
CONTINUOUS
 10
31.3180895403
 20
19.8978008784
  0
VERTEX
  8
___SYMBOL
 62
7
  6
CONTINUOUS
 10
31.323709056
 20
19.870968592
  0
VERTEX
  8
___SYMBOL
 62
7
  6
CONTINUOUS
 10
31.3338295263
 20
19.845558826
  0
VERTEX
  8
___SYMBOL
 62
7
  6
CONTINUOUS
 10
31.3475641503
 20
19.823797972
  0
VERTEX
  8
___SYMBOL
 62
7
  6
CONTINUOUS
 10
31.3647452606
 20
19.8059518486
  0
VERTEX
  8
___SYMBOL
 62
7
  6
CONTINUOUS
 10
31.3838672902
 20
19.7935841085
  0
VERTEX
  8
___SYMBOL
 62
7
  6
CONTINUOUS
 10
31.4046967292
 20
19.7868457984
  0
VERTEX
  8
___SYMBOL
 62
7
  6
CONTINUOUS
 10
31.4254084802
 20
19.7863274579
  0
SEQEND
  0
POLYLINE
  8
___SYMBOL
 62
7
  6
CONTINUOUS
 66
1
 70
0
  0
VERTEX
  8
___SYMBOL
 62
7
  6
CONTINUOUS
 10
31.4764653122
 20
20.0398139274
  0
VERTEX
  8
___SYMBOL
 62
7
  6
CONTINUOUS
 10
31.469141377
 20
20.044880244
  0
VERTEX
  8
___SYMBOL
 62
7
  6
CONTINUOUS
 10
31.461594882
 20
20.049332713
  0
VERTEX
  8
___SYMBOL
 62
7
  6
CONTINUOUS
 10
31.4538554882
 20
20.053153834
  0
VERTEX
  8
___SYMBOL
 62
7
  6
CONTINUOUS
 10
31.445953615
 20
20.0563285886
  0
VERTEX
  8
___SYMBOL
 62
7
  6
CONTINUOUS
 10
31.4379203202
 20
20.0588444983
  0
VERTEX
  8
___SYMBOL
 62
7
  6
CONTINUOUS
 10
31.4297871783
 20
20.0606916746
  0
VERTEX
  8
___SYMBOL
 62
7
  6
CONTINUOUS
 10
31.4215861561
 20
20.0618628573
  0
VERTEX
  8
___SYMBOL
 62
7
  6
CONTINUOUS
 10
31.4133494873
 20
20.0623534431
  0
VERTEX
  8
___SYMBOL
 62
7
  6
CONTINUOUS
 10
31.4051095457
 20
20.0621615038
  0
VERTEX
  8
___SYMBOL
 62
7
  6
CONTINUOUS
 10
31.3968987179
 20
20.0612877937
  0
VERTEX
  8
___SYMBOL
 62
7
  6
CONTINUOUS
 10
31.3887492761
 20
20.059735747
  0
VERTEX
  8
___SYMBOL
 62
7
  6
CONTINUOUS
 10
31.3806932512
 20
20.0575114639
  0
VERTEX
  8
___SYMBOL
 62
7
  6
CONTINUOUS
 10
31.3727623071
 20
20.0546236868
  0
VERTEX
  8
___SYMBOL
 62
7
  6
CONTINUOUS
 10
31.3649876159
 20
20.051083766
  0
VERTEX
  8
___SYMBOL
 62
7
  6
CONTINUOUS
 10
31.3573997356
 20
20.0469056148
  0
VERTEX
  8
___SYMBOL
 62
7
  6
CONTINUOUS
 10
31.3500284898
 20
20.0421056554
  0
VERTEX
  8
___SYMBOL
 62
7
  6
CONTINUOUS
 10
31.342902851
 20
20.0367027537
  0
VERTEX
  8
___SYMBOL
 62
7
  6
CONTINUOUS
 10
31.336050826
 20
20.0307181455
  0
VERTEX
  8
___SYMBOL
 62
7
  6
CONTINUOUS
 10
31.3294993463
 20
20.024175353
  0
VERTEX
  8
___SYMBOL
 62
7
  6
CONTINUOUS
 10
31.3232741622
 20
20.0171000923
  0
VERTEX
  8
___SYMBOL
 62
7
  6
CONTINUOUS
 10
31.3173997415
 20
20.0095201722
  0
VERTEX
  8
___SYMBOL
 62
7
  6
CONTINUOUS
 10
31.3118991731
 20
20.0014653854
  0
VERTEX
  8
___SYMBOL
 62
7
  6
CONTINUOUS
 10
31.3067940769
 20
19.9929673906
  0
VERTEX
  8
___SYMBOL
 62
7
  6
CONTINUOUS
 10
31.302104518
 20
19.9840595887
  0
VERTEX
  8
___SYMBOL
 62
7
  6
CONTINUOUS
 10
31.2978489287
 20
19.9747769915
  0
VERTEX
  8
___SYMBOL
 62
7
  6
CONTINUOUS
 10
31.2940440351
 20
19.9651560836
  0
VERTEX
  8
___SYMBOL
 62
7
  6
CONTINUOUS
 10
31.2907047923
 20
19.9552346794
  0
VERTEX
  8
___SYMBOL
 62
7
  6
CONTINUOUS
 10
31.2878443249
 20
19.9450517747
  0
VERTEX
  8
___SYMBOL
 62
7
  6
CONTINUOUS
 10
31.2854738759
 20
19.9346473926
  0
VERTEX
  8
___SYMBOL
 62
7
  6
CONTINUOUS
 10
31.2836027622
 20
19.924062427
  0
VERTEX
  8
___SYMBOL
 62
7
  6
CONTINUOUS
 10
31.2822383381
 20
19.9133384816
  0
VERTEX
  8
___SYMBOL
 62
7
  6
CONTINUOUS
 10
31.2813859664
 20
19.9025177063
  0
VERTEX
  8
___SYMBOL
 62
7
  6
CONTINUOUS
 10
31.2810489973
 20
19.8916426314
  0
VERTEX
  8
___SYMBOL
 62
7
  6
CONTINUOUS
 10
31.2812287552
 20
19.880756001
  0
VERTEX
  8
___SYMBOL
 62
7
  6
CONTINUOUS
 10
31.2819245336
 20
19.8699006043
  0
VERTEX
  8
___SYMBOL
 62
7
  6
CONTINUOUS
 10
31.2831335978
 20
19.8591191079
  0
VERTEX
  8
___SYMBOL
 62
7
  6
CONTINUOUS
 10
31.2848511956
 20
19.8484538878
  0
VERTEX
  8
___SYMBOL
 62
7
  6
CONTINUOUS
 10
31.2870705762
 20
19.8379468631
  0
VERTEX
  8
___SYMBOL
 62
7
  6
CONTINUOUS
 10
31.2897830162
 20
19.8276393311
  0
VERTEX
  8
___SYMBOL
 62
7
  6
CONTINUOUS
 10
31.2929778548
 20
19.817571805
  0
VERTEX
  8
___SYMBOL
 62
7
  6
CONTINUOUS
 10
31.2966425346
 20
19.8077838546
  0
VERTEX
  8
___SYMBOL
 62
7
  6
CONTINUOUS
 10
31.3007626519
 20
19.798313951
  0
VERTEX
  8
___SYMBOL
 62
7
  6
CONTINUOUS
 10
31.3053220128
 20
19.7891993151
  0
VERTEX
  8
___SYMBOL
 62
7
  6
CONTINUOUS
 10
31.310302697
 20
19.7804757715
  0
VERTEX
  8
___SYMBOL
 62
7
  6
CONTINUOUS
 10
31.3156851281
 20
19.7721776075
  0
VERTEX
  8
___SYMBOL
 62
7
  6
CONTINUOUS
 10
31.3214481509
 20
19.7643374388
  0
VERTEX
  8
___SYMBOL
 62
7
  6
CONTINUOUS
 10
31.327569114
 20
19.7569860805
  0
VERTEX
  8
___SYMBOL
 62
7
  6
CONTINUOUS
 10
31.3340239593
 20
19.7501524269
  0
VERTEX
  8
___SYMBOL
 62
7
  6
CONTINUOUS
 10
31.3407873165
 20
19.7438633372
  0
VERTEX
  8
___SYMBOL
 62
7
  6
CONTINUOUS
 10
31.3478326025
 20
19.7381435304
  0
VERTEX
  8
___SYMBOL
 62
7
  6
CONTINUOUS
 10
31.3551321263
 20
19.7330154878
  0
VERTEX
  8
___SYMBOL
 62
7
  6
CONTINUOUS
 10
31.3626571973
 20
19.728499365
  0
VERTEX
  8
___SYMBOL
 62
7
  6
CONTINUOUS
 10
31.3703782389
 20
19.7246129123
  0
VERTEX
  8
___SYMBOL
 62
7
  6
CONTINUOUS
 10
31.3782649037
 20
19.7213714052
  0
VERTEX
  8
___SYMBOL
 62
7
  6
CONTINUOUS
 10
31.3862861938
 20
19.7187875842
  0
VERTEX
  8
___SYMBOL
 62
7
  6
CONTINUOUS
 10
31.3944105818
 20
19.716871605
  0
VERTEX
  8
___SYMBOL
 62
7
  6
CONTINUOUS
 10
31.4026061353
 20
19.7156309982
  0
VERTEX
  8
___SYMBOL
 62
7
  6
CONTINUOUS
 10
31.4108406422
 20
19.71507064
  0
VERTEX
  8
___SYMBOL
 62
7
  6
CONTINUOUS
 10
31.4190817371
 20
19.7151927327
  0
VERTEX
  8
___SYMBOL
 62
7
  6
CONTINUOUS
 10
31.4272970289
 20
19.7159967965
  0
VERTEX
  8
___SYMBOL
 62
7
  6
CONTINUOUS
 10
31.4354542279
 20
19.7174796712
  0
VERTEX
  8
___SYMBOL
 62
7
  6
CONTINUOUS
 10
31.4435212725
 20
19.7196355282
  0
VERTEX
  8
___SYMBOL
 62
7
  6
CONTINUOUS
 10
31.4514664557
 20
19.7224558942
  0
VERTEX
  8
___SYMBOL
 62
7
  6
CONTINUOUS
 10
31.4592585495
 20
19.7259296838
  0
VERTEX
  8
___SYMBOL
 62
7
  6
CONTINUOUS
 10
31.4668669273
 20
19.7300432435
  0
VERTEX
  8
___SYMBOL
 62
7
  6
CONTINUOUS
 10
31.474261685
 20
19.7347804053
  0
VERTEX
  8
___SYMBOL
 62
7
  6
CONTINUOUS
 10
31.4814137577
 20
19.7401225498
  0
VERTEX
  8
___SYMBOL
 62
7
  6
CONTINUOUS
 10
31.4882950347
 20
19.7460486802
  0
VERTEX
  8
___SYMBOL
 62
7
  6
CONTINUOUS
 10
31.4948784696
 20
19.7525355041
  0
VERTEX
  8
___SYMBOL
 62
7
  6
CONTINUOUS
 10
31.5011381863
 20
19.7595575253
  0
VERTEX
  8
___SYMBOL
 62
7
  6
CONTINUOUS
 10
31.5070495816
 20
19.7670871443
  0
VERTEX
  8
___SYMBOL
 62
7
  6
CONTINUOUS
 10
31.5125894209
 20
19.7750947662
  0
VERTEX
  8
___SYMBOL
 62
7
  6
CONTINUOUS
 10
31.5177359302
 20
19.7835489176
  0
VERTEX
  8
___SYMBOL
 62
7
  6
CONTINUOUS
 10
31.5224688815
 20
19.7924163698
  0
VERTEX
  8
___SYMBOL
 62
7
  6
CONTINUOUS
 10
31.5267696721
 20
19.8016622698
  0
VERTEX
  8
___SYMBOL
 62
7
  6
CONTINUOUS
 10
31.5306213981
 20
19.8112502771
  0
VERTEX
  8
___SYMBOL
 62
7
  6
CONTINUOUS
 10
31.5340089204
 20
19.8211427066
  0
VERTEX
  8
___SYMBOL
 62
7
  6
CONTINUOUS
 10
31.5369189245
 20
19.8313006767
  0
VERTEX
  8
___SYMBOL
 62
7
  6
CONTINUOUS
 10
31.5393399729
 20
19.8416842618
  0
VERTEX
  8
___SYMBOL
 62
7
  6
CONTINUOUS
 10
31.5412625497
 20
19.8522526501
  0
VERTEX
  8
___SYMBOL
 62
7
  6
CONTINUOUS
 10
31.5426790984
 20
19.8629643029
  0
SEQEND
  0
LINE
  8
___SYMBOL
 62
7
  6
CONTINUOUS
 10
31.6683164813
 20
20.4316108018
 11
31.6519333867
 21
20.4311057743
  0
ENDBLK
  8
0
  6
BYBLOCK
 62
0
  0
BLOCK
  8
___SYMBOL
 62
2
  6
CONTINUOUS
  2
SKU_LAV_KOHLER_BL4
 70
64
 10
14.9585648385
 20
23.8135297442
  0
LINE
  8
___SYMBOL
 62
2
  6
CONTINUOUS
 10
12.8650538049
 20
25.4329454663
 11
12.651750353
 21
25.1792971934
  0
LINE
  8
___SYMBOL
 62
2
  6
CONTINUOUS
 10
12.6729919929
 20
25.4329454663
 11
12.8650538049
 21
25.4329454663
  0
LINE
  8
___SYMBOL
 62
2
  6
CONTINUOUS
 10
12.6729919929
 20
25.4329454663
 11
12.5352278261
 21
25.2691242766
  0
LINE
  8
___SYMBOL
 62
2
  6
CONTINUOUS
 10
12.5352278261
 20
25.4329454663
 11
12.5352278261
 21
25.2691242766
  0
LINE
  8
___SYMBOL
 62
2
  6
CONTINUOUS
 10
12.3607275992
 20
25.4329454663
 11
12.5352278261
 21
25.4329454663
  0
LINE
  8
___SYMBOL
 62
2
  6
CONTINUOUS
 10
12.3607275992
 20
25.4329454663
 11
12.3607275992
 21
24.8470078135
  0
LINE
  8
___SYMBOL
 62
2
  6
CONTINUOUS
 10
12.5352278261
 20
24.847031817
 11
12.3607275992
 21
24.8470078135
  0
LINE
  8
___SYMBOL
 62
2
  6
CONTINUOUS
 10
12.5352278261
 20
25.048531651
 11
12.5352278261
 21
24.847031817
  0
LINE
  8
___SYMBOL
 62
2
  6
CONTINUOUS
 10
12.6889657662
 20
24.847031817
 11
12.5352278261
 21
25.048531651
  0
LINE
  8
___SYMBOL
 62
2
  6
CONTINUOUS
 10
12.6889657662
 20
24.847031817
 11
12.9052581877
 21
24.847031817
  0
LINE
  8
___SYMBOL
 62
2
  6
CONTINUOUS
 10
12.9052581877
 20
24.847031817
 11
12.651750353
 21
25.1792971934
  0
SOLID
  8
___SYMBOL
 62
2
  6
CONTINUOUS
 10
12.5352278261
 20
25.2691242766
 11
12.6729919929
 21
25.4329454663
 12
12.8650538049
 22
25.4329454663
 13
12.8650538049
 23
25.4329454663
  0
SOLID
  8
___SYMBOL
 62
2
  6
CONTINUOUS
 10
12.8650538049
 20
25.4329454663
 11
12.651750353
 21
25.1792971934
 12
12.5352278261
 22
25.2691242766
 13
12.5352278261
 23
25.2691242766
  0
SOLID
  8
___SYMBOL
 62
2
  6
CONTINUOUS
 10
12.5352278261
 20
25.048531651
 11
12.651750353
 21
25.1792971934
 12
12.6889657662
 22
24.847031817
 13
12.6889657662
 23
24.847031817
  0
SOLID
  8
___SYMBOL
 62
2
  6
CONTINUOUS
 10
12.651750353
 20
25.1792971934
 11
12.9052581877
 21
24.847031817
 12
12.6889657662
 22
24.847031817
 13
12.6889657662
 23
24.847031817
  0
SOLID
  8
___SYMBOL
 62
2
  6
CONTINUOUS
 10
12.5352278261
 20
24.847031817
 11
12.3607275992
 21
24.8470078135
 12
12.5352278261
 22
25.048531651
 13
12.5352278261
 23
25.048531651
  0
SOLID
  8
___SYMBOL
 62
2
  6
CONTINUOUS
 10
12.651750353
 20
25.1792971934
 11
12.5352278261
 21
25.048531651
 12
12.5352278261
 22
25.2691242766
 13
12.5352278261
 23
25.2691242766
  0
SOLID
  8
___SYMBOL
 62
2
  6
CONTINUOUS
 10
12.5352278261
 20
25.048531651
 11
12.3607275992
 21
24.8470078135
 12
12.5352278261
 22
25.2691242766
 13
12.5352278261
 23
25.2691242766
  0
SOLID
  8
___SYMBOL
 62
2
  6
CONTINUOUS
 10
12.5352278261
 20
25.2691242766
 11
12.3607275992
 21
24.8470078135
 12
12.5352278261
 22
25.4329454663
 13
12.5352278261
 23
25.4329454663
  0
SOLID
  8
___SYMBOL
 62
2
  6
CONTINUOUS
 10
12.3607275992
 20
24.8470078135
 11
12.3607275992
 21
25.4329454663
 12
12.5352278261
 22
25.4329454663
 13
12.5352278261
 23
25.4329454663
  0
CIRCLE
  8
___SYMBOL
 62
2
  6
CONTINUOUS
 10
13.0817670244
 20
25.1388673898
 40
0.298056591
  0
CIRCLE
  8
___SYMBOL
 62
2
  6
CONTINUOUS
 10
13.0817670244
 20
25.1388673898
 40
0.1247694151
  0
SOLID
  8
___SYMBOL
 62
2
  6
CONTINUOUS
 10
12.9896624725
 20
25.4223360529
 11
13.050611627
 21
25.4352911956
 12
13.1129224218
 22
25.4352911956
 13
13.1129224218
 23
25.4352911956
  0
SOLID
  8
___SYMBOL
 62
2
  6
CONTINUOUS
 10
13.1129224218
 20
25.4352911956
 11
13.1738715763
 21
25.4223360529
 12
12.9896624725
 22
25.4223360529
 13
12.9896624725
 23
25.4223360529
  0
SOLID
  8
___SYMBOL
 62
2
  6
CONTINUOUS
 10
12.9327387289
 20
25.3969919693
 11
12.9896624725
 21
25.4223360529
 12
13.1738715763
 22
25.4223360529
 13
13.1738715763
 23
25.4223360529
  0
SOLID
  8
___SYMBOL
 62
2
  6
CONTINUOUS
 10
13.1738715763
 20
25.4223360529
 11
13.2307953199
 21
25.3969919693
 12
12.9327387289
 22
25.3969919693
 13
12.9327387289
 23
25.3969919693
  0
SOLID
  8
___SYMBOL
 62
2
  6
CONTINUOUS
 10
12.8823282369
 20
25.3603666031
 11
12.9327387289
 21
25.3969919693
 12
13.2307953199
 22
25.3969919693
 13
13.2307953199
 23
25.3969919693
  0
SOLID
  8
___SYMBOL
 62
2
  6
CONTINUOUS
 10
13.2307953199
 20
25.3969919693
 11
13.2812058119
 21
25.3603666031
 12
12.8823282369
 22
25.3603666031
 13
12.8823282369
 23
25.3603666031
  0
SOLID
  8
___SYMBOL
 62
2
  6
CONTINUOUS
 10
12.840634177
 20
25.3140606583
 11
12.8823282369
 21
25.3603666031
 12
13.2812058119
 22
25.3603666031
 13
13.2812058119
 23
25.3603666031
  0
SOLID
  8
___SYMBOL
 62
2
  6
CONTINUOUS
 10
13.2812058119
 20
25.3603666031
 11
13.3228998718
 21
25.3140606583
 12
12.840634177
 22
25.3140606583
 13
12.840634177
 23
25.3140606583
  0
SOLID
  8
___SYMBOL
 62
2
  6
CONTINUOUS
 10
13.0817670244
 20
25.2636368048
 11
12.8094787796
 21
25.260097927
 12
13.3228998718
 22
25.3140606583
 13
13.3228998718
 23
25.3140606583
  0
SOLID
  8
___SYMBOL
 62
2
  6
CONTINUOUS
 10
12.8094787796
 20
25.260097927
 11
12.840634177
 21
25.3140606583
 12
13.3228998718
 22
25.3140606583
 13
13.3228998718
 23
25.3140606583
  0
SOLID
  8
___SYMBOL
 62
2
  6
CONTINUOUS
 10
13.3228998718
 20
25.3140606583
 11
13.3540552692
 21
25.260097927
 12
13.0817670244
 22
25.2636368048
 13
13.0817670244
 23
25.2636368048
  0
SOLID
  8
___SYMBOL
 62
2
  6
CONTINUOUS
 10
13.0817670244
 20
25.2636368048
 11
13.0432111548
 21
25.257530155
 12
12.8094787796
 22
25.260097927
 13
12.8094787796
 23
25.260097927
  0
SOLID
  8
___SYMBOL
 62
2
  6
CONTINUOUS
 10
13.120322894
 20
25.257530155
 11
13.0817670244
 21
25.2636368048
 12
13.3540552692
 22
25.260097927
 13
13.3540552692
 23
25.260097927
  0
SOLID
  8
___SYMBOL
 62
2
  6
CONTINUOUS
 10
12.9808264472
 20
25.2122050119
 11
12.790223685
 21
25.2008368396
 12
13.0084294023
 22
25.2398079669
 13
13.0084294023
 23
25.2398079669
  0
SOLID
  8
___SYMBOL
 62
2
  6
CONTINUOUS
 10
13.0084294023
 20
25.2398079669
 11
12.790223685
 21
25.2008368396
 12
13.0432111548
 22
25.257530155
 13
13.0432111548
 23
25.257530155
  0
SOLID
  8
___SYMBOL
 62
2
  6
CONTINUOUS
 10
12.790223685
 20
25.2008368396
 11
12.8094787796
 21
25.260097927
 12
13.0432111548
 22
25.257530155
 13
13.0432111548
 23
25.257530155
  0
SOLID
  8
___SYMBOL
 62
2
  6
CONTINUOUS
 10
13.120322894
 20
25.257530155
 11
13.3540552692
 21
25.260097927
 12
13.1551046465
 22
25.2398079669
 13
13.1551046465
 23
25.2398079669
  0
SOLID
  8
___SYMBOL
 62
2
  6
CONTINUOUS
 10
13.1551046465
 20
25.2398079669
 11
13.3540552692
 21
25.260097927
 12
13.1827076016
 22
25.2122050119
 13
13.1827076016
 23
25.2122050119
  0
SOLID
  8
___SYMBOL
 62
2
  6
CONTINUOUS
 10
13.3540552692
 20
25.260097927
 11
13.3733103638
 21
25.2008368396
 12
13.1827076016
 22
25.2122050119
 13
13.1827076016
 23
25.2122050119
  0
SOLID
  8
___SYMBOL
 62
2
  6
CONTINUOUS
 10
12.9808264472
 20
25.2122050119
 11
12.9631042592
 21
25.1774232594
 12
12.790223685
 22
25.2008368396
 13
12.790223685
 23
25.2008368396
  0
SOLID
  8
___SYMBOL
 62
2
  6
CONTINUOUS
 10
13.2004297896
 20
25.1774232594
 11
13.1827076016
 21
25.2122050119
 12
13.3733103638
 22
25.2008368396
 13
13.3733103638
 23
25.2008368396
  0
SOLID
  8
___SYMBOL
 62
2
  6
CONTINUOUS
 10
12.7837104334
 20
25.1388673898
 11
12.790223685
 21
25.2008368396
 12
12.9631042592
 22
25.1774232594
 13
12.9631042592
 23
25.1774232594
  0
SOLID
  8
___SYMBOL
 62
2
  6
CONTINUOUS
 10
12.9631042592
 20
25.1774232594
 11
12.9569976093
 21
25.1388673898
 12
12.7837104334
 22
25.1388673898
 13
12.7837104334
 23
25.1388673898
  0
SOLID
  8
___SYMBOL
 62
2
  6
CONTINUOUS
 10
13.2004297896
 20
25.1774232594
 11
13.3733103638
 21
25.2008368396
 12
13.2065364395
 22
25.1388673898
 13
13.2065364395
 23
25.1388673898
  0
SOLID
  8
___SYMBOL
 62
2
  6
CONTINUOUS
 10
13.3733103638
 20
25.2008368396
 11
13.3798236154
 21
25.1388673898
 12
13.2065364395
 22
25.1388673898
 13
13.2065364395
 23
25.1388673898
  0
SOLID
  8
___SYMBOL
 62
2
  6
CONTINUOUS
 10
13.2004297896
 20
25.1003115201
 11
13.2065364395
 21
25.1388673898
 12
13.3798236154
 22
25.1388673898
 13
13.3798236154
 23
25.1388673898
  0
SOLID
  8
___SYMBOL
 62
2
  6
CONTINUOUS
 10
12.9631042592
 20
25.1003115201
 11
12.790223685
 21
25.07689794
 12
12.9569976093
 22
25.1388673898
 13
12.9569976093
 23
25.1388673898
  0
SOLID
  8
___SYMBOL
 62
2
  6
CONTINUOUS
 10
12.790223685
 20
25.07689794
 11
12.7837104334
 21
25.1388673898
 12
12.9569976093
 22
25.1388673898
 13
12.9569976093
 23
25.1388673898
  0
SOLID
  8
___SYMBOL
 62
2
  6
CONTINUOUS
 10
13.3798236154
 20
25.1388673898
 11
13.3733103638
 21
25.07689794
 12
13.2004297896
 22
25.1003115201
 13
13.2004297896
 23
25.1003115201
  0
SOLID
  8
___SYMBOL
 62
2
  6
CONTINUOUS
 10
12.9631042592
 20
25.1003115201
 11
12.9808264472
 21
25.0655297677
 12
12.790223685
 22
25.07689794
 13
12.790223685
 23
25.07689794
  0
SOLID
  8
___SYMBOL
 62
2
  6
CONTINUOUS
 10
13.1827076016
 20
25.0655297677
 11
13.2004297896
 21
25.1003115201
 12
13.3733103638
 22
25.07689794
 13
13.3733103638
 23
25.07689794
  0
SOLID
  8
___SYMBOL
 62
2
  6
CONTINUOUS
 10
13.0432111548
 20
25.0202046245
 11
12.8094787796
 21
25.0176368525
 12
13.0084294023
 22
25.0379268126
 13
13.0084294023
 23
25.0379268126
  0
SOLID
  8
___SYMBOL
 62
2
  6
CONTINUOUS
 10
13.0084294023
 20
25.0379268126
 11
12.8094787796
 21
25.0176368525
 12
12.9808264472
 22
25.0655297677
 13
12.9808264472
 23
25.0655297677
  0
SOLID
  8
___SYMBOL
 62
2
  6
CONTINUOUS
 10
12.8094787796
 20
25.0176368525
 11
12.790223685
 21
25.07689794
 12
12.9808264472
 22
25.0655297677
 13
12.9808264472
 23
25.0655297677
  0
SOLID
  8
___SYMBOL
 62
2
  6
CONTINUOUS
 10
13.1827076016
 20
25.0655297677
 11
13.3733103638
 21
25.07689794
 12
13.1551046465
 22
25.0379268126
 13
13.1551046465
 23
25.0379268126
  0
SOLID
  8
___SYMBOL
 62
2
  6
CONTINUOUS
 10
13.1551046465
 20
25.0379268126
 11
13.3733103638
 21
25.07689794
 12
13.120322894
 22
25.0202046245
 13
13.120322894
 23
25.0202046245
  0
SOLID
  8
___SYMBOL
 62
2
  6
CONTINUOUS
 10
13.3733103638
 20
25.07689794
 11
13.3540552692
 21
25.0176368525
 12
13.120322894
 22
25.0202046245
 13
13.120322894
 23
25.0202046245
  0
SOLID
  8
___SYMBOL
 62
2
  6
CONTINUOUS
 10
13.0432111548
 20
25.0202046245
 11
13.0817670244
 21
25.0140979747
 12
12.8094787796
 22
25.0176368525
 13
12.8094787796
 23
25.0176368525
  0
SOLID
  8
___SYMBOL
 62
2
  6
CONTINUOUS
 10
13.0817670244
 20
25.0140979747
 11
13.120322894
 21
25.0202046245
 12
13.3540552692
 22
25.0176368525
 13
13.3540552692
 23
25.0176368525
  0
SOLID
  8
___SYMBOL
 62
2
  6
CONTINUOUS
 10
12.840634177
 20
24.9636741212
 11
12.8094787796
 21
25.0176368525
 12
13.0817670244
 22
25.0140979747
 13
13.0817670244
 23
25.0140979747
  0
SOLID
  8
___SYMBOL
 62
2
  6
CONTINUOUS
 10
13.0817670244
 20
25.0140979747
 11
13.3540552692
 21
25.0176368525
 12
12.840634177
 22
24.9636741212
 13
12.840634177
 23
24.9636741212
  0
SOLID
  8
___SYMBOL
 62
2
  6
CONTINUOUS
 10
13.3540552692
 20
25.0176368525
 11
13.3228998718
 21
24.9636741212
 12
12.840634177
 22
24.9636741212
 13
12.840634177
 23
24.9636741212
  0
SOLID
  8
___SYMBOL
 62
2
  6
CONTINUOUS
 10
12.8823282369
 20
24.9173681765
 11
12.840634177
 21
24.9636741212
 12
13.3228998718
 22
24.9636741212
 13
13.3228998718
 23
24.9636741212
  0
SOLID
  8
___SYMBOL
 62
2
  6
CONTINUOUS
 10
13.3228998718
 20
24.9636741212
 11
13.2812058119
 21
24.9173681765
 12
12.8823282369
 22
24.9173681765
 13
12.8823282369
 23
24.9173681765
  0
SOLID
  8
___SYMBOL
 62
2
  6
CONTINUOUS
 10
12.9327387289
 20
24.8807428102
 11
12.8823282369
 21
24.9173681765
 12
13.2812058119
 22
24.9173681765
 13
13.2812058119
 23
24.9173681765
  0
SOLID
  8
___SYMBOL
 62
2
  6
CONTINUOUS
 10
13.2812058119
 20
24.9173681765
 11
13.2307953199
 21
24.8807428102
 12
12.9327387289
 22
24.8807428102
 13
12.9327387289
 23
24.8807428102
  0
SOLID
  8
___SYMBOL
 62
2
  6
CONTINUOUS
 10
12.9896624725
 20
24.8553987267
 11
12.9327387289
 21
24.8807428102
 12
13.2307953199
 22
24.8807428102
 13
13.2307953199
 23
24.8807428102
  0
SOLID
  8
___SYMBOL
 62
2
  6
CONTINUOUS
 10
13.2307953199
 20
24.8807428102
 11
13.1738715763
 21
24.8553987267
 12
12.9896624725
 22
24.8553987267
 13
12.9896624725
 23
24.8553987267
  0
SOLID
  8
___SYMBOL
 62
2
  6
CONTINUOUS
 10
13.050611627
 20
24.842443584
 11
12.9896624725
 21
24.8553987267
 12
13.1738715763
 22
24.8553987267
 13
13.1738715763
 23
24.8553987267
  0
SOLID
  8
___SYMBOL
 62
2
  6
CONTINUOUS
 10
13.1738715763
 20
24.8553987267
 11
13.1129224218
 21
24.842443584
 12
13.050611627
 22
24.842443584
 13
13.050611627
 23
24.842443584
  0
LINE
  8
___SYMBOL
 62
2
  6
CONTINUOUS
 10
13.8744030336
 20
25.4329454663
 11
13.8744030336
 21
24.847031817
  0
LINE
  8
___SYMBOL
 62
2
  6
CONTINUOUS
 10
13.8744030336
 20
24.847031817
 11
13.7096693537
 21
24.847031817
  0
LINE
  8
___SYMBOL
 62
2
  6
CONTINUOUS
 10
13.7096693537
 20
25.0753564268
 11
13.7096693537
 21
24.847031817
  0
LINE
  8
___SYMBOL
 62
2
  6
CONTINUOUS
 10
13.5616725427
 20
25.0753564268
 11
13.7096693537
 21
25.0753564268
  0
LINE
  8
___SYMBOL
 62
2
  6
CONTINUOUS
 10
13.5616725427
 20
25.0753564268
 11
13.5616725427
 21
24.847031817
  0
LINE
  8
___SYMBOL
 62
2
  6
CONTINUOUS
 10
13.5616725427
 20
24.847031817
 11
13.3969388628
 21
24.847031817
  0
LINE
  8
___SYMBOL
 62
2
  6
CONTINUOUS
 10
13.3969388628
 20
25.4329454663
 11
13.3969388628
 21
24.847031817
  0
LINE
  8
___SYMBOL
 62
2
  6
CONTINUOUS
 10
13.3969388628
 20
25.4329454663
 11
13.5616725427
 21
25.4329454663
  0
LINE
  8
___SYMBOL
 62
2
  6
CONTINUOUS
 10
13.5616725427
 20
25.4329454663
 11
13.5616725427
 21
25.2125617067
  0
LINE
  8
___SYMBOL
 62
2
  6
CONTINUOUS
 10
13.5616725427
 20
25.2125617067
 11
13.7096693537
 21
25.2125617067
  0
LINE
  8
___SYMBOL
 62
2
  6
CONTINUOUS
 10
13.7096693537
 20
25.4329454663
 11
13.7096693537
 21
25.2125617067
  0
LINE
  8
___SYMBOL
 62
2
  6
CONTINUOUS
 10
13.7096693537
 20
25.4329454663
 11
13.8744030336
 21
25.4329454663
  0
SOLID
  8
___SYMBOL
 62
2
  6
CONTINUOUS
 10
13.7096693537
 20
25.2125617067
 11
13.7096693537
 21
25.4329454663
 12
13.8744030336
 22
25.4329454663
 13
13.8744030336
 23
25.4329454663
  0
SOLID
  8
___SYMBOL
 62
2
  6
CONTINUOUS
 10
13.7096693537
 20
25.2125617067
 11
13.5616725427
 21
25.0753564268
 12
13.5616725427
 22
25.2125617067
 13
13.5616725427
 23
25.2125617067
  0
SOLID
  8
___SYMBOL
 62
2
  6
CONTINUOUS
 10
13.5616725427
 20
25.0753564268
 11
13.3969388628
 21
24.847031817
 12
13.5616725427
 22
25.2125617067
 13
13.5616725427
 23
25.2125617067
  0
SOLID
  8
___SYMBOL
 62
2
  6
CONTINUOUS
 10
13.5616725427
 20
25.2125617067
 11
13.3969388628
 21
24.847031817
 12
13.5616725427
 22
25.4329454663
 13
13.5616725427
 23
25.4329454663
  0
SOLID
  8
___SYMBOL
 62
2
  6
CONTINUOUS
 10
13.3969388628
 20
24.847031817
 11
13.3969388628
 21
25.4329454663
 12
13.5616725427
 22
25.4329454663
 13
13.5616725427
 23
25.4329454663
  0
SOLID
  8
___SYMBOL
 62
2
  6
CONTINUOUS
 10
13.5616725427
 20
25.0753564268
 11
13.5616725427
 21
24.847031817
 12
13.3969388628
 22
24.847031817
 13
13.3969388628
 23
24.847031817
  0
SOLID
  8
___SYMBOL
 62
2
  6
CONTINUOUS
 10
13.5616725427
 20
25.0753564268
 11
13.7096693537
 21
25.2125617067
 12
13.7096693537
 22
25.0753564268
 13
13.7096693537
 23
25.0753564268
  0
SOLID
  8
___SYMBOL
 62
2
  6
CONTINUOUS
 10
13.7096693537
 20
25.2125617067
 11
13.8744030336
 21
25.4329454663
 12
13.7096693537
 22
25.0753564268
 13
13.7096693537
 23
25.0753564268
  0
SOLID
  8
___SYMBOL
 62
2
  6
CONTINUOUS
 10
13.7096693537
 20
25.0753564268
 11
13.8744030336
 21
25.4329454663
 12
13.7096693537
 22
24.847031817
 13
13.7096693537
 23
24.847031817
  0
SOLID
  8
___SYMBOL
 62
2
  6
CONTINUOUS
 10
13.8744030336
 20
25.4329454663
 11
13.8744030336
 21
24.847031817
 12
13.7096693537
 22
24.847031817
 13
13.7096693537
 23
24.847031817
  0
LINE
  8
___SYMBOL
 62
2
  6
CONTINUOUS
 10
14.0694939405
 20
24.847031817
 11
14.2321780105
 21
24.847031817
  0
LINE
  8
___SYMBOL
 62
2
  6
CONTINUOUS
 10
14.0694939405
 20
24.847031817
 11
13.9194478778
 21
24.847031817
  0
LINE
  8
___SYMBOL
 62
2
  6
CONTINUOUS
 10
13.9194478778
 20
24.847031817
 11
13.9194478778
 21
25.4329454663
  0
LINE
  8
___SYMBOL
 62
2
  6
CONTINUOUS
 10
13.9194478778
 20
25.4329454663
 11
14.0694939405
 21
25.4329454663
  0
LINE
  8
___SYMBOL
 62
2
  6
CONTINUOUS
 10
14.0694939405
 20
25.4329454663
 11
14.0694939405
 21
24.9882585741
  0
LINE
  8
___SYMBOL
 62
2
  6
CONTINUOUS
 10
14.0694939405
 20
24.9882585741
 11
14.2321780105
 21
24.9882585741
  0
LINE
  8
___SYMBOL
 62
2
  6
CONTINUOUS
 10
14.2321780105
 20
24.9882585741
 11
14.2321780105
 21
24.847031817
  0
SOLID
  8
___SYMBOL
 62
2
  6
CONTINUOUS
 10
14.2321780105
 20
24.9882585741
 11
13.9194478778
 21
24.847031817
 12
14.0694939405
 22
24.9882585741
 13
14.0694939405
 23
24.9882585741
  0
SOLID
  8
___SYMBOL
 62
2
  6
CONTINUOUS
 10
14.0694939405
 20
24.9882585741
 11
13.9194478778
 21
24.847031817
 12
14.0694939405
 22
25.4329454663
 13
14.0694939405
 23
25.4329454663
  0
SOLID
  8
___SYMBOL
 62
2
  6
CONTINUOUS
 10
13.9194478778
 20
24.847031817
 11
13.9194478778
 21
25.4329454663
 12
14.0694939405
 22
25.4329454663
 13
14.0694939405
 23
25.4329454663
  0
SOLID
  8
___SYMBOL
 62
2
  6
CONTINUOUS
 10
13.9194478778
 20
24.847031817
 11
14.2321780105
 21
24.9882585741
 12
14.0694939405
 22
24.847031817
 13
14.0694939405
 23
24.847031817
  0
SOLID
  8
___SYMBOL
 62
2
  6
CONTINUOUS
 10
14.2321780105
 20
24.9882585741
 11
14.2321780105
 21
24.847031817
 12
14.0694939405
 22
24.847031817
 13
14.0694939405
 23
24.847031817
  0
LINE
  8
___SYMBOL
 62
2
  6
CONTINUOUS
 10
14.5704299245
 20
25.0681801051
 11
14.5704299245
 21
25.2125617067
  0
LINE
  8
___SYMBOL
 62
2
  6
CONTINUOUS
 10
14.4195724011
 20
25.2125617067
 11
14.5704299245
 21
25.2125617067
  0
LINE
  8
___SYMBOL
 62
2
  6
CONTINUOUS
 10
14.4195724011
 20
25.2901860695
 11
14.4195724011
 21
25.2125617067
  0
LINE
  8
___SYMBOL
 62
2
  6
CONTINUOUS
 10
14.4195724011
 20
25.2901860695
 11
14.5704299245
 21
25.2901860695
  0
LINE
  8
___SYMBOL
 62
2
  6
CONTINUOUS
 10
14.5704299245
 20
25.2901860695
 11
14.5704299245
 21
25.4329454663
  0
LINE
  8
___SYMBOL
 62
2
  6
CONTINUOUS
 10
14.4337767245
 20
25.4329454663
 11
14.5704299245
 21
25.4329454663
  0
LINE
  8
___SYMBOL
 62
2
  6
CONTINUOUS
 10
14.2613257492
 20
25.4329454663
 11
14.4337767245
 21
25.4329454663
  0
LINE
  8
___SYMBOL
 62
2
  6
CONTINUOUS
 10
14.2613257492
 20
24.847031817
 11
14.2613257492
 21
25.4329454663
  0
LINE
  8
___SYMBOL
 62
2
  6
CONTINUOUS
 10
14.2613257492
 20
24.847031817
 11
14.5704299245
 21
24.847031817
  0
LINE
  8
___SYMBOL
 62
2
  6
CONTINUOUS
 10
14.5704299245
 20
24.847031817
 11
14.5704299245
 21
24.9882585741
  0
LINE
  8
___SYMBOL
 62
2
  6
CONTINUOUS
 10
14.4195724011
 20
24.9882585741
 11
14.5704299245
 21
24.9882585741
  0
LINE
  8
___SYMBOL
 62
2
  6
CONTINUOUS
 10
14.4195724011
 20
25.0681801051
 11
14.4195724011
 21
24.9882585741
  0
LINE
  8
___SYMBOL
 62
2
  6
CONTINUOUS
 10
14.4195724011
 20
25.0681801051
 11
14.5704299245
 21
25.0681801051
  0
SOLID
  8
___SYMBOL
 62
2
  6
CONTINUOUS
 10
14.5704299245
 20
25.4329454663
 11
14.5704299245
 21
25.2901860695
 12
14.4195724011
 22
25.2901860695
 13
14.4195724011
 23
25.2901860695
  0
SOLID
  8
___SYMBOL
 62
2
  6
CONTINUOUS
 10
14.5704299245
 20
25.2125617067
 11
14.5704299245
 21
25.0681801051
 12
14.4195724011
 22
25.0681801051
 13
14.4195724011
 23
25.0681801051
  0
SOLID
  8
___SYMBOL
 62
2
  6
CONTINUOUS
 10
14.5704299245
 20
24.9882585741
 11
14.2613257492
 21
24.847031817
 12
14.4195724011
 22
24.9882585741
 13
14.4195724011
 23
24.9882585741
  0
SOLID
  8
___SYMBOL
 62
2
  6
CONTINUOUS
 10
14.4195724011
 20
24.9882585741
 11
14.2613257492
 21
24.847031817
 12
14.4195724011
 22
25.0681801051
 13
14.4195724011
 23
25.0681801051
  0
SOLID
  8
___SYMBOL
 62
2
  6
CONTINUOUS
 10
14.5704299245
 20
25.2125617067
 11
14.4195724011
 21
25.0681801051
 12
14.4195724011
 22
25.2125617067
 13
14.4195724011
 23
25.2125617067
  0
SOLID
  8
___SYMBOL
 62
2
  6
CONTINUOUS
 10
14.4195724011
 20
25.0681801051
 11
14.2613257492
 21
24.847031817
 12
14.4195724011
 22
25.2125617067
 13
14.4195724011
 23
25.2125617067
  0
SOLID
  8
___SYMBOL
 62
2
  6
CONTINUOUS
 10
14.4195724011
 20
25.2125617067
 11
14.2613257492
 21
24.847031817
 12
14.4195724011
 22
25.2901860695
 13
14.4195724011
 23
25.2901860695
  0
SOLID
  8
___SYMBOL
 62
2
  6
CONTINUOUS
 10
14.5704299245
 20
25.4329454663
 11
14.4195724011
 21
25.2901860695
 12
14.4337767245
 22
25.4329454663
 13
14.4337767245
 23
25.4329454663
  0
SOLID
  8
___SYMBOL
 62
2
  6
CONTINUOUS
 10
14.4195724011
 20
25.2901860695
 11
14.2613257492
 21
24.847031817
 12
14.4337767245
 22
25.4329454663
 13
14.4337767245
 23
25.4329454663
  0
SOLID
  8
___SYMBOL
 62
2
  6
CONTINUOUS
 10
14.2613257492
 20
24.847031817
 11
14.2613257492
 21
25.4329454663
 12
14.4337767245
 22
25.4329454663
 13
14.4337767245
 23
25.4329454663
  0
SOLID
  8
___SYMBOL
 62
2
  6
CONTINUOUS
 10
14.5704299245
 20
24.9882585741
 11
14.5704299245
 21
24.847031817
 12
14.2613257492
 22
24.847031817
 13
14.2613257492
 23
24.847031817
  0
LINE
  8
___SYMBOL
 62
2
  6
CONTINUOUS
 10
15.0806803305
 20
24.847031817
 11
14.9212370875
 21
25.0986143582
  0
ARC
  8
___SYMBOL
 62
2
  6
CONTINUOUS
 10
14.8487978399
 20
25.2579359556
 40
0.1750166163
 50
294.4500166359
 51
90.0
  0
LINE
  8
___SYMBOL
 62
2
  6
CONTINUOUS
 10
14.6152501392
 20
25.4329454663
 11
14.8487978399
 21
25.4329454663
  0
LINE
  8
___SYMBOL
 62
2
  6
CONTINUOUS
 10
14.6152501392
 20
24.847031817
 11
14.6152501392
 21
25.4329454663
  0
LINE
  8
___SYMBOL
 62
2
  6
CONTINUOUS
 10
14.6152501392
 20
24.847031817
 11
14.7659059618
 21
24.847031817
  0
LINE
  8
___SYMBOL
 62
2
  6
CONTINUOUS
 10
14.7659059618
 20
25.0439881878
 11
14.7659059618
 21
24.847031817
  0
LINE
  8
___SYMBOL
 62
2
  6
CONTINUOUS
 10
14.890729391
 20
24.847031817
 11
14.7659059618
 21
25.0439881878
  0
LINE
  8
___SYMBOL
 62
2
  6
CONTINUOUS
 10
14.890729391
 20
24.847031817
 11
15.0806803305
 21
24.847031817
  0
LINE
  8
___SYMBOL
 62
2
  6
CONTINUOUS
 10
14.7659059618
 20
25.1832634985
 11
14.818245712
 21
25.1832634985
  0
ARC
  8
___SYMBOL
 62
2
  6
CONTINUOUS
 10
14.8218357413
 20
25.236754898
 40
0.053611735
 50
266.1604009902
 51
89.9998910512
  0
LINE
  8
___SYMBOL
 62
2
  6
CONTINUOUS
 10
14.8218358432
 20
25.290366633
 11
14.7659059618
 21
25.290366633
  0
LINE
  8
___SYMBOL
 62
2
  6
CONTINUOUS
 10
14.7659059618
 20
25.290366633
 11
14.7659059618
 21
25.1832634985
  0
SOLID
  8
___SYMBOL
 62
2
  6
CONTINUOUS
 10
14.8487978399
 20
25.4329525719
 11
14.8957308634
 21
25.4265423235
 12
14.6152501392
 22
25.4329454663
 13
14.6152501392
 23
25.4329454663
  0
SOLID
  8
___SYMBOL
 62
2
  6
CONTINUOUS
 10
14.7659059618
 20
25.290366633
 11
15.0198457029
 21
25.2949959685
 12
14.8218358432
 22
25.290366633
 13
14.8218358432
 23
25.290366633
  0
SOLID
  8
___SYMBOL
 62
2
  6
CONTINUOUS
 10
14.8218358432
 20
25.290366633
 11
15.0198457029
 21
25.2949959685
 12
14.8455584248
 22
25.2848324646
 13
14.8455584248
 23
25.2848324646
  0
SOLID
  8
___SYMBOL
 62
2
  6
CONTINUOUS
 10
14.8455584248
 20
25.2848324646
 11
15.0198457029
 21
25.2949959685
 12
14.8643834125
 22
25.2693725896
 13
14.8643834125
 23
25.2693725896
  0
SOLID
  8
___SYMBOL
 62
2
  6
CONTINUOUS
 10
15.0198457029
 20
25.2949959685
 11
15.0235189493
 21
25.2477698397
 12
14.8643834125
 22
25.2693725896
 13
14.8643834125
 23
25.2693725896
  0
SOLID
  8
___SYMBOL
 62
2
  6
CONTINUOUS
 10
14.8744243511
 20
25.247178729
 11
14.8643834125
 21
25.2693725896
 12
15.0235189493
 22
25.2477698397
 13
15.0235189493
 23
25.2477698397
  0
SOLID
  8
___SYMBOL
 62
2
  6
CONTINUOUS
 10
14.8744243511
 20
25.247178729
 11
15.0235189493
 21
25.2477698397
 12
14.8736082694
 22
25.2228328483
 13
14.8736082694
 23
25.2228328483
  0
SOLID
  8
___SYMBOL
 62
2
  6
CONTINUOUS
 10
14.8736082694
 20
25.2228328483
 11
15.0235189493
 21
25.2477698397
 12
14.8621036491
 22
25.2013612017
 13
14.8621036491
 23
25.2013612017
  0
SOLID
  8
___SYMBOL
 62
2
  6
CONTINUOUS
 10
15.0235189493
 20
25.2477698397
 11
15.0143933456
 21
25.2012884096
 12
14.8621036491
 22
25.2013612017
 13
14.8621036491
 23
25.2013612017
  0
SOLID
  8
___SYMBOL
 62
2
  6
CONTINUOUS
 10
14.8422856412
 20
25.1871966522
 11
14.8621036491
 21
25.2013612017
 12
15.0143933456
 22
25.2012884096
 13
15.0143933456
 23
25.2012884096
  0
SOLID
  8
___SYMBOL
 62
2
  6
CONTINUOUS
 10
14.8422856412
 20
25.1871966522
 11
15.0143933456
 21
25.2012884096
 12
14.818245712
 22
25.1832634985
 13
14.818245712
 23
25.1832634985
  0
SOLID
  8
___SYMBOL
 62
2
  6
CONTINUOUS
 10
15.0143933456
 20
25.2012884096
 11
14.9931373699
 21
25.1589565838
 12
14.818245712
 22
25.1832634985
 13
14.818245712
 23
25.1832634985
  0
SOLID
  8
___SYMBOL
 62
2
  6
CONTINUOUS
 10
14.9212370875
 20
25.0986143582
 11
14.7659059618
 21
25.0439881878
 12
14.9613080868
 22
25.1238752965
 13
14.9613080868
 23
25.1238752965
  0
SOLID
  8
___SYMBOL
 62
2
  6
CONTINUOUS
 10
14.9613080868
 20
25.1238752965
 11
14.7659059618
 21
25.0439881878
 12
14.9931373699
 22
25.1589565838
 13
14.9931373699
 23
25.1589565838
  0
SOLID
  8
___SYMBOL
 62
2
  6
CONTINUOUS
 10
14.9931373699
 20
25.1589565838
 11
14.7659059618
 21
25.0439881878
 12
14.818245712
 22
25.1832634985
 13
14.818245712
 23
25.1832634985
  0
SOLID
  8
___SYMBOL
 62
2
  6
CONTINUOUS
 10
14.7659059618
 20
25.0439881878
 11
14.6152501392
 21
24.847031817
 12
14.818245712
 22
25.1832634985
 13
14.818245712
 23
25.1832634985
  0
SOLID
  8
___SYMBOL
 62
2
  6
CONTINUOUS
 10
14.818245712
 20
25.1832634985
 11
14.6152501392
 21
24.847031817
 12
14.7659059618
 22
25.1832634985
 13
14.7659059618
 23
25.1832634985
  0
SOLID
  8
___SYMBOL
 62
2
  6
CONTINUOUS
 10
14.7659059618
 20
25.1832634985
 11
14.6152501392
 21
24.847031817
 12
14.7659059618
 22
25.290366633
 13
14.7659059618
 23
25.290366633
  0
SOLID
  8
___SYMBOL
 62
2
  6
CONTINUOUS
 10
15.0198457029
 20
25.2949959685
 11
14.7659059618
 21
25.290366633
 12
15.0036426828
 22
25.3395073392
 13
15.0036426828
 23
25.3395073392
  0
SOLID
  8
___SYMBOL
 62
2
  6
CONTINUOUS
 10
15.0036426828
 20
25.3395073392
 11
14.7659059618
 21
25.290366633
 12
14.9760968092
 22
25.3780433592
 13
14.9760968092
 23
25.3780433592
  0
SOLID
  8
___SYMBOL
 62
2
  6
CONTINUOUS
 10
14.9760968092
 20
25.3780433592
 11
14.7659059618
 21
25.290366633
 12
14.9392259009
 22
25.4077811483
 13
14.9392259009
 23
25.4077811483
  0
SOLID
  8
___SYMBOL
 62
2
  6
CONTINUOUS
 10
14.9392259009
 20
25.4077811483
 11
14.7659059618
 21
25.290366633
 12
14.8957308634
 22
25.4265423235
 13
14.8957308634
 23
25.4265423235
  0
SOLID
  8
___SYMBOL
 62
2
  6
CONTINUOUS
 10
14.8957308634
 20
25.4265423235
 11
14.7659059618
 21
25.290366633
 12
14.6152501392
 22
25.4329454663
 13
14.6152501392
 23
25.4329454663
  0
SOLID
  8
___SYMBOL
 62
2
  6
CONTINUOUS
 10
14.6152501392
 20
24.847031817
 11
14.6152501392
 21
25.4329454663
 12
14.7659059618
 22
25.290366633
 13
14.7659059618
 23
25.290366633
  0
SOLID
  8
___SYMBOL
 62
2
  6
CONTINUOUS
 10
14.7659059618
 20
25.0439881878
 11
14.7659059618
 21
24.847031817
 12
14.6152501392
 22
24.847031817
 13
14.6152501392
 23
24.847031817
  0
SOLID
  8
___SYMBOL
 62
2
  6
CONTINUOUS
 10
14.7659059618
 20
25.0439881878
 11
14.9212370875
 21
25.0986143582
 12
14.890729391
 22
24.847031817
 13
14.890729391
 23
24.847031817
  0
SOLID
  8
___SYMBOL
 62
2
  6
CONTINUOUS
 10
14.9212370875
 20
25.0986143582
 11
15.0806803305
 21
24.847031817
 12
14.890729391
 22
24.847031817
 13
14.890729391
 23
24.847031817
  0
CIRCLE
  8
___SYMBOL
 62
2
  6
CONTINUOUS
 10
15.2214503052
 20
24.847031817
 40
0.0653578721
  0
LINE
  8
___SYMBOL
 62
2
  6
CONTINUOUS
 10
15.2171622819
 20
24.8464940675
 11
15.2490302947
 21
24.8141911262
  0
LINE
  8
___SYMBOL
 62
2
  6
CONTINUOUS
 10
15.2055643057
 20
24.8141911262
 11
15.2055643057
 21
24.8801573251
  0
LINE
  8
___SYMBOL
 62
2
  6
CONTINUOUS
 10
15.2055643057
 20
24.8801573251
 11
15.2298436387
 21
24.8801573251
  0
ARC
  8
___SYMBOL
 62
2
  6
CONTINUOUS
 10
15.2298436387
 20
24.8633258754
 40
0.0168314496
 50
270.0
 51
90.0
  0
LINE
  8
___SYMBOL
 62
2
  6
CONTINUOUS
 10
15.2298436387
 20
24.8464940675
 11
15.2055643057
 21
24.8464940675
  0
TEXT
  8
___SYMBOL
 62
2
  6
CONTINUOUS
 10
12.3585648385
 20
24.4401355076
  7
STANDARD
 40
0.25
  1
CUT-OUT TEMPLATE
 41
0.8
 72
0
  0
TEXT
  8
___SYMBOL
 62
2
  6
CONTINUOUS
 10
12.3585648385
 20
24.0651355076
  7
STANDARD
 40
0.25
  1
SELF-RIMMING LAVATORY
 41
0.8
 72
0
  0
TEXT
  8
___SYMBOL
 62
2
  6
CONTINUOUS
 10
12.3585648385
 20
23.6901355076
  7
STANDARD
 40
0.25
  1
PLANTILLA DE RECORTE
 41
0.8
 72
0
  0
TEXT
  8
___SYMBOL
 62
2
  6
CONTINUOUS
 10
12.3585648385
 20
23.3151355076
  7
STANDARD
 40
0.25
  1
LAVABO CON BORDE TERMINADO
 41
0.8
 72
0
  0
TEXT
  8
___SYMBOL
 62
2
  6
CONTINUOUS
 10
12.3585648385
 20
22.9401355076
  7
STANDARD
 40
0.25
  1
PLAN DE DÉCOUPE
 41
0.8
 72
0
  0
TEXT
  8
___SYMBOL
 62
2
  6
CONTINUOUS
 10
12.3585648385
 20
22.5651355076
  7
STANDARD
 40
0.25
  1
LAVABO À REBORD INTÉGRÉ
 41
0.8
 72
0
  0
TEXT
  8
___SYMBOL
 62
2
  6
CONTINUOUS
 10
12.3585648385
 20
22.1901355076
  7
STANDARD
 40
0.25
  1
2991
 41
0.8
 72
0
  0
ENDBLK
  8
0
  6
BYBLOCK
 62
0
  0
BLOCK
  8
___SYMBOL
 62
2
  6
CONTINUOUS
  2
WHEN_PLOTTING_TEMPLATE_N_BL3
 70
64
 10
27.1213280473
 20
15.3737839008
  0
TEXT
  8
___SYMBOL
 62
2
  6
CONTINUOUS
 10
23.8088280473
 20
16.5847214008
  7
STANDARD
 40
0.15625
  1
WHEN PLOTTING TEMPLATE FULL SIZE:
 41
0.8
 72
0
  0
TEXT
  8
___SYMBOL
 62
2
  6
CONTINUOUS
 10
23.8088280473
 20
16.3503464008
  7
STANDARD
 40
0.15625
  1
Make sure horizontal and vertical dimensions
 41
0.8
 72
0
  0
TEXT
  8
___SYMBOL
 62
2
  6
CONTINUOUS
 10
23.8088280473
 20
16.1159714008
  7
STANDARD
 40
0.15625
  1
match the dimensions labeled on the template.
 41
0.8
 72
0
  0
TEXT
  8
___SYMBOL
 62
2
  6
CONTINUOUS
 10
23.8088280473
 20
15.6472214008
  7
STANDARD
 40
0.15625
  1
AL TRAZAR LA PLANTILLA A ESCALA,
 41
0.8
 72
0
  0
TEXT
  8
___SYMBOL
 62
2
  6
CONTINUOUS
 10
23.8088280473
 20
15.4128464008
  7
STANDARD
 40
0.15625
  1
asegúrese de que las dimensiones horizontales
 41
0.8
 72
0
  0
TEXT
  8
___SYMBOL
 62
2
  6
CONTINUOUS
 10
23.8088280473
 20
15.1784714008
  7
STANDARD
 40
0.15625
  1
y verticales concuerden con las dimensiones marcadas
 41
0.8
 72
0
  0
TEXT
  8
___SYMBOL
 62
2
  6
CONTINUOUS
 10
23.8088280473
 20
14.9440964008
  7
STANDARD
 40
0.15625
  1
en la plantilla.
 41
0.8
 72
0
  0
TEXT
  8
___SYMBOL
 62
2
  6
CONTINUOUS
 10
23.8088280473
 20
14.4753464008
  7
STANDARD
 40
0.15625
  1
AU MOMENT DE TRACER LA DÉCOUPE À L'ÉCHELLE,
 41
0.8
 72
0
  0
TEXT
  8
___SYMBOL
 62
2
  6
CONTINUOUS
 10
23.8088280473
 20
14.2409714008
  7
STANDARD
 40
0.15625
  1
Assurez vos que les dimensions horizotales et
 41
0.8
 72
0
  0
TEXT
  8
___SYMBOL
 62
2
  6
CONTINUOUS
 10
23.8088280473
 20
14.0065964008
  7
STANDARD
 40
0.15625
  1
verticales correspondent avec les dimensions du plan.
 41
0.8
 72
0
  0
ENDBLK
  8
0
  6
BYBLOCK
 62
0
  0
BLOCK
  8
___SYMBOL
 62
2
  6
CONTINUOUS
  2
TEMPLATE_NUMBER_BL2
 70
64
 10
14.283977525
 20
10.8191835347
  0
TEXT
  8
___SYMBOL
 62
2
  6
CONTINUOUS
 10
13.596477525
 20
10.7410585347
  7
STANDARD
 40
0.15625
  1
1162721-7
 41
0.8
 72
0
  0
TEXT
  8
___SYMBOL
 62
2
  6
CONTINUOUS
 10
14.721477525
 20
10.7410585347
  7
STANDARD
 40
0.15625
  1
-A
 41
0.8
 72
0
  0
ENDBLK
  8
0
  6
BYBLOCK
 62
0
  0
BLOCK
  8
___SYMBOL
 62
2
  6
CONTINUOUS
  2
TEMPLATE_NUMBER_BL1
 70
64
 10
14.283977525
 20
11.6427786387
  0
TEXT
  8
___SYMBOL
 62
2
  6
CONTINUOUS
 10
13.596477525
 20
11.5646536387
  7
STANDARD
 40
0.15625
  1
1162721-7
 41
0.8
 72
0
  0
TEXT
  8
___SYMBOL
 62
2
  6
CONTINUOUS
 10
14.721477525
 20
11.5646536387
  7
STANDARD
 40
0.15625
  1
-A
 41
0.8
 72
0
  0
ENDBLK
  8
0
  6
BYBLOCK
 62
0
  0
BLOCK
  8
___SYMBOL
 62
2
  6
CONTINUOUS
  2
COPYRIGHT_YEAR_BL0
 70
64
 10
29.0061868393
 20
11.6759203488
  0
CIRCLE
  8
___SYMBOL
 62
7
  6
CONTINUOUS
 10
28.0703330907
 20
11.6759203488
 40
0.1323570371
  0
TEXT
  8
___SYMBOL
 62
2
  6
CONTINUOUS
 10
28.199397625
 20
11.5982053051
  7
STANDARD
 40
0.15625
  1
2011
 41
0.8
 72
0
  0
TEXT
  8
___SYMBOL
 62
2
  6
CONTINUOUS
 10
28.699397625
 20
11.5982053051
  7
STANDARD
 40
0.15625
  1
 KOHLER CO.
 41
0.8
 72
0
  0
TEXT
  8
___SYMBOL
 62
2
  6
CONTINUOUS
 10
27.9975798187
 20
11.6005340551
  7
TEXTSTYLE_2
 40
0.15625
  1
C
 41
1.0
 72
0
  0
ENDBLK
  8
0
  6
BYBLOCK
 62
0
  0
BLOCK
  8
0
  2
_FILLED
 70
64
 10
0.0
 20
0.0
  0
SOLID
  8
0
  6
BYBLOCK
 62
0
 10
0.0
 20
0.0
 11
-1.0
 21
0.1666666667
 12
-1.0
 22
-0.1666666667
 13
-1.0
 23
-0.1666666667
  0
ENDBLK
  8
0
  6
BYBLOCK
 62
0
  0
BLOCK
  8
0
 62
2
  6
CONTINUOUS
  2
*D0
 70
65
 10
0.0
 20
0.0
  0
TEXT
  8
0
 62
2
  6
CONTINUOUS
 10
17.72094
 20
18.9963068636
  7
STANDARD
 40
0.15625
  1
15-7/32
 41
0.8
 72
1
 11
18.15844
 21
18.9963068636
  0
TEXT
  8
0
 62
2
  6
CONTINUOUS
 10
17.59594
 20
18.7619318636
  7
STANDARD
 40
0.15625
  1
[38,7 cm]
 41
0.8
 72
1
 11
18.15844
 21
18.7619318636
  0
LINE
  8
0
 62
2
  6
CONTINUOUS
 10
12.3768331384
 20
25.9375182068
 11
18.28344
 21
25.9375182068
  0
LINE
  8
0
 62
2
  6
CONTINUOUS
 10
21.4248728198
 20
10.719639474
 11
18.03344
 21
10.719639474
  0
LINE
  8
0
 62
2
  6
CONTINUOUS
 10
18.15844
 20
25.9375182068
 11
18.15844
 21
19.2306818636
  0
LINE
  8
0
 62
2
  6
CONTINUOUS
 10
18.15844
 20
10.719639474
 11
18.15844
 21
18.6838068636
  0
INSERT
  8
0
 62
2
  6
CONTINUOUS
  2
_FILLED
 10
18.15844
 20
25.9375182068
 41
0.1875
 42
0.1875
 43
0.1875
 50
90.0
  0
INSERT
  8
0
 62
2
  6
CONTINUOUS
  2
_FILLED
 10
18.15844
 20
10.719639474
 41
0.1875
 42
0.1875
 43
0.1875
 50
270.0
  0
ENDBLK
  8
0
  6
BYBLOCK
 62
0
  0
BLOCK
  8
0
 62
2
  6
CONTINUOUS
  2
*D1
 70
65
 10
0.0
 20
0.0
  0
TEXT
  8
0
 62
2
  6
CONTINUOUS
 10
20.9873728198
 20
17.4476472851
  7
STANDARD
 40
0.15625
  1
20-11/32
 41
0.8
 72
1
 11
21.4873728198
 21
17.4476472851
  0
TEXT
  8
0
 62
2
  6
CONTINUOUS
 10
20.9248728198
 20
17.2132722851
  7
STANDARD
 40
0.15625
  1
[51,7 cm]
 41
0.8
 72
1
 11
21.4873728198
 21
17.2132722851
  0
LINE
  8
0
 62
2
  6
CONTINUOUS
 10
11.3143331384
 20
12.3497488374
 11
11.3143331384
 21
17.6507722851
  0
LINE
  8
0
 62
2
  6
CONTINUOUS
 10
31.6604125011
 20
12.3497488374
 11
31.6604125011
 21
17.6507722851
  0
LINE
  8
0
 62
2
  6
CONTINUOUS
 10
11.3143331384
 20
17.5257722851
 11
20.8467478198
 21
17.5257722851
  0
LINE
  8
0
 62
2
  6
CONTINUOUS
 10
31.6604125011
 20
17.5257722851
 11
22.1279978198
 21
17.5257722851
  0
INSERT
  8
0
 62
2
  6
CONTINUOUS
  2
_FILLED
 10
11.3143331384
 20
17.5257722851
 41
0.1875
 42
0.1875
 43
0.1875
 50
180.0
  0
INSERT
  8
0
 62
2
  6
CONTINUOUS
  2
_FILLED
 10
31.6604125011
 20
17.5257722851
 41
0.1875
 42
0.1875
 43
0.1875
  0
ENDBLK
  8
0
  6
BYBLOCK
 62
0
  0
ENDSEC
  0
SECTION
  2
ENTITIES
  0
DIMENSION
  8
0
 62
2
  6
CONTINUOUS
  2
*D0
 10
18.15844
 20
10.719639474
 11
17.59594
 21
18.9572443636
 70
128
 13
12.3768331384
 23
25.9375182068
 14
21.4248728198
 24
10.719639474
 50
270.0
  0
DIMENSION
  8
0
 62
2
  6
CONTINUOUS
  2
*D1
 10
31.6604125011
 20
17.5257722851
 11
20.9248728198
 21
17.4085847851
 70
128
 13
11.3143331384
 23
12.3497488374
 14
31.6604125011
 24
12.3497488374
  0
TEXT
  8
0
 62
2
  6
CONTINUOUS
 10
27.5834222476
 20
24.2417596645
  7
STANDARD
 40
0.15625
  1
RIM OF LAV
 41
0.8
 72
2
 11
28.8334222476
 21
24.2417596645
  0
TEXT
  8
0
 62
2
  6
CONTINUOUS
 10
26.5834222476
 20
24.0073846645
  7
STANDARD
 40
0.15625
  1
REBORDE DEL LAVABO
 41
0.8
 72
2
 11
28.8334222476
 21
24.0073846645
  0
TEXT
  8
0
 62
2
  6
CONTINUOUS
 10
26.8334222476
 20
23.7730096645
  7
STANDARD
 40
0.15625
  1
REBORD DU LAVABO
 41
0.8
 72
2
 11
28.8334222476
 21
23.7730096645
  0
LINE
  8
0
 62
2
  6
CONTINUOUS
 10
32.3938451543
 20
23.0308581395
 11
29.0834222476
 21
24.3198846645
  0
LINE
  8
0
 62
2
  6
CONTINUOUS
 10
29.0834222476
 20
24.3198846645
 11
28.8334222476
 21
24.3198846645
  0
SOLID
  8
0
 62
2
  6
CONTINUOUS
 10
32.2077845565
 20
23.0697717164
 11
32.3938451543
 21
23.0308581395
 12
32.2304625056
 22
23.1280122574
 13
32.2304625056
 23
23.1280122574
  0
TEXT
  8
0
 62
2
  6
CONTINUOUS
 10
25.2413860648
 20
22.7560578923
  7
STANDARD
 40
0.15625
  1
FOR SELF-RIMMING INSTALLATION
 41
0.8
 72
2
 11
28.8663860648
 21
22.7560578923
  0
TEXT
  8
0
 62
2
  6
CONTINUOUS
 10
26.4913860648
 20
22.5216828923
  7
STANDARD
 40
0.15625
  1
CUT ALONG THIS LINE
 41
0.8
 72
2
 11
28.8663860648
 21
22.5216828923
  0
TEXT
  8
0
 62
2
  6
CONTINUOUS
 10
24.1163860648
 20
22.2873078923
  7
STANDARD
 40
0.15625
  1
PARA INSTALACIONES DE BORDE TERMINADO,
 41
0.8
 72
2
 11
28.8663860648
 21
22.2873078923
  0
TEXT
  8
0
 62
2
  6
CONTINUOUS
 10
25.1163860648
 20
22.0529328923
  7
STANDARD
 40
0.15625
  1
CORTE A LO LARGO DE ESTA LÍNEA
 41
0.8
 72
2
 11
28.8663860648
 21
22.0529328923
  0
TEXT
  8
0
 62
2
  6
CONTINUOUS
 10
23.8663860648
 20
21.8185578923
  7
STANDARD
 40
0.15625
  1
POUR DES INSTALLATIONS À REBORD INTÉGRÉ,
 41
0.8
 72
2
 11
28.8663860648
 21
21.8185578923
  0
TEXT
  8
0
 62
2
  6
CONTINUOUS
 10
24.9913860648
 20
21.5841828923
  7
STANDARD
 40
0.15625
  1
DÉCOUPER AU LONG DE CETTE LIGNE
 41
0.8
 72
2
 11
28.8663860648
 21
21.5841828923
  0
LINE
  8
0
 62
2
  6
CONTINUOUS
 10
31.6604125011
 20
21.4719492748
 11
29.1163860648
 21
22.8341828923
  0
LINE
  8
0
 62
2
  6
CONTINUOUS
 10
29.1163860648
 20
22.8341828923
 11
28.8663860648
 21
22.8341828923
  0
SOLID
  8
0
 62
2
  6
CONTINUOUS
 10
31.48036621
 20
21.5329094713
 11
31.6604125011
 21
21.4719492748
 12
31.5098693165
 22
21.5880077173
 13
31.5098693165
 23
21.5880077173
  0
INSERT
  8
___SYMBOL
 62
2
  6
CONTINUOUS
  2
COPYRIGHT_YEAR_BL0
 10
29.0061868393
 20
11.6759203488
  0
INSERT
  8
___SYMBOL
 62
2
  6
CONTINUOUS
  2
TEMPLATE_NUMBER_BL1
 10
14.283977525
 20
11.6427786387
  0
INSERT
  8
___SYMBOL
 62
2
  6
CONTINUOUS
  2
TEMPLATE_NUMBER_BL2
 10
14.283977525
 20
10.8191835347
  0
INSERT
  8
___SYMBOL
 62
2
  6
CONTINUOUS
  2
WHEN_PLOTTING_TEMPLATE_N_BL3
 10
27.1213280473
 20
15.3737839008
  0
INSERT
  8
___SYMBOL
 62
2
  6
CONTINUOUS
  2
SKU_LAV_KOHLER_BL4
 10
14.9585648385
 20
23.8135297442
  0
INSERT
  8
___SYMBOL
 62
2
  6
CONTINUOUS
  2
SCISSORS_BL5
 10
31.6560457725
 20
20.3834898905
  0
LINE
  8
DEFAULT_1
 62
2
  6
CENTER
 10
21.4873728423
 20
9.2982386008
 11
21.4873728423
 21
11.9010403472
  0
LINE
  8
DEFAULT_1
 62
2
  6
CENTER
 10
21.4873728198
 20
24.8861173335
 11
21.4873728198
 21
27.48891908
  0
LINE
  8
DEFAULT_1
 62
2
  6
CENTER
 10
9.8922281373
 20
18.6123835221
 11
12.7364381395
 21
18.6123835221
  0
LINE
  8
DEFAULT_1
 62
2
  6
CENTER
 10
30.2383075
 20
18.6123835221
 11
33.0825175023
 21
18.6123835221
  0
POLYLINE
  8
_CURVE
 62
8
  6
PHANTOM
 66
1
 70
0
  0
VERTEX
  8
_CURVE
 62
8
  6
PHANTOM
 10
10.5809005288
 20
10.5852163923
  0
VERTEX
  8
_CURVE
 62
8
  6
PHANTOM
 10
10.5809988476
 20
10.5782070841
  0
VERTEX
  8
_CURVE
 62
8
  6
PHANTOM
 10
10.5812936156
 20
10.5712011103
  0
VERTEX
  8
_CURVE
 62
8
  6
PHANTOM
 10
10.5817845499
 20
10.5642049836
  0
VERTEX
  8
_CURVE
 62
8
  6
PHANTOM
 10
10.5824713676
 20
10.5572252169
  0
VERTEX
  8
_CURVE
 62
8
  6
PHANTOM
 10
10.5833532134
 20
10.5502714388
  0
VERTEX
  8
_CURVE
 62
8
  6
PHANTOM
 10
10.5844295808
 20
10.5433456815
  0
VERTEX
  8
_CURVE
 62
8
  6
PHANTOM
 10
10.5856995791
 20
10.5364531151
  0
VERTEX
  8
_CURVE
 62
8
  6
PHANTOM
 10
10.5871623174
 20
10.5295989097
  0
VERTEX
  8
_CURVE
 62
8
  6
PHANTOM
 10
10.5888161003
 20
10.5227909958
  0
VERTEX
  8
_CURVE
 62
8
  6
PHANTOM
 10
10.5906600781
 20
10.5160319545
  0
VERTEX
  8
_CURVE
 62
8
  6
PHANTOM
 10
10.5926927508
 20
10.5093271621
  0
VERTEX
  8
_CURVE
 62
8
  6
PHANTOM
 10
10.5949126182
 20
10.5026819951
  0
VERTEX
  8
_CURVE
 62
8
  6
PHANTOM
 10
10.5973171499
 20
10.4961042243
  0
VERTEX
  8
_CURVE
 62
8
  6
PHANTOM
 10
10.5999051502
 20
10.4895964881
  0
VERTEX
  8
_CURVE
 62
8
  6
PHANTOM
 10
10.6026745317
 20
10.4831638681
  0
VERTEX
  8
_CURVE
 62
8
  6
PHANTOM
 10
10.6056232069
 20
10.4768114458
  0
VERTEX
  8
_CURVE
 62
8
  6
PHANTOM
 10
10.6087480928
 20
10.4705460083
  0
VERTEX
  8
_CURVE
 62
8
  6
PHANTOM
 10
10.6120474354
 20
10.4643706393
  0
VERTEX
  8
_CURVE
 62
8
  6
PHANTOM
 10
10.6155185843
 20
10.4582901762
  0
VERTEX
  8
_CURVE
 62
8
  6
PHANTOM
 10
10.6191588893
 20
10.4523094563
  0
VERTEX
  8
_CURVE
 62
8
  6
PHANTOM
 10
10.6229647822
 20
10.4464345026
  0
VERTEX
  8
_CURVE
 62
8
  6
PHANTOM
 10
10.6269339305
 20
10.4406685844
  0
VERTEX
  8
_CURVE
 62
8
  6
PHANTOM
 10
10.6310631545
 20
10.4350162013
  0
VERTEX
  8
_CURVE
 62
8
  6
PHANTOM
 10
10.6353492747
 20
10.4294818528
  0
VERTEX
  8
_CURVE
 62
8
  6
PHANTOM
 10
10.6397885862
 20
10.4240704999
  0
VERTEX
  8
_CURVE
 62
8
  6
PHANTOM
 10
10.6443779158
 20
10.4187857696
  0
VERTEX
  8
_CURVE
 62
8
  6
PHANTOM
 10
10.6491135949
 20
10.4136317742
  0
VERTEX
  8
_CURVE
 62
8
  6
PHANTOM
 10
10.653991955
 20
10.4086126262
  0
VERTEX
  8
_CURVE
 62
8
  6
PHANTOM
 10
10.6590092531
 20
10.4037323651
  0
VERTEX
  8
_CURVE
 62
8
  6
PHANTOM
 10
10.6641614526
 20
10.3989947338
  0
VERTEX
  8
_CURVE
 62
8
  6
PHANTOM
 10
10.6694444425
 20
10.3944034027
  0
VERTEX
  8
_CURVE
 62
8
  6
PHANTOM
 10
10.6748541119
 20
10.3899620418
  0
VERTEX
  8
_CURVE
 62
8
  6
PHANTOM
 10
10.6803868329
 20
10.3856738276
  0
VERTEX
  8
_CURVE
 62
8
  6
PHANTOM
 10
10.6860376478
 20
10.3815424646
  0
VERTEX
  8
_CURVE
 62
8
  6
PHANTOM
 10
10.6918020585
 20
10.3775711338
  0
VERTEX
  8
_CURVE
 62
8
  6
PHANTOM
 10
10.6976755665
 20
10.3737630158
  0
VERTEX
  8
_CURVE
 62
8
  6
PHANTOM
 10
10.7036549016
 20
10.3701204456
  0
VERTEX
  8
_CURVE
 62
8
  6
PHANTOM
 10
10.709734044
 20
10.3666469939
  0
VERTEX
  8
_CURVE
 62
8
  6
PHANTOM
 10
10.7159081572
 20
10.3633453145
  0
VERTEX
  8
_CURVE
 62
8
  6
PHANTOM
 10
10.722172405
 20
10.3602180617
  0
VERTEX
  8
_CURVE
 62
8
  6
PHANTOM
 10
10.7285237026
 20
10.3572669915
  0
VERTEX
  8
_CURVE
 62
8
  6
PHANTOM
 10
10.7349552658
 20
10.3544951835
  0
VERTEX
  8
_CURVE
 62
8
  6
PHANTOM
 10
10.7414620138
 20
10.3519047202
  0
VERTEX
  8
_CURVE
 62
8
  6
PHANTOM
 10
10.7480388659
 20
10.3494976839
  0
VERTEX
  8
_CURVE
 62
8
  6
PHANTOM
 10
10.7546831828
 20
10.3472752705
  0
VERTEX
  8
_CURVE
 62
8
  6
PHANTOM
 10
10.7613871959
 20
10.3452400331
  0
VERTEX
  8
_CURVE
 62
8
  6
PHANTOM
 10
10.7681455293
 20
10.3433934993
  0
VERTEX
  8
_CURVE
 62
8
  6
PHANTOM
 10
10.7749528073
 20
10.3417371972
  0
VERTEX
  8
_CURVE
 62
8
  6
PHANTOM
 10
10.7818064479
 20
10.3402719833
  0
VERTEX
  8
_CURVE
 62
8
  6
PHANTOM
 10
10.7886985224
 20
10.3389994797
  0
VERTEX
  8
_CURVE
 62
8
  6
PHANTOM
 10
10.7956238612
 20
10.3379204833
  0
VERTEX
  8
_CURVE
 62
8
  6
PHANTOM
 10
10.8025772945
 20
10.3370357912
  0
VERTEX
  8
_CURVE
 62
8
  6
PHANTOM
 10
10.8095565899
 20
10.3363459075
  0
VERTEX
  8
_CURVE
 62
8
  6
PHANTOM
 10
10.8165523186
 20
10.335851949
  0
VERTEX
  8
_CURVE
 62
8
  6
PHANTOM
 10
10.8235579686
 20
10.3355545636
  0
VERTEX
  8
_CURVE
 62
8
  6
PHANTOM
 10
10.8305670274
 20
10.3354543988
  0
SEQEND
  0
LINE
  8
_CURVE
 62
8
  6
PHANTOM
 10
10.5809004853
 20
10.5852163488
 11
10.5809004853
 21
26.632806907
  0
LINE
  8
_CURVE
 62
4
  6
CONTINUOUS
 10
11.3143331384
 20
12.2872488374
 11
11.3143331384
 21
24.9375182068
  0
POLYLINE
  8
_CURVE
 62
8
  6
PHANTOM
 66
1
 70
0
  0
VERTEX
  8
_CURVE
 62
8
  6
PHANTOM
 10
32.1441786121
 20
10.3354543988
  0
VERTEX
  8
_CURVE
 62
8
  6
PHANTOM
 10
32.1507131327
 20
10.3355484005
  0
VERTEX
  8
_CURVE
 62
8
  6
PHANTOM
 10
32.1572447264
 20
10.3358132196
  0
VERTEX
  8
_CURVE
 62
8
  6
PHANTOM
 10
32.1637681111
 20
10.3362486331
  0
VERTEX
  8
_CURVE
 62
8
  6
PHANTOM
 10
32.1702780044
 20
10.3368544184
  0
VERTEX
  8
_CURVE
 62
8
  6
PHANTOM
 10
32.1767680752
 20
10.3376301083
  0
VERTEX
  8
_CURVE
 62
8
  6
PHANTOM
 10
32.1832351848
 20
10.3385751752
  0
VERTEX
  8
_CURVE
 62
8
  6
PHANTOM
 10
32.1896751384
 20
10.3396889118
  0
VERTEX
  8
_CURVE
 62
8
  6
PHANTOM
 10
32.1960837413
 20
10.3409706108
  0
VERTEX
  8
_CURVE
 62
8
  6
PHANTOM
 10
32.2024567061
 20
10.3424194745
  0
VERTEX
  8
_CURVE
 62
8
  6
PHANTOM
 10
32.2087897511
 20
10.3440344312
  0
VERTEX
  8
_CURVE
 62
8
  6
PHANTOM
 10
32.2150785013
 20
10.3458143221
  0
VERTEX
  8
_CURVE
 62
8
  6
PHANTOM
 10
32.2213185817
 20
10.3477579884
  0
VERTEX
  8
_CURVE
 62
8
  6
PHANTOM
 10
32.2275052271
 20
10.3498640455
  0
VERTEX
  8
_CURVE
 62
8
  6
PHANTOM
 10
32.23363468
 20
10.3521310922
  0
VERTEX
  8
_CURVE
 62
8
  6
PHANTOM
 10
32.2397027852
 20
10.3545575242
  0
VERTEX
  8
_CURVE
 62
8
  6
PHANTOM
 10
32.2457053877
 20
10.3571417369
  0
VERTEX
  8
_CURVE
 62
8
  6
PHANTOM
 10
32.2516380214
 20
10.3598818929
  0
VERTEX
  8
_CURVE
 62
8
  6
PHANTOM
 10
32.2574970209
 20
10.3627761768
  0
VERTEX
  8
_CURVE
 62
8
  6
PHANTOM
 10
32.2632784023
 20
10.3658225584
  0
VERTEX
  8
_CURVE
 62
8
  6
PHANTOM
 10
32.2689781811
 20
10.3690190072
  0
VERTEX
  8
_CURVE
 62
8
  6
PHANTOM
 10
32.2745923061
 20
10.3723633597
  0
VERTEX
  8
_CURVE
 62
8
  6
PHANTOM
 10
32.2801171027
 20
10.3758533083
  0
VERTEX
  8
_CURVE
 62
8
  6
PHANTOM
 10
32.2855488259
 20
10.3794864182
  0
VERTEX
  8
_CURVE
 62
8
  6
PHANTOM
 10
32.2908837308
 20
10.3832602543
  0
VERTEX
  8
_CURVE
 62
8
  6
PHANTOM
 10
32.2961179699
 20
10.3871722052
  0
VERTEX
  8
_CURVE
 62
8
  6
PHANTOM
 10
32.3012481799
 20
10.3912196269
  0
VERTEX
  8
_CURVE
 62
8
  6
PHANTOM
 10
32.3062708896
 20
10.3953997069
  0
VERTEX
  8
_CURVE
 62
8
  6
PHANTOM
 10
32.3111826273
 20
10.3997096325
  0
VERTEX
  8
_CURVE
 62
8
  6
PHANTOM
 10
32.3159799505
 20
10.4041465111
  0
VERTEX
  8
_CURVE
 62
8
  6
PHANTOM
 10
32.3206596732
 20
10.408707262
  0
VERTEX
  8
_CURVE
 62
8
  6
PHANTOM
 10
32.325218637
 20
10.4133887256
  0
VERTEX
  8
_CURVE
 62
8
  6
PHANTOM
 10
32.3296536837
 20
10.4181877423
  0
VERTEX
  8
_CURVE
 62
8
  6
PHANTOM
 10
32.3339617339
 20
10.4231011255
  0
VERTEX
  8
_CURVE
 62
8
  6
PHANTOM
 10
32.3381398962
 20
10.428125431
  0
VERTEX
  8
_CURVE
 62
8
  6
PHANTOM
 10
32.3421853591
 20
10.4332571862
  0
VERTEX
  8
_CURVE
 62
8
  6
PHANTOM
 10
32.3460953115
 20
10.4384929188
  0
VERTEX
  8
_CURVE
 62
8
  6
PHANTOM
 10
32.3498671106
 20
10.4438292643
  0
VERTEX
  8
_CURVE
 62
8
  6
PHANTOM
 10
32.3534981466
 20
10.4492623745
  0
VERTEX
  8
_CURVE
 62
8
  6
PHANTOM
 10
32.3569859857
 20
10.4547885033
  0
VERTEX
  8
_CURVE
 62
8
  6
PHANTOM
 10
32.3603281946
 20
10.460403905
  0
VERTEX
  8
_CURVE
 62
8
  6
PHANTOM
 10
32.3635224668
 20
10.4661049036
  0
VERTEX
  8
_CURVE
 62
8
  6
PHANTOM
 10
32.3665666406
 20
10.4718874473
  0
VERTEX
  8
_CURVE
 62
8
  6
PHANTOM
 10
32.3694586873
 20
10.4777475513
  0
VERTEX
  8
_CURVE
 62
8
  6
PHANTOM
 10
32.372196578
 20
10.4836812304
  0
VERTEX
  8
_CURVE
 62
8
  6
PHANTOM
 10
32.3747785004
 20
10.489684822
  0
VERTEX
  8
_CURVE
 62
8
  6
PHANTOM
 10
32.3772026167
 20
10.4957538563
  0
VERTEX
  8
_CURVE
 62
8
  6
PHANTOM
 10
32.379467324
 20
10.5018841773
  0
VERTEX
  8
_CURVE
 62
8
  6
PHANTOM
 10
32.3815710193
 20
10.5080716295
  0
VERTEX
  8
_CURVE
 62
8
  6
PHANTOM
 10
32.3835123015
 20
10.51431245
  0
VERTEX
  8
_CURVE
 62
8
  6
PHANTOM
 10
32.3852897899
 20
10.5206018776
  0
VERTEX
  8
_CURVE
 62
8
  6
PHANTOM
 10
32.386902328
 20
10.5269355371
  0
VERTEX
  8
_CURVE
 62
8
  6
PHANTOM
 10
32.3883487595
 20
10.5333090528
  0
VERTEX
  8
_CURVE
 62
8
  6
PHANTOM
 10
32.389628016
 20
10.5397181514
  0
VERTEX
  8
_CURVE
 62
8
  6
PHANTOM
 10
32.3907392974
 20
10.5461585367
  0
VERTEX
  8
_CURVE
 62
8
  6
PHANTOM
 10
32.3916818955
 20
10.5526260138
  0
VERTEX
  8
_CURVE
 62
8
  6
PHANTOM
 10
32.3924551022
 20
10.5591163878
  0
VERTEX
  8
_CURVE
 62
8
  6
PHANTOM
 10
32.3930583906
 20
10.5656265319
  0
VERTEX
  8
_CURVE
 62
8
  6
PHANTOM
 10
32.3934912985
 20
10.5721501024
  0
VERTEX
  8
_CURVE
 62
8
  6
PHANTOM
 10
32.3937536104
 20
10.5786818168
  0
VERTEX
  8
_CURVE
 62
8
  6
PHANTOM
 10
32.3938451107
 20
10.5852163923
  0
SEQEND
  0
LINE
  8
_CURVE
 62
8
  6
PHANTOM
 10
10.8306625407
 20
10.3354542934
 11
32.1440830989
 21
10.3354542934
  0
LINE
  8
_CURVE
 62
4
  6
CONTINUOUS
 10
20.0729359233
 20
11.2872488444
 11
12.3143331393
 21
11.2872488374
  0
LINE
  8
_CURVE
 62
4
  6
CONTINUOUS
 10
22.9018097162
 20
11.2872488444
 11
30.6604125002
 21
11.2872488374
  0
LINE
  8
_CURVE
 62
4
  6
CONTINUOUS
 10
30.6604125011
 20
25.9375182068
 11
12.3143331384
 21
25.9375182068
  0
LINE
  8
_CURVE
 62
8
  6
PHANTOM
 10
32.1440830989
 20
26.8825689624
 11
10.8306625407
 21
26.8825689624
  0
POLYLINE
  8
_CURVE
 62
8
  6
PHANTOM
 66
1
 70
0
  0
VERTEX
  8
_CURVE
 62
8
  6
PHANTOM
 10
10.8306625842
 20
26.8825689189
  0
VERTEX
  8
_CURVE
 62
8
  6
PHANTOM
 10
10.823653276
 20
26.8824706
  0
VERTEX
  8
_CURVE
 62
8
  6
PHANTOM
 10
10.8166473022
 20
26.8821758321
  0
VERTEX
  8
_CURVE
 62
8
  6
PHANTOM
 10
10.8096511755
 20
26.8816848978
  0
VERTEX
  8
_CURVE
 62
8
  6
PHANTOM
 10
10.8026714087
 20
26.88099808
  0
VERTEX
  8
_CURVE
 62
8
  6
PHANTOM
 10
10.7957176306
 20
26.8801162343
  0
VERTEX
  8
_CURVE
 62
8
  6
PHANTOM
 10
10.7887918733
 20
26.8790398668
  0
VERTEX
  8
_CURVE
 62
8
  6
PHANTOM
 10
10.7818993069
 20
26.8777698686
  0
VERTEX
  8
_CURVE
 62
8
  6
PHANTOM
 10
10.7750451015
 20
26.8763071303
  0
VERTEX
  8
_CURVE
 62
8
  6
PHANTOM
 10
10.7682371877
 20
26.8746533474
  0
VERTEX
  8
_CURVE
 62
8
  6
PHANTOM
 10
10.7614781463
 20
26.8728093695
  0
VERTEX
  8
_CURVE
 62
8
  6
PHANTOM
 10
10.754773354
 20
26.8707766969
  0
VERTEX
  8
_CURVE
 62
8
  6
PHANTOM
 10
10.748128187
 20
26.8685568295
  0
VERTEX
  8
_CURVE
 62
8
  6
PHANTOM
 10
10.7415504161
 20
26.8661522978
  0
VERTEX
  8
_CURVE
 62
8
  6
PHANTOM
 10
10.73504268
 20
26.8635642975
  0
VERTEX
  8
_CURVE
 62
8
  6
PHANTOM
 10
10.72861006
 20
26.860794916
  0
VERTEX
  8
_CURVE
 62
8
  6
PHANTOM
 10
10.7222576376
 20
26.8578462407
  0
VERTEX
  8
_CURVE
 62
8
  6
PHANTOM
 10
10.7159922001
 20
26.8547213549
  0
VERTEX
  8
_CURVE
 62
8
  6
PHANTOM
 10
10.7098168312
 20
26.8514220123
  0
VERTEX
  8
_CURVE
 62
8
  6
PHANTOM
 10
10.7037363681
 20
26.8479508634
  0
VERTEX
  8
_CURVE
 62
8
  6
PHANTOM
 10
10.6977556481
 20
26.8443105584
  0
VERTEX
  8
_CURVE
 62
8
  6
PHANTOM
 10
10.6918806944
 20
26.8405046654
  0
VERTEX
  8
_CURVE
 62
8
  6
PHANTOM
 10
10.6861147762
 20
26.8365355172
  0
VERTEX
  8
_CURVE
 62
8
  6
PHANTOM
 10
10.6804623931
 20
26.8324062932
  0
VERTEX
  8
_CURVE
 62
8
  6
PHANTOM
 10
10.6749280447
 20
26.828120173
  0
VERTEX
  8
_CURVE
 62
8
  6
PHANTOM
 10
10.6695166918
 20
26.8236808614
  0
VERTEX
  8
_CURVE
 62
8
  6
PHANTOM
 10
10.6642319614
 20
26.8190915319
  0
VERTEX
  8
_CURVE
 62
8
  6
PHANTOM
 10
10.6590779661
 20
26.8143558528
  0
VERTEX
  8
_CURVE
 62
8
  6
PHANTOM
 10
10.6540588181
 20
26.8094774927
  0
VERTEX
  8
_CURVE
 62
8
  6
PHANTOM
 10
10.6491785569
 20
26.8044601946
  0
VERTEX
  8
_CURVE
 62
8
  6
PHANTOM
 10
10.6444409257
 20
26.7993079951
  0
VERTEX
  8
_CURVE
 62
8
  6
PHANTOM
 10
10.6398495945
 20
26.7940250051
  0
VERTEX
  8
_CURVE
 62
8
  6
PHANTOM
 10
10.6354082337
 20
26.7886153358
  0
VERTEX
  8
_CURVE
 62
8
  6
PHANTOM
 10
10.6311200194
 20
26.7830826148
  0
VERTEX
  8
_CURVE
 62
8
  6
PHANTOM
 10
10.6269886565
 20
26.7774317998
  0
VERTEX
  8
_CURVE
 62
8
  6
PHANTOM
 10
10.6230173257
 20
26.7716673892
  0
VERTEX
  8
_CURVE
 62
8
  6
PHANTOM
 10
10.6192092076
 20
26.7657938811
  0
VERTEX
  8
_CURVE
 62
8
  6
PHANTOM
 10
10.6155666375
 20
26.759814546
  0
VERTEX
  8
_CURVE
 62
8
  6
PHANTOM
 10
10.6120931857
 20
26.7537354037
  0
VERTEX
  8
_CURVE
 62
8
  6
PHANTOM
 10
10.6087915064
 20
26.7475612905
  0
VERTEX
  8
_CURVE
 62
8
  6
PHANTOM
 10
10.6056642535
 20
26.7412970427
  0
VERTEX
  8
_CURVE
 62
8
  6
PHANTOM
 10
10.6027131833
 20
26.734945745
  0
VERTEX
  8
_CURVE
 62
8
  6
PHANTOM
 10
10.5999413754
 20
26.7285141819
  0
VERTEX
  8
_CURVE
 62
8
  6
PHANTOM
 10
10.597350912
 20
26.7220074339
  0
VERTEX
  8
_CURVE
 62
8
  6
PHANTOM
 10
10.5949438758
 20
26.7154305818
  0
VERTEX
  8
_CURVE
 62
8
  6
PHANTOM
 10
10.5927214624
 20
26.7087862649
  0
VERTEX
  8
_CURVE
 62
8
  6
PHANTOM
 10
10.5906862249
 20
26.7020822518
  0
VERTEX
  8
_CURVE
 62
8
  6
PHANTOM
 10
10.5888396912
 20
26.6953239183
  0
VERTEX
  8
_CURVE
 62
8
  6
PHANTOM
 10
10.5871833891
 20
26.6885166404
  0
VERTEX
  8
_CURVE
 62
8
  6
PHANTOM
 10
10.5857181751
 20
26.6816629998
  0
VERTEX
  8
_CURVE
 62
8
  6
PHANTOM
 10
10.5844456715
 20
26.6747709253
  0
VERTEX
  8
_CURVE
 62
8
  6
PHANTOM
 10
10.5833666752
 20
26.6678455865
  0
VERTEX
  8
_CURVE
 62
8
  6
PHANTOM
 10
10.5824819831
 20
26.6608921532
  0
VERTEX
  8
_CURVE
 62
8
  6
PHANTOM
 10
10.5817920993
 20
26.6539128578
  0
VERTEX
  8
_CURVE
 62
8
  6
PHANTOM
 10
10.5812981409
 20
26.646917129
  0
VERTEX
  8
_CURVE
 62
8
  6
PHANTOM
 10
10.5810007554
 20
26.6399114791
  0
VERTEX
  8
_CURVE
 62
8
  6
PHANTOM
 10
10.5809005907
 20
26.6329024203
  0
SEQEND
  0
POLYLINE
  8
_CURVE
 62
8
  6
PHANTOM
 66
1
 70
0
  0
VERTEX
  8
_CURVE
 62
8
  6
PHANTOM
 10
32.3938450489
 20
26.6329024203
  0
VERTEX
  8
_CURVE
 62
8
  6
PHANTOM
 10
32.3937448841
 20
26.6399114791
  0
VERTEX
  8
_CURVE
 62
8
  6
PHANTOM
 10
32.3934474986
 20
26.646917129
  0
VERTEX
  8
_CURVE
 62
8
  6
PHANTOM
 10
32.3929535402
 20
26.6539128578
  0
VERTEX
  8
_CURVE
 62
8
  6
PHANTOM
 10
32.3922636565
 20
26.6608921532
  0
VERTEX
  8
_CURVE
 62
8
  6
PHANTOM
 10
32.3913789643
 20
26.6678455865
  0
VERTEX
  8
_CURVE
 62
8
  6
PHANTOM
 10
32.390299968
 20
26.6747709253
  0
VERTEX
  8
_CURVE
 62
8
  6
PHANTOM
 10
32.3890274644
 20
26.6816629998
  0
VERTEX
  8
_CURVE
 62
8
  6
PHANTOM
 10
32.3875622504
 20
26.6885166404
  0
VERTEX
  8
_CURVE
 62
8
  6
PHANTOM
 10
32.3859059483
 20
26.6953239183
  0
VERTEX
  8
_CURVE
 62
8
  6
PHANTOM
 10
32.3840594146
 20
26.7020822518
  0
VERTEX
  8
_CURVE
 62
8
  6
PHANTOM
 10
32.3820241771
 20
26.7087862649
  0
VERTEX
  8
_CURVE
 62
8
  6
PHANTOM
 10
32.3798017638
 20
26.7154305818
  0
VERTEX
  8
_CURVE
 62
8
  6
PHANTOM
 10
32.3773947275
 20
26.7220074339
  0
VERTEX
  8
_CURVE
 62
8
  6
PHANTOM
 10
32.3748042642
 20
26.7285141819
  0
VERTEX
  8
_CURVE
 62
8
  6
PHANTOM
 10
32.3720324562
 20
26.734945745
  0
VERTEX
  8
_CURVE
 62
8
  6
PHANTOM
 10
32.369081386
 20
26.7412970427
  0
VERTEX
  8
_CURVE
 62
8
  6
PHANTOM
 10
32.3659541331
 20
26.7475612905
  0
VERTEX
  8
_CURVE
 62
8
  6
PHANTOM
 10
32.3626524538
 20
26.7537354037
  0
VERTEX
  8
_CURVE
 62
8
  6
PHANTOM
 10
32.3591790021
 20
26.759814546
  0
VERTEX
  8
_CURVE
 62
8
  6
PHANTOM
 10
32.3555364319
 20
26.7657938811
  0
VERTEX
  8
_CURVE
 62
8
  6
PHANTOM
 10
32.3517283139
 20
26.7716673892
  0
VERTEX
  8
_CURVE
 62
8
  6
PHANTOM
 10
32.347756983
 20
26.7774317998
  0
VERTEX
  8
_CURVE
 62
8
  6
PHANTOM
 10
32.3436256201
 20
26.7830826148
  0
VERTEX
  8
_CURVE
 62
8
  6
PHANTOM
 10
32.3393374058
 20
26.7886153358
  0
VERTEX
  8
_CURVE
 62
8
  6
PHANTOM
 10
32.334896045
 20
26.7940250051
  0
VERTEX
  8
_CURVE
 62
8
  6
PHANTOM
 10
32.3303047139
 20
26.7993079951
  0
VERTEX
  8
_CURVE
 62
8
  6
PHANTOM
 10
32.3255670826
 20
26.8044601946
  0
VERTEX
  8
_CURVE
 62
8
  6
PHANTOM
 10
32.3206868215
 20
26.8094774927
  0
VERTEX
  8
_CURVE
 62
8
  6
PHANTOM
 10
32.3156676735
 20
26.8143558528
  0
VERTEX
  8
_CURVE
 62
8
  6
PHANTOM
 10
32.3105136781
 20
26.8190915319
  0
VERTEX
  8
_CURVE
 62
8
  6
PHANTOM
 10
32.3052289478
 20
26.8236808614
  0
VERTEX
  8
_CURVE
 62
8
  6
PHANTOM
 10
32.2998175949
 20
26.828120173
  0
VERTEX
  8
_CURVE
 62
8
  6
PHANTOM
 10
32.2942832464
 20
26.8324062932
  0
VERTEX
  8
_CURVE
 62
8
  6
PHANTOM
 10
32.2886308633
 20
26.8365355172
  0
VERTEX
  8
_CURVE
 62
8
  6
PHANTOM
 10
32.2828649451
 20
26.8405046654
  0
VERTEX
  8
_CURVE
 62
8
  6
PHANTOM
 10
32.2769899914
 20
26.8443105584
  0
VERTEX
  8
_CURVE
 62
8
  6
PHANTOM
 10
32.2710092715
 20
26.8479508634
  0
VERTEX
  8
_CURVE
 62
8
  6
PHANTOM
 10
32.2649288084
 20
26.8514220123
  0
VERTEX
  8
_CURVE
 62
8
  6
PHANTOM
 10
32.2587534394
 20
26.8547213549
  0
VERTEX
  8
_CURVE
 62
8
  6
PHANTOM
 10
32.2524880019
 20
26.8578462407
  0
VERTEX
  8
_CURVE
 62
8
  6
PHANTOM
 10
32.2461355795
 20
26.860794916
  0
VERTEX
  8
_CURVE
 62
8
  6
PHANTOM
 10
32.2397029595
 20
26.8635642975
  0
VERTEX
  8
_CURVE
 62
8
  6
PHANTOM
 10
32.2331952234
 20
26.8661522978
  0
VERTEX
  8
_CURVE
 62
8
  6
PHANTOM
 10
32.2266174526
 20
26.8685568295
  0
VERTEX
  8
_CURVE
 62
8
  6
PHANTOM
 10
32.2199722856
 20
26.8707766969
  0
VERTEX
  8
_CURVE
 62
8
  6
PHANTOM
 10
32.2132674932
 20
26.8728093695
  0
VERTEX
  8
_CURVE
 62
8
  6
PHANTOM
 10
32.2065084519
 20
26.8746533474
  0
VERTEX
  8
_CURVE
 62
8
  6
PHANTOM
 10
32.199700538
 20
26.8763071303
  0
VERTEX
  8
_CURVE
 62
8
  6
PHANTOM
 10
32.1928463326
 20
26.8777698686
  0
VERTEX
  8
_CURVE
 62
8
  6
PHANTOM
 10
32.1859537662
 20
26.8790398668
  0
VERTEX
  8
_CURVE
 62
8
  6
PHANTOM
 10
32.1790280089
 20
26.8801162343
  0
VERTEX
  8
_CURVE
 62
8
  6
PHANTOM
 10
32.1720742308
 20
26.88099808
  0
VERTEX
  8
_CURVE
 62
8
  6
PHANTOM
 10
32.165094464
 20
26.8816848978
  0
VERTEX
  8
_CURVE
 62
8
  6
PHANTOM
 10
32.1580983374
 20
26.8821758321
  0
VERTEX
  8
_CURVE
 62
8
  6
PHANTOM
 10
32.1510923635
 20
26.8824706
  0
VERTEX
  8
_CURVE
 62
8
  6
PHANTOM
 10
32.1440830553
 20
26.8825689189
  0
SEQEND
  0
LINE
  8
_CURVE
 62
4
  6
CONTINUOUS
 10
31.6604125011
 20
12.2872488374
 11
31.6604125011
 21
24.9375182068
  0
LINE
  8
_CURVE
 62
8
  6
PHANTOM
 10
32.3938451543
 20
10.5852163488
 11
32.3938451543
 21
26.632806907
  0
ARC
  8
_CURVE
 62
4
  6
CONTINUOUS
 10
21.4873728198
 20
12.7657756483
 40
2.0461361743
 50
226.2691070564
 51
313.7308929436
  0
ARC
  8
_CURVE
 62
4
  6
CONTINUOUS
 10
30.6604125011
 20
12.2872488374
 40
1.0
 50
269.9999999481
 51
360.0
  0
ARC
  8
_CURVE
 62
4
  6
CONTINUOUS
 10
30.6604125011
 20
24.9375182068
 40
1.0
 50
0.0
 51
90.0
  0
ARC
  8
_CURVE
 62
4
  6
CONTINUOUS
 10
12.3143331384
 20
24.9375182068
 40
1.0
 50
90.0
 51
180.0
  0
ARC
  8
_CURVE
 62
4
  6
CONTINUOUS
 10
12.3143331384
 20
12.2872488374
 40
1.0
 50
180.0
 51
270.0000000519
  0
ENDSEC
  0
EOF
