  0
SECTION
  2
HEADER
  9
$ACADVER
  1
AC1015
  9
$ACADMAINTVER
 70
               6
  9
$DWGCODEPAGE
  3
ANSI_932
  9
$INSBASE
 10
0.0
 20
0.0
 30
0.0
  9
$EXTMIN
 10
0.3141573292749911
 20
0.2533459617652625
 30
0.0
  9
$EXTMAX
 10
419.81415732927508
 20
296.75334596176521
 30
0.0
  9
$LIMMIN
 10
0.0
 20
0.0
  9
$LIMMAX
 10
0.0
 20
0.0
  9
$ORTHOMODE
 70
               0
  9
$REGENMODE
 70
               1
  9
$FILLMODE
 70
               1
  9
$QTEXTMODE
 70
               0
  9
$MIRRTEXT
 70
               1
  9
$LTSCALE
 40
5.0800000000000001
  9
$ATTMODE
 70
               1
  9
$TEXTSIZE
 40
0.2
  9
$TRACEWID
 40
1.0
  9
$TEXTSTYLE
  7
Standard
  9
$CLAYER
  8
0
  9
$CELTYPE
  6
Continuous
  9
$CECOLOR
 62
             256
  9
$CELTSCALE
 40
1.0
  9
$DISPSILH
 70
               0
  9
$DIMSCALE
 40
1.0
  9
$DIMASZ
 40
2.2448242187499998
  9
$DIMEXO
 40
1.5874999999999999
  9
$DIMDLI
 40
10.16
  9
$DIMRND
 40
0.0
  9
$DIMDLE
 40
1.5874999999999999
  9
$DIMEXE
 40
3.1749999999999998
  9
$DIMTP
 40
0.0
  9
$DIMTM
 40
0.0
  9
$DIMTXT
 40
2.3166023166023169
  9
$DIMCEN
 40
0.0
  9
$DIMTSZ
 40
0.0
  9
$DIMTOL
 70
               0
  9
$DIMLIM
 70
               0
  9
$DIMTIH
 70
               0
  9
$DIMTOH
 70
               0
  9
$DIMSE1
 70
               0
  9
$DIMSE2
 70
               0
  9
$DIMTAD
 70
               1
  9
$DIMZIN
 70
              11
  9
$DIMBLK
  1
VW_SLASH
  9
$DIMASO
 70
               1
  9
$DIMSHO
 70
               1
  9
$DIMPOST
  1
<>
  9
$DIMAPOST
  1
[]
  9
$DIMALT
 70
               0
  9
$DIMALTD
 70
               3
  9
$DIMALTF
 40
0.0010936132983377
  9
$DIMLFAC
 40
1.0
  9
$DIMTOFL
 70
               1
  9
$DIMTVP
 40
0.0
  9
$DIMTIX
 70
               1
  9
$DIMSOXD
 70
               0
  9
$DIMSAH
 70
               0
  9
$DIMBLK1
  1

  9
$DIMBLK2
  1

  9
$DIMSTYLE
  2
Arch
  9
$DIMCLRD
 70
               0
  9
$DIMCLRE
 70
               0
  9
$DIMCLRT
 70
               0
  9
$DIMTFAC
 40
1.0
  9
$DIMGAP
 40
1.5874999999999999
  9
$DIMJUST
 70
               0
  9
$DIMSD1
 70
               0
  9
$DIMSD2
 70
               0
  9
$DIMTOLJ
 70
               1
  9
$DIMTZIN
 70
              11
  9
$DIMALTZ
 70
               7
  9
$DIMALTTZ
 70
               7
  9
$DIMUPT
 70
               0
  9
$DIMDEC
 70
               1
  9
$DIMTDEC
 70
               1
  9
$DIMALTU
 70
               2
  9
$DIMALTTD
 70
               2
  9
$DIMTXSTY
  7
ＭＳ ゴシック
  9
$DIMAUNIT
 70
               0
  9
$DIMADEC
 70
               2
  9
$DIMALTRND
 40
0.0
  9
$DIMAZIN
 70
               0
  9
$DIMDSEP
 70
              46
  9
$DIMATFIT
 70
               0
  9
$DIMFRAC
 70
               2
  9
$DIMLDRBLK
  1

  9
$DIMLUNIT
 70
               2
  9
$DIMLWD
 70
              -2
  9
$DIMLWE
 70
              -2
  9
$DIMTMOVE
 70
               0
  9
$LUNITS
 70
               2
  9
$LUPREC
 70
               4
  9
$SKETCHINC
 40
0.1
  9
$FILLETRAD
 40
0.0
  9
$AUNITS
 70
               0
  9
$AUPREC
 70
               0
  9
$MENU
  1
acad
  9
$ELEVATION
 40
0.0
  9
$PELEVATION
 40
0.0
  9
$THICKNESS
 40
0.0
  9
$LIMCHECK
 70
               0
  9
$CHAMFERA
 40
0.0
  9
$CHAMFERB
 40
0.0
  9
$CHAMFERC
 40
0.0
  9
$CHAMFERD
 40
0.0
  9
$SKPOLY
 70
               0
  9
$TDCREATE
 40
2459088.775995371
  9
$TDUCREATE
 40
0.000000000
  9
$TDUPDATE
 40
2459088.775995371
  9
$TDUUPDATE
 40
0.000000000
  9
$TDINDWG
 40
0.0000000000
  9
$TDUSRTIMER
 40
0.0000000000
  9
$USRTIMER
 70
               1
  9
$ANGBASE
 50
0.0
  9
$ANGDIR
 70
               0
  9
$PDMODE
 70
               1
  9
$PDSIZE
 40
-2.0
  9
$PLINEWID
 40
0.0
  9
$SPLFRAME
 70
               0
  9
$SPLINETYPE
 70
               6
  9
$SPLINESEGS
 70
               8
  9
$HANDSEED
  5
519
  9
$SURFTAB1
 70
               6
  9
$SURFTAB2
 70
               6
  9
$SURFTYPE
 70
               6
  9
$SURFU
 70
               6
  9
$SURFV
 70
               6
  9
$UCSBASE
  2

  9
$UCSNAME
  2

  9
$UCSORG
 10
0.0
 20
0.0
 30
0.0
  9
$UCSXDIR
 10
1.0
 20
0.0
 30
0.0
  9
$UCSYDIR
 10
0.0
 20
1.0
 30
0.0
  9
$UCSORTHOREF
  2

  9
$UCSORTHOVIEW
 70
               0
  9
$UCSORGTOP
 10
0.0
 20
0.0
 30
0.0
  9
$UCSORGBOTTOM
 10
0.0
 20
0.0
 30
0.0
  9
$UCSORGLEFT
 10
0.0
 20
0.0
 30
0.0
  9
$UCSORGRIGHT
 10
0.0
 20
0.0
 30
0.0
  9
$UCSORGFRONT
 10
0.0
 20
0.0
 30
0.0
  9
$UCSORGBACK
 10
0.0
 20
0.0
 30
0.0
  9
$PUCSBASE
  2

  9
$PUCSNAME
  2

  9
$PUCSORG
 10
0.0
 20
0.0
 30
0.0
  9
$PUCSXDIR
 10
1.0
 20
0.0
 30
0.0
  9
$PUCSYDIR
 10
0.0
 20
1.0
 30
0.0
  9
$PUCSORTHOREF
  2

  9
$PUCSORTHOVIEW
 70
               0
  9
$PUCSORGTOP
 10
0.0
 20
0.0
 30
0.0
  9
$PUCSORGBOTTOM
 10
0.0
 20
0.0
 30
0.0
  9
$PUCSORGLEFT
 10
0.0
 20
0.0
 30
0.0
  9
$PUCSORGRIGHT
 10
0.0
 20
0.0
 30
0.0
  9
$PUCSORGFRONT
 10
0.0
 20
0.0
 30
0.0
  9
$PUCSORGBACK
 10
0.0
 20
0.0
 30
0.0
  9
$USERI1
 70
               0
  9
$USERI2
 70
               0
  9
$USERI3
 70
               0
  9
$USERI4
 70
               0
  9
$USERI5
 70
               0
  9
$USERR1
 40
0.0
  9
$USERR2
 40
0.0
  9
$USERR3
 40
0.0
  9
$USERR4
 40
0.0
  9
$USERR5
 40
0.0
  9
$WORLDVIEW
 70
               1
  9
$SHADEDGE
 70
               3
  9
$SHADEDIF
 70
              70
  9
$TILEMODE
 70
               1
  9
$MAXACTVP
 70
              64
  9
$PINSBASE
 10
0.0
 20
0.0
 30
0.0
  9
$PLIMCHECK
 70
               0
  9
$PEXTMIN
 10
1.0000000000000000E+20
 20
1.0000000000000000E+20
 30
1.0000000000000000E+20
  9
$PEXTMAX
 10
-1.0000000000000000E+20
 20
-1.0000000000000000E+20
 30
-1.0000000000000000E+20
  9
$PLIMMIN
 10
0.0
 20
0.0
  9
$PLIMMAX
 10
12.0
 20
9.0
  9
$UNITMODE
 70
               0
  9
$VISRETAIN
 70
               0
  9
$PLINEGEN
 70
               1
  9
$PSLTSCALE
 70
               0
  9
$TREEDEPTH
 70
            3020
  9
$CMLSTYLE
  2
Standard
  9
$CMLJUST
 70
               0
  9
$CMLSCALE
 40
1.0
  9
$PROXYGRAPHICS
 70
               0
  9
$MEASUREMENT
 70
               1
  9
$CELWEIGHT
370
               0
  9
$ENDCAPS
280
               0
  9
$JOINSTYLE
280
               0
  9
$LWDISPLAY
290
               1
  9
$INSUNITS
 70
               4
  9
$HYPERLINKBASE
  1

  9
$STYLESHEET
  1

  9
$XEDIT
290
               1
  9
$CEPSNTYPE
380
               0
  9
$PSTYLEMODE
290
               1
  9
$FINGERPRINTGUID
  2

  9
$VERSIONGUID
  2

  9
$EXTNAMES
290
               1
  9
$PSVPSCALE
 40
0.0
  0
ENDSEC
  0
SECTION
  2
CLASSES
  0
CLASS
  1
LWPOLYLINE
  2
AcDbPolyline
  3
AutoCAD 2000
 90
        0
280
               0
281
               1
  0
CLASS
  1
IMAGE
  2
AcDbRasterImage
  3
ISM
 90
      127
280
               0
281
               1
  0
CLASS
  1
OLE2FRAME
  2
AcDbOle2Frame
  3
AutoCAD 2000
 90
        0
280
               0
281
               1
  0
CLASS
  1
HATCH
  2
AcDbHatch
  3
AutoCAD 2000
 90
        0
280
               0
281
               1
  0
CLASS
  1
DICTIONARYVAR
  2
AcDbDictionaryVar
  3
AutoCAD 2000
 90
        0
280
               0
281
               0
  0
CLASS
  1
RASTERVARIABLES
  2
AcDbRasterVariables
  3
ISM
 90
        0
280
               0
281
               0
  0
CLASS
  1
IMAGEDEF
  2
AcDbRasterImageDef
  3
ISM
 90
        0
280
               0
281
               0
  0
CLASS
  1
IMAGEDEF_REACTOR
  2
AcDbRasterImageDefReactor
  3
ISM
 90
        1
280
               0
281
               0
  0
CLASS
  1
IDBUFFER
  2
AcDbIdBuffer
  3
AutoCAD 2000
 90
        0
280
               0
281
               0
  0
CLASS
  1
SPATIAL_FILTER
  2
AcDbSpatialFilter
  3
AutoCAD 2000
 90
        0
280
               0
281
               0
  0
CLASS
  1
XRECORD
  2
AcDbXrecord
  3
AutoCAD 2000
 90
        0
280
               0
281
               0
  0
CLASS
  1
SORTENTSTABLE
  2
AcDbSortentsTable
  3
AutoCAD 2000
 90
        0
280
               0
281
               0
  0
CLASS
  1
LAYER_INDEX
  2
AcDbLayerIndex
  3
AutoCAD 2000
 90
        0
280
               0
281
               0
  0
CLASS
  1
SPATIAL_INDEX
  2
AcDbSpatialIndex
  3
AutoCAD 2000
 90
        0
280
               0
281
               0
  0
CLASS
  1
OBJECT_PTR
  2
CAseDLPNTableRecord
  3
"ASE-LPNTableRecord"
 90
        1
280
               0
281
               0
  0
CLASS
  1
LAYOUT
  2
AcDbLayout
  3
AutoCAD 2000
 90
        0
280
               0
281
               0
  0
CLASS
  1
PLOTSETTINGS
  2
AcDbPlotSettings
  3
AutoCAD 2000
 90
        0
280
               0
281
               0
  0
CLASS
  1
ACDBDICTIONARYWDFLT
  2
AcDbDictionaryWithDefault
  3
AutoCAD 2000
 90
        0
280
               0
281
               0
  0
CLASS
  1
ACDBPLACEHOLDER
  2
AcDbPlaceHolder
  3
AutoCAD 2000
 90
        0
280
               0
281
               0
  0
CLASS
  1
VBA_PROJECT
  2
AcDbVbaProject
  3
acadvba
 90
        0
280
               0
281
               0
  0
CLASS
  1
WIPEOUT
  2
AcDbWipeout
  3
WipeOut|AutoCAD Express Tool|expresstools@autodesk.com
 90
      127
280
               0
281
               1
  0
CLASS
  1
WIPEOUTVARIABLES
  2
AcDbWipeoutVariables
  3
WipeOut|AutoCAD Express Tool|expresstools@autodesk.com
 90
        0
280
               0
281
               0
  0
CLASS
  1
RTEXT
  2
RText
  3
RText|AutoCAD Express Tool|expresstools@autodesk.com
 90
        0
280
               0
281
               1
  0
CLASS
  1
ARCALIGNEDTEXT
  2
AcDbArcAlignedText
  3
ATEXT|AutoCAD Express Tool|expresstools@autodesk.com
 90
        0
280
               0
281
               1
  0
ENDSEC
  0
SECTION
  2
TABLES
  0
TABLE
  2
VPORT
  5
7
100
AcDbSymbolTable
 70
               1
  0
VPORT
  5
15
100
AcDbSymbolTableRecord
100
AcDbViewportTableRecord
  2
*ACTIVE
 70
               0
 10
0.0
 20
0.0
 11
1.0
 21
1.0
 12
210.06415732927505
 22
148.50334596176523
 13
0.0
 23
0.0
 14
1.0
 24
1.0
 15
0.0
 25
0.0
 16
0.0
 26
0.0
 36
1.0
 17
0.0
 27
0.0
 37
0.0
 40
296.49999999999994
 41
0.688564
 42
50.0
 43
0.0
 44
0.0
 50
0.0
 51
0.0
 71
               0
 72
            2000
 73
               1
 74
               1
 75
               0
 76
               0
 77
               0
 78
               0
281
               0
 65
               0
110
0.0
120
0.0
130
0.0
111
1.0
121
0.0
131
0.0
112
0.0
122
1.0
132
0.0
345
0
346
0
 79
               0
146
0.0
  0
ENDTAB
  0
TABLE
  2
LTYPE
  5
4
100
AcDbSymbolTable
 70
              13
  0
LTYPE
  5
11
100
AcDbSymbolTableRecord
100
AcDbLinetypeTableRecord
  2
ByBlock
 70
              64
  3

 72
              65
 73
               0
 40
0.0
  0
LTYPE
  5
12
100
AcDbSymbolTableRecord
100
AcDbLinetypeTableRecord
  2
ByLayer
 70
              64
  3

 72
              65
 73
               0
 40
0.0
  0
LTYPE
  5
13
100
AcDbSymbolTableRecord
100
AcDbLinetypeTableRecord
  2
Continuous
 70
              64
  3
Solid line
 72
              65
 73
               0
 40
0.0
  0
LTYPE
  5
2A
100
AcDbSymbolTableRecord
100
AcDbLinetypeTableRecord
  2
STYLE_01
 70
               0
  3

 72
              65
 73
               4
 40
0.3641732283464567
 49
0.2362204724409449
 74
               0
 49
-0.0295275590551181
 74
               0
 49
0.0688976377952756
 74
               0
 49
-0.0295275590551181
 74
               0
  0
LTYPE
  5
2B
100
AcDbSymbolTableRecord
100
AcDbLinetypeTableRecord
  2
STYLE_02
 70
               0
  3

 72
              65
 73
               2
 40
0.0344488188976378
 49
0.0049212598425197
 74
               0
 49
-0.0295275590551181
 74
               0
  0
LTYPE
  5
2C
100
AcDbSymbolTableRecord
100
AcDbLinetypeTableRecord
  2
STYLE_03
 70
               0
  3

 72
              65
 73
               2
 40
1.25
 49
1.0416400000000001
 74
               0
 49
-0.2083599999999999
 74
               0
  0
LTYPE
  5
2D
100
AcDbSymbolTableRecord
100
AcDbLinetypeTableRecord
  2
STYLE_04
 70
               0
  3

 72
              65
 73
               2
 40
1.5277099999999999
 49
1.3194249999999998
 74
               0
 49
-0.208285
 74
               0
  0
LTYPE
  5
2E
100
AcDbSymbolTableRecord
100
AcDbLinetypeTableRecord
  2
STYLE_05
 70
               0
  3

 72
              65
 73
               2
 40
0.20828
 49
0.069425
 74
               0
 49
-0.138855
 74
               0
  0
LTYPE
  5
2F
100
AcDbSymbolTableRecord
100
AcDbLinetypeTableRecord
  2
STYLE_06
 70
               0
  3

 72
              65
 73
               4
 40
1.0416400000000001
 49
0.625
 74
               0
 49
-0.20828
 74
               0
 49
0.06943
 74
               0
 49
-0.13893
 74
               0
  0
LTYPE
  5
30
100
AcDbSymbolTableRecord
100
AcDbLinetypeTableRecord
  2
STYLE_07
 70
               0
  3

 72
              65
 73
               6
 40
1.875
 49
0.625
 74
               0
 49
-0.20828
 74
               0
 49
0.6250000000000001
 74
               0
 49
-0.2083599999999999
 74
               0
 49
0.06943
 74
               0
 49
-0.1389299999999999
 74
               0
  0
LTYPE
  5
31
100
AcDbSymbolTableRecord
100
AcDbLinetypeTableRecord
  2
STYLE_08
 70
               0
  3

 72
              65
 73
               6
 40
1.25
 49
0.625
 74
               0
 49
-0.20828
 74
               0
 49
0.06943
 74
               0
 49
-0.13893
 74
               0
 49
0.0694299999999999
 74
               0
 49
-0.13893
 74
               0
  0
LTYPE
  5
32
100
AcDbSymbolTableRecord
100
AcDbLinetypeTableRecord
  2
STYLE_09
 70
               0
  3

 72
              65
 73
               4
 40
5.0
 49
3.75
 74
               0
 49
-0.2777849999999998
 74
               0
 49
0.6944300000000003
 74
               0
 49
-0.2777849999999998
 74
               0
  0
LTYPE
  5
33
100
AcDbSymbolTableRecord
100
AcDbLinetypeTableRecord
  2
STYLE_10
 70
               0
  3

 72
              65
 73
               6
 40
5.9375
 49
3.75
 74
               0
 49
-0.2777849999999998
 74
               0
 49
0.6944300000000003
 74
               0
 49
-0.2777849999999998
 74
               0
 49
0.625
 74
               0
 49
-0.3125
 74
               0
  0
ENDTAB
  0
TABLE
  2
LAYER
  5
2
100
AcDbSymbolTable
 70
               5
  0
LAYER
  5
14
100
AcDbSymbolTableRecord
100
AcDbLayerTableRecord
  2
0
 70
               0
 62
               7
  6
Continuous
290
               1
370
              18
390
1D
  0
LAYER
  5
34
100
AcDbSymbolTableRecord
100
AcDbLayerTableRecord
  2
一般
 70
               0
 62
               7
  6
Continuous
290
               1
370
               5
390
1D
  0
LAYER
  5
35
100
AcDbSymbolTableRecord
100
AcDbLayerTableRecord
  2
寸法
 70
               0
 62
               7
  6
Continuous
290
               1
370
               5
390
1D
  0
LAYER
  5
36
100
AcDbSymbolTableRecord
100
AcDbLayerTableRecord
  2
レイヤ0
 70
               0
 62
               7
  6
Continuous
290
               1
370
              13
390
1D
  0
LAYER
  5
37
100
AcDbSymbolTableRecord
100
AcDbLayerTableRecord
  2
Defpoints
 70
               0
 62
               7
  6
Continuous
290
               0
370
              18
390
1D
  0
ENDTAB
  0
TABLE
  2
STYLE
  5
3
100
AcDbSymbolTable
 70
               2
  0
STYLE
  5
17
100
AcDbSymbolTableRecord
100
AcDbTextStyleTableRecord
  2
Standard
 70
               0
 40
0.0
 41
1.0
 50
0.0
 71
               0
 42
0.0
  3
txt
  4
BIGFONT.SHX
  0
STYLE
  5
29
100
AcDbSymbolTableRecord
100
AcDbTextStyleTableRecord
  2
ＭＳ ゴシック
 70
               0
 40
0.0
 41
1.0
 50
0.0
 71
               0
 42
0.0
  3

  4
ＭＳ ゴシック
1001
ACAD
1000
ＭＳ ゴシック
1071
        0
  0
ENDTAB
  0
TABLE
  2
VIEW
  5
5
100
AcDbSymbolTable
 70
               0
  0
ENDTAB
  0
TABLE
  2
UCS
  5
6
100
AcDbSymbolTable
 70
               0
  0
ENDTAB
  0
TABLE
  2
APPID
  5
8
100
AcDbSymbolTable
 70
               1
  0
APPID
  5
16
100
AcDbSymbolTableRecord
100
AcDbRegAppTableRecord
  2
ACAD
 70
               0
  0
ENDTAB
  0
TABLE
  2
DIMSTYLE
  5
9
100
AcDbSymbolTable
 70
               2
100
AcDbDimStyleTable
 71
               0
  0
DIMSTYLE
105
18
100
AcDbSymbolTableRecord
100
AcDbDimStyleTableRecord
  2
Standard
 70
               0
  3

  4

 40
1.0
 41
0.18
 42
0.0625
 43
0.38
 44
0.18
 45
0.0
 46
0.0
 47
0.0
 48
0.0
 71
               0
 72
               0
 73
               1
 74
               1
 75
               0
 76
               0
 77
               0
 78
               0
 79
               0
140
0.18
141
0.09
142
0.0
143
25.399999999999999
144
1.0
145
0.0
146
1.0
147
0.09
148
0.0
170
               0
171
               2
172
               0
173
               0
174
               0
175
               0
176
               0
177
               0
178
               0
179
               0
271
               4
272
               4
273
               2
274
               2
275
               0
276
               0
277
               2
278
              46
279
               0
280
               0
281
               0
282
               0
283
               1
284
               0
285
               0
286
               0
288
               0
289
               3
340
17
341
0
342
0
343
0
344
0
371
              -2
372
              -2
  0
DIMSTYLE
105
41
100
AcDbSymbolTableRecord
100
AcDbDimStyleTableRecord
  2
Arch
 70
               0
  3
<>
  4
[]
 40
1.0
 41
2.2448242187499998
 42
1.5874999999999999
 43
10.16
 44
3.1749999999999998
 45
0.0
 46
1.5874999999999999
 47
0.0
 48
0.0
 71
               0
 72
               0
 73
               0
 74
               0
 75
               0
 76
               0
 77
               1
 78
              11
 79
               0
140
2.3166023166023169
141
0.0
142
0.0
143
0.0010936132983377
144
1.0
145
0.0
146
1.0
147
1.5874999999999999
148
0.0
170
               0
171
               3
172
               1
173
               0
174
               1
175
               0
176
               0
177
               0
178
               0
179
               2
271
               1
272
               1
273
               2
274
               2
275
               0
276
               2
277
               2
278
              46
279
               0
280
               0
281
               0
282
               0
283
               1
284
              11
285
               7
286
               7
288
               0
289
               0
340
29
341
3D
342
38
343
0
344
0
371
              -2
372
              -2
  0
ENDTAB
  0
TABLE
  2
BLOCK_RECORD
  5
1
100
AcDbSymbolTable
 70
               7
  0
BLOCK_RECORD
  5
A
100
AcDbSymbolTableRecord
100
AcDbBlockTableRecord
  2
*MODEL_SPACE
340
20
  0
BLOCK_RECORD
  5
B
100
AcDbSymbolTableRecord
100
AcDbBlockTableRecord
  2
*PAPER_SPACE
340
21
  0
BLOCK_RECORD
  5
38
100
AcDbSymbolTableRecord
100
AcDbBlockTableRecord
  2
VW_SLASH
340
0
  0
BLOCK_RECORD
  5
3D
100
AcDbSymbolTableRecord
100
AcDbBlockTableRecord
  2
VW_FILLEDARROW
340
0
  0
BLOCK_RECORD
  5
24
100
AcDbSymbolTableRecord
100
AcDbBlockTableRecord
  2
*D2
340
0
  0
BLOCK_RECORD
  5
25
100
AcDbSymbolTableRecord
100
AcDbBlockTableRecord
  2
*D3
340
0
  0
BLOCK_RECORD
  5
26
100
AcDbSymbolTableRecord
100
AcDbBlockTableRecord
  2
*D4
340
0
  0
BLOCK_RECORD
  5
27
100
AcDbSymbolTableRecord
100
AcDbBlockTableRecord
  2
*D5
340
0
  0
BLOCK_RECORD
  5
28
100
AcDbSymbolTableRecord
100
AcDbBlockTableRecord
  2
*D6
340
0
  0
ENDTAB
  0
ENDSEC
  0
SECTION
  2
BLOCKS
  0
BLOCK
  5
D
100
AcDbEntity
  8
0
390
0
100
AcDbBlockBegin
  2
*MODEL_SPACE
 70
               0
 10
0.0
 20
0.0
 30
0.0
  3
*MODEL_SPACE
  1

  0
ENDBLK
  5
E
100
AcDbEntity
  8
0
390
0
100
AcDbBlockEnd
  0
BLOCK
  5
F
100
AcDbEntity
 67
               1
  8
0
390
0
100
AcDbBlockBegin
  2
*PAPER_SPACE
 70
               0
 10
0.0
 20
0.0
 30
0.0
  3
*PAPER_SPACE
  1

  0
ENDBLK
  5
10
100
AcDbEntity
 67
               1
  8
0
390
0
100
AcDbBlockEnd
  0
BLOCK
  5
39
100
AcDbEntity
  8
0
370
              -2
390
0
  6
ByBlock
 62
               0
100
AcDbBlockBegin
  2
VW_SLASH
 70
               0
 10
0.0
 20
0.0
 30
0.0
  3
VW_SLASH
  1

  0
LINE
  5
3A
100
AcDbEntity
  8
0
370
              -2
390
0
  6
ByBlock
 62
               0
100
AcDbLine
 10
0.0
 20
0.0
 30
0.0
 11
-1.0
 21
0.0
 31
0.0
  0
LINE
  5
3B
100
AcDbEntity
  8
0
370
              20
390
0
  6
ByBlock
 62
               0
100
AcDbLine
 10
-0.499877537989201
 20
-0.4998775379892008
 30
0.0
 11
0.499877537989201
 21
0.4998775379892008
 31
0.0
  0
ENDBLK
  5
3C
100
AcDbEntity
  8
0
390
0
100
AcDbBlockEnd
  0
BLOCK
  5
3E
100
AcDbEntity
  8
0
370
              -2
390
0
  6
ByBlock
 62
               0
100
AcDbBlockBegin
  2
VW_FILLEDARROW
 70
               0
 10
0.0
 20
0.0
 30
0.0
  3
VW_FILLEDARROW
  1

  0
SOLID
  5
3F
100
AcDbEntity
  8
0
370
              -2
390
0
 62
               0
100
AcDbTrace
 10
0.0
 20
0.0
 30
0.0
 11
-1.4138671875
 21
-0.3788445710954878
 31
0.0
 12
-1.4138671875
 22
0.3788445710954881
 32
0.0
 13
-1.4138671875
 23
0.3788445710954881
 33
0.0
  0
ENDBLK
  5
40
100
AcDbEntity
  8
0
390
0
100
AcDbBlockEnd
  0
BLOCK
  5
42
100
AcDbEntity
  8
レイヤ0
390
0
100
AcDbBlockBegin
  2
*D2
 70
               1
 10
0.0
 20
0.0
 30
0.0
  3
*D2
  1

  0
LINE
  5
43
100
AcDbEntity
  8
レイヤ0
370
              -2
390
0
  6
Continuous
 62
               0
100
AcDbLine
 10
137.21307092226621
 20
150.1923437426189
 30
0.0
 11
137.21307092226621
 21
148.6048437426189
 31
0.0
  0
LINE
  5
44
100
AcDbEntity
  8
レイヤ0
370
              -2
390
0
  6
Continuous
 62
               0
100
AcDbLine
 10
137.21307092226621
 20
73.604843742618868
 30
0.0
 11
137.21307092226621
 21
72.017343742618863
 31
0.0
  0
LINE
  5
45
100
AcDbEntity
  8
レイヤ0
370
              -2
390
0
  6
Continuous
 62
               0
100
AcDbLine
 10
137.21307092226621
 20
148.6048437426189
 30
0.0
 11
137.21307092226621
 21
73.604843742618868
 31
0.0
  0
LINE
  5
46
100
AcDbEntity
  8
レイヤ0
370
              20
390
0
  6
Continuous
 62
               0
100
AcDbLine
 10
138.33560293739987
 20
147.48231172748524
 30
0.0
 11
136.09053890713255
 21
149.72737575775255
 31
0.0
  0
LINE
  5
47
100
AcDbEntity
  8
レイヤ0
370
              20
390
0
  6
Continuous
 62
               0
100
AcDbLine
 10
136.09053890713255
 20
74.727375757752512
 30
0.0
 11
138.33560293739987
 21
72.482311727485225
 31
0.0
  0
WIPEOUT
  5
48
100
AcDbEntity
  8
レイヤ0
370
              -2
390
0
  6
Continuous
 62
               0
 92
        0
100
AcDbWipeout
 90
        0
 10
131.49176385094543
 20
165.13963744956388
 30
0.0
 11
15.05203532112969
 21
0.0
 31
0.0
 12
0.0
 22
15.05203532112969
 32
0.0
 13
1.0
 23
1.0
340
0
 70
               7
280
               1
281
              50
282
              50
283
               0
360
0
 71
               2
 91
        5
 14
-0.2999999995286463
 24
4.5898662575613418
 14
-0.2999999995286463
 24
3.5898662575613414
 14
-0.5
 24
3.5898662575613414
 14
-0.5
 24
4.5898662575613418
 14
-0.2999999995286463
 24
4.5898662575613418
  0
MTEXT
  5
49
100
AcDbEntity
  8
レイヤ0
390
0
 62
               0
100
AcDbMText
 10
131.76411161567898
 20
103.57882608205406
 30
0.0
 40
2.3166023166023169
 41
0.0
 71
               1
 72
               1
  1
420.0±3.0
  7
ＭＳ ゴシック
 11
0.0
 21
1.0
 31
0.0
 73
               1
 44
0.7828267384257843
  0
POINT
  5
4A
100
AcDbEntity
  8
Defpoints
370
               0
390
0
 62
               0
100
AcDbPoint
 10
137.21307092226621
 20
73.604843742618868
 30
0.0
  0
POINT
  5
4B
100
AcDbEntity
  8
Defpoints
370
               0
390
0
 62
               0
100
AcDbPoint
 10
137.21307092226621
 20
148.6048437426189
 30
0.0
  0
POINT
  5
4C
100
AcDbEntity
  8
Defpoints
370
               0
390
0
 62
               0
100
AcDbPoint
 10
137.21307092226621
 20
148.6048437426189
 30
0.0
  0
ENDBLK
  5
4D
100
AcDbEntity
  8
レイヤ0
390
0
100
AcDbBlockEnd
  0
BLOCK
  5
4E
100
AcDbEntity
  8
レイヤ0
390
0
100
AcDbBlockBegin
  2
*D3
 70
               1
 10
0.0
 20
0.0
 30
0.0
  3
*D3
  1

  0
LINE
  5
4F
100
AcDbEntity
  8
レイヤ0
370
              -2
390
0
  6
Continuous
 62
               0
100
AcDbLine
 10
189.300551531385
 20
213.7672176804972
 30
0.0
 11
187.71305153138499
 21
213.7672176804972
 31
0.0
  0
LINE
  5
50
100
AcDbEntity
  8
レイヤ0
370
              -2
390
0
  6
Continuous
 62
               0
100
AcDbLine
 10
174.7130864675311
 20
213.7672176804972
 30
0.0
 11
173.12558646753109
 21
213.7672176804972
 31
0.0
  0
LINE
  5
51
100
AcDbEntity
  8
レイヤ0
370
              -2
390
0
  6
Continuous
 62
               0
100
AcDbLine
 10
187.71305153138499
 20
213.7672176804972
 30
0.0
 11
174.7130864675311
 21
213.7672176804972
 31
0.0
  0
LINE
  5
52
100
AcDbEntity
  8
レイヤ0
370
              20
390
0
  6
Continuous
 62
               0
100
AcDbLine
 10
186.59051951625133
 20
212.64468566536357
 30
0.0
 11
188.83558354651865
 21
214.88974969563083
 31
0.0
  0
LINE
  5
53
100
AcDbEntity
  8
レイヤ0
370
              20
390
0
  6
Continuous
 62
               0
100
AcDbLine
 10
175.83561848266476
 20
214.88974969563083
 30
0.0
 11
173.59055445239744
 21
212.64468566536357
 31
0.0
  0
WIPEOUT
  5
54
100
AcDbEntity
  8
レイヤ0
370
              -2
390
0
  6
Continuous
 62
               0
 92
        0
100
AcDbWipeout
 90
        0
 10
178.20266180065801
 20
278.03892904800705
 30
0.0
 11
6.0208143975999633
 21
0.0
 31
0.0
 12
0.0
 22
6.0208143975999633
 32
0.0
 13
1.0
 23
1.0
340
0
 70
               7
280
               1
281
              50
282
              50
283
               0
360
0
 71
               2
 91
        5
 14
-0.5
 24
10.724665186830775
 14
0.5
 24
10.724665186830775
 14
0.5
 24
10.224665208003858
 14
-0.5
 24
10.224665208003858
 14
-0.5
 24
10.724665186830775
  0
MTEXT
  5
55
100
AcDbEntity
  8
レイヤ0
390
0
 62
               0
100
AcDbMText
 10
178.20266180065801
 20
219.21617698708442
 30
0.0
 40
2.3166023166023169
 41
0.0
 71
               1
 72
               1
  1
φ13
  7
ＭＳ ゴシック
 73
               1
 44
0.7828267384257843
  0
POINT
  5
56
100
AcDbEntity
  8
Defpoints
370
               0
390
0
 62
               0
100
AcDbPoint
 10
174.7130864675311
 20
213.7672176804972
 30
0.0
  0
POINT
  5
57
100
AcDbEntity
  8
Defpoints
370
               0
390
0
 62
               0
100
AcDbPoint
 10
187.71305153138499
 20
213.7672176804972
 30
0.0
  0
POINT
  5
58
100
AcDbEntity
  8
Defpoints
370
               0
390
0
 62
               0
100
AcDbPoint
 10
187.71305153138499
 20
213.7672176804972
 30
0.0
  0
ENDBLK
  5
59
100
AcDbEntity
  8
レイヤ0
390
0
100
AcDbBlockEnd
  0
BLOCK
  5
5A
100
AcDbEntity
  8
レイヤ0
390
0
100
AcDbBlockBegin
  2
*D4
 70
               1
 10
0.0
 20
0.0
 30
0.0
  3
*D4
  1

  0
LINE
  5
5B
100
AcDbEntity
  8
レイヤ0
370
              -2
390
0
  6
Continuous
 62
               0
100
AcDbLine
 10
125.55359765051399
 20
72.017343742618834
 30
0.0
 11
125.55359765051399
 21
73.60484374261884
 31
0.0
  0
LINE
  5
5C
100
AcDbEntity
  8
レイヤ0
370
              -2
390
0
  6
Continuous
 62
               0
100
AcDbLine
 10
125.55359765051401
 20
204.60484713372369
 30
0.0
 11
125.55359765051401
 21
206.1923471337237
 31
0.0
  0
LINE
  5
5D
100
AcDbEntity
  8
レイヤ0
370
              -2
390
0
  6
Continuous
 62
               0
100
AcDbLine
 10
125.55359765051399
 20
73.60484374261884
 30
0.0
 11
125.55359765051401
 21
204.60484713372369
 31
0.0
  0
LINE
  5
5E
100
AcDbEntity
  8
レイヤ0
370
              20
390
0
  6
Continuous
 62
               0
100
AcDbLine
 10
124.43106563538035
 20
74.727375757752483
 30
0.0
 11
126.67612966564764
 21
72.482311727485197
 31
0.0
  0
LINE
  5
5F
100
AcDbEntity
  8
レイヤ0
370
              20
390
0
  6
Continuous
 62
               0
100
AcDbLine
 10
126.67612966564765
 20
203.48231511859007
 30
0.0
 11
124.43106563538036
 21
205.72737914885732
 31
0.0
  0
WIPEOUT
  5
60
100
AcDbEntity
  8
レイヤ0
370
              -2
390
0
  6
Continuous
 62
               0
 92
        0
100
AcDbWipeout
 90
        0
 10
125.25409057919323
 20
196.90264797539871
 30
0.0
 11
7.526017660564845
 21
0.0
 31
0.0
 12
0.0
 22
7.526017660564845
 32
0.0
 13
1.0
 23
1.0
340
0
 70
               7
280
               1
281
              50
282
              50
283
               0
360
0
 71
               2
 91
        5
 14
-0.0999999990572945
 24
8.6797325151226836
 14
-0.0999999990572945
 24
7.6797325151226854
 14
-0.5
 24
7.6797325151226854
 14
-0.5
 24
8.6797325151226836
 14
-0.0999999990572945
 24
8.6797325151226836
  0
MTEXT
  5
61
100
AcDbEntity
  8
レイヤ0
390
0
 62
               0
100
AcDbMText
 10
125.52643834392678
 20
135.34183660788889
 30
0.0
 40
2.3166023166023169
 41
0.0
 71
               1
 72
               1
  1
(467)
  7
ＭＳ ゴシック
 11
0.0
 21
1.0
 31
0.0
 73
               1
 44
0.7828267384257843
  0
POINT
  5
62
100
AcDbEntity
  8
Defpoints
370
               0
390
0
 62
               0
100
AcDbPoint
 10
125.55359765051401
 20
204.60484713372369
 30
0.0
  0
POINT
  5
63
100
AcDbEntity
  8
Defpoints
370
               0
390
0
 62
               0
100
AcDbPoint
 10
125.55359765051401
 20
73.60484374261884
 30
0.0
  0
POINT
  5
64
100
AcDbEntity
  8
Defpoints
370
               0
390
0
 62
               0
100
AcDbPoint
 10
125.55359765051399
 20
73.60484374261884
 30
0.0
  0
ENDBLK
  5
65
100
AcDbEntity
  8
レイヤ0
390
0
100
AcDbBlockEnd
  0
BLOCK
  5
66
100
AcDbEntity
  8
レイヤ0
390
0
100
AcDbBlockBegin
  2
*D5
 70
               1
 10
0.0
 20
0.0
 30
0.0
  3
*D5
  1

  0
LINE
  5
67
100
AcDbEntity
  8
レイヤ0
370
              -2
390
0
  6
Continuous
 62
               0
100
AcDbLine
 10
148.2057635829662
 20
138.0173478996081
 30
0.0
 11
148.2057635829662
 21
139.6048478996081
 31
0.0
  0
LINE
  5
68
100
AcDbEntity
  8
レイヤ0
370
              -2
390
0
  6
Continuous
 62
               0
100
AcDbLine
 10
148.2057635829662
 20
204.60484713372369
 30
0.0
 11
148.2057635829662
 21
206.1923471337237
 31
0.0
  0
LINE
  5
69
100
AcDbEntity
  8
レイヤ0
370
              -2
390
0
  6
Continuous
 62
               0
100
AcDbLine
 10
148.2057635829662
 20
139.6048478996081
 30
0.0
 11
148.2057635829662
 21
204.60484713372369
 31
0.0
  0
LINE
  5
6A
100
AcDbEntity
  8
レイヤ0
370
              20
390
0
  6
Continuous
 62
               0
100
AcDbLine
 10
147.08323156783257
 20
140.72737991474176
 30
0.0
 11
149.32829559809983
 21
138.48231588447447
 31
0.0
  0
LINE
  5
6B
100
AcDbEntity
  8
レイヤ0
370
              20
390
0
  6
Continuous
 62
               0
100
AcDbLine
 10
149.32829559809983
 20
203.48231511859007
 30
0.0
 11
147.08323156783257
 21
205.72737914885732
 31
0.0
  0
WIPEOUT
  5
6C
100
AcDbEntity
  8
レイヤ0
370
              -2
390
0
  6
Continuous
 62
               0
 92
        0
100
AcDbWipeout
 90
        0
 10
147.90625651164544
 20
232.16045528477571
 30
0.0
 11
3.0104071987999816
 21
0.0
 31
0.0
 12
0.0
 22
3.0104071987999816
 32
0.0
 13
1.0
 23
1.0
340
0
 70
               7
280
               1
281
              50
282
              50
283
               0
360
0
 71
               2
 91
        5
 14
0.4999999576538313
 24
20.949330373661539
 14
0.4999999576538313
 24
19.949330373661528
 14
-0.5
 24
19.949330373661528
 14
-0.5
 24
20.949330373661539
 14
0.4999999576538313
 24
20.949330373661539
  0
MTEXT
  5
6D
100
AcDbEntity
  8
レイヤ0
390
0
 62
               0
100
AcDbMText
 10
148.17860427637899
 20
170.59964391726589
 30
0.0
 40
2.3166023166023169
 41
0.0
 71
               1
 72
               1
  1
65
  7
ＭＳ ゴシック
 11
0.0
 21
1.0
 31
0.0
 73
               1
 44
0.7828267384257843
  0
POINT
  5
6E
100
AcDbEntity
  8
Defpoints
370
               0
390
0
 62
               0
100
AcDbPoint
 10
148.2057635829662
 20
204.60484713372369
 30
0.0
  0
POINT
  5
6F
100
AcDbEntity
  8
Defpoints
370
               0
390
0
 62
               0
100
AcDbPoint
 10
148.2057635829662
 20
139.6048478996081
 30
0.0
  0
POINT
  5
70
100
AcDbEntity
  8
Defpoints
370
               0
390
0
 62
               0
100
AcDbPoint
 10
148.2057635829662
 20
139.6048478996081
 30
0.0
  0
ENDBLK
  5
71
100
AcDbEntity
  8
レイヤ0
390
0
100
AcDbBlockEnd
  0
BLOCK
  5
72
100
AcDbEntity
  8
レイヤ0
390
0
100
AcDbBlockBegin
  2
*D6
 70
               1
 10
0.0
 20
0.0
 30
0.0
  3
*D6
  1

  0
LINE
  5
73
100
AcDbEntity
  8
レイヤ0
370
              -2
390
0
  6
Continuous
 62
               0
100
AcDbLine
 10
155.40106461086631
 20
138.0173478996081
 30
0.0
 11
155.40106461086631
 21
139.6048478996081
 31
0.0
  0
LINE
  5
74
100
AcDbEntity
  8
レイヤ0
370
              -2
390
0
  6
Continuous
 62
               0
100
AcDbLine
 10
155.40106461086631
 20
174.60485022672111
 30
0.0
 11
155.40106461086631
 21
176.19235022672112
 31
0.0
  0
LINE
  5
75
100
AcDbEntity
  8
レイヤ0
370
              -2
390
0
  6
Continuous
 62
               0
100
AcDbLine
 10
155.40106461086631
 20
139.6048478996081
 30
0.0
 11
155.40106461086631
 21
174.60485022672111
 31
0.0
  0
LINE
  5
76
100
AcDbEntity
  8
レイヤ0
370
              20
390
0
  6
Continuous
 62
               0
100
AcDbLine
 10
154.27853259573266
 20
140.72737991474176
 30
0.0
 11
156.52359662599997
 21
138.48231588447447
 31
0.0
  0
LINE
  5
77
100
AcDbEntity
  8
レイヤ0
370
              20
390
0
  6
Continuous
 62
               0
100
AcDbLine
 10
156.52359662599997
 20
173.48231821158748
 30
0.0
 11
154.27853259573266
 21
175.72738224185474
 31
0.0
  0
WIPEOUT
  5
78
100
AcDbEntity
  8
レイヤ0
370
              -2
390
0
  6
Continuous
 62
               0
 92
        0
100
AcDbWipeout
 90
        0
 10
155.10155753954552
 20
217.16045683127442
 30
0.0
 11
3.0104071987999816
 21
0.0
 31
0.0
 12
0.0
 22
3.0104071987999816
 32
0.0
 13
1.0
 23
1.0
340
0
 70
               7
280
               1
281
              50
282
              50
283
               0
360
0
 71
               2
 91
        5
 14
0.4999999576538408
 24
20.949330373661539
 14
0.4999999576538408
 24
19.949330373661539
 14
-0.5
 24
19.949330373661539
 14
-0.5
 24
20.949330373661539
 14
0.4999999576538408
 24
20.949330373661539
  0
MTEXT
  5
79
100
AcDbEntity
  8
レイヤ0
390
0
 62
               0
100
AcDbMText
 10
155.37390530427911
 20
155.5996454637646
 30
0.0
 40
2.3166023166023169
 41
0.0
 71
               1
 72
               1
  1
35
  7
ＭＳ ゴシック
 11
0.0
 21
1.0
 31
0.0
 73
               1
 44
0.7828267384257843
  0
POINT
  5
7A
100
AcDbEntity
  8
Defpoints
370
               0
390
0
 62
               0
100
AcDbPoint
 10
155.40106461086631
 20
174.60485022672111
 30
0.0
  0
POINT
  5
7B
100
AcDbEntity
  8
Defpoints
370
               0
390
0
 62
               0
100
AcDbPoint
 10
155.40106461086631
 20
139.6048478996081
 30
0.0
  0
POINT
  5
7C
100
AcDbEntity
  8
Defpoints
370
               0
390
0
 62
               0
100
AcDbPoint
 10
155.40106461086631
 20
139.6048478996081
 30
0.0
  0
ENDBLK
  5
7D
100
AcDbEntity
  8
レイヤ0
390
0
100
AcDbBlockEnd
  0
ENDSEC
  0
SECTION
  2
ENTITIES
  0
POLYLINE
  5
7E
102
{ACAD_REACTORS
330
D3
102
}
100
AcDbEntity
  8
レイヤ0
370
               5
390
0
  6
Continuous
 62
               7
100
AcDb2dPolyline
 66
               1
 10
0.0
 20
0.0
 30
0.0
 70
               1
 75
               5
  0
VERTEX
  5
7F
100
AcDbEntity
  8
レイヤ0
370
               5
390
0
  6
Continuous
 62
               7
100
AcDbVertex
100
AcDb2dVertex
 10
214.2130764403291
 20
181.3924840372764
 30
0.0
  0
VERTEX
  5
80
100
AcDbEntity
  8
レイヤ0
370
               5
390
0
  6
Continuous
 62
               7
100
AcDbVertex
100
AcDb2dVertex
 10
214.21307644032831
 20
179.77298353940719
 30
0.0
  0
VERTEX
  5
81
100
AcDbEntity
  8
レイヤ0
370
               5
390
0
  6
Continuous
 62
               7
100
AcDbVertex
100
AcDb2dVertex
 10
213.45059211151761
 20
179.35484733992331
 30
0.0
  0
VERTEX
  5
82
100
AcDbEntity
  8
レイヤ0
370
               5
390
0
  6
Continuous
 62
               7
100
AcDbVertex
100
AcDb2dVertex
 10
209.51310695790281
 20
179.3548535259186
 30
0.0
  0
VERTEX
  5
83
100
AcDbEntity
  8
レイヤ0
370
               5
390
0
  6
Continuous
 62
               7
100
AcDbVertex
100
AcDb2dVertex
 10
209.51310695790829
 20
179.61343937139301
 30
0.0
  0
VERTEX
  5
84
100
AcDbEntity
  8
レイヤ0
370
               5
390
0
  6
Continuous
 62
               7
100
AcDbVertex
100
AcDb2dVertex
 10
211.92171839182649
 20
179.85603332876491
 30
0.0
  0
VERTEX
  5
85
100
AcDbEntity
  8
レイヤ0
370
               5
390
0
  6
Continuous
 62
               7
100
AcDbVertex
100
AcDb2dVertex
 10
211.93305305094549
 20
179.85733849483091
 30
0.0
  0
VERTEX
  5
86
100
AcDbEntity
  8
レイヤ0
370
               5
390
0
  6
Continuous
 62
               7
100
AcDbVertex
100
AcDb2dVertex
 10
211.94858704147919
 20
179.85966304662969
 30
0.0
  0
VERTEX
  5
87
100
AcDbEntity
  8
レイヤ0
370
               5
390
0
  6
Continuous
 62
               7
100
AcDbVertex
100
AcDb2dVertex
 10
211.96401779439401
 20
179.86259566788959
 30
0.0
  0
VERTEX
  5
88
100
AcDbEntity
  8
レイヤ0
370
               5
390
0
  6
Continuous
 62
               7
100
AcDbVertex
100
AcDb2dVertex
 10
211.97932151658699
 20
179.86613183672131
 30
0.0
  0
VERTEX
  5
89
100
AcDbEntity
  8
レイヤ0
370
               5
390
0
  6
Continuous
 62
               7
100
AcDbVertex
100
AcDb2dVertex
 10
211.99447461082809
 20
179.8702661006086
 30
0.0
  0
VERTEX
  5
8A
100
AcDbEntity
  8
レイヤ0
370
               5
390
0
  6
Continuous
 62
               7
100
AcDbVertex
100
AcDb2dVertex
 10
212.00945371214411
 20
179.87499208481651
 30
0.0
  0
VERTEX
  5
8B
100
AcDbEntity
  8
レイヤ0
370
               5
390
0
  6
Continuous
 62
               7
100
AcDbVertex
100
AcDb2dVertex
 10
212.0242357238466
 20
179.88030250221959
 30
0.0
  0
VERTEX
  5
8C
100
AcDbEntity
  8
レイヤ0
370
               5
390
0
  6
Continuous
 62
               7
100
AcDbVertex
100
AcDb2dVertex
 10
212.03879785314501
 20
179.88618916453939
 30
0.0
  0
VERTEX
  5
8D
100
AcDbEntity
  8
レイヤ0
370
               5
390
0
  6
Continuous
 62
               7
100
AcDbVertex
100
AcDb2dVertex
 10
212.05311764629121
 20
179.89264299496929
 30
0.0
  0
VERTEX
  5
8E
100
AcDbEntity
  8
レイヤ0
370
               5
390
0
  6
Continuous
 62
               7
100
AcDbVertex
100
AcDb2dVertex
 10
212.06717302320229
 20
179.89965404217031
 30
0.0
  0
VERTEX
  5
8F
100
AcDbEntity
  8
レイヤ0
370
               5
390
0
  6
Continuous
 62
               7
100
AcDbVertex
100
AcDb2dVertex
 10
212.08094231150579
 20
179.90721149561611
 30
0.0
  0
VERTEX
  5
90
100
AcDbEntity
  8
レイヤ0
370
               5
390
0
  6
Continuous
 62
               7
100
AcDbVertex
100
AcDb2dVertex
 10
212.0944042799571
 20
179.91530370226101
 30
0.0
  0
VERTEX
  5
91
100
AcDbEntity
  8
レイヤ0
370
               5
390
0
  6
Continuous
 62
               7
100
AcDbVertex
100
AcDb2dVertex
 10
212.10753817117671
 20
179.92391818450889
 30
0.0
  0
VERTEX
  5
92
100
AcDbEntity
  8
レイヤ0
370
               5
390
0
  6
Continuous
 62
               7
100
AcDbVertex
100
AcDb2dVertex
 10
212.12032373365619
 20
179.9330416594529
 30
0.0
  0
VERTEX
  5
93
100
AcDbEntity
  8
レイヤ0
370
               5
390
0
  6
Continuous
 62
               7
100
AcDbVertex
100
AcDb2dVertex
 10
212.132741252985
 20
179.94266005935549
 30
0.0
  0
VERTEX
  5
94
100
AcDbEntity
  8
レイヤ0
370
               5
390
0
  6
Continuous
 62
               7
100
AcDbVertex
100
AcDb2dVertex
 10
212.1447715822483
 20
179.95275855334151
 30
0.0
  0
VERTEX
  5
95
100
AcDbEntity
  8
レイヤ0
370
               5
390
0
  6
Continuous
 62
               7
100
AcDbVertex
100
AcDb2dVertex
 10
212.15639617155051
 20
179.96332157026501
 30
0.0
  0
VERTEX
  5
96
100
AcDbEntity
  8
レイヤ0
370
               5
390
0
  6
Continuous
 62
               7
100
AcDbVertex
100
AcDb2dVertex
 10
212.1675970966173
 20
179.97433282271939
 30
0.0
  0
VERTEX
  5
97
100
AcDbEntity
  8
レイヤ0
370
               5
390
0
  6
Continuous
 62
               7
100
AcDbVertex
100
AcDb2dVertex
 10
212.17835708643409
 20
179.9857753321518
 30
0.0
  0
VERTEX
  5
98
100
AcDbEntity
  8
レイヤ0
370
               5
390
0
  6
Continuous
 62
               7
100
AcDbVertex
100
AcDb2dVertex
 10
212.1886595498766
 20
179.9976314550419
 30
0.0
  0
VERTEX
  5
99
100
AcDbEntity
  8
レイヤ0
370
               5
390
0
  6
Continuous
 62
               7
100
AcDbVertex
100
AcDb2dVertex
 10
212.19848860129289
 20
180.00988291010751
 30
0.0
  0
VERTEX
  5
9A
100
AcDbEntity
  8
レイヤ0
370
               5
390
0
  6
Continuous
 62
               7
100
AcDbVertex
100
AcDb2dVertex
 10
212.20782908499811
 20
180.0225108064929
 30
0.0
  0
VERTEX
  5
9B
100
AcDbEntity
  8
レイヤ0
370
               5
390
0
  6
Continuous
 62
               7
100
AcDbVertex
100
AcDb2dVertex
 10
212.2166665986434
 20
180.0354956728973
 30
0.0
  0
VERTEX
  5
9C
100
AcDbEntity
  8
レイヤ0
370
               5
390
0
  6
Continuous
 62
               7
100
AcDbVertex
100
AcDb2dVertex
 10
212.22498751542321
 20
180.04881748759769
 30
0.0
  0
VERTEX
  5
9D
100
AcDbEntity
  8
レイヤ0
370
               5
390
0
  6
Continuous
 62
               7
100
AcDbVertex
100
AcDb2dVertex
 10
212.232779005087
 20
180.06245570932151
 30
0.0
  0
VERTEX
  5
9E
100
AcDbEntity
  8
レイヤ0
370
               5
390
0
  6
Continuous
 62
               7
100
AcDbVertex
100
AcDb2dVertex
 10
212.24002905372251
 20
180.07638930891929
 30
0.0
  0
VERTEX
  5
9F
100
AcDbEntity
  8
レイヤ0
370
               5
390
0
  6
Continuous
 62
               7
100
AcDbVertex
100
AcDb2dVertex
 10
212.2467264822802
 20
180.09059680179041
 30
0.0
  0
VERTEX
  5
A0
100
AcDbEntity
  8
レイヤ0
370
               5
390
0
  6
Continuous
 62
               7
100
AcDbVertex
100
AcDb2dVertex
 10
212.25286096381069
 20
180.1050562810106
 30
0.0
  0
VERTEX
  5
A1
100
AcDbEntity
  8
レイヤ0
370
               5
390
0
  6
Continuous
 62
               7
100
AcDbVertex
100
AcDb2dVertex
 10
212.25842303938799
 20
180.1197454511111
 30
0.0
  0
VERTEX
  5
A2
100
AcDbEntity
  8
レイヤ0
370
               5
390
0
  6
Continuous
 62
               7
100
AcDbVertex
100
AcDb2dVertex
 10
212.26340413269489
 20
180.1346416624562
 30
0.0
  0
VERTEX
  5
A3
100
AcDbEntity
  8
レイヤ0
370
               5
390
0
  6
Continuous
 62
               7
100
AcDbVertex
100
AcDb2dVertex
 10
212.26779656324649
 20
180.14972194616769
 30
0.0
  0
VERTEX
  5
A4
100
AcDbEntity
  8
レイヤ0
370
               5
390
0
  6
Continuous
 62
               7
100
AcDbVertex
100
AcDb2dVertex
 10
212.27159355823309
 20
180.16496304954109
 30
0.0
  0
VERTEX
  5
A5
100
AcDbEntity
  8
レイヤ0
370
               5
390
0
  6
Continuous
 62
               7
100
AcDbVertex
100
AcDb2dVertex
 10
212.27478926296379
 20
180.18034147189979
 30
0.0
  0
VERTEX
  5
A6
100
AcDbEntity
  8
レイヤ0
370
               5
390
0
  6
Continuous
 62
               7
100
AcDbVertex
100
AcDb2dVertex
 10
212.27737874989359
 20
180.1958335008311
 30
0.0
  0
VERTEX
  5
A7
100
AcDbEntity
  8
レイヤ0
370
               5
390
0
  6
Continuous
 62
               7
100
AcDbVertex
100
AcDb2dVertex
 10
212.2793580262211
 20
180.2114152487494
 30
0.0
  0
VERTEX
  5
A8
100
AcDbEntity
  8
レイヤ0
370
               5
390
0
  6
Continuous
 62
               7
100
AcDbVertex
100
AcDb2dVertex
 10
212.2807240400459
 20
180.2270626897286
 30
0.0
  0
VERTEX
  5
A9
100
AcDbEntity
  8
レイヤ0
370
               5
390
0
  6
Continuous
 62
               7
100
AcDbVertex
100
AcDb2dVertex
 10
212.28147468507359
 20
180.24275169654899
 30
0.0
  0
VERTEX
  5
AA
100
AcDbEntity
  8
レイヤ0
370
               5
390
0
  6
Continuous
 62
               7
100
AcDbVertex
100
AcDb2dVertex
 10
212.281608803864
 20
180.25845807789929
 30
0.0
  0
VERTEX
  5
AB
100
AcDbEntity
  8
レイヤ0
370
               5
390
0
  6
Continuous
 62
               7
100
AcDbVertex
100
AcDb2dVertex
 10
212.28112618961561
 20
180.27415761567769
 30
0.0
  0
VERTEX
  5
AC
100
AcDbEntity
  8
レイヤ0
370
               5
390
0
  6
Continuous
 62
               7
100
AcDbVertex
100
AcDb2dVertex
 10
212.28002758648461
 20
180.28982610233501
 30
0.0
  0
VERTEX
  5
AD
100
AcDbEntity
  8
レイヤ0
370
               5
390
0
  6
Continuous
 62
               7
100
AcDbVertex
100
AcDb2dVertex
 10
212.27831468843729
 20
180.3054393782003
 30
0.0
  0
VERTEX
  5
AE
100
AcDbEntity
  8
レイヤ0
370
               5
390
0
  6
Continuous
 62
               7
100
AcDbVertex
100
AcDb2dVertex
 10
212.27599013663851
 20
180.32097336873409
 30
0.0
  0
VERTEX
  5
AF
100
AcDbEntity
  8
レイヤ0
370
               5
390
0
  6
Continuous
 62
               7
100
AcDbVertex
100
AcDb2dVertex
 10
212.27305751537861
 20
180.3364041216488
 30
0.0
  0
VERTEX
  5
B0
100
AcDbEntity
  8
レイヤ0
370
               5
390
0
  6
Continuous
 62
               7
100
AcDbVertex
100
AcDb2dVertex
 10
212.26952134654701
 20
180.35170784384189
 30
0.0
  0
VERTEX
  5
B1
100
AcDbEntity
  8
レイヤ0
370
               5
390
0
  6
Continuous
 62
               7
100
AcDbVertex
100
AcDb2dVertex
 10
212.2653870826596
 20
180.36686093808299
 30
0.0
  0
VERTEX
  5
B2
100
AcDbEntity
  8
レイヤ0
370
               5
390
0
  6
Continuous
 62
               7
100
AcDbVertex
100
AcDb2dVertex
 10
212.26066109845169
 20
180.38184003939901
 30
0.0
  0
VERTEX
  5
B3
100
AcDbEntity
  8
レイヤ0
370
               5
390
0
  6
Continuous
 62
               7
100
AcDbVertex
100
AcDb2dVertex
 10
212.25535068104861
 20
180.39662205110139
 30
0.0
  0
VERTEX
  5
B4
100
AcDbEntity
  8
レイヤ0
370
               5
390
0
  6
Continuous
 62
               7
100
AcDbVertex
100
AcDb2dVertex
 10
212.24946401872879
 20
180.4111841803998
 30
0.0
  0
VERTEX
  5
B5
100
AcDbEntity
  8
レイヤ0
370
               5
390
0
  6
Continuous
 62
               7
100
AcDbVertex
100
AcDb2dVertex
 10
212.243010188299
 20
180.42550397354611
 30
0.0
  0
VERTEX
  5
B6
100
AcDbEntity
  8
レイヤ0
370
               5
390
0
  6
Continuous
 62
               7
100
AcDbVertex
100
AcDb2dVertex
 10
212.23599914109789
 20
180.4395593504571
 30
0.0
  0
VERTEX
  5
B7
100
AcDbEntity
  8
レイヤ0
370
               5
390
0
  6
Continuous
 62
               7
100
AcDbVertex
100
AcDb2dVertex
 10
212.22844168765221
 20
180.45332863876061
 30
0.0
  0
VERTEX
  5
B8
100
AcDbEntity
  8
レイヤ0
370
               5
390
0
  6
Continuous
 62
               7
100
AcDbVertex
100
AcDb2dVertex
 10
212.2203494810073
 20
180.46679060721189
 30
0.0
  0
VERTEX
  5
B9
100
AcDbEntity
  8
レイヤ0
370
               5
390
0
  6
Continuous
 62
               7
100
AcDbVertex
100
AcDb2dVertex
 10
212.21173499875931
 20
180.4799244984315
 30
0.0
  0
VERTEX
  5
BA
100
AcDbEntity
  8
レイヤ0
370
               5
390
0
  6
Continuous
 62
               7
100
AcDbVertex
100
AcDb2dVertex
 10
212.20261152381539
 20
180.49271006091101
 30
0.0
  0
VERTEX
  5
BB
100
AcDbEntity
  8
レイヤ0
370
               5
390
0
  6
Continuous
 62
               7
100
AcDbVertex
100
AcDb2dVertex
 10
212.19299312391269
 20
180.50512758023979
 30
0.0
  0
VERTEX
  5
BC
100
AcDbEntity
  8
レイヤ0
370
               5
390
0
  6
Continuous
 62
               7
100
AcDbVertex
100
AcDb2dVertex
 10
212.18289462992669
 20
180.51715790950311
 30
0.0
  0
VERTEX
  5
BD
100
AcDbEntity
  8
レイヤ0
370
               5
390
0
  6
Continuous
 62
               7
100
AcDbVertex
100
AcDb2dVertex
 10
212.17233161300331
 20
180.5287824988053
 30
0.0
  0
VERTEX
  5
BE
100
AcDbEntity
  8
レイヤ0
370
               5
390
0
  6
Continuous
 62
               7
100
AcDbVertex
100
AcDb2dVertex
 10
212.16132036054881
 20
180.53998342387209
 30
0.0
  0
VERTEX
  5
BF
100
AcDbEntity
  8
レイヤ0
370
               5
390
0
  6
Continuous
 62
               7
100
AcDbVertex
100
AcDb2dVertex
 10
212.1498778511164
 20
180.55074341368891
 30
0.0
  0
VERTEX
  5
C0
100
AcDbEntity
  8
レイヤ0
370
               5
390
0
  6
Continuous
 62
               7
100
AcDbVertex
100
AcDb2dVertex
 10
212.13802172822631
 20
180.56104587713139
 30
0.0
  0
VERTEX
  5
C1
100
AcDbEntity
  8
レイヤ0
370
               5
390
0
  6
Continuous
 62
               7
100
AcDbVertex
100
AcDb2dVertex
 10
212.12577027316081
 20
180.57087492854771
 30
0.0
  0
VERTEX
  5
C2
100
AcDbEntity
  8
レイヤ0
370
               5
390
0
  6
Continuous
 62
               7
100
AcDbVertex
100
AcDb2dVertex
 10
212.1131423767753
 20
180.58021541225301
 30
0.0
  0
VERTEX
  5
C3
100
AcDbEntity
  8
レイヤ0
370
               5
390
0
  6
Continuous
 62
               7
100
AcDbVertex
100
AcDb2dVertex
 10
212.10015751037091
 20
180.58905292589819
 30
0.0
  0
VERTEX
  5
C4
100
AcDbEntity
  8
レイヤ0
370
               5
390
0
  6
Continuous
 62
               7
100
AcDbVertex
100
AcDb2dVertex
 10
212.0868356956706
 20
180.597373842678
 30
0.0
  0
VERTEX
  5
C5
100
AcDbEntity
  8
レイヤ0
370
               5
390
0
  6
Continuous
 62
               7
100
AcDbVertex
100
AcDb2dVertex
 10
212.07319747394681
 20
180.60516533234181
 30
0.0
  0
VERTEX
  5
C6
100
AcDbEntity
  8
レイヤ0
370
               5
390
0
  6
Continuous
 62
               7
100
AcDbVertex
100
AcDb2dVertex
 10
212.059263874349
 20
180.61241538097741
 30
0.0
  0
VERTEX
  5
C7
100
AcDbEntity
  8
レイヤ0
370
               5
390
0
  6
Continuous
 62
               7
100
AcDbVertex
100
AcDb2dVertex
 10
212.04505638147791
 20
180.6191128095351
 30
0.0
  0
VERTEX
  5
C8
100
AcDbEntity
  8
レイヤ0
370
               5
390
0
  6
Continuous
 62
               7
100
AcDbVertex
100
AcDb2dVertex
 10
212.0305969022576
 20
180.62524729106559
 30
0.0
  0
VERTEX
  5
C9
100
AcDbEntity
  8
レイヤ0
370
               5
390
0
  6
Continuous
 62
               7
100
AcDbVertex
100
AcDb2dVertex
 10
212.0159077321571
 20
180.63080936664289
 30
0.0
  0
VERTEX
  5
CA
100
AcDbEntity
  8
レイヤ0
370
               5
390
0
  6
Continuous
 62
               7
100
AcDbVertex
100
AcDb2dVertex
 10
212.001011520812
 20
180.63579045994979
 30
0.0
  0
VERTEX
  5
CB
100
AcDbEntity
  8
レイヤ0
370
               5
390
0
  6
Continuous
 62
               7
100
AcDbVertex
100
AcDb2dVertex
 10
211.9859312371006
 20
180.64018289050131
 30
0.0
  0
VERTEX
  5
CC
100
AcDbEntity
  8
レイヤ0
370
               5
390
0
  6
Continuous
 62
               7
100
AcDbVertex
100
AcDb2dVertex
 10
211.97069013372709
 20
180.64397988548799
 30
0.0
  0
VERTEX
  5
CD
100
AcDbEntity
  8
レイヤ0
370
               5
390
0
  6
Continuous
 62
               7
100
AcDbVertex
100
AcDb2dVertex
 10
211.95531171136841
 20
180.64717559021869
 30
0.0
  0
VERTEX
  5
CE
100
AcDbEntity
  8
レイヤ0
370
               5
390
0
  6
Continuous
 62
               7
100
AcDbVertex
100
AcDb2dVertex
 10
209.5131069579073
 20
181.10485022672151
 30
0.0
  0
VERTEX
  5
CF
100
AcDbEntity
  8
レイヤ0
370
               5
390
0
  6
Continuous
 62
               7
100
AcDbVertex
100
AcDb2dVertex
 10
209.5131069579073
 20
185.79286036515521
 30
0.0
  0
VERTEX
  5
D0
100
AcDbEntity
  8
レイヤ0
370
               5
390
0
  6
Continuous
 62
               7
100
AcDbVertex
100
AcDb2dVertex
 10
211.01306241873851
 20
185.79286036515521
 30
0.0
  0
SEQEND
  5
D1
100
AcDbEntity
  8
レイヤ0
370
               5
390
0
  6
Continuous
 62
               7
  0
HATCH
  5
D3
100
AcDbEntity
  8
レイヤ0
370
               0
390
0
  6
Continuous
 62
               9
100
AcDbHatch
 10
0.0
 20
0.0
 30
0.0
210
0.0
220
0.0
230
1.0
  2
SOLID
 70
               1
 71
               1
 91
        1
 92
        1
 93
       82
 72
               1
 10
214.2130764403291
 20
181.3924840372764
 11
214.21307644032831
 21
179.77298353940719
 72
               1
 10
214.21307644032831
 20
179.77298353940719
 11
213.45059211151761
 21
179.35484733992331
 72
               1
 10
213.45059211151761
 20
179.35484733992331
 11
209.51310695790281
 21
179.3548535259186
 72
               1
 10
209.51310695790281
 20
179.3548535259186
 11
209.51310695790829
 21
179.61343937139301
 72
               1
 10
209.51310695790829
 20
179.61343937139301
 11
211.92171839182649
 21
179.85603332876491
 72
               1
 10
211.92171839182649
 20
179.85603332876491
 11
211.93305305094549
 21
179.85733849483091
 72
               1
 10
211.93305305094549
 20
179.85733849483091
 11
211.94858704147919
 21
179.85966304662969
 72
               1
 10
211.94858704147919
 20
179.85966304662969
 11
211.96401779439401
 21
179.86259566788959
 72
               1
 10
211.96401779439401
 20
179.86259566788959
 11
211.97932151658699
 21
179.86613183672131
 72
               1
 10
211.97932151658699
 20
179.86613183672131
 11
211.99447461082809
 21
179.8702661006086
 72
               1
 10
211.99447461082809
 20
179.8702661006086
 11
212.00945371214411
 21
179.87499208481651
 72
               1
 10
212.00945371214411
 20
179.87499208481651
 11
212.0242357238466
 21
179.88030250221959
 72
               1
 10
212.0242357238466
 20
179.88030250221959
 11
212.03879785314501
 21
179.88618916453939
 72
               1
 10
212.03879785314501
 20
179.88618916453939
 11
212.05311764629121
 21
179.89264299496929
 72
               1
 10
212.05311764629121
 20
179.89264299496929
 11
212.06717302320229
 21
179.89965404217031
 72
               1
 10
212.06717302320229
 20
179.89965404217031
 11
212.08094231150579
 21
179.90721149561611
 72
               1
 10
212.08094231150579
 20
179.90721149561611
 11
212.0944042799571
 21
179.91530370226101
 72
               1
 10
212.0944042799571
 20
179.91530370226101
 11
212.10753817117671
 21
179.92391818450889
 72
               1
 10
212.10753817117671
 20
179.92391818450889
 11
212.12032373365619
 21
179.9330416594529
 72
               1
 10
212.12032373365619
 20
179.9330416594529
 11
212.132741252985
 21
179.94266005935549
 72
               1
 10
212.132741252985
 20
179.94266005935549
 11
212.1447715822483
 21
179.95275855334151
 72
               1
 10
212.1447715822483
 20
179.95275855334151
 11
212.15639617155051
 21
179.96332157026501
 72
               1
 10
212.15639617155051
 20
179.96332157026501
 11
212.1675970966173
 21
179.97433282271939
 72
               1
 10
212.1675970966173
 20
179.97433282271939
 11
212.17835708643409
 21
179.9857753321518
 72
               1
 10
212.17835708643409
 20
179.9857753321518
 11
212.1886595498766
 21
179.9976314550419
 72
               1
 10
212.1886595498766
 20
179.9976314550419
 11
212.19848860129289
 21
180.00988291010751
 72
               1
 10
212.19848860129289
 20
180.00988291010751
 11
212.20782908499811
 21
180.0225108064929
 72
               1
 10
212.20782908499811
 20
180.0225108064929
 11
212.2166665986434
 21
180.0354956728973
 72
               1
 10
212.2166665986434
 20
180.0354956728973
 11
212.22498751542321
 21
180.04881748759769
 72
               1
 10
212.22498751542321
 20
180.04881748759769
 11
212.232779005087
 21
180.06245570932151
 72
               1
 10
212.232779005087
 20
180.06245570932151
 11
212.24002905372251
 21
180.07638930891929
 72
               1
 10
212.24002905372251
 20
180.07638930891929
 11
212.2467264822802
 21
180.09059680179041
 72
               1
 10
212.2467264822802
 20
180.09059680179041
 11
212.25286096381069
 21
180.1050562810106
 72
               1
 10
212.25286096381069
 20
180.1050562810106
 11
212.25842303938799
 21
180.1197454511111
 72
               1
 10
212.25842303938799
 20
180.1197454511111
 11
212.26340413269489
 21
180.1346416624562
 72
               1
 10
212.26340413269489
 20
180.1346416624562
 11
212.26779656324649
 21
180.14972194616769
 72
               1
 10
212.26779656324649
 20
180.14972194616769
 11
212.27159355823309
 21
180.16496304954109
 72
               1
 10
212.27159355823309
 20
180.16496304954109
 11
212.27478926296379
 21
180.18034147189979
 72
               1
 10
212.27478926296379
 20
180.18034147189979
 11
212.27737874989359
 21
180.1958335008311
 72
               1
 10
212.27737874989359
 20
180.1958335008311
 11
212.2793580262211
 21
180.2114152487494
 72
               1
 10
212.2793580262211
 20
180.2114152487494
 11
212.2807240400459
 21
180.2270626897286
 72
               1
 10
212.2807240400459
 20
180.2270626897286
 11
212.28147468507359
 21
180.24275169654899
 72
               1
 10
212.28147468507359
 20
180.24275169654899
 11
212.281608803864
 21
180.25845807789929
 72
               1
 10
212.281608803864
 20
180.25845807789929
 11
212.28112618961561
 21
180.27415761567769
 72
               1
 10
212.28112618961561
 20
180.27415761567769
 11
212.28002758648461
 21
180.28982610233501
 72
               1
 10
212.28002758648461
 20
180.28982610233501
 11
212.27831468843729
 21
180.3054393782003
 72
               1
 10
212.27831468843729
 20
180.3054393782003
 11
212.27599013663851
 21
180.32097336873409
 72
               1
 10
212.27599013663851
 20
180.32097336873409
 11
212.27305751537861
 21
180.3364041216488
 72
               1
 10
212.27305751537861
 20
180.3364041216488
 11
212.26952134654701
 21
180.35170784384189
 72
               1
 10
212.26952134654701
 20
180.35170784384189
 11
212.2653870826596
 21
180.36686093808299
 72
               1
 10
212.2653870826596
 20
180.36686093808299
 11
212.26066109845169
 21
180.38184003939901
 72
               1
 10
212.26066109845169
 20
180.38184003939901
 11
212.25535068104861
 21
180.39662205110139
 72
               1
 10
212.25535068104861
 20
180.39662205110139
 11
212.24946401872879
 21
180.4111841803998
 72
               1
 10
212.24946401872879
 20
180.4111841803998
 11
212.243010188299
 21
180.42550397354611
 72
               1
 10
212.243010188299
 20
180.42550397354611
 11
212.23599914109789
 21
180.4395593504571
 72
               1
 10
212.23599914109789
 20
180.4395593504571
 11
212.22844168765221
 21
180.45332863876061
 72
               1
 10
212.22844168765221
 20
180.45332863876061
 11
212.2203494810073
 21
180.46679060721189
 72
               1
 10
212.2203494810073
 20
180.46679060721189
 11
212.21173499875931
 21
180.4799244984315
 72
               1
 10
212.21173499875931
 20
180.4799244984315
 11
212.20261152381539
 21
180.49271006091101
 72
               1
 10
212.20261152381539
 20
180.49271006091101
 11
212.19299312391269
 21
180.50512758023979
 72
               1
 10
212.19299312391269
 20
180.50512758023979
 11
212.18289462992669
 21
180.51715790950311
 72
               1
 10
212.18289462992669
 20
180.51715790950311
 11
212.17233161300331
 21
180.5287824988053
 72
               1
 10
212.17233161300331
 20
180.5287824988053
 11
212.16132036054881
 21
180.53998342387209
 72
               1
 10
212.16132036054881
 20
180.53998342387209
 11
212.1498778511164
 21
180.55074341368891
 72
               1
 10
212.1498778511164
 20
180.55074341368891
 11
212.13802172822631
 21
180.56104587713139
 72
               1
 10
212.13802172822631
 20
180.56104587713139
 11
212.12577027316081
 21
180.57087492854771
 72
               1
 10
212.12577027316081
 20
180.57087492854771
 11
212.1131423767753
 21
180.58021541225301
 72
               1
 10
212.1131423767753
 20
180.58021541225301
 11
212.10015751037091
 21
180.58905292589819
 72
               1
 10
212.10015751037091
 20
180.58905292589819
 11
212.0868356956706
 21
180.597373842678
 72
               1
 10
212.0868356956706
 20
180.597373842678
 11
212.07319747394681
 21
180.60516533234181
 72
               1
 10
212.07319747394681
 20
180.60516533234181
 11
212.059263874349
 21
180.61241538097741
 72
               1
 10
212.059263874349
 20
180.61241538097741
 11
212.04505638147791
 21
180.6191128095351
 72
               1
 10
212.04505638147791
 20
180.6191128095351
 11
212.0305969022576
 21
180.62524729106559
 72
               1
 10
212.0305969022576
 20
180.62524729106559
 11
212.0159077321571
 21
180.63080936664289
 72
               1
 10
212.0159077321571
 20
180.63080936664289
 11
212.001011520812
 21
180.63579045994979
 72
               1
 10
212.001011520812
 20
180.63579045994979
 11
211.9859312371006
 21
180.64018289050131
 72
               1
 10
211.9859312371006
 20
180.64018289050131
 11
211.97069013372709
 21
180.64397988548799
 72
               1
 10
211.97069013372709
 20
180.64397988548799
 11
211.95531171136841
 21
180.64717559021869
 72
               1
 10
211.95531171136841
 20
180.64717559021869
 11
209.5131069579073
 21
181.10485022672151
 72
               1
 10
209.5131069579073
 20
181.10485022672151
 11
209.5131069579073
 21
185.79286036515521
 72
               1
 10
209.5131069579073
 20
185.79286036515521
 11
211.01306241873851
 21
185.79286036515521
 72
               1
 10
211.01306241873851
 20
185.79286036515521
 11
214.2130764403291
 21
181.3924840372764
 97
        1
330
7E
 75
               0
 76
               1
 98
        1
 10
0.0
 20
0.0
  0
POLYLINE
  5
D4
100
AcDbEntity
  8
レイヤ0
370
               5
390
0
  6
Continuous
 62
               7
100
AcDb2dPolyline
 66
               1
 10
0.0
 20
0.0
 30
0.0
 75
               5
  0
VERTEX
  5
D5
100
AcDbEntity
  8
レイヤ0
370
               5
390
0
  6
Continuous
 62
               7
100
AcDbVertex
100
AcDb2dVertex
 10
214.2130764403291
 20
181.3924840372764
 30
0.0
  0
VERTEX
  5
D6
100
AcDbEntity
  8
レイヤ0
370
               5
390
0
  6
Continuous
 62
               7
100
AcDbVertex
100
AcDb2dVertex
 10
214.21307644032831
 20
179.77298353940719
 30
0.0
  0
VERTEX
  5
D7
100
AcDbEntity
  8
レイヤ0
370
               5
390
0
  6
Continuous
 62
               7
100
AcDbVertex
100
AcDb2dVertex
 10
213.45059211151761
 20
179.35484733992331
 30
0.0
  0
VERTEX
  5
D8
100
AcDbEntity
  8
レイヤ0
370
               5
390
0
  6
Continuous
 62
               7
100
AcDbVertex
100
AcDb2dVertex
 10
209.51310695790281
 20
179.3548535259186
 30
0.0
  0
VERTEX
  5
D9
100
AcDbEntity
  8
レイヤ0
370
               5
390
0
  6
Continuous
 62
               7
100
AcDbVertex
100
AcDb2dVertex
 10
209.51310695790829
 20
179.61343937139301
 30
0.0
  0
VERTEX
  5
DA
100
AcDbEntity
  8
レイヤ0
370
               5
390
0
  6
Continuous
 62
               7
100
AcDbVertex
100
AcDb2dVertex
 10
211.92171839182649
 20
179.85603332876491
 30
0.0
  0
VERTEX
  5
DB
100
AcDbEntity
  8
レイヤ0
370
               5
390
0
  6
Continuous
 62
               7
100
AcDbVertex
100
AcDb2dVertex
 10
211.93305305094549
 20
179.85733849483091
 30
0.0
  0
VERTEX
  5
DC
100
AcDbEntity
  8
レイヤ0
370
               5
390
0
  6
Continuous
 62
               7
100
AcDbVertex
100
AcDb2dVertex
 10
211.94858704147919
 20
179.85966304662969
 30
0.0
  0
VERTEX
  5
DD
100
AcDbEntity
  8
レイヤ0
370
               5
390
0
  6
Continuous
 62
               7
100
AcDbVertex
100
AcDb2dVertex
 10
211.96401779439401
 20
179.86259566788959
 30
0.0
  0
VERTEX
  5
DE
100
AcDbEntity
  8
レイヤ0
370
               5
390
0
  6
Continuous
 62
               7
100
AcDbVertex
100
AcDb2dVertex
 10
211.97932151658699
 20
179.86613183672131
 30
0.0
  0
VERTEX
  5
DF
100
AcDbEntity
  8
レイヤ0
370
               5
390
0
  6
Continuous
 62
               7
100
AcDbVertex
100
AcDb2dVertex
 10
211.99447461082809
 20
179.8702661006086
 30
0.0
  0
VERTEX
  5
E0
100
AcDbEntity
  8
レイヤ0
370
               5
390
0
  6
Continuous
 62
               7
100
AcDbVertex
100
AcDb2dVertex
 10
212.00945371214411
 20
179.87499208481651
 30
0.0
  0
VERTEX
  5
E1
100
AcDbEntity
  8
レイヤ0
370
               5
390
0
  6
Continuous
 62
               7
100
AcDbVertex
100
AcDb2dVertex
 10
212.0242357238466
 20
179.88030250221959
 30
0.0
  0
VERTEX
  5
E2
100
AcDbEntity
  8
レイヤ0
370
               5
390
0
  6
Continuous
 62
               7
100
AcDbVertex
100
AcDb2dVertex
 10
212.03879785314501
 20
179.88618916453939
 30
0.0
  0
VERTEX
  5
E3
100
AcDbEntity
  8
レイヤ0
370
               5
390
0
  6
Continuous
 62
               7
100
AcDbVertex
100
AcDb2dVertex
 10
212.05311764629121
 20
179.89264299496929
 30
0.0
  0
VERTEX
  5
E4
100
AcDbEntity
  8
レイヤ0
370
               5
390
0
  6
Continuous
 62
               7
100
AcDbVertex
100
AcDb2dVertex
 10
212.06717302320229
 20
179.89965404217031
 30
0.0
  0
VERTEX
  5
E5
100
AcDbEntity
  8
レイヤ0
370
               5
390
0
  6
Continuous
 62
               7
100
AcDbVertex
100
AcDb2dVertex
 10
212.08094231150579
 20
179.90721149561611
 30
0.0
  0
VERTEX
  5
E6
100
AcDbEntity
  8
レイヤ0
370
               5
390
0
  6
Continuous
 62
               7
100
AcDbVertex
100
AcDb2dVertex
 10
212.0944042799571
 20
179.91530370226101
 30
0.0
  0
VERTEX
  5
E7
100
AcDbEntity
  8
レイヤ0
370
               5
390
0
  6
Continuous
 62
               7
100
AcDbVertex
100
AcDb2dVertex
 10
212.10753817117671
 20
179.92391818450889
 30
0.0
  0
VERTEX
  5
E8
100
AcDbEntity
  8
レイヤ0
370
               5
390
0
  6
Continuous
 62
               7
100
AcDbVertex
100
AcDb2dVertex
 10
212.12032373365619
 20
179.9330416594529
 30
0.0
  0
VERTEX
  5
E9
100
AcDbEntity
  8
レイヤ0
370
               5
390
0
  6
Continuous
 62
               7
100
AcDbVertex
100
AcDb2dVertex
 10
212.132741252985
 20
179.94266005935549
 30
0.0
  0
VERTEX
  5
EA
100
AcDbEntity
  8
レイヤ0
370
               5
390
0
  6
Continuous
 62
               7
100
AcDbVertex
100
AcDb2dVertex
 10
212.1447715822483
 20
179.95275855334151
 30
0.0
  0
VERTEX
  5
EB
100
AcDbEntity
  8
レイヤ0
370
               5
390
0
  6
Continuous
 62
               7
100
AcDbVertex
100
AcDb2dVertex
 10
212.15639617155051
 20
179.96332157026501
 30
0.0
  0
VERTEX
  5
EC
100
AcDbEntity
  8
レイヤ0
370
               5
390
0
  6
Continuous
 62
               7
100
AcDbVertex
100
AcDb2dVertex
 10
212.1675970966173
 20
179.97433282271939
 30
0.0
  0
VERTEX
  5
ED
100
AcDbEntity
  8
レイヤ0
370
               5
390
0
  6
Continuous
 62
               7
100
AcDbVertex
100
AcDb2dVertex
 10
212.17835708643409
 20
179.9857753321518
 30
0.0
  0
VERTEX
  5
EE
100
AcDbEntity
  8
レイヤ0
370
               5
390
0
  6
Continuous
 62
               7
100
AcDbVertex
100
AcDb2dVertex
 10
212.1886595498766
 20
179.9976314550419
 30
0.0
  0
VERTEX
  5
EF
100
AcDbEntity
  8
レイヤ0
370
               5
390
0
  6
Continuous
 62
               7
100
AcDbVertex
100
AcDb2dVertex
 10
212.19848860129289
 20
180.00988291010751
 30
0.0
  0
VERTEX
  5
F0
100
AcDbEntity
  8
レイヤ0
370
               5
390
0
  6
Continuous
 62
               7
100
AcDbVertex
100
AcDb2dVertex
 10
212.20782908499811
 20
180.0225108064929
 30
0.0
  0
VERTEX
  5
F1
100
AcDbEntity
  8
レイヤ0
370
               5
390
0
  6
Continuous
 62
               7
100
AcDbVertex
100
AcDb2dVertex
 10
212.2166665986434
 20
180.0354956728973
 30
0.0
  0
VERTEX
  5
F2
100
AcDbEntity
  8
レイヤ0
370
               5
390
0
  6
Continuous
 62
               7
100
AcDbVertex
100
AcDb2dVertex
 10
212.22498751542321
 20
180.04881748759769
 30
0.0
  0
VERTEX
  5
F3
100
AcDbEntity
  8
レイヤ0
370
               5
390
0
  6
Continuous
 62
               7
100
AcDbVertex
100
AcDb2dVertex
 10
212.232779005087
 20
180.06245570932151
 30
0.0
  0
VERTEX
  5
F4
100
AcDbEntity
  8
レイヤ0
370
               5
390
0
  6
Continuous
 62
               7
100
AcDbVertex
100
AcDb2dVertex
 10
212.24002905372251
 20
180.07638930891929
 30
0.0
  0
VERTEX
  5
F5
100
AcDbEntity
  8
レイヤ0
370
               5
390
0
  6
Continuous
 62
               7
100
AcDbVertex
100
AcDb2dVertex
 10
212.2467264822802
 20
180.09059680179041
 30
0.0
  0
VERTEX
  5
F6
100
AcDbEntity
  8
レイヤ0
370
               5
390
0
  6
Continuous
 62
               7
100
AcDbVertex
100
AcDb2dVertex
 10
212.25286096381069
 20
180.1050562810106
 30
0.0
  0
VERTEX
  5
F7
100
AcDbEntity
  8
レイヤ0
370
               5
390
0
  6
Continuous
 62
               7
100
AcDbVertex
100
AcDb2dVertex
 10
212.25842303938799
 20
180.1197454511111
 30
0.0
  0
VERTEX
  5
F8
100
AcDbEntity
  8
レイヤ0
370
               5
390
0
  6
Continuous
 62
               7
100
AcDbVertex
100
AcDb2dVertex
 10
212.26340413269489
 20
180.1346416624562
 30
0.0
  0
VERTEX
  5
F9
100
AcDbEntity
  8
レイヤ0
370
               5
390
0
  6
Continuous
 62
               7
100
AcDbVertex
100
AcDb2dVertex
 10
212.26779656324649
 20
180.14972194616769
 30
0.0
  0
VERTEX
  5
FA
100
AcDbEntity
  8
レイヤ0
370
               5
390
0
  6
Continuous
 62
               7
100
AcDbVertex
100
AcDb2dVertex
 10
212.27159355823309
 20
180.16496304954109
 30
0.0
  0
VERTEX
  5
FB
100
AcDbEntity
  8
レイヤ0
370
               5
390
0
  6
Continuous
 62
               7
100
AcDbVertex
100
AcDb2dVertex
 10
212.27478926296379
 20
180.18034147189979
 30
0.0
  0
VERTEX
  5
FC
100
AcDbEntity
  8
レイヤ0
370
               5
390
0
  6
Continuous
 62
               7
100
AcDbVertex
100
AcDb2dVertex
 10
212.27737874989359
 20
180.1958335008311
 30
0.0
  0
VERTEX
  5
FD
100
AcDbEntity
  8
レイヤ0
370
               5
390
0
  6
Continuous
 62
               7
100
AcDbVertex
100
AcDb2dVertex
 10
212.2793580262211
 20
180.2114152487494
 30
0.0
  0
VERTEX
  5
FE
100
AcDbEntity
  8
レイヤ0
370
               5
390
0
  6
Continuous
 62
               7
100
AcDbVertex
100
AcDb2dVertex
 10
212.2807240400459
 20
180.2270626897286
 30
0.0
  0
VERTEX
  5
FF
100
AcDbEntity
  8
レイヤ0
370
               5
390
0
  6
Continuous
 62
               7
100
AcDbVertex
100
AcDb2dVertex
 10
212.28147468507359
 20
180.24275169654899
 30
0.0
  0
VERTEX
  5
100
100
AcDbEntity
  8
レイヤ0
370
               5
390
0
  6
Continuous
 62
               7
100
AcDbVertex
100
AcDb2dVertex
 10
212.281608803864
 20
180.25845807789929
 30
0.0
  0
VERTEX
  5
101
100
AcDbEntity
  8
レイヤ0
370
               5
390
0
  6
Continuous
 62
               7
100
AcDbVertex
100
AcDb2dVertex
 10
212.28112618961561
 20
180.27415761567769
 30
0.0
  0
VERTEX
  5
102
100
AcDbEntity
  8
レイヤ0
370
               5
390
0
  6
Continuous
 62
               7
100
AcDbVertex
100
AcDb2dVertex
 10
212.28002758648461
 20
180.28982610233501
 30
0.0
  0
VERTEX
  5
103
100
AcDbEntity
  8
レイヤ0
370
               5
390
0
  6
Continuous
 62
               7
100
AcDbVertex
100
AcDb2dVertex
 10
212.27831468843729
 20
180.3054393782003
 30
0.0
  0
VERTEX
  5
104
100
AcDbEntity
  8
レイヤ0
370
               5
390
0
  6
Continuous
 62
               7
100
AcDbVertex
100
AcDb2dVertex
 10
212.27599013663851
 20
180.32097336873409
 30
0.0
  0
VERTEX
  5
105
100
AcDbEntity
  8
レイヤ0
370
               5
390
0
  6
Continuous
 62
               7
100
AcDbVertex
100
AcDb2dVertex
 10
212.27305751537861
 20
180.3364041216488
 30
0.0
  0
VERTEX
  5
106
100
AcDbEntity
  8
レイヤ0
370
               5
390
0
  6
Continuous
 62
               7
100
AcDbVertex
100
AcDb2dVertex
 10
212.26952134654701
 20
180.35170784384189
 30
0.0
  0
VERTEX
  5
107
100
AcDbEntity
  8
レイヤ0
370
               5
390
0
  6
Continuous
 62
               7
100
AcDbVertex
100
AcDb2dVertex
 10
212.2653870826596
 20
180.36686093808299
 30
0.0
  0
VERTEX
  5
108
100
AcDbEntity
  8
レイヤ0
370
               5
390
0
  6
Continuous
 62
               7
100
AcDbVertex
100
AcDb2dVertex
 10
212.26066109845169
 20
180.38184003939901
 30
0.0
  0
VERTEX
  5
109
100
AcDbEntity
  8
レイヤ0
370
               5
390
0
  6
Continuous
 62
               7
100
AcDbVertex
100
AcDb2dVertex
 10
212.25535068104861
 20
180.39662205110139
 30
0.0
  0
VERTEX
  5
10A
100
AcDbEntity
  8
レイヤ0
370
               5
390
0
  6
Continuous
 62
               7
100
AcDbVertex
100
AcDb2dVertex
 10
212.24946401872879
 20
180.4111841803998
 30
0.0
  0
VERTEX
  5
10B
100
AcDbEntity
  8
レイヤ0
370
               5
390
0
  6
Continuous
 62
               7
100
AcDbVertex
100
AcDb2dVertex
 10
212.243010188299
 20
180.42550397354611
 30
0.0
  0
VERTEX
  5
10C
100
AcDbEntity
  8
レイヤ0
370
               5
390
0
  6
Continuous
 62
               7
100
AcDbVertex
100
AcDb2dVertex
 10
212.23599914109789
 20
180.4395593504571
 30
0.0
  0
VERTEX
  5
10D
100
AcDbEntity
  8
レイヤ0
370
               5
390
0
  6
Continuous
 62
               7
100
AcDbVertex
100
AcDb2dVertex
 10
212.22844168765221
 20
180.45332863876061
 30
0.0
  0
VERTEX
  5
10E
100
AcDbEntity
  8
レイヤ0
370
               5
390
0
  6
Continuous
 62
               7
100
AcDbVertex
100
AcDb2dVertex
 10
212.2203494810073
 20
180.46679060721189
 30
0.0
  0
VERTEX
  5
10F
100
AcDbEntity
  8
レイヤ0
370
               5
390
0
  6
Continuous
 62
               7
100
AcDbVertex
100
AcDb2dVertex
 10
212.21173499875931
 20
180.4799244984315
 30
0.0
  0
VERTEX
  5
110
100
AcDbEntity
  8
レイヤ0
370
               5
390
0
  6
Continuous
 62
               7
100
AcDbVertex
100
AcDb2dVertex
 10
212.20261152381539
 20
180.49271006091101
 30
0.0
  0
VERTEX
  5
111
100
AcDbEntity
  8
レイヤ0
370
               5
390
0
  6
Continuous
 62
               7
100
AcDbVertex
100
AcDb2dVertex
 10
212.19299312391269
 20
180.50512758023979
 30
0.0
  0
VERTEX
  5
112
100
AcDbEntity
  8
レイヤ0
370
               5
390
0
  6
Continuous
 62
               7
100
AcDbVertex
100
AcDb2dVertex
 10
212.18289462992669
 20
180.51715790950311
 30
0.0
  0
VERTEX
  5
113
100
AcDbEntity
  8
レイヤ0
370
               5
390
0
  6
Continuous
 62
               7
100
AcDbVertex
100
AcDb2dVertex
 10
212.17233161300331
 20
180.5287824988053
 30
0.0
  0
VERTEX
  5
114
100
AcDbEntity
  8
レイヤ0
370
               5
390
0
  6
Continuous
 62
               7
100
AcDbVertex
100
AcDb2dVertex
 10
212.16132036054881
 20
180.53998342387209
 30
0.0
  0
VERTEX
  5
115
100
AcDbEntity
  8
レイヤ0
370
               5
390
0
  6
Continuous
 62
               7
100
AcDbVertex
100
AcDb2dVertex
 10
212.1498778511164
 20
180.55074341368891
 30
0.0
  0
VERTEX
  5
116
100
AcDbEntity
  8
レイヤ0
370
               5
390
0
  6
Continuous
 62
               7
100
AcDbVertex
100
AcDb2dVertex
 10
212.13802172822631
 20
180.56104587713139
 30
0.0
  0
VERTEX
  5
117
100
AcDbEntity
  8
レイヤ0
370
               5
390
0
  6
Continuous
 62
               7
100
AcDbVertex
100
AcDb2dVertex
 10
212.12577027316081
 20
180.57087492854771
 30
0.0
  0
VERTEX
  5
118
100
AcDbEntity
  8
レイヤ0
370
               5
390
0
  6
Continuous
 62
               7
100
AcDbVertex
100
AcDb2dVertex
 10
212.1131423767753
 20
180.58021541225301
 30
0.0
  0
VERTEX
  5
119
100
AcDbEntity
  8
レイヤ0
370
               5
390
0
  6
Continuous
 62
               7
100
AcDbVertex
100
AcDb2dVertex
 10
212.10015751037091
 20
180.58905292589819
 30
0.0
  0
VERTEX
  5
11A
100
AcDbEntity
  8
レイヤ0
370
               5
390
0
  6
Continuous
 62
               7
100
AcDbVertex
100
AcDb2dVertex
 10
212.0868356956706
 20
180.597373842678
 30
0.0
  0
VERTEX
  5
11B
100
AcDbEntity
  8
レイヤ0
370
               5
390
0
  6
Continuous
 62
               7
100
AcDbVertex
100
AcDb2dVertex
 10
212.07319747394681
 20
180.60516533234181
 30
0.0
  0
VERTEX
  5
11C
100
AcDbEntity
  8
レイヤ0
370
               5
390
0
  6
Continuous
 62
               7
100
AcDbVertex
100
AcDb2dVertex
 10
212.059263874349
 20
180.61241538097741
 30
0.0
  0
VERTEX
  5
11D
100
AcDbEntity
  8
レイヤ0
370
               5
390
0
  6
Continuous
 62
               7
100
AcDbVertex
100
AcDb2dVertex
 10
212.04505638147791
 20
180.6191128095351
 30
0.0
  0
VERTEX
  5
11E
100
AcDbEntity
  8
レイヤ0
370
               5
390
0
  6
Continuous
 62
               7
100
AcDbVertex
100
AcDb2dVertex
 10
212.0305969022576
 20
180.62524729106559
 30
0.0
  0
VERTEX
  5
11F
100
AcDbEntity
  8
レイヤ0
370
               5
390
0
  6
Continuous
 62
               7
100
AcDbVertex
100
AcDb2dVertex
 10
212.0159077321571
 20
180.63080936664289
 30
0.0
  0
VERTEX
  5
120
100
AcDbEntity
  8
レイヤ0
370
               5
390
0
  6
Continuous
 62
               7
100
AcDbVertex
100
AcDb2dVertex
 10
212.001011520812
 20
180.63579045994979
 30
0.0
  0
VERTEX
  5
121
100
AcDbEntity
  8
レイヤ0
370
               5
390
0
  6
Continuous
 62
               7
100
AcDbVertex
100
AcDb2dVertex
 10
211.9859312371006
 20
180.64018289050131
 30
0.0
  0
VERTEX
  5
122
100
AcDbEntity
  8
レイヤ0
370
               5
390
0
  6
Continuous
 62
               7
100
AcDbVertex
100
AcDb2dVertex
 10
211.97069013372709
 20
180.64397988548799
 30
0.0
  0
VERTEX
  5
123
100
AcDbEntity
  8
レイヤ0
370
               5
390
0
  6
Continuous
 62
               7
100
AcDbVertex
100
AcDb2dVertex
 10
211.95531171136841
 20
180.64717559021869
 30
0.0
  0
VERTEX
  5
124
100
AcDbEntity
  8
レイヤ0
370
               5
390
0
  6
Continuous
 62
               7
100
AcDbVertex
100
AcDb2dVertex
 10
209.5131069579073
 20
181.10485022672151
 30
0.0
  0
VERTEX
  5
125
100
AcDbEntity
  8
レイヤ0
370
               5
390
0
  6
Continuous
 62
               7
100
AcDbVertex
100
AcDb2dVertex
 10
209.5131069579073
 20
185.79286036515521
 30
0.0
  0
VERTEX
  5
126
100
AcDbEntity
  8
レイヤ0
370
               5
390
0
  6
Continuous
 62
               7
100
AcDbVertex
100
AcDb2dVertex
 10
211.01306241873851
 20
185.79286036515521
 30
0.0
  0
VERTEX
  5
127
100
AcDbEntity
  8
レイヤ0
370
               5
390
0
  6
Continuous
 62
               7
100
AcDbVertex
100
AcDb2dVertex
 10
214.2130764403291
 20
181.3924840372764
 30
0.0
  0
SEQEND
  5
128
100
AcDbEntity
  8
レイヤ0
370
               5
390
0
  6
Continuous
 62
               7
  0
POLYLINE
  5
12A
102
{ACAD_REACTORS
330
17F
102
}
100
AcDbEntity
  8
レイヤ0
370
               5
390
0
  6
Continuous
 62
               7
100
AcDb2dPolyline
 66
               1
 10
0.0
 20
0.0
 30
0.0
 70
               1
 75
               5
  0
VERTEX
  5
12B
100
AcDbEntity
  8
レイヤ0
370
               5
390
0
  6
Continuous
 62
               7
100
AcDbVertex
100
AcDb2dVertex
 10
213.45059211151121
 20
169.85485311351911
 30
0.0
  0
VERTEX
  5
12C
100
AcDbEntity
  8
レイヤ0
370
               5
390
0
  6
Continuous
 62
               7
100
AcDbVertex
100
AcDb2dVertex
 10
214.21307644032851
 20
169.43671691403131
 30
0.0
  0
VERTEX
  5
12D
100
AcDbEntity
  8
レイヤ0
370
               5
390
0
  6
Continuous
 62
               7
100
AcDbVertex
100
AcDb2dVertex
 10
214.2130764403291
 20
167.8172164161661
 30
0.0
  0
VERTEX
  5
12E
100
AcDbEntity
  8
レイヤ0
370
               5
390
0
  6
Continuous
 62
               7
100
AcDbVertex
100
AcDb2dVertex
 10
211.1497859701735
 20
163.60485022672259
 30
0.0
  0
VERTEX
  5
12F
100
AcDbEntity
  8
レイヤ0
370
               5
390
0
  6
Continuous
 62
               7
100
AcDbVertex
100
AcDb2dVertex
 10
209.5131069579073
 20
163.60485022672259
 30
0.0
  0
VERTEX
  5
130
100
AcDbEntity
  8
レイヤ0
370
               5
390
0
  6
Continuous
 62
               7
100
AcDbVertex
100
AcDb2dVertex
 10
209.51310695790701
 20
168.10485022672111
 30
0.0
  0
VERTEX
  5
131
100
AcDbEntity
  8
レイヤ0
370
               5
390
0
  6
Continuous
 62
               7
100
AcDbVertex
100
AcDb2dVertex
 10
211.95531171136861
 20
168.56252486322381
 30
0.0
  0
VERTEX
  5
132
100
AcDbEntity
  8
レイヤ0
370
               5
390
0
  6
Continuous
 62
               7
100
AcDbVertex
100
AcDb2dVertex
 10
211.96649493127839
 20
168.56478617882499
 30
0.0
  0
VERTEX
  5
133
100
AcDbEntity
  8
レイヤ0
370
               5
390
0
  6
Continuous
 62
               7
100
AcDbVertex
100
AcDb2dVertex
 10
211.98177595294601
 20
168.56841919131659
 30
0.0
  0
VERTEX
  5
134
100
AcDbEntity
  8
レイヤ0
370
               5
390
0
  6
Continuous
 62
               7
100
AcDbVertex
100
AcDb2dVertex
 10
211.9969025620986
 20
168.57264933298259
 30
0.0
  0
VERTEX
  5
135
100
AcDbEntity
  8
レイヤ0
370
               5
390
0
  6
Continuous
 62
               7
100
AcDbVertex
100
AcDb2dVertex
 10
212.0118514346012
 20
168.57747008125091
 30
0.0
  0
VERTEX
  5
136
100
AcDbEntity
  8
レイヤ0
370
               5
390
0
  6
Continuous
 62
               7
100
AcDbVertex
100
AcDb2dVertex
 10
212.0265995203761
 20
168.58287400287739
 30
0.0
  0
VERTEX
  5
137
100
AcDbEntity
  8
レイヤ0
370
               5
390
0
  6
Continuous
 62
               7
100
AcDbVertex
100
AcDb2dVertex
 10
212.04112407894391
 20
168.58885276540639
 30
0.0
  0
VERTEX
  5
138
100
AcDbEntity
  8
レイヤ0
370
               5
390
0
  6
Continuous
 62
               7
100
AcDbVertex
100
AcDb2dVertex
 10
212.05540271448811
 20
168.59539715001961
 30
0.0
  0
VERTEX
  5
139
100
AcDbEntity
  8
レイヤ0
370
               5
390
0
  6
Continuous
 62
               7
100
AcDbVertex
100
AcDb2dVertex
 10
212.06941341038771
 20
168.6024970657501
 30
0.0
  0
VERTEX
  5
13A
100
AcDbEntity
  8
レイヤ0
370
               5
390
0
  6
Continuous
 62
               7
100
AcDbVertex
100
AcDb2dVertex
 10
212.0831345631648
 20
168.6101415650426
 30
0.0
  0
VERTEX
  5
13B
100
AcDbEntity
  8
レイヤ0
370
               5
390
0
  6
Continuous
 62
               7
100
AcDbVertex
100
AcDb2dVertex
 10
212.09654501579669
 20
168.6183188606332
 30
0.0
  0
VERTEX
  5
13C
100
AcDbEntity
  8
レイヤ0
370
               5
390
0
  6
Continuous
 62
               7
100
AcDbVertex
100
AcDb2dVertex
 10
212.10962409033741
 20
168.62701634372479
 30
0.0
  0
VERTEX
  5
13D
100
AcDbEntity
  8
レイヤ0
370
               5
390
0
  6
Continuous
 62
               7
100
AcDbVertex
100
AcDb2dVertex
 10
212.1223516198018
 20
168.636220603429
 30
0.0
  0
VERTEX
  5
13E
100
AcDbEntity
  8
レイヤ0
370
               5
390
0
  6
Continuous
 62
               7
100
AcDbVertex
100
AcDb2dVertex
 10
212.134707979262
 20
168.6459174474443
 30
0.0
  0
VERTEX
  5
13F
100
AcDbEntity
  8
レイヤ0
370
               5
390
0
  6
Continuous
 62
               7
100
AcDbVertex
100
AcDb2dVertex
 10
212.1466741161075
 20
168.65609192394021
 30
0.0
  0
VERTEX
  5
140
100
AcDbEntity
  8
レイヤ0
370
               5
390
0
  6
Continuous
 62
               7
100
AcDbVertex
100
AcDb2dVertex
 10
212.15823157942239
 20
168.6667283446113
 30
0.0
  0
VERTEX
  5
141
100
AcDbEntity
  8
レイヤ0
370
               5
390
0
  6
Continuous
 62
               7
100
AcDbVertex
100
AcDb2dVertex
 10
212.16936254843611
 20
168.677810308868
 30
0.0
  0
VERTEX
  5
142
100
AcDbEntity
  8
レイヤ0
370
               5
390
0
  6
Continuous
 62
               7
100
AcDbVertex
100
AcDb2dVertex
 10
212.18004986000099
 20
168.68932072912449
 30
0.0
  0
VERTEX
  5
143
100
AcDbEntity
  8
レイヤ0
370
               5
390
0
  6
Continuous
 62
               7
100
AcDbVertex
100
AcDb2dVertex
 10
212.19027703505759
 20
168.7012418571471
 30
0.0
  0
VERTEX
  5
144
100
AcDbEntity
  8
レイヤ0
370
               5
390
0
  6
Continuous
 62
               7
100
AcDbVertex
100
AcDb2dVertex
 10
212.200028304043
 20
168.71355531142049
 30
0.0
  0
VERTEX
  5
145
100
AcDbEntity
  8
レイヤ0
370
               5
390
0
  6
Continuous
 62
               7
100
AcDbVertex
100
AcDb2dVertex
 10
212.20928863120719
 20
168.72624210549071
 30
0.0
  0
VERTEX
  5
146
100
AcDbEntity
  8
レイヤ0
370
               5
390
0
  6
Continuous
 62
               7
100
AcDbVertex
100
AcDb2dVertex
 10
212.21804373779699
 20
168.73928267724079
 30
0.0
  0
VERTEX
  5
147
100
AcDbEntity
  8
レイヤ0
370
               5
390
0
  6
Continuous
 62
               7
100
AcDbVertex
100
AcDb2dVertex
 10
212.22628012407259
 20
168.7526569190544
 30
0.0
  0
VERTEX
  5
148
100
AcDbEntity
  8
レイヤ0
370
               5
390
0
  6
Continuous
 62
               7
100
AcDbVertex
100
AcDb2dVertex
 10
212.23398509012341
 20
168.7663442088199
 30
0.0
  0
VERTEX
  5
149
100
AcDbEntity
  8
レイヤ0
370
               5
390
0
  6
Continuous
 62
               7
100
AcDbVertex
100
AcDb2dVertex
 10
212.24114675545019
 20
168.7803234417286
 30
0.0
  0
VERTEX
  5
14A
100
AcDbEntity
  8
レイヤ0
370
               5
390
0
  6
Continuous
 62
               7
100
AcDbVertex
100
AcDb2dVertex
 10
212.2477540772841
 20
168.7945730628166
 30
0.0
  0
VERTEX
  5
14B
100
AcDbEntity
  8
レイヤ0
370
               5
390
0
  6
Continuous
 62
               7
100
AcDbVertex
100
AcDb2dVertex
 10
212.25379686761369
 20
168.80907110020101
 30
0.0
  0
VERTEX
  5
14C
100
AcDbEntity
  8
レイヤ0
370
               5
390
0
  6
Continuous
 62
               7
100
AcDbVertex
100
AcDb2dVertex
 10
212.25926580889461
 20
168.82379519895909
 30
0.0
  0
VERTEX
  5
14D
100
AcDbEntity
  8
レイヤ0
370
               5
390
0
  6
Continuous
 62
               7
100
AcDbVertex
100
AcDb2dVertex
 10
212.26415246841529
 20
168.83872265559759
 30
0.0
  0
VERTEX
  5
14E
100
AcDbEntity
  8
レイヤ0
370
               5
390
0
  6
Continuous
 62
               7
100
AcDbVertex
100
AcDb2dVertex
 10
212.26844931130131
 20
168.8538304530606
 30
0.0
  0
VERTEX
  5
14F
100
AcDbEntity
  8
レイヤ0
370
               5
390
0
  6
Continuous
 62
               7
100
AcDbVertex
100
AcDb2dVertex
 10
212.27214971213209
 20
168.86909529621931
 30
0.0
  0
VERTEX
  5
150
100
AcDbEntity
  8
レイヤ0
370
               5
390
0
  6
Continuous
 62
               7
100
AcDbVertex
100
AcDb2dVertex
 10
212.27524796515809
 20
168.884493647792
 30
0.0
  0
VERTEX
  5
151
100
AcDbEntity
  8
レイヤ0
370
               5
390
0
  6
Continuous
 62
               7
100
AcDbVertex
100
AcDb2dVertex
 10
212.2777392930976
 20
168.90000176463661
 30
0.0
  0
VERTEX
  5
152
100
AcDbEntity
  8
レイヤ0
370
               5
390
0
  6
Continuous
 62
               7
100
AcDbVertex
100
AcDb2dVertex
 10
212.2796198545033
 20
168.91559573436109
 30
0.0
  0
VERTEX
  5
153
100
AcDbEntity
  8
レイヤ0
370
               5
390
0
  6
Continuous
 62
               7
100
AcDbVertex
100
AcDb2dVertex
 10
212.28088674968609
 20
168.93125151219431
 30
0.0
  0
VERTEX
  5
154
100
AcDbEntity
  8
レイヤ0
370
               5
390
0
  6
Continuous
 62
               7
100
AcDbVertex
100
AcDb2dVertex
 10
212.28153802518531
 20
168.94694495806181
 30
0.0
  0
VERTEX
  5
155
100
AcDbEntity
  8
レイヤ0
370
               5
390
0
  6
Continuous
 62
               7
100
AcDbVertex
100
AcDb2dVertex
 10
212.28157267678131
 20
168.9626518738072
 30
0.0
  0
VERTEX
  5
156
100
AcDbEntity
  8
レイヤ0
370
               5
390
0
  6
Continuous
 62
               7
100
AcDbVertex
100
AcDb2dVertex
 10
212.28099065104391
 20
168.97834804050521
 30
0.0
  0
VERTEX
  5
157
100
AcDbEntity
  8
レイヤ0
370
               5
390
0
  6
Continuous
 62
               7
100
AcDbVertex
100
AcDb2dVertex
 10
212.27979284541451
 20
168.9940092558042
 30
0.0
  0
VERTEX
  5
158
100
AcDbEntity
  8
レイヤ0
370
               5
390
0
  6
Continuous
 62
               7
100
AcDbVertex
100
AcDb2dVertex
 10
212.27798110682269
 20
169.00961137124551
 30
0.0
  0
VERTEX
  5
159
100
AcDbEntity
  8
レイヤ0
370
               5
390
0
  6
Continuous
 62
               7
100
AcDbVertex
100
AcDb2dVertex
 10
212.27555822883801
 20
169.0251303294979
 30
0.0
  0
VERTEX
  5
15A
100
AcDbEntity
  8
レイヤ0
370
               5
390
0
  6
Continuous
 62
               7
100
AcDbVertex
100
AcDb2dVertex
 10
212.27252794736259
 20
169.04054220145261
 30
0.0
  0
VERTEX
  5
15B
100
AcDbEntity
  8
レイヤ0
370
               5
390
0
  6
Continuous
 62
               7
100
AcDbVertex
100
AcDb2dVertex
 10
212.26889493487101
 20
169.0558232231202
 30
0.0
  0
VERTEX
  5
15C
100
AcDbEntity
  8
レイヤ0
370
               5
390
0
  6
Continuous
 62
               7
100
AcDbVertex
100
AcDb2dVertex
 10
212.26466479320499
 20
169.07094983227279
 30
0.0
  0
VERTEX
  5
15D
100
AcDbEntity
  8
レイヤ0
370
               5
390
0
  6
Continuous
 62
               7
100
AcDbVertex
100
AcDb2dVertex
 10
212.25984404493661
 20
169.0858987047755
 30
0.0
  0
VERTEX
  5
15E
100
AcDbEntity
  8
レイヤ0
370
               5
390
0
  6
Continuous
 62
               7
100
AcDbVertex
100
AcDb2dVertex
 10
212.25444012331019
 20
169.1006467905504
 30
0.0
  0
VERTEX
  5
15F
100
AcDbEntity
  8
レイヤ0
370
               5
390
0
  6
Continuous
 62
               7
100
AcDbVertex
100
AcDb2dVertex
 10
212.24846136078119
 20
169.11517134911821
 30
0.0
  0
VERTEX
  5
160
100
AcDbEntity
  8
レイヤ0
370
               5
390
0
  6
Continuous
 62
               7
100
AcDbVertex
100
AcDb2dVertex
 10
212.24191697616811
 20
169.1294499846623
 30
0.0
  0
VERTEX
  5
161
100
AcDbEntity
  8
レイヤ0
370
               5
390
0
  6
Continuous
 62
               7
100
AcDbVertex
100
AcDb2dVertex
 10
212.23481706043751
 20
169.14346068056179
 30
0.0
  0
VERTEX
  5
162
100
AcDbEntity
  8
レイヤ0
370
               5
390
0
  6
Continuous
 62
               7
100
AcDbVertex
100
AcDb2dVertex
 10
212.22717256114501
 20
169.15718183333911
 30
0.0
  0
VERTEX
  5
163
100
AcDbEntity
  8
レイヤ0
370
               5
390
0
  6
Continuous
 62
               7
100
AcDbVertex
100
AcDb2dVertex
 10
212.21899526555441
 20
169.170592285971
 30
0.0
  0
VERTEX
  5
164
100
AcDbEntity
  8
レイヤ0
370
               5
390
0
  6
Continuous
 62
               7
100
AcDbVertex
100
AcDb2dVertex
 10
212.21029778246279
 20
169.1836713605116
 30
0.0
  0
VERTEX
  5
165
100
AcDbEntity
  8
レイヤ0
370
               5
390
0
  6
Continuous
 62
               7
100
AcDbVertex
100
AcDb2dVertex
 10
212.20109352275861
 20
169.196398889976
 30
0.0
  0
VERTEX
  5
166
100
AcDbEntity
  8
レイヤ0
370
               5
390
0
  6
Continuous
 62
               7
100
AcDbVertex
100
AcDb2dVertex
 10
212.1913966787433
 20
169.20875524943631
 30
0.0
  0
VERTEX
  5
167
100
AcDbEntity
  8
レイヤ0
370
               5
390
0
  6
Continuous
 62
               7
100
AcDbVertex
100
AcDb2dVertex
 10
212.1812222022474
 20
169.2207213862817
 30
0.0
  0
VERTEX
  5
168
100
AcDbEntity
  8
レイヤ0
370
               5
390
0
  6
Continuous
 62
               7
100
AcDbVertex
100
AcDb2dVertex
 10
212.17058578157631
 20
169.23227884959661
 30
0.0
  0
VERTEX
  5
169
100
AcDbEntity
  8
レイヤ0
370
               5
390
0
  6
Continuous
 62
               7
100
AcDbVertex
100
AcDb2dVertex
 10
212.15950381731969
 20
169.2434098186103
 30
0.0
  0
VERTEX
  5
16A
100
AcDbEntity
  8
レイヤ0
370
               5
390
0
  6
Continuous
 62
               7
100
AcDbVertex
100
AcDb2dVertex
 10
212.14799339706309
 20
169.2540971301753
 30
0.0
  0
VERTEX
  5
16B
100
AcDbEntity
  8
レイヤ0
370
               5
390
0
  6
Continuous
 62
               7
100
AcDbVertex
100
AcDb2dVertex
 10
212.13607226904051
 20
169.26432430523181
 30
0.0
  0
VERTEX
  5
16C
100
AcDbEntity
  8
レイヤ0
370
               5
390
0
  6
Continuous
 62
               7
100
AcDbVertex
100
AcDb2dVertex
 10
212.12375881476709
 20
169.27407557421719
 30
0.0
  0
VERTEX
  5
16D
100
AcDbEntity
  8
レイヤ0
370
               5
390
0
  6
Continuous
 62
               7
100
AcDbVertex
100
AcDb2dVertex
 10
212.11107202069689
 20
169.28333590138141
 30
0.0
  0
VERTEX
  5
16E
100
AcDbEntity
  8
レイヤ0
370
               5
390
0
  6
Continuous
 62
               7
100
AcDbVertex
100
AcDb2dVertex
 10
212.09803144894681
 20
169.29209100797121
 30
0.0
  0
VERTEX
  5
16F
100
AcDbEntity
  8
レイヤ0
370
               5
390
0
  6
Continuous
 62
               7
100
AcDbVertex
100
AcDb2dVertex
 10
212.08465720713329
 20
169.30032739424689
 30
0.0
  0
VERTEX
  5
170
100
AcDbEntity
  8
レイヤ0
370
               5
390
0
  6
Continuous
 62
               7
100
AcDbVertex
100
AcDb2dVertex
 10
212.07096991736771
 20
169.3080323602976
 30
0.0
  0
VERTEX
  5
171
100
AcDbEntity
  8
レイヤ0
370
               5
390
0
  6
Continuous
 62
               7
100
AcDbVertex
100
AcDb2dVertex
 10
212.05699068445901
 20
169.31519402562441
 30
0.0
  0
VERTEX
  5
172
100
AcDbEntity
  8
レイヤ0
370
               5
390
0
  6
Continuous
 62
               7
100
AcDbVertex
100
AcDb2dVertex
 10
212.04274106337101
 20
169.32180134745829
 30
0.0
  0
VERTEX
  5
173
100
AcDbEntity
  8
レイヤ0
370
               5
390
0
  6
Continuous
 62
               7
100
AcDbVertex
100
AcDb2dVertex
 10
212.0282430259866
 20
169.32784413778799
 30
0.0
  0
VERTEX
  5
174
100
AcDbEntity
  8
レイヤ0
370
               5
390
0
  6
Continuous
 62
               7
100
AcDbVertex
100
AcDb2dVertex
 10
212.01351892722849
 20
169.33331307906869
 30
0.0
  0
VERTEX
  5
175
100
AcDbEntity
  8
レイヤ0
370
               5
390
0
  6
Continuous
 62
               7
100
AcDbVertex
100
AcDb2dVertex
 10
211.9985914705899
 20
169.33819973858951
 30
0.0
  0
VERTEX
  5
176
100
AcDbEntity
  8
レイヤ0
370
               5
390
0
  6
Continuous
 62
               7
100
AcDbVertex
100
AcDb2dVertex
 10
211.98348367312701
 20
169.34249658147539
 30
0.0
  0
VERTEX
  5
177
100
AcDbEntity
  8
レイヤ0
370
               5
390
0
  6
Continuous
 62
               7
100
AcDbVertex
100
AcDb2dVertex
 10
211.96821882996829
 20
169.34619698230631
 30
0.0
  0
VERTEX
  5
178
100
AcDbEntity
  8
レイヤ0
370
               5
390
0
  6
Continuous
 62
               7
100
AcDbVertex
100
AcDb2dVertex
 10
211.95282047839561
 20
169.34929523533231
 30
0.0
  0
VERTEX
  5
179
100
AcDbEntity
  8
レイヤ0
370
               5
390
0
  6
Continuous
 62
               7
100
AcDbVertex
100
AcDb2dVertex
 10
211.93731236155099
 20
169.35178656327179
 30
0.0
  0
VERTEX
  5
17A
100
AcDbEntity
  8
レイヤ0
370
               5
390
0
  6
Continuous
 62
               7
100
AcDbVertex
100
AcDb2dVertex
 10
211.92171839182649
 20
169.35366712467749
 30
0.0
  0
VERTEX
  5
17B
100
AcDbEntity
  8
レイヤ0
370
               5
390
0
  6
Continuous
 62
               7
100
AcDbVertex
100
AcDb2dVertex
 10
209.51310695790701
 20
169.5962610820489
 30
0.0
  0
VERTEX
  5
17C
100
AcDbEntity
  8
レイヤ0
370
               5
390
0
  6
Continuous
 62
               7
100
AcDbVertex
100
AcDb2dVertex
 10
209.5131069579048
 20
169.85485311351911
 30
0.0
  0
SEQEND
  5
17D
100
AcDbEntity
  8
レイヤ0
370
               5
390
0
  6
Continuous
 62
               7
  0
HATCH
  5
17F
100
AcDbEntity
  8
レイヤ0
370
               0
390
0
  6
Continuous
 62
               9
100
AcDbHatch
 10
0.0
 20
0.0
 30
0.0
210
0.0
220
0.0
230
1.0
  2
SOLID
 70
               1
 71
               1
 91
        1
 92
        1
 93
       82
 72
               1
 10
213.45059211151121
 20
169.85485311351911
 11
214.21307644032851
 21
169.43671691403131
 72
               1
 10
214.21307644032851
 20
169.43671691403131
 11
214.2130764403291
 21
167.8172164161661
 72
               1
 10
214.2130764403291
 20
167.8172164161661
 11
211.1497859701735
 21
163.60485022672259
 72
               1
 10
211.1497859701735
 20
163.60485022672259
 11
209.5131069579073
 21
163.60485022672259
 72
               1
 10
209.5131069579073
 20
163.60485022672259
 11
209.51310695790701
 21
168.10485022672111
 72
               1
 10
209.51310695790701
 20
168.10485022672111
 11
211.95531171136861
 21
168.56252486322381
 72
               1
 10
211.95531171136861
 20
168.56252486322381
 11
211.96649493127839
 21
168.56478617882499
 72
               1
 10
211.96649493127839
 20
168.56478617882499
 11
211.98177595294601
 21
168.56841919131659
 72
               1
 10
211.98177595294601
 20
168.56841919131659
 11
211.9969025620986
 21
168.57264933298259
 72
               1
 10
211.9969025620986
 20
168.57264933298259
 11
212.0118514346012
 21
168.57747008125091
 72
               1
 10
212.0118514346012
 20
168.57747008125091
 11
212.0265995203761
 21
168.58287400287739
 72
               1
 10
212.0265995203761
 20
168.58287400287739
 11
212.04112407894391
 21
168.58885276540639
 72
               1
 10
212.04112407894391
 20
168.58885276540639
 11
212.05540271448811
 21
168.59539715001961
 72
               1
 10
212.05540271448811
 20
168.59539715001961
 11
212.06941341038771
 21
168.6024970657501
 72
               1
 10
212.06941341038771
 20
168.6024970657501
 11
212.0831345631648
 21
168.6101415650426
 72
               1
 10
212.0831345631648
 20
168.6101415650426
 11
212.09654501579669
 21
168.6183188606332
 72
               1
 10
212.09654501579669
 20
168.6183188606332
 11
212.10962409033741
 21
168.62701634372479
 72
               1
 10
212.10962409033741
 20
168.62701634372479
 11
212.1223516198018
 21
168.636220603429
 72
               1
 10
212.1223516198018
 20
168.636220603429
 11
212.134707979262
 21
168.6459174474443
 72
               1
 10
212.134707979262
 20
168.6459174474443
 11
212.1466741161075
 21
168.65609192394021
 72
               1
 10
212.1466741161075
 20
168.65609192394021
 11
212.15823157942239
 21
168.6667283446113
 72
               1
 10
212.15823157942239
 20
168.6667283446113
 11
212.16936254843611
 21
168.677810308868
 72
               1
 10
212.16936254843611
 20
168.677810308868
 11
212.18004986000099
 21
168.68932072912449
 72
               1
 10
212.18004986000099
 20
168.68932072912449
 11
212.19027703505759
 21
168.7012418571471
 72
               1
 10
212.19027703505759
 20
168.7012418571471
 11
212.200028304043
 21
168.71355531142049
 72
               1
 10
212.200028304043
 20
168.71355531142049
 11
212.20928863120719
 21
168.72624210549071
 72
               1
 10
212.20928863120719
 20
168.72624210549071
 11
212.21804373779699
 21
168.73928267724079
 72
               1
 10
212.21804373779699
 20
168.73928267724079
 11
212.22628012407259
 21
168.7526569190544
 72
               1
 10
212.22628012407259
 20
168.7526569190544
 11
212.23398509012341
 21
168.7663442088199
 72
               1
 10
212.23398509012341
 20
168.7663442088199
 11
212.24114675545019
 21
168.7803234417286
 72
               1
 10
212.24114675545019
 20
168.7803234417286
 11
212.2477540772841
 21
168.7945730628166
 72
               1
 10
212.2477540772841
 20
168.7945730628166
 11
212.25379686761369
 21
168.80907110020101
 72
               1
 10
212.25379686761369
 20
168.80907110020101
 11
212.25926580889461
 21
168.82379519895909
 72
               1
 10
212.25926580889461
 20
168.82379519895909
 11
212.26415246841529
 21
168.83872265559759
 72
               1
 10
212.26415246841529
 20
168.83872265559759
 11
212.26844931130131
 21
168.8538304530606
 72
               1
 10
212.26844931130131
 20
168.8538304530606
 11
212.27214971213209
 21
168.86909529621931
 72
               1
 10
212.27214971213209
 20
168.86909529621931
 11
212.27524796515809
 21
168.884493647792
 72
               1
 10
212.27524796515809
 20
168.884493647792
 11
212.2777392930976
 21
168.90000176463661
 72
               1
 10
212.2777392930976
 20
168.90000176463661
 11
212.2796198545033
 21
168.91559573436109
 72
               1
 10
212.2796198545033
 20
168.91559573436109
 11
212.28088674968609
 21
168.93125151219431
 72
               1
 10
212.28088674968609
 20
168.93125151219431
 11
212.28153802518531
 21
168.94694495806181
 72
               1
 10
212.28153802518531
 20
168.94694495806181
 11
212.28157267678131
 21
168.9626518738072
 72
               1
 10
212.28157267678131
 20
168.9626518738072
 11
212.28099065104391
 21
168.97834804050521
 72
               1
 10
212.28099065104391
 20
168.97834804050521
 11
212.27979284541451
 21
168.9940092558042
 72
               1
 10
212.27979284541451
 20
168.9940092558042
 11
212.27798110682269
 21
169.00961137124551
 72
               1
 10
212.27798110682269
 20
169.00961137124551
 11
212.27555822883801
 21
169.0251303294979
 72
               1
 10
212.27555822883801
 20
169.0251303294979
 11
212.27252794736259
 21
169.04054220145261
 72
               1
 10
212.27252794736259
 20
169.04054220145261
 11
212.26889493487101
 21
169.0558232231202
 72
               1
 10
212.26889493487101
 20
169.0558232231202
 11
212.26466479320499
 21
169.07094983227279
 72
               1
 10
212.26466479320499
 20
169.07094983227279
 11
212.25984404493661
 21
169.0858987047755
 72
               1
 10
212.25984404493661
 20
169.0858987047755
 11
212.25444012331019
 21
169.1006467905504
 72
               1
 10
212.25444012331019
 20
169.1006467905504
 11
212.24846136078119
 21
169.11517134911821
 72
               1
 10
212.24846136078119
 20
169.11517134911821
 11
212.24191697616811
 21
169.1294499846623
 72
               1
 10
212.24191697616811
 20
169.1294499846623
 11
212.23481706043751
 21
169.14346068056179
 72
               1
 10
212.23481706043751
 20
169.14346068056179
 11
212.22717256114501
 21
169.15718183333911
 72
               1
 10
212.22717256114501
 20
169.15718183333911
 11
212.21899526555441
 21
169.170592285971
 72
               1
 10
212.21899526555441
 20
169.170592285971
 11
212.21029778246279
 21
169.1836713605116
 72
               1
 10
212.21029778246279
 20
169.1836713605116
 11
212.20109352275861
 21
169.196398889976
 72
               1
 10
212.20109352275861
 20
169.196398889976
 11
212.1913966787433
 21
169.20875524943631
 72
               1
 10
212.1913966787433
 20
169.20875524943631
 11
212.1812222022474
 21
169.2207213862817
 72
               1
 10
212.1812222022474
 20
169.2207213862817
 11
212.17058578157631
 21
169.23227884959661
 72
               1
 10
212.17058578157631
 20
169.23227884959661
 11
212.15950381731969
 21
169.2434098186103
 72
               1
 10
212.15950381731969
 20
169.2434098186103
 11
212.14799339706309
 21
169.2540971301753
 72
               1
 10
212.14799339706309
 20
169.2540971301753
 11
212.13607226904051
 21
169.26432430523181
 72
               1
 10
212.13607226904051
 20
169.26432430523181
 11
212.12375881476709
 21
169.27407557421719
 72
               1
 10
212.12375881476709
 20
169.27407557421719
 11
212.11107202069689
 21
169.28333590138141
 72
               1
 10
212.11107202069689
 20
169.28333590138141
 11
212.09803144894681
 21
169.29209100797121
 72
               1
 10
212.09803144894681
 20
169.29209100797121
 11
212.08465720713329
 21
169.30032739424689
 72
               1
 10
212.08465720713329
 20
169.30032739424689
 11
212.07096991736771
 21
169.3080323602976
 72
               1
 10
212.07096991736771
 20
169.3080323602976
 11
212.05699068445901
 21
169.31519402562441
 72
               1
 10
212.05699068445901
 20
169.31519402562441
 11
212.04274106337101
 21
169.32180134745829
 72
               1
 10
212.04274106337101
 20
169.32180134745829
 11
212.0282430259866
 21
169.32784413778799
 72
               1
 10
212.0282430259866
 20
169.32784413778799
 11
212.01351892722849
 21
169.33331307906869
 72
               1
 10
212.01351892722849
 20
169.33331307906869
 11
211.9985914705899
 21
169.33819973858951
 72
               1
 10
211.9985914705899
 20
169.33819973858951
 11
211.98348367312701
 21
169.34249658147539
 72
               1
 10
211.98348367312701
 20
169.34249658147539
 11
211.96821882996829
 21
169.34619698230631
 72
               1
 10
211.96821882996829
 20
169.34619698230631
 11
211.95282047839561
 21
169.34929523533231
 72
               1
 10
211.95282047839561
 20
169.34929523533231
 11
211.93731236155099
 21
169.35178656327179
 72
               1
 10
211.93731236155099
 20
169.35178656327179
 11
211.92171839182649
 21
169.35366712467749
 72
               1
 10
211.92171839182649
 20
169.35366712467749
 11
209.51310695790701
 21
169.5962610820489
 72
               1
 10
209.51310695790701
 20
169.5962610820489
 11
209.5131069579048
 21
169.85485311351911
 72
               1
 10
209.5131069579048
 20
169.85485311351911
 11
213.45059211151121
 21
169.85485311351911
 97
        1
330
12A
 75
               0
 76
               1
 98
        1
 10
0.0
 20
0.0
  0
POLYLINE
  5
180
100
AcDbEntity
  8
レイヤ0
370
               5
390
0
  6
Continuous
 62
               7
100
AcDb2dPolyline
 66
               1
 10
0.0
 20
0.0
 30
0.0
 75
               5
  0
VERTEX
  5
181
100
AcDbEntity
  8
レイヤ0
370
               5
390
0
  6
Continuous
 62
               7
100
AcDbVertex
100
AcDb2dVertex
 10
213.45059211151121
 20
169.85485311351911
 30
0.0
  0
VERTEX
  5
182
100
AcDbEntity
  8
レイヤ0
370
               5
390
0
  6
Continuous
 62
               7
100
AcDbVertex
100
AcDb2dVertex
 10
214.21307644032851
 20
169.43671691403131
 30
0.0
  0
VERTEX
  5
183
100
AcDbEntity
  8
レイヤ0
370
               5
390
0
  6
Continuous
 62
               7
100
AcDbVertex
100
AcDb2dVertex
 10
214.2130764403291
 20
167.8172164161661
 30
0.0
  0
VERTEX
  5
184
100
AcDbEntity
  8
レイヤ0
370
               5
390
0
  6
Continuous
 62
               7
100
AcDbVertex
100
AcDb2dVertex
 10
211.1497859701735
 20
163.60485022672259
 30
0.0
  0
VERTEX
  5
185
100
AcDbEntity
  8
レイヤ0
370
               5
390
0
  6
Continuous
 62
               7
100
AcDbVertex
100
AcDb2dVertex
 10
209.5131069579073
 20
163.60485022672259
 30
0.0
  0
VERTEX
  5
186
100
AcDbEntity
  8
レイヤ0
370
               5
390
0
  6
Continuous
 62
               7
100
AcDbVertex
100
AcDb2dVertex
 10
209.51310695790701
 20
168.10485022672111
 30
0.0
  0
VERTEX
  5
187
100
AcDbEntity
  8
レイヤ0
370
               5
390
0
  6
Continuous
 62
               7
100
AcDbVertex
100
AcDb2dVertex
 10
211.95531171136861
 20
168.56252486322381
 30
0.0
  0
VERTEX
  5
188
100
AcDbEntity
  8
レイヤ0
370
               5
390
0
  6
Continuous
 62
               7
100
AcDbVertex
100
AcDb2dVertex
 10
211.96649493127839
 20
168.56478617882499
 30
0.0
  0
VERTEX
  5
189
100
AcDbEntity
  8
レイヤ0
370
               5
390
0
  6
Continuous
 62
               7
100
AcDbVertex
100
AcDb2dVertex
 10
211.98177595294601
 20
168.56841919131659
 30
0.0
  0
VERTEX
  5
18A
100
AcDbEntity
  8
レイヤ0
370
               5
390
0
  6
Continuous
 62
               7
100
AcDbVertex
100
AcDb2dVertex
 10
211.9969025620986
 20
168.57264933298259
 30
0.0
  0
VERTEX
  5
18B
100
AcDbEntity
  8
レイヤ0
370
               5
390
0
  6
Continuous
 62
               7
100
AcDbVertex
100
AcDb2dVertex
 10
212.0118514346012
 20
168.57747008125091
 30
0.0
  0
VERTEX
  5
18C
100
AcDbEntity
  8
レイヤ0
370
               5
390
0
  6
Continuous
 62
               7
100
AcDbVertex
100
AcDb2dVertex
 10
212.0265995203761
 20
168.58287400287739
 30
0.0
  0
VERTEX
  5
18D
100
AcDbEntity
  8
レイヤ0
370
               5
390
0
  6
Continuous
 62
               7
100
AcDbVertex
100
AcDb2dVertex
 10
212.04112407894391
 20
168.58885276540639
 30
0.0
  0
VERTEX
  5
18E
100
AcDbEntity
  8
レイヤ0
370
               5
390
0
  6
Continuous
 62
               7
100
AcDbVertex
100
AcDb2dVertex
 10
212.05540271448811
 20
168.59539715001961
 30
0.0
  0
VERTEX
  5
18F
100
AcDbEntity
  8
レイヤ0
370
               5
390
0
  6
Continuous
 62
               7
100
AcDbVertex
100
AcDb2dVertex
 10
212.06941341038771
 20
168.6024970657501
 30
0.0
  0
VERTEX
  5
190
100
AcDbEntity
  8
レイヤ0
370
               5
390
0
  6
Continuous
 62
               7
100
AcDbVertex
100
AcDb2dVertex
 10
212.0831345631648
 20
168.6101415650426
 30
0.0
  0
VERTEX
  5
191
100
AcDbEntity
  8
レイヤ0
370
               5
390
0
  6
Continuous
 62
               7
100
AcDbVertex
100
AcDb2dVertex
 10
212.09654501579669
 20
168.6183188606332
 30
0.0
  0
VERTEX
  5
192
100
AcDbEntity
  8
レイヤ0
370
               5
390
0
  6
Continuous
 62
               7
100
AcDbVertex
100
AcDb2dVertex
 10
212.10962409033741
 20
168.62701634372479
 30
0.0
  0
VERTEX
  5
193
100
AcDbEntity
  8
レイヤ0
370
               5
390
0
  6
Continuous
 62
               7
100
AcDbVertex
100
AcDb2dVertex
 10
212.1223516198018
 20
168.636220603429
 30
0.0
  0
VERTEX
  5
194
100
AcDbEntity
  8
レイヤ0
370
               5
390
0
  6
Continuous
 62
               7
100
AcDbVertex
100
AcDb2dVertex
 10
212.134707979262
 20
168.6459174474443
 30
0.0
  0
VERTEX
  5
195
100
AcDbEntity
  8
レイヤ0
370
               5
390
0
  6
Continuous
 62
               7
100
AcDbVertex
100
AcDb2dVertex
 10
212.1466741161075
 20
168.65609192394021
 30
0.0
  0
VERTEX
  5
196
100
AcDbEntity
  8
レイヤ0
370
               5
390
0
  6
Continuous
 62
               7
100
AcDbVertex
100
AcDb2dVertex
 10
212.15823157942239
 20
168.6667283446113
 30
0.0
  0
VERTEX
  5
197
100
AcDbEntity
  8
レイヤ0
370
               5
390
0
  6
Continuous
 62
               7
100
AcDbVertex
100
AcDb2dVertex
 10
212.16936254843611
 20
168.677810308868
 30
0.0
  0
VERTEX
  5
198
100
AcDbEntity
  8
レイヤ0
370
               5
390
0
  6
Continuous
 62
               7
100
AcDbVertex
100
AcDb2dVertex
 10
212.18004986000099
 20
168.68932072912449
 30
0.0
  0
VERTEX
  5
199
100
AcDbEntity
  8
レイヤ0
370
               5
390
0
  6
Continuous
 62
               7
100
AcDbVertex
100
AcDb2dVertex
 10
212.19027703505759
 20
168.7012418571471
 30
0.0
  0
VERTEX
  5
19A
100
AcDbEntity
  8
レイヤ0
370
               5
390
0
  6
Continuous
 62
               7
100
AcDbVertex
100
AcDb2dVertex
 10
212.200028304043
 20
168.71355531142049
 30
0.0
  0
VERTEX
  5
19B
100
AcDbEntity
  8
レイヤ0
370
               5
390
0
  6
Continuous
 62
               7
100
AcDbVertex
100
AcDb2dVertex
 10
212.20928863120719
 20
168.72624210549071
 30
0.0
  0
VERTEX
  5
19C
100
AcDbEntity
  8
レイヤ0
370
               5
390
0
  6
Continuous
 62
               7
100
AcDbVertex
100
AcDb2dVertex
 10
212.21804373779699
 20
168.73928267724079
 30
0.0
  0
VERTEX
  5
19D
100
AcDbEntity
  8
レイヤ0
370
               5
390
0
  6
Continuous
 62
               7
100
AcDbVertex
100
AcDb2dVertex
 10
212.22628012407259
 20
168.7526569190544
 30
0.0
  0
VERTEX
  5
19E
100
AcDbEntity
  8
レイヤ0
370
               5
390
0
  6
Continuous
 62
               7
100
AcDbVertex
100
AcDb2dVertex
 10
212.23398509012341
 20
168.7663442088199
 30
0.0
  0
VERTEX
  5
19F
100
AcDbEntity
  8
レイヤ0
370
               5
390
0
  6
Continuous
 62
               7
100
AcDbVertex
100
AcDb2dVertex
 10
212.24114675545019
 20
168.7803234417286
 30
0.0
  0
VERTEX
  5
1A0
100
AcDbEntity
  8
レイヤ0
370
               5
390
0
  6
Continuous
 62
               7
100
AcDbVertex
100
AcDb2dVertex
 10
212.2477540772841
 20
168.7945730628166
 30
0.0
  0
VERTEX
  5
1A1
100
AcDbEntity
  8
レイヤ0
370
               5
390
0
  6
Continuous
 62
               7
100
AcDbVertex
100
AcDb2dVertex
 10
212.25379686761369
 20
168.80907110020101
 30
0.0
  0
VERTEX
  5
1A2
100
AcDbEntity
  8
レイヤ0
370
               5
390
0
  6
Continuous
 62
               7
100
AcDbVertex
100
AcDb2dVertex
 10
212.25926580889461
 20
168.82379519895909
 30
0.0
  0
VERTEX
  5
1A3
100
AcDbEntity
  8
レイヤ0
370
               5
390
0
  6
Continuous
 62
               7
100
AcDbVertex
100
AcDb2dVertex
 10
212.26415246841529
 20
168.83872265559759
 30
0.0
  0
VERTEX
  5
1A4
100
AcDbEntity
  8
レイヤ0
370
               5
390
0
  6
Continuous
 62
               7
100
AcDbVertex
100
AcDb2dVertex
 10
212.26844931130131
 20
168.8538304530606
 30
0.0
  0
VERTEX
  5
1A5
100
AcDbEntity
  8
レイヤ0
370
               5
390
0
  6
Continuous
 62
               7
100
AcDbVertex
100
AcDb2dVertex
 10
212.27214971213209
 20
168.86909529621931
 30
0.0
  0
VERTEX
  5
1A6
100
AcDbEntity
  8
レイヤ0
370
               5
390
0
  6
Continuous
 62
               7
100
AcDbVertex
100
AcDb2dVertex
 10
212.27524796515809
 20
168.884493647792
 30
0.0
  0
VERTEX
  5
1A7
100
AcDbEntity
  8
レイヤ0
370
               5
390
0
  6
Continuous
 62
               7
100
AcDbVertex
100
AcDb2dVertex
 10
212.2777392930976
 20
168.90000176463661
 30
0.0
  0
VERTEX
  5
1A8
100
AcDbEntity
  8
レイヤ0
370
               5
390
0
  6
Continuous
 62
               7
100
AcDbVertex
100
AcDb2dVertex
 10
212.2796198545033
 20
168.91559573436109
 30
0.0
  0
VERTEX
  5
1A9
100
AcDbEntity
  8
レイヤ0
370
               5
390
0
  6
Continuous
 62
               7
100
AcDbVertex
100
AcDb2dVertex
 10
212.28088674968609
 20
168.93125151219431
 30
0.0
  0
VERTEX
  5
1AA
100
AcDbEntity
  8
レイヤ0
370
               5
390
0
  6
Continuous
 62
               7
100
AcDbVertex
100
AcDb2dVertex
 10
212.28153802518531
 20
168.94694495806181
 30
0.0
  0
VERTEX
  5
1AB
100
AcDbEntity
  8
レイヤ0
370
               5
390
0
  6
Continuous
 62
               7
100
AcDbVertex
100
AcDb2dVertex
 10
212.28157267678131
 20
168.9626518738072
 30
0.0
  0
VERTEX
  5
1AC
100
AcDbEntity
  8
レイヤ0
370
               5
390
0
  6
Continuous
 62
               7
100
AcDbVertex
100
AcDb2dVertex
 10
212.28099065104391
 20
168.97834804050521
 30
0.0
  0
VERTEX
  5
1AD
100
AcDbEntity
  8
レイヤ0
370
               5
390
0
  6
Continuous
 62
               7
100
AcDbVertex
100
AcDb2dVertex
 10
212.27979284541451
 20
168.9940092558042
 30
0.0
  0
VERTEX
  5
1AE
100
AcDbEntity
  8
レイヤ0
370
               5
390
0
  6
Continuous
 62
               7
100
AcDbVertex
100
AcDb2dVertex
 10
212.27798110682269
 20
169.00961137124551
 30
0.0
  0
VERTEX
  5
1AF
100
AcDbEntity
  8
レイヤ0
370
               5
390
0
  6
Continuous
 62
               7
100
AcDbVertex
100
AcDb2dVertex
 10
212.27555822883801
 20
169.0251303294979
 30
0.0
  0
VERTEX
  5
1B0
100
AcDbEntity
  8
レイヤ0
370
               5
390
0
  6
Continuous
 62
               7
100
AcDbVertex
100
AcDb2dVertex
 10
212.27252794736259
 20
169.04054220145261
 30
0.0
  0
VERTEX
  5
1B1
100
AcDbEntity
  8
レイヤ0
370
               5
390
0
  6
Continuous
 62
               7
100
AcDbVertex
100
AcDb2dVertex
 10
212.26889493487101
 20
169.0558232231202
 30
0.0
  0
VERTEX
  5
1B2
100
AcDbEntity
  8
レイヤ0
370
               5
390
0
  6
Continuous
 62
               7
100
AcDbVertex
100
AcDb2dVertex
 10
212.26466479320499
 20
169.07094983227279
 30
0.0
  0
VERTEX
  5
1B3
100
AcDbEntity
  8
レイヤ0
370
               5
390
0
  6
Continuous
 62
               7
100
AcDbVertex
100
AcDb2dVertex
 10
212.25984404493661
 20
169.0858987047755
 30
0.0
  0
VERTEX
  5
1B4
100
AcDbEntity
  8
レイヤ0
370
               5
390
0
  6
Continuous
 62
               7
100
AcDbVertex
100
AcDb2dVertex
 10
212.25444012331019
 20
169.1006467905504
 30
0.0
  0
VERTEX
  5
1B5
100
AcDbEntity
  8
レイヤ0
370
               5
390
0
  6
Continuous
 62
               7
100
AcDbVertex
100
AcDb2dVertex
 10
212.24846136078119
 20
169.11517134911821
 30
0.0
  0
VERTEX
  5
1B6
100
AcDbEntity
  8
レイヤ0
370
               5
390
0
  6
Continuous
 62
               7
100
AcDbVertex
100
AcDb2dVertex
 10
212.24191697616811
 20
169.1294499846623
 30
0.0
  0
VERTEX
  5
1B7
100
AcDbEntity
  8
レイヤ0
370
               5
390
0
  6
Continuous
 62
               7
100
AcDbVertex
100
AcDb2dVertex
 10
212.23481706043751
 20
169.14346068056179
 30
0.0
  0
VERTEX
  5
1B8
100
AcDbEntity
  8
レイヤ0
370
               5
390
0
  6
Continuous
 62
               7
100
AcDbVertex
100
AcDb2dVertex
 10
212.22717256114501
 20
169.15718183333911
 30
0.0
  0
VERTEX
  5
1B9
100
AcDbEntity
  8
レイヤ0
370
               5
390
0
  6
Continuous
 62
               7
100
AcDbVertex
100
AcDb2dVertex
 10
212.21899526555441
 20
169.170592285971
 30
0.0
  0
VERTEX
  5
1BA
100
AcDbEntity
  8
レイヤ0
370
               5
390
0
  6
Continuous
 62
               7
100
AcDbVertex
100
AcDb2dVertex
 10
212.21029778246279
 20
169.1836713605116
 30
0.0
  0
VERTEX
  5
1BB
100
AcDbEntity
  8
レイヤ0
370
               5
390
0
  6
Continuous
 62
               7
100
AcDbVertex
100
AcDb2dVertex
 10
212.20109352275861
 20
169.196398889976
 30
0.0
  0
VERTEX
  5
1BC
100
AcDbEntity
  8
レイヤ0
370
               5
390
0
  6
Continuous
 62
               7
100
AcDbVertex
100
AcDb2dVertex
 10
212.1913966787433
 20
169.20875524943631
 30
0.0
  0
VERTEX
  5
1BD
100
AcDbEntity
  8
レイヤ0
370
               5
390
0
  6
Continuous
 62
               7
100
AcDbVertex
100
AcDb2dVertex
 10
212.1812222022474
 20
169.2207213862817
 30
0.0
  0
VERTEX
  5
1BE
100
AcDbEntity
  8
レイヤ0
370
               5
390
0
  6
Continuous
 62
               7
100
AcDbVertex
100
AcDb2dVertex
 10
212.17058578157631
 20
169.23227884959661
 30
0.0
  0
VERTEX
  5
1BF
100
AcDbEntity
  8
レイヤ0
370
               5
390
0
  6
Continuous
 62
               7
100
AcDbVertex
100
AcDb2dVertex
 10
212.15950381731969
 20
169.2434098186103
 30
0.0
  0
VERTEX
  5
1C0
100
AcDbEntity
  8
レイヤ0
370
               5
390
0
  6
Continuous
 62
               7
100
AcDbVertex
100
AcDb2dVertex
 10
212.14799339706309
 20
169.2540971301753
 30
0.0
  0
VERTEX
  5
1C1
100
AcDbEntity
  8
レイヤ0
370
               5
390
0
  6
Continuous
 62
               7
100
AcDbVertex
100
AcDb2dVertex
 10
212.13607226904051
 20
169.26432430523181
 30
0.0
  0
VERTEX
  5
1C2
100
AcDbEntity
  8
レイヤ0
370
               5
390
0
  6
Continuous
 62
               7
100
AcDbVertex
100
AcDb2dVertex
 10
212.12375881476709
 20
169.27407557421719
 30
0.0
  0
VERTEX
  5
1C3
100
AcDbEntity
  8
レイヤ0
370
               5
390
0
  6
Continuous
 62
               7
100
AcDbVertex
100
AcDb2dVertex
 10
212.11107202069689
 20
169.28333590138141
 30
0.0
  0
VERTEX
  5
1C4
100
AcDbEntity
  8
レイヤ0
370
               5
390
0
  6
Continuous
 62
               7
100
AcDbVertex
100
AcDb2dVertex
 10
212.09803144894681
 20
169.29209100797121
 30
0.0
  0
VERTEX
  5
1C5
100
AcDbEntity
  8
レイヤ0
370
               5
390
0
  6
Continuous
 62
               7
100
AcDbVertex
100
AcDb2dVertex
 10
212.08465720713329
 20
169.30032739424689
 30
0.0
  0
VERTEX
  5
1C6
100
AcDbEntity
  8
レイヤ0
370
               5
390
0
  6
Continuous
 62
               7
100
AcDbVertex
100
AcDb2dVertex
 10
212.07096991736771
 20
169.3080323602976
 30
0.0
  0
VERTEX
  5
1C7
100
AcDbEntity
  8
レイヤ0
370
               5
390
0
  6
Continuous
 62
               7
100
AcDbVertex
100
AcDb2dVertex
 10
212.05699068445901
 20
169.31519402562441
 30
0.0
  0
VERTEX
  5
1C8
100
AcDbEntity
  8
レイヤ0
370
               5
390
0
  6
Continuous
 62
               7
100
AcDbVertex
100
AcDb2dVertex
 10
212.04274106337101
 20
169.32180134745829
 30
0.0
  0
VERTEX
  5
1C9
100
AcDbEntity
  8
レイヤ0
370
               5
390
0
  6
Continuous
 62
               7
100
AcDbVertex
100
AcDb2dVertex
 10
212.0282430259866
 20
169.32784413778799
 30
0.0
  0
VERTEX
  5
1CA
100
AcDbEntity
  8
レイヤ0
370
               5
390
0
  6
Continuous
 62
               7
100
AcDbVertex
100
AcDb2dVertex
 10
212.01351892722849
 20
169.33331307906869
 30
0.0
  0
VERTEX
  5
1CB
100
AcDbEntity
  8
レイヤ0
370
               5
390
0
  6
Continuous
 62
               7
100
AcDbVertex
100
AcDb2dVertex
 10
211.9985914705899
 20
169.33819973858951
 30
0.0
  0
VERTEX
  5
1CC
100
AcDbEntity
  8
レイヤ0
370
               5
390
0
  6
Continuous
 62
               7
100
AcDbVertex
100
AcDb2dVertex
 10
211.98348367312701
 20
169.34249658147539
 30
0.0
  0
VERTEX
  5
1CD
100
AcDbEntity
  8
レイヤ0
370
               5
390
0
  6
Continuous
 62
               7
100
AcDbVertex
100
AcDb2dVertex
 10
211.96821882996829
 20
169.34619698230631
 30
0.0
  0
VERTEX
  5
1CE
100
AcDbEntity
  8
レイヤ0
370
               5
390
0
  6
Continuous
 62
               7
100
AcDbVertex
100
AcDb2dVertex
 10
211.95282047839561
 20
169.34929523533231
 30
0.0
  0
VERTEX
  5
1CF
100
AcDbEntity
  8
レイヤ0
370
               5
390
0
  6
Continuous
 62
               7
100
AcDbVertex
100
AcDb2dVertex
 10
211.93731236155099
 20
169.35178656327179
 30
0.0
  0
VERTEX
  5
1D0
100
AcDbEntity
  8
レイヤ0
370
               5
390
0
  6
Continuous
 62
               7
100
AcDbVertex
100
AcDb2dVertex
 10
211.92171839182649
 20
169.35366712467749
 30
0.0
  0
VERTEX
  5
1D1
100
AcDbEntity
  8
レイヤ0
370
               5
390
0
  6
Continuous
 62
               7
100
AcDbVertex
100
AcDb2dVertex
 10
209.51310695790701
 20
169.5962610820489
 30
0.0
  0
VERTEX
  5
1D2
100
AcDbEntity
  8
レイヤ0
370
               5
390
0
  6
Continuous
 62
               7
100
AcDbVertex
100
AcDb2dVertex
 10
209.5131069579048
 20
169.85485311351911
 30
0.0
  0
VERTEX
  5
1D3
100
AcDbEntity
  8
レイヤ0
370
               5
390
0
  6
Continuous
 62
               7
100
AcDbVertex
100
AcDb2dVertex
 10
213.45059211151121
 20
169.85485311351911
 30
0.0
  0
SEQEND
  5
1D4
100
AcDbEntity
  8
レイヤ0
370
               5
390
0
  6
Continuous
 62
               7
  0
POLYLINE
  5
1D6
102
{ACAD_REACTORS
330
1DD
102
}
100
AcDbEntity
  8
レイヤ0
370
               5
390
0
  6
Continuous
 62
               7
100
AcDb2dPolyline
 66
               1
 10
0.0
 20
0.0
 30
0.0
 70
               1
 75
               5
  0
VERTEX
  5
1D7
100
AcDbEntity
  8
レイヤ0
370
               5
390
0
  6
Continuous
 62
               7
100
AcDbVertex
100
AcDb2dVertex
 10
191.013070666734
 20
176.33690424119831
 30
0.0
  0
VERTEX
  5
1D8
100
AcDbEntity
  8
レイヤ0
370
               5
390
0
  6
Continuous
 62
               7
100
AcDbVertex
100
AcDb2dVertex
 10
191.01307066673371
 20
181.6048485771222
 30
0.0
  0
VERTEX
  5
1D9
100
AcDbEntity
  8
レイヤ0
370
               5
390
0
  6
Continuous
 62
               7
100
AcDbVertex
100
AcDb2dVertex
 10
188.01307314113191
 20
181.6048485771222
 30
0.0
  0
VERTEX
  5
1DA
100
AcDbEntity
  8
レイヤ0
370
               5
390
0
  6
Continuous
 62
               7
100
AcDbVertex
100
AcDb2dVertex
 10
188.01307314113021
 20
176.33690424119189
 30
0.0
  0
SEQEND
  5
1DB
100
AcDbEntity
  8
レイヤ0
370
               5
390
0
  6
Continuous
 62
               7
  0
HATCH
  5
1DD
100
AcDbEntity
  8
レイヤ0
370
               0
390
0
  6
Continuous
 62
               9
100
AcDbHatch
 10
0.0
 20
0.0
 30
0.0
210
0.0
220
0.0
230
1.0
  2
SOLID
 70
               1
 71
               1
 91
        1
 92
        1
 93
        4
 72
               1
 10
191.013070666734
 20
176.33690424119831
 11
191.01307066673371
 21
181.6048485771222
 72
               1
 10
191.01307066673371
 20
181.6048485771222
 11
188.01307314113191
 21
181.6048485771222
 72
               1
 10
188.01307314113191
 20
181.6048485771222
 11
188.01307314113021
 21
176.33690424119189
 72
               1
 10
188.01307314113021
 20
176.33690424119189
 11
191.013070666734
 21
176.33690424119831
 97
        1
330
1D6
 75
               0
 76
               1
 98
        1
 10
0.0
 20
0.0
  0
POLYLINE
  5
1DE
100
AcDbEntity
  8
レイヤ0
370
               5
390
0
  6
Continuous
 62
               7
100
AcDb2dPolyline
 66
               1
 10
0.0
 20
0.0
 30
0.0
 75
               5
  0
VERTEX
  5
1DF
100
AcDbEntity
  8
レイヤ0
370
               5
390
0
  6
Continuous
 62
               7
100
AcDbVertex
100
AcDb2dVertex
 10
191.013070666734
 20
176.33690424119831
 30
0.0
  0
VERTEX
  5
1E0
100
AcDbEntity
  8
レイヤ0
370
               5
390
0
  6
Continuous
 62
               7
100
AcDbVertex
100
AcDb2dVertex
 10
191.01307066673371
 20
181.6048485771222
 30
0.0
  0
VERTEX
  5
1E1
100
AcDbEntity
  8
レイヤ0
370
               5
390
0
  6
Continuous
 62
               7
100
AcDbVertex
100
AcDb2dVertex
 10
188.01307314113191
 20
181.6048485771222
 30
0.0
  0
VERTEX
  5
1E2
100
AcDbEntity
  8
レイヤ0
370
               5
390
0
  6
Continuous
 62
               7
100
AcDbVertex
100
AcDb2dVertex
 10
188.01307314113021
 20
176.33690424119189
 30
0.0
  0
VERTEX
  5
1E3
100
AcDbEntity
  8
レイヤ0
370
               5
390
0
  6
Continuous
 62
               7
100
AcDbVertex
100
AcDb2dVertex
 10
191.013070666734
 20
176.33690424119831
 30
0.0
  0
SEQEND
  5
1E4
100
AcDbEntity
  8
レイヤ0
370
               5
390
0
  6
Continuous
 62
               7
  0
POLYLINE
  5
1E6
102
{ACAD_REACTORS
330
1ED
102
}
100
AcDbEntity
  8
レイヤ0
370
               5
390
0
  6
Continuous
 62
               7
100
AcDb2dPolyline
 66
               1
 10
0.0
 20
0.0
 30
0.0
 70
               1
 75
               5
  0
VERTEX
  5
1E7
100
AcDbEntity
  8
レイヤ0
370
               5
390
0
  6
Continuous
 62
               7
100
AcDbVertex
100
AcDb2dVertex
 10
191.01307066673371
 20
172.8507122080872
 30
0.0
  0
VERTEX
  5
1E8
100
AcDbEntity
  8
レイヤ0
370
               5
390
0
  6
Continuous
 62
               7
100
AcDbVertex
100
AcDb2dVertex
 10
191.01307066673351
 20
167.60485187632051
 30
0.0
  0
VERTEX
  5
1E9
100
AcDbEntity
  8
レイヤ0
370
               5
390
0
  6
Continuous
 62
               7
100
AcDbVertex
100
AcDb2dVertex
 10
188.0130731411322
 20
167.60485187632051
 30
0.0
  0
VERTEX
  5
1EA
100
AcDbEntity
  8
レイヤ0
370
               5
390
0
  6
Continuous
 62
               7
100
AcDbVertex
100
AcDb2dVertex
 10
188.01307314113191
 20
172.85484445312511
 30
0.0
  0
SEQEND
  5
1EB
100
AcDbEntity
  8
レイヤ0
370
               5
390
0
  6
Continuous
 62
               7
  0
HATCH
  5
1ED
100
AcDbEntity
  8
レイヤ0
370
               0
390
0
  6
Continuous
 62
               9
100
AcDbHatch
 10
0.0
 20
0.0
 30
0.0
210
0.0
220
0.0
230
1.0
  2
SOLID
 70
               1
 71
               1
 91
        1
 92
        1
 93
        4
 72
               1
 10
191.01307066673371
 20
172.8507122080872
 11
191.01307066673351
 21
167.60485187632051
 72
               1
 10
191.01307066673351
 20
167.60485187632051
 11
188.0130731411322
 21
167.60485187632051
 72
               1
 10
188.0130731411322
 20
167.60485187632051
 11
188.01307314113191
 21
172.85484445312511
 72
               1
 10
188.01307314113191
 20
172.85484445312511
 11
191.01307066673371
 21
172.8507122080872
 97
        1
330
1E6
 75
               0
 76
               1
 98
        1
 10
0.0
 20
0.0
  0
POLYLINE
  5
1EE
100
AcDbEntity
  8
レイヤ0
370
               5
390
0
  6
Continuous
 62
               7
100
AcDb2dPolyline
 66
               1
 10
0.0
 20
0.0
 30
0.0
 75
               5
  0
VERTEX
  5
1EF
100
AcDbEntity
  8
レイヤ0
370
               5
390
0
  6
Continuous
 62
               7
100
AcDbVertex
100
AcDb2dVertex
 10
191.01307066673371
 20
172.8507122080872
 30
0.0
  0
VERTEX
  5
1F0
100
AcDbEntity
  8
レイヤ0
370
               5
390
0
  6
Continuous
 62
               7
100
AcDbVertex
100
AcDb2dVertex
 10
191.01307066673351
 20
167.60485187632051
 30
0.0
  0
VERTEX
  5
1F1
100
AcDbEntity
  8
レイヤ0
370
               5
390
0
  6
Continuous
 62
               7
100
AcDbVertex
100
AcDb2dVertex
 10
188.0130731411322
 20
167.60485187632051
 30
0.0
  0
VERTEX
  5
1F2
100
AcDbEntity
  8
レイヤ0
370
               5
390
0
  6
Continuous
 62
               7
100
AcDbVertex
100
AcDb2dVertex
 10
188.01307314113191
 20
172.85484445312511
 30
0.0
  0
VERTEX
  5
1F3
100
AcDbEntity
  8
レイヤ0
370
               5
390
0
  6
Continuous
 62
               7
100
AcDbVertex
100
AcDb2dVertex
 10
191.01307066673371
 20
172.8507122080872
 30
0.0
  0
SEQEND
  5
1F4
100
AcDbEntity
  8
レイヤ0
370
               5
390
0
  6
Continuous
 62
               7
  0
POLYLINE
  5
1F6
102
{ACAD_REACTORS
330
201
102
}
100
AcDbEntity
  8
レイヤ0
370
               5
390
0
  6
Continuous
 62
               7
100
AcDb2dPolyline
 66
               1
 10
0.0
 20
0.0
 30
0.0
 70
               1
 75
               5
  0
VERTEX
  5
1F7
100
AcDbEntity
  8
レイヤ0
370
               5
390
0
  6
Continuous
 62
               7
100
AcDbVertex
100
AcDb2dVertex
 10
243.50144099506909
 20
174.6048502267212
 30
0.0
  0
VERTEX
  5
1F8
100
AcDbEntity
  8
レイヤ0
370
               5
390
0
  6
Continuous
 62
               7
100
AcDbVertex
100
AcDb2dVertex
 10
243.4983459793078
 20
174.0757944270479
 30
0.0
  0
VERTEX
  5
1F9
100
AcDbEntity
  8
レイヤ0
370
               5
390
0
  6
Continuous
 62
               7
100
AcDbVertex
100
AcDb2dVertex
 10
243.4483908913576
 20
172.4151070368448
 30
0.0
  0
VERTEX
  5
1FA
100
AcDbEntity
  8
レイヤ0
370
               5
390
0
  6
Continuous
 62
               7
100
AcDbVertex
100
AcDb2dVertex
 10
243.33746332984521
 20
170.7573756970649
 30
0.0
  0
VERTEX
  5
1FB
100
AcDbEntity
  8
レイヤ0
370
               5
390
0
  6
Continuous
 62
               7
100
AcDbVertex
100
AcDb2dVertex
 10
243.16571304176679
 20
169.10483826712979
 30
0.0
  0
VERTEX
  5
1FC
100
AcDbEntity
  8
レイヤ0
370
               5
390
0
  6
Continuous
 62
               7
100
AcDbVertex
100
AcDb2dVertex
 10
242.65680516050401
 20
169.10483826712979
 30
0.0
  0
VERTEX
  5
1FD
100
AcDbEntity
  8
レイヤ0
370
               5
390
0
  6
Continuous
 62
               7
100
AcDbVertex
100
AcDb2dVertex
 10
242.65680516050401
 20
174.25482185362159
 30
0.0
  0
VERTEX
  5
1FE
100
AcDbEntity
  8
レイヤ0
370
               5
390
0
  6
Continuous
 62
               7
100
AcDbVertex
100
AcDb2dVertex
 10
242.83038419608249
 20
174.6048502267212
 30
0.0
  0
SEQEND
  5
1FF
100
AcDbEntity
  8
レイヤ0
370
               5
390
0
  6
Continuous
 62
               7
  0
HATCH
  5
201
100
AcDbEntity
  8
レイヤ0
370
               0
390
0
  6
Continuous
 62
               9
100
AcDbHatch
 10
0.0
 20
0.0
 30
0.0
210
0.0
220
0.0
230
1.0
  2
SOLID
 70
               1
 71
               1
 91
        1
 92
        1
 93
        8
 72
               1
 10
243.50144099506909
 20
174.6048502267212
 11
243.4983459793078
 21
174.0757944270479
 72
               1
 10
243.4983459793078
 20
174.0757944270479
 11
243.4483908913576
 21
172.4151070368448
 72
               1
 10
243.4483908913576
 20
172.4151070368448
 11
243.33746332984521
 21
170.7573756970649
 72
               1
 10
243.33746332984521
 20
170.7573756970649
 11
243.16571304176679
 21
169.10483826712979
 72
               1
 10
243.16571304176679
 20
169.10483826712979
 11
242.65680516050401
 21
169.10483826712979
 72
               1
 10
242.65680516050401
 20
169.10483826712979
 11
242.65680516050401
 21
174.25482185362159
 72
               1
 10
242.65680516050401
 20
174.25482185362159
 11
242.83038419608249
 21
174.6048502267212
 72
               1
 10
242.83038419608249
 20
174.6048502267212
 11
243.50144099506909
 21
174.6048502267212
 97
        1
330
1F6
 75
               0
 76
               1
 98
        1
 10
0.0
 20
0.0
  0
POLYLINE
  5
202
100
AcDbEntity
  8
レイヤ0
370
               5
390
0
  6
Continuous
 62
               7
100
AcDb2dPolyline
 66
               1
 10
0.0
 20
0.0
 30
0.0
 75
               5
  0
VERTEX
  5
203
100
AcDbEntity
  8
レイヤ0
370
               5
390
0
  6
Continuous
 62
               7
100
AcDbVertex
100
AcDb2dVertex
 10
243.50144099506909
 20
174.6048502267212
 30
0.0
  0
VERTEX
  5
204
100
AcDbEntity
  8
レイヤ0
370
               5
390
0
  6
Continuous
 62
               7
100
AcDbVertex
100
AcDb2dVertex
 10
243.4983459793078
 20
174.0757944270479
 30
0.0
  0
VERTEX
  5
205
100
AcDbEntity
  8
レイヤ0
370
               5
390
0
  6
Continuous
 62
               7
100
AcDbVertex
100
AcDb2dVertex
 10
243.4483908913576
 20
172.4151070368448
 30
0.0
  0
VERTEX
  5
206
100
AcDbEntity
  8
レイヤ0
370
               5
390
0
  6
Continuous
 62
               7
100
AcDbVertex
100
AcDb2dVertex
 10
243.33746332984521
 20
170.7573756970649
 30
0.0
  0
VERTEX
  5
207
100
AcDbEntity
  8
レイヤ0
370
               5
390
0
  6
Continuous
 62
               7
100
AcDbVertex
100
AcDb2dVertex
 10
243.16571304176679
 20
169.10483826712979
 30
0.0
  0
VERTEX
  5
208
100
AcDbEntity
  8
レイヤ0
370
               5
390
0
  6
Continuous
 62
               7
100
AcDbVertex
100
AcDb2dVertex
 10
242.65680516050401
 20
169.10483826712979
 30
0.0
  0
VERTEX
  5
209
100
AcDbEntity
  8
レイヤ0
370
               5
390
0
  6
Continuous
 62
               7
100
AcDbVertex
100
AcDb2dVertex
 10
242.65680516050401
 20
174.25482185362159
 30
0.0
  0
VERTEX
  5
20A
100
AcDbEntity
  8
レイヤ0
370
               5
390
0
  6
Continuous
 62
               7
100
AcDbVertex
100
AcDb2dVertex
 10
242.83038419608249
 20
174.6048502267212
 30
0.0
  0
VERTEX
  5
20B
100
AcDbEntity
  8
レイヤ0
370
               5
390
0
  6
Continuous
 62
               7
100
AcDbVertex
100
AcDb2dVertex
 10
243.50144099506909
 20
174.6048502267212
 30
0.0
  0
SEQEND
  5
20C
100
AcDbEntity
  8
レイヤ0
370
               5
390
0
  6
Continuous
 62
               7
  0
LINE
  5
20E
100
AcDbEntity
  8
レイヤ0
370
               5
390
0
  6
Continuous
 62
               7
100
AcDbLine
 10
15.064157329274849
 20
14.503345961765262
 30
0.0
 11
15.064157329274934
 21
282.50334596176521
 31
0.0
  0
LINE
  5
20F
100
AcDbEntity
  8
レイヤ0
370
               5
390
0
  6
Continuous
 62
               7
100
AcDbLine
 10
405.06415732927502
 20
14.503345961765262
 30
0.0
 11
405.06415732927502
 21
282.50334596176532
 31
0.0
  0
LINE
  5
210
100
AcDbEntity
  8
レイヤ0
370
               5
390
0
  6
Continuous
 62
               7
100
AcDbLine
 10
15.064157329274849
 20
14.503345961765262
 30
0.0
 11
405.06415732927502
 21
14.503345961765262
 31
0.0
  0
LINE
  5
211
100
AcDbEntity
  8
レイヤ0
370
               5
390
0
  6
Continuous
 62
               7
100
AcDbLine
 10
25.064157329274934
 20
282.50334596176538
 30
0.0
 11
25.064157329274934
 21
272.50334596176509
 31
0.0
  0
LINE
  5
212
100
AcDbEntity
  8
レイヤ0
370
               5
390
0
  6
Continuous
 62
               7
100
AcDbLine
 10
41.064157329274877
 20
282.50334596176538
 30
0.0
 11
41.064157329274934
 21
272.50334596176509
 31
0.0
  0
LINE
  5
213
100
AcDbEntity
  8
レイヤ0
370
               5
390
0
  6
Continuous
 62
               7
100
AcDbLine
 10
144.96415732927491
 20
282.50334596176521
 30
0.0
 11
144.96415732927491
 21
272.50334596176521
 31
0.0
  0
LINE
  5
214
100
AcDbEntity
  8
レイヤ0
370
               5
390
0
  6
Continuous
 62
               7
100
AcDbLine
 10
135.06415732927499
 20
282.50334596176521
 30
0.0
 11
135.0641573292751
 21
272.50334596176509
 31
0.0
  0
LINE
  5
215
100
AcDbEntity
  8
レイヤ0
370
               5
390
0
  6
Continuous
 62
               7
100
AcDbLine
 10
15.064157329274934
 20
272.50334596176509
 30
0.0
 11
160.06415732927479
 21
272.50334596176509
 31
0.0
  0
LINE
  5
216
100
AcDbEntity
  8
レイヤ0
370
               5
390
0
  6
Continuous
 62
               7
100
AcDbLine
 10
160.06415732927479
 20
272.50334596176509
 30
0.0
 11
160.06415732927491
 21
282.50334596176521
 31
0.0
  0
LINE
  5
217
100
AcDbEntity
  8
レイヤ0
370
               5
390
0
  6
Continuous
 62
               7
100
AcDbLine
 10
15.064157329274934
 20
277.50334596176538
 30
0.0
 11
160.06415732927491
 21
277.50334596176509
 31
0.0
  0
LINE
  5
218
100
AcDbEntity
  8
レイヤ0
370
               5
390
0
  6
Continuous
 62
               7
100
AcDbLine
 10
10.064157329274792
 20
48.503345961765262
 30
0.0
 11
15.064157329274849
 21
48.503345961765262
 31
0.0
  0
LINE
  5
219
100
AcDbEntity
  8
レイヤ0
370
               5
390
0
  6
Continuous
 62
               7
100
AcDbLine
 10
10.064157329274821
 20
98.503345961765262
 30
0.0
 11
15.064157329274877
 21
98.503345961765262
 31
0.0
  0
LINE
  5
21A
100
AcDbEntity
  8
レイヤ0
370
               5
390
0
  6
Continuous
 62
               7
100
AcDbLine
 10
10.064157329274877
 20
198.50334596176529
 30
0.0
 11
15.064157329274934
 21
198.50334596176529
 31
0.0
  0
LINE
  5
21B
100
AcDbEntity
  8
レイヤ0
370
               5
390
0
  6
Continuous
 62
               7
100
AcDbLine
 10
10.064157329274877
 20
248.50334596176529
 30
0.0
 11
15.064157329274934
 21
248.50334596176529
 31
0.0
  0
LINE
  5
21C
100
AcDbEntity
  8
レイヤ0
370
               5
390
0
  6
Continuous
 62
               7
100
AcDbLine
 10
410.06415732927519
 20
48.503345961765262
 30
0.0
 11
405.06415732927508
 21
48.503345961765262
 31
0.0
  0
LINE
  5
21D
100
AcDbEntity
  8
レイヤ0
370
               5
390
0
  6
Continuous
 62
               7
100
AcDbLine
 10
410.06415732927508
 20
248.50334596176529
 30
0.0
 11
405.06415732927508
 21
248.50334596176529
 31
0.0
  0
LINE
  5
21E
100
AcDbEntity
  8
レイヤ0
370
               5
390
0
  6
Continuous
 62
               7
100
AcDbLine
 10
360.06415732927502
 20
9.5033459617652625
 30
0.0
 11
360.06415732927502
 21
14.503345961765262
 31
0.0
  0
LINE
  5
21F
100
AcDbEntity
  8
レイヤ0
370
               5
390
0
  6
Continuous
 62
               7
100
AcDbLine
 10
310.06415732927502
 20
9.5033459617652625
 30
0.0
 11
310.06415732927502
 21
14.503345961765262
 31
0.0
  0
LINE
  5
220
100
AcDbEntity
  8
レイヤ0
370
               5
390
0
  6
Continuous
 62
               7
100
AcDbLine
 10
110.06415732927491
 20
9.5033459617652625
 30
0.0
 11
110.06415732927501
 21
14.503345961765262
 31
0.0
  0
LINE
  5
221
100
AcDbEntity
  8
レイヤ0
370
               5
390
0
  6
Continuous
 62
               7
100
AcDbLine
 10
60.064157329274906
 20
9.5033459617652625
 30
0.0
 11
60.064157329274849
 21
14.503345961765262
 31
0.0
  0
LINE
  5
222
100
AcDbEntity
  8
レイヤ0
370
               5
390
0
  6
Continuous
 62
               7
100
AcDbLine
 10
360.06415732927502
 20
287.50334596176521
 30
0.0
 11
360.06415732927502
 21
282.50334596176521
 31
0.0
  0
LINE
  5
223
100
AcDbEntity
  8
レイヤ0
370
               5
390
0
  6
Continuous
 62
               7
100
AcDbLine
 10
310.06415732927502
 20
287.50334596176521
 30
0.0
 11
310.06415732927502
 21
282.50334596176521
 31
0.0
  0
LINE
  5
224
100
AcDbEntity
  8
レイヤ0
370
               5
390
0
  6
Continuous
 62
               7
100
AcDbLine
 10
260.06415732927502
 20
287.50334596176521
 30
0.0
 11
260.06415732927502
 21
282.50334596176521
 31
0.0
  0
LINE
  5
225
100
AcDbEntity
  8
レイヤ0
370
               5
390
0
  6
Continuous
 62
               7
100
AcDbLine
 10
160.06415732927491
 20
287.50334596176521
 30
0.0
 11
160.06415732927491
 21
282.50334596176521
 31
0.0
  0
LINE
  5
226
100
AcDbEntity
  8
レイヤ0
370
               5
390
0
  6
Continuous
 62
               7
100
AcDbLine
 10
110.06415732927491
 20
287.50334596176521
 30
0.0
 11
110.06415732927501
 21
282.50334596176521
 31
0.0
  0
LINE
  5
227
100
AcDbEntity
  8
レイヤ0
370
               5
390
0
  6
Continuous
 62
               7
100
AcDbLine
 10
60.064157329274934
 20
287.50334596176521
 30
0.0
 11
60.064157329274877
 21
282.50334596176521
 31
0.0
  0
LINE
  5
228
100
AcDbEntity
  8
レイヤ0
370
               5
390
0
  6
Continuous
 62
               7
100
AcDbLine
 10
419.81415732927508
 20
148.50334596176521
 30
0.0
 11
405.06415732927502
 21
148.50334596176529
 31
0.0
  0
LINE
  5
229
100
AcDbEntity
  8
レイヤ0
370
               5
390
0
  6
Continuous
 62
               7
100
AcDbLine
 10
15.064157329274764
 20
148.50334596176529
 30
0.0
 11
0.3141573292749911
 21
148.50334596176521
 31
0.0
  0
LINE
  5
22A
100
AcDbEntity
  8
レイヤ0
370
               5
390
0
  6
Continuous
 62
               7
100
AcDbLine
 10
210.06415732927499
 20
0.2533459617652625
 30
0.0
 11
210.06415732927499
 21
14.503345961765262
 31
0.0
  0
LINE
  5
22B
100
AcDbEntity
  8
レイヤ0
370
               5
390
0
  6
Continuous
 62
               7
100
AcDbLine
 10
210.06415732927499
 20
282.50334596176532
 30
0.0
 11
210.06415732927499
 21
296.75334596176521
 31
0.0
  0
LINE
  5
22C
100
AcDbEntity
  8
レイヤ0
370
               5
390
0
  6
Continuous
 62
               7
100
AcDbLine
 10
410.06415732927502
 20
98.503345961765262
 30
0.0
 11
405.06415732927508
 21
98.503345961765262
 31
0.0
  0
LINE
  5
22D
100
AcDbEntity
  8
レイヤ0
370
               5
390
0
  6
Continuous
 62
               7
100
AcDbLine
 10
410.06415732927502
 20
198.50334596176529
 30
0.0
 11
405.06415732927502
 21
198.50334596176529
 31
0.0
  0
LINE
  5
22E
100
AcDbEntity
  8
レイヤ0
370
               5
390
0
  6
Continuous
 62
               7
100
AcDbLine
 10
160.06415732927499
 20
9.5033459617652625
 30
0.0
 11
160.06415732927499
 21
14.503345961765149
 31
0.0
  0
LINE
  5
22F
100
AcDbEntity
  8
レイヤ0
370
               5
390
0
  6
Continuous
 62
               7
100
AcDbLine
 10
160.06415732927499
 20
9.5033459617652625
 30
0.0
 11
260.06415732927502
 21
9.5033459617652625
 31
0.0
  0
LINE
  5
230
100
AcDbEntity
  8
レイヤ0
370
               5
390
0
  6
Continuous
 62
               7
100
AcDbLine
 10
260.06415732927502
 20
9.5033459617652625
 30
0.0
 11
260.06415732927502
 21
14.503345961765262
 31
0.0
  0
LINE
  5
231
100
AcDbEntity
  8
レイヤ0
370
               5
390
0
  6
Continuous
 62
               7
100
AcDbLine
 10
250.06415732927499
 20
9.5033459617652625
 30
0.0
 11
250.06415732927499
 21
14.503345961765262
 31
0.0
  0
LINE
  5
232
100
AcDbEntity
  8
レイヤ0
370
               5
390
0
  6
Continuous
 62
               7
100
AcDbLine
 10
240.06415732927499
 20
9.5033459617652625
 30
0.0
 11
240.06415732927499
 21
14.503345961765262
 31
0.0
  0
LINE
  5
233
100
AcDbEntity
  8
レイヤ0
370
               5
390
0
  6
Continuous
 62
               7
100
AcDbLine
 10
230.06415732927499
 20
9.5033459617652625
 30
0.0
 11
230.06415732927499
 21
14.503345961765262
 31
0.0
  0
LINE
  5
234
100
AcDbEntity
  8
レイヤ0
370
               5
390
0
  6
Continuous
 62
               7
100
AcDbLine
 10
220.06415732927499
 20
9.5033459617652625
 30
0.0
 11
220.06415732927499
 21
14.503345961765262
 31
0.0
  0
LINE
  5
235
100
AcDbEntity
  8
レイヤ0
370
               5
390
0
  6
Continuous
 62
               7
100
AcDbLine
 10
200.06415732927499
 20
9.5033459617652625
 30
0.0
 11
200.06415732927499
 21
14.503345961765262
 31
0.0
  0
LINE
  5
236
100
AcDbEntity
  8
レイヤ0
370
               5
390
0
  6
Continuous
 62
               7
100
AcDbLine
 10
190.06415732927499
 20
9.5033459617652625
 30
0.0
 11
190.06415732927499
 21
14.503345961765262
 31
0.0
  0
LINE
  5
237
100
AcDbEntity
  8
レイヤ0
370
               5
390
0
  6
Continuous
 62
               7
100
AcDbLine
 10
180.06415732927499
 20
9.5033459617652625
 30
0.0
 11
180.06415732927499
 21
14.503345961765262
 31
0.0
  0
LINE
  5
238
100
AcDbEntity
  8
レイヤ0
370
               5
390
0
  6
Continuous
 62
               7
100
AcDbLine
 10
170.06415732927499
 20
9.5033459617652625
 30
0.0
 11
170.06415732927499
 21
14.503345961765262
 31
0.0
  0
LINE
  5
239
100
AcDbEntity
  8
レイヤ0
370
               5
390
0
  6
Continuous
 62
               7
100
AcDbLine
 10
372.77175452232279
 20
32.503345961765859
 30
0.0
 11
372.77175452232279
 21
26.503345961765831
 31
0.0
  0
LINE
  5
23A
100
AcDbEntity
  8
レイヤ0
370
               5
390
0
  6
Continuous
 62
               7
100
AcDbLine
 10
384.77175452232279
 20
32.503345961765859
 30
0.0
 11
384.77175452232279
 21
26.503345961765831
 31
0.0
  0
LINE
  5
23B
100
AcDbEntity
  8
レイヤ0
370
               5
390
0
  6
Continuous
 62
               7
100
AcDbLine
 10
240.06415732927499
 20
44.503345961765859
 30
0.0
 11
240.06415732927499
 21
20.503345961765859
 31
0.0
  0
LINE
  5
23C
100
AcDbEntity
  8
レイヤ0
370
               5
390
0
  6
Continuous
 62
               7
100
AcDbLine
 10
337.06415732927502
 20
44.503345961765859
 30
0.0
 11
337.06415732927502
 21
26.503345961765831
 31
0.0
  0
LINE
  5
23D
100
AcDbEntity
  8
レイヤ0
370
               5
390
0
  6
Continuous
 62
               7
100
AcDbLine
 10
325.06415732927502
 20
38.503345961765859
 30
0.0
 11
405.06415732927502
 21
38.503345961765859
 31
0.0
  0
LINE
  5
23E
100
AcDbEntity
  8
レイヤ0
370
               5
390
0
  6
Continuous
 62
               7
100
AcDbLine
 10
325.06415732927502
 20
32.503345961765859
 30
0.0
 11
405.06415732927508
 21
32.503345961765859
 31
0.0
  0
LINE
  5
23F
100
AcDbEntity
  8
レイヤ0
370
               5
390
0
  6
Continuous
 62
               7
100
AcDbLine
 10
325.06415732927502
 20
26.503345961765831
 30
0.0
 11
405.06415732927508
 21
26.503345961765859
 31
0.0
  0
LINE
  5
240
100
AcDbEntity
  8
レイヤ0
370
               5
390
0
  6
Continuous
 62
               7
100
AcDbLine
 10
225.06415732927499
 20
38.503345961765859
 30
0.0
 11
285.06415732927502
 21
38.503345961765859
 31
0.0
  0
LINE
  5
241
100
AcDbEntity
  8
レイヤ0
370
               5
390
0
  6
Continuous
 62
               7
100
AcDbLine
 10
225.06415732927499
 20
32.503345961765859
 30
0.0
 11
285.06415732927502
 21
32.503345961765859
 31
0.0
  0
LINE
  5
242
100
AcDbEntity
  8
レイヤ0
370
               5
390
0
  6
Continuous
 62
               7
100
AcDbLine
 10
225.06415732927499
 20
26.503345961765859
 30
0.0
 11
285.06415732927502
 21
26.503345961765831
 31
0.0
  0
LINE
  5
243
100
AcDbEntity
  8
レイヤ0
370
               5
390
0
  6
Continuous
 62
               7
100
AcDbLine
 10
285.06415732927502
 20
38.503345961765859
 30
0.0
 11
325.06415732927502
 21
38.503345961765859
 31
0.0
  0
LINE
  5
244
100
AcDbEntity
  8
レイヤ0
370
               5
390
0
  6
Continuous
 62
               7
100
AcDbLine
 10
256.06415732927502
 20
32.503345961765859
 30
0.0
 11
256.06415732927502
 21
20.503345961765859
 31
0.0
  0
LINE
  5
245
100
AcDbEntity
  8
レイヤ0
370
               5
390
0
  6
Continuous
 62
               7
100
AcDbLine
 10
225.06415732927499
 20
20.503345961765859
 30
0.0
 11
285.06415732927502
 21
20.503345961765831
 31
0.0
  0
LINE
  5
246
100
AcDbEntity
  8
レイヤ0
370
               5
390
0
  6
Continuous
 62
               7
100
AcDbLine
 10
285.06415732927502
 20
14.503345961765831
 30
0.0
 11
285.06415732927502
 21
44.503345961765859
 31
0.0
  0
LINE
  5
247
100
AcDbEntity
  8
レイヤ0
370
               5
390
0
  6
Continuous
 62
               7
100
AcDbLine
 10
305.06415732927502
 20
14.503345961765802
 30
0.0
 11
305.06415732927502
 21
44.503345961765859
 31
0.0
  0
LINE
  5
248
100
AcDbEntity
  8
レイヤ0
370
               5
390
0
  6
Continuous
 62
               7
100
AcDbLine
 10
325.06415732927502
 20
44.503345961765859
 30
0.0
 11
325.06415732927502
 21
14.503345961765802
 31
0.0
  0
LINE
  5
249
100
AcDbEntity
  8
レイヤ0
370
               5
390
0
  6
Continuous
 62
               7
100
AcDbLine
 10
205.06415732927499
 20
38.503345961765859
 30
0.0
 11
205.06415732927499
 21
14.50334596176549
 31
0.0
  0
LINE
  5
24A
100
AcDbEntity
  8
レイヤ0
370
               5
390
0
  6
Continuous
 62
               7
100
AcDbLine
 10
205.06415732927479
 20
32.503345961765802
 30
0.0
 11
225.06415732927499
 21
32.503345961765831
 31
0.0
  0
LINE
  5
24B
100
AcDbEntity
  8
レイヤ0
370
               5
390
0
  6
Continuous
 62
               7
100
AcDbLine
 10
205.06415732927499
 20
38.503345961765859
 30
0.0
 11
225.06415732927499
 21
38.503345961765874
 31
0.0
  0
LINE
  5
24C
100
AcDbEntity
  8
レイヤ0
370
               5
390
0
  6
Continuous
 62
               7
100
AcDbLine
 10
15.064157329274934
 20
282.50334596176521
 30
0.0
 11
405.06415732927502
 21
282.50334596176532
 31
0.0
  0
LINE
  5
24D
100
AcDbEntity
  8
レイヤ0
370
               5
390
0
  6
Continuous
 62
               7
100
AcDbLine
 10
351.95877441327963
 20
19.503345961765831
 30
0.0
 11
402.06415732927508
 21
19.503345961765831
 31
0.0
  0
LINE
  5
24E
100
AcDbEntity
  8
レイヤ0
370
               5
390
0
  6
Continuous
 62
               7
100
AcDbLine
 10
225.06415732927499
 20
44.503345961765859
 30
0.0
 11
403.06415732927508
 21
44.503345961765831
 31
0.0
  0
LINE
  5
24F
100
AcDbEntity
  8
レイヤ0
370
               5
390
0
  6
Continuous
 62
               7
100
AcDbLine
 10
225.06415732927499
 20
44.503345961765859
 30
0.0
 11
225.06415732927499
 21
14.503345961765262
 31
0.0
  0
LINE
  5
250
100
AcDbEntity
  8
レイヤ0
370
               5
390
0
  6
Continuous
 62
               7
100
AcDbLine
 10
191.19309510538471
 20
74.764841631132441
 30
0.0
 11
189.99402646887711
 21
73.604843742618925
 31
0.0
  0
LINE
  5
251
100
AcDbEntity
  8
レイヤ0
370
               5
390
0
  6
Continuous
 62
               7
100
AcDbLine
 10
172.47572004599911
 20
148.6048437426189
 30
0.0
 11
171.273508923744
 21
147.44484585410541
 31
0.0
  0
LINE
  5
252
100
AcDbEntity
  8
レイヤ0
370
               5
390
0
  6
Continuous
 62
               7
100
AcDbLine
 10
189.95042757212869
 20
148.6048437426189
 30
0.0
 11
191.1526881823483
 21
147.44484585410541
 31
0.0
  0
LINE
  5
253
100
AcDbEntity
  8
レイヤ0
370
               5
390
0
  6
Continuous
 62
               7
100
AcDbLine
 10
170.84232028881999
 20
135.60485034101421
 30
0.0
 11
171.273508923744
 21
147.44484585410541
 31
0.0
  0
LINE
  5
254
100
AcDbEntity
  8
レイヤ0
370
               5
390
0
  6
Continuous
 62
               7
100
AcDbLine
 10
172.47572004599911
 20
148.6048437426189
 30
0.0
 11
189.95042757212869
 21
148.6048437426189
 31
0.0
  0
LINE
  5
255
100
AcDbEntity
  8
レイヤ0
370
               5
390
0
  6
Continuous
 62
               7
100
AcDbLine
 10
191.58382732930781
 20
135.60485034101421
 30
0.0
 11
191.1526881823483
 21
147.44484585410541
 31
0.0
  0
LINE
  5
256
100
AcDbEntity
  8
レイヤ0
370
               5
390
0
  6
Continuous
 62
               7
100
AcDbLine
 10
191.592017587437
 20
86.604837144223666
 30
0.0
 11
191.19309510538471
 21
74.764829259141322
 31
0.0
  0
LINE
  5
257
100
AcDbEntity
  8
レイヤ0
370
               5
390
0
  6
Continuous
 62
               7
100
AcDbLine
 10
172.06823614608359
 20
137.41484789960799
 30
0.0
 11
170.84232028881999
 21
135.60485034101421
 31
0.0
  0
LINE
  5
258
100
AcDbEntity
  8
レイヤ0
370
               5
390
0
  6
Continuous
 62
               7
100
AcDbLine
 10
190.35791147204429
 20
137.41484789960799
 30
0.0
 11
191.58382732930781
 21
135.60485034101421
 31
0.0
  0
LINE
  5
259
100
AcDbEntity
  8
レイヤ0
370
               5
390
0
  6
Continuous
 62
               7
100
AcDbLine
 10
191.592017587437
 20
86.604837144223666
 30
0.0
 11
190.37102578264401
 21
84.794851957621063
 31
0.0
  0
LINE
  5
25A
100
AcDbEntity
  8
レイヤ0
370
               5
390
0
  6
Continuous
 62
               7
100
AcDbLine
 10
190.37102578264401
 20
84.794851957621063
 30
0.0
 11
191.5310236711575
 21
84.794851957621063
 31
0.0
  0
LINE
  5
25B
100
AcDbEntity
  8
レイヤ0
370
               5
390
0
  6
Continuous
 62
               7
100
AcDbLine
 10
189.99402646887711
 20
73.604843742618925
 30
0.0
 11
190.37102578264401
 21
84.794839585629916
 31
0.0
  0
LINE
  5
25C
100
AcDbEntity
  8
レイヤ0
370
               5
390
0
  6
Continuous
 62
               7
100
AcDbLine
 10
172.47572004599911
 20
148.6048437426189
 30
0.0
 11
172.06823614608359
 21
137.41484789960799
 31
0.0
  0
LINE
  5
25D
100
AcDbEntity
  8
レイヤ0
370
               5
390
0
  6
Continuous
 62
               7
100
AcDbLine
 10
170.90823825756999
 20
137.41484789960799
 30
0.0
 11
181.2130799950595
 21
137.41484789960799
 31
0.0
  0
LINE
  5
25E
100
AcDbEntity
  8
レイヤ0
370
               5
390
0
  6
Continuous
 62
               7
100
AcDbLine
 10
190.35791147204429
 20
137.41484789960799
 30
0.0
 11
191.51793410453999
 21
137.41484789960799
 31
0.0
  0
LINE
  5
25F
100
AcDbEntity
  8
レイヤ0
370
               5
390
0
  6
Continuous
 62
               7
100
AcDbLine
 10
170.84232028881999
 20
135.60485034101421
 30
0.0
 11
181.2130799950595
 21
135.60485034101421
 31
0.0
  0
LINE
  5
260
100
AcDbEntity
  8
レイヤ0
370
               5
390
0
  6
Continuous
 62
               7
100
AcDbLine
 10
191.54883933838721
 20
135.60485034101421
 30
0.0
 11
191.5826148741769
 21
135.63860113282161
 31
0.0
  0
LINE
  5
261
100
AcDbEntity
  8
レイヤ0
370
               5
390
0
  6
Continuous
 62
               7
100
AcDbLine
 10
189.41308725329429
 20
75.48633903796312
 30
0.0
 11
191.28031764286351
 21
77.353569427532364
 31
0.0
  0
LINE
  5
262
100
AcDbEntity
  8
レイヤ0
370
               5
390
0
  6
Continuous
 62
               7
100
AcDbLine
 10
189.41308725329429
 20
78.3147741625408
 30
0.0
 11
191.37894715616591
 21
80.280609321430177
 31
0.0
  0
LINE
  5
263
100
AcDbEntity
  8
レイヤ0
370
               5
390
0
  6
Continuous
 62
               7
100
AcDbLine
 10
189.41308725329429
 20
81.143184543136243
 30
0.0
 11
191.47755192548601
 21
83.20764921532799
 31
0.0
  0
LINE
  5
264
100
AcDbEntity
  8
レイヤ0
370
               5
390
0
  6
Continuous
 62
               7
100
AcDbLine
 10
189.41308725329429
 20
83.971619667713952
 30
0.0
 11
191.57618143878841
 21
86.134689109225775
 31
0.0
  0
LINE
  5
265
100
AcDbEntity
  8
レイヤ0
370
               5
390
0
  6
Continuous
 62
               7
100
AcDbLine
 10
189.41308725329429
 20
134.88331581821021
 30
0.0
 11
191.5329289577918
 21
137.00313277872539
 31
0.0
  0
LINE
  5
266
100
AcDbEntity
  8
レイヤ0
370
               5
390
0
  6
Continuous
 62
               7
100
AcDbLine
 10
189.41308725329429
 20
137.7117014548233
 30
0.0
 11
191.43353238103921
 21
139.73214658256819
 31
0.0
  0
LINE
  5
267
100
AcDbEntity
  8
レイヤ0
370
               5
390
0
  6
Continuous
 62
               7
100
AcDbLine
 10
189.41308725329429
 20
140.5401613233833
 30
0.0
 11
191.33416054826901
 21
142.4612098743757
 31
0.0
  0
LINE
  5
268
100
AcDbEntity
  8
レイヤ0
370
               5
390
0
  6
Continuous
 62
               7
100
AcDbLine
 10
189.41308725329429
 20
143.36857170397869
 30
0.0
 11
191.23478871549869
 21
145.19027316618309
 31
0.0
  0
LINE
  5
269
100
AcDbEntity
  8
レイヤ0
370
               5
390
0
  6
Continuous
 62
               7
100
AcDbLine
 10
189.41308725329429
 20
146.1970068285564
 30
0.0
 11
190.90242754573521
 21
147.6863223770151
 31
0.0
  0
LINE
  5
26A
100
AcDbEntity
  8
レイヤ0
370
               5
390
0
  6
Continuous
 62
               7
100
AcDbLine
 10
189.95042757212869
 20
148.6048437426189
 30
0.0
 11
190.35791147204429
 21
137.41484789960799
 31
0.0
  0
LINE
  5
26B
100
AcDbEntity
  8
レイヤ0
370
               5
390
0
  6
Continuous
 62
               7
100
AcDbLine
 10
191.4630766958619
 20
135.60485034101421
 30
0.0
 11
191.58382732930781
 21
135.60485034101421
 31
0.0
  0
LINE
  5
26C
100
AcDbEntity
  8
レイヤ0
370
               5
390
0
  6
Continuous
 62
               7
100
AcDbLine
 10
189.41308725329429
 20
132.0548806936325
 30
0.0
 11
191.4630766958619
 21
134.10487013619999
 31
0.0
  0
LINE
  5
26D
100
AcDbEntity
  8
レイヤ0
370
               5
390
0
  6
Continuous
 62
               7
100
AcDbLine
 10
189.41308725329429
 20
129.22644556905479
 30
0.0
 11
191.4630766958619
 21
131.27643501162231
 31
0.0
  0
LINE
  5
26E
100
AcDbEntity
  8
レイヤ0
370
               5
390
0
  6
Continuous
 62
               7
100
AcDbLine
 10
189.41308725329429
 20
126.39801044447709
 30
0.0
 11
191.4630766958619
 21
128.4479998870446
 31
0.0
  0
LINE
  5
26F
100
AcDbEntity
  8
レイヤ0
370
               5
390
0
  6
Continuous
 62
               7
100
AcDbLine
 10
189.41308725329429
 20
123.5695753198993
 30
0.0
 11
191.4630766958619
 21
125.61956476246689
 31
0.0
  0
LINE
  5
270
100
AcDbEntity
  8
レイヤ0
370
               5
390
0
  6
Continuous
 62
               7
100
AcDbLine
 10
189.41308725329429
 20
120.74118968328619
 30
0.0
 11
191.4630766958619
 21
122.7911791258537
 31
0.0
  0
LINE
  5
271
100
AcDbEntity
  8
レイヤ0
370
               5
390
0
  6
Continuous
 62
               7
100
AcDbLine
 10
189.41308725329429
 20
117.91272981472621
 30
0.0
 11
191.4630766958619
 21
119.96274400127599
 31
0.0
  0
LINE
  5
272
100
AcDbEntity
  8
レイヤ0
370
               5
390
0
  6
Continuous
 62
               7
100
AcDbLine
 10
189.41308725329429
 20
115.0843070621397
 30
0.0
 11
191.4630766958619
 21
117.1343088766983
 31
0.0
  0
LINE
  5
273
100
AcDbEntity
  8
レイヤ0
370
               5
390
0
  6
Continuous
 62
               7
100
AcDbLine
 10
189.41308725329429
 20
106.5990264323888
 30
0.0
 11
191.4630766958619
 21
108.64901587495631
 31
0.0
  0
LINE
  5
274
100
AcDbEntity
  8
レイヤ0
370
               5
390
0
  6
Continuous
 62
               7
100
AcDbLine
 10
189.41308725329429
 20
103.77060367980221
 30
0.0
 11
191.4630766958619
 21
105.8205931223698
 31
0.0
  0
LINE
  5
275
100
AcDbEntity
  8
レイヤ0
370
               5
390
0
  6
Continuous
 62
               7
100
AcDbLine
 10
189.41308725329429
 20
100.94215618323339
 30
0.0
 11
191.4630766958619
 21
102.99215799779211
 31
0.0
  0
LINE
  5
276
100
AcDbEntity
  8
レイヤ0
370
               5
390
0
  6
Continuous
 62
               7
100
AcDbLine
 10
189.41308725329429
 20
98.113733430646789
 30
0.0
 11
191.4630766958619
 21
100.16374761719661
 31
0.0
  0
LINE
  5
277
100
AcDbEntity
  8
レイヤ0
370
               5
390
0
  6
Continuous
 62
               7
100
AcDbLine
 10
189.41308725329429
 20
95.285310678060227
 30
0.0
 11
191.4630766958619
 21
97.335312492618925
 31
0.0
  0
LINE
  5
278
100
AcDbEntity
  8
レイヤ0
370
               5
390
0
  6
Continuous
 62
               7
100
AcDbLine
 10
189.41308725329429
 20
92.456887925473666
 30
0.0
 11
191.4630766958619
 21
94.506877368041216
 31
0.0
  0
LINE
  5
279
100
AcDbEntity
  8
レイヤ0
370
               5
390
0
  6
Continuous
 62
               7
100
AcDbLine
 10
189.41308725329429
 20
89.628465172887104
 30
0.0
 11
191.4630766958619
 21
91.678454615454655
 31
0.0
  0
LINE
  5
27A
100
AcDbEntity
  8
レイヤ0
370
               5
390
0
  6
Continuous
 62
               7
100
AcDbLine
 10
189.41308725329429
 20
86.800030048309395
 30
0.0
 11
191.4630766958619
 21
88.850031862868093
 31
0.0
  0
LINE
  5
27B
100
AcDbEntity
  8
レイヤ0
370
               5
390
0
  6
Continuous
 62
               7
100
AcDbLine
 10
181.2130799950595
 20
73.604843742618925
 30
0.0
 11
189.99402646887711
 21
73.604843742618925
 31
0.0
  0
LINE
  5
27C
100
AcDbEntity
  8
レイヤ0
370
               5
390
0
  6
Continuous
 62
               7
100
AcDbLine
 10
168.9630766958619
 20
109.1048433302192
 30
0.0
 11
193.46307092226601
 21
109.1048433302192
 31
0.0
  0
LINE
  5
27D
100
AcDbEntity
  8
レイヤ0
370
               5
390
0
  6
Continuous
 62
               7
100
AcDbLine
 10
168.9630766958619
 20
113.1048441550186
 30
0.0
 11
193.46307092226601
 21
113.1048441550186
 31
0.0
  0
LINE
  5
27E
100
AcDbEntity
  8
レイヤ0
370
               5
390
0
  6
Continuous
 62
               7
100
AcDbLine
 10
170.96307092226601
 20
113.1048441550186
 30
0.0
 11
170.96307092226601
 21
135.60485034101421
 31
0.0
  0
LINE
  5
27F
100
AcDbEntity
  8
レイヤ0
370
               5
390
0
  6
Continuous
 62
               7
100
AcDbLine
 10
191.4630766958619
 20
86.604837144223666
 30
0.0
 11
191.4630766958619
 21
109.1048433302192
 31
0.0
  0
LINE
  5
280
100
AcDbEntity
  8
レイヤ0
370
               5
390
0
  6
Continuous
 62
               7
100
AcDbLine
 10
191.4630766958619
 20
113.1048441550186
 30
0.0
 11
191.4630766958619
 21
135.60485034101421
 31
0.0
  0
LINE
  5
281
100
AcDbEntity
  8
レイヤ0
370
               5
390
0
  6
Continuous
 62
               7
100
AcDbLine
 10
189.41308725329429
 20
73.604843742618925
 30
0.0
 11
189.41308725329429
 21
109.1048433302192
 31
0.0
  0
LINE
  5
282
100
AcDbEntity
  8
レイヤ0
370
               5
390
0
  6
Continuous
 62
               7
100
AcDbLine
 10
189.41308725329429
 20
113.1048503410142
 30
0.0
 11
189.41308725329429
 21
148.6048437426189
 31
0.0
  0
LINE
  5
283
100
AcDbEntity
  8
レイヤ0
370
               5
390
0
  6
Continuous
 62
               7
100
AcDbLine
 10
190.26204091276429
 20
113.1048441550186
 30
0.0
 11
191.4630766958619
 21
114.30588612411169
 31
0.0
  0
LINE
  5
284
100
AcDbEntity
  8
レイヤ0
370
               5
390
0
  6
Continuous
 62
               7
100
AcDbLine
 10
181.2130799950595
 20
66.604848485215541
 30
0.0
 11
181.21307999505939
 21
243.26004376247781
 31
0.0
  0
LINE
  5
285
100
AcDbEntity
  8
レイヤ0
370
               5
390
0
  6
Continuous
 62
               7
100
AcDbLine
 10
191.71308989265239
 20
96.604849516214813
 30
0.0
 11
191.71308989265239
 21
91.60487013620002
 31
0.0
  0
LINE
  5
286
100
AcDbEntity
  8
レイヤ0
370
               5
390
0
  6
Continuous
 62
               7
100
AcDbLine
 10
151.2130738090639
 20
85.604862713005332
 30
0.0
 11
151.2130738090639
 21
81.604849516214813
 31
0.0
  0
LINE
  5
287
100
AcDbEntity
  8
レイヤ0
370
               5
390
0
  6
Continuous
 62
               7
100
AcDbLine
 10
211.21309236705059
 20
85.604862713005332
 30
0.0
 11
211.21309236705059
 21
81.604849516214813
 31
0.0
  0
LINE
  5
288
100
AcDbEntity
  8
レイヤ0
370
               5
390
0
  6
Continuous
 62
               7
100
AcDbLine
 10
191.71308989265239
 20
91.60487013620002
 30
0.0
 11
192.2130791702601
 21
91.60487013620002
 31
0.0
  0
LINE
  5
289
100
AcDbEntity
  8
レイヤ0
370
               5
390
0
  6
Continuous
 62
               7
100
AcDbLine
 10
164.21307339666421
 20
98.604856114610072
 30
0.0
 11
181.21307999505939
 21
98.60485611461003
 31
0.0
  0
LINE
  5
28A
100
AcDbEntity
  8
レイヤ0
370
               5
390
0
  6
Continuous
 62
               7
100
AcDbLine
 10
191.4630766958619
 20
98.60485611461003
 30
0.0
 11
198.21309896544591
 21
98.604856114610072
 31
0.0
  0
LINE
  5
28B
100
AcDbEntity
  8
レイヤ0
370
               5
390
0
  6
Continuous
 62
               7
100
AcDbLine
 10
210.71311546143411
 20
85.604862713005332
 30
0.0
 11
210.71311546143411
 21
81.604849516214813
 31
0.0
  0
LINE
  5
28C
100
AcDbEntity
  8
レイヤ0
370
               5
390
0
  6
Continuous
 62
               7
100
AcDbLine
 10
193.71309649104771
 20
98.10486683700239
 30
0.0
 11
198.21309896544591
 21
98.10486683700239
 31
0.0
  0
LINE
  5
28D
100
AcDbEntity
  8
レイヤ0
370
               5
390
0
  6
Continuous
 62
               7
100
AcDbLine
 10
192.2130791702601
 20
96.604849516214813
 30
0.0
 11
192.2130791702601
 21
91.60487013620002
 31
0.0
  0
LINE
  5
28E
100
AcDbEntity
  8
レイヤ0
370
               5
390
0
  6
Continuous
 62
               7
100
AcDbLine
 10
170.96307092226601
 20
98.604856114610058
 30
0.0
 11
170.96307092226601
 21
109.1048433302192
 31
0.0
  0
LINE
  5
28F
100
AcDbEntity
  8
レイヤ0
370
               5
390
0
  6
Continuous
 62
               7
100
AcDbLine
 10
151.2130738090639
 20
81.604849516214813
 30
0.0
 11
181.21307999505939
 21
81.604849516214813
 31
0.0
  0
LINE
  5
290
100
AcDbEntity
  8
レイヤ0
370
               5
390
0
  6
Continuous
 62
               7
100
AcDbLine
 10
191.4235542304734
 20
81.604849516214813
 30
0.0
 11
211.21309236705059
 21
81.604849516214813
 31
0.0
  0
LINE
  5
291
100
AcDbEntity
  8
レイヤ0
370
               5
390
0
  6
Continuous
 62
               7
100
AcDbLine
 10
171.23306488473429
 20
74.764841631132384
 30
0.0
 11
172.43213352124189
 21
73.60484374261884
 31
0.0
  0
LINE
  5
292
100
AcDbEntity
  8
レイヤ0
370
               5
390
0
  6
Continuous
 62
               7
100
AcDbLine
 10
181.21307999505939
 20
73.60484374261884
 30
0.0
 11
172.43213352124189
 21
73.60484374261884
 31
0.0
  0
LINE
  5
293
100
AcDbEntity
  8
レイヤ0
370
               5
390
0
  6
Continuous
 62
               7
100
AcDbLine
 10
171.00260575964549
 20
81.604849516214784
 30
0.0
 11
171.23306488473429
 21
74.764829259141237
 31
0.0
  0
LINE
  5
294
100
AcDbEntity
  8
レイヤ0
370
               5
390
0
  6
Continuous
 62
               7
100
AcDbLine
 10
172.43213352124189
 20
73.60484374261884
 30
0.0
 11
172.16260735437919
 21
81.604849516214784
 31
0.0
  0
LINE
  5
295
100
AcDbEntity
  8
レイヤ0
370
               5
390
0
  6
Continuous
 62
               7
100
AcDbLine
 10
171.23306488473429
 20
74.764829259141237
 30
0.0
 11
181.21307999505939
 21
74.764829259141294
 31
0.0
  0
LINE
  5
296
100
AcDbEntity
  8
レイヤ0
370
               5
390
0
  6
Continuous
 62
               7
100
AcDbLine
 10
171.273508923744
 20
147.44484585410541
 30
0.0
 11
181.21307999505939
 21
147.44484585410541
 31
0.0
  0
LINE
  5
297
100
AcDbEntity
  8
レイヤ0
370
               5
390
0
  6
Continuous
 62
               7
100
AcDbLine
 10
136.21307092226621
 20
148.6048437426189
 30
0.0
 11
171.47572004600011
 21
148.6048437426189
 31
0.0
  0
LINE
  5
298
100
AcDbEntity
  8
レイヤ0
370
               5
390
0
  6
Continuous
 62
               7
100
AcDbLine
 10
170.90823825756999
 20
139.60484789960799
 30
0.0
 11
181.2130799950595
 21
139.60484789960799
 31
0.0
  0
LINE
  5
299
100
AcDbEntity
  8
レイヤ0
370
               5
390
0
  6
Continuous
 62
               7
100
AcDbLine
 10
209.71308941324301
 20
185.79485331618429
 30
0.0
 11
208.90309373990499
 21
186.60484898952231
 31
0.0
  0
LINE
  5
29A
100
AcDbEntity
  8
レイヤ0
370
               5
390
0
  6
Continuous
 62
               7
100
AcDbLine
 10
209.71308941324301
 20
163.41484713725839
 30
0.0
 11
208.90309373990499
 21
162.6048514639204
 31
0.0
  0
LINE
  5
29B
100
AcDbEntity
  8
レイヤ0
370
               5
390
0
  6
Continuous
 62
               7
100
AcDbLine
 10
181.409329341264
 20
169.95765490408809
 30
0.0
 11
181.5658972425218
 21
169.80107825406509
 31
0.0
  0
LINE
  5
29C
100
AcDbEntity
  8
レイヤ0
370
               5
390
0
  6
Continuous
 62
               7
100
AcDbLine
 10
203.71308941324301
 20
163.41484713725771
 30
0.0
 11
209.71308941324301
 21
163.41484713725839
 31
0.0
  0
LINE
  5
29D
100
AcDbEntity
  8
レイヤ0
370
               5
390
0
  6
Continuous
 62
               7
100
AcDbLine
 10
203.71308941324321
 20
185.794853316184
 30
0.0
 11
209.71308941324301
 21
185.79485331618429
 31
0.0
  0
LINE
  5
29E
100
AcDbEntity
  8
レイヤ0
370
               5
390
0
  6
Continuous
 62
               7
100
AcDbLine
 10
203.71308941324301
 20
163.41484713725791
 30
0.0
 11
201.7130894132431
 21
162.60485146392031
 31
0.0
  0
LINE
  5
29F
100
AcDbEntity
  8
レイヤ0
370
               5
390
0
  6
Continuous
 62
               7
100
AcDbLine
 10
201.68514209400561
 20
186.60484898952231
 30
0.0
 11
208.90307624237479
 21
186.60484898952231
 31
0.0
  0
LINE
  5
2A0
100
AcDbEntity
  8
レイヤ0
370
               5
390
0
  6
Continuous
 62
               7
100
AcDbLine
 10
203.71308941324321
 20
185.79485331618429
 30
0.0
 11
201.68514209400561
 21
186.60484898952231
 31
0.0
  0
LINE
  5
2A1
100
AcDbEntity
  8
レイヤ0
370
               5
390
0
  6
Continuous
 62
               7
100
AcDbLine
 10
200.3551844450603
 20
182.35485022672131
 30
0.0
 11
204.60518320786099
 21
186.604848989522
 31
0.0
  0
LINE
  5
2A2
100
AcDbEntity
  8
レイヤ0
370
               5
390
0
  6
Continuous
 62
               7
100
AcDbLine
 10
203.1836115698066
 20
182.35485022672131
 30
0.0
 11
207.4336103326074
 21
186.604848989522
 31
0.0
  0
LINE
  5
2A3
100
AcDbEntity
  8
レイヤ0
370
               5
390
0
  6
Continuous
 62
               7
100
AcDbLine
 10
206.01203869455281
 20
182.35485022672131
 30
0.0
 11
209.58256559862991
 21
185.92537713079849
 31
0.0
  0
LINE
  5
2A4
100
AcDbEntity
  8
レイヤ0
370
               5
390
0
  6
Continuous
 62
               7
100
AcDbLine
 10
202.5415171565885
 20
162.60485146392
 30
0.0
 11
206.79151591938961
 21
166.85485022672111
 31
0.0
  0
LINE
  5
2A5
100
AcDbEntity
  8
レイヤ0
370
               5
390
0
  6
Continuous
 62
               7
100
AcDbLine
 10
205.36994428133491
 20
162.6048514639204
 30
0.0
 11
208.51309128671551
 21
165.74799846930091
 31
0.0
  0
LINE
  5
2A6
100
AcDbEntity
  8
レイヤ0
370
               5
390
0
  6
Continuous
 62
               7
100
AcDbLine
 10
208.19837140608149
 20
162.60485146392071
 30
0.0
 11
209.71308941324389
 21
164.11956947108311
 31
0.0
  0
LINE
  5
2A7
100
AcDbEntity
  8
レイヤ0
370
               5
390
0
  6
Continuous
 62
               7
100
AcDbLine
 10
208.51309128671579
 20
184.3548502267212
 30
0.0
 11
209.7130894132431
 21
184.3548502267212
 31
0.0
  0
LINE
  5
2A8
100
AcDbEntity
  8
レイヤ0
370
               5
390
0
  6
Continuous
 62
               7
100
AcDbLine
 10
208.51309128671599
 20
164.85485022672131
 30
0.0
 11
209.7130894132431
 21
164.85485022672191
 31
0.0
  0
LINE
  5
2A9
100
AcDbEntity
  8
レイヤ0
370
               5
390
0
  6
Continuous
 62
               7
100
AcDbLine
 10
201.68514209399831
 20
162.60485146392011
 30
0.0
 11
208.90307624237479
 21
162.6048514639204
 31
0.0
  0
LINE
  5
2AA
100
AcDbEntity
  8
レイヤ0
370
               5
390
0
  6
Continuous
 62
               7
100
AcDbLine
 10
190.7130864675311
 20
204.60484713372361
 30
0.0
 11
191.7130864675311
 21
203.60484713372361
 31
0.0
  0
LINE
  5
2AB
100
AcDbEntity
  8
レイヤ0
370
               5
390
0
  6
Continuous
 62
               7
100
AcDbLine
 10
171.7130864675311
 20
204.60484713372341
 30
0.0
 11
170.7130864675311
 21
203.60484713372341
 31
0.0
  0
LINE
  5
2AC
100
AcDbEntity
  8
レイヤ0
370
               5
390
0
  6
Continuous
 62
               7
100
AcDbLine
 10
171.7130864675311
 20
204.60484713372361
 30
0.0
 11
190.7130864675311
 21
204.60484713372361
 31
0.0
  0
LINE
  5
2AD
100
AcDbEntity
  8
レイヤ0
370
               5
390
0
  6
Continuous
 62
               7
100
AcDbLine
 10
190.7130864675311
 20
204.60484713372361
 30
0.0
 11
190.7130864675311
 21
196.60484713372361
 31
0.0
  0
LINE
  5
2AE
100
AcDbEntity
  8
レイヤ0
370
               5
390
0
  6
Continuous
 62
               7
100
AcDbLine
 10
171.7130864675311
 20
204.60484713372361
 30
0.0
 11
171.7130864675311
 21
196.60484713372369
 31
0.0
  0
LINE
  5
2AF
100
AcDbEntity
  8
レイヤ0
370
               5
390
0
  6
Continuous
 62
               7
100
AcDbLine
 10
191.7130864675311
 20
203.60484713372361
 30
0.0
 11
191.7130864675311
 21
194.60484713372361
 31
0.0
  0
LINE
  5
2B0
100
AcDbEntity
  8
レイヤ0
370
               5
390
0
  6
Continuous
 62
               7
100
AcDbLine
 10
170.7130864675311
 20
203.60484713372341
 30
0.0
 11
170.7130864675311
 21
194.60484713372361
 31
0.0
  0
LINE
  5
2B1
100
AcDbEntity
  8
レイヤ0
370
               5
390
0
  6
Continuous
 62
               7
100
AcDbLine
 10
190.7130864675311
 20
196.60484713372361
 30
0.0
 11
191.71308646753101
 21
194.60484713372361
 31
0.0
  0
LINE
  5
2B2
100
AcDbEntity
  8
レイヤ0
370
               5
390
0
  6
Continuous
 62
               7
100
AcDbLine
 10
171.7130864675311
 20
196.60484713372361
 30
0.0
 11
170.7130864675311
 21
194.60484713372369
 31
0.0
  0
LINE
  5
2B3
100
AcDbEntity
  8
レイヤ0
370
               5
390
0
  6
Continuous
 62
               7
100
AcDbLine
 10
187.71305153138479
 20
200.8254156852538
 30
0.0
 11
191.10278472369271
 21
204.21514887756109
 31
0.0
  0
LINE
  5
2B4
100
AcDbEntity
  8
レイヤ0
370
               5
390
0
  6
Continuous
 62
               7
100
AcDbLine
 10
187.71305153138499
 20
203.6538428099999
 30
0.0
 11
188.6640558551085
 21
204.60484713372369
 31
0.0
  0
LINE
  5
2B5
100
AcDbEntity
  8
レイヤ0
370
               5
390
0
  6
Continuous
 62
               7
100
AcDbLine
 10
170.7130864675315
 20
196.51654032795221
 30
0.0
 11
174.71308640861659
 21
200.51654026903731
 31
0.0
  0
LINE
  5
2B6
100
AcDbEntity
  8
レイヤ0
370
               5
390
0
  6
Continuous
 62
               7
100
AcDbLine
 10
170.7130864675315
 20
199.3449674526982
 30
0.0
 11
174.71308640861659
 21
203.34496739378369
 31
0.0
  0
LINE
  5
2B7
100
AcDbEntity
  8
レイヤ0
370
               5
390
0
  6
Continuous
 62
               7
100
AcDbLine
 10
170.7130864675315
 20
202.17339457744521
 30
0.0
 11
173.14453902381041
 21
204.60484713372341
 31
0.0
  0
LINE
  5
2B8
100
AcDbEntity
  8
レイヤ0
370
               5
390
0
  6
Continuous
 62
               7
100
AcDbLine
 10
190.16238749465799
 20
153.05414892673551
 30
0.0
 11
193.96308646753161
 21
156.8548478996079
 31
0.0
  0
LINE
  5
2B9
100
AcDbEntity
  8
レイヤ0
370
               5
390
0
  6
Continuous
 62
               7
100
AcDbLine
 10
190.2617717212635
 20
150.32510602859509
 30
0.0
 11
193.9630864675315
 21
154.0264207748634
 31
0.0
  0
LINE
  5
2BA
100
AcDbEntity
  8
レイヤ0
370
               5
390
0
  6
Continuous
 62
               7
100
AcDbLine
 10
190.36115594786909
 20
147.5960631304537
 30
0.0
 11
193.96308646753141
 21
151.1979936501148
 31
0.0
  0
LINE
  5
2BB
100
AcDbEntity
  8
レイヤ0
370
               5
390
0
  6
Continuous
 62
               7
100
AcDbLine
 10
168.4630864675315
 20
163.15384195574711
 30
0.0
 11
171.00695721133309
 21
165.6977126995495
 31
0.0
  0
LINE
  5
2BC
100
AcDbEntity
  8
レイヤ0
370
               5
390
0
  6
Continuous
 62
               7
100
AcDbLine
 10
168.46308646753141
 20
160.32541483100059
 30
0.0
 11
170.96308646753141
 21
162.82541483100059
 31
0.0
  0
LINE
  5
2BD
100
AcDbEntity
  8
レイヤ0
370
               5
390
0
  6
Continuous
 62
               7
100
AcDbLine
 10
168.4630864675313
 20
157.4969877062544
 30
0.0
 11
170.96308646753141
 21
159.9969877062554
 31
0.0
  0
LINE
  5
2BE
100
AcDbEntity
  8
レイヤ0
370
               5
390
0
  6
Continuous
 62
               7
100
AcDbLine
 10
168.46308646753121
 20
154.66856058150381
 30
0.0
 11
170.98791613693669
 21
157.19339025091099
 31
0.0
  0
LINE
  5
2BF
100
AcDbEntity
  8
レイヤ0
370
               5
390
0
  6
Continuous
 62
               7
100
AcDbLine
 10
197.52675732031409
 20
182.35485022672131
 30
0.0
 11
201.77675608311591
 21
186.6048489895224
 31
0.0
  0
LINE
  5
2C0
100
AcDbEntity
  8
レイヤ0
370
               5
390
0
  6
Continuous
 62
               7
100
AcDbLine
 10
189.2130864675309
 20
192.60485022671321
 30
0.0
 11
189.21308646753221
 21
189.60484898952251
 31
0.0
  0
LINE
  5
2C1
100
AcDbEntity
  8
レイヤ0
370
               5
390
0
  6
Continuous
 62
               7
100
AcDbLine
 10
189.36227849750821
 20
188.33250702764789
 30
0.0
 11
191.7130864675305
 21
190.6833149976672
 31
0.0
  0
LINE
  5
2C2
100
AcDbEntity
  8
レイヤ0
370
               5
390
0
  6
Continuous
 62
               7
100
AcDbLine
 10
189.21308646753059
 20
191.0117421224129
 30
0.0
 11
191.7130864675307
 21
193.51174212241361
 31
0.0
  0
LINE
  5
2C3
100
AcDbEntity
  8
レイヤ0
370
               5
390
0
  6
Continuous
 62
               7
100
AcDbLine
 10
171.29693858005439
 20
153.60484937246429
 30
0.0
 11
172.3861598421577
 21
155.4148464008299
 31
0.0
  0
LINE
  5
2C4
100
AcDbEntity
  8
レイヤ0
370
               5
390
0
  6
Continuous
 62
               7
100
AcDbLine
 10
171.29693858005439
 20
153.60484937246429
 30
0.0
 11
191.26592506182769
 21
153.60484937246429
 31
0.0
  0
LINE
  5
2C5
100
AcDbEntity
  8
レイヤ0
370
               5
390
0
  6
Continuous
 62
               7
100
AcDbLine
 10
191.77575060261341
 20
139.6048478996081
 30
0.0
 11
190.573512792206
 21
140.76484667183539
 31
0.0
  0
LINE
  5
2C6
100
AcDbEntity
  8
レイヤ0
370
               5
390
0
  6
Continuous
 62
               7
100
AcDbLine
 10
170.67972658141289
 20
140.76484667183539
 30
0.0
 11
191.7335079641031
 21
140.7648466718355
 31
0.0
  0
LINE
  5
2C7
100
AcDbEntity
  8
レイヤ0
370
               5
390
0
  6
Continuous
 62
               7
100
AcDbLine
 10
191.77575060261341
 20
139.6048478996081
 30
0.0
 11
191.26592506182769
 21
153.60484937246429
 31
0.0
  0
LINE
  5
2C8
100
AcDbEntity
  8
レイヤ0
370
               5
390
0
  6
Continuous
 62
               7
100
AcDbLine
 10
170.6239667061262
 20
139.6048612035618
 30
0.0
 11
171.29693858005439
 21
153.60484937246429
 31
0.0
  0
LINE
  5
2C9
100
AcDbEntity
  8
レイヤ0
370
               5
390
0
  6
Continuous
 62
               7
100
AcDbLine
 10
171.852660142856
 20
140.76484667183539
 30
0.0
 11
170.6239667061262
 21
139.6048612035618
 31
0.0
  0
LINE
  5
2CA
100
AcDbEntity
  8
レイヤ0
370
               5
390
0
  6
Continuous
 62
               7
100
AcDbLine
 10
185.23468384005
 20
139.6048478996081
 30
0.0
 11
192.71308375747489
 21
139.6048478996085
 31
0.0
  0
LINE
  5
2CB
100
AcDbEntity
  8
レイヤ0
370
               5
390
0
  6
Continuous
 62
               7
100
AcDbLine
 10
169.71308917759029
 20
139.6048478996081
 30
0.0
 11
185.23468384005
 21
139.6048478996081
 31
0.0
  0
LINE
  5
2CC
100
AcDbEntity
  8
レイヤ0
370
               5
390
0
  6
Continuous
 62
               7
100
AcDbLine
 10
190.4605401744746
 20
144.8670202323114
 30
0.0
 11
193.96308646753101
 21
148.3695665253685
 31
0.0
  0
LINE
  5
2CD
100
AcDbEntity
  8
レイヤ0
370
               5
390
0
  6
Continuous
 62
               7
100
AcDbLine
 10
168.46308646753141
 20
165.76238459321411
 30
0.0
 11
168.4630864675311
 21
148.35484518955579
 31
0.0
  0
LINE
  5
2CE
100
AcDbEntity
  8
レイヤ0
370
               5
390
0
  6
Continuous
 62
               7
100
AcDbLine
 10
168.46308646753101
 20
149.01170633201329
 30
0.0
 11
172.25463732452221
 21
152.80325718900511
 31
0.0
  0
LINE
  5
2CF
100
AcDbEntity
  8
レイヤ0
370
               5
390
0
  6
Continuous
 62
               7
100
AcDbLine
 10
168.62729929348001
 20
140.6906377837181
 30
0.0
 11
171.93395750781369
 21
143.9972959980567
 31
0.0
  0
LINE
  5
2D0
100
AcDbEntity
  8
レイヤ0
370
               5
390
0
  6
Continuous
 62
               7
100
AcDbLine
 10
193.51308941324211
 20
182.35485022672111
 30
0.0
 11
208.51309128671599
 21
182.35485022672131
 31
0.0
  0
LINE
  5
2D1
100
AcDbEntity
  8
レイヤ0
370
               5
390
0
  6
Continuous
 62
               7
100
AcDbLine
 10
192.8130894132436
 20
184.10485022672131
 30
0.0
 11
208.51309128671599
 21
184.1048502267212
 31
0.0
  0
LINE
  5
2D2
100
AcDbEntity
  8
レイヤ0
370
               5
390
0
  6
Continuous
 62
               7
100
AcDbLine
 10
193.5130894132445
 20
166.85485022672131
 30
0.0
 11
208.51309128671599
 21
166.85485022672131
 31
0.0
  0
LINE
  5
2D3
100
AcDbEntity
  8
レイヤ0
370
               5
390
0
  6
Continuous
 62
               7
100
AcDbLine
 10
192.81308941324451
 20
165.10485022672151
 30
0.0
 11
208.5130912867161
 21
165.10485022672111
 31
0.0
  0
LINE
  5
2D4
100
AcDbEntity
  8
レイヤ0
370
               5
390
0
  6
Continuous
 62
               7
100
AcDbLine
 10
193.51308941324211
 20
182.35485022672111
 30
0.0
 11
192.7130894132431
 21
184.35485022672111
 31
0.0
  0
LINE
  5
2D5
100
AcDbEntity
  8
レイヤ0
370
               5
390
0
  6
Continuous
 62
               7
100
AcDbLine
 10
170.96308646753121
 20
165.96277046211819
 30
0.0
 11
170.96308646753201
 21
155.4048502267207
 31
0.0
  0
LINE
  5
2D6
100
AcDbEntity
  8
レイヤ0
370
               5
390
0
  6
Continuous
 62
               7
100
AcDbLine
 10
172.3631339775246
 20
154.782606888945
 30
0.0
 11
170.96308646753201
 21
155.4048502267207
 31
0.0
  0
LINE
  5
2D7
100
AcDbEntity
  8
レイヤ0
370
               5
390
0
  6
Continuous
 62
               7
100
AcDbLine
 10
171.852660142856
 20
140.76484667183539
 30
0.0
 11
172.3631339775246
 21
154.782606888945
 31
0.0
  0
LINE
  5
2D8
100
AcDbEntity
  8
レイヤ0
370
               5
390
0
  6
Continuous
 62
               7
100
AcDbLine
 10
190.06302479897079
 20
154.7826005962491
 30
0.0
 11
190.573512792206
 21
140.76484667183539
 31
0.0
  0
LINE
  5
2D9
100
AcDbEntity
  8
レイヤ0
370
               5
390
0
  6
Continuous
 62
               7
100
AcDbLine
 10
172.38615984215451
 20
155.4148464008295
 30
0.0
 11
190.04000014796409
 21
155.4148464008299
 31
0.0
  0
LINE
  5
2DA
100
AcDbEntity
  8
レイヤ0
370
               5
390
0
  6
Continuous
 62
               7
100
AcDbLine
 10
168.46308646753121
 20
151.84013345676081
 30
0.0
 11
171.70019807750461
 21
155.0772450667348
 31
0.0
  0
LINE
  5
2DB
100
AcDbEntity
  8
レイヤ0
370
               5
390
0
  6
Continuous
 62
               7
100
AcDbLine
 10
191.26592506182769
 20
153.60484937246429
 30
0.0
 11
190.04001309290479
 21
155.41484640082999
 31
0.0
  0
LINE
  5
2DC
100
AcDbEntity
  8
レイヤ0
370
               5
390
0
  6
Continuous
 62
               7
100
AcDbLine
 10
193.96308646753101
 20
148.35484518955431
 30
0.0
 11
194.2130864675313
 21
148.10484518954891
 31
0.0
  0
LINE
  5
2DD
100
AcDbEntity
  8
レイヤ0
370
               5
390
0
  6
Continuous
 62
               7
100
AcDbLine
 10
194.21308646753141
 20
141.1048506096644
 30
0.0
 11
194.2130864675313
 21
148.10484518954891
 31
0.0
  0
LINE
  5
2DE
100
AcDbEntity
  8
レイヤ0
370
               5
390
0
  6
Continuous
 62
               7
100
AcDbLine
 10
192.71308375747489
 20
139.6048478996085
 30
0.0
 11
194.21308646753141
 21
141.1048506096644
 31
0.0
  0
LINE
  5
2DF
100
AcDbEntity
  8
レイヤ0
370
               5
390
0
  6
Continuous
 62
               7
100
AcDbLine
 10
168.4630864675311
 20
148.35484518955619
 30
0.0
 11
168.21308646753189
 21
148.10484518955531
 31
0.0
  0
LINE
  5
2E0
100
AcDbEntity
  8
レイヤ0
370
               5
390
0
  6
Continuous
 62
               7
100
AcDbLine
 10
168.21308646753189
 20
141.10485060966559
 30
0.0
 11
168.21308646753189
 21
148.10484518955531
 31
0.0
  0
LINE
  5
2E1
100
AcDbEntity
  8
レイヤ0
370
               5
390
0
  6
Continuous
 62
               7
100
AcDbLine
 10
169.71308917759029
 20
139.6048478996081
 30
0.0
 11
168.21308646753189
 21
141.10485060966559
 31
0.0
  0
LINE
  5
2E2
100
AcDbEntity
  8
レイヤ0
370
               5
390
0
  6
Continuous
 62
               7
100
AcDbLine
 10
168.21308646753229
 20
145.93327920726799
 30
0.0
 11
172.14774405228599
 21
149.86793679202259
 31
0.0
  0
LINE
  5
2E3
100
AcDbEntity
  8
レイヤ0
370
               5
390
0
  6
Continuous
 62
               7
100
AcDbLine
 10
168.21308646753229
 20
143.10485208252251
 30
0.0
 11
172.04085078004979
 21
146.93261639504021
 31
0.0
  0
LINE
  5
2E4
100
AcDbEntity
  8
レイヤ0
370
               5
390
0
  6
Continuous
 62
               7
100
AcDbLine
 10
190.55992440108
 20
142.1379773341709
 30
0.0
 11
194.2130864675313
 21
145.79113940062331
 31
0.0
  0
LINE
  5
2E5
100
AcDbEntity
  8
レイヤ0
370
               5
390
0
  6
Continuous
 62
               7
100
AcDbLine
 10
191.85522209126549
 20
140.6048478996089
 30
0.0
 11
194.2130864675313
 21
142.96271227587511
 31
0.0
  0
LINE
  5
2E6
100
AcDbEntity
  8
レイヤ0
370
               5
390
0
  6
Continuous
 62
               7
100
AcDbLine
 10
209.71309128671581
 20
163.41785022672121
 30
0.0
 11
208.90009128671579
 21
162.60485022672131
 31
0.0
  0
LINE
  5
2E7
100
AcDbEntity
  8
レイヤ0
370
               5
390
0
  6
Continuous
 62
               7
100
AcDbLine
 10
209.7130912867157
 20
163.41785022672121
 30
0.0
 11
203.71309128671581
 21
163.41785022672121
 31
0.0
  0
LINE
  5
2E8
100
AcDbEntity
  8
レイヤ0
370
               5
390
0
  6
Continuous
 62
               7
100
AcDbLine
 10
209.71309128671589
 20
184.35485022672111
 30
0.0
 11
208.51309128671579
 21
184.35485022672131
 31
0.0
  0
LINE
  5
2E9
100
AcDbEntity
  8
レイヤ0
370
               5
390
0
  6
Continuous
 62
               7
100
AcDbLine
 10
209.71309128671581
 20
164.85485022672131
 30
0.0
 11
208.51309128671599
 21
164.8548502267212
 31
0.0
  0
LINE
  5
2EA
100
AcDbEntity
  8
レイヤ0
370
               5
390
0
  6
Continuous
 62
               7
100
AcDbLine
 10
209.71309128671609
 20
164.8548502267212
 30
0.0
 11
208.51309128671619
 21
164.8548502267212
 31
0.0
  0
LINE
  5
2EB
100
AcDbEntity
  8
レイヤ0
370
               5
390
0
  6
Continuous
 62
               7
100
AcDbLine
 10
239.01032161030349
 20
172.72483338431729
 30
0.0
 11
240.01033728149221
 21
172.22483173471849
 31
0.0
  0
LINE
  5
2EC
100
AcDbEntity
  8
レイヤ0
370
               5
390
0
  6
Continuous
 62
               7
100
AcDbLine
 10
228.01032243510289
 20
172.72483338431729
 30
0.0
 11
228.51033645669281
 21
172.22483173471849
 31
0.0
  0
LINE
  5
2ED
100
AcDbEntity
  8
レイヤ0
370
               5
390
0
  6
Continuous
 62
               7
100
AcDbLine
 10
228.01032243510289
 20
172.72483338431729
 30
0.0
 11
239.01032161030349
 21
172.72483338431729
 31
0.0
  0
LINE
  5
2EE
100
AcDbEntity
  8
レイヤ0
370
               5
390
0
  6
Continuous
 62
               7
100
AcDbLine
 10
239.01032161030349
 20
172.22483173471849
 30
0.0
 11
239.01032161030349
 21
172.72483338431729
 31
0.0
  0
LINE
  5
2EF
100
AcDbEntity
  8
レイヤ0
370
               5
390
0
  6
Continuous
 62
               7
100
AcDbLine
 10
228.51033645669281
 20
172.72483338431729
 30
0.0
 11
228.51033645669281
 21
172.22483173471849
 31
0.0
  0
LINE
  5
2F0
100
AcDbEntity
  8
レイヤ0
370
               5
390
0
  6
Continuous
 62
               7
100
AcDbLine
 10
242.83038419608249
 20
174.6048502267212
 30
0.0
 11
242.65680516050401
 21
174.25482185362159
 31
0.0
  0
LINE
  5
2F1
100
AcDbEntity
  8
レイヤ0
370
               5
390
0
  6
Continuous
 62
               7
100
AcDbLine
 10
238.40421776475861
 20
149.8662435933544
 30
0.0
 11
239.43416128249521
 21
159.7716555971551
 31
0.0
  0
LINE
  5
2F2
100
AcDbEntity
  8
レイヤ0
370
               5
390
0
  6
Continuous
 62
               7
100
AcDbLine
 10
238.68992415596429
 20
187.72081867319511
 30
0.0
 11
239.5131069579069
 21
183.60484280352651
 31
0.0
  0
LINE
  5
2F3
100
AcDbEntity
  8
レイヤ0
370
               5
390
0
  6
Continuous
 62
               7
100
AcDbLine
 10
236.9122793541801
 20
150.02138836214669
 30
0.0
 11
237.9421857559432
 21
159.92680036594729
 31
0.0
  0
LINE
  5
2F4
100
AcDbEntity
  8
レイヤ0
370
               5
390
0
  6
Continuous
 62
               7
100
AcDbLine
 10
229.01312180429619
 20
146.12428538759019
 30
0.0
 11
233.98917375346221
 21
146.92811839540261
 31
0.0
  0
LINE
  5
2F5
100
AcDbEntity
  8
レイヤ0
370
               5
390
0
  6
Continuous
 62
               7
100
AcDbLine
 10
238.39173442570669
 20
166.1513718001745
 30
0.0
 11
238.3439909119293
 21
165.15176440469321
 31
0.0
  0
LINE
  5
2F6
100
AcDbEntity
  8
レイヤ0
370
               5
390
0
  6
Continuous
 62
               7
100
AcDbLine
 10
238.52884083142891
 20
170.60484321592631
 30
0.0
 11
240.02896950013661
 21
170.60484321592631
 31
0.0
  0
LINE
  5
2F7
100
AcDbEntity
  8
レイヤ0
370
               5
390
0
  6
Continuous
 62
               7
100
AcDbLine
 10
232.17698635243809
 20
146.63539708522521
 30
0.0
 11
233.48510171878101
 21
145.3272569749
 31
0.0
  0
LINE
  5
2F8
100
AcDbEntity
  8
レイヤ0
370
               5
390
0
  6
Continuous
 62
               7
100
AcDbLine
 10
233.3945016277232
 20
146.83206225625571
 30
0.0
 11
234.68378682356351
 21
145.5428018043975
 31
0.0
  0
LINE
  5
2F9
100
AcDbEntity
  8
レイヤ0
370
               5
390
0
  6
Continuous
 62
               7
100
AcDbLine
 10
234.5677499187388
 20
147.07306864350221
 30
0.0
 11
235.7086207089626
 21
145.9321978532785
 31
0.0
  0
LINE
  5
2FA
100
AcDbEntity
  8
レイヤ0
370
               5
390
0
  6
Continuous
 62
               7
100
AcDbLine
 10
235.49693594069831
 20
147.55810018383161
 30
0.0
 11
236.56645745806529
 21
146.48859103845581
 31
0.0
  0
LINE
  5
2FB
100
AcDbEntity
  8
レイヤ0
370
               5
390
0
  6
Continuous
 62
               7
100
AcDbLine
 10
236.21160400842419
 20
148.25766205038559
 30
0.0
 11
237.2788119634495
 21
147.19045409536031
 31
0.0
  0
LINE
  5
2FC
100
AcDbEntity
  8
レイヤ0
370
               5
390
0
  6
Continuous
 62
               7
100
AcDbLine
 10
236.71385736040901
 20
149.1696015167075
 30
0.0
 11
237.84636468462779
 21
148.03709419248881
 31
0.0
  0
LINE
  5
2FD
100
AcDbEntity
  8
レイヤ0
370
               5
390
0
  6
Continuous
 62
               7
100
AcDbLine
 10
236.94657451359731
 20
150.351101925808
 30
0.0
 11
238.24946889968271
 21
149.04820753972271
 31
0.0
  0
LINE
  5
2FE
100
AcDbEntity
  8
レイヤ0
370
               5
390
0
  6
Continuous
 62
               7
100
AcDbLine
 10
237.0797589981307
 20
151.63212263157229
 30
0.0
 11
238.4458000269525
 21
150.26610634673281
 31
0.0
  0
LINE
  5
2FF
100
AcDbEntity
  8
レイヤ0
370
               5
390
0
  6
Continuous
 62
               7
100
AcDbLine
 10
237.21295585465521
 20
152.91316808131899
 30
0.0
 11
238.5789845114858
 21
151.54710230851489
 31
0.0
  0
LINE
  5
300
100
AcDbEntity
  8
レイヤ0
370
               5
390
0
  6
Continuous
 62
               7
100
AcDbLine
 10
237.34615271117971
 20
154.1941640431011
 30
0.0
 11
238.71221848398369
 21
152.8281230142793
 31
0.0
  0
LINE
  5
301
100
AcDbEntity
  8
レイヤ0
370
               5
390
0
  6
Continuous
 62
               7
100
AcDbLine
 10
237.4793371957131
 20
155.47516000488321
 30
0.0
 11
238.84540296851711
 21
154.1091437200437
 31
0.0
  0
LINE
  5
302
100
AcDbEntity
  8
レイヤ0
370
               5
390
0
  6
Continuous
 62
               7
100
AcDbLine
 10
237.61253405223749
 20
156.75620545462979
 30
0.0
 11
238.97859982504161
 21
155.39013968182579
 31
0.0
  0
LINE
  5
303
100
AcDbEntity
  8
レイヤ0
370
               5
390
0
  6
Continuous
 62
               7
100
AcDbLine
 10
237.74571853677091
 20
158.0372014164119
 30
0.0
 11
239.11178430957489
 21
156.67116038759011
 31
0.0
  0
LINE
  5
304
100
AcDbEntity
  8
レイヤ0
370
               5
390
0
  6
Continuous
 62
               7
100
AcDbLine
 10
237.88079593594739
 20
159.31636632350649
 30
0.0
 11
239.24498116609939
 21
157.9521810933544
 31
0.0
  0
LINE
  5
305
100
AcDbEntity
  8
レイヤ0
370
               5
390
0
  6
Continuous
 62
               7
100
AcDbLine
 10
238.00677992164211
 20
160.60458752810951
 30
0.0
 11
239.37816565063289
 21
159.2332017991188
 31
0.0
  0
LINE
  5
306
100
AcDbEntity
  8
レイヤ0
370
               5
390
0
  6
Continuous
 62
               7
100
AcDbLine
 10
238.12030531226711
 20
161.90527969977339
 30
0.0
 11
239.5053744634495
 21
160.520210548591
 31
0.0
  0
LINE
  5
307
100
AcDbEntity
  8
レイヤ0
370
               5
390
0
  6
Continuous
 62
               7
100
AcDbLine
 10
238.22106280804411
 20
163.21873976628521
 30
0.0
 11
239.61844209040271
 21
161.82132336795331
 31
0.0
  0
LINE
  5
308
100
AcDbEntity
  8
レイヤ0
370
               5
390
0
  6
Continuous
 62
               7
100
AcDbLine
 10
238.30865650525701
 20
164.5453388873789
 30
0.0
 11
239.71887791441031
 21
163.13510510623451
 31
0.0
  0
LINE
  5
309
100
AcDbEntity
  8
レイヤ0
370
               5
390
0
  6
Continuous
 62
               7
100
AcDbLine
 10
238.37920159869029
 20
165.88901135623451
 30
0.0
 11
239.80637263569409
 21
164.46185269122179
 31
0.0
  0
LINE
  5
30A
100
AcDbEntity
  8
レイヤ0
370
               5
390
0
  6
Continuous
 62
               7
100
AcDbLine
 10
237.24183208195669
 20
169.8548531135192
 30
0.0
 11
239.9408561792963
 21
167.15580427219729
 31
0.0
  0
LINE
  5
30B
100
AcDbEntity
  8
レイヤ0
370
               5
390
0
  6
Continuous
 62
               7
100
AcDbLine
 10
235.82757740369451
 20
169.8548531135192
 30
0.0
 11
239.8804932345644
 21
165.80193728264919
 31
0.0
  0
LINE
  5
30C
100
AcDbEntity
  8
レイヤ0
370
               5
390
0
  6
Continuous
 62
               7
100
AcDbLine
 10
234.4133474694145
 20
169.8548531135192
 30
0.0
 11
237.05135290649221
 21
167.21682293245919
 31
0.0
  0
LINE
  5
30D
100
AcDbEntity
  8
レイヤ0
370
               5
390
0
  6
Continuous
 62
               7
100
AcDbLine
 10
232.99912990712571
 20
169.8548531135192
 30
0.0
 11
235.56504375187859
 21
167.28895164075729
 31
0.0
  0
LINE
  5
30E
100
AcDbEntity
  8
レイヤ0
370
               5
390
0
  6
Continuous
 62
               7
100
AcDbLine
 10
231.58497420479239
 20
169.8548531135192
 30
0.0
 11
234.07872222527391
 21
167.36105560507309
 31
0.0
  0
LINE
  5
30F
100
AcDbEntity
  8
レイヤ0
370
               5
390
0
  6
Continuous
 62
               7
100
AcDbLine
 10
230.170694782548
 20
169.8548531135192
 30
0.0
 11
232.59238832667799
 21
167.43315956938909
 31
0.0
  0
LINE
  5
310
100
AcDbEntity
  8
レイヤ0
370
               5
390
0
  6
Continuous
 62
               7
100
AcDbLine
 10
229.0131218042963
 20
169.59823327346419
 30
0.0
 11
231.10604205609101
 21
167.50528827768721
 31
0.0
  0
LINE
  5
311
100
AcDbEntity
  8
レイヤ0
370
               5
390
0
  6
Continuous
 62
               7
100
AcDbLine
 10
230.44042893320261
 20
167.53757917454109
 30
0.0
 11
237.4413304389563
 21
167.19791853000979
 31
0.0
  0
LINE
  5
312
100
AcDbEntity
  8
レイヤ0
370
               5
390
0
  6
Continuous
 62
               7
100
AcDbLine
 10
229.59529821899221
 20
192.50781422587659
 30
0.0
 11
234.60904762513661
 21
191.67218520085549
 31
0.0
  0
LINE
  5
313
100
AcDbEntity
  8
レイヤ0
370
               5
390
0
  6
Continuous
 62
               7
100
AcDbLine
 10
238.51309128671821
 20
170.91550391324461
 30
0.0
 11
237.45242811500151
 21
169.8548531135192
 31
0.0
  0
LINE
  5
314
100
AcDbEntity
  8
レイヤ0
370
               5
390
0
  6
Continuous
 62
               7
100
AcDbLine
 10
193.513078914727
 20
171.95485014424131
 30
0.0
 11
210.51308551312229
 21
171.95485014424131
 31
0.0
  0
LINE
  5
315
100
AcDbEntity
  8
レイヤ0
370
               5
390
0
  6
Continuous
 62
               7
100
AcDbLine
 10
210.51308551312229
 20
171.95485014424131
 30
0.0
 11
212.51309211151761
 21
174.6048502267212
 31
0.0
  0
LINE
  5
316
100
AcDbEntity
  8
レイヤ0
370
               5
390
0
  6
Continuous
 62
               7
100
AcDbLine
 10
210.51308551312229
 20
174.6048502267212
 30
0.0
 11
210.51308551312229
 21
171.95485014424131
 31
0.0
  0
LINE
  5
317
100
AcDbEntity
  8
レイヤ0
370
               5
390
0
  6
Continuous
 62
               7
100
AcDbLine
 10
237.45242811500151
 20
169.8548531135192
 30
0.0
 11
231.5131053083081
 21
169.8548531135192
 31
0.0
  0
LINE
  5
318
100
AcDbEntity
  8
レイヤ0
370
               5
390
0
  6
Continuous
 62
               7
100
AcDbLine
 10
231.5131053083081
 20
170.10484156632751
 30
0.0
 11
231.5131053083081
 21
169.8548531135192
 31
0.0
  0
LINE
  5
319
100
AcDbEntity
  8
レイヤ0
370
               5
390
0
  6
Continuous
 62
               7
100
AcDbLine
 10
230.51311438110159
 20
170.10484156632751
 30
0.0
 11
230.51311438110159
 21
169.8548531135192
 31
0.0
  0
LINE
  5
31A
100
AcDbEntity
  8
レイヤ0
370
               5
390
0
  6
Continuous
 62
               7
100
AcDbLine
 10
229.0131218042963
 20
179.10484032912831
 30
0.0
 11
229.0131218042963
 21
179.35485352591891
 31
0.0
  0
LINE
  5
31B
100
AcDbEntity
  8
レイヤ0
370
               5
390
0
  6
Continuous
 62
               7
100
AcDbLine
 10
229.0131218042963
 20
179.10484032912831
 30
0.0
 11
229.0131218042963
 21
174.6048502267212
 31
0.0
  0
LINE
  5
31C
100
AcDbEntity
  8
レイヤ0
370
               5
390
0
  6
Continuous
 62
               7
100
AcDbLine
 10
223.51309128671821
 20
172.22485647870079
 30
0.0
 11
223.51309128671821
 21
174.6048502267212
 31
0.0
  0
LINE
  5
31D
100
AcDbEntity
  8
レイヤ0
370
               5
390
0
  6
Continuous
 62
               7
100
AcDbLine
 10
194.22018769587149
 20
179.35485352591891
 30
0.0
 11
198.513070666733
 21
179.35485352591891
 31
0.0
  0
LINE
  5
31E
100
AcDbEntity
  8
レイヤ0
370
               5
390
0
  6
Continuous
 62
               7
100
AcDbLine
 10
194.22018769587149
 20
179.35485352591891
 30
0.0
 11
193.513078914727
 21
178.6477447447744
 31
0.0
  0
LINE
  5
31F
100
AcDbEntity
  8
レイヤ0
370
               5
390
0
  6
Continuous
 62
               7
100
AcDbLine
 10
194.22018769587149
 20
169.8548531135192
 30
0.0
 11
198.513070666733
 21
169.8548531135192
 31
0.0
  0
LINE
  5
320
100
AcDbEntity
  8
レイヤ0
370
               5
390
0
  6
Continuous
 62
               7
100
AcDbLine
 10
193.513078914727
 20
170.5619618946636
 30
0.0
 11
194.22018769587149
 21
169.8548531135192
 31
0.0
  0
LINE
  5
321
100
AcDbEntity
  8
レイヤ0
370
               5
390
0
  6
Continuous
 62
               7
100
AcDbLine
 10
240.01033728149221
 20
176.98482541675509
 30
0.0
 11
239.94352852938081
 21
176.98482541675509
 31
0.0
  0
LINE
  5
322
100
AcDbEntity
  8
レイヤ0
370
               5
390
0
  6
Continuous
 62
               7
100
AcDbLine
 10
228.01032243510289
 20
174.6048502267212
 30
0.0
 11
228.01032243510289
 21
172.72483338431729
 31
0.0
  0
LINE
  5
323
100
AcDbEntity
  8
レイヤ0
370
               5
390
0
  6
Continuous
 62
               7
100
AcDbLine
 10
230.51311438110159
 20
170.10484156632751
 30
0.0
 11
231.5131053083081
 21
170.10484156632751
 31
0.0
  0
LINE
  5
324
100
AcDbEntity
  8
レイヤ0
370
               5
390
0
  6
Continuous
 62
               7
100
AcDbLine
 10
223.51309128671821
 20
172.22485647870079
 30
0.0
 11
221.51308468832289
 21
174.6048502267212
 31
0.0
  0
LINE
  5
325
100
AcDbEntity
  8
レイヤ0
370
               5
390
0
  6
Continuous
 62
               7
100
AcDbLine
 10
229.0131218042963
 20
192.01461717140029
 30
0.0
 11
229.0131218042963
 21
174.6048502267212
 31
0.0
  0
LINE
  5
326
100
AcDbEntity
  8
レイヤ0
370
               5
390
0
  6
Continuous
 62
               7
100
AcDbLine
 10
238.51309128671821
 20
170.91550391324461
 30
0.0
 11
238.51309128671821
 21
172.22483173471849
 31
0.0
  0
LINE
  5
327
100
AcDbEntity
  8
レイヤ0
370
               5
390
0
  6
Continuous
 62
               7
100
AcDbLine
 10
208.51309128671821
 20
169.8548531135192
 30
0.0
 11
208.51309128671821
 21
165.10484981432151
 31
0.0
  0
LINE
  5
328
100
AcDbEntity
  8
レイヤ0
370
               5
390
0
  6
Continuous
 62
               7
100
AcDbLine
 10
230.51311438110159
 20
169.8548531135192
 30
0.0
 11
214.67061890100231
 21
169.8548531135192
 31
0.0
  0
LINE
  5
329
100
AcDbEntity
  8
レイヤ0
370
               5
390
0
  6
Continuous
 62
               7
100
AcDbLine
 10
214.67061890100231
 20
169.8548531135192
 30
0.0
 11
208.51309128671821
 21
169.8548531135192
 31
0.0
  0
LINE
  5
32A
100
AcDbEntity
  8
レイヤ0
370
               5
390
0
  6
Continuous
 62
               7
100
AcDbLine
 10
239.32027710412731
 20
170.60484321592631
 30
0.0
 11
240.0187254914795
 21
169.9063700845918
 31
0.0
  0
LINE
  5
32B
100
AcDbEntity
  8
レイヤ0
370
               5
390
0
  6
Continuous
 62
               7
100
AcDbLine
 10
238.51994536980521
 20
169.99094501596849
 30
0.0
 11
239.98709031015571
 21
168.52380007561791
 31
0.0
  0
LINE
  5
32C
100
AcDbEntity
  8
レイヤ0
370
               5
390
0
  6
Continuous
 62
               7
100
AcDbLine
 10
240.01033728149221
 20
174.7414122648336
 30
0.0
 11
240.01033728149221
 21
174.6048502267212
 31
0.0
  0
LINE
  5
32D
100
AcDbEntity
  8
レイヤ0
370
               5
390
0
  6
Continuous
 62
               7
100
AcDbLine
 10
228.01032243510289
 20
173.77427516007751
 30
0.0
 11
229.55976586046179
 21
172.22483173471849
 31
0.0
  0
LINE
  5
32E
100
AcDbEntity
  8
レイヤ0
370
               5
390
0
  6
Continuous
 62
               7
100
AcDbLine
 10
228.59397111674349
 20
174.6048502267212
 30
0.0
 11
230.9739957947418
 21
172.22483173471849
 31
0.0
  0
LINE
  5
32F
100
AcDbEntity
  8
レイヤ0
370
               5
390
0
  6
Continuous
 62
               7
100
AcDbLine
 10
230.00818867903229
 20
174.6048502267212
 30
0.0
 11
232.38818861304841
 21
172.22483173471849
 31
0.0
  0
LINE
  5
330
100
AcDbEntity
  8
レイヤ0
370
               5
390
0
  6
Continuous
 62
               7
100
AcDbLine
 10
231.42239386933011
 20
174.6048502267212
 30
0.0
 11
233.80240617533721
 21
172.22483173471849
 31
0.0
  0
LINE
  5
331
100
AcDbEntity
  8
レイヤ0
370
               5
390
0
  6
Continuous
 62
               7
100
AcDbLine
 10
232.83659905962779
 20
174.6048502267212
 30
0.0
 11
235.21661136563489
 21
172.22483173471849
 31
0.0
  0
LINE
  5
332
100
AcDbEntity
  8
レイヤ0
370
               5
390
0
  6
Continuous
 62
               7
100
AcDbLine
 10
234.25081662191661
 20
174.6048502267212
 30
0.0
 11
236.6308289279238
 21
172.22483173471849
 31
0.0
  0
LINE
  5
333
100
AcDbEntity
  8
レイヤ0
370
               5
390
0
  6
Continuous
 62
               7
100
AcDbLine
 10
235.6650341842055
 20
174.6048502267212
 30
0.0
 11
238.04507123419489
 21
172.22483173471849
 31
0.0
  0
LINE
  5
334
100
AcDbEntity
  8
レイヤ0
370
               5
390
0
  6
Continuous
 62
               7
100
AcDbLine
 10
237.0792393745032
 20
174.6048502267212
 30
0.0
 11
239.45927642449271
 21
172.22483173471849
 31
0.0
  0
LINE
  5
335
100
AcDbEntity
  8
レイヤ0
370
               5
390
0
  6
Continuous
 62
               7
100
AcDbLine
 10
238.49348168077429
 20
174.6048502267212
 30
0.0
 11
242.65680516050401
 21
170.44150818900479
 31
0.0
  0
LINE
  5
336
100
AcDbEntity
  8
レイヤ0
370
               5
390
0
  6
Continuous
 62
               7
100
AcDbLine
 10
239.90766212708971
 20
174.6048502267212
 30
0.0
 11
242.65680516050401
 21
171.85570100731141
 31
0.0
  0
LINE
  5
337
100
AcDbEntity
  8
レイヤ0
370
               5
390
0
  6
Continuous
 62
               7
100
AcDbLine
 10
241.32187968937859
 20
174.6048502267212
 30
0.0
 11
242.65680516050401
 21
173.26991856960029
 31
0.0
  0
LINE
  5
338
100
AcDbEntity
  8
レイヤ0
370
               5
390
0
  6
Continuous
 62
               7
100
AcDbLine
 10
228.51033645669281
 20
172.22483173471849
 30
0.0
 11
240.03781547379589
 21
172.22483173471849
 31
0.0
  0
LINE
  5
339
100
AcDbEntity
  8
レイヤ0
370
               5
390
0
  6
Continuous
 62
               7
100
AcDbLine
 10
238.51309128671821
 20
172.22483173471849
 30
0.0
 11
238.0096873395581
 21
172.73958079774641
 31
0.0
  0
LINE
  5
33A
100
AcDbEntity
  8
レイヤ0
370
               5
390
0
  6
Continuous
 62
               7
100
AcDbLine
 10
236.57807475773799
 20
169.8548531135192
 30
0.0
 11
238.51309128671821
 21
171.7898820144905
 31
0.0
  0
LINE
  5
33B
100
AcDbEntity
  8
レイヤ0
370
               5
390
0
  6
Continuous
 62
               7
100
AcDbLine
 10
235.16385719544911
 20
169.8548531135192
 30
0.0
 11
238.02891341377679
 21
172.71990933184679
 31
0.0
  0
LINE
  5
33C
100
AcDbEntity
  8
レイヤ0
370
               5
390
0
  6
Continuous
 62
               7
100
AcDbLine
 10
233.74963963316031
 20
169.8548531135192
 30
0.0
 11
236.6196322759495
 21
172.72483338431729
 31
0.0
  0
LINE
  5
33D
100
AcDbEntity
  8
レイヤ0
370
               5
390
0
  6
Continuous
 62
               7
100
AcDbLine
 10
232.33540969888031
 20
169.8548531135192
 30
0.0
 11
235.2054147136607
 21
172.72483338431729
 31
0.0
  0
LINE
  5
33E
100
AcDbEntity
  8
レイヤ0
370
               5
390
0
  6
Continuous
 62
               7
100
AcDbLine
 10
231.17119296139089
 20
170.10484156632751
 30
0.0
 11
233.79119715137179
 21
172.72483338431729
 31
0.0
  0
LINE
  5
33F
100
AcDbEntity
  8
レイヤ0
370
               5
390
0
  6
Continuous
 62
               7
100
AcDbLine
 10
229.50698694629369
 20
169.8548531135192
 30
0.0
 11
232.37699196107411
 21
172.72483338431729
 31
0.0
  0
LINE
  5
340
100
AcDbEntity
  8
レイヤ0
370
               5
390
0
  6
Continuous
 62
               7
100
AcDbLine
 10
228.09276938400481
 20
169.8548531135192
 30
0.0
 11
230.96276202679411
 21
172.72483338431729
 31
0.0
  0
LINE
  5
341
100
AcDbEntity
  8
レイヤ0
370
               5
390
0
  6
Continuous
 62
               7
100
AcDbLine
 10
226.6785641937071
 20
169.8548531135192
 30
0.0
 11
229.54856920848749
 21
172.72483338431729
 31
0.0
  0
LINE
  5
342
100
AcDbEntity
  8
レイヤ0
370
               5
390
0
  6
Continuous
 62
               7
100
AcDbLine
 10
225.26434663141831
 20
169.8548531135192
 30
0.0
 11
228.13433927420749
 21
172.72483338431729
 31
0.0
  0
LINE
  5
343
100
AcDbEntity
  8
レイヤ0
370
               5
390
0
  6
Continuous
 62
               7
100
AcDbLine
 10
222.4359238788318
 20
169.8548531135192
 30
0.0
 11
225.30591652162099
 21
172.72483338431729
 31
0.0
  0
LINE
  5
344
100
AcDbEntity
  8
レイヤ0
370
               5
390
0
  6
Continuous
 62
               7
100
AcDbLine
 10
204.95795014704331
 20
165.10484981432151
 30
0.0
 11
208.51309128671821
 21
168.65996621001409
 31
0.0
  0
LINE
  5
345
100
AcDbEntity
  8
レイヤ0
370
               5
390
0
  6
Continuous
 62
               7
100
AcDbLine
 10
203.54376970072789
 20
165.10484981432151
 30
0.0
 11
210.39375765865651
 21
171.95485014424131
 31
0.0
  0
LINE
  5
346
100
AcDbEntity
  8
レイヤ0
370
               5
390
0
  6
Continuous
 62
               7
100
AcDbLine
 10
238.51309128671821
 20
170.91550391324461
 30
0.0
 11
238.5321812690344
 21
170.91550391324461
 31
0.0
  0
LINE
  5
347
100
AcDbEntity
  8
レイヤ0
370
               5
390
0
  6
Continuous
 62
               7
100
AcDbLine
 10
242.65676804453071
 20
167.60485806231549
 30
0.0
 11
241.18650536241489
 21
167.60485806231549
 31
0.0
  0
LINE
  5
348
100
AcDbEntity
  8
レイヤ0
370
               5
390
0
  6
Continuous
 62
               7
100
AcDbLine
 10
243.01032243510289
 20
167.95840008089669
 30
0.0
 11
242.65676804453071
 21
167.60485806231549
 31
0.0
  0
LINE
  5
349
100
AcDbEntity
  8
レイヤ0
370
               5
390
0
  6
Continuous
 62
               7
100
AcDbLine
 10
240.3638916720644
 20
181.60484857712251
 30
0.0
 11
242.65676804453071
 21
181.60484857712251
 31
0.0
  0
LINE
  5
34A
100
AcDbEntity
  8
レイヤ0
370
               5
390
0
  6
Continuous
 62
               7
100
AcDbLine
 10
240.01033728149221
 20
181.25129418655021
 30
0.0
 11
240.3638916720644
 21
181.60484857712251
 31
0.0
  0
LINE
  5
34B
100
AcDbEntity
  8
レイヤ0
370
               5
390
0
  6
Continuous
 62
               7
100
AcDbLine
 10
240.3638916720644
 20
167.60485806231549
 30
0.0
 11
241.18650536241489
 21
167.60485806231549
 31
0.0
  0
LINE
  5
34C
100
AcDbEntity
  8
レイヤ0
370
               5
390
0
  6
Continuous
 62
               7
100
AcDbLine
 10
240.01033728149221
 20
167.95840008089669
 30
0.0
 11
240.3638916720644
 21
167.60485806231549
 31
0.0
  0
LINE
  5
34D
100
AcDbEntity
  8
レイヤ0
370
               5
390
0
  6
Continuous
 62
               7
100
AcDbLine
 10
242.65680516050401
 20
174.24450361301771
 30
0.0
 11
242.65680516050401
 21
169.10483826712979
 31
0.0
  0
LINE
  5
34E
100
AcDbEntity
  8
レイヤ0
370
               5
390
0
  6
Continuous
 62
               7
100
AcDbLine
 10
242.65680516050401
 20
169.10483826712979
 30
0.0
 11
243.16572701570891
 21
169.10483826712979
 31
0.0
  0
LINE
  5
34F
100
AcDbEntity
  8
レイヤ0
370
               5
390
0
  6
Continuous
 62
               7
100
AcDbLine
 10
240.0370360383545
 20
171.6470597488655
 30
0.0
 11
243.0989677515619
 21
168.5851156636669
 31
0.0
  0
LINE
  5
350
100
AcDbEntity
  8
レイヤ0
370
               5
390
0
  6
Continuous
 62
               7
100
AcDbLine
 10
240.0241815395687
 20
170.24573380133589
 30
0.0
 11
242.6609002895687
 21
167.6089655633713
 31
0.0
  0
LINE
  5
351
100
AcDbEntity
  8
レイヤ0
370
               5
390
0
  6
Continuous
 62
               7
100
AcDbLine
 10
240.01033728149221
 20
168.84534812513229
 30
0.0
 11
241.25080260032669
 21
167.60485806231549
 31
0.0
  0
LINE
  5
352
100
AcDbEntity
  8
レイヤ0
370
               5
390
0
  6
Continuous
 62
               7
100
AcDbLine
 10
240.01033728149221
 20
167.95840008089669
 30
0.0
 11
240.01033728149221
 21
172.22483173471849
 31
0.0
  0
LINE
  5
353
100
AcDbEntity
  8
レイヤ0
370
               5
390
0
  6
Continuous
 62
               7
100
AcDbLine
 10
240.01033728149221
 20
174.6048502267212
 30
0.0
 11
240.01033728149221
 21
181.25129418655021
 31
0.0
  0
LINE
  5
354
100
AcDbEntity
  8
レイヤ0
370
               5
390
0
  6
Continuous
 62
               7
100
AcDbLine
 10
228.01032243510289
 20
172.72483338431729
 30
0.0
 11
223.0929384678837
 21
172.72483338431729
 31
0.0
  0
LINE
  5
355
100
AcDbEntity
  8
レイヤ0
370
               5
390
0
  6
Continuous
 62
               7
100
AcDbLine
 10
228.51033645669281
 20
172.22483173471849
 30
0.0
 11
223.51309128671821
 21
172.22483173471849
 31
0.0
  0
LINE
  5
356
100
AcDbEntity
  8
レイヤ0
370
               5
390
0
  6
Continuous
 62
               7
100
AcDbLine
 10
242.65680516050401
 20
181.60484857712251
 30
0.0
 11
242.65680516050401
 21
174.6048502267212
 31
0.0
  0
LINE
  5
357
100
AcDbEntity
  8
レイヤ0
370
               5
390
0
  6
Continuous
 62
               7
100
AcDbLine
 10
240.3639287880379
 20
181.60484857712251
 30
0.0
 11
240.3639287880379
 21
174.6048502267212
 31
0.0
  0
LINE
  5
358
100
AcDbEntity
  8
レイヤ0
370
               5
390
0
  6
Continuous
 62
               7
100
AcDbLine
 10
240.3639287880379
 20
175.10483950432891
 30
0.0
 11
242.65680516050401
 21
175.10483950432891
 31
0.0
  0
LINE
  5
359
100
AcDbEntity
  8
レイヤ0
370
               5
390
0
  6
Continuous
 62
               7
100
AcDbLine
 10
240.3639287880379
 20
176.0048399992086
 30
0.0
 11
242.65680516050401
 21
176.0048399992086
 31
0.0
  0
LINE
  5
35A
100
AcDbEntity
  8
レイヤ0
370
               5
390
0
  6
Continuous
 62
               7
100
AcDbLine
 10
240.3639287880379
 20
176.90484049408821
 30
0.0
 11
242.65680516050401
 21
176.90484049408821
 31
0.0
  0
LINE
  5
35B
100
AcDbEntity
  8
レイヤ0
370
               5
390
0
  6
Continuous
 62
               7
100
AcDbLine
 10
240.3639287880379
 20
177.7548457728044
 30
0.0
 11
242.65680516050401
 21
177.7548457728044
 31
0.0
  0
LINE
  5
35C
100
AcDbEntity
  8
レイヤ0
370
               5
390
0
  6
Continuous
 62
               7
100
AcDbLine
 10
240.3639287880379
 20
178.5548434633661
 30
0.0
 11
242.65680516050401
 21
178.5548434633661
 31
0.0
  0
LINE
  5
35D
100
AcDbEntity
  8
レイヤ0
370
               5
390
0
  6
Continuous
 62
               7
100
AcDbLine
 10
240.3639287880379
 20
179.3048459377643
 30
0.0
 11
242.65680516050401
 21
179.3048459377643
 31
0.0
  0
LINE
  5
35E
100
AcDbEntity
  8
レイヤ0
370
               5
390
0
  6
Continuous
 62
               7
100
AcDbLine
 10
240.3639287880379
 20
180.00485319599909
 30
0.0
 11
242.65680516050401
 21
180.00485319599909
 31
0.0
  0
LINE
  5
35F
100
AcDbEntity
  8
レイヤ0
370
               5
390
0
  6
Continuous
 62
               7
100
AcDbLine
 10
240.3639287880379
 20
180.6548652380705
 30
0.0
 11
242.65680516050401
 21
180.6548652380705
 31
0.0
  0
LINE
  5
360
100
AcDbEntity
  8
レイヤ0
370
               5
390
0
  6
Continuous
 62
               7
100
AcDbLine
 10
240.3639287880379
 20
181.1548668876693
 30
0.0
 11
242.65680516050401
 21
181.1548668876693
 31
0.0
  0
LINE
  5
361
100
AcDbEntity
  8
レイヤ0
370
               5
390
0
  6
Continuous
 62
               7
100
AcDbLine
 10
240.3639287880379
 20
181.45486292863211
 30
0.0
 11
242.65680516050401
 21
181.45486292863211
 31
0.0
  0
LINE
  5
362
100
AcDbEntity
  8
レイヤ0
370
               5
390
0
  6
Continuous
 62
               7
100
AcDbLine
 10
198.51307066673289
 20
167.35484486552369
 30
0.0
 11
199.75962962441599
 21
165.1048498143214
 31
0.0
  0
LINE
  5
363
100
AcDbEntity
  8
レイヤ0
370
               5
390
0
  6
Continuous
 62
               7
100
AcDbLine
 10
198.513070666733
 20
169.8548531135192
 30
0.0
 11
198.51307066673289
 21
167.35484486552369
 31
0.0
  0
LINE
  5
364
100
AcDbEntity
  8
レイヤ0
370
               5
390
0
  6
Continuous
 62
               7
100
AcDbLine
 10
199.75962962441599
 20
184.1048568251166
 30
0.0
 11
198.51307066673269
 21
181.85484940192171
 31
0.0
  0
LINE
  5
365
100
AcDbEntity
  8
レイヤ0
370
               5
390
0
  6
Continuous
 62
               7
100
AcDbLine
 10
206.37218008132331
 20
165.10484981432151
 30
0.0
 11
208.3774555166203
 21
167.11011366144501
 31
0.0
  0
LINE
  5
366
100
AcDbEntity
  8
レイヤ0
370
               5
390
0
  6
Continuous
 62
               7
100
AcDbLine
 10
208.51309128671821
 20
169.8548531135192
 30
0.0
 11
208.5130912867173
 21
165.10484981432151
 31
0.0
  0
LINE
  5
367
100
AcDbEntity
  8
レイヤ0
370
               5
390
0
  6
Continuous
 62
               7
100
AcDbLine
 10
208.51309128671781
 20
167.35484486552329
 30
0.0
 11
207.2660912867178
 21
165.1048498143214
 31
0.0
  0
LINE
  5
368
100
AcDbEntity
  8
レイヤ0
370
               5
390
0
  6
Continuous
 62
               7
100
AcDbLine
 10
199.75962962441599
 20
165.1048498143214
 30
0.0
 11
207.2660912867178
 21
165.1048498143214
 31
0.0
  0
LINE
  5
369
100
AcDbEntity
  8
レイヤ0
370
               5
390
0
  6
Continuous
 62
               7
100
AcDbLine
 10
208.51309128671821
 20
165.10484981432151
 30
0.0
 11
209.51310695790701
 21
165.10484981432299
 31
0.0
  0
LINE
  5
36A
100
AcDbEntity
  8
レイヤ0
370
               5
390
0
  6
Continuous
 62
               7
100
AcDbLine
 10
211.01306241873891
 20
163.4168400882869
 30
0.0
 11
209.5131069579069
 21
162.60484156632751
 31
0.0
  0
LINE
  5
36B
100
AcDbEntity
  8
レイヤ0
370
               5
390
0
  6
Continuous
 62
               7
100
AcDbLine
 10
204.82509970627049
 20
163.4168400882869
 30
0.0
 11
204.0130764403288
 21
162.60484156632751
 31
0.0
  0
LINE
  5
36C
100
AcDbEntity
  8
レイヤ0
370
               5
390
0
  6
Continuous
 62
               7
100
AcDbLine
 10
204.0130764403288
 20
162.60484156632751
 30
0.0
 11
209.5131069579069
 21
162.60484156632751
 31
0.0
  0
LINE
  5
36D
100
AcDbEntity
  8
レイヤ0
370
               5
390
0
  6
Continuous
 62
               7
100
AcDbLine
 10
204.82509970627049
 20
163.4168400882869
 30
0.0
 11
211.01306241873891
 21
163.4168400882869
 31
0.0
  0
LINE
  5
36E
100
AcDbEntity
  8
レイヤ0
370
               5
390
0
  6
Continuous
 62
               7
100
AcDbLine
 10
217.87630077916961
 20
169.60483991672859
 30
0.0
 11
218.01306076914
 21
169.46807992675821
 31
0.0
  0
LINE
  5
36F
100
AcDbEntity
  8
レイヤ0
370
               5
390
0
  6
Continuous
 62
               7
100
AcDbLine
 10
218.01306076914
 20
169.8548531135192
 30
0.0
 11
218.01306076913971
 21
168.604804051765
 31
0.0
  0
LINE
  5
370
100
AcDbEntity
  8
レイヤ0
370
               5
390
0
  6
Continuous
 62
               7
100
AcDbLine
 10
216.46207084488961
 20
169.60483991672859
 30
0.0
 11
217.69735140712061
 21
168.36959400893781
 31
0.0
  0
LINE
  5
371
100
AcDbEntity
  8
レイヤ0
370
               5
390
0
  6
Continuous
 62
               7
100
AcDbLine
 10
209.9221621006962
 20
163.4168400882869
 30
0.0
 11
211.62472012091681
 21
161.7142820680661
 31
0.0
  0
LINE
  5
372
100
AcDbEntity
  8
レイヤ0
370
               5
390
0
  6
Continuous
 62
               7
100
AcDbLine
 10
208.50794453840729
 20
163.4168400882869
 30
0.0
 11
210.85517274482311
 21
161.06961188187049
 31
0.0
  0
LINE
  5
373
100
AcDbEntity
  8
レイヤ0
370
               5
390
0
  6
Continuous
 62
               7
100
AcDbLine
 10
207.09372697611849
 20
163.4168400882869
 30
0.0
 11
209.94759868900761
 21
160.56295771472841
 31
0.0
  0
LINE
  5
374
100
AcDbEntity
  8
レイヤ0
370
               5
390
0
  6
Continuous
 62
               7
100
AcDbLine
 10
205.67949704183849
 20
163.4168400882869
 30
0.0
 11
208.87631790913451
 21
160.22001922099139
 31
0.0
  0
LINE
  5
375
100
AcDbEntity
  8
レイヤ0
370
               5
390
0
  6
Continuous
 62
               7
100
AcDbLine
 10
204.5452081508968
 20
163.1369609049043
 30
0.0
 11
207.5740298737625
 21
160.1081268234858
 31
0.0
  0
LINE
  5
376
100
AcDbEntity
  8
レイヤ0
370
               5
390
0
  6
Continuous
 62
               7
100
AcDbLine
 10
204.0130764403288
 20
162.25483793721011
 30
0.0
 11
205.79404743978739
 21
160.47387718611691
 31
0.0
  0
LINE
  5
377
100
AcDbEntity
  8
レイヤ0
370
               5
390
0
  6
Continuous
 62
               7
100
AcDbLine
 10
215.51306076914321
 20
169.60483991672871
 30
0.0
 11
211.0130624187403
 21
163.41684008828909
 31
0.0
  0
LINE
  5
378
100
AcDbEntity
  8
レイヤ0
370
               5
390
0
  6
Continuous
 62
               7
100
AcDbLine
 10
215.51306076914281
 20
169.60483991672871
 30
0.0
 11
215.51306076914321
 21
169.854853113519
 31
0.0
  0
LINE
  5
379
100
AcDbEntity
  8
レイヤ0
370
               5
390
0
  6
Continuous
 62
               7
100
AcDbLine
 10
215.51306076914281
 20
169.60483991672871
 30
0.0
 11
218.01306076914
 21
169.60483991672859
 31
0.0
  0
LINE
  5
37A
100
AcDbEntity
  8
レイヤ0
370
               5
390
0
  6
Continuous
 62
               7
100
AcDbLine
 10
215.31719574228299
 20
169.3355036507503
 30
0.0
 11
216.90683860759731
 21
167.74589734029351
 31
0.0
  0
LINE
  5
37B
100
AcDbEntity
  8
レイヤ0
370
               5
390
0
  6
Continuous
 62
               7
100
AcDbLine
 10
214.7217823846747
 20
168.5167438495603
 30
0.0
 11
216.14469751118801
 21
167.09385578907359
 31
0.0
  0
LINE
  5
37C
100
AcDbEntity
  8
レイヤ0
370
               5
390
0
  6
Continuous
 62
               7
100
AcDbLine
 10
214.12635507373051
 20
167.6979648609767
 30
0.0
 11
215.410625260096
 21
166.41369467461129
 31
0.0
  0
LINE
  5
37D
100
AcDbEntity
  8
レイヤ0
370
               5
390
0
  6
Continuous
 62
               7
100
AcDbLine
 10
213.5309148822366
 20
166.87916816020009
 30
0.0
 11
214.70453047359979
 21
165.70557201340179
 31
0.0
  0
LINE
  5
37E
100
AcDbEntity
  8
レイヤ0
370
               5
390
0
  6
Continuous
 62
               7
100
AcDbLine
 10
212.93547534081429
 20
166.06037235334429
 30
0.0
 11
214.02639195832231
 21
164.969455735834
 31
0.0
  0
LINE
  5
37F
100
AcDbEntity
  8
レイヤ0
370
               5
390
0
  6
Continuous
 62
               7
100
AcDbLine
 10
212.3400441397624
 20
165.24158801542859
 30
0.0
 11
213.37638851124291
 21
164.205255819618
 31
0.0
  0
LINE
  5
380
100
AcDbEntity
  8
レイヤ0
370
               5
390
0
  6
Continuous
 62
               7
100
AcDbLine
 10
211.7446218954876
 20
164.42281599408071
 30
0.0
 11
212.7547680414238
 21
163.4126759771919
 31
0.0
  0
LINE
  5
381
100
AcDbEntity
  8
レイヤ0
370
               5
390
0
  6
Continuous
 62
               7
100
AcDbLine
 10
211.14919471589121
 20
163.60403718611479
 30
0.0
 11
212.16193254493621
 21
162.59128664955699
 31
0.0
  0
LINE
  5
382
100
AcDbEntity
  8
レイヤ0
370
               5
390
0
  6
Continuous
 62
               7
100
AcDbLine
 10
214.21307644032919
 20
169.85485311351979
 30
0.0
 11
214.2130764403291
 21
167.8172164161661
 31
0.0
  0
LINE
  5
383
100
AcDbEntity
  8
レイヤ0
370
               5
390
0
  6
Continuous
 62
               7
100
AcDbLine
 10
213.45059211151761
 20
169.8548531135192
 30
0.0
 11
214.21307644032879
 21
169.4367169140346
 31
0.0
  0
LINE
  5
384
100
AcDbEntity
  8
レイヤ0
370
               5
390
0
  6
Continuous
 62
               7
100
AcDbLine
 10
243.01032243510289
 20
174.6048502267212
 30
0.0
 11
243.01032243510289
 21
181.25129418655021
 31
0.0
  0
LINE
  5
385
100
AcDbEntity
  8
レイヤ0
370
               5
390
0
  6
Continuous
 62
               7
100
AcDbLine
 10
229.0131218042963
 20
169.8548531135192
 30
0.0
 11
230.5131143811042
 21
169.8548531135192
 31
0.0
  0
LINE
  5
386
100
AcDbEntity
  8
レイヤ0
370
               5
390
0
  6
Continuous
 62
               7
100
AcDbLine
 10
231.5131053083081
 20
169.8548531135192
 30
0.0
 11
238.51756994750789
 21
169.8548531135192
 31
0.0
  0
LINE
  5
387
100
AcDbEntity
  8
レイヤ0
370
               5
390
0
  6
Continuous
 62
               7
100
AcDbLine
 10
208.51309128671821
 20
179.60483579273159
 30
0.0
 11
209.5131069579069
 21
179.60483579273159
 31
0.0
  0
LINE
  5
388
100
AcDbEntity
  8
レイヤ0
370
               5
390
0
  6
Continuous
 62
               7
100
AcDbLine
 10
208.51309128671821
 20
179.35484733992331
 30
0.0
 11
208.5130912867173
 21
184.104850639121
 31
0.0
  0
LINE
  5
389
100
AcDbEntity
  8
レイヤ0
370
               5
390
0
  6
Continuous
 62
               7
100
AcDbLine
 10
204.82509970627049
 20
185.7928603651556
 30
0.0
 11
204.0130764403288
 21
186.60485888711511
 31
0.0
  0
LINE
  5
38A
100
AcDbEntity
  8
レイヤ0
370
               5
390
0
  6
Continuous
 62
               7
100
AcDbLine
 10
204.82509970627049
 20
185.7928603651556
 30
0.0
 11
211.01306241873891
 21
185.7928603651556
 31
0.0
  0
LINE
  5
38B
100
AcDbEntity
  8
レイヤ0
370
               5
390
0
  6
Continuous
 62
               7
100
AcDbLine
 10
217.87630077916961
 20
179.6048605367138
 30
0.0
 11
218.01306076914
 21
179.74162052668419
 31
0.0
  0
LINE
  5
38C
100
AcDbEntity
  8
レイヤ0
370
               5
390
0
  6
Continuous
 62
               7
100
AcDbLine
 10
215.51306076914321
 20
179.6048605367138
 30
0.0
 11
211.0130624187403
 21
185.79286036515339
 31
0.0
  0
LINE
  5
38D
100
AcDbEntity
  8
レイヤ0
370
               5
390
0
  6
Continuous
 62
               7
100
AcDbLine
 10
215.51306076914281
 20
179.6048605367138
 30
0.0
 11
215.51306076914321
 21
179.35484733992351
 31
0.0
  0
LINE
  5
38E
100
AcDbEntity
  8
レイヤ0
370
               5
390
0
  6
Continuous
 62
               7
100
AcDbLine
 10
215.51306076914281
 20
179.6048605367138
 30
0.0
 11
218.01306076914
 21
179.6048605367138
 31
0.0
  0
LINE
  5
38F
100
AcDbEntity
  8
レイヤ0
370
               5
390
0
  6
Continuous
 62
               7
100
AcDbLine
 10
214.21307644032919
 20
179.35484733992271
 30
0.0
 11
214.2130764403291
 21
181.3924840372764
 31
0.0
  0
LINE
  5
390
100
AcDbEntity
  8
レイヤ0
370
               5
390
0
  6
Continuous
 62
               7
100
AcDbLine
 10
209.51310695790721
 20
181.10485022672131
 30
0.0
 11
211.9553117113683
 21
180.64717559021801
 31
0.0
  0
LINE
  5
391
100
AcDbEntity
  8
レイヤ0
370
               5
390
0
  6
Continuous
 62
               7
100
AcDbLine
 10
213.45059211151761
 20
179.35484733992331
 30
0.0
 11
214.21307644032879
 21
179.77298353940779
 31
0.0
  0
LINE
  5
392
100
AcDbEntity
  8
レイヤ0
370
               5
390
0
  6
Continuous
 62
               7
100
AcDbLine
 10
229.0131218042963
 20
179.35485352591891
 30
0.0
 11
208.51309128671809
 21
179.35485352591871
 31
0.0
  0
LINE
  5
393
100
AcDbEntity
  8
レイヤ0
370
               5
390
0
  6
Continuous
 62
               7
100
AcDbLine
 10
218.01306076913991
 20
180.60489640167691
 30
0.0
 11
218.01306076913951
 21
179.35485352591891
 31
0.0
  0
LINE
  5
394
100
AcDbEntity
  8
レイヤ0
370
               5
390
0
  6
Continuous
 62
               7
100
AcDbLine
 10
198.513070666733
 20
181.8548494019218
 30
0.0
 11
208.51309471514011
 21
181.85484940192219
 31
0.0
  0
LINE
  5
395
100
AcDbEntity
  8
レイヤ0
370
               5
390
0
  6
Continuous
 62
               7
100
AcDbLine
 10
208.51309471514011
 20
181.85484940192219
 30
0.0
 11
207.26608785829319
 21
184.1048568251164
 31
0.0
  0
LINE
  5
396
100
AcDbEntity
  8
レイヤ0
370
               5
390
0
  6
Continuous
 62
               7
100
AcDbLine
 10
199.75962962441599
 20
184.1048568251166
 30
0.0
 11
207.26608785829319
 21
184.1048568251164
 31
0.0
  0
LINE
  5
397
100
AcDbEntity
  8
レイヤ0
370
               5
390
0
  6
Continuous
 62
               7
100
AcDbLine
 10
193.513078914727
 20
177.2548503092012
 30
0.0
 11
210.51308551312229
 21
177.2548503092012
 31
0.0
  0
LINE
  5
398
100
AcDbEntity
  8
レイヤ0
370
               5
390
0
  6
Continuous
 62
               7
100
AcDbLine
 10
210.51308551312229
 20
177.2548503092012
 30
0.0
 11
212.51309211151761
 21
174.6048502267212
 31
0.0
  0
LINE
  5
399
100
AcDbEntity
  8
レイヤ0
370
               5
390
0
  6
Continuous
 62
               7
100
AcDbLine
 10
210.51308551312229
 20
174.6048502267212
 30
0.0
 11
210.51308551312229
 21
177.2548503092012
 31
0.0
  0
LINE
  5
39A
100
AcDbEntity
  8
レイヤ0
370
               5
390
0
  6
Continuous
 62
               7
100
AcDbLine
 10
198.51307066673269
 20
181.85484940192171
 30
0.0
 11
198.5130706667332
 21
179.35485352591891
 31
0.0
  0
LINE
  5
39B
100
AcDbEntity
  8
レイヤ0
370
               5
390
0
  6
Continuous
 62
               7
100
AcDbLine
 10
209.71309128671609
 20
164.8548502267212
 30
0.0
 11
209.71309128671601
 21
163.41785022672121
 31
0.0
  0
LINE
  5
39C
100
AcDbEntity
  8
レイヤ0
370
               5
390
0
  6
Continuous
 62
               7
100
AcDbLine
 10
208.51309128671639
 20
166.85485022672131
 30
0.0
 11
208.51309128671619
 21
164.8548502267212
 31
0.0
  0
LINE
  5
39D
100
AcDbEntity
  8
レイヤ0
370
               5
390
0
  6
Continuous
 62
               7
100
AcDbLine
 10
204.01307644032701
 20
162.60484156631841
 30
0.0
 11
204.01307644032849
 21
161.6048502267206
 31
0.0
  0
LINE
  5
39E
100
AcDbEntity
  8
レイヤ0
370
               5
390
0
  6
Continuous
 62
               7
100
AcDbLine
 10
204.0130764403288
 20
187.60485022672171
 30
0.0
 11
204.01307644032761
 21
186.604858887121
 31
0.0
  0
LINE
  5
39F
100
AcDbEntity
  8
レイヤ0
370
               5
390
0
  6
Continuous
 62
               7
100
AcDbLine
 10
186.51307891472729
 20
174.6048502267212
 30
0.0
 11
183.71307891472719
 21
174.6048502267212
 31
0.0
  0
LINE
  5
3A0
100
AcDbEntity
  8
レイヤ0
370
               5
390
0
  6
Continuous
 62
               7
100
AcDbLine
 10
193.513078914727
 20
178.6477447447744
 30
0.0
 11
193.51307891472709
 21
177.25485030920109
 31
0.0
  0
LINE
  5
3A1
100
AcDbEntity
  8
レイヤ0
370
               5
390
0
  6
Continuous
 62
               7
100
AcDbLine
 10
193.51307891472709
 20
171.95485014424119
 30
0.0
 11
193.513078914727
 21
170.5619618946636
 31
0.0
  0
LINE
  5
3A2
100
AcDbEntity
  8
レイヤ0
370
               5
390
0
  6
Continuous
 62
               7
100
AcDbLine
 10
208.5130912867161
 20
166.3548502267212
 30
0.0
 11
208.51309128671599
 21
164.8548502267212
 31
0.0
  0
LINE
  5
3A3
100
AcDbEntity
  8
レイヤ0
370
               5
390
0
  6
Continuous
 62
               7
100
AcDbLine
 10
209.51312295572589
 20
186.60485022672131
 30
0.0
 11
202.21309128671601
 21
186.60485022672131
 31
0.0
  0
LINE
  5
3A4
100
AcDbEntity
  8
レイヤ0
370
               5
390
0
  6
Continuous
 62
               7
100
AcDbLine
 10
211.01306241873891
 20
185.7928603651556
 30
0.0
 11
209.51312295572589
 21
186.60485022672131
 31
0.0
  0
LINE
  5
3A5
100
AcDbEntity
  8
レイヤ0
370
               5
390
0
  6
Continuous
 62
               7
100
AcDbLine
 10
208.51309128671579
 20
184.3548502267212
 30
0.0
 11
208.51309128671579
 21
182.35485022672131
 31
0.0
  0
LINE
  5
3A6
100
AcDbEntity
  8
レイヤ0
370
               5
390
0
  6
Continuous
 62
               7
100
AcDbLine
 10
208.51309128671591
 20
166.8548502267212
 30
0.0
 11
208.51309128671599
 21
164.85485022672131
 31
0.0
  0
LINE
  5
3A7
100
AcDbEntity
  8
レイヤ0
370
               5
390
0
  6
Continuous
 62
               7
100
AcDbLine
 10
209.71308941324301
 20
185.79485331618429
 30
0.0
 11
209.71308941324301
 21
184.35485022672211
 31
0.0
  0
LINE
  5
3A8
100
AcDbEntity
  8
レイヤ0
370
               5
390
0
  6
Continuous
 62
               7
100
AcDbLine
 10
209.71308941324301
 20
164.8548502267212
 30
0.0
 11
209.71308941324301
 21
163.41484713725839
 31
0.0
  0
LINE
  5
3A9
100
AcDbEntity
  8
レイヤ0
370
               5
390
0
  6
Continuous
 62
               7
100
AcDbLine
 10
229.5928485647481
 20
144.69848764160179
 30
0.0
 11
234.2283614580125
 21
145.44733952082481
 31
0.0
  0
LINE
  5
3AA
100
AcDbEntity
  8
レイヤ0
370
               5
390
0
  6
Continuous
 62
               7
100
AcDbLine
 10
229.01312180429619
 20
146.12428538758999
 30
0.0
 11
233.98917375346221
 21
146.92811839540249
 31
0.0
  0
LINE
  5
3AB
100
AcDbEntity
  8
レイヤ0
370
               5
390
0
  6
Continuous
 62
               7
100
AcDbLine
 10
229.01312180429619
 20
145.55663369048281
 30
0.0
 11
229.83253114894359
 21
144.73723671782651
 31
0.0
  0
LINE
  5
3AC
100
AcDbEntity
  8
レイヤ0
370
               5
390
0
  6
Continuous
 62
               7
100
AcDbLine
 10
229.74193105788581
 20
146.24204199918199
 30
0.0
 11
231.0500464242287
 21
144.93390188885689
 31
0.0
  0
LINE
  5
3AD
100
AcDbEntity
  8
レイヤ0
370
               5
390
0
  6
Continuous
 62
               7
100
AcDbLine
 10
230.95948344914419
 20
146.4387319141947
 30
0.0
 11
232.2675988154871
 21
145.13056705988731
 31
0.0
  0
LINE
  5
3AE
100
AcDbEntity
  8
レイヤ0
370
               5
390
0
  6
Continuous
 62
               7
100
AcDbLine
 10
232.17698635243821
 20
146.63539708522509
 30
0.0
 11
233.48510171878101
 21
145.32725697489991
 31
0.0
  0
LINE
  5
3AF
100
AcDbEntity
  8
レイヤ0
370
               5
390
0
  6
Continuous
 62
               7
100
AcDbLine
 10
233.3945016277232
 20
146.83206225625551
 30
0.0
 11
234.68378682356359
 21
145.54280180439741
 31
0.0
  0
LINE
  5
3B0
100
AcDbEntity
  8
レイヤ0
370
               5
390
0
  6
Continuous
 62
               7
100
AcDbLine
 10
229.0131218042963
 20
169.85485311351911
 30
0.0
 11
229.01312180429619
 21
145.1921053437766
 31
0.0
  0
LINE
  5
3B1
100
AcDbEntity
  8
レイヤ0
370
               5
390
0
  6
Continuous
 62
               7
100
AcDbLine
 10
192.7130894132433
 20
184.48137245665669
 30
0.0
 11
192.7130894132433
 21
184.35485022671881
 31
0.0
  0
LINE
  5
3B2
100
AcDbEntity
  8
レイヤ0
370
               5
390
0
  6
Continuous
 62
               7
100
AcDbLine
 10
246.71025349174209
 20
174.60485022672131
 30
0.0
 11
246.3629571364082
 21
176.57446573274569
 31
0.0
  0
LINE
  5
3B3
100
AcDbEntity
  8
レイヤ0
370
               5
390
0
  6
Continuous
 62
               7
100
AcDbLine
 10
246.71025349174209
 20
174.60485022672131
 30
0.0
 11
247.0575498470759
 21
176.57446573274569
 31
0.0
  0
LINE
  5
3B4
100
AcDbEntity
  8
レイヤ0
370
               5
390
0
  6
Continuous
 62
               7
100
AcDbLine
 10
177.96308982564139
 20
180.35485022672111
 30
0.0
 11
179.0742032933193
 21
179.10484757558089
 31
0.0
  0
LINE
  5
3B5
100
AcDbEntity
  8
レイヤ0
370
               5
390
0
  6
Continuous
 62
               7
100
AcDbLine
 10
177.96308982564139
 20
168.854850226721
 30
0.0
 11
179.07420329331919
 21
170.10485287786199
 31
0.0
  0
LINE
  5
3B6
100
AcDbEntity
  8
レイヤ0
370
               5
390
0
  6
Continuous
 62
               7
100
AcDbLine
 10
179.07420329332149
 20
179.1048475755793
 30
0.0
 11
180.9630898256427
 21
179.10484757558041
 31
0.0
  0
LINE
  5
3B7
100
AcDbEntity
  8
レイヤ0
370
               5
390
0
  6
Continuous
 62
               7
100
AcDbLine
 10
179.07420329331799
 20
170.10485287785991
 30
0.0
 11
180.96308982564261
 21
170.1048528778623
 31
0.0
  0
LINE
  5
3B8
100
AcDbEntity
  8
レイヤ0
370
               5
390
0
  6
Continuous
 62
               7
100
AcDbLine
 10
179.0742032933226
 20
179.10484757557799
 30
0.0
 11
179.0742032933226
 21
170.10485287786199
 31
0.0
  0
LINE
  5
3B9
100
AcDbEntity
  8
レイヤ0
370
               5
390
0
  6
Continuous
 62
               7
100
AcDbLine
 10
177.96308982564099
 20
181.13912668809351
 30
0.0
 11
180.7472090948541
 21
183.92324595730719
 31
0.0
  0
LINE
  5
3BA
100
AcDbEntity
  8
レイヤ0
370
               5
390
0
  6
Continuous
 62
               7
100
AcDbLine
 10
177.96308982564119
 20
166.31069538043491
 30
0.0
 11
181.51501305900771
 21
169.86261861380109
 31
0.0
  0
LINE
  5
3BB
100
AcDbEntity
  8
レイヤ0
370
               5
390
0
  6
Continuous
 62
               7
100
AcDbLine
 10
178.92504307899131
 20
179.27265281669841
 30
0.0
 11
180.9630898256427
 21
181.31069956334809
 31
0.0
  0
LINE
  5
3BC
100
AcDbEntity
  8
レイヤ0
370
               5
390
0
  6
Continuous
 62
               7
100
AcDbLine
 10
228.01032243510289
 20
176.4848670691249
 30
0.0
 11
228.51033645669281
 21
176.9848687187237
 31
0.0
  0
LINE
  5
3BD
100
AcDbEntity
  8
レイヤ0
370
               5
390
0
  6
Continuous
 62
               7
100
AcDbLine
 10
228.51033645669281
 20
176.4848670691249
 30
0.0
 11
228.51033645669281
 21
176.9848687187237
 31
0.0
  0
LINE
  5
3BE
100
AcDbEntity
  8
レイヤ0
370
               5
390
0
  6
Continuous
 62
               7
100
AcDbLine
 10
223.51309128671821
 20
176.98484397474149
 30
0.0
 11
223.51309128671821
 21
174.604850226721
 31
0.0
  0
LINE
  5
3BF
100
AcDbEntity
  8
レイヤ0
370
               5
390
0
  6
Continuous
 62
               7
100
AcDbLine
 10
228.01032243510289
 20
174.604850226721
 30
0.0
 11
228.01032243510289
 21
176.4848670691249
 31
0.0
  0
LINE
  5
3C0
100
AcDbEntity
  8
レイヤ0
370
               5
390
0
  6
Continuous
 62
               7
100
AcDbLine
 10
223.51309128671821
 20
176.98484397474149
 30
0.0
 11
221.51308468832289
 21
174.604850226721
 31
0.0
  0
LINE
  5
3C1
100
AcDbEntity
  8
レイヤ0
370
               5
390
0
  6
Continuous
 62
               7
100
AcDbLine
 10
228.01032243510289
 20
176.4848670691249
 30
0.0
 11
223.0929384678837
 21
176.4848670691249
 31
0.0
  0
LINE
  5
3C2
100
AcDbEntity
  8
レイヤ0
370
               5
390
0
  6
Continuous
 62
               7
100
AcDbLine
 10
228.51033645669281
 20
176.9848687187237
 30
0.0
 11
223.51309128671821
 21
176.9848687187237
 31
0.0
  0
LINE
  5
3C3
100
AcDbEntity
  8
レイヤ0
370
               5
390
0
  6
Continuous
 62
               7
100
AcDbLine
 10
228.01032243510289
 20
176.4848670691249
 30
0.0
 11
229.01312180429619
 21
176.4848670691251
 31
0.0
  0
LINE
  5
3C4
100
AcDbEntity
  8
レイヤ0
370
               5
390
0
  6
Continuous
 62
               7
100
AcDbLine
 10
228.51033645669281
 20
176.9848687187237
 30
0.0
 11
229.01312180429619
 21
176.98486871872359
 31
0.0
  0
LINE
  5
3C5
100
AcDbEntity
  8
レイヤ0
370
               5
390
0
  6
Continuous
 62
               7
100
AcDbLine
 10
223.85012906912939
 20
169.8548531135192
 30
0.0
 11
226.72012171191869
 21
172.72483338431729
 31
0.0
  0
LINE
  5
3C6
100
AcDbEntity
  8
レイヤ0
370
               5
390
0
  6
Continuous
 62
               7
100
AcDbLine
 10
215.3648360673875
 20
169.8548531135192
 30
0.0
 11
224.86484885178541
 21
179.35485352591891
 31
0.0
  0
LINE
  5
3C7
100
AcDbEntity
  8
レイヤ0
370
               5
390
0
  6
Continuous
 62
               7
100
AcDbLine
 10
213.95061850509859
 20
169.8548531135192
 30
0.0
 11
223.45063128949809
 21
179.35485352591891
 31
0.0
  0
LINE
  5
3C8
100
AcDbEntity
  8
レイヤ0
370
               5
390
0
  6
Continuous
 62
               7
100
AcDbLine
 10
212.53640094280979
 20
169.8548531135192
 30
0.0
 11
222.0364137272085
 21
179.3548535259188
 31
0.0
  0
LINE
  5
3C9
100
AcDbEntity
  8
レイヤ0
370
               5
390
0
  6
Continuous
 62
               7
100
AcDbLine
 10
211.12219575251211
 20
169.8548531135192
 30
0.0
 11
220.62220853691039
 21
179.3548535259188
 31
0.0
  0
LINE
  5
3CA
100
AcDbEntity
  8
レイヤ0
370
               5
390
0
  6
Continuous
 62
               7
100
AcDbLine
 10
209.70795344624091
 20
169.8548531135192
 30
0.0
 11
219.20801571863649
 21
179.3548535259188
 31
0.0
  0
LINE
  5
3CB
100
AcDbEntity
  8
レイヤ0
370
               5
390
0
  6
Continuous
 62
               7
100
AcDbLine
 10
210.88027383792169
 20
172.44136632350649
 30
0.0
 11
217.7937412727733
 21
179.3548535259188
 31
0.0
  0
LINE
  5
3CC
100
AcDbEntity
  8
レイヤ0
370
               5
390
0
  6
Continuous
 62
               7
100
AcDbLine
 10
202.12955213843901
 20
165.10484981432151
 30
0.0
 11
208.97955246835861
 21
171.95485014424119
 31
0.0
  0
LINE
  5
3CD
100
AcDbEntity
  8
レイヤ0
370
               5
390
0
  6
Continuous
 62
               7
100
AcDbLine
 10
212.1330743884098
 20
175.1083720642925
 30
0.0
 11
216.37955585003641
 21
179.35485352591871
 31
0.0
  0
LINE
  5
3CE
100
AcDbEntity
  8
レイヤ0
370
               5
390
0
  6
Continuous
 62
               7
100
AcDbLine
 10
200.71532220415909
 20
165.10484981432151
 30
0.0
 11
207.56533490606981
 21
171.95485014424119
 31
0.0
  0
LINE
  5
3CF
100
AcDbEntity
  8
レイヤ0
370
               5
390
0
  6
Continuous
 62
               7
100
AcDbLine
 10
211.52481071319841
 20
175.91431880005479
 30
0.0
 11
214.96535165311511
 21
179.35485352591871
 31
0.0
  0
LINE
  5
3D0
100
AcDbEntity
  8
レイヤ0
370
               5
390
0
  6
Continuous
 62
               7
100
AcDbLine
 10
199.59616074661221
 20
165.39990538615459
 30
0.0
 11
206.1511173437811
 21
171.95485014424131
 31
0.0
  0
LINE
  5
3D1
100
AcDbEntity
  8
レイヤ0
370
               5
390
0
  6
Continuous
 62
               7
100
AcDbLine
 10
210.9165445882343
 20
176.72026878172881
 30
0.0
 11
213.55113409082699
 21
179.35485352591871
 31
0.0
  0
LINE
  5
3D2
100
AcDbEntity
  8
レイヤ0
370
               5
390
0
  6
Continuous
 62
               7
100
AcDbLine
 10
199.0919808476859
 20
166.3099323612189
 30
0.0
 11
204.73688740950081
 21
171.95485014424131
 31
0.0
  0
LINE
  5
3D3
100
AcDbEntity
  8
レイヤ0
370
               5
390
0
  6
Continuous
 62
               7
100
AcDbLine
 10
210.0368770388954
 20
177.25485030920109
 30
0.0
 11
212.13687608113781
 21
179.35485352591871
 31
0.0
  0
LINE
  5
3D4
100
AcDbEntity
  8
レイヤ0
370
               5
390
0
  6
Continuous
 62
               7
100
AcDbLine
 10
198.513070666733
 20
167.14523859177089
 30
0.0
 11
203.32266984721201
 21
171.95485014424119
 31
0.0
  0
LINE
  5
3D5
100
AcDbEntity
  8
レイヤ0
370
               5
390
0
  6
Continuous
 62
               7
100
AcDbLine
 10
208.62265637873091
 20
177.25485030920109
 30
0.0
 11
210.72265419351129
 21
179.35485352591871
 31
0.0
  0
LINE
  5
3D6
100
AcDbEntity
  8
レイヤ0
370
               5
390
0
  6
Continuous
 62
               7
100
AcDbLine
 10
198.513070666733
 20
168.55945615405969
 30
0.0
 11
201.9084522849235
 21
171.95485014424119
 31
0.0
  0
LINE
  5
3D7
100
AcDbEntity
  8
レイヤ0
370
               5
390
0
  6
Continuous
 62
               7
100
AcDbLine
 10
207.2084331379703
 20
177.25485030920109
 30
0.0
 11
209.30842870278639
 21
179.35485352591871
 31
0.0
  0
LINE
  5
3D8
100
AcDbEntity
  8
レイヤ0
370
               5
390
0
  6
Continuous
 62
               7
100
AcDbLine
 10
198.39426243589469
 20
169.8548531135192
 30
0.0
 11
200.49424709462559
 21
171.95485014424119
 31
0.0
  0
LINE
  5
3D9
100
AcDbEntity
  8
レイヤ0
370
               5
390
0
  6
Continuous
 62
               7
100
AcDbLine
 10
205.79421603499119
 20
177.25485030920109
 30
0.0
 11
208.5130912867175
 21
179.97374157909229
 31
0.0
  0
LINE
  5
3DA
100
AcDbEntity
  8
レイヤ0
370
               5
390
0
  6
Continuous
 62
               7
100
AcDbLine
 10
204.38004206928849
 20
177.25485030920109
 30
0.0
 11
208.51309128671721
 21
181.38789952662921
 31
0.0
  0
LINE
  5
3DB
100
AcDbEntity
  8
レイヤ0
370
               5
390
0
  6
Continuous
 62
               7
100
AcDbLine
 10
196.98004487360581
 20
169.8548531135192
 30
0.0
 11
199.0800419043284
 21
171.95485014424119
 31
0.0
  0
LINE
  5
3DC
100
AcDbEntity
  8
レイヤ0
370
               5
390
0
  6
Continuous
 62
               7
100
AcDbLine
 10
195.56582731131701
 20
169.8548531135192
 30
0.0
 11
197.66582434203909
 21
171.95485014424119
 31
0.0
  0
LINE
  5
3DD
100
AcDbEntity
  8
レイヤ0
370
               5
390
0
  6
Continuous
 62
               7
100
AcDbLine
 10
202.96582450699941
 20
177.25485030920109
 30
0.0
 11
208.1753055379663
 21
182.46433134016769
 31
0.0
  0
LINE
  5
3DE
100
AcDbEntity
  8
レイヤ0
370
               5
390
0
  6
Continuous
 62
               7
100
AcDbLine
 10
194.18589253645419
 20
169.88914827293641
 30
0.0
 11
196.25160677975001
 21
171.95485014424119
 31
0.0
  0
LINE
  5
3DF
100
AcDbEntity
  8
レイヤ0
370
               5
390
0
  6
Continuous
 62
               7
100
AcDbLine
 10
201.5516386877006
 20
177.25485030920109
 30
0.0
 11
207.67103144323519
 21
183.37420641442239
 31
0.0
  0
LINE
  5
3E0
100
AcDbEntity
  8
レイヤ0
370
               5
390
0
  6
Continuous
 62
               7
100
AcDbLine
 10
193.513078914727
 20
170.63055221349811
 30
0.0
 11
194.8373768454704
 21
171.95485014424119
 31
0.0
  0
LINE
  5
3E1
100
AcDbEntity
  8
レイヤ0
370
               5
390
0
  6
Continuous
 62
               7
100
AcDbLine
 10
197.3089498856846
 20
177.25485030920109
 30
0.0
 11
204.1589498032055
 21
184.10485022672131
 31
0.0
  0
LINE
  5
3E2
100
AcDbEntity
  8
レイヤ0
370
               5
390
0
  6
Continuous
 62
               7
100
AcDbLine
 10
198.72316344805731
 20
177.25485030920109
 30
0.0
 11
205.57316336557849
 21
184.1048502267212
 31
0.0
  0
LINE
  5
3E3
100
AcDbEntity
  8
レイヤ0
370
               5
390
0
  6
Continuous
 62
               7
100
AcDbLine
 10
200.13737701043081
 20
177.25485030920109
 30
0.0
 11
206.98737692795169
 21
184.1048502267212
 31
0.0
  0
LINE
  5
3E4
100
AcDbEntity
  8
レイヤ0
370
               5
390
0
  6
Continuous
 62
               7
100
AcDbLine
 10
193.5130789147278
 20
177.70162002536401
 30
0.0
 11
195.16631241528199
 21
179.35485352591809
 31
0.0
  0
LINE
  5
3E5
100
AcDbEntity
  8
レイヤ0
370
               5
390
0
  6
Continuous
 62
               7
100
AcDbLine
 10
194.48052276093841
 20
177.25485030920109
 30
0.0
 11
196.58052597765561
 21
179.35485352591809
 31
0.0
  0
LINE
  5
3E6
100
AcDbEntity
  8
レイヤ0
370
               5
390
0
  6
Continuous
 62
               7
100
AcDbLine
 10
198.51307066673149
 20
181.28739821499391
 30
0.0
 11
201.33052267845909
 21
184.10485022672131
 31
0.0
  0
LINE
  5
3E7
100
AcDbEntity
  8
レイヤ0
370
               5
390
0
  6
Continuous
 62
               7
100
AcDbLine
 10
195.89473632331141
 20
177.25485030920109
 30
0.0
 11
197.994739540029
 21
179.35485352591809
 31
0.0
  0
LINE
  5
3E8
100
AcDbEntity
  8
レイヤ0
370
               5
390
0
  6
Continuous
 62
               7
100
AcDbLine
 10
198.51307066673181
 20
179.87318465262081
 30
0.0
 11
202.7447362408324
 21
184.10485022672131
 31
0.0
  0
LINE
  5
3E9
100
AcDbEntity
  8
レイヤ0
370
               5
390
0
  6
Continuous
 62
               7
100
AcDbLine
 10
221.02170631654289
 20
169.8548531135192
 30
0.0
 11
223.89169895933239
 21
172.72483338431701
 31
0.0
  0
LINE
  5
3EA
100
AcDbEntity
  8
レイヤ0
370
               5
390
0
  6
Continuous
 62
               7
100
AcDbLine
 10
227.6517488529982
 20
176.48486706912399
 30
0.0
 11
229.01312180429611
 21
177.84623415180229
 31
0.0
  0
LINE
  5
3EB
100
AcDbEntity
  8
レイヤ0
370
               5
390
0
  6
Continuous
 62
               7
100
AcDbLine
 10
219.60747638226289
 20
169.8548531135192
 30
0.0
 11
222.81189654511579
 21
173.0592732763719
 31
0.0
  0
LINE
  5
3EC
100
AcDbEntity
  8
レイヤ0
370
               5
390
0
  6
Continuous
 62
               7
100
AcDbLine
 10
226.237490337868
 20
176.48486706912399
 30
0.0
 11
229.01312180429611
 21
179.2604985355521
 31
0.0
  0
LINE
  5
3ED
100
AcDbEntity
  8
レイヤ0
370
               5
390
0
  6
Continuous
 62
               7
100
AcDbLine
 10
218.19325881997409
 20
169.8548531135192
 30
0.0
 11
222.16614432036229
 21
173.82771386997629
 31
0.0
  0
LINE
  5
3EE
100
AcDbEntity
  8
レイヤ0
370
               5
390
0
  6
Continuous
 62
               7
100
AcDbLine
 10
224.82331406889821
 20
176.48486706912399
 30
0.0
 11
227.6933184006584
 21
179.35485352591891
 31
0.0
  0
LINE
  5
3EF
100
AcDbEntity
  8
レイヤ0
370
               5
390
0
  6
Continuous
 62
               7
100
AcDbLine
 10
216.77905362967641
 20
169.8548531135192
 30
0.0
 11
221.52038362166101
 21
174.5961645475189
 31
0.0
  0
LINE
  5
3F0
100
AcDbEntity
  8
レイヤ0
370
               5
390
0
  6
Continuous
 62
               7
100
AcDbLine
 10
223.4090935358436
 20
176.48486706912399
 30
0.0
 11
226.279091226063
 21
179.35485352591891
 31
0.0
  0
LINE
  5
3F1
100
AcDbEntity
  8
レイヤ0
370
               5
390
0
  6
Continuous
 62
               7
100
AcDbLine
 10
196.9630864675313
 20
161.8548502267212
 30
0.0
 11
201.68514209400411
 21
161.85485022672071
 31
0.0
  0
LINE
  5
3F2
100
AcDbEntity
  8
レイヤ0
370
               5
390
0
  6
Continuous
 62
               7
100
AcDbLine
 10
194.7130864675311
 20
187.35485022672111
 30
0.0
 11
201.6851420940057
 21
187.3548502267212
 31
0.0
  0
LINE
  5
3F3
100
AcDbEntity
  8
レイヤ0
370
               5
390
0
  6
Continuous
 62
               7
100
AcDbLine
 10
201.6851420940057
 20
187.3548502267212
 30
0.0
 11
201.68514209400561
 21
186.6048489895218
 31
0.0
  0
LINE
  5
3F4
100
AcDbEntity
  8
レイヤ0
370
               5
390
0
  6
Continuous
 62
               7
100
AcDbLine
 10
201.68514209400411
 20
162.6048514639204
 30
0.0
 11
201.68514209400411
 21
161.85485022672071
 31
0.0
  0
LINE
  5
3F5
100
AcDbEntity
  8
レイヤ0
370
               5
390
0
  6
Continuous
 62
               7
100
AcDbLine
 10
193.96308646753101
 20
158.85485022672131
 30
0.0
 11
193.9630864675309
 21
148.35484518954979
 31
0.0
  0
LINE
  5
3F6
100
AcDbEntity
  8
レイヤ0
370
               5
390
0
  6
Continuous
 62
               7
100
AcDbLine
 10
198.96308879464291
 20
161.85485022672091
 30
0.0
 11
203.96308879464331
 21
166.8548502267212
 31
0.0
  0
LINE
  5
3F7
100
AcDbEntity
  8
レイヤ0
370
               5
390
0
  6
Continuous
 62
               7
100
AcDbLine
 10
195.96309006738849
 20
161.68327862421251
 30
0.0
 11
201.13466166989721
 21
166.85485022672111
 31
0.0
  0
LINE
  5
3F8
100
AcDbEntity
  8
レイヤ0
370
               5
390
0
  6
Continuous
 62
               7
100
AcDbLine
 10
191.69410876436081
 20
185.0074830450065
 30
0.0
 11
194.10396493240481
 21
187.417339213052
 31
0.0
  0
LINE
  5
3F9
100
AcDbEntity
  8
レイヤ0
370
               5
390
0
  6
Continuous
 62
               7
100
AcDbLine
 10
193.04360760112289
 20
183.52855475702179
 30
0.0
 11
196.8699030708207
 21
187.35485022672111
 31
0.0
  0
LINE
  5
3FA
100
AcDbEntity
  8
レイヤ0
370
               5
390
0
  6
Continuous
 62
               7
100
AcDbLine
 10
194.69833019556799
 20
182.35485022672131
 30
0.0
 11
199.6983301955695
 21
187.35485022672111
 31
0.0
  0
LINE
  5
3FB
100
AcDbEntity
  8
レイヤ0
370
               5
390
0
  6
Continuous
 62
               7
100
AcDbLine
 10
190.2495320582272
 20
186.39133346362411
 30
0.0
 11
192.3565324351093
 21
188.4983338405024
 31
0.0
  0
LINE
  5
3FC
100
AcDbEntity
  8
レイヤ0
370
               5
390
0
  6
Continuous
 62
               7
100
AcDbLine
 10
186.51307891472811
 20
174.60485022672111
 30
0.0
 11
183.71307891472799
 21
174.60485022672111
 31
0.0
  0
LINE
  5
3FD
100
AcDbEntity
  8
レイヤ0
370
               5
390
0
  6
Continuous
 62
               7
100
AcDbLine
 10
193.51307891472791
 20
171.95485014424111
 30
0.0
 11
193.5130789147278
 21
170.56196189466351
 31
0.0
  0
LINE
  5
3FE
100
AcDbEntity
  8
レイヤ0
370
               5
390
0
  6
Continuous
 62
               7
100
AcDbLine
 10
184.76306241873959
 20
176.3369042411847
 30
0.0
 11
184.51306159394019
 21
176.08690341638541
 31
0.0
  0
LINE
  5
3FF
100
AcDbEntity
  8
レイヤ0
370
               5
390
0
  6
Continuous
 62
               7
100
AcDbLine
 10
184.76306241873951
 20
172.85484445312511
 30
0.0
 11
184.51306159394019
 21
173.1048452779246
 31
0.0
  0
LINE
  5
400
100
AcDbEntity
  8
レイヤ0
370
               5
390
0
  6
Continuous
 62
               7
100
AcDbLine
 10
184.76306241873951
 20
172.85484445312511
 30
0.0
 11
191.01307066673371
 21
172.85484445312511
 31
0.0
  0
LINE
  5
401
100
AcDbEntity
  8
レイヤ0
370
               5
390
0
  6
Continuous
 62
               7
100
AcDbLine
 10
191.01138807593981
 20
172.86009017736501
 30
0.0
 11
190.51306901713491
 21
173.1048452779246
 31
0.0
  0
LINE
  5
402
100
AcDbEntity
  8
レイヤ0
370
               5
390
0
  6
Continuous
 62
               7
100
AcDbLine
 10
184.51304922194899
 20
173.1048452779246
 30
0.0
 11
190.51306901713491
 21
173.1048452779246
 31
0.0
  0
LINE
  5
403
100
AcDbEntity
  8
レイヤ0
370
               5
390
0
  6
Continuous
 62
               7
100
AcDbLine
 10
191.01307066673371
 20
172.8507122080872
 30
0.0
 11
191.01307066673371
 21
167.10483785472991
 31
0.0
  0
LINE
  5
404
100
AcDbEntity
  8
レイヤ0
370
               5
390
0
  6
Continuous
 62
               7
100
AcDbLine
 10
190.51306901713491
 20
173.1048452779246
 30
0.0
 11
190.51306901713491
 21
172.85484445312511
 31
0.0
  0
LINE
  5
405
100
AcDbEntity
  8
レイヤ0
370
               5
390
0
  6
Continuous
 62
               7
100
AcDbLine
 10
184.5919825253697
 20
174.60485022672111
 30
0.0
 11
186.3419882989655
 21
172.85484445312511
 31
0.0
  0
LINE
  5
406
100
AcDbEntity
  8
レイヤ0
370
               5
390
0
  6
Continuous
 62
               7
100
AcDbLine
 10
191.01307066673371
 20
168.18376208535699
 30
0.0
 11
192.09198252536959
 21
167.10483785472991
 31
0.0
  0
LINE
  5
407
100
AcDbEntity
  8
レイヤ0
370
               5
390
0
  6
Continuous
 62
               7
100
AcDbLine
 10
209.0130681923354
 20
173.6048469275234
 30
0.0
 11
209.0130681923354
 21
175.60484115392751
 31
0.0
  0
LINE
  5
408
100
AcDbEntity
  8
レイヤ0
370
               5
390
0
  6
Continuous
 62
               7
100
AcDbLine
 10
191.01307066673371
 20
167.6048518763198
 30
0.0
 11
188.01307314113191
 21
167.6048518763198
 31
0.0
  0
LINE
  5
409
100
AcDbEntity
  8
レイヤ0
370
               5
390
0
  6
Continuous
 62
               7
100
AcDbLine
 10
188.01307314113191
 20
172.85484445312511
 30
0.0
 11
188.01307314113191
 21
167.6048518763198
 31
0.0
  0
LINE
  5
40A
100
AcDbEntity
  8
レイヤ0
370
               5
390
0
  6
Continuous
 62
               7
100
AcDbLine
 10
191.01307066673371
 20
181.6048485771222
 30
0.0
 11
188.01307314113191
 21
181.6048485771222
 31
0.0
  0
LINE
  5
40B
100
AcDbEntity
  8
レイヤ0
370
               5
390
0
  6
Continuous
 62
               7
100
AcDbLine
 10
188.01307314113191
 20
181.6048485771222
 30
0.0
 11
188.01307314113191
 21
178.9640965580133
 31
0.0
  0
LINE
  5
40C
100
AcDbEntity
  8
レイヤ0
370
               5
390
0
  6
Continuous
 62
               7
100
AcDbLine
 10
207.51307561553011
 20
177.104846102724
 30
0.0
 11
193.5130789147278
 21
177.104846102724
 31
0.0
  0
LINE
  5
40D
100
AcDbEntity
  8
レイヤ0
370
               5
390
0
  6
Continuous
 62
               7
100
AcDbLine
 10
193.5130789147278
 20
181.75129583614881
 30
0.0
 11
193.15952452415559
 21
182.10485022672111
 31
0.0
  0
LINE
  5
40E
100
AcDbEntity
  8
レイヤ0
370
               5
390
0
  6
Continuous
 62
               7
100
AcDbLine
 10
207.51307561553011
 20
172.10484197872691
 30
0.0
 11
193.5130789147278
 21
172.10484197872691
 31
0.0
  0
LINE
  5
40F
100
AcDbEntity
  8
レイヤ0
370
               5
390
0
  6
Continuous
 62
               7
100
AcDbLine
 10
191.01307066673371
 20
172.4264024002324
 30
0.0
 11
193.5130789147278
 21
169.92640652422949
 31
0.0
  0
LINE
  5
410
100
AcDbEntity
  8
レイヤ0
370
               5
390
0
  6
Continuous
 62
               7
100
AcDbLine
 10
191.01307066673371
 20
171.01218483794361
 30
0.0
 11
193.5130789147278
 21
168.51218896194069
 31
0.0
  0
LINE
  5
411
100
AcDbEntity
  8
レイヤ0
370
               5
390
0
  6
Continuous
 62
               7
100
AcDbLine
 10
193.5130789147278
 20
167.45839224530209
 30
0.0
 11
193.5130789147278
 21
172.10484197872691
 31
0.0
  0
LINE
  5
412
100
AcDbEntity
  8
レイヤ0
370
               5
390
0
  6
Continuous
 62
               7
100
AcDbLine
 10
193.1595245241555
 20
167.10483785472991
 30
0.0
 11
191.01307066673371
 21
167.10483785472991
 31
0.0
  0
LINE
  5
413
100
AcDbEntity
  8
レイヤ0
370
               5
390
0
  6
Continuous
 62
               7
100
AcDbLine
 10
193.5130789147278
 20
167.45839224530209
 30
0.0
 11
193.1595245241555
 21
167.10483785472991
 31
0.0
  0
LINE
  5
414
100
AcDbEntity
  8
レイヤ0
370
               5
390
0
  6
Continuous
 62
               7
100
AcDbLine
 10
191.01307066673371
 20
169.5979796476459
 30
0.0
 11
193.33286849190259
 21
167.27819419446811
 31
0.0
  0
LINE
  5
415
100
AcDbEntity
  8
レイヤ0
370
               5
390
0
  6
Continuous
 62
               7
100
AcDbLine
 10
193.15952452415559
 20
182.10485022672111
 30
0.0
 11
191.01307066673371
 21
182.10485022672111
 31
0.0
  0
LINE
  5
416
100
AcDbEntity
  8
レイヤ0
370
               5
390
0
  6
Continuous
 62
               7
100
AcDbLine
 10
184.51304922194899
 20
173.1048452779246
 30
0.0
 11
184.5130492219493
 21
174.60485022672111
 31
0.0
  0
LINE
  5
417
100
AcDbEntity
  8
レイヤ0
370
               5
390
0
  6
Continuous
 62
               7
100
AcDbLine
 10
190.51306901713491
 20
176.10485517551729
 30
0.0
 11
190.51306901713491
 21
176.3548560003168
 31
0.0
  0
LINE
  5
418
100
AcDbEntity
  8
レイヤ0
370
               5
390
0
  6
Continuous
 62
               7
100
AcDbLine
 10
191.01307066673371
 20
182.10485022672111
 30
0.0
 11
191.013070666734
 21
176.33690424119831
 31
0.0
  0
LINE
  5
419
100
AcDbEntity
  8
レイヤ0
370
               5
390
0
  6
Continuous
 62
               7
100
AcDbLine
 10
184.76306241873959
 20
176.3369042411847
 30
0.0
 11
191.013070666734
 21
176.33690424119831
 31
0.0
  0
LINE
  5
41A
100
AcDbEntity
  8
レイヤ0
370
               5
390
0
  6
Continuous
 62
               7
100
AcDbLine
 10
191.01138807593981
 20
176.3496102760769
 30
0.0
 11
190.4765194061122
 21
176.08690341637271
 31
0.0
  0
LINE
  5
41B
100
AcDbEntity
  8
レイヤ0
370
               5
390
0
  6
Continuous
 62
               7
100
AcDbLine
 10
184.51306159394019
 20
176.08690341638541
 30
0.0
 11
190.4765194061122
 21
176.08690341637271
 31
0.0
  0
LINE
  5
41C
100
AcDbEntity
  8
レイヤ0
370
               5
390
0
  6
Continuous
 62
               7
100
AcDbLine
 10
188.01307314113191
 20
178.9640965580133
 30
0.0
 11
188.0130731411306
 21
176.33690424119141
 31
0.0
  0
LINE
  5
41D
100
AcDbEntity
  8
レイヤ0
370
               5
390
0
  6
Continuous
 62
               7
100
AcDbLine
 10
184.51306159393661
 20
174.60485022672111
 30
0.0
 11
184.51306159394019
 21
176.08690341638541
 31
0.0
  0
LINE
  5
41E
100
AcDbEntity
  8
レイヤ0
370
               5
390
0
  6
Continuous
 62
               7
100
AcDbLine
 10
206.1338111177956
 20
177.10484610272411
 30
0.0
 11
209.0130681923354
 21
174.22540125871001
 31
0.0
  0
LINE
  5
41F
100
AcDbEntity
  8
レイヤ0
370
               5
390
0
  6
Continuous
 62
               7
100
AcDbLine
 10
204.71941815802609
 20
177.10484610272411
 30
0.0
 11
208.86638586547741
 21
172.95787839527051
 31
0.0
  0
LINE
  5
420
100
AcDbEntity
  8
レイヤ0
370
               5
390
0
  6
Continuous
 62
               7
100
AcDbLine
 10
203.30522610810331
 20
177.10484610272411
 30
0.0
 11
208.159004900528
 21
172.25104179793101
 31
0.0
  0
LINE
  5
421
100
AcDbEntity
  8
レイヤ0
370
               5
390
0
  6
Continuous
 62
               7
100
AcDbLine
 10
201.89100777736809
 20
177.10484610272411
 30
0.0
 11
206.89098715744311
 21
172.10484197872691
 31
0.0
  0
LINE
  5
422
100
AcDbEntity
  8
レイヤ0
370
               5
390
0
  6
Continuous
 62
               7
100
AcDbLine
 10
200.4767902150783
 20
177.10484610272411
 30
0.0
 11
205.47676959515431
 21
172.10484197872691
 31
0.0
  0
LINE
  5
423
100
AcDbEntity
  8
レイヤ0
370
               5
390
0
  6
Continuous
 62
               7
100
AcDbLine
 10
199.06257265278839
 20
177.10484610272411
 30
0.0
 11
204.0625520328654
 21
172.10484197872691
 31
0.0
  0
LINE
  5
424
100
AcDbEntity
  8
レイヤ0
370
               5
390
0
  6
Continuous
 62
               7
100
AcDbLine
 10
191.0130706667334
 20
176.66904271510819
 30
0.0
 11
195.57727140311459
 21
172.10484197872691
 31
0.0
  0
LINE
  5
425
100
AcDbEntity
  8
レイヤ0
370
               5
390
0
  6
Continuous
 62
               7
100
AcDbLine
 10
191.01307066673331
 20
179.49751442439469
 30
0.0
 11
198.4057065276923
 21
172.10484197872691
 31
0.0
  0
LINE
  5
426
100
AcDbEntity
  8
レイヤ0
370
               5
390
0
  6
Continuous
 62
               7
100
AcDbLine
 10
191.01307066673331
 20
178.08326027739821
 30
0.0
 11
196.99148896540339
 21
172.10484197872691
 31
0.0
  0
LINE
  5
427
100
AcDbEntity
  8
レイヤ0
370
               5
390
0
  6
Continuous
 62
               7
100
AcDbLine
 10
189.93101252190229
 20
176.3369042411955
 30
0.0
 11
194.16305384082571
 21
172.10484197872691
 31
0.0
  0
LINE
  5
428
100
AcDbEntity
  8
レイヤ0
370
               5
390
0
  6
Continuous
 62
               7
100
AcDbLine
 10
188.51678638806101
 20
176.33690424119229
 30
0.0
 11
193.5130789147278
 21
171.3406117145272
 31
0.0
  0
LINE
  5
429
100
AcDbEntity
  8
レイヤ0
370
               5
390
0
  6
Continuous
 62
               7
100
AcDbLine
 10
187.1025934428462
 20
176.33690424118939
 30
0.0
 11
190.58462861384089
 21
172.85484445312511
 31
0.0
  0
LINE
  5
42A
100
AcDbEntity
  8
レイヤ0
370
               5
390
0
  6
Continuous
 62
               7
100
AcDbLine
 10
185.68837588055791
 20
176.33690424118629
 30
0.0
 11
189.17041105155209
 21
172.85484445312511
 31
0.0
  0
LINE
  5
42B
100
AcDbEntity
  8
レイヤ0
370
               5
390
0
  6
Continuous
 62
               7
100
AcDbLine
 10
184.51861569042049
 20
176.09245751286619
 30
0.0
 11
187.75620586125439
 21
172.85484445312511
 31
0.0
  0
LINE
  5
42C
100
AcDbEntity
  8
レイヤ0
370
               5
390
0
  6
Continuous
 62
               7
100
AcDbLine
 10
192.6484623141213
 20
182.10485022671961
 30
0.0
 11
193.5130789147278
 21
181.24022078953001
 31
0.0
  0
LINE
  5
42D
100
AcDbEntity
  8
レイヤ0
370
               5
390
0
  6
Continuous
 62
               7
100
AcDbLine
 10
197.64839220635261
 20
177.10484610272411
 30
0.0
 11
202.6483220985854
 21
172.10484197872691
 31
0.0
  0
LINE
  5
42E
100
AcDbEntity
  8
レイヤ0
370
               5
390
0
  6
Continuous
 62
               7
100
AcDbLine
 10
191.2341952639882
 20
182.10485022671961
 30
0.0
 11
193.51307891472791
 21
179.82594402036821
 31
0.0
  0
LINE
  5
42F
100
AcDbEntity
  8
レイヤ0
370
               5
390
0
  6
Continuous
 62
               7
100
AcDbLine
 10
196.2341499001414
 20
177.10484610272411
 30
0.0
 11
201.2341045362966
 21
172.10484197872691
 31
0.0
  0
LINE
  5
430
100
AcDbEntity
  8
レイヤ0
370
               5
390
0
  6
Continuous
 62
               7
100
AcDbLine
 10
191.0130706667332
 20
180.91171424126509
 30
0.0
 11
193.5130789147278
 21
178.41169362121809
 31
0.0
  0
LINE
  5
431
100
AcDbEntity
  8
レイヤ0
370
               5
390
0
  6
Continuous
 62
               7
100
AcDbLine
 10
194.79673496930999
 20
177.12803121407319
 30
0.0
 11
199.81989934599889
 21
172.10484197872691
 31
0.0
  0
LINE
  5
432
100
AcDbEntity
  8
レイヤ0
370
               5
390
0
  6
Continuous
 62
               7
100
AcDbLine
 10
193.5130789147278
 20
181.75129583614881
 30
0.0
 11
193.5130789147278
 21
177.10484610272499
 31
0.0
  0
LINE
  5
433
100
AcDbEntity
  8
レイヤ0
370
               5
390
0
  6
Continuous
 62
               7
100
AcDbLine
 10
194.7735497432223
 20
177.104846102724
 30
0.0
 11
193.5130789147278
 21
177.10484610272499
 31
0.0
  0
LINE
  5
434
100
AcDbEntity
  8
レイヤ0
370
               5
390
0
  6
Continuous
 62
               7
100
AcDbLine
 10
182.7130864675309
 20
179.8963528488471
 30
0.0
 11
182.7130864675311
 21
178.8548502267212
 31
0.0
  0
LINE
  5
435
100
AcDbEntity
  8
レイヤ0
370
               5
390
0
  6
Continuous
 62
               7
100
AcDbLine
 10
182.71308646753121
 20
170.354850226721
 30
0.0
 11
182.7130864675311
 21
169.31334760459509
 31
0.0
  0
LINE
  5
436
100
AcDbEntity
  8
レイヤ0
370
               5
390
0
  6
Continuous
 62
               7
100
AcDbLine
 10
205.80990619031681
 20
188.74195569114269
 30
0.0
 11
208.75906933419751
 21
185.79286036516049
 31
0.0
  0
LINE
  5
437
100
AcDbEntity
  8
レイヤ0
370
               5
390
0
  6
Continuous
 62
               7
100
AcDbLine
 10
204.86774042609269
 20
188.2699024875682
 30
0.0
 11
207.34483951098301
 21
185.79286036516049
 31
0.0
  0
LINE
  5
438
100
AcDbEntity
  8
レイヤ0
370
               5
390
0
  6
Continuous
 62
               7
100
AcDbLine
 10
204.06747536151579
 20
187.65595184744399
 30
0.0
 11
205.93060968776851
 21
185.79286036516049
 31
0.0
  0
LINE
  5
439
100
AcDbEntity
  8
レイヤ0
370
               5
390
0
  6
Continuous
 62
               7
100
AcDbLine
 10
208.3022508942326
 20
189.07806290447741
 30
0.0
 11
217.77567110936661
 21
179.6048605367186
 31
0.0
  0
LINE
  5
43A
100
AcDbEntity
  8
レイヤ0
370
               5
390
0
  6
Continuous
 62
               7
100
AcDbLine
 10
191.7130864675311
 20
188.60484713372361
 30
0.0
 11
192.27639010267549
 21
188.60484713372361
 31
0.0
  0
LINE
  5
43B
100
AcDbEntity
  8
レイヤ0
370
               5
390
0
  6
Continuous
 62
               7
100
AcDbLine
 10
191.7130864675311
 20
194.6048471337233
 30
0.0
 11
191.7130864675311
 21
188.60484713372361
 31
0.0
  0
LINE
  5
43C
100
AcDbEntity
  8
レイヤ0
370
               5
390
0
  6
Continuous
 62
               7
100
AcDbLine
 10
181.96308982564361
 20
161.85485022672211
 30
0.0
 11
189.46308646752249
 21
161.85485022672171
 31
0.0
  0
LINE
  5
43D
100
AcDbEntity
  8
レイヤ0
370
               5
390
0
  6
Continuous
 62
               7
100
AcDbLine
 10
173.28978975508491
 20
183.1048502267227
 30
0.0
 11
175.96308982564071
 21
183.104850226721
 31
0.0
  0
LINE
  5
43E
100
AcDbEntity
  8
レイヤ0
370
               5
390
0
  6
Continuous
 62
               7
100
AcDbLine
 10
175.21308646753161
 20
186.1048502267204
 30
0.0
 11
177.9630898256417
 21
186.1048502267212
 31
0.0
  0
LINE
  5
43F
100
AcDbEntity
  8
レイヤ0
370
               5
390
0
  6
Continuous
 62
               7
100
AcDbLine
 10
173.2130864675311
 20
192.60485022671659
 30
0.0
 11
173.2130864675303
 21
188.1048502267206
 31
0.0
  0
LINE
  5
440
100
AcDbEntity
  8
レイヤ0
370
               5
390
0
  6
Continuous
 62
               7
100
AcDbLine
 10
176.87856230865549
 20
182.8830262958524
 30
0.0
 11
179.608739628785
 21
185.6132036159832
 31
0.0
  0
LINE
  5
441
100
AcDbEntity
  8
レイヤ0
370
               5
390
0
  6
Continuous
 62
               7
100
AcDbLine
 10
174.27195911478029
 20
183.10485022672279
 30
0.0
 11
177.2719591147779
 21
186.10485022672111
 31
0.0
  0
LINE
  5
442
100
AcDbEntity
  8
レイヤ0
370
               5
390
0
  6
Continuous
 62
               7
100
AcDbLine
 10
170.65239521010321
 20
182.31371344679579
 30
0.0
 11
174.55492752872439
 21
186.2162457654147
 31
0.0
  0
LINE
  5
443
100
AcDbEntity
  8
レイヤ0
370
               5
390
0
  6
Continuous
 62
               7
100
AcDbLine
 10
180.9630898256427
 20
180.60484960812181
 30
0.0
 11
180.96308982564489
 21
183.1048502267202
 31
0.0
  0
LINE
  5
444
100
AcDbEntity
  8
レイヤ0
370
               5
390
0
  6
Continuous
 62
               7
100
AcDbLine
 10
180.9630898256415
 20
165.85485022672219
 30
0.0
 11
180.96308982564261
 21
168.60485084532101
 31
0.0
  0
LINE
  5
445
100
AcDbEntity
  8
レイヤ0
370
               5
390
0
  6
Continuous
 62
               7
100
AcDbLine
 10
177.9630898256413
 20
165.85485022672179
 30
0.0
 11
177.96308982564119
 21
181.104850226721
 31
0.0
  0
LINE
  5
446
100
AcDbEntity
  8
レイヤ0
370
               5
390
0
  6
Continuous
 62
               7
100
AcDbLine
 10
181.96308982564361
 20
164.85485022672179
 30
0.0
 11
192.71308941324239
 21
164.85485022672111
 31
0.0
  0
LINE
  5
447
100
AcDbEntity
  8
レイヤ0
370
               5
390
0
  6
Continuous
 62
               7
100
AcDbLine
 10
193.51308941324459
 20
166.8548502267214
 30
0.0
 11
192.71308941324239
 21
164.85485022672111
 31
0.0
  0
LINE
  5
448
100
AcDbEntity
  8
レイヤ0
370
               5
390
0
  6
Continuous
 62
               7
100
AcDbLine
 10
191.4630864675224
 20
159.85485022672489
 30
0.0
 11
191.4630864675276
 21
156.70459640490211
 31
0.0
  0
LINE
  5
449
100
AcDbEntity
  8
レイヤ0
370
               5
390
0
  6
Continuous
 62
               7
100
AcDbLine
 10
169.4572878743077
 20
183.9470332357439
 30
0.0
 11
173.24721362450029
 21
187.73695898593641
 31
0.0
  0
LINE
  5
44A
100
AcDbEntity
  8
レイヤ0
370
               5
390
0
  6
Continuous
 62
               7
100
AcDbLine
 10
168.40638278216579
 20
180.06770101885471
 30
0.0
 11
170.65239521010301
 21
182.31371344679249
 31
0.0
  0
LINE
  5
44B
100
AcDbEntity
  8
レイヤ0
370
               5
390
0
  6
Continuous
 62
               7
100
AcDbLine
 10
168.42426714268839
 20
165.94344975565241
 30
0.0
 11
170.64729523217869
 21
168.1664778451422
 31
0.0
  0
LINE
  5
44C
100
AcDbEntity
  8
レイヤ0
370
               5
390
0
  6
Continuous
 62
               7
100
AcDbLine
 10
167.87677759822611
 20
176.7096687101668
 30
0.0
 11
170.88845740567871
 21
179.72134851762121
 31
0.0
  0
LINE
  5
44D
100
AcDbEntity
  8
レイヤ0
370
               5
390
0
  6
Continuous
 62
               7
100
AcDbLine
 10
167.68694264570911
 20
173.6914066329083
 30
0.0
 11
170.3535071026667
 21
176.35797108986469
 31
0.0
  0
LINE
  5
44E
100
AcDbEntity
  8
レイヤ0
370
               5
390
0
  6
Continuous
 62
               7
100
AcDbLine
 10
167.859168693832
 20
171.03520555628111
 30
0.0
 11
170.18242704964621
 21
173.35846391209569
 31
0.0
  0
LINE
  5
44F
100
AcDbEntity
  8
レイヤ0
370
               5
390
0
  6
Continuous
 62
               7
100
AcDbLine
 10
168.00377610022849
 20
168.35138583793611
 30
0.0
 11
170.2735888976047
 21
170.62119863531191
 31
0.0
  0
LINE
  5
450
100
AcDbEntity
  8
レイヤ0
370
               5
390
0
  6
Continuous
 62
               7
100
AcDbLine
 10
178.4405290913821
 20
163.95970752142921
 30
0.0
 11
180.96308982564091
 21
166.4822682556885
 31
0.0
  0
LINE
  5
451
100
AcDbEntity
  8
レイヤ0
370
               5
390
0
  6
Continuous
 62
               7
100
AcDbLine
 10
179.79964895294731
 20
162.49040025824911
 30
0.0
 11
182.15751504899669
 21
164.84826635429749
 31
0.0
  0
LINE
  5
452
100
AcDbEntity
  8
レイヤ0
370
               5
390
0
  6
Continuous
 62
               7
100
AcDbLine
 10
181.99263516352929
 20
161.85495934408419
 30
0.0
 11
184.99252604616609
 21
164.85485022672171
 31
0.0
  0
LINE
  5
453
100
AcDbEntity
  8
レイヤ0
370
               5
390
0
  6
Continuous
 62
               7
100
AcDbLine
 10
184.82095317091429
 20
161.85485022672219
 30
0.0
 11
187.82095317091469
 21
164.85485022672151
 31
0.0
  0
LINE
  5
454
100
AcDbEntity
  8
レイヤ0
370
               5
390
0
  6
Continuous
 62
               7
100
AcDbLine
 10
187.64938029565931
 20
161.85485022672211
 30
0.0
 11
190.64938029565829
 21
164.85485022672131
 31
0.0
  0
LINE
  5
455
100
AcDbEntity
  8
レイヤ0
370
               5
390
0
  6
Continuous
 62
               7
100
AcDbLine
 10
190.2960812449067
 20
161.67312405122189
 30
0.0
 11
195.47780742040499
 21
166.85485022672111
 31
0.0
  0
LINE
  5
456
100
AcDbEntity
  8
レイヤ0
370
               5
390
0
  6
Continuous
 62
               7
100
AcDbLine
 10
191.457367964583
 20
160.00598364615311
 30
0.0
 11
198.30623454515111
 21
166.85485022672111
 31
0.0
  0
LINE
  5
457
100
AcDbEntity
  8
レイヤ0
370
               5
390
0
  6
Continuous
 62
               7
100
AcDbLine
 10
191.46308646752661
 20
157.18327502435221
 30
0.0
 11
193.96308646753161
 21
159.68327502435719
 31
0.0
  0
LINE
  5
458
100
AcDbEntity
  8
レイヤ0
370
               5
390
0
  6
Continuous
 62
               7
100
AcDbLine
 10
186.26306736753429
 20
178.06894588365731
 30
0.0
 11
186.01306654273489
 21
177.1398464656358
 31
0.0
  0
LINE
  5
459
100
AcDbEntity
  8
レイヤ0
370
               5
390
0
  6
Continuous
 62
               7
100
AcDbLine
 10
186.01306654273489
 20
172.06984161581519
 30
0.0
 11
186.26306736753429
 21
171.1407545697848
 31
0.0
  0
LINE
  5
45A
100
AcDbEntity
  8
レイヤ0
370
               5
390
0
  6
Continuous
 62
               7
100
AcDbLine
 10
186.01306654273489
 20
172.06984161581519
 30
0.0
 11
186.01306654273489
 21
172.85484445312511
 31
0.0
  0
LINE
  5
45B
100
AcDbEntity
  8
レイヤ0
370
               5
390
0
  6
Continuous
 62
               7
100
AcDbLine
 10
186.26306736753429
 20
178.06894588365731
 30
0.0
 11
188.01307314113021
 21
178.06894588365731
 31
0.0
  0
LINE
  5
45C
100
AcDbEntity
  8
レイヤ0
370
               5
390
0
  6
Continuous
 62
               7
100
AcDbLine
 10
186.26306736753429
 20
171.1407545697848
 30
0.0
 11
188.01307314113021
 21
171.1407545697848
 31
0.0
  0
LINE
  5
45D
100
AcDbEntity
  8
レイヤ0
370
               5
390
0
  6
Continuous
 62
               7
100
AcDbLine
 10
186.01306654273489
 20
177.1398464656358
 30
0.0
 11
186.01306654273401
 21
176.33690424118601
 31
0.0
  0
LINE
  5
45E
100
AcDbEntity
  8
レイヤ0
370
               5
390
0
  6
Continuous
 62
               7
100
AcDbLine
 10
209.51310695790721
 20
168.10485022672111
 30
0.0
 11
211.9553117113683
 21
168.56252486322441
 31
0.0
  0
LINE
  5
45F
100
AcDbEntity
  8
レイヤ0
370
               5
390
0
  6
Continuous
 62
               7
100
AcDbLine
 10
209.51310695790701
 20
163.60485022672131
 30
0.0
 11
211.14978597017199
 21
163.60485022672131
 31
0.0
  0
LINE
  5
460
100
AcDbEntity
  8
レイヤ0
370
               5
390
0
  6
Continuous
 62
               7
100
AcDbLine
 10
209.51310695790701
 20
163.60485022672131
 30
0.0
 11
209.51310695790701
 21
168.10485022672111
 31
0.0
  0
LINE
  5
461
100
AcDbEntity
  8
レイヤ0
370
               5
390
0
  6
Continuous
 62
               7
100
AcDbLine
 10
209.51310695790701
 20
169.5962610820489
 30
0.0
 11
211.92171839182649
 21
169.35366712467709
 31
0.0
  0
LINE
  5
462
100
AcDbEntity
  8
レイヤ0
370
               5
390
0
  6
Continuous
 62
               7
100
AcDbLine
 10
209.71309128671609
 20
164.85485022672381
 30
0.0
 11
209.71309128671629
 21
169.60486466071171
 31
0.0
  0
LINE
  5
463
100
AcDbEntity
  8
レイヤ0
370
               5
390
0
  6
Continuous
 62
               7
100
AcDbLine
 10
208.51309128671821
 20
169.60486466071089
 30
0.0
 11
209.71309128671629
 21
169.60486466071171
 31
0.0
  0
LINE
  5
464
100
AcDbEntity
  8
レイヤ0
370
               5
390
0
  6
Continuous
 62
               7
100
AcDbLine
 10
209.51310695790701
 20
169.5962610820489
 30
0.0
 11
209.5131069579048
 21
169.85485311351911
 31
0.0
  0
LINE
  5
465
100
AcDbEntity
  8
レイヤ0
370
               5
390
0
  6
Continuous
 62
               7
100
AcDbLine
 10
208.51309128671821
 20
166.48687545568561
 30
0.0
 11
209.71309128671649
 21
165.2868903018454
 31
0.0
  0
LINE
  5
466
100
AcDbEntity
  8
レイヤ0
370
               5
390
0
  6
Continuous
 62
               7
100
AcDbLine
 10
208.51309128671821
 20
167.9010930179744
 30
0.0
 11
209.71309128671649
 21
166.70110786413471
 31
0.0
  0
LINE
  5
467
100
AcDbEntity
  8
レイヤ0
370
               5
390
0
  6
Continuous
 62
               7
100
AcDbLine
 10
208.51309128671821
 20
169.31531058026329
 30
0.0
 11
209.7130912867166
 21
168.1152957341059
 31
0.0
  0
LINE
  5
468
100
AcDbEntity
  8
レイヤ0
370
               5
390
0
  6
Continuous
 62
               7
100
AcDbLine
 10
209.51310695790721
 20
181.10485022672131
 30
0.0
 11
209.51310695790721
 21
185.79286036515521
 31
0.0
  0
LINE
  5
469
100
AcDbEntity
  8
レイヤ0
370
               5
390
0
  6
Continuous
 62
               7
100
AcDbLine
 10
209.51310695790829
 20
179.61343937139301
 30
0.0
 11
211.92171839182649
 21
179.85603332876531
 31
0.0
  0
LINE
  5
46A
100
AcDbEntity
  8
レイヤ0
370
               5
390
0
  6
Continuous
 62
               7
100
AcDbLine
 10
209.51310695790829
 20
179.61343937139301
 30
0.0
 11
209.5131069579092
 21
179.35485352591871
 31
0.0
  0
LINE
  5
46B
100
AcDbEntity
  8
レイヤ0
370
               5
390
0
  6
Continuous
 62
               7
100
AcDbLine
 10
209.71309128671589
 20
184.35485022672111
 30
0.0
 11
209.71309128671589
 21
179.35485352591871
 31
0.0
  0
LINE
  5
46C
100
AcDbEntity
  8
レイヤ0
370
               5
390
0
  6
Continuous
 62
               7
100
AcDbLine
 10
206.92603675479421
 20
189.04004809489621
 30
0.0
 11
210.1732991574174
 21
185.79286036515521
 31
0.0
  0
LINE
  5
46D
100
AcDbEntity
  8
レイヤ0
370
               5
390
0
  6
Continuous
 62
               7
100
AcDbLine
 10
213.25157630551229
 20
182.71465400401809
 30
0.0
 11
216.361441286152
 21
179.6048605367186
 31
0.0
  0
LINE
  5
46E
100
AcDbEntity
  8
レイヤ0
370
               5
390
0
  6
Continuous
 62
               7
100
AcDbLine
 10
187.71308646753101
 20
204.10484713372429
 30
0.0
 11
187.71308646753101
 21
199.27151380038649
 31
0.0
  0
LINE
  5
46F
100
AcDbEntity
  8
レイヤ0
370
               5
390
0
  6
Continuous
 62
               7
100
AcDbLine
 10
187.71308646753101
 20
199.27151380038649
 30
0.0
 11
188.21308646753161
 21
198.60484713372421
 31
0.0
  0
LINE
  5
470
100
AcDbEntity
  8
レイヤ0
370
               5
390
0
  6
Continuous
 62
               7
100
AcDbLine
 10
174.7130864675311
 20
204.10484713372409
 30
0.0
 11
174.71308646753161
 21
199.27151380039189
 31
0.0
  0
LINE
  5
471
100
AcDbEntity
  8
レイヤ0
370
               5
390
0
  6
Continuous
 62
               7
100
AcDbLine
 10
174.21308646753141
 20
198.60484713372429
 30
0.0
 11
174.71308646753161
 21
199.27151380039189
 31
0.0
  0
LINE
  5
472
100
AcDbEntity
  8
レイヤ0
370
               5
390
0
  6
Continuous
 62
               7
100
AcDbLine
 10
189.21308646752749
 20
192.60484713372389
 30
0.0
 11
188.2130864675328
 21
198.60484713372671
 31
0.0
  0
LINE
  5
473
100
AcDbEntity
  8
レイヤ0
370
               5
390
0
  6
Continuous
 62
               7
100
AcDbLine
 10
174.21308646753241
 20
198.60484713372429
 30
0.0
 11
173.21308646752979
 21
192.6048471337032
 31
0.0
  0
LINE
  5
474
100
AcDbEntity
  8
レイヤ0
370
               5
390
0
  6
Continuous
 62
               7
100
AcDbLine
 10
188.22848984425741
 20
198.51242687337981
 30
0.0
 11
191.71308646753039
 21
201.99702349665219
 31
0.0
  0
LINE
  5
475
100
AcDbEntity
  8
レイヤ0
370
               5
390
0
  6
Continuous
 62
               7
100
AcDbLine
 10
188.63255086207641
 20
196.08806076645169
 30
0.0
 11
191.7130864675305
 21
199.16859637190711
 31
0.0
  0
LINE
  5
476
100
AcDbEntity
  8
レイヤ0
370
               5
390
0
  6
Continuous
 62
               7
100
AcDbLine
 10
189.03661187989491
 20
193.66369465952641
 30
0.0
 11
191.7130864675305
 21
196.34016924716059
 31
0.0
  0
LINE
  5
477
100
AcDbEntity
  8
レイヤ0
370
               5
390
0
  6
Continuous
 62
               7
100
AcDbLine
 10
170.71308646753079
 20
193.68811320320609
 30
0.0
 11
173.92973968142951
 21
196.90476641710481
 31
0.0
  0
LINE
  5
478
100
AcDbEntity
  8
レイヤ0
370
               5
390
0
  6
Continuous
 62
               7
100
AcDbLine
 10
174.2130864675313
 20
198.60484713372429
 30
0.0
 11
188.21308646753161
 21
198.60484713372421
 31
0.0
  0
LINE
  5
479
100
AcDbEntity
  8
レイヤ0
370
               5
390
0
  6
Continuous
 62
               7
100
AcDbLine
 10
173.21308646753269
 20
192.60484713372421
 30
0.0
 11
189.21308646752749
 21
192.60484713372389
 31
0.0
  0
LINE
  5
47A
100
AcDbEntity
  8
レイヤ0
370
               5
390
0
  6
Continuous
 62
               7
100
AcDbLine
 10
174.7130864675311
 20
214.7672176804972
 30
0.0
 11
174.7130864675311
 21
205.10484713372401
 31
0.0
  0
LINE
  5
47B
100
AcDbEntity
  8
レイヤ0
370
               5
390
0
  6
Continuous
 62
               7
100
AcDbLine
 10
187.71305153138499
 20
214.7672176804972
 30
0.0
 11
187.71305153138499
 21
204.6538428099999
 31
0.0
  0
LINE
  5
47C
100
AcDbEntity
  8
レイヤ0
370
               5
390
0
  6
Continuous
 62
               7
100
AcDbLine
 10
160.5377929750646
 20
174.60485022672111
 30
0.0
 11
246.71025349174221
 21
174.60485022672131
 31
0.0
  0
LINE
  5
47D
100
AcDbEntity
  8
レイヤ0
370
               5
390
0
  6
Continuous
 62
               7
100
AcDbLine
 10
170.7130864675311
 20
194.60484713372369
 30
0.0
 11
170.71308646752809
 21
193.10484713372321
 31
0.0
  0
LINE
  5
47E
100
AcDbEntity
  8
レイヤ0
370
               5
390
0
  6
Continuous
 62
               7
100
AcDbLine
 10
170.7130864675311
 20
194.60484713372321
 30
0.0
 11
170.71308646753101
 21
193.1048471337231
 31
0.0
  0
LINE
  5
47F
100
AcDbEntity
  8
レイヤ0
370
               5
390
0
  6
Continuous
 62
               7
100
AcDbLine
 10
170.71308646753101
 20
190.85968607845859
 30
0.0
 11
173.36405425648081
 21
193.51065386740979
 31
0.0
  0
LINE
  5
480
100
AcDbEntity
  8
レイヤ0
370
               5
390
0
  6
Continuous
 62
               7
100
AcDbLine
 10
170.71308646753101
 20
188.03125895371181
 30
0.0
 11
173.21308646753059
 21
190.53125895371221
 31
0.0
  0
LINE
  5
481
100
AcDbEntity
  8
レイヤ0
370
               5
390
0
  6
Continuous
 62
               7
100
AcDbLine
 10
170.71308646753079
 20
187.15322556978211
 30
0.0
 11
170.71308646753101
 21
193.1048471337231
 31
0.0
  0
LINE
  5
482
100
AcDbEntity
  8
レイヤ0
370
               5
390
0
  6
Continuous
 62
               7
100
AcDbLine
 10
124.55359765051401
 20
204.60484713372369
 30
0.0
 11
170.7130864675313
 21
204.60484713372369
 31
0.0
  0
LINE
  5
483
100
AcDbEntity
  8
レイヤ0
370
               5
390
0
  6
Continuous
 62
               7
100
AcDbLine
 10
124.55359765051401
 20
73.60484374261884
 30
0.0
 11
171.2330776734359
 21
73.60484374261884
 31
0.0
  0
LINE
  5
484
100
AcDbEntity
  8
レイヤ0
370
               5
390
0
  6
Continuous
 62
               7
100
AcDbLine
 10
147.2057635829662
 20
139.6048478996081
 30
0.0
 11
168.71308917759029
 21
139.6048478996081
 31
0.0
  0
LINE
  5
485
100
AcDbEntity
  8
レイヤ0
370
               5
390
0
  6
Continuous
 62
               7
100
AcDbLine
 10
154.40106461086631
 20
174.60485022672111
 30
0.0
 11
166.71623508992241
 21
174.60485022672111
 31
0.0
  0
CIRCLE
  5
486
100
AcDbEntity
  8
レイヤ0
370
               5
390
0
  6
Continuous
 62
               7
100
AcDbCircle
 10
181.2130864675311
 20
174.60485022672111
 30
0.0
 40
10.0959737150813
  0
ARC
  5
487
100
AcDbEntity
  8
レイヤ0
370
               5
390
0
  6
Continuous
 62
               7
100
AcDbCircle
 10
198.21309896544591
 20
85.604862713005332
 30
0.0
 40
12.999999587600314
100
AcDbArc
 50
0.0
 51
90.0
  0
ARC
  5
488
100
AcDbEntity
  8
レイヤ0
370
               5
390
0
  6
Continuous
 62
               7
100
AcDbCircle
 10
164.21307339666421
 20
85.604862713005332
 30
0.0
 40
12.9999995876003
100
AcDbArc
 50
90.0
 51
180.0
  0
ARC
  5
489
100
AcDbEntity
  8
レイヤ0
370
               5
390
0
  6
Continuous
 62
               7
100
AcDbCircle
 10
193.71309649104771
 20
96.604849516214813
 30
0.0
 40
1.9999998324626205
100
AcDbArc
 50
90.0
 51
180.0
  0
ARC
  5
48A
100
AcDbEntity
  8
レイヤ0
370
               5
390
0
  6
Continuous
 62
               7
100
AcDbCircle
 10
198.21309896544591
 20
85.604862713005332
 30
0.0
 40
12.500000257749832
100
AcDbArc
 50
0.0
 51
90.0
  0
ARC
  5
48B
100
AcDbEntity
  8
レイヤ0
370
               5
390
0
  6
Continuous
 62
               7
100
AcDbCircle
 10
193.71309649104771
 20
96.604849516214813
 30
0.0
 40
1.4999999226750589
100
AcDbArc
 50
90.0
 51
180.0
  0
ARC
  5
48C
100
AcDbEntity
  8
レイヤ0
370
               5
390
0
  6
Continuous
 62
               7
100
AcDbCircle
 10
194.71308646753039
 20
189.6048489895224
 30
0.0
 40
5.5
100
AcDbArc
 50
179.99999999999883
 51
248.67634667837288
  0
ARC
  5
48D
100
AcDbEntity
  8
レイヤ0
370
               5
390
0
  6
Continuous
 62
               7
100
AcDbCircle
 10
233.43103611753531
 20
150.38331859071511
 30
0.0
 40
5.0000002577498268
100
AcDbArc
 50
279.17628479003895
 51
354.06390380859364
  0
ARC
  5
48E
100
AcDbEntity
  8
レイヤ0
370
               5
390
0
  6
Continuous
 62
               7
100
AcDbCircle
 10
113.7600568496932
 20
172.10477393277591
 30
0.0
 40
124.77779079127961
100
AcDbArc
 50
354.39518737792969
 51
356.80564880371082
  0
ARC
  5
48F
100
AcDbEntity
  8
レイヤ0
370
               5
390
0
  6
Continuous
 62
               7
100
AcDbCircle
 10
237.39290646566661
 20
166.19907819797859
 30
0.0
 40
1.0000000128874771
100
AcDbArc
 50
357.26506042480497
 51
87.222396850586108
  0
ARC
  5
490
100
AcDbEntity
  8
レイヤ0
370
               5
390
0
  6
Continuous
 62
               7
100
AcDbCircle
 10
230.5130772651282
 20
169.03580255661461
 30
0.0
 40
1.5000000193312246
100
AcDbArc
 50
180.0
 51
267.22221374511719
  0
ARC
  5
491
100
AcDbEntity
  8
レイヤ0
370
               5
390
0
  6
Continuous
 62
               7
100
AcDbCircle
 10
229.5130987099129
 20
192.01461717140029
 30
0.0
 40
0.5000000064437441
100
AcDbArc
 50
80.538253784179062
 51
180.0
  0
ARC
  5
492
100
AcDbEntity
  8
レイヤ0
370
               5
390
0
  6
Continuous
 62
               7
100
AcDbCircle
 10
233.78701541836929
 20
186.74022702808321
 30
0.0
 40
5.000000257749817
100
AcDbArc
 50
57.460479736327919
 51
80.537628173828111
  0
ARC
  5
493
100
AcDbEntity
  8
レイヤ0
370
               5
390
0
  6
Continuous
 62
               7
100
AcDbCircle
 10
233.78701541836929
 20
186.74022702808321
 30
0.0
 40
5.0000002577498117
100
AcDbArc
 50
11.310028076171925
 51
57.460479736327919
  0
ARC
  5
494
100
AcDbEntity
  8
レイヤ0
370
               5
390
0
  6
Continuous
 62
               7
100
AcDbCircle
 10
113.7600568496932
 20
172.10477393277591
 30
0.0
 40
124.77779079127959
100
AcDbArc
 50
358.96681213378906
 51
0.0551300048828125
  0
ARC
  5
495
100
AcDbEntity
  8
レイヤ0
370
               5
390
0
  6
Continuous
 62
               7
100
AcDbCircle
 10
113.7600568496932
 20
172.10477393277591
 30
0.0
 40
126.27779574007599
100
AcDbArc
 50
1.1344451904297022
 51
5.2251434326171964
  0
ARC
  5
496
100
AcDbEntity
  8
レイヤ0
370
               5
390
0
  6
Continuous
 62
               7
100
AcDbCircle
 10
113.7600568496932
 20
172.10477393277591
 30
0.0
 40
126.27779574007597
100
AcDbArc
 50
354.39518737792969
 51
0.0544738769530682
  0
ARC
  5
497
100
AcDbEntity
  8
レイヤ0
370
               5
390
0
  6
Continuous
 62
               7
100
AcDbCircle
 10
198.2820237323474
 20
174.6048502267212
 30
0.0
 40
45.219417262721713
100
AcDbArc
 50
351.54792785644526
 51
8.4520721435547443
  0
ARC
  5
498
100
AcDbEntity
  8
レイヤ0
370
               5
390
0
  6
Continuous
 62
               7
100
AcDbCircle
 10
209.21881557114381
 20
185.62240638967029
 30
0.0
 40
3.0000000000000138
100
AcDbArc
 50
32.941494405072945
 51
53.328003410812656
  0
ARC
  5
499
100
AcDbEntity
  8
レイヤ0
370
               5
390
0
  6
Continuous
 62
               7
100
AcDbCircle
 10
232.9727353119176
 20
201.01392031477951
 30
0.0
 40
25.304547407756971
100
AcDbArc
 50
212.94149440507329
 51
233.75883948264249
  0
ARC
  5
49A
100
AcDbEntity
  8
レイヤ0
370
               5
390
0
  6
Continuous
 62
               7
100
AcDbCircle
 10
207.7630764403288
 20
183.66738909515431
 30
0.0
 40
5.4374718539594351
100
AcDbArc
 50
53.32800341081262
 51
133.60310143119543
  0
ARC
  5
49B
100
AcDbEntity
  8
レイヤ0
370
               5
390
0
  6
Continuous
 62
               7
100
AcDbCircle
 10
209.21881557114389
 20
163.58729406377219
 30
0.0
 40
3.0000000000000053
100
AcDbArc
 50
306.67199658918736
 51
327.05850559492677
  0
ARC
  5
49C
100
AcDbEntity
  8
レイヤ0
370
               5
390
0
  6
Continuous
 62
               7
100
AcDbCircle
 10
232.97273531191769
 20
148.19578013866291
 30
0.0
 40
25.304547407756978
100
AcDbArc
 50
126.24116051735882
 51
147.0585055949266
  0
ARC
  5
49D
100
AcDbEntity
  8
レイヤ0
370
               5
390
0
  6
Continuous
 62
               7
100
AcDbCircle
 10
207.763076440329
 20
165.5423113582882
 30
0.0
 40
5.4374718539594431
100
AcDbArc
 50
226.39689856880184
 51
306.67199658918747
  0
ARC
  5
49E
100
AcDbEntity
  8
レイヤ0
370
               5
390
0
  6
Continuous
 62
               7
100
AcDbCircle
 10
211.88163342800669
 20
168.95568069818091
 30
0.0
 40
0.4000000000000126
100
AcDbArc
 50
280.61424406600543
 51
84.248597909635521
  0
ARC
  5
49F
100
AcDbEntity
  8
レイヤ0
370
               5
390
0
  6
Continuous
 62
               7
100
AcDbCircle
 10
211.88163342800669
 20
180.2540197552616
 30
0.0
 40
0.3999999999999891
100
AcDbArc
 50
275.75140209036448
 51
79.385755933994574
  0
ARC
  5
4A0
100
AcDbEntity
  8
レイヤ0
370
               5
390
0
  6
Continuous
 62
               7
100
AcDbCircle
 10
190.6381853138511
 20
174.6048502267212
 30
0.0
 40
6.1251191835145731
100
AcDbArc
 50
163.57386779785148
 51
164.55410766601568
  0
ARC
  5
4A1
100
AcDbEntity
  8
レイヤ0
370
               5
390
0
  6
Continuous
 62
               7
100
AcDbCircle
 10
229.51309870991281
 20
145.1921053437766
 30
0.0
 40
0.5000000064437415
100
AcDbArc
 50
180.0
 51
279.1762084960954
  0
ARC
  5
4A2
100
AcDbEntity
  8
レイヤ0
370
               5
390
0
  6
Continuous
 62
               7
100
AcDbCircle
 10
233.43103611753531
 20
150.38331859071499
 30
0.0
 40
3.5000003350747462
100
AcDbArc
 50
279.17628479003923
 51
354.06390380859358
  0
ARC
  5
4A3
100
AcDbEntity
  8
レイヤ0
370
               5
390
0
  6
Continuous
 62
               7
100
AcDbCircle
 10
180.96308982564261
 20
169.35484748720901
 30
0.0
 40
0.7499999910247936
100
AcDbArc
 50
270.0
 51
90.0
  0
ARC
  5
4A4
100
AcDbEntity
  8
レイヤ0
370
               5
390
0
  6
Continuous
 62
               7
100
AcDbCircle
 10
180.9630898256427
 20
179.85485296623369
 30
0.0
 40
0.7499999910247936
100
AcDbArc
 50
270.0
 51
90.0
  0
ARC
  5
4A5
100
AcDbEntity
  8
レイヤ0
370
               5
390
0
  6
Continuous
 62
               7
100
AcDbCircle
 10
196.9630864675313
 20
158.8548502267212
 30
0.0
 40
3.0
100
AcDbArc
 50
90.0
 51
179.99999999999835
  0
ARC
  5
4A6
100
AcDbEntity
  8
レイヤ0
370
               5
390
0
  6
Continuous
 62
               7
100
AcDbCircle
 10
207.51307561553011
 20
175.60484115392751
 30
0.0
 40
1.5000000193312246
100
AcDbArc
 50
0.0
 51
90.0
  0
ARC
  5
4A7
100
AcDbEntity
  8
レイヤ0
370
               5
390
0
  6
Continuous
 62
               7
100
AcDbCircle
 10
207.51307561553011
 20
173.6048469275234
 30
0.0
 40
1.5000000193312246
100
AcDbArc
 50
270.0
 51
0.0
  0
ARC
  5
4A8
100
AcDbEntity
  8
レイヤ0
370
               5
390
0
  6
Continuous
 62
               7
100
AcDbCircle
 10
181.2130864675311
 20
174.60485022672131
 30
0.0
 40
5.4999999999984359
100
AcDbArc
 50
285.82662013188036
 51
309.40056875371266
  0
ARC
  5
4A9
100
AcDbEntity
  8
レイヤ0
370
               5
390
0
  6
Continuous
 62
               7
100
AcDbCircle
 10
181.2130864675311
 20
174.60485022672131
 30
0.0
 40
5.4999999999984439
100
AcDbArc
 50
50.599431246278307
 51
74.173379868120591
  0
ARC
  5
4AA
100
AcDbEntity
  8
レイヤ0
370
               5
390
0
  6
Continuous
 62
               7
100
AcDbCircle
 10
194.7130864675311
 20
190.35485022672091
 30
0.0
 40
2.9999999999999889
100
AcDbArc
 50
215.68540744050674
 51
269.99999999999943
  0
ARC
  5
4AB
100
AcDbEntity
  8
レイヤ0
370
               5
390
0
  6
Continuous
 62
               7
100
AcDbCircle
 10
175.96308982564071
 20
181.104850226721
 30
0.0
 40
2.0
100
AcDbArc
 50
0.0
 51
90.0
  0
ARC
  5
4AC
100
AcDbEntity
  8
レイヤ0
370
               5
390
0
  6
Continuous
 62
               7
100
AcDbCircle
 10
173.2897897550848
 20
181.1048502267243
 30
0.0
 40
2.0
100
AcDbArc
 50
89.999999999997556
 51
164.32685756268322
  0
ARC
  5
4AD
100
AcDbEntity
  8
レイヤ0
370
               5
390
0
  6
Continuous
 62
               7
100
AcDbCircle
 10
175.2130864675315
 20
188.1048502267204
 30
0.0
 40
2.0
100
AcDbArc
 50
179.99999999999349
 51
270.00000000000409
  0
ARC
  5
4AE
100
AcDbEntity
  8
レイヤ0
370
               5
390
0
  6
Continuous
 62
               7
100
AcDbCircle
 10
177.96308982564159
 20
183.1048502267212
 30
0.0
 40
3.0
100
AcDbArc
 50
359.99999999997937
 51
89.999999999998352
  0
ARC
  5
4AF
100
AcDbEntity
  8
レイヤ0
370
               5
390
0
  6
Continuous
 62
               7
100
AcDbCircle
 10
181.96308982564361
 20
165.85485022672179
 30
0.0
 40
1.0
100
AcDbArc
 50
179.99999999997561
 51
270.0
  0
ARC
  5
4B0
100
AcDbEntity
  8
レイヤ0
370
               5
390
0
  6
Continuous
 62
               7
100
AcDbCircle
 10
181.96308982564361
 20
165.85485022672179
 30
0.0
 40
4.0
100
AcDbArc
 50
180.00000000000082
 51
270.0000000000008
  0
ARC
  5
4B1
100
AcDbEntity
  8
レイヤ0
370
               5
390
0
  6
Continuous
 62
               7
100
AcDbCircle
 10
189.4630864675224
 20
159.85485022672171
 30
0.0
 40
2.0
100
AcDbArc
 50
0.0000000000944498
 51
89.999999999999176
  0
ARC
  5
4B2
100
AcDbEntity
  8
レイヤ0
370
               5
390
0
  6
Continuous
 62
               7
100
AcDbCircle
 10
189.46308646752851
 20
156.70459640489869
 30
0.0
 40
1.9999999999999876
100
AcDbArc
 50
293.9624889745009
 51
0.0000000000993623
  0
ARC
  5
4B3
100
AcDbEntity
  8
レイヤ0
370
               5
390
0
  6
Continuous
 62
               7
100
AcDbCircle
 10
202.0042314486704
 20
173.0481062161075
 30
0.0
 40
31.82331782057345
100
AcDbArc
 50
164.32685756268242
 51
192.72945566769181
  0
ARC
  5
4B4
100
AcDbEntity
  8
レイヤ0
370
               5
390
0
  6
Continuous
 62
               7
100
AcDbCircle
 10
188.21308646753121
 20
204.10484713372421
 30
0.0
 40
0.5
100
AcDbArc
 50
89.999999999996746
 51
179.99999999999679
  0
ARC
  5
4B5
100
AcDbEntity
  8
レイヤ0
370
               5
390
0
  6
Continuous
 62
               7
100
AcDbCircle
 10
174.2130864675311
 20
204.10484713372401
 30
0.0
 40
0.5
100
AcDbArc
 50
0.0
 51
89.99999999999676
  0
ARC
  5
4B6
100
AcDbEntity
  8
レイヤ0
370
               5
390
0
  6
Continuous
 62
               7
100
AcDbCircle
 10
202.0042314486704
 20
173.0481062161075
 30
0.0
 40
34.323317820573465
100
AcDbArc
 50
162.96233734840331
 51
192.25526118613044
  0
ARC
  5
4B7
100
AcDbEntity
  8
レイヤ0
370
               5
390
0
  6
Continuous
 62
               7
100
AcDbCircle
 10
202.0042314486704
 20
173.0481062161075
 30
0.0
 40
34.323317820573465
100
AcDbArc
 50
155.73556178541921
 51
162.96233734840325
  0
MTEXT
  5
4B8
100
AcDbEntity
  8
レイヤ0
390
0
 62
               7
100
AcDbMText
 10
20.064157329274934
 20
280.24874973183751
 30
0.0
 40
2.3166023166023169
 41
0.0
 71
               5
 72
               1
  1
訂番
  7
ＭＳ ゴシック
 73
               1
 44
0.7828267384257843
  0
MTEXT
  5
4B9
100
AcDbEntity
  8
レイヤ0
390
0
 62
               7
100
AcDbMText
 10
33.064157329274934
 20
280.24874973183751
 30
0.0
 40
2.3166023166023169
 41
0.0
 71
               5
 72
               1
  1
年月日
  7
ＭＳ ゴシック
 73
               1
 44
0.7828267384257843
  0
MTEXT
  5
4BA
100
AcDbEntity
  8
レイヤ0
390
0
 62
               7
100
AcDbMText
 10
152.4641573292748
 20
280.24874973183728
 30
0.0
 40
2.3166023166023169
 41
0.0
 71
               5
 72
               1
  1
設変書No.
  7
ＭＳ ゴシック
 73
               1
 44
0.7828267384257843
  0
MTEXT
  5
4BB
100
AcDbEntity
  8
レイヤ0
390
0
 62
               7
100
AcDbMText
 10
139.96415732927451
 20
280.24874973183728
 30
0.0
 40
2.3166023166023169
 41
0.0
 71
               5
 72
               1
  1
承認
  7
ＭＳ ゴシック
 73
               1
 44
0.7828267384257843
  0
MTEXT
  5
4BC
100
AcDbEntity
  8
レイヤ0
390
0
 62
               7
100
AcDbMText
 10
88.064157329274906
 20
280.24874973183728
 30
0.0
 40
2.3166023166023169
 41
0.0
 71
               5
 72
               1
  1
改　　訂　　事　　項
  7
ＭＳ ゴシック
 73
               1
 44
0.7828267384257843
  0
MTEXT
  5
4BD
100
AcDbEntity
  8
レイヤ0
390
0
 62
               7
100
AcDbMText
 10
37.564157329275332
 20
285.3305509885281
 30
0.0
 40
3.0888030888030884
 41
0.0
 71
               5
 72
               1
  1
１
  7
ＭＳ ゴシック
 73
               1
 44
0.7828267384257843
  0
MTEXT
  5
4BE
100
AcDbEntity
  8
レイヤ0
390
0
 62
               7
100
AcDbMText
 10
85.064157329275062
 20
285.33055098852799
 30
0.0
 40
3.0888030888030884
 41
0.0
 71
               5
 72
               1
  1
２
  7
ＭＳ ゴシック
 73
               1
 44
0.7828267384257843
  0
MTEXT
  5
4BF
100
AcDbEntity
  8
レイヤ0
390
0
 62
               7
100
AcDbMText
 10
135.06415732927451
 20
285.3305509885281
 30
0.0
 40
3.0888030888030884
 41
0.0
 71
               5
 72
               1
  1
３
  7
ＭＳ ゴシック
 73
               1
 44
0.7828267384257843
  0
MTEXT
  5
4C0
100
AcDbEntity
  8
レイヤ0
390
0
 62
               7
100
AcDbMText
 10
185.06415732927579
 20
285.33055098852822
 30
0.0
 40
3.0888030888030884
 41
0.0
 71
               5
 72
               1
  1
４
  7
ＭＳ ゴシック
 73
               1
 44
0.7828267384257843
  0
MTEXT
  5
4C1
100
AcDbEntity
  8
レイヤ0
390
0
 62
               7
100
AcDbMText
 10
235.06415732927559
 20
285.33055098852827
 30
0.0
 40
3.0888030888030884
 41
0.0
 71
               5
 72
               1
  1
５
  7
ＭＳ ゴシック
 73
               1
 44
0.7828267384257843
  0
MTEXT
  5
4C2
100
AcDbEntity
  8
レイヤ0
390
0
 62
               7
100
AcDbMText
 10
285.06415732927547
 20
285.33055098852799
 30
0.0
 40
3.0888030888030884
 41
0.0
 71
               5
 72
               1
  1
６
  7
ＭＳ ゴシック
 73
               1
 44
0.7828267384257843
  0
MTEXT
  5
4C3
100
AcDbEntity
  8
レイヤ0
390
0
 62
               7
100
AcDbMText
 10
335.06415732927468
 20
285.33055098852822
 30
0.0
 40
3.0888030888030884
 41
0.0
 71
               5
 72
               1
  1
７
  7
ＭＳ ゴシック
 73
               1
 44
0.7828267384257843
  0
MTEXT
  5
4C4
100
AcDbEntity
  8
レイヤ0
390
0
 62
               7
100
AcDbMText
 10
382.56415732927599
 20
285.33055098852822
 30
0.0
 40
3.0888030888030884
 41
0.0
 71
               5
 72
               1
  1
８
  7
ＭＳ ゴシック
 73
               1
 44
0.7828267384257843
  0
MTEXT
  5
4C5
100
AcDbEntity
  8
レイヤ0
390
0
 62
               7
100
AcDbMText
 10
407.5641573292753
 20
265.83055098852628
 30
0.0
 40
3.0888030888030884
 41
0.0
 71
               5
 72
               1
  1
Ａ
  7
ＭＳ ゴシック
 73
               1
 44
0.7828267384257843
  0
MTEXT
  5
4C6
100
AcDbEntity
  8
レイヤ0
390
0
 62
               7
100
AcDbMText
 10
407.56415732927479
 20
223.83055098852711
 30
0.0
 40
3.0888030888030884
 41
0.0
 71
               5
 72
               1
  1
Ｂ
  7
ＭＳ ゴシック
 73
               1
 44
0.7828267384257843
  0
MTEXT
  5
4C7
100
AcDbEntity
  8
レイヤ0
390
0
 62
               7
100
AcDbMText
 10
407.56415732927451
 20
173.830550988526
 30
0.0
 40
3.0888030888030884
 41
0.0
 71
               5
 72
               1
  1
Ｃ
  7
ＭＳ ゴシック
 73
               1
 44
0.7828267384257843
  0
MTEXT
  5
4C8
100
AcDbEntity
  8
レイヤ0
390
0
 62
               7
100
AcDbMText
 10
407.56415732927422
 20
123.8305509885231
 30
0.0
 40
3.0888030888030884
 41
0.0
 71
               5
 72
               1
  1
Ｄ
  7
ＭＳ ゴシック
 73
               1
 44
0.7828267384257843
  0
MTEXT
  5
4C9
100
AcDbEntity
  8
レイヤ0
390
0
 62
               7
100
AcDbMText
 10
407.56415732927388
 20
73.830550988520685
 30
0.0
 40
3.0888030888030884
 41
0.0
 71
               5
 72
               1
  1
Ｅ
  7
ＭＳ ゴシック
 73
               1
 44
0.7828267384257843
  0
MTEXT
  5
4CA
100
AcDbEntity
  8
レイヤ0
390
0
 62
               7
100
AcDbMText
 10
407.56415732927422
 20
31.830550988529282
 30
0.0
 40
3.0888030888030946
 41
0.0
 71
               5
 72
               1
  1
Ｆ
  7
ＭＳ ゴシック
 73
               1
 44
0.7828267384257843
  0
MTEXT
  5
4CB
100
AcDbEntity
  8
レイヤ0
390
0
 62
               7
100
AcDbMText
 10
12.564157329275162
 20
265.8305509885264
 30
0.0
 40
3.0888030888030884
 41
0.0
 71
               5
 72
               1
  1
Ａ
  7
ＭＳ ゴシック
 73
               1
 44
0.7828267384257843
  0
MTEXT
  5
4CC
100
AcDbEntity
  8
レイヤ0
390
0
 62
               7
100
AcDbMText
 10
12.564157329274707
 20
223.83055098852711
 30
0.0
 40
3.0888030888030884
 41
0.0
 71
               5
 72
               1
  1
Ｂ
  7
ＭＳ ゴシック
 73
               1
 44
0.7828267384257843
  0
MTEXT
  5
4CD
100
AcDbEntity
  8
レイヤ0
390
0
 62
               7
100
AcDbMText
 10
12.564157329274366
 20
173.83055098852611
 30
0.0
 40
3.0888030888030884
 41
0.0
 71
               5
 72
               1
  1
Ｃ
  7
ＭＳ ゴシック
 73
               1
 44
0.7828267384257843
  0
MTEXT
  5
4CE
100
AcDbEntity
  8
レイヤ0
390
0
 62
               7
100
AcDbMText
 10
12.564157329274082
 20
123.8305509885232
 30
0.0
 40
3.0888030888030884
 41
0.0
 71
               5
 72
               1
  1
Ｄ
  7
ＭＳ ゴシック
 73
               1
 44
0.7828267384257843
  0
MTEXT
  5
4CF
100
AcDbEntity
  8
レイヤ0
390
0
 62
               7
100
AcDbMText
 10
12.564157329273797
 20
73.830550988520727
 30
0.0
 40
3.0888030888030884
 41
0.0
 71
               5
 72
               1
  1
Ｅ
  7
ＭＳ ゴシック
 73
               1
 44
0.7828267384257843
  0
MTEXT
  5
4D0
100
AcDbEntity
  8
レイヤ0
390
0
 62
               7
100
AcDbMText
 10
12.564157329274082
 20
31.830550988529339
 30
0.0
 40
3.0888030888030884
 41
0.0
 71
               5
 72
               1
  1
Ｆ
  7
ＭＳ ゴシック
 73
               1
 44
0.7828267384257843
  0
MTEXT
  5
4D1
100
AcDbEntity
  8
レイヤ0
390
0
 62
               7
100
AcDbMText
 10
37.564157329275332
 20
12.330550988528188
 30
0.0
 40
3.0888030888030884
 41
0.0
 71
               5
 72
               1
  1
１
  7
ＭＳ ゴシック
 73
               1
 44
0.7828267384257843
  0
MTEXT
  5
4D2
100
AcDbEntity
  8
レイヤ0
390
0
 62
               7
100
AcDbMText
 10
85.064157329275062
 20
12.330550988528131
 30
0.0
 40
3.0888030888030884
 41
0.0
 71
               5
 72
               1
  1
２
  7
ＭＳ ゴシック
 73
               1
 44
0.7828267384257843
  0
MTEXT
  5
4D3
100
AcDbEntity
  8
レイヤ0
390
0
 62
               7
100
AcDbMText
 10
135.06415732927451
 20
12.330550988528188
 30
0.0
 40
3.0888030888030884
 41
0.0
 71
               5
 72
               1
  1
３
  7
ＭＳ ゴシック
 73
               1
 44
0.7828267384257843
  0
MTEXT
  5
4D4
100
AcDbEntity
  8
レイヤ0
390
0
 62
               7
100
AcDbMText
 10
285.06415732927547
 20
12.330550988528131
 30
0.0
 40
3.0888030888030884
 41
0.0
 71
               5
 72
               1
  1
６
  7
ＭＳ ゴシック
 73
               1
 44
0.7828267384257843
  0
MTEXT
  5
4D5
100
AcDbEntity
  8
レイヤ0
390
0
 62
               7
100
AcDbMText
 10
335.06415732927468
 20
12.330550988528245
 30
0.0
 40
3.0888030888030884
 41
0.0
 71
               5
 72
               1
  1
７
  7
ＭＳ ゴシック
 73
               1
 44
0.7828267384257843
  0
MTEXT
  5
4D6
100
AcDbEntity
  8
レイヤ0
390
0
 62
               7
100
AcDbMText
 10
382.56415732927599
 20
12.330550988528245
 30
0.0
 40
3.0888030888030884
 41
0.0
 71
               5
 72
               1
  1
８
  7
ＭＳ ゴシック
 73
               1
 44
0.7828267384257843
  0
MTEXT
  5
4D7
100
AcDbEntity
  8
レイヤ0
390
0
 62
               7
100
AcDbMText
 10
378.77175452232279
 20
29.748749731838004
 30
0.0
 40
2.3166023166023169
 41
0.0
 71
               5
 72
               1
  1
尺　度
  7
ＭＳ ゴシック
 73
               1
 44
0.7828267384257843
  0
MTEXT
  5
4D8
100
AcDbEntity
  8
レイヤ0
390
0
 62
               7
100
AcDbMText
 10
390.27175452232279
 20
30.741748278368178
 30
0.0
 40
2.3166023166023169
 41
0.0
 71
               1
 72
               1
  1
１／１
  7
ＭＳ ゴシック
 73
               1
 44
0.7828267384257843
  0
MTEXT
  5
4D9
100
AcDbEntity
  8
レイヤ0
390
0
 62
               7
100
AcDbMText
 10
232.56415732927499
 20
35.748749731837989
 30
0.0
 40
2.3166023166023169
 41
0.0
 71
               5
 72
               1
  1
表面処理
  7
ＭＳ ゴシック
 73
               1
 44
0.7828267384257843
  0
MTEXT
  5
4DA
100
AcDbEntity
  8
レイヤ0
390
0
 62
               7
100
AcDbMText
 10
232.56415732927499
 20
23.748749731838004
 30
0.0
 40
2.3166023166023169
 41
0.0
 71
               5
 72
               1
  1
製　　図
  7
ＭＳ ゴシック
 73
               1
 44
0.7828267384257843
  0
MTEXT
  5
4DB
100
AcDbEntity
  8
レイヤ0
390
0
 62
               7
100
AcDbMText
 10
232.56415732927499
 20
29.748749731838004
 30
0.0
 40
2.3166023166023169
 41
0.0
 71
               5
 72
               1
  1
設　　計
  7
ＭＳ ゴシック
 73
               1
 44
0.7828267384257843
  0
MTEXT
  5
4DC
100
AcDbEntity
  8
レイヤ0
390
0
 62
               7
100
AcDbMText
 10
232.56415732927499
 20
41.748749731837989
 30
0.0
 40
2.3166023166023169
 41
0.0
 71
               5
 72
               1
  1
材　　料
  7
ＭＳ ゴシック
 73
               1
 44
0.7828267384257843
  0
MTEXT
  5
4DD
100
AcDbEntity
  8
レイヤ0
390
0
 62
               7
100
AcDbMText
 10
331.06415732927502
 20
41.748749731837989
 30
0.0
 40
2.3166023166023169
 41
0.0
 71
               5
 72
               1
  1
品　番
  7
ＭＳ ゴシック
 73
               1
 44
0.7828267384257843
  0
MTEXT
  5
4DE
100
AcDbEntity
  8
レイヤ0
390
0
 62
               7
100
AcDbMText
 10
331.06415732927502
 20
35.748749731837989
 30
0.0
 40
2.3166023166023169
 41
0.0
 71
               5
 72
               1
  1
品　名
  7
ＭＳ ゴシック
 73
               1
 44
0.7828267384257843
  0
MTEXT
  5
4DF
100
AcDbEntity
  8
レイヤ0
390
0
 62
               7
100
AcDbMText
 10
331.06415732927502
 20
29.748749731838004
 30
0.0
 40
2.3166023166023169
 41
0.0
 71
               5
 72
               1
  1
図　番
  7
ＭＳ ゴシック
 73
               1
 44
0.7828267384257843
  0
MTEXT
  5
4E0
100
AcDbEntity
  8
レイヤ0
390
0
 62
               7
100
AcDbMText
 10
295.06415732927502
 20
41.748749731837989
 30
0.0
 40
2.3166023166023169
 41
0.0
 71
               5
 72
               1
  1
検　図
  7
ＭＳ ゴシック
 73
               1
 44
0.7828267384257843
  0
MTEXT
  5
4E1
100
AcDbEntity
  8
レイヤ0
390
0
 62
               7
100
AcDbMText
 10
315.06415732927502
 20
41.748749731837989
 30
0.0
 40
2.3166023166023169
 41
0.0
 71
               5
 72
               1
  1
承　認
  7
ＭＳ ゴシック
 73
               1
 44
0.7828267384257843
  0
MTEXT
  5
4E2
100
AcDbEntity
  8
レイヤ0
390
0
 62
               7
100
AcDbMText
 10
255.06415732927499
 20
17.748749731837989
 30
0.0
 40
2.3166023166023169
 41
0.0
 71
               5
 72
               1
  1
第三角法　Third Angle Projection
  7
ＭＳ ゴシック
 73
               1
 44
0.7828267384257843
  0
MTEXT
  5
4E3
100
AcDbEntity
  8
レイヤ0
390
0
 62
               7
100
AcDbMText
 10
215.06415732927499
 20
35.748749731837918
 30
0.0
 40
2.3166023166023169
 41
0.0
 71
               5
 72
               1
  1
出図許可
  7
ＭＳ ゴシック
 73
               1
 44
0.7828267384257843
  0
MTEXT
  5
4E4
100
AcDbEntity
  8
レイヤ0
390
0
 62
               7
100
AcDbMText
 10
363.06415732927508
 20
18.124308432808192
 30
0.0
 40
2.471042471042471
 41
0.0
 71
               1
 72
               1
  1
JPK inc.
  7
ＭＳ ゴシック
 73
               1
 44
0.7828267384257843
  0
MTEXT
  5
4E5
100
AcDbEntity
  8
レイヤ0
390
0
 62
               7
100
AcDbMText
 10
350.714157329275
 20
24.610949436669245
 30
0.0
 40
3.4749034749034751
 41
0.0
 71
               1
 72
               1
  1
株式会社ＪＰＫ
  7
ＭＳ ゴシック
 73
               1
 44
0.7828267384257844
  0
MTEXT
  5
4E6
100
AcDbEntity
  8
レイヤ0
390
0
 62
               7
100
AcDbMText
 10
241.98432250839861
 20
30.924292574161086
 30
0.0
 40
2.3166023166023169
 41
0.0
 71
               1
 72
               1
  1
77･05･10
  7
ＭＳ ゴシック
 73
               1
 44
0.7828267384257843
  0
MTEXT
  5
4E7
100
AcDbEntity
  8
レイヤ0
390
0
 62
               7
100
AcDbMText
 10
258.06415732927491
 20
30.741748278368149
 30
0.0
 40
2.3166023166023169
 41
0.0
 71
               1
 72
               1
  1
N.HAYAKAWA
  7
ＭＳ ゴシック
 73
               1
 44
0.7828267384257843
  0
MTEXT
  5
4E8
100
AcDbEntity
  8
レイヤ0
390
0
 62
               7
100
AcDbMText
 10
339.06415732927508
 20
42.741748278368121
 30
0.0
 40
2.3166023166023169
 41
0.0
 71
               1
 72
               1
  1
K-9390
  7
ＭＳ ゴシック
 73
               1
 44
0.7828267384257843
  0
MTEXT
  5
4E9
100
AcDbEntity
  8
レイヤ0
390
0
 62
               7
100
AcDbMText
 10
241.98432250839869
 20
24.924292574161086
 30
0.0
 40
2.3166023166023169
 41
0.0
 71
               1
 72
               1
  1
20.08.26
  7
ＭＳ ゴシック
 73
               1
 44
0.7828267384257843
  0
MTEXT
  5
4EA
100
AcDbEntity
  8
レイヤ0
390
0
 62
               7
100
AcDbMText
 10
258.06415732927479
 20
24.741748278368135
 30
0.0
 40
2.3166023166023169
 41
0.0
 71
               1
 72
               1
  1
Y.SHIBANO
  7
ＭＳ ゴシック
 73
               1
 44
0.7828267384257843
  0
MTEXT
  5
4EB
100
AcDbEntity
  8
レイヤ0
390
0
 62
               7
100
AcDbMText
 10
339.06415732927508
 20
30.741748278368135
 30
0.0
 40
2.3166023166023169
 41
0.0
 71
               1
 72
               1
  1
-------
  7
ＭＳ ゴシック
 73
               1
 44
0.7828267384257843
  0
MTEXT
  5
4EC
100
AcDbEntity
  8
レイヤ0
390
0
 62
               7
100
AcDbMText
 10
339.06415732927508
 20
36.741748278368135
 30
0.0
 40
2.3166023166023169
 41
0.0
 71
               1
 72
               1
  1
ストレート分岐止水栓（直管付）
  7
ＭＳ ゴシック
 73
               1
 44
0.7828267384257843
  0
DIMENSION
  5
4ED
100
AcDbEntity
  8
レイヤ0
370
               5
390
0
  6
Continuous
 62
               7
100
AcDbDimension
  2
*D2
 10
137.21307092226621
 20
148.6048437426189
 30
0.0
 11
137.21307092226621
 21
111.10484374261891
 31
0.0
 70
             128
 71
               5
 72
               1
 41
1.0
 42
0.0
  1
420.0±3.0
  3
Arch
100
AcDbAlignedDimension
 13
137.21307092226621
 23
73.604843742618868
 33
0.0
 14
137.21307092226621
 24
148.6048437426189
 34
0.0
 50
90.0
100
AcDbRotatedDimension
1001
ACAD
1000
DSTYLE
1002
{
1070
             279
1070
               2
1070
             340
1005
29
1070
              75
1070
               1
1070
              76
1070
               1
1070
             147
1040
2.7109000000000125
1002
}
  0
DIMENSION
  5
4EE
100
AcDbEntity
  8
レイヤ0
370
               5
390
0
  6
Continuous
 62
               7
100
AcDbDimension
  2
*D3
 10
187.71305153138499
 20
213.7672176804972
 30
0.0
 11
181.21306899945799
 21
213.7672176804972
 31
0.0
 70
             128
 71
               5
 72
               1
 41
1.0
 42
0.0
  3
Arch
100
AcDbAlignedDimension
 13
174.7130864675311
 23
213.7672176804972
 33
0.0
 14
187.71305153138499
 24
213.7672176804972
 34
0.0
100
AcDbRotatedDimension
1001
ACAD
1000
DSTYLE
1002
{
1070
             271
1070
               0
1070
             279
1070
               2
1070
             340
1005
29
1070
              75
1070
               1
1070
              76
1070
               1
1070
               3
1000
φ<>
1070
             147
1040
2.7109000000000099
1002
}
  0
DIMENSION
  5
4EF
100
AcDbEntity
  8
レイヤ0
370
               5
390
0
  6
Continuous
 62
               7
100
AcDbDimension
  2
*D4
 10
125.55359765051399
 20
73.60484374261884
 30
0.0
 11
125.55359765051405
 21
139.10484543817131
 31
0.0
 70
             128
 71
               5
 72
               1
 41
1.0
 42
0.0
  1
(467)
  3
Arch
100
AcDbAlignedDimension
 13
125.55359765051401
 23
204.60484713372369
 33
0.0
 14
125.55359765051401
 24
73.60484374261884
 34
0.0
 50
90.0
100
AcDbRotatedDimension
1001
ACAD
1000
DSTYLE
1002
{
1070
             271
1070
               0
1070
             279
1070
               2
1070
             340
1005
29
1070
              75
1070
               1
1070
              76
1070
               1
1070
             147
1040
2.7108999999999952
1002
}
  0
DIMENSION
  5
4F0
100
AcDbEntity
  8
レイヤ0
370
               5
390
0
  6
Continuous
 62
               7
100
AcDbDimension
  2
*D5
 10
148.2057635829662
 20
139.6048478996081
 30
0.0
 11
148.2057635829662
 21
172.1048475166659
 31
0.0
 70
             128
 71
               5
 72
               1
 41
1.0
 42
0.0
  3
Arch
100
AcDbAlignedDimension
 13
148.2057635829662
 23
204.60484713372369
 33
0.0
 14
148.2057635829662
 24
139.6048478996081
 34
0.0
 50
90.0
100
AcDbRotatedDimension
1001
ACAD
1000
DSTYLE
1002
{
1070
             271
1070
               0
1070
             279
1070
               2
1070
             340
1005
29
1070
              75
1070
               1
1070
              76
1070
               1
1070
             147
1040
2.7109000000000107
1002
}
  0
DIMENSION
  5
4F1
100
AcDbEntity
  8
レイヤ0
370
               5
390
0
  6
Continuous
 62
               7
100
AcDbDimension
  2
*D6
 10
155.40106461086631
 20
139.6048478996081
 30
0.0
 11
155.40106461086631
 21
157.10484906316461
 31
0.0
 70
             128
 71
               5
 72
               1
 41
1.0
 42
0.0
  3
Arch
100
AcDbAlignedDimension
 13
155.40106461086631
 23
174.60485022672111
 33
0.0
 14
155.40106461086631
 24
139.6048478996081
 34
0.0
 50
90.0
100
AcDbRotatedDimension
1001
ACAD
1000
DSTYLE
1002
{
1070
             271
1070
               0
1070
             279
1070
               2
1070
             340
1005
29
1070
              75
1070
               1
1070
              76
1070
               1
1070
             147
1040
2.710900000000009
1002
}
  0
POLYLINE
  5
4F2
100
AcDbEntity
  8
レイヤ0
370
               5
390
0
  6
Continuous
 62
               7
100
AcDb2dPolyline
 66
               1
 10
0.0
 20
0.0
 30
0.0
 75
               5
  0
VERTEX
  5
4F3
100
AcDbEntity
  8
レイヤ0
370
               5
390
0
  6
Continuous
 62
               7
100
AcDbVertex
100
AcDb2dVertex
 10
192.50813802231431
 20
77.167167872571966
 30
0.0
  0
VERTEX
  5
4F4
100
AcDbEntity
  8
レイヤ0
370
               5
390
0
  6
Continuous
 62
               7
100
AcDbVertex
100
AcDb2dVertex
 10
191.32962672033679
 20
78.817083695340585
 30
0.0
  0
VERTEX
  5
4F5
100
AcDbEntity
  8
レイヤ0
370
               5
390
0
  6
Continuous
 62
               7
100
AcDbVertex
100
AcDb2dVertex
 10
192.9795425431054
 20
77.638572393363006
 30
0.0
  0
SEQEND
  5
4F6
100
AcDbEntity
  8
レイヤ0
370
               5
390
0
  6
Continuous
 62
               7
  0
POLYLINE
  5
4F8
100
AcDbEntity
  8
レイヤ0
370
               5
390
0
  6
Continuous
 62
               7
100
AcDb2dPolyline
 66
               1
 10
0.0
 20
0.0
 30
0.0
 75
               5
  0
VERTEX
  5
4F9
100
AcDbEntity
  8
レイヤ0
370
               5
390
0
  6
Continuous
 62
               7
100
AcDbVertex
100
AcDb2dVertex
 10
191.32962672033679
 20
78.817083695340585
 30
0.0
  0
VERTEX
  5
4FA
100
AcDbEntity
  8
レイヤ0
370
               5
390
0
  6
Continuous
 62
               7
100
AcDbVertex
100
AcDb2dVertex
 10
211.96773475721929
 20
58.178975658458029
 30
0.0
  0
VERTEX
  5
4FB
100
AcDbEntity
  8
レイヤ0
370
               5
390
0
  6
Continuous
 62
               7
100
AcDbVertex
100
AcDb2dVertex
 10
219.63219858748471
 20
58.178975658458029
 30
0.0
  0
SEQEND
  5
4FC
100
AcDbEntity
  8
レイヤ0
370
               5
390
0
  6
Continuous
 62
               7
  0
MTEXT
  5
4FE
100
AcDbEntity
  8
レイヤ0
390
0
 62
               7
100
AcDbMText
 10
212.63219858748471
 20
61.917377975060347
 30
0.0
 40
2.3166023166023169
 41
0.0
 71
               1
 72
               1
  1
R1/2
  7
ＭＳ ゴシック
 73
               1
 44
0.7828267384257843
  0
POLYLINE
  5
4FF
100
AcDbEntity
  8
レイヤ0
370
               5
390
0
  6
Continuous
 62
               7
100
AcDb2dPolyline
 66
               1
 10
0.0
 20
0.0
 30
0.0
 75
               5
  0
VERTEX
  5
500
100
AcDbEntity
  8
レイヤ0
370
               5
390
0
  6
Continuous
 62
               7
100
AcDbVertex
100
AcDb2dVertex
 10
169.55457667713989
 20
198.76977668301859
 30
0.0
  0
VERTEX
  5
501
100
AcDbEntity
  8
レイヤ0
370
               5
390
0
  6
Continuous
 62
               7
100
AcDbVertex
100
AcDb2dVertex
 10
170.7330879791175
 20
197.11986086024999
 30
0.0
  0
VERTEX
  5
502
100
AcDbEntity
  8
レイヤ0
370
               5
390
0
  6
Continuous
 62
               7
100
AcDbVertex
100
AcDb2dVertex
 10
169.08317215634889
 20
198.29837216222759
 30
0.0
  0
SEQEND
  5
503
100
AcDbEntity
  8
レイヤ0
370
               5
390
0
  6
Continuous
 62
               7
  0
POLYLINE
  5
505
100
AcDbEntity
  8
レイヤ0
370
               5
390
0
  6
Continuous
 62
               7
100
AcDb2dPolyline
 66
               1
 10
0.0
 20
0.0
 30
0.0
 75
               5
  0
VERTEX
  5
506
100
AcDbEntity
  8
レイヤ0
370
               5
390
0
  6
Continuous
 62
               7
100
AcDbVertex
100
AcDb2dVertex
 10
170.7330879791175
 20
197.11986086024999
 30
0.0
  0
VERTEX
  5
507
100
AcDbEntity
  8
レイヤ0
370
               5
390
0
  6
Continuous
 62
               7
100
AcDbVertex
100
AcDb2dVertex
 10
150.7188936564159
 20
217.1340551829517
 30
0.0
  0
VERTEX
  5
508
100
AcDbEntity
  8
レイヤ0
370
               5
390
0
  6
Continuous
 62
               7
100
AcDbVertex
100
AcDb2dVertex
 10
139.13183006598189
 20
217.1340551829517
 30
0.0
  0
SEQEND
  5
509
100
AcDbEntity
  8
レイヤ0
370
               5
390
0
  6
Continuous
 62
               7
  0
MTEXT
  5
50B
100
AcDbEntity
  8
レイヤ0
390
0
 62
               7
100
AcDbMText
 10
140.13183006598189
 20
220.872457499554
 30
0.0
 40
2.3166023166023169
 41
0.0
 71
               1
 72
               1
  1
PJ1/2
  7
ＭＳ ゴシック
 73
               1
 44
0.7828267384257843
  0
POLYLINE
  5
50C
100
AcDbEntity
  8
レイヤ0
370
               5
390
0
  6
Continuous
 62
               7
100
AcDb2dPolyline
 66
               1
 10
0.0
 20
0.0
 30
0.0
 75
               5
  0
VERTEX
  5
50D
100
AcDbEntity
  8
レイヤ0
370
               5
390
0
  6
Continuous
 62
               7
100
AcDbVertex
100
AcDb2dVertex
 10
191.72765742744539
 20
141.6626087921764
 30
0.0
  0
VERTEX
  5
50E
100
AcDbEntity
  8
レイヤ0
370
               5
390
0
  6
Continuous
 62
               7
100
AcDbVertex
100
AcDb2dVertex
 10
191.01633256204019
 20
143.5613262664119
 30
0.0
  0
VERTEX
  5
50F
100
AcDbEntity
  8
レイヤ0
370
               5
390
0
  6
Continuous
 62
               7
100
AcDbVertex
100
AcDb2dVertex
 10
192.30500769663499
 20
141.99594212550971
 30
0.0
  0
SEQEND
  5
510
100
AcDbEntity
  8
レイヤ0
370
               5
390
0
  6
Continuous
 62
               7
  0
POLYLINE
  5
512
100
AcDbEntity
  8
レイヤ0
370
               5
390
0
  6
Continuous
 62
               7
100
AcDb2dPolyline
 66
               1
 10
0.0
 20
0.0
 30
0.0
 75
               5
  0
VERTEX
  5
513
100
AcDbEntity
  8
レイヤ0
370
               5
390
0
  6
Continuous
 62
               7
100
AcDbVertex
100
AcDb2dVertex
 10
191.01633256204019
 20
143.5613262664119
 30
0.0
  0
VERTEX
  5
514
100
AcDbEntity
  8
レイヤ0
370
               5
390
0
  6
Continuous
 62
               7
100
AcDbVertex
100
AcDb2dVertex
 10
200.19422916752501
 20
127.6647430390983
 30
0.0
  0
VERTEX
  5
515
100
AcDbEntity
  8
レイヤ0
370
               5
390
0
  6
Continuous
 62
               7
100
AcDbVertex
100
AcDb2dVertex
 10
210.84272950438441
 20
127.6647430390983
 30
0.0
  0
SEQEND
  5
516
100
AcDbEntity
  8
レイヤ0
370
               5
390
0
  6
Continuous
 62
               7
  0
MTEXT
  5
518
100
AcDbEntity
  8
レイヤ0
390
0
 62
               7
100
AcDbMText
 10
202.34272950438441
 20
131.40314535570062
 30
0.0
 40
2.3166023166023169
 41
0.0
 71
               1
 72
               1
  1
Rc1/2
  7
ＭＳ ゴシック
 73
               1
 44
0.7828267384257843
  0
ENDSEC
  0
SECTION
  2
OBJECTS
  0
DICTIONARY
  5
19
100
AcDbDictionary
280
               0
281
               1
  3
ACAD_GROUP
350
1A
  3
ACAD_MLINESTYLE
350
1B
  3
ACAD_LAYOUT
350
1E
  3
ACAD_PLOTSETTINGS
350
22
  3
ACAD_PLOTSTYLENAME
350
1F
  3
ACAD_WIPEOUT_VARS
350
23
  0
DICTIONARY
  5
1A
102
{ACAD_REACTORS
330
19
102
}
100
AcDbDictionary
280
               0
281
               1
  0
DICTIONARY
  5
1B
102
{ACAD_REACTORS
330
19
102
}
100
AcDbDictionary
280
               0
281
               1
  3
Standard
350
1C
  0
MLINESTYLE
  5
1C
102
{ACAD_REACTORS
330
1B
102
}
100
AcDbMlineStyle
  2
Standard
 70
               0
  3

 62
               0
 51
90.0
 52
90.0
 71
               2
 49
0.5
 62
             256
  6
ByLayer
 49
-0.5
 62
             256
  6
ByLayer
  0
ACDBDICTIONARYWDFLT
  5
1F
102
{ACAD_REACTORS
330
19
102
}
100
AcDbDictionary
281
               1
  3
Normal
350
1D
100
AcDbDictionaryWithDefault
340
1D
  0
ACDBPLACEHOLDER
  5
1D
102
{ACAD_REACTORS
330
1F
102
}
  0
LAYOUT
  5
20
102
{ACAD_REACTORS
330
1E
102
}
100
AcDbPlotSettings
  1

  2

  4

  6

 40
0.0
 41
0.0
 42
0.0
 43
0.0
 44
0.0
 45
0.0
 46
0.0
 47
0.0
 48
0.0
 49
0.0
140
0.0
141
0.0
142
1.0
143
1.0
 70
            1024
 72
               0
 73
               0
 74
               0
  7

 75
               0
147
1.0
148
0.0
149
0.0
100
AcDbLayout
  1
Model
 70
               0
 71
               0
 10
0.0
 20
0.0
 11
0.0
 21
0.0
 12
0.0
 22
0.0
 32
0.0
 14
0.0
 24
0.0
 34
0.0
 15
0.0
 25
0.0
 35
0.0
146
0.0
 13
0.0
 23
0.0
 33
0.0
 16
0.0
 26
0.0
 36
0.0
 17
0.0
 27
0.0
 37
0.0
 76
               0
330
A
331
0
345
0
346
0
  0
LAYOUT
  5
21
102
{ACAD_REACTORS
330
1E
102
}
100
AcDbPlotSettings
  1

  2

  4

  6

 40
0.0
 41
0.0
 42
0.0
 43
0.0
 44
0.0
 45
0.0
 46
0.0
 47
0.0
 48
0.0
 49
0.0
140
0.0
141
0.0
142
1.0
143
1.0
 70
               0
 72
               0
 73
               0
 74
               0
  7

 75
               0
147
1.0
148
0.0
149
0.0
100
AcDbLayout
  1
Layout1
 70
               0
 71
               0
 10
0.0
 20
0.0
 11
0.0
 21
0.0
 12
0.0
 22
0.0
 32
0.0
 14
0.0
 24
0.0
 34
0.0
 15
0.0
 25
0.0
 35
0.0
146
0.0
 13
0.0
 23
0.0
 33
0.0
 16
0.0
 26
0.0
 36
0.0
 17
0.0
 27
0.0
 37
0.0
 76
               0
330
B
331
0
345
0
346
0
  0
DICTIONARY
  5
1E
102
{ACAD_REACTORS
330
19
102
}
100
AcDbDictionary
280
               0
281
               1
  3
Layout1
350
21
  3
Model
350
20
  0
DICTIONARY
  5
22
102
{ACAD_REACTORS
330
19
102
}
100
AcDbDictionary
280
               0
281
               1
  0
WIPEOUTVARIABLES
  5
23
100
AcDbWipeoutVariables
 70
               0
  0
ENDSEC
  0
EOF
