  0
SECTION
  2
HEADER
  9
$ACADVER
  1
AC1018
  9
$ACADMAINTVER
 70
   104
  9
$DWGCODEPAGE
  3
ANSI_932
  9
$LASTSAVEDBY
  1
takase
  9
$INSBASE
 10
0.0
 20
0.0
 30
0.0
  9
$EXTMIN
 10
598.2992075283258
 20
-113.4861392062122
 30
0.0
  9
$EXTMAX
 10
1356.459207528326
 20
961.7888607937878
 30
0.0
  9
$LIMMIN
 10
0.0
 20
0.0
  9
$LIMMAX
 10
210.0
 20
297.0
  9
$ORTHOMODE
 70
     0
  9
$REGENMODE
 70
     1
  9
$FILLMODE
 70
     1
  9
$QTEXTMODE
 70
     0
  9
$MIRRTEXT
 70
     1
  9
$LTSCALE
 40
1.0
  9
$ATTMODE
 70
     1
  9
$TEXTSIZE
 40
5.0
  9
$TRACEWID
 40
1.0
  9
$TEXTSTYLE
  7
symbols
  9
$CLAYER
  8
かくれ線
  9
$CELTYPE
  6
ByLayer
  9
$CECOLOR
 62
   256
  9
$CELTSCALE
 40
1.0
  9
$DISPSILH
 70
     0
  9
$DIMSCALE
 40
1.0
  9
$DIMASZ
 40
15.0
  9
$DIMEXO
 40
20.0
  9
$DIMDLI
 40
3.75
  9
$DIMRND
 40
0.0
  9
$DIMDLE
 40
0.0
  9
$DIMEXE
 40
1.25
  9
$DIMTP
 40
0.0
  9
$DIMTM
 40
0.0
  9
$DIMTXT
 40
20.0
  9
$DIMCEN
 40
2.5
  9
$DIMTSZ
 40
0.0
  9
$DIMTOL
 70
     0
  9
$DIMLIM
 70
     0
  9
$DIMTIH
 70
     0
  9
$DIMTOH
 70
     0
  9
$DIMSE1
 70
     0
  9
$DIMSE2
 70
     0
  9
$DIMTAD
 70
     1
  9
$DIMZIN
 70
     8
  9
$DIMBLK
  1

  9
$DIMASO
 70
     1
  9
$DIMSHO
 70
     1
  9
$DIMPOST
  1

  9
$DIMAPOST
  1

  9
$DIMALT
 70
     0
  9
$DIMALTD
 70
     3
  9
$DIMALTF
 40
0.03937007874016
  9
$DIMLFAC
 40
1.0
  9
$DIMTOFL
 70
     1
  9
$DIMTVP
 40
0.0
  9
$DIMTIX
 70
     0
  9
$DIMSOXD
 70
     0
  9
$DIMSAH
 70
     0
  9
$DIMBLK1
  1

  9
$DIMBLK2
  1

  9
$DIMSTYLE
  2
ISO-25
  9
$DIMCLRD
 70
   256
  9
$DIMCLRE
 70
   256
  9
$DIMCLRT
 70
   256
  9
$DIMTFAC
 40
1.0
  9
$DIMGAP
 40
5.0
  9
$DIMJUST
 70
     0
  9
$DIMSD1
 70
     0
  9
$DIMSD2
 70
     0
  9
$DIMTOLJ
 70
     0
  9
$DIMTZIN
 70
     8
  9
$DIMALTZ
 70
     0
  9
$DIMALTTZ
 70
     0
  9
$DIMUPT
 70
     0
  9
$DIMDEC
 70
     2
  9
$DIMTDEC
 70
     2
  9
$DIMALTU
 70
     2
  9
$DIMALTTD
 70
     3
  9
$DIMTXSTY
  7
Standard
  9
$DIMAUNIT
 70
     0
  9
$DIMADEC
 70
     0
  9
$DIMALTRND
 40
0.0
  9
$DIMAZIN
 70
     0
  9
$DIMDSEP
 70
    46
  9
$DIMATFIT
 70
     3
  9
$DIMFRAC
 70
     0
  9
$DIMLDRBLK
  1

  9
$DIMLUNIT
 70
     2
  9
$DIMLWD
 70
    -2
  9
$DIMLWE
 70
    -2
  9
$DIMTMOVE
 70
     0
  9
$LUNITS
 70
     2
  9
$LUPREC
 70
     4
  9
$SKETCHINC
 40
1.0
  9
$FILLETRAD
 40
60.0
  9
$AUNITS
 70
     0
  9
$AUPREC
 70
     0
  9
$MENU
  1
.
  9
$ELEVATION
 40
0.0
  9
$PELEVATION
 40
0.0
  9
$THICKNESS
 40
0.0
  9
$LIMCHECK
 70
     0
  9
$CHAMFERA
 40
10.0
  9
$CHAMFERB
 40
10.0
  9
$CHAMFERC
 40
20.0
  9
$CHAMFERD
 40
0.0
  9
$SKPOLY
 70
     0
  9
$TDCREATE
 40
2452884.578052303
  9
$TDUCREATE
 40
2452884.203052303
  9
$TDUPDATE
 40
2457498.756938114
  9
$TDUUPDATE
 40
2457498.381938113
  9
$TDINDWG
 40
1.1492836574
  9
$TDUSRTIMER
 40
1.1492811227
  9
$USRTIMER
 70
     1
  9
$ANGBASE
 50
0.0
  9
$ANGDIR
 70
     0
  9
$PDMODE
 70
     0
  9
$PDSIZE
 40
0.0
  9
$PLINEWID
 40
0.0
  9
$SPLFRAME
 70
     0
  9
$SPLINETYPE
 70
     6
  9
$SPLINESEGS
 70
     8
  9
$HANDSEED
  5
EAA
  9
$SURFTAB1
 70
     6
  9
$SURFTAB2
 70
     6
  9
$SURFTYPE
 70
     6
  9
$SURFU
 70
     6
  9
$SURFV
 70
     6
  9
$UCSBASE
  2

  9
$UCSNAME
  2

  9
$UCSORG
 10
996.8348130823203
 20
355.0669511966332
 30
0.0
  9
$UCSXDIR
 10
1.0
 20
0.0
 30
0.0
  9
$UCSYDIR
 10
0.0
 20
1.0
 30
0.0
  9
$UCSORTHOREF
  2

  9
$UCSORTHOVIEW
 70
     0
  9
$UCSORGTOP
 10
0.0
 20
0.0
 30
0.0
  9
$UCSORGBOTTOM
 10
0.0
 20
0.0
 30
0.0
  9
$UCSORGLEFT
 10
0.0
 20
0.0
 30
0.0
  9
$UCSORGRIGHT
 10
0.0
 20
0.0
 30
0.0
  9
$UCSORGFRONT
 10
0.0
 20
0.0
 30
0.0
  9
$UCSORGBACK
 10
0.0
 20
0.0
 30
0.0
  9
$PUCSBASE
  2

  9
$PUCSNAME
  2

  9
$PUCSORG
 10
0.0
 20
0.0
 30
0.0
  9
$PUCSXDIR
 10
1.0
 20
0.0
 30
0.0
  9
$PUCSYDIR
 10
0.0
 20
1.0
 30
0.0
  9
$PUCSORTHOREF
  2

  9
$PUCSORTHOVIEW
 70
     0
  9
$PUCSORGTOP
 10
0.0
 20
0.0
 30
0.0
  9
$PUCSORGBOTTOM
 10
0.0
 20
0.0
 30
0.0
  9
$PUCSORGLEFT
 10
0.0
 20
0.0
 30
0.0
  9
$PUCSORGRIGHT
 10
0.0
 20
0.0
 30
0.0
  9
$PUCSORGFRONT
 10
0.0
 20
0.0
 30
0.0
  9
$PUCSORGBACK
 10
0.0
 20
0.0
 30
0.0
  9
$USERI1
 70
     0
  9
$USERI2
 70
     0
  9
$USERI3
 70
     0
  9
$USERI4
 70
     0
  9
$USERI5
 70
     0
  9
$USERR1
 40
0.0
  9
$USERR2
 40
0.0
  9
$USERR3
 40
0.0
  9
$USERR4
 40
0.0
  9
$USERR5
 40
0.0
  9
$WORLDVIEW
 70
     1
  9
$SHADEDGE
 70
     3
  9
$SHADEDIF
 70
    70
  9
$TILEMODE
 70
     1
  9
$MAXACTVP
 70
    64
  9
$PINSBASE
 10
0.0
 20
0.0
 30
0.0
  9
$PLIMCHECK
 70
     0
  9
$PEXTMIN
 10
1.000000000000000E+20
 20
1.000000000000000E+20
 30
1.000000000000000E+20
  9
$PEXTMAX
 10
-1.000000000000000E+20
 20
-1.000000000000000E+20
 30
-1.000000000000000E+20
  9
$PLIMMIN
 10
0.0
 20
0.0
  9
$PLIMMAX
 10
420.0
 20
297.0
  9
$UNITMODE
 70
     0
  9
$VISRETAIN
 70
     1
  9
$PLINEGEN
 70
     0
  9
$PSLTSCALE
 70
     1
  9
$TREEDEPTH
 70
  3020
  9
$CMLSTYLE
  2
Standard
  9
$CMLJUST
 70
     0
  9
$CMLSCALE
 40
20.0
  9
$PROXYGRAPHICS
 70
     1
  9
$MEASUREMENT
 70
     1
  9
$CELWEIGHT
370
    -1
  9
$ENDCAPS
280
     0
  9
$JOINSTYLE
280
     0
  9
$LWDISPLAY
290
     0
  9
$INSUNITS
 70
     4
  9
$HYPERLINKBASE
  1

  9
$STYLESHEET
  1
FUJI.STB
  9
$XEDIT
290
     1
  9
$CEPSNTYPE
380
     0
  9
$PSTYLEMODE
290
     0
  9
$FINGERPRINTGUID
  2
{E3C53965-147C-4B87-A988-E3E6194F7297}
  9
$VERSIONGUID
  2
{8E08619B-C6C4-435B-AE5D-681E666163DA}
  9
$EXTNAMES
290
     1
  9
$PSVPSCALE
 40
0.0
  9
$OLESTARTUP
290
     0
  9
$SORTENTS
280
   127
  9
$INDEXCTL
280
     0
  9
$HIDETEXT
280
     1
  9
$XCLIPFRAME
290
     0
  9
$HALOGAP
280
     0
  9
$OBSCOLOR
 70
   257
  9
$OBSLTYPE
280
     0
  9
$INTERSECTIONDISPLAY
280
     0
  9
$INTERSECTIONCOLOR
 70
   257
  9
$DIMASSOC
280
     2
  9
$PROJECTNAME
  1

  0
ENDSEC
  0
SECTION
  2
CLASSES
  0
CLASS
  1
ACDBDICTIONARYWDFLT
  2
AcDbDictionaryWithDefault
  3
ObjectDBX Classes
 90
        0
 91
        1
280
     0
281
     0
  0
CLASS
  1
DICTIONARYVAR
  2
AcDbDictionaryVar
  3
ObjectDBX Classes
 90
        0
 91
       12
280
     0
281
     0
  0
CLASS
  1
DIMASSOC
  2
AcDbDimAssoc
  3
"AcDbDimAssoc|Product Desc:     AcDim ARX App For Dimension|Company:          Autodesk, Inc.|WEB Address:      www.autodesk.com"
 90
        0
 91
        4
280
     0
281
     0
  0
CLASS
  1
MATERIAL
  2
AcDbMaterial
  3
ObjectDBX Classes
 90
     1153
 91
        3
280
     0
281
     0
  0
CLASS
  1
VISUALSTYLE
  2
AcDbVisualStyle
  3
ObjectDBX Classes
 90
     4095
 91
       24
280
     0
281
     0
  0
CLASS
  1
TABLESTYLE
  2
AcDbTableStyle
  3
ObjectDBX Classes
 90
     4095
 91
        1
280
     0
281
     0
  0
CLASS
  1
SCALE
  2
AcDbScale
  3
ObjectDBX Classes
 90
     1153
 91
       17
280
     0
281
     0
  0
CLASS
  1
MLEADERSTYLE
  2
AcDbMLeaderStyle
  3
ACDB_MLEADERSTYLE_CLASS
 90
     4095
 91
        1
280
     0
281
     0
  0
CLASS
  1
ACDBSECTIONVIEWSTYLE
  2
AcDbSectionViewStyle
  3
ObjectDBX Classes
 90
     1025
 91
        1
280
     0
281
     0
  0
CLASS
  1
ACDBDETAILVIEWSTYLE
  2
AcDbDetailViewStyle
  3
ObjectDBX Classes
 90
     1025
 91
        1
280
     0
281
     0
  0
CLASS
  1
CELLSTYLEMAP
  2
AcDbCellStyleMap
  3
ObjectDBX Classes
 90
     1152
 91
        1
280
     0
281
     0
  0
ENDSEC
  0
SECTION
  2
TABLES
  0
TABLE
  2
VPORT
  5
8
330
0
100
AcDbSymbolTable
 70
     1
  0
VPORT
  5
BD3
330
8
100
AcDbSymbolTableRecord
100
AcDbViewportTableRecord
  2
*Active
 70
     0
 10
0.0
 20
0.0
 11
1.0
 21
1.0
 12
1346.269568353796
 22
327.027815653772
 13
0.0
 23
0.0
 14
2.5
 24
2.5
 15
2.5
 25
2.5
 16
0.0
 26
0.0
 36
1.0
 17
0.0
 27
0.0
 37
0.0
 40
1487.726188312305
 41
2.576013513513513
 42
50.0
 43
0.0
 44
0.0
 50
0.0
 51
0.0
 71
     0
 72
   100
 73
     1
 74
     3
 75
     0
 76
     0
 77
     0
 78
     0
281
     0
 65
     1
110
996.8348130823203
120
355.0669511966332
130
0.0
111
1.0
121
0.0
131
0.0
112
0.0
122
1.0
132
0.0
 79
     0
146
0.0
1001
ACAD_NAV_VCDISPLAY
1070
     3
  0
ENDTAB
  0
TABLE
  2
LTYPE
  5
5
330
0
100
AcDbSymbolTable
 70
     6
  0
LTYPE
  5
14
330
5
100
AcDbSymbolTableRecord
100
AcDbLinetypeTableRecord
  2
ByBlock
 70
     0
  3

 72
    65
 73
     0
 40
0.0
  0
LTYPE
  5
15
330
5
100
AcDbSymbolTableRecord
100
AcDbLinetypeTableRecord
  2
ByLayer
 70
     0
  3

 72
    65
 73
     0
 40
0.0
  0
LTYPE
  5
16
330
5
100
AcDbSymbolTableRecord
100
AcDbLinetypeTableRecord
  2
Continuous
 70
     0
  3
Solid line
 72
    65
 73
     0
 40
0.0
  0
LTYPE
  5
2D
330
5
100
AcDbSymbolTableRecord
100
AcDbLinetypeTableRecord
  2
HIDDEN
 70
     0
  3
Hidden __ __ __ __ __ __ __ __ __ __ __ __ __ _
 72
    65
 73
     2
 40
9.524999999999996
 49
6.349999999999998
 74
     0
 49
-3.174999999999998
 74
     0
  0
LTYPE
  5
2E
330
5
100
AcDbSymbolTableRecord
100
AcDbLinetypeTableRecord
  2
CENTER
 70
     0
  3
Center ____ _ ____ _ ____ _ ____ _ ____ _ ____
 72
    65
 73
     4
 40
50.8
 49
31.75
 74
     0
 49
-6.349999999999998
 74
     0
 49
6.349999999999998
 74
     0
 49
-6.349999999999998
 74
     0
  0
LTYPE
  5
9E
330
5
100
AcDbSymbolTableRecord
100
AcDbLinetypeTableRecord
  2
HIDDEN2
 70
     0
  3
Hidden (.5x) _ _ _ _ _ _ _ _ _ _ _ _ _ _ _ _ _
 72
    65
 73
     2
 40
4.762499999999998
 49
3.174999999999998
 74
     0
 49
-1.587499999999999
 74
     0
  0
LTYPE
  5
9F
330
5
100
AcDbSymbolTableRecord
100
AcDbLinetypeTableRecord
  2
CENTER2
 70
     0
  3
Center (.5x) ___ _ ___ _ ___ _ ___ _ ___ _ ___
 72
    65
 73
     4
 40
28.57499999999999
 49
19.05
 74
     0
 49
-3.174999999999998
 74
     0
 49
3.174999999999998
 74
     0
 49
-3.174999999999998
 74
     0
  0
LTYPE
  5
14C
330
5
100
AcDbSymbolTableRecord
100
AcDbLinetypeTableRecord
  2
GEN3A
 70
     0
  3
 - - - - -
 72
    65
 73
     2
 40
3.1
 49
2.5
 74
     0
 49
-0.6
 74
     0
  0
ENDTAB
  0
TABLE
  2
LAYER
  5
2
102
{ACAD_XDICTIONARY
360
C5A
102
}
330
0
100
AcDbSymbolTable
 70
    11
  0
LAYER
  5
10
102
{ACAD_XDICTIONARY
360
C2B
102
}
330
2
100
AcDbSymbolTableRecord
100
AcDbLayerTableRecord
  2
0
 70
     0
 62
     7
  6
Continuous
370
    -3
390
F
  0
LAYER
  5
2F
102
{ACAD_XDICTIONARY
360
C2D
102
}
330
2
100
AcDbSymbolTableRecord
100
AcDbLayerTableRecord
  2
外形線
 70
     0
 62
     7
  6
Continuous
370
    20
390
F
  0
LAYER
  5
30
102
{ACAD_XDICTIONARY
360
C2F
102
}
330
2
100
AcDbSymbolTableRecord
100
AcDbLayerTableRecord
  2
中心線
 70
     0
 62
     7
  6
CENTER2
370
    20
390
F
  0
LAYER
  5
31
102
{ACAD_XDICTIONARY
360
C31
102
}
330
2
100
AcDbSymbolTableRecord
100
AcDbLayerTableRecord
  2
かくれ線
 70
     0
 62
     7
  6
HIDDEN2
370
    20
390
F
  0
LAYER
  5
32
102
{ACAD_XDICTIONARY
360
C33
102
}
330
2
100
AcDbSymbolTableRecord
100
AcDbLayerTableRecord
  2
図枠
 70
     0
 62
     7
  6
Continuous
370
    -3
390
F
  0
LAYER
  5
33
102
{ACAD_XDICTIONARY
360
C35
102
}
330
2
100
AcDbSymbolTableRecord
100
AcDbLayerTableRecord
  2
文字
 70
     0
 62
     7
  6
Continuous
370
    25
390
F
  0
LAYER
  5
34
102
{ACAD_XDICTIONARY
360
C37
102
}
330
2
100
AcDbSymbolTableRecord
100
AcDbLayerTableRecord
  2
ハッチング
 70
     0
 62
     7
  6
Continuous
370
    -3
390
F
  0
LAYER
  5
35
102
{ACAD_XDICTIONARY
360
C39
102
}
330
2
100
AcDbSymbolTableRecord
100
AcDbLayerTableRecord
  2
補助線
 70
     0
 62
     7
  6
Continuous
370
    -3
390
F
  0
LAYER
  5
36
102
{ACAD_XDICTIONARY
360
C3B
102
}
330
2
100
AcDbSymbolTableRecord
100
AcDbLayerTableRecord
  2
寸法線
 70
     0
 62
     7
  6
Continuous
370
     5
390
F
  0
LAYER
  5
14D
330
2
100
AcDbSymbolTableRecord
100
AcDbLayerTableRecord
  2
DEFPOINTS
 70
     0
 62
     7
  6
Continuous
290
     0
370
    -3
390
F
  0
LAYER
  5
14E
102
{ACAD_XDICTIONARY
360
C3D
102
}
330
2
100
AcDbSymbolTableRecord
100
AcDbLayerTableRecord
  2
_-
 70
     0
 62
     7
  6
Continuous
370
    -3
390
F
  0
ENDTAB
  0
TABLE
  2
STYLE
  5
3
330
0
100
AcDbSymbolTable
 70
     3
  0
STYLE
  5
11
330
3
100
AcDbSymbolTableRecord
100
AcDbTextStyleTableRecord
  2
Standard
 70
     0
 40
0.0
 41
1.0
 50
0.0
 71
     0
 42
2.5
  3
isocp.shx
  4
extfont.shx
  0
STYLE
  5
2C
330
3
100
AcDbSymbolTableRecord
100
AcDbTextStyleTableRecord
  2

 70
     1
 40
0.0
 41
1.0
 50
0.0
 71
     0
 42
2.5
  3
ltypeshp.shx
  4

  0
STYLE
  5
4C
330
3
100
AcDbSymbolTableRecord
100
AcDbTextStyleTableRecord
  2
symbols
 70
     0
 40
0.0
 41
1.0
 50
0.0
 71
     0
 42
5.0
  3
isocp.shx
  4
extfont.shx
  0
ENDTAB
  0
TABLE
  2
VIEW
  5
6
330
0
100
AcDbSymbolTable
 70
     0
  0
ENDTAB
  0
TABLE
  2
UCS
  5
7
330
0
100
AcDbSymbolTable
 70
     0
  0
ENDTAB
  0
TABLE
  2
APPID
  5
9
330
0
100
AcDbSymbolTable
 70
     4
  0
APPID
  5
12
330
9
100
AcDbSymbolTableRecord
100
AcDbRegAppTableRecord
  2
ACAD
 70
     0
  0
APPID
  5
C28
330
9
100
AcDbSymbolTableRecord
100
AcDbRegAppTableRecord
  2
ACAD_EXEMPT_FROM_CAD_STANDARDS
 70
     0
  0
APPID
  5
C3F
330
9
100
AcDbSymbolTableRecord
100
AcDbRegAppTableRecord
  2
ACAD_NAV_VCDISPLAY
 70
     0
  0
APPID
  5
EA3
330
9
100
AcDbSymbolTableRecord
100
AcDbRegAppTableRecord
  2
ACAD_MLEADERVER
 70
     0
  0
ENDTAB
  0
TABLE
  2
DIMSTYLE
  5
A
330
0
100
AcDbSymbolTable
 70
     3
100
AcDbDimStyleTable
 71
     1
340
27
  0
DIMSTYLE
105
27
102
{ACAD_REACTORS
330
4A6
330
4BE
330
823
330
962
330
9D1
102
}
330
A
100
AcDbSymbolTableRecord
100
AcDbDimStyleTableRecord
  2
ISO-25
 70
     0
 41
2.5
 42
0.625
 43
3.75
 44
1.25
 73
     0
 74
     0
 77
     1
 78
     8
140
3.5
141
2.5
143
0.03937007874016
147
0.625
171
     3
172
     1
271
     2
272
     2
274
     3
283
     0
284
     8
340
11
  0
DIMSTYLE
105
14F
330
A
100
AcDbSymbolTableRecord
100
AcDbDimStyleTableRecord
  2
GEN-ISO
 70
     0
 40
5.0
 41
2.5
 42
1.0
 43
10.0
 44
2.0
 47
0.1
 48
0.1
 73
     0
 74
     0
 77
     1
 78
     8
140
3.5
141
-2.0
147
1.5
172
     1
178
     2
271
     2
272
     5
283
     0
284
     8
285
     8
286
     8
340
11
  0
DIMSTYLE
105
150
330
A
100
AcDbSymbolTableRecord
100
AcDbDimStyleTableRecord
  2
GEN-ISO$3
 70
     0
 40
5.0
 41
2.5
 42
1.0
 43
10.0
 44
2.0
 47
0.1
 48
0.1
 73
     0
 77
     1
 78
     8
140
3.5
141
0.0
147
1.5
178
     2
271
     2
272
     5
283
     0
284
     8
285
     8
286
     8
288
     1
289
     0
340
11
  0
ENDTAB
  0
TABLE
  2
BLOCK_RECORD
  5
1
330
0
100
AcDbSymbolTable
 70
     6
  0
BLOCK_RECORD
  5
1F
330
1
100
AcDbSymbolTableRecord
100
AcDbBlockTableRecord
  2
*Model_Space
340
22
  0
BLOCK_RECORD
  5
1B
330
1
100
AcDbSymbolTableRecord
100
AcDbBlockTableRecord
  2
*Paper_Space
340
1E
  0
BLOCK_RECORD
  5
23
330
1
100
AcDbSymbolTableRecord
100
AcDbBlockTableRecord
  2
*Paper_Space0
340
26
  0
BLOCK_RECORD
  5
4A7
330
1
100
AcDbSymbolTableRecord
100
AcDbBlockTableRecord
  2
*D1
340
0
  0
BLOCK_RECORD
  5
4BF
330
1
100
AcDbSymbolTableRecord
100
AcDbBlockTableRecord
  2
*D2
340
0
  0
BLOCK_RECORD
  5
824
330
1
100
AcDbSymbolTableRecord
100
AcDbBlockTableRecord
  2
*D3
340
0
  0
BLOCK_RECORD
  5
963
330
1
100
AcDbSymbolTableRecord
100
AcDbBlockTableRecord
  2
*D4
340
0
  0
BLOCK_RECORD
  5
9D2
330
1
100
AcDbSymbolTableRecord
100
AcDbBlockTableRecord
  2
*D5
340
0
  0
ENDTAB
  0
ENDSEC
  0
SECTION
  2
BLOCKS
  0
BLOCK
  5
20
330
1F
100
AcDbEntity
  8
0
100
AcDbBlockBegin
  2
*Model_Space
 70
     0
 10
0.0
 20
0.0
 30
0.0
  3
*Model_Space
  1

  0
ENDBLK
  5
21
330
1F
100
AcDbEntity
  8
0
100
AcDbBlockEnd
  0
BLOCK
  5
1C
330
1B
100
AcDbEntity
 67
     1
  8
0
100
AcDbBlockBegin
  2
*Paper_Space
 70
     0
 10
0.0
 20
0.0
 30
0.0
  3
*Paper_Space
  1

  0
ENDBLK
  5
1D
330
1B
100
AcDbEntity
 67
     1
  8
0
100
AcDbBlockEnd
  0
BLOCK
  5
24
330
23
100
AcDbEntity
 67
     1
  8
0
100
AcDbBlockBegin
  2
*Paper_Space0
 70
     0
 10
0.0
 20
0.0
 30
0.0
  3
*Paper_Space0
  1

  0
ENDBLK
  5
25
330
23
100
AcDbEntity
 67
     1
  8
0
100
AcDbBlockEnd
  0
BLOCK
  5
4B1
330
4A7
100
AcDbEntity
  8
0
100
AcDbBlockBegin
  2
*D1
 70
     1
 10
0.0
 20
0.0
 30
0.0
  3
*D1
  1

  0
LINE
  5
D79
330
4A7
100
AcDbEntity
  8
寸法線
440
 16777216
370
    -2
100
AcDbLine
 10
1273.009495327243
 20
285.5784048572454
 30
0.0
 11
1311.259495327243
 21
285.5784048572454
 31
0.0
  0
LINE
  5
D7A
330
4A7
100
AcDbEntity
  8
寸法線
440
 16777216
370
    -2
100
AcDbLine
 10
1250.750805766343
 20
257.5790970704873
 30
0.0
 11
1311.259495327243
 21
257.5790970704873
 31
0.0
  0
LINE
  5
D7B
330
4A7
100
AcDbEntity
  8
寸法線
440
 16777216
370
    -2
100
AcDbLine
 10
1310.009495327243
 20
276.5784048572454
 30
0.0
 11
1310.009495327243
 21
266.5790970704873
 31
0.0
  0
SOLID
  5
D7C
330
4A7
100
AcDbEntity
  8
寸法線
440
 16777216
100
AcDbTrace
 10
1308.509495327243
 20
276.5784048572454
 30
0.0
 11
1311.509495327243
 21
276.5784048572454
 31
0.0
 12
1310.009495327243
 22
285.5784048572454
 32
0.0
 13
1310.009495327243
 23
285.5784048572454
 33
0.0
  0
SOLID
  5
D7D
330
4A7
100
AcDbEntity
  8
寸法線
440
 16777216
100
AcDbTrace
 10
1308.509495327243
 20
266.5790970704873
 30
0.0
 11
1311.509495327243
 21
266.5790970704873
 31
0.0
 12
1310.009495327243
 22
257.5790970704873
 32
0.0
 13
1310.009495327243
 23
257.5790970704873
 33
0.0
  0
MTEXT
  5
D7E
330
4A7
100
AcDbEntity
  8
寸法線
440
 16777216
100
AcDbMText
 10
1299.0077236737
 20
271.5787509638665
 30
0.0
 40
18.0
 41
0.0
 71
     5
 72
     1
  1
28
 11
0.0000000000000001
 21
1.0
 31
0.0
 73
     1
 44
1.0
  0
POINT
  5
D7F
330
4A7
100
AcDbEntity
  8
DEFPOINTS
 62
     0
440
 16777216
100
AcDbPoint
 10
1253.009495327243
 20
285.5784048572454
 30
0.0
  0
POINT
  5
D80
330
4A7
100
AcDbEntity
  8
DEFPOINTS
 62
     0
440
 16777216
100
AcDbPoint
 10
1230.750805766343
 20
257.5790970704873
 30
0.0
  0
POINT
  5
D81
330
4A7
100
AcDbEntity
  8
DEFPOINTS
 62
     0
440
 16777216
100
AcDbPoint
 10
1310.009495327243
 20
257.5790970704873
 30
0.0
  0
ENDBLK
  5
4B2
330
4A7
100
AcDbEntity
  8
0
100
AcDbBlockEnd
  0
BLOCK
  5
4C9
330
4BF
100
AcDbEntity
  8
0
100
AcDbBlockBegin
  2
*D2
 70
     1
 10
0.0
 20
0.0
 30
0.0
  3
*D2
  1

  0
LINE
  5
D82
330
4BF
100
AcDbEntity
  8
寸法線
440
 16777216
370
    -2
100
AcDbLine
 10
847.0094953272438
 20
285.5784048572454
 30
0.0
 11
806.104420069507
 21
285.5784048572454
 31
0.0
  0
LINE
  5
D83
330
4BF
100
AcDbEntity
  8
寸法線
440
 16777216
370
    -2
100
AcDbLine
 10
1002.209495327244
 20
61.39403343823469
 30
0.0
 11
806.1044200695068
 21
61.39403343823475
 31
0.0
  0
LINE
  5
D84
330
4BF
100
AcDbEntity
  8
寸法線
440
 16777216
370
    -2
100
AcDbLine
 10
807.3544200695069
 20
276.5784048572454
 30
0.0
 11
807.3544200695069
 21
70.39403343823474
 31
0.0
  0
SOLID
  5
D85
330
4BF
100
AcDbEntity
  8
寸法線
440
 16777216
100
AcDbTrace
 10
805.854420069507
 20
276.5784048572454
 30
0.0
 11
808.854420069507
 21
276.5784048572454
 31
0.0
 12
807.3544200695069
 22
285.5784048572454
 32
0.0
 13
807.3544200695069
 23
285.5784048572454
 33
0.0
  0
SOLID
  5
D86
330
4BF
100
AcDbEntity
  8
寸法線
440
 16777216
100
AcDbTrace
 10
805.8544200695068
 20
70.39403343823474
 30
0.0
 11
808.8544200695068
 21
70.39403343823474
 31
0.0
 12
807.3544200695069
 22
61.39403343823475
 32
0.0
 13
807.3544200695069
 23
61.39403343823475
 33
0.0
  0
MTEXT
  5
D87
330
4BF
100
AcDbEntity
  8
寸法線
440
 16777216
100
AcDbMText
 10
796.3526484159635
 20
172.0033373203865
 30
0.0
 40
18.0
 41
0.0
 71
     5
 72
     1
  1
組立後Ｈ＝211
 11
0.0000000000000001
 21
1.0
 31
0.0
 73
     1
 44
1.0
  0
POINT
  5
D88
330
4BF
100
AcDbEntity
  8
DEFPOINTS
 62
     0
440
 16777216
100
AcDbPoint
 10
867.0094953272437
 20
285.5784048572454
 30
0.0
  0
POINT
  5
D89
330
4BF
100
AcDbEntity
  8
DEFPOINTS
 62
     0
440
 16777216
100
AcDbPoint
 10
1022.209495327244
 20
61.39403343823468
 30
0.0
  0
POINT
  5
D8A
330
4BF
100
AcDbEntity
  8
DEFPOINTS
 62
     0
440
 16777216
100
AcDbPoint
 10
807.3544200695069
 20
61.39403343823475
 30
0.0
  0
ENDBLK
  5
4CA
330
4BF
100
AcDbEntity
  8
0
100
AcDbBlockEnd
  0
BLOCK
  5
82D
330
824
100
AcDbEntity
  8
0
100
AcDbBlockBegin
  2
*D3
 70
     1
 10
0.0
 20
0.0
 30
0.0
  3
*D3
  1

  0
LINE
  5
DA3
330
824
100
AcDbEntity
  8
寸法線
440
 16777216
370
    -2
100
AcDbLine
 10
1247.871553962453
 20
748.8215989058832
 30
0.0
 11
1204.259278689299
 21
705.209323632729
 31
0.0
  0
LINE
  5
DA4
330
824
100
AcDbEntity
  8
寸法線
440
 16777216
370
    -2
100
AcDbLine
 10
915.7597119651883
 20
416.7097569086175
 30
0.0
 11
909.3957509345093
 21
410.3457958779386
 31
0.0
  0
MTEXT
  5
DA5
102
{ACAD_XDICTIONARY
360
EA6
102
}
330
824
100
AcDbEntity
  8
寸法線
440
 16777216
100
AcDbMText
 10
1221.469222248164
 20
737.9756163776975
 30
0.0
 40
18.0
 41
0.0
 71
     5
 72
     1
  1
\U+2205390
 11
0.707106781186547
 21
0.7071067811865481
 31
0.0
 73
     1
 44
1.0
  0
LINE
  5
DA6
330
824
100
AcDbEntity
  8
寸法線
440
 16777216
370
    -2
100
AcDbLine
 10
922.1236729958672
 20
423.0737179392964
 30
0.0
 11
1197.89531765862
 21
698.8453626020501
 31
0.0
  0
SOLID
  5
DA7
330
824
100
AcDbEntity
  8
寸法線
440
 16777216
100
AcDbTrace
 10
914.6990517934083
 20
417.7704170803973
 30
0.0
 11
916.820372136968
 21
415.6490967368377
 31
0.0
 12
922.1236729958672
 22
423.0737179392964
 32
0.0
 13
922.1236729958672
 23
423.0737179392964
 33
0.0
  0
SOLID
  5
DA8
330
824
100
AcDbEntity
  8
寸法線
440
 16777216
100
AcDbTrace
 10
1203.19861851752
 20
706.2699838045087
 30
0.0
 11
1205.319938861079
 21
704.1486634609491
 31
0.0
 12
1197.89531765862
 22
698.8453626020501
 32
0.0
 13
1197.89531765862
 23
698.8453626020501
 33
0.0
  0
POINT
  5
DA9
330
824
100
AcDbEntity
  8
DEFPOINTS
 62
     0
440
 16777216
100
AcDbPoint
 10
1197.89531765862
 20
698.8453626020501
 30
0.0
  0
POINT
  5
DAA
330
824
100
AcDbEntity
  8
DEFPOINTS
 62
     0
440
 16777216
100
AcDbPoint
 10
922.1236729958672
 20
423.0737179392964
 30
0.0
  0
ENDBLK
  5
82E
330
824
100
AcDbEntity
  8
0
100
AcDbBlockEnd
  0
BLOCK
  5
96F
330
963
100
AcDbEntity
  8
0
100
AcDbBlockBegin
  2
*D4
 70
     1
 10
0.0
 20
0.0
 30
0.0
  3
*D4
  1

  0
LINE
  5
D93
330
963
100
AcDbEntity
  8
寸法線
440
 16777216
370
    -2
100
AcDbLine
 10
847.0094953272438
 20
285.5784048572454
 30
0.0
 11
838.7594953272438
 21
285.5784048572454
 31
0.0
  0
LINE
  5
D94
330
963
100
AcDbEntity
  8
寸法線
440
 16777216
370
    -2
100
AcDbLine
 10
845.0094953272438
 20
277.5784048572453
 30
0.0
 11
838.7594953272438
 21
277.5784048572453
 31
0.0
  0
LINE
  5
D95
330
963
100
AcDbEntity
  8
寸法線
440
 16777216
370
    -2
100
AcDbLine
 10
840.0094953272438
 20
294.5784048572454
 30
0.0
 11
840.0094953272438
 21
303.5784048572454
 31
0.0
  0
LINE
  5
D96
330
963
100
AcDbEntity
  8
寸法線
440
 16777216
370
    -2
100
AcDbLine
 10
840.0094953272438
 20
268.5784048572454
 30
0.0
 11
840.0094953272438
 21
248.3784048572453
 31
0.0
  0
LINE
  5
D97
330
963
100
AcDbEntity
  8
寸法線
440
 16777216
370
    -2
100
AcDbLine
 10
840.0094953272438
 20
285.5784048572454
 30
0.0
 11
840.0094953272438
 21
277.5784048572453
 31
0.0
  0
SOLID
  5
D98
330
963
100
AcDbEntity
  8
寸法線
440
 16777216
100
AcDbTrace
 10
838.5094953272439
 20
294.5784048572454
 30
0.0
 11
841.5094953272438
 21
294.5784048572454
 31
0.0
 12
840.0094953272438
 22
285.5784048572454
 32
0.0
 13
840.0094953272438
 23
285.5784048572454
 33
0.0
  0
SOLID
  5
D99
330
963
100
AcDbEntity
  8
寸法線
440
 16777216
100
AcDbTrace
 10
838.5094953272439
 20
268.5784048572454
 30
0.0
 11
841.5094953272438
 21
268.5784048572454
 31
0.0
 12
840.0094953272438
 22
277.5784048572453
 32
0.0
 13
840.0094953272438
 23
277.5784048572453
 33
0.0
  0
MTEXT
  5
D9A
330
963
100
AcDbEntity
  8
寸法線
440
 16777216
100
AcDbMText
 10
829.0094953272436
 20
253.9784048572454
 30
0.0
 40
18.0
 41
0.0
 71
     5
 72
     1
  1
8
 11
0.0000000000000001
 21
1.0
 31
0.0
 73
     1
 44
1.0
  0
POINT
  5
D9B
330
963
100
AcDbEntity
  8
DEFPOINTS
 62
     0
440
 16777216
100
AcDbPoint
 10
867.0094953272437
 20
285.5784048572454
 30
0.0
  0
POINT
  5
D9C
330
963
100
AcDbEntity
  8
DEFPOINTS
 62
     0
440
 16777216
100
AcDbPoint
 10
865.0094953272439
 20
277.5784048572453
 30
0.0
  0
POINT
  5
D9D
330
963
100
AcDbEntity
  8
DEFPOINTS
 62
     0
440
 16777216
100
AcDbPoint
 10
840.0094953272438
 20
277.5784048572453
 30
0.0
  0
ENDBLK
  5
970
330
963
100
AcDbEntity
  8
0
100
AcDbBlockEnd
  0
BLOCK
  5
9D8
330
9D2
100
AcDbEntity
  8
0
100
AcDbBlockBegin
  2
*D5
 70
     1
 10
0.0
 20
0.0
 30
0.0
  3
*D5
  1

  0
LINE
  5
E3F
330
9D2
100
AcDbEntity
  8
寸法線
440
 16777216
370
    -2
100
AcDbLine
 10
1036.560137123765
 20
584.4088984741517
 30
0.0
 11
939.0942357443439
 21
681.8747998535729
 31
0.0
  0
MTEXT
  5
E40
102
{ACAD_XDICTIONARY
360
EA8
102
}
330
9D2
100
AcDbEntity
  8
寸法線
440
 16777216
100
AcDbMText
 10
1001.871538513627
 20
634.6538462703933
 30
0.0
 40
18.0
 41
0.0
 71
     5
 72
     1
  1
穴あけ\U+2205360
 11
0.707106781186547
 21
-0.7071067811865481
 31
0.0
 73
     1
 44
1.0
  0
SOLID
  5
E41
330
9D2
100
AcDbEntity
  8
寸法線
440
 16777216
100
AcDbTrace
 10
940.1548959161237
 20
682.9354600253528
 30
0.0
 11
938.033575572564
 21
680.8141396817931
 31
0.0
 12
932.7302747136648
 22
688.2387608842519
 32
0.0
 13
932.7302747136648
 23
688.2387608842519
 33
0.0
  0
POINT
  5
E42
330
9D2
100
AcDbEntity
  8
DEFPOINTS
 62
     0
440
 16777216
100
AcDbPoint
 10
932.7302747136648
 20
688.2387608842519
 30
0.0
  0
POINT
  5
E43
330
9D2
100
AcDbEntity
  8
DEFPOINTS
 62
     0
440
 16777216
100
AcDbPoint
 10
1187.288715940822
 20
433.6803196570943
 30
0.0
  0
ENDBLK
  5
9D9
330
9D2
100
AcDbEntity
  8
0
100
AcDbBlockEnd
  0
ENDSEC
  0
SECTION
  2
ENTITIES
  0
LWPOLYLINE
  5
39
330
1F
100
AcDbEntity
  8
図枠
100
AcDbPolyline
 90
        4
 70
     1
 43
0.0
 10
598.2992075283258
 20
-113.4861392062122
 10
1356.459207528326
 20
-113.4861392062122
 10
1356.459207528326
 20
961.7888607937876
 10
598.2992075283258
 20
961.7888607937876
  0
LINE
  5
3A
330
1F
100
AcDbEntity
  8
図枠
100
AcDbLine
 10
1356.459207528325
 20
-87.97113920621223
 30
0.0
 11
911.7692075283256
 21
-87.97113920621223
 31
0.0
  0
LINE
  5
3B
330
1F
100
AcDbEntity
  8
図枠
100
AcDbLine
 10
911.7692075283256
 20
-87.97113920621223
 30
0.0
 11
911.7692075283256
 21
-113.4861392062122
 31
0.0
  0
LINE
  5
3C
330
1F
100
AcDbEntity
  8
図枠
100
AcDbLine
 10
780.5492075283258
 20
-87.97113920621223
 30
0.0
 11
598.2992075283258
 21
-87.97113920621223
 31
0.0
  0
LINE
  5
3D
330
1F
100
AcDbEntity
  8
図枠
100
AcDbLine
 10
1356.459207528325
 20
-69.7461392062122
 30
0.0
 11
911.7692075283256
 21
-69.7461392062122
 31
0.0
  0
LINE
  5
3E
330
1F
100
AcDbEntity
  8
図枠
100
AcDbLine
 10
911.7692075283256
 20
-69.7461392062122
 30
0.0
 11
911.7692075283256
 21
-87.97113920621223
 31
0.0
  0
LINE
  5
42
330
1F
100
AcDbEntity
  8
図枠
100
AcDbLine
 10
1119.534207528325
 20
-87.97113920621223
 30
0.0
 11
1119.534207528325
 21
-113.4861392062122
 31
0.0
  0
LINE
  5
43
330
1F
100
AcDbEntity
  8
図枠
100
AcDbLine
 10
1119.534207528325
 20
-87.97113920621223
 30
0.0
 11
1119.534207528325
 21
-69.7461392062122
 31
0.0
  0
LINE
  5
44
330
1F
100
AcDbEntity
  8
図枠
100
AcDbLine
 10
911.7692075283256
 20
-69.7461392062122
 30
0.0
 11
911.7692075283256
 21
-51.52113920621218
 31
0.0
  0
LINE
  5
45
330
1F
100
AcDbEntity
  8
図枠
100
AcDbLine
 10
911.7692075283256
 20
-51.52113920621218
 30
0.0
 11
1356.459207528325
 21
-51.52113920621218
 31
0.0
  0
LINE
  5
47
330
1F
100
AcDbEntity
  8
図枠
100
AcDbLine
 10
1108.599207528325
 20
-51.52113920621218
 30
0.0
 11
1108.599207528325
 21
-69.7461392062122
 31
0.0
  0
LINE
  5
48
330
1F
100
AcDbEntity
  8
図枠
100
AcDbLine
 10
1126.824207528325
 20
-51.52113920621218
 30
0.0
 11
1126.824207528325
 21
-69.7461392062122
 31
0.0
  0
LINE
  5
49
330
1F
100
AcDbEntity
  8
図枠
100
AcDbLine
 10
1181.499207528325
 20
-51.52113920621218
 30
0.0
 11
1181.499207528325
 21
-69.7461392062122
 31
0.0
  0
LINE
  5
4A
330
1F
100
AcDbEntity
  8
図枠
100
AcDbLine
 10
1261.689207528325
 20
-51.52113920621218
 30
0.0
 11
1261.689207528325
 21
-69.7461392062122
 31
0.0
  0
MTEXT
  5
50
330
1F
100
AcDbEntity
  8
図枠
100
AcDbMText
 10
1123.179207528326
 20
-91.61613920621221
 30
0.0
 40
9.112499999999997
 41
47.38500000000001
 71
     1
 72
     5
  1
品名
  7
symbols
 73
     1
 44
1.0
  0
MTEXT
  5
51
330
1F
100
AcDbEntity
  8
図枠
100
AcDbMText
 10
1075.794207528325
 20
-91.61613920621221
 30
0.0
 40
14.58
 41
47.38500000000001
 71
     1
 72
     5
  1
御中
  7
symbols
 73
     1
 44
1.0
  0
MTEXT
  5
52
330
1F
100
AcDbEntity
  8
図枠
100
AcDbMText
 10
1123.179207528326
 20
-73.39113920621223
 30
0.0
 40
9.112499999999997
 41
25.51499999999999
 71
     1
 72
     5
  1
型番
  7
symbols
 73
     1
 44
1.0
  0
MTEXT
  5
54
330
1F
100
AcDbEntity
  8
図枠
100
AcDbMText
 10
88.0
 20
12.0
 30
0.0
 40
5.0
 41
16.0
 71
     1
 72
     5
  1

  7
symbols
 73
     1
 44
1.0
  0
MTEXT
  5
55
330
1F
100
AcDbEntity
  8
図枠
100
AcDbMText
 10
915.4142075283258
 20
-73.39113920621223
 30
0.0
 40
9.112499999999997
 41
61.965
 71
     1
 72
     5
  1
社内品番
  7
symbols
 73
     1
 44
1.0
  0
MTEXT
  5
57
330
1F
100
AcDbEntity
  8
図枠
100
AcDbMText
 10
1006.539207528325
 20
-55.16613920621222
 30
0.0
 40
9.112499999999997
 41
65.60999999999999
 71
     1
 72
     5
  1
部品名
  7
symbols
 73
     1
 44
1.0
  0
MTEXT
  5
58
330
1F
100
AcDbEntity
  8
図枠
100
AcDbMText
 10
1112.244207528325
 20
-55.16613920621222
 30
0.0
 40
9.112499999999997
 41
10.935
 71
     1
 72
     5
  1
数
  7
symbols
 73
     1
 44
1.0
  0
MTEXT
  5
59
330
1F
100
AcDbEntity
  8
図枠
100
AcDbMText
 10
1141.404207528326
 20
-55.16613920621222
 30
0.0
 40
9.112499999999997
 41
40.095
 71
     1
 72
     5
  1
材質
  7
symbols
 73
     1
 44
1.0
  0
MTEXT
  5
5A
330
1F
100
AcDbEntity
  8
図枠
100
AcDbMText
 10
1210.659207528325
 20
-55.16613920621222
 30
0.0
 40
9.112499999999997
 41
61.965
 71
     1
 72
     5
  1
処理
  7
symbols
 73
     1
 44
1.0
  0
MTEXT
  5
5B
330
1F
100
AcDbEntity
  8
図枠
100
AcDbMText
 10
1298.139207528326
 20
-55.16613920621222
 30
0.0
 40
9.112499999999997
 41
80.19
 71
     1
 72
     5
  1
備考
  7
symbols
 73
     1
 44
1.0
  0
MTEXT
  5
5C
330
1F
100
AcDbEntity
  8
図枠
100
AcDbMText
 10
612.8792075283257
 20
-93.43863920621222
 30
0.0
 40
14.58
 41
222.345
 71
     1
 72
     5
  1
PICOLO
  7
symbols
 73
     1
 44
1.0
  0
MTEXT
  5
5E
330
1F
100
AcDbEntity
  8
図枠
100
AcDbMText
 10
915.4142075283258
 20
-55.16613920621222
 30
0.0
 40
9.112499999999997
 41
29.16
 71
     1
 72
     5
  1
番号
  7
symbols
 73
     1
 44
1.0
  0
LINE
  5
5F
330
1F
100
AcDbEntity
  8
図枠
100
AcDbLine
 10
940.9292075283259
 20
-51.52113920621218
 30
0.0
 11
940.9292075283259
 21
-69.7461392062122
 31
0.0
  0
LINE
  5
68
330
1F
100
AcDbEntity
  8
図枠
100
AcDbLine
 10
911.7692075283256
 20
-33.29613920621222
 30
0.0
 11
1356.459207528325
 21
-33.29613920621222
 31
0.0
  0
LINE
  5
6F
330
1F
100
AcDbEntity
  8
図枠
100
AcDbLine
 10
911.7692075283256
 20
-33.29613920621222
 30
0.0
 11
911.7692075283256
 21
-51.52113920621218
 31
0.0
  0
LINE
  5
70
330
1F
100
AcDbEntity
  8
図枠
100
AcDbLine
 10
940.9292075283259
 20
-51.52113920621218
 30
0.0
 11
940.9292075283259
 21
-33.29613920621222
 31
0.0
  0
LINE
  5
77
330
1F
100
AcDbEntity
  8
図枠
100
AcDbLine
 10
1108.599207528325
 20
-51.52113920621218
 30
0.0
 11
1108.599207528325
 21
-33.29613920621222
 31
0.0
  0
LINE
  5
7E
330
1F
100
AcDbEntity
  8
図枠
100
AcDbLine
 10
1126.824207528325
 20
-51.52113920621218
 30
0.0
 11
1126.824207528325
 21
-33.29613920621222
 31
0.0
  0
LINE
  5
85
330
1F
100
AcDbEntity
  8
図枠
100
AcDbLine
 10
1181.499207528325
 20
-51.52113920621218
 30
0.0
 11
1181.499207528325
 21
-33.29613920621222
 31
0.0
  0
LINE
  5
8C
330
1F
100
AcDbEntity
  8
図枠
100
AcDbLine
 10
1261.689207528325
 20
-51.52113920621218
 30
0.0
 11
1261.689207528325
 21
-33.29613920621222
 31
0.0
  0
LINE
  5
93
330
1F
100
AcDbEntity
  8
図枠
100
AcDbLine
 10
598.2992075283258
 20
-69.7461392062122
 30
0.0
 11
911.7692075283256
 21
-69.7461392062122
 31
0.0
  0
LINE
  5
94
330
1F
100
AcDbEntity
  8
図枠
100
AcDbLine
 10
868.0292075283258
 20
-69.7461392062122
 30
0.0
 11
868.0292075283258
 21
-113.4861392062122
 31
0.0
  0
LINE
  5
95
330
1F
100
AcDbEntity
  8
図枠
100
AcDbLine
 10
824.2892075283258
 20
-69.7461392062122
 30
0.0
 11
824.2892075283258
 21
-113.4861392062122
 31
0.0
  0
LINE
  5
96
330
1F
100
AcDbEntity
  8
図枠
100
AcDbLine
 10
780.5492075283258
 20
-69.7461392062122
 30
0.0
 11
780.5492075283258
 21
-113.4861392062122
 31
0.0
  0
MTEXT
  5
97
330
1F
100
AcDbEntity
  8
図枠
100
AcDbMText
 10
869.8517075283259
 20
-71.56863920621224
 30
0.0
 40
9.112499999999997
 41
29.16
 71
     1
 72
     5
  1
尺度
  7
symbols
 73
     1
 44
1.0
  0
MTEXT
  5
98
330
1F
100
AcDbEntity
  8
図枠
100
AcDbMText
 10
826.1117075283259
 20
-71.56863920621224
 30
0.0
 40
9.112499999999997
 41
29.16
 71
     1
 72
     5
  1
作図
  7
symbols
 73
     1
 44
1.0
  0
MTEXT
  5
99
330
1F
100
AcDbEntity
  8
図枠
100
AcDbMText
 10
782.3717075283258
 20
-71.56863920621224
 30
0.0
 40
9.112499999999997
 41
29.16
 71
     1
 72
     5
  1
承認
  7
symbols
 73
     1
 44
1.0
  0
MTEXT
  5
C3
330
1F
100
AcDbEntity
  8
外形線
100
AcDbMText
 10
1.0
 20
13.0
 30
0.0
 40
5.0
 41
0.0
 71
     1
 72
     5
  1

  7
symbols
 73
     1
 44
1.0
  0
MTEXT
  5
C4
330
1F
100
AcDbEntity
  8
図枠
100
AcDbMText
 10
600.1217075283257
 20
-72.31352878683356
 30
0.0
 40
10.935
 41
40.095
 71
     1
 72
     5
  1
日付
  7
symbols
 73
     1
 44
1.0
  0
LINE
  5
C5
330
1F
100
AcDbEntity
  8
図枠
100
AcDbLine
 10
631.104207528326
 20
-69.7461392062122
 30
0.0
 11
631.104207528326
 21
-87.97113920621223
 31
0.0
  0
MTEXT
  5
E4
330
1F
100
AcDbEntity
  8
文字
100
AcDbMText
 10
873.979364197941
 20
-90.01182172871651
 30
0.0
 40
12.75749999999999
 41
32.72441921296906
 71
     1
 72
     5
  1
Free
  7
symbols
 73
     1
 44
1.0
  0
MTEXT
  5
EC
330
1F
100
AcDbEntity
  8
文字
100
AcDbMText
 10
666.2028350013989
 20
-72.17192765194865
 30
0.0
 40
12.75749999999999
 41
94.16059999999999
 71
     1
 72
     5
  1
2005/10/06
  7
symbols
 73
     1
 44
1.0
  0
CIRCLE
  5
218
102
{ACAD_REACTORS
330
838
102
}
330
1F
100
AcDbEntity
  8
外形線
100
AcDbCircle
 10
1060.009495327244
 20
560.9595402706731
 30
0.0
 40
195.0
  0
CIRCLE
  5
21B
330
1F
100
AcDbEntity
  8
外形線
100
AcDbCircle
 10
1060.009495327244
 20
560.9595402706731
 30
0.0
 40
23.0
  0
CIRCLE
  5
21C
330
1F
100
AcDbEntity
  8
外形線
 48
0.1
100
AcDbCircle
 10
1060.009495327244
 20
560.9595402706731
 30
0.0
 40
28.0
  0
ARC
  5
21E
330
1F
100
AcDbEntity
  8
外形線
100
AcDbCircle
 10
1060.676928868978
 20
277.5689405858367
 30
0.0
 40
172.7135402372679
100
AcDbArc
 50
179.9968603341265
 51
212.4620709265382
  0
LINE
  5
223
102
{ACAD_REACTORS
330
97D
102
}
330
1F
100
AcDbEntity
  8
外形線
100
AcDbLine
 10
1060.009495327244
 20
277.5784048572453
 30
0.0
 11
865.0094953272439
 21
277.5784048572453
 31
0.0
  0
LINE
  5
224
330
1F
100
AcDbEntity
  8
外形線
100
AcDbLine
 10
865.0094953272439
 20
277.5784048572453
 30
0.0
 11
865.0094953272439
 21
283.5784048572454
 31
0.0
  0
LINE
  5
225
102
{ACAD_REACTORS
330
4D5
330
97D
102
}
330
1F
100
AcDbEntity
  8
外形線
100
AcDbLine
 10
867.0094953272437
 20
285.5784048572454
 30
0.0
 11
1060.009495327244
 21
285.5784048572454
 31
0.0
  0
ARC
  5
226
330
1F
100
AcDbEntity
  8
外形線
100
AcDbCircle
 10
867.0094953272437
 20
283.5784048572454
 30
0.0
 40
2.0
100
AcDbArc
 50
90.0
 51
180.0
  0
ARC
  5
227
330
1F
100
AcDbEntity
  8
外形線
100
AcDbCircle
 10
1059.342061785509
 20
277.5689405858367
 30
0.0
 40
172.7135402372679
100
AcDbArc
 50
284.220990615962
 51
334.4502096369196
  0
LINE
  5
22C
330
1F
100
AcDbEntity
  8
外形線
100
AcDbLine
 10
1060.009495327244
 20
277.5784048572453
 30
0.0
 11
1255.009495327243
 21
277.5784048572453
 31
0.0
  0
LINE
  5
22D
330
1F
100
AcDbEntity
  8
外形線
100
AcDbLine
 10
1255.009495327243
 20
277.5784048572453
 30
0.0
 11
1255.009495327243
 21
283.5784048572454
 31
0.0
  0
LINE
  5
22E
102
{ACAD_REACTORS
330
4BD
102
}
330
1F
100
AcDbEntity
  8
外形線
100
AcDbLine
 10
1253.009495327243
 20
285.5784048572454
 30
0.0
 11
1060.009495327244
 21
285.5784048572454
 31
0.0
  0
ARC
  5
22F
330
1F
100
AcDbEntity
  8
外形線
100
AcDbCircle
 10
1253.009495327243
 20
283.5784048572454
 30
0.0
 40
2.0
100
AcDbArc
 50
0.0
 51
90.0
  0
ELLIPSE
  5
230
330
1F
100
AcDbEntity
  8
外形線
100
AcDbEllipse
 10
1223.07247611772
 20
560.9595402707086
 30
0.0
 11
0.00000000007496
 21
-18.82642584931953
 31
0.0
210
0.0
220
0.0
230
1.0
 40
0.4747061009377128
 41
0.0
 42
6.283185307179585
  0
ELLIPSE
  5
231
330
1F
100
AcDbEntity
  8
外形線
100
AcDbEllipse
 10
1225.282082168871
 20
560.9595402707086
 30
0.0
 11
0.0000000000772701
 21
-14.60848763470139
 31
0.0
210
0.0
220
0.0
230
1.0
 40
0.4605140057340799
 41
0.0
 42
6.283185307179585
  0
LINE
  5
232
330
1F
100
AcDbEntity
  8
外形線
100
AcDbLine
 10
1230.663225410937
 20
256.0784048572454
 30
0.0
 11
1215.320879188108
 21
203.4030757761061
 31
0.0
  0
LINE
  5
233
330
1F
100
AcDbEntity
  8
外形線
100
AcDbLine
 10
1236.265729653243
 20
246.7056875762759
 30
0.0
 11
1225.044773225596
 21
208.3118236506249
 31
0.0
  0
LINE
  5
234
330
1F
100
AcDbEntity
  8
外形線
100
AcDbLine
 10
1230.750805766343
 20
256.3790970704872
 30
0.0
 11
1236.265729653243
 21
246.7056875762759
 31
0.0
  0
LINE
  5
235
330
1F
100
AcDbEntity
  8
外形線
100
AcDbLine
 10
1215.188501856672
 20
203.1307859724012
 30
0.0
 11
1225.044773225596
 21
208.3118236506249
 31
0.0
  0
ARC
  5
236
330
1F
100
AcDbEntity
  8
外形線
100
AcDbCircle
 10
1059.342061785509
 20
277.5689405858367
 30
0.0
 40
172.7135402372679
100
AcDbArc
 50
352.8522300367945
 51
0.0031396658734613
  0
LINE
  5
23F
330
1F
100
AcDbEntity
  8
外形線
100
AcDbLine
 10
1105.990757039869
 20
70.57403343823458
 30
0.0
 11
1120.030757039869
 21
70.57403343823458
 31
0.0
  0
LINE
  5
240
330
1F
100
AcDbEntity
  8
外形線
100
AcDbLine
 10
1105.990757039869
 20
64.63403343823447
 30
0.0
 11
1120.030757039869
 21
64.63403343823447
 31
0.0
  0
LINE
  5
241
330
1F
100
AcDbEntity
  8
外形線
100
AcDbLine
 10
1105.990757039869
 20
56.53403343823459
 30
0.0
 11
1117.870757039868
 21
56.53403343823459
 31
0.0
  0
LINE
  5
242
330
1F
100
AcDbEntity
  8
外形線
100
AcDbLine
 10
1105.990757039869
 20
85.6940334382347
 30
0.0
 11
1120.030757039869
 21
85.6940334382347
 31
0.0
  0
LINE
  5
243
330
1F
100
AcDbEntity
  8
外形線
100
AcDbLine
 10
1105.990757039869
 20
91.6340334382345
 30
0.0
 11
1120.030757039869
 21
91.6340334382345
 31
0.0
  0
LINE
  5
244
330
1F
100
AcDbEntity
  8
外形線
100
AcDbLine
 10
1105.990757039869
 20
99.73403343823434
 30
0.0
 11
1117.870757039868
 21
99.73403343823434
 31
0.0
  0
LINE
  5
245
330
1F
100
AcDbEntity
  8
外形線
100
AcDbLine
 10
1105.990757039869
 20
56.53403343823459
 30
0.0
 11
1105.990757039869
 21
78.13403343823449
 31
0.0
  0
LINE
  5
246
330
1F
100
AcDbEntity
  8
外形線
100
AcDbLine
 10
1103.830757039868
 20
78.13403343823449
 30
0.0
 11
1103.830757039868
 21
56.53403343823459
 31
0.0
  0
LINE
  5
24D
330
1F
100
AcDbEntity
  8
外形線
100
AcDbLine
 10
1103.830757039868
 20
56.53403343823459
 30
0.0
 11
1105.990757039869
 21
56.53403343823459
 31
0.0
  0
LINE
  5
253
330
1F
100
AcDbEntity
  8
外形線
100
AcDbLine
 10
1105.990757039869
 20
99.73403343823434
 30
0.0
 11
1105.990757039869
 21
78.13403343823449
 31
0.0
  0
LINE
  5
254
330
1F
100
AcDbEntity
  8
外形線
100
AcDbLine
 10
1103.830757039868
 20
78.13403343823449
 30
0.0
 11
1103.830757039868
 21
99.73403343823434
 31
0.0
  0
LINE
  5
256
330
1F
100
AcDbEntity
  8
外形線
100
AcDbLine
 10
1103.830757039868
 20
99.73403343823434
 30
0.0
 11
1105.990757039869
 21
99.73403343823434
 31
0.0
  0
LINE
  5
257
330
1F
100
AcDbEntity
  8
外形線
100
AcDbLine
 10
1120.030757039869
 20
58.6940334382347
 30
0.0
 11
1120.030757039869
 21
78.13403343823449
 31
0.0
  0
ARC
  5
258
330
1F
100
AcDbEntity
  8
外形線
100
AcDbCircle
 10
1117.870757039868
 20
58.6940334382347
 30
0.0
 40
2.159999999999999
100
AcDbArc
 50
270.0
 51
0.0
  0
LINE
  5
259
330
1F
100
AcDbEntity
  8
外形線
100
AcDbLine
 10
1120.030757039869
 20
97.57403343823458
 30
0.0
 11
1120.030757039869
 21
78.13403343823449
 31
0.0
  0
ARC
  5
25A
330
1F
100
AcDbEntity
  8
外形線
100
AcDbCircle
 10
1117.870757039868
 20
97.57403343823458
 30
0.0
 40
2.159999999999999
100
AcDbArc
 50
0.0
 51
90.0
  0
LINE
  5
260
330
1F
100
AcDbEntity
  8
外形線
100
AcDbLine
 10
1022.209495327244
 20
97.03403343823476
 30
0.0
 11
1097.809495327243
 21
97.03403343823476
 31
0.0
  0
LINE
  5
261
330
1F
100
AcDbEntity
  8
外形線
100
AcDbLine
 10
1027.912723911554
 20
86.23403343823468
 30
0.0
 11
1090.249495327242
 21
86.23403343823468
 31
0.0
  0
LINE
  5
262
330
1F
100
AcDbEntity
  8
外形線
100
AcDbLine
 10
1060.009495327244
 20
66.79403343823475
 30
0.0
 11
1093.489495327242
 21
66.79403343823475
 31
0.0
  0
LINE
  5
263
102
{ACAD_REACTORS
330
4D5
102
}
330
1F
100
AcDbEntity
  8
外形線
100
AcDbLine
 10
1022.209495327244
 20
61.39403343823468
 30
0.0
 11
1097.809495327243
 21
61.39403343823468
 31
0.0
  0
LINE
  5
264
330
1F
100
AcDbEntity
  8
外形線
100
AcDbLine
 10
1060.009495327244
 20
66.79403343823475
 30
0.0
 11
1026.529495327245
 21
66.79403343823475
 31
0.0
  0
LINE
  5
265
330
1F
100
AcDbEntity
  8
外形線
100
AcDbLine
 10
1029.769495327245
 20
83.30413946685107
 30
0.0
 11
1029.769495327245
 21
70.03403343823487
 31
0.0
  0
ARC
  5
266
330
1F
100
AcDbEntity
  8
外形線
100
AcDbCircle
 10
1026.529495327245
 20
70.03403343823487
 30
0.0
 40
3.239999999999998
100
AcDbArc
 50
270.0
 51
0.0
  0
LINE
  5
267
330
1F
100
AcDbEntity
  8
外形線
100
AcDbLine
 10
1026.529495327245
 20
66.79403343823475
 30
0.0
 11
1025.449495327244
 21
66.79403343823475
 31
0.0
  0
LINE
  5
268
330
1F
100
AcDbEntity
  8
外形線
100
AcDbLine
 10
1022.209495327244
 20
63.55403343823477
 30
0.0
 11
1022.209495327244
 21
61.39403343823468
 31
0.0
  0
ARC
  5
269
330
1F
100
AcDbEntity
  8
外形線
100
AcDbCircle
 10
1025.449495327244
 20
63.55403343823477
 30
0.0
 40
3.239999999999998
100
AcDbArc
 50
90.0
 51
180.0
  0
ARC
  5
26A
330
1F
100
AcDbEntity
  8
外形線
100
AcDbCircle
 10
1029.136618368522
 20
93.16115647951338
 30
0.0
 40
6.955973467020441
100
AcDbArc
 50
174.7798256894239
 51
255.1848592220004
  0
LINE
  5
26B
330
1F
100
AcDbEntity
  8
外形線
100
AcDbLine
 10
1022.209495327244
 20
97.03403343823476
 30
0.0
 11
1022.209495327244
 21
93.79403343823474
 31
0.0
  0
ARC
  5
26C
330
1F
100
AcDbEntity
  8
外形線
100
AcDbCircle
 10
1026.529495327245
 20
83.30413946685107
 30
0.0
 40
3.239999999999998
100
AcDbArc
 50
0.0
 51
75.18485922200042
  0
LINE
  5
26D
330
1F
100
AcDbEntity
  8
外形線
100
AcDbLine
 10
1090.249495327242
 20
83.30413946685107
 30
0.0
 11
1090.249495327242
 21
70.03403343823487
 31
0.0
  0
ARC
  5
26E
330
1F
100
AcDbEntity
  8
外形線
100
AcDbCircle
 10
1093.489495327242
 20
70.03403343823487
 30
0.0
 40
3.239999999999998
100
AcDbArc
 50
180.0
 51
270.0
  0
LINE
  5
26F
330
1F
100
AcDbEntity
  8
外形線
100
AcDbLine
 10
1097.809495327243
 20
63.55403343823477
 30
0.0
 11
1097.809495327243
 21
61.39403343823468
 31
0.0
  0
LINE
  5
270
330
1F
100
AcDbEntity
  8
外形線
100
AcDbLine
 10
1097.809495327243
 20
62.47403343823487
 30
0.0
 11
1101.049495327243
 21
62.47403343823487
 31
0.0
  0
LINE
  5
271
330
1F
100
AcDbEntity
  8
外形線
100
AcDbLine
 10
1093.489495327242
 20
66.79403343823475
 30
0.0
 11
1094.569495327243
 21
66.79403343823475
 31
0.0
  0
ARC
  5
272
330
1F
100
AcDbEntity
  8
外形線
100
AcDbCircle
 10
1094.569495327243
 20
63.55403343823477
 30
0.0
 40
3.239999999999998
100
AcDbArc
 50
0.0
 51
90.0
  0
ARC
  5
273
330
1F
100
AcDbEntity
  8
外形線
100
AcDbCircle
 10
1090.882372285965
 20
93.16115647951338
 30
0.0
 40
6.955973467020441
100
AcDbArc
 50
264.7798256894174
 51
5.220174310576092
  0
ARC
  5
274
330
1F
100
AcDbEntity
  8
外形線
100
AcDbCircle
 10
1093.489495327242
 20
83.30413946685107
 30
0.0
 40
3.239999999999998
100
AcDbArc
 50
104.8151407779995
 51
180.0
  0
LINE
  5
275
330
1F
100
AcDbEntity
  8
外形線
100
AcDbLine
 10
1097.809495327243
 20
97.03403343823476
 30
0.0
 11
1097.809495327243
 21
93.79403343823616
 31
0.0
  0
LINE
  5
276
330
1F
100
AcDbEntity
  8
外形線
100
AcDbLine
 10
1097.809495327243
 20
93.79403343823616
 30
0.0
 11
1101.049495327243
 21
93.79403343823474
 31
0.0
  0
LINE
  5
27E
330
1F
100
AcDbEntity
  8
外形線
100
AcDbLine
 10
1250.677686761352
 20
180.8558933956012
 30
0.0
 11
1257.429143295212
 21
203.1349228011428
 31
0.0
  0
LINE
  5
27F
330
1F
100
AcDbEntity
  8
外形線
100
AcDbLine
 10
1232.823217464811
 20
207.5884516806238
 30
0.0
 11
1226.905270299804
 21
188.0599072475277
 31
0.0
  0
LINE
  5
280
330
1F
100
AcDbEntity
  8
外形線
100
AcDbLine
 10
1228.455645286426
 20
187.5900802571845
 30
0.0
 11
1250.677686761352
 21
180.8558933956012
 31
0.0
  0
LINE
  5
281
330
1F
100
AcDbEntity
  8
外形線
100
AcDbLine
 10
1240.341853517201
 20
183.9880733312213
 30
0.0
 11
1226.905270299804
 21
188.0599072475277
 31
0.0
  0
LINE
  5
282
330
1F
100
AcDbEntity
  8
外形線
100
AcDbLine
 10
1249.047693205285
 20
238.7838101005353
 30
0.0
 11
1257.395948582541
 21
203.0253840703522
 31
0.0
  0
LINE
  5
283
330
1F
100
AcDbEntity
  8
外形線
100
AcDbLine
 10
1228.101972976891
 20
206.7703575222568
 30
0.0
 11
1231.202722950136
 21
205.8307035415708
 31
0.0
  0
LINE
  5
284
330
1F
100
AcDbEntity
  8
外形線
100
AcDbLine
 10
1239.651513941822
 20
245.0167400094006
 30
0.0
 11
1242.752263915066
 21
244.0770860287146
 31
0.0
  0
LINE
  5
285
330
1F
100
AcDbEntity
  8
外形線
100
AcDbLine
 10
1227.969979852811
 20
206.469022170207
 30
0.0
 11
1234.013590057706
 21
226.412240169929
 31
0.0
  0
LINE
  5
286
330
1F
100
AcDbEntity
  8
外形線
100
AcDbLine
 10
1230.65525143942
 20
227.5087556134504
 30
0.0
 11
1224.655248577654
 21
207.5318632148774
 31
0.0
  0
LINE
  5
287
330
1F
100
AcDbEntity
  8
外形線
100
AcDbLine
 10
1234.013590057706
 20
226.412240169929
 30
0.0
 11
1228.086978236542
 21
206.7135227669894
 31
0.0
  0
LINE
  5
288
330
1F
100
AcDbEntity
  8
外形線
100
AcDbLine
 10
1224.660246824438
 20
207.5508081332999
 30
0.0
 11
1227.991851403871
 21
206.5411957710819
 31
0.0
  0
LINE
  5
289
330
1F
100
AcDbEntity
  8
外形線
100
AcDbLine
 10
1236.224782529717
 20
245.854025375711
 30
0.0
 11
1239.595683117777
 21
244.8325047167095
 31
0.0
  0
LINE
  5
28A
330
1F
100
AcDbEntity
  8
外形線
100
AcDbLine
 10
1234.013590057706
 20
226.412240169929
 30
0.0
 11
1239.651513941822
 21
245.0167400094006
 31
0.0
  0
LINE
  5
28B
330
1F
100
AcDbEntity
  8
外形線
100
AcDbLine
 10
1239.57939522697
 20
244.7787565519316
 30
0.0
 11
1234.013590057706
 21
226.412240169929
 31
0.0
  0
LINE
  5
28C
330
1F
100
AcDbEntity
  8
外形線
100
AcDbLine
 10
1230.65525143942
 20
227.5087556134504
 30
0.0
 11
1236.209684427592
 21
245.837745106898
 31
0.0
  0
LINE
  5
28D
330
1F
100
AcDbEntity
  8
外形線
100
AcDbLine
 10
1231.165468015523
 20
205.8419933095017
 30
0.0
 11
1237.11434003095
 21
225.472586189243
 31
0.0
  0
LINE
  5
28E
330
1F
100
AcDbEntity
  8
外形線
100
AcDbLine
 10
1231.789634140396
 20
207.901669674186
 30
0.0
 11
1232.823217464811
 21
207.5884516806238
 31
0.0
  0
LINE
  5
28F
330
1F
100
AcDbEntity
  8
外形線
100
AcDbLine
 10
1241.81260993438
 20
240.9763360554693
 30
0.0
 11
1249.047693205285
 21
238.7838101005353
 31
0.0
  0
LINE
  5
290
330
1F
100
AcDbEntity
  8
外形線
100
AcDbLine
 10
1242.752263915066
 20
244.0770860287146
 30
0.0
 11
1237.11434003095
 21
225.472586189243
 31
0.0
  0
ARC
  5
2B7
330
1F
100
AcDbEntity
  8
外形線
100
AcDbCircle
 10
1060.676928868978
 20
277.5689405858367
 30
0.0
 40
172.7135402372679
100
AcDbArc
 50
212.4620709265382
 51
255.7790093840372
  0
LINE
  5
2BE
102
{ACAD_REACTORS
330
A91
102
}
330
1F
100
AcDbEntity
  8
外形線
100
AcDbLine
 10
1101.771307202525
 20
97.03403343823476
 30
0.0
 11
1060.009495327244
 21
97.03403343823476
 31
0.0
  0
LINE
  5
2BF
102
{ACAD_REACTORS
330
A91
102
}
330
1F
100
AcDbEntity
  8
外形線
100
AcDbLine
 10
1060.009495327244
 20
110.5784048572453
 30
0.0
 11
1101.771307202525
 21
110.5784048572453
 31
0.0
  0
LINE
  5
2C0
102
{ACAD_REACTORS
330
A91
102
}
330
1F
100
AcDbEntity
  8
外形線
100
AcDbLine
 10
1060.009495327242
 20
110.5784048572453
 30
0.0
 11
1018.24768345196
 21
110.5784048572558
 31
0.0
  0
LINE
  5
2C1
102
{ACAD_REACTORS
330
A91
102
}
330
1F
100
AcDbEntity
  8
外形線
100
AcDbLine
 10
1018.247683451957
 20
97.03403343824547
 30
0.0
 11
1060.009495327239
 21
97.03403343823476
 31
0.0
  0
LINE
  5
2C4
102
{ACAD_REACTORS
330
A91
102
}
330
1F
100
AcDbEntity
  8
外形線
100
AcDbLine
 10
1018.24768345196
 20
110.5784048572558
 30
0.0
 11
1018.247683451957
 21
97.03403343824547
 31
0.0
  0
LINE
  5
2C5
330
1F
100
AcDbEntity
  8
外形線
100
AcDbLine
 10
1022.762473924959
 20
97.03403343824437
 30
0.0
 11
1022.762473924959
 21
97.03403343824437
 31
0.0
  0
LINE
  5
2C8
330
1F
100
AcDbEntity
  8
外形線
100
AcDbLine
 10
1097.256516729522
 20
97.03403343823476
 30
0.0
 11
1097.256516729522
 21
97.03403343823476
 31
0.0
  0
LINE
  5
2C9
102
{ACAD_REACTORS
330
A91
102
}
330
1F
100
AcDbEntity
  8
外形線
100
AcDbLine
 10
1101.771307202525
 20
110.5784048572453
 30
0.0
 11
1101.771307202525
 21
97.03403343823476
 31
0.0
  0
LINE
  5
2CA
330
1F
100
AcDbEntity
  8
外形線
100
AcDbLine
 10
1120.030757039869
 20
91.6340334382345
 30
0.0
 11
1174.829907879304
 21
92.02802405636328
 31
0.0
  0
LINE
  5
2CB
330
1F
100
AcDbEntity
  8
外形線
100
AcDbLine
 10
1203.224072884075
 20
113.0008196259984
 30
0.0
 11
1226.905270299804
 21
188.0599072475277
 31
0.0
  0
LINE
  5
2CD
330
1F
100
AcDbEntity
  8
外形線
100
AcDbLine
 10
1120.030757039869
 20
64.63403343823447
 30
0.0
 11
1169.878725140229
 21
64.63403343823447
 31
0.0
  0
LINE
  5
2CE
330
1F
100
AcDbEntity
  8
外形線
100
AcDbLine
 10
1227.066212812409
 20
106.4793851699706
 30
0.0
 11
1250.677662369241
 21
180.8559007874077
 31
0.0
  0
MTEXT
  5
363
330
1F
100
AcDbEntity
  8
文字
100
AcDbMText
 10
1216.772297477819
 20
-90.63662792973325
 30
0.0
 40
20.0
 41
74.42419100511639
 71
     1
 72
     5
  1
EW80
  7
symbols
 73
     1
 44
1.0
  0
DIMENSION
  5
4A6
102
{ACAD_XDICTIONARY
360
4B3
102
}
102
{ACAD_REACTORS
330
4BD
102
}
330
1F
100
AcDbEntity
  8
寸法線
100
AcDbDimension
  2
*D1
 10
1310.009495327243
 20
257.5790970704873
 30
0.0
 11
1310.009495327243
 21
271.5787509638665
 31
0.0
 70
   160
 71
     5
 42
27.9993077867581
  3
ISO-25
100
AcDbAlignedDimension
 13
1253.009495327243
 23
285.5784048572454
 33
0.0
 14
1230.750805766343
 24
257.5790970704873
 34
0.0
 50
90.0
100
AcDbRotatedDimension
1001
ACAD
1000
DSTYLE
1002
{
1070
    41
1040
9.0
1070
    42
1040
20.0
1070
   140
1040
18.0
1070
   147
1040
2.0
1070
   176
1070
   256
1070
   177
1070
   256
1070
   178
1070
   256
1002
}
  0
DIMENSION
  5
4BE
102
{ACAD_XDICTIONARY
360
4CB
102
}
102
{ACAD_REACTORS
330
4D5
102
}
330
1F
100
AcDbEntity
  8
寸法線
100
AcDbDimension
  2
*D2
 10
807.3544200695069
 20
61.39403343823475
 30
0.0
 11
807.3544200695069
 21
172.0033373203865
 31
0.0
 70
   160
  1
組立後Ｈ＝211
 71
     5
 42
224.1843714190107
  3
ISO-25
100
AcDbAlignedDimension
 13
867.0094953272437
 23
285.5784048572454
 33
0.0
 14
1022.209495327244
 24
61.39403343823468
 34
0.0
 50
90.0
100
AcDbRotatedDimension
1001
ACAD
1000
DSTYLE
1002
{
1070
    41
1040
9.0
1070
    42
1040
20.0
1070
   140
1040
18.0
1070
   147
1040
2.0
1070
   176
1070
   256
1070
   177
1070
   256
1070
   178
1070
   256
1002
}
  0
CIRCLE
  5
77D
330
1F
100
AcDbEntity
  8
外形線
100
AcDbCircle
 10
1060.009495327244
 20
560.9595402706731
 30
0.0
 40
177.5
  0
DIMENSION
  5
823
102
{ACAD_XDICTIONARY
360
82F
102
}
102
{ACAD_REACTORS
330
838
102
}
330
1F
100
AcDbEntity
  8
寸法線
100
AcDbDimension
  2
*D3
 10
922.1236729958672
 20
423.0737179392964
 30
0.0
 11
1221.469222248164
 21
737.9756163776975
 31
0.0
 70
    35
 71
     5
 42
390.0
  3
ISO-25
100
AcDbDiametricDimension
 15
1197.89531765862
 25
698.8453626020501
 35
0.0
 40
0.0
1001
ACAD
1000
DSTYLE
1002
{
1070
    41
1040
9.0
1070
    42
1040
5.0
1070
   140
1040
18.0
1070
   147
1040
2.0
1070
   176
1070
   256
1070
   177
1070
   256
1070
   178
1070
   256
1070
   288
1070
     1
1002
}
  0
DIMENSION
  5
962
102
{ACAD_XDICTIONARY
360
971
102
}
102
{ACAD_REACTORS
330
97D
102
}
330
1F
100
AcDbEntity
  8
寸法線
100
AcDbDimension
  2
*D4
 10
840.0094953272438
 20
277.5784048572453
 30
0.0
 11
829.0094953272436
 21
253.9784048572454
 31
0.0
 70
    32
 71
     5
 42
8.000000000000056
  3
ISO-25
100
AcDbAlignedDimension
 13
867.0094953272437
 23
285.5784048572454
 33
0.0
 14
865.0094953272439
 24
277.5784048572453
 34
0.0
 50
90.0
100
AcDbRotatedDimension
1001
ACAD
1000
DSTYLE
1002
{
1070
    41
1040
9.0
1070
    42
1040
20.0
1070
   140
1040
18.0
1070
   147
1040
2.0
1070
   176
1070
   256
1070
   177
1070
   256
1070
   178
1070
   256
1002
}
  0
DIMENSION
  5
9D1
330
1F
100
AcDbEntity
  8
寸法線
100
AcDbDimension
  2
*D5
 10
1187.288715940822
 20
433.6803196570943
 30
0.0
 11
994.0933639205754
 21
626.8756716773414
 31
0.0
 70
   163
  1
穴あけ<>
 71
     5
 42
360.0000000000004
  3
ISO-25
100
AcDbDiametricDimension
 15
932.7302747136648
 25
688.2387608842519
 35
0.0
 40
0.0
1001
ACAD
1000
DSTYLE
1002
{
1070
    41
1040
9.0
1070
    42
1040
20.0
1070
   140
1040
18.0
1070
   147
1040
2.0
1070
   176
1070
   256
1070
   177
1070
   256
1070
   178
1070
   256
1070
   288
1070
     1
1002
}
  0
LINE
  5
A6F
330
1F
100
AcDbEntity
  8
ハッチング
100
AcDbLine
 10
1102.116257039869
 20
61.3940334382346
 30
0.0
 11
1102.116257039869
 21
94.8740334382345
 31
0.0
  0
ARC
  5
A80
330
1F
100
AcDbEntity
  8
外形線
100
AcDbCircle
 10
1174.614221816989
 20
122.0272487050525
 30
0.0
 40
30.0
100
AcDbArc
 50
270.4119335845001
 51
342.4894761430274
  0
ARC
  5
A81
330
1F
100
AcDbEntity
  8
外形線
100
AcDbCircle
 10
1169.878725140229
 20
124.6340334382344
 30
0.0
 40
60.0
100
AcDbArc
 50
270.0
 51
342.3875220232018
  0
HATCH
  5
A91
330
1F
100
AcDbEntity
  8
ハッチング
100
AcDbHatch
 10
0.0
 20
0.0
 30
0.0
210
0.0
220
0.0
230
1.0
  2
SOLID
 70
     1
 71
     1
 91
        1
 92
        7
 72
     0
 73
     1
 93
        6
 10
1101.771307202525
 20
97.03403343823476
 10
1101.771307202525
 20
110.5784048572453
 10
1060.009495327244
 20
110.5784048572453
 10
1018.24768345196
 20
110.5784048572558
 10
1018.247683451957
 20
97.03403343824547
 10
1060.009495327239
 20
97.03403343823476
 97
        6
330
2BF
330
2C0
330
2C4
330
2C1
330
2BE
330
2C9
 75
     0
 76
     1
 47
1.497981932609865
 98
        1
 10
1075.777146948567
 20
103.0185327145728
450
        0
451
        0
460
0.0
461
0.0
452
        0
462
0.0
453
        0
470

  0
HATCH
  5
A9C
330
1F
100
AcDbEntity
  8
ハッチング
100
AcDbHatch
 10
0.0
 20
0.0
 30
0.0
210
0.0
220
0.0
230
1.0
  2
SOLID
 70
     1
 71
     0
 91
        1
 92
        7
 72
     0
 73
     1
 93
        8
 10
1239.595683117777
 20
244.8325047167096
 10
1236.215472948433
 20
245.8568465593563
 10
1230.65525143942
 20
227.5087556134526
 10
1225.044773225596
 20
208.3118236506249
 10
1224.860398336524
 20
208.2149053321818
 10
1224.660880916603
 20
207.550615977456
 10
1227.991851403871
 20
206.5411957710819
 10
1234.013590057706
 20
226.412240169929
 97
        0
 75
     0
 76
     1
 47
0.1838901949425937
 98
        1
 10
1235.269140696685
 20
234.0650916629508
450
        0
451
        0
460
0.0
461
0.0
452
        0
462
0.0
453
        0
470

  0
MTEXT
  5
AAC
330
1F
100
AcDbEntity
  8
文字
100
AcDbMText
 10
1009.003837663857
 20
-3.36731489685826
 30
0.0
 40
20.0
 41
294.1222339952742
 71
     1
 72
     5
  1
カウンター開口寸法\U+03C6360
  7
symbols
 73
     1
 44
1.0
  0
LINE
  5
ADB
330
1F
100
AcDbEntity
  8
中心線
 48
2.0
100
AcDbLine
 10
1014.769332169413
 20
560.9595402706731
 30
0.0
 11
1105.249658485075
 21
560.9595402706731
 31
0.0
  0
LINE
  5
ADC
330
1F
100
AcDbEntity
  8
中心線
 48
2.0
100
AcDbLine
 10
1060.009495327244
 20
606.1997034285041
 30
0.0
 11
1060.009495327244
 21
515.7193771128425
 31
0.0
  0
MTEXT
  5
C2A
330
1F
100
AcDbEntity
  8
文字
100
AcDbMText
 10
666.2028350013989
 20
-53.94692765194861
 30
0.0
 40
12.75749999999999
 41
124.0765732118987
 71
     1
 72
     5
  1
2014/3/31更新
  7
symbols
 73
     1
 44
1.0
1001
ACAD
1000
ACAD_MTEXT_DEFINED_HEIGHT_BEGIN
1070
    46
1040
34.02251131889763
1000
ACAD_MTEXT_DEFINED_HEIGHT_END
  0
HATCH
  5
DB8
330
1F
100
AcDbEntity
  8
ハッチング
100
AcDbHatch
 10
0.0
 20
0.0
 30
0.0
210
0.0
220
0.0
230
1.0
  2
SOLID
 70
     1
 71
     0
 91
        1
 92
        7
 72
     1
 73
     1
 93
        7
 10
655.1590111660011
 20
749.4561491088617
 42
0.0
 10
654.1943236660013
 20
749.5325380062841
 42
0.0
 10
654.1943236660008
 20
747.070874760331
 42
-1.0
 10
653.0366986660006
 20
747.070874760331
 42
0.0
 10
653.0366986660006
 20
749.6242046831911
 42
0.3246295540602642
 10
648.3131791366095
 20
743.1156560103312
 42
0.0
 10
655.1590111660011
 20
743.1156560103312
 42
0.0
 97
        0
 75
     0
 76
     1
 47
0.1296741446167109
 98
        1
 10
651.4408925978727
 20
745.3640019466163
450
        0
451
        0
460
0.0
461
0.0
452
        0
462
0.0
453
        0
470

  0
ARC
  5
DB9
330
1F
100
AcDbEntity
  8
ハッチング
100
AcDbCircle
 10
655.1590111660011
 20
743.1156560103312
 30
0.0
 40
6.845832029391515
100
AcDbArc
 50
108.0601510423896
 51
180.0
  0
LINE
  5
DBA
102
{ACAD_REACTORS
330
DBC
102
}
330
1F
100
AcDbEntity
  8
外形線
100
AcDbLine
 10
606.9847239261894
 20
743.1156560103312
 30
0.0
 11
668.3430736660016
 21
743.1156560103312
 31
0.0
  0
LINE
  5
DBB
102
{ACAD_REACTORS
330
DBC
102
}
330
1F
100
AcDbEntity
  8
外形線
100
AcDbLine
 10
666.7352611660012
 20
714.1750310103311
 30
0.0
 11
608.883690136206
 21
714.1750310103311
 31
0.0
  0
HATCH
  5
DBC
330
1F
100
AcDbEntity
  8
ハッチング
100
AcDbHatch
 10
0.0
 20
0.0
 30
0.0
210
0.0
220
0.0
230
1.0
  2
AR-RROOF
 70
     0
 71
     1
 91
        1
 92
        5
 93
        4
 72
     1
 10
666.7352611660012
 20
714.1750310103311
 11
666.7352611660012
 21
743.1156560103312
 72
     1
 10
666.7352611660012
 20
743.1156560103312
 11
606.9847239261893
 21
743.1156560103312
 72
     4
 94
        3
 73
     0
 74
     0
 95
       10
 96
        6
 40
0.0
 40
0.0
 40
0.0
 40
0.0
 40
12.23089669412087
 40
23.00254707453025
 40
32.66384516645385
 40
32.66384516645385
 40
32.66384516645385
 40
32.66384516645385
 10
606.9847239261894
 20
743.115656010331
 10
609.5027677326996
 20
739.0284015439857
 10
614.2384320624312
 20
731.341535599571
 10
600.8885211475918
 20
723.2367194711064
 10
606.3169632793175
 20
717.0841476499108
 10
608.883690136206
 20
714.1750310103311
 72
     1
 10
608.8836901362059
 20
714.1750310103311
 11
666.7352611660012
 21
714.1750310103311
 97
        4
330
DBA
330
DC2
330
DBB
330
DE2
 75
     0
 76
     1
 52
15.0
 41
0.2296875
 77
     0
 78
     3
 53
14.99999999999999
 43
5.347931900794264
 44
448.1093189718857
 45
10.88763112473762
 46
8.957197908635102
 79
     4
 49
87.5109375
 49
-11.668125
 49
29.1703125
 49
-5.834062499999999
 53
14.99999999999999
 43
12.0878599405778
 44
452.9352102178266
 45
-7.64352706640807
 46
5.984944797124549
 79
     4
 49
17.5021875
 49
-1.925240624999999
 49
35.004375
 49
-4.375546875
 53
14.99999999999999
 43
6.882096208740676
 44
453.6542831093393
 45
28.29173498769641
 46
11.62745772308197
 79
     4
 49
46.67249999999999
 49
-8.167687500000001
 49
23.33625
 49
-5.834062499999999
 47
0.6197542291202085
 98
        1
 10
635.6614505510597
 20
728.1168337882871
  0
TEXT
  5
DBD
330
1F
100
AcDbEntity
  8
文字
100
AcDbText
 10
660.9838103479896
 20
939.8241171562117
 30
0.0
 40
11.76
  1
PICOLO 手洗器固定方法
  7
symbols
100
AcDbText
  0
LWPOLYLINE
  5
DBE
330
1F
100
AcDbEntity
  8
外形線
100
AcDbPolyline
 90
        4
 70
     1
 43
0.0
 10
833.573212647072
 20
935.7920046660197
 10
638.2672172652647
 20
935.7920046660197
 10
638.2672172652647
 20
956.1469317718865
 10
833.573212647072
 20
956.1469317718865
  0
MTEXT
  5
DBF
330
1F
100
AcDbEntity
  8
文字
100
AcDbMText
 10
638.3764148543463
 20
910.4502387637273
 30
0.0
 40
4.899999999999999
 41
254.462635
 71
     1
 72
     5
  1
{\fMS UI Gothic|b0|i0|c128|p50;下図のように、手洗器リム周り裏面に附属の両面\Pテープ付きスポンジパッキン4本貼り付けます。\Pその後、スポンジパッキンの保護テープをはがし、カウンターに取付ます。\P防水の為、必ず手洗器リム周りにコーキングを\P施してください。}
  7
symbols
 73
     1
 44
1.0
  0
LEADER
  5
DC0
330
1F
100
AcDbEntity
  8
文字
100
AcDbLeader
  3
ISO-25
 73
     0
 75
     1
 40
4.501874999999998
 41
24.61024999999999
 76
     3
 10
637.7612110340505
 20
744.3352642950515
 30
0.0
 10
638.1098229812817
 20
753.0096131621008
 30
0.0
 10
631.1098229812817
 20
753.0096131621008
 30
0.0
340
DC1
1001
ACAD
1000
DSTYLE
1002
{
1070
    77
1070
     0
1070
    41
1040
7.0
1070
    42
1040
20.0
1070
   140
1040
15.0
1070
   147
1040
2.799999999999999
1070
   176
1070
   256
1070
   177
1070
   256
1070
   178
1070
   256
1002
}
  0
MTEXT
  5
DC1
102
{ACAD_REACTORS
330
DC0
102
}
330
1F
100
AcDbEntity
  8
文字
100
AcDbMText
 10
628.3098229812817
 20
753.0096131621008
 30
0.0
 40
4.501874999999998
 41
0.0
 71
     6
 72
     1
  1
カウンター
  7
symbols
 73
     1
 44
1.0
  0
SPLINE
  5
DC2
102
{ACAD_REACTORS
330
DBC
102
}
330
1F
100
AcDbEntity
  8
外形線
100
AcDbSpline
210
0.0
220
0.0
230
1.0
 70
  1064
 71
     3
 72
    10
 73
     6
 74
     4
 42
0.000000001
 43
0.0000000001
 44
0.0000000001
 40
0.0
 40
0.0
 40
0.0
 40
0.0
 40
12.23089669412087
 40
23.00254707453025
 40
32.66384516645385
 40
32.66384516645385
 40
32.66384516645385
 40
32.66384516645385
 10
606.9847239261894
 20
743.115656010331
 30
0.0
 10
609.5027677326996
 20
739.0284015439857
 30
0.0
 10
614.2384320624312
 20
731.341535599571
 30
0.0
 10
600.8885211475918
 20
723.2367194711064
 30
0.0
 10
606.3169632793175
 20
717.0841476499108
 30
0.0
 10
608.883690136206
 20
714.1750310103311
 30
0.0
 11
606.9847239261894
 21
743.115656010331
 31
0.0
 11
610.5419829106881
 21
731.4134877300737
 31
0.0
 11
604.2641620568556
 21
722.6603501643229
 31
0.0
 11
608.883690136206
 21
714.1750310103311
 31
0.0
  0
MTEXT
  5
DC3
102
{ACAD_REACTORS
330
DC4
102
}
330
1F
100
AcDbEntity
  8
文字
100
AcDbMText
 10
634.9624561924533
 20
762.3101482990607
 30
0.0
 40
4.501874999999998
 41
0.0
 71
     6
 72
     1
  1
コーキング
  7
symbols
 73
     1
 44
1.0
  0
LEADER
  5
DC4
330
1F
100
AcDbEntity
  8
文字
100
AcDbLeader
  3
ISO-25
 73
     0
 75
     1
 40
4.501874999999998
 41
25.21049999999999
 76
     3
 10
647.7356295718646
 20
751.3127506660914
 30
0.0
 10
644.7624561924533
 20
762.3101482990607
 30
0.0
 10
637.7624561924533
 20
762.3101482990607
 30
0.0
340
DC3
1001
ACAD
1000
DSTYLE
1002
{
1070
    77
1070
     0
1070
    41
1040
7.0
1070
    42
1040
20.0
1070
   140
1040
15.0
1070
   147
1040
2.799999999999999
1070
   176
1070
   256
1070
   177
1070
   256
1070
   178
1070
   256
1002
}
  0
ARC
  5
DC5
330
1F
100
AcDbEntity
  8
外形線
100
AcDbCircle
 10
797.720509280628
 20
834.0489982094462
 30
0.0
 40
43.25322143792507
100
AcDbArc
 50
284.2016777085699
 51
346.7197868738804
  0
HATCH
  5
DC6
330
1F
100
AcDbEntity
  8
ハッチング
100
AcDbHatch
 10
0.0
 20
0.0
 30
0.0
210
0.0
220
0.0
230
1.0
  2
SOLID
 70
     1
 71
     0
 91
        6
 92
        7
 72
     1
 73
     1
 93
        5
 10
743.6980414368782
 20
834.885487023366
 42
0.0
 10
743.054916436878
 20
834.885487023366
 42
0.0
 10
743.054916436878
 20
836.0378009062248
 42
0.3357268323395484
 10
741.3312073725265
 20
833.7600182733664
 42
0.0
 10
743.6980414368782
 20
833.7600182733664
 42
0.0
 97
        0
 92
        7
 72
     1
 73
     1
 93
        4
 10
754.8227912895404
 20
836.0378009062248
 42
0.0
 10
743.054916436878
 20
836.0378009062248
 42
0.0
 10
743.054916436878
 20
834.885487023366
 42
0.0
 10
755.4008369083267
 20
834.885487023366
 42
0.0170776869154878
 97
        0
 92
        7
 72
     1
 73
     1
 93
        4
 10
755.4008369083267
 20
834.885487023366
 42
0.0
 10
743.6980414368782
 20
834.885487023366
 42
0.0
 10
743.6980414368782
 20
833.7600182733664
 42
0.0
 10
755.8746317840896
 20
833.7600182733664
 42
0.0161758666453041
 97
        0
 92
        7
 72
     1
 73
     1
 93
        4
 10
852.3861021243783
 20
836.0378009062248
 42
0.0
 10
754.8227912895404
 20
836.0378009062248
 42
-0.0170776869154878
 10
755.4008369083267
 20
834.885487023366
 42
0.0
 10
852.3861021243783
 20
834.8854870233665
 42
0.0
 97
        0
 92
        7
 72
     1
 73
     1
 93
        4
 10
851.7429771243778
 20
834.8854870233665
 42
0.0
 10
755.4008369083267
 20
834.885487023366
 42
-0.0161758666453041
 10
755.8746317840896
 20
833.7600182733664
 42
0.0
 10
851.7429771243778
 20
833.7600182733664
 42
0.0
 97
        0
 92
        7
 72
     1
 73
     1
 93
        5
 10
852.3861021243783
 20
836.0378009062248
 42
0.0
 10
852.3861021243783
 20
834.8854870233665
 42
0.0
 10
851.7429771243783
 20
834.8854870233665
 42
0.0
 10
851.7429771243783
 20
833.7600182733664
 42
0.0
 10
854.1098111887299
 20
833.7600182733664
 42
0.3357268323395656
 97
        0
 75
     0
 76
     1
 47
0.4019153740530569
 98
        6
 10
742.4612910590817
 20
834.4660702766461
 10
746.5981135683246
 20
835.370756797927
 10
748.2786974904302
 20
834.595311608977
 10
763.7917827891883
 20
835.2415161668551
 10
765.7309176735735
 20
834.3368296455739
 10
852.9920194783853
 20
834.4660702766461
450
        0
451
        0
460
0.0
461
0.0
452
        0
462
0.0
453
        0
470

  0
LINE
  5
DC7
330
1F
100
AcDbEntity
  8
ハッチング
100
AcDbLine
 10
743.054916436878
 20
836.0378009062248
 30
0.0
 11
852.3861021243783
 21
836.0378009062248
 31
0.0
  0
LINE
  5
DC8
330
1F
100
AcDbEntity
  8
外形線
100
AcDbLine
 10
852.3861021243783
 20
837.4579870233665
 30
0.0
 11
743.054916436878
 21
837.4579870233665
 31
0.0
  0
LINE
  5
DC9
330
1F
100
AcDbEntity
  8
外形線
100
AcDbLine
 10
743.054916436878
 20
834.885487023366
 30
0.0
 11
852.3861021243783
 21
834.8854870233665
 31
0.0
  0
ARC
  5
DCA
102
{ACAD_REACTORS
330
DD0
102
}
330
1F
100
AcDbEntity
  8
かくれ線
 48
2.0
100
AcDbCircle
 10
797.720509280628
 20
718.7748946045132
 30
0.0
 40
50.08335937499999
100
AcDbArc
 50
239.9999999999995
 51
357.1494793257333
  0
ARC
  5
DCB
102
{ACAD_REACTORS
330
DD0
102
}
330
1F
100
AcDbEntity
  8
かくれ線
 48
2.0
100
AcDbCircle
 10
797.720509280628
 20
718.7748946045132
 30
0.0
 40
45.58148437499999
100
AcDbArc
 50
239.9999999999995
 51
357.1494793257333
  0
CIRCLE
  5
DCC
330
1F
100
AcDbEntity
  8
外形線
100
AcDbCircle
 10
797.720509280628
 20
718.7748946045133
 30
0.0
 40
50.64609374999999
  0
ARC
  5
DCD
102
{ACAD_REACTORS
330
DD0
102
}
330
1F
100
AcDbEntity
  8
かくれ線
 48
2.0
100
AcDbCircle
 10
797.720509280628
 20
718.7748946045133
 30
0.0
 40
45.58148437499999
100
AcDbArc
 50
0.0
 51
117.1494793257349
  0
ARC
  5
DCE
102
{ACAD_REACTORS
330
DD0
102
}
330
1F
100
AcDbEntity
  8
かくれ線
 48
2.0
100
AcDbCircle
 10
797.720509280628
 20
718.7748946045133
 30
0.0
 40
50.08335937499999
100
AcDbArc
 50
0.0
 51
117.1494793257349
  0
CIRCLE
  5
DCF
330
1F
100
AcDbEntity
  8
外形線
100
AcDbCircle
 10
797.720509280628
 20
718.7748946045133
 30
0.0
 40
45.01875
  0
HATCH
  5
DD0
330
1F
100
AcDbEntity
  8
ハッチング
100
AcDbHatch
 10
0.0
 20
0.0
 30
0.0
210
0.0
220
0.0
230
1.0
  2
GRAVEL
 70
     0
 71
     1
 91
        3
 92
        7
 72
     1
 73
     1
 93
        4
 10
843.3019936556279
 20
718.7748946045132
 42
0.0
 10
847.803868655628
 20
718.7748946045132
 42
0.5608840061808717
 10
774.8667960367725
 20
763.3400230936473
 42
0.0
 10
776.9210623957706
 20
759.334168847433
 42
-0.5608840061808726
 97
        4
330
DF8
330
DCD
330
E02
330
DCE
 92
        7
 72
     1
 73
     1
 93
        4
 10
847.7418992970633
 20
716.2842265999306
 42
0.0
 10
843.245594576485
 20
716.5081068700053
 42
-0.5608840061808749
 10
774.929767093128
 20
679.3001711935596
 42
0.0
 10
772.678829593128
 20
675.4014330788975
 42
0.5608840061808751
 97
        4
330
E03
330
DCB
330
DE9
330
DCA
 92
        7
 72
     1
 73
     1
 93
        4
 10
770.5528325080488
 20
676.7004341199629
 42
0.0
 10
772.994870869629
 20
680.4824080961022
 42
-0.5608840061808711
 10
774.9297670931282
 20
758.2496180154671
 42
0.0
 10
772.6788295931283
 20
762.1483561301292
 42
0.560884006180872
 97
        4
330
DF7
330
DD6
330
DE8
330
DD7
 75
     0
 76
     1
 52
0.0
 41
0.2296875
 77
     0
 78
    42
 53
228.0128
 43
9.548456900794008
 44
453.9433814718857
 45
-46.67253965760489
 46
-52.50662701809919
 79
     2
 49
0.7848904218749999
 49
-77.7044296875
 53
184.9697
 43
9.02339127579421
 44
453.3599752218858
 45
70.00886325013016
 46
5.834021329405567
 79
     2
 49
1.346898984374999
 49
-133.3427812499999
 53
132.5104
 43
7.681556900794021
 44
453.2432939718858
 45
58.34058254991811
 46
-64.17475018736999
 79
     2
 49
0.9497164687499997
 49
-94.0218890625
 53
267.2737
 43
5.406272525794292
 44
451.7847783468858
 45
5.834037167370958
 46
116.681212453826
 79
     2
 49
1.226542734374999
 49
-121.4275124999999
 53
292.8337
 43
5.347931900794264
 44
450.5596252218857
 45
-29.17039531498094
 46
70.00878980496114
 79
     2
 49
1.202721843749999
 49
-119.069540625
 53
357.2737
 43
5.814656900794034
 44
449.4511533468858
 45
-116.681212453826
 46
5.834037167370964
 79
     2
 49
1.226542734374999
 49
-121.4275124999999
 53
37.6942
 43
7.039810025794395
 44
449.3928127218858
 45
-75.84286041566047
 46
-58.34057299182466
 79
     2
 49
1.622039343749999
 49
-160.5816515624999
 53
72.2553
 43
8.323303775794101
 44
450.3846033468858
 45
40.83851918943246
 46
128.3494122232398
 79
     2
 49
1.531372499999999
 49
-151.6059234375
 53
121.4296
 43
8.790028775794098
 44
451.8431189718858
 45
-46.6725120247481
 46
75.84272328931226
 79
     2
 49
1.230695484374998
 49
-121.8388828124999
 53
175.2364
 43
8.148281900794017
 44
452.8932502218858
 45
64.17463709060945
 46
-5.834007748750154
 79
     2
 49
1.405028296874996
 49
-68.84630156249979
 53
222.3974
 43
6.748106900794027
 44
453.0099314718857
 45
-70.00875210678495
 46
-64.17460401005678
 79
     2
 49
1.817007281249999
 49
-179.8839
 53
138.8141
 43
11.18199440079433
 44
451.7264377218857
 45
-40.83841148610993
 46
35.0043211546442
 79
     2
 49
0.620167734375
 49
-61.39684687499999
 53
171.4692
 43
10.71526940079411
 44
452.1348220968857
 45
75.84269672737399
 46
-11.66815440010496
 79
     2
 49
1.179863343749996
 49
-116.8066593749997
 53
225.0
 43
9.548456900794008
 44
452.3098439718857
 45
-0.0000000000000008
 46
-5.834058523420765
 79
     2
 49
0.825058171875
 49
-7.425544218749998
 53
203.1986
 43
9.140072525794039
 44
453.0099314718857
 45
29.17041086502894
 46
11.6681761612972
 79
     2
 49
0.444309796875
 49
-43.98653437499999
 53
291.8014
 43
8.73168815079407
 44
452.8349095968858
 45
-5.834066592788949
 46
17.5021987747435
 79
     2
 49
0.62834690625
 49
-30.78915
 53
30.9638
 43
8.965050650794182
 44
452.2515033468858
 45
17.50216902120014
 46
11.66813409254845
 79
     2
 49
1.020547499999997
 49
-32.9975953124999
 53
161.5651
 43
9.840160025794148
 44
452.7765689718858
 45
11.66813032457193
 46
-5.834053823474472
 79
     2
 49
0.737956078125
 49
-17.7109734375
 53
16.38950000000001
 43
5.347931900794264
 44
452.8349095968858
 45
58.34065718833585
 46
17.50215109445729
 79
     2
 49
1.033795875
 49
-102.34599375
 53
70.3462
 43
6.339722525794286
 44
453.1266127218858
 45
-23.33618497242885
 46
-64.1745967471268
 79
     2
 49
0.8672977031249999
 49
-85.86224062499997
 53
293.1986
 43
9.840160025794148
 44
453.9433814718857
 45
-11.6681761612972
 46
29.17041086502894
 79
     2
 49
0.8886149999999997
 49
-43.54231874999999
 53
343.6105
 43
10.19020377579409
 44
453.1266127218858
 45
-58.34065718833585
 46
17.50215109445731
 79
     2
 49
1.033795874999997
 49
-102.3459937499998
 53
339.4440000000001
 43
5.347931900794264
 44
449.2177908468859
 45
-29.17034870852529
 46
11.66811084217766
 79
     2
 49
0.9969241406249997
 49
-48.84924843749999
 53
294.7751
 43
6.281381900794031
 44
448.8677470968858
 45
-29.17024452083039
 46
64.17465770070361
 79
     2
 49
0.8353091249999982
 49
-82.6957687499998
 53
66.8014
 43
9.898500650794176
 44
448.1093189718857
 45
11.66817616129721
 46
29.17041086502894
 79
     2
 49
0.8886149999999997
 49
-43.54231874999999
 53
17.354
 43
10.24854440079389
 44
448.9260877218858
 45
-75.84281659270956
 46
-23.33621480178168
 79
     2
 49
0.9779703281249997
 49
-96.81879374999997
 53
69.444
 43
7.039810025794395
 44
448.1093189718857
 45
-11.66811084217767
 46
-29.17034870852528
 79
     2
 49
0.4984632187499999
 49
-49.34789999999999
 53
101.3098999999999
 43
9.548456900794008
 44
448.1093189718857
 45
-5.834033703819377
 46
23.3361752617607
 79
     2
 49
0.2974797656249993
 49
-29.45053124999995
 53
165.9638
 43
9.490116275794207
 44
448.4010220968857
 45
17.50219979907007
 46
-5.834052403221488
 79
     2
 49
1.202721843749999
 49
-22.85172421875
 53
186.009
 43
8.323303775794101
 44
448.6927252218858
 45
58.34053896923293
 46
5.834048876195861
 79
     2
 49
1.114597640625
 49
-110.345090625
 53
303.6901
 43
8.965050650794182
 44
451.7264377218857
 45
-5.834064501283799
 46
11.66811374354813
 79
     2
 49
0.8414004375000001
 49
-20.1936196875
 53
353.1572
 43
9.431775650794179
 44
451.0263502218858
 45
99.17910351447785
 46
-11.66817725770721
 79
     2
 49
1.468982484375
 49
-145.4289375
 53
60.94540000000001
 43
10.89029127579419
 44
450.8513283468857
 45
-23.33619571526369
 46
-40.83834013738463
 79
     2
 49
0.6006511874999993
 49
-59.46471562499994
 53
90.0
 43
11.18199440079433
 44
451.3763939718857
 45
-5.834062499999999
 46
5.834062499999999
 79
     2
 49
0.3500437499999999
 49
-5.484018749999998
 53
120.2563999999999
 43
8.206622525794045
 44
448.8677470968858
 45
23.33620054101419
 46
-40.8384169027219
 79
     2
 49
0.8104913906249999
 49
-80.23880156249999
 53
48.01280000000001
 43
7.798238150794304
 44
449.5678345968858
 45
46.67253965760488
 46
52.50662701809919
 79
     2
 49
1.569783140625
 49
-76.91958750000001
 53
0.0
 43
8.848369400794126
 44
450.7346470968858
 45
5.834062499999999
 46
5.834062499999999
 79
     2
 49
1.516856249999999
 49
-4.317206249999999
 53
325.3048
 43
10.36522565079394
 44
450.7346470968858
 45
-58.34052391672175
 46
40.83844138283217
 79
     2
 49
0.9224479687499997
 49
-91.32214218749998
 53
254.0546
 43
11.12365377579431
 44
450.2095814718858
 45
-5.834077383064323
 46
-23.33630559173333
 79
     2
 49
0.8494509843750002
 49
-41.62327968750001
 53
207.6459999999999
 43
10.89029127579419
 44
449.3928127218858
 45
-110.847148565724
 46
-58.34066169194279
 79
     2
 49
1.383051796874999
 49
-136.9224609374999
 53
175.4261
 43
9.665138150794064
 44
448.7510658468858
 45
-75.84282996715444
 46
5.8340342742072
 79
     2
 49
1.463175984374997
 49
-144.8542593749996
 53
175.4261
 43
9.665138150794064
 44
448.7510658468858
 45
-75.84282996715444
 46
5.8340342742072
 79
     2
 49
1.463175984374997
 49
-144.8542593749996
 47
0.3128992937364618
 98
        3
 10
843.751171037209
 20
730.5432831176497
 10
845.7640457177726
 20
711.4261148389338
 10
760.9357281479083
 20
750.3791432643684
  0
HATCH
  5
DD1
330
1F
100
AcDbEntity
  8
ハッチング
100
AcDbHatch
 10
0.0
 20
0.0
 30
0.0
210
0.0
220
0.0
230
1.0
  2
AR-RROOF
 70
     0
 71
     0
 91
        7
 92
        7
 72
     1
 73
     1
 93
        5
 10
747.8783217806281
 20
833.7600182733666
 42
0.0
 10
720.6214248983023
 20
833.7600182733664
 42
0.0917834631136847
 10
719.3703573528982
 20
827.0021108302753
 42
0.0384288917851686
 10
719.5927253847294
 20
824.1131432733666
 42
0.0
 10
747.8783217806281
 20
824.1131432733665
 42
0.0
 97
        0
 92
        7
 72
     1
 73
     1
 93
        4
 10
754.4682532082024
 20
833.7600182733664
 42
0.0
 10
747.8783217806281
 20
833.7600182733664
 42
0.0
 10
747.8783217806281
 20
824.1131432733665
 42
0.0
 10
755.6239541787272
 20
824.1131432733665
 42
-0.0563350512945944
 97
        0
 92
        7
 72
     1
 73
     1
 93
        5
 10
755.8746317840896
 20
833.7600182733664
 42
0.0
 10
754.4682532082024
 20
833.7600182733664
 42
0.0563350512945943
 10
755.6239541787272
 20
824.1131432733666
 42
0.0
 10
756.9033312976626
 20
824.1131432733666
 42
0.0384288917851686
 10
757.1256993294932
 20
827.0021108302753
 42
0.0917834631136847
 97
        0
 92
        7
 72
     1
 73
     1
 93
        5
 10
840.9727653530545
 20
833.7600182733664
 42
0.0
 10
755.8746317840896
 20
833.7600182733664
 42
-0.0917834631136847
 10
757.1256993294932
 20
827.0021108302753
 42
-0.0384288917851686
 10
756.9033312976626
 20
824.1131432733666
 42
0.0
 10
839.8170643825292
 20
824.1131432733666
 42
0.0563350512945938
 97
        0
 92
        7
 72
     1
 73
     1
 93
        4
 10
847.5626967806283
 20
833.7600182733666
 42
0.0
 10
840.9727653530545
 20
833.7600182733666
 42
-0.0563350512945941
 10
839.8170643825292
 20
824.1131432733666
 42
0.0
 10
847.5626967806279
 20
824.1131432733666
 42
0.0
 97
        0
 92
        7
 72
     0
 73
     1
 93
        4
 10
872.5952834923205
 20
833.7600182733666
 10
847.5626967806279
 20
833.7600182733666
 10
847.5626967806279
 20
824.1131432733665
 10
872.5952834923205
 20
824.1131432733666
 97
        0
 92
        7
 72
     1
 73
     1
 93
        5
 10
720.6214248983023
 20
833.7600182733664
 42
0.0
 10
718.2720624056282
 20
833.7600182733664
 42
0.0
 10
718.2720624056282
 20
824.1131432733665
 42
0.0
 10
719.5927253847294
 20
824.1131432733665
 42
-0.0384288917851693
 10
719.3703573528982
 20
827.0021108302753
 42
-0.0917834631136847
 97
        0
 75
     0
 76
     1
 52
15.0
 41
0.2296875
 77
     0
 78
     3
 53
14.99999999999999
 43
5.347931900794264
 44
448.1093189718857
 45
10.88763112473762
 46
8.957197908635102
 79
     4
 49
87.5109375
 49
-11.668125
 49
29.1703125
 49
-5.834062499999999
 53
14.99999999999999
 43
12.0878599405778
 44
452.9352102178266
 45
-7.64352706640807
 46
5.984944797124549
 79
     4
 49
17.5021875
 49
-1.925240624999999
 49
35.004375
 49
-4.375546875
 53
14.99999999999999
 43
6.882096208740676
 44
453.6542831093393
 45
28.29173498769641
 46
11.62745772308197
 79
     4
 49
46.67249999999999
 49
-8.167687500000001
 49
23.33625
 49
-5.834062499999999
 47
0.6197542291202085
 98
        7
 10
732.7701493881072
 20
827.761694384516
 10
750.9958288451275
 20
827.761694384516
 10
755.8370247908611
 20
829.7545913742812
 10
768.6519561391914
 20
827.1922951003235
 10
843.8328838993989
 20
827.761694384516
 10
854.9391574785586
 20
827.4769942375122
 10
719.1008897953424
 20
832.03218851105
  0
LINE
  5
DD2
330
1F
100
AcDbEntity
  8
かくれ線
 48
3.0
100
AcDbLine
 10
718.2720624056282
 20
833.7600182733664
 30
0.0
 11
874.1470359482022
 21
833.7600182733664
 31
0.0
  0
LINE
  5
DD3
330
1F
100
AcDbEntity
  8
かくれ線
 48
3.0
100
AcDbLine
 10
718.2720624056282
 20
824.1131432733666
 30
0.0
 11
874.709141060493
 21
824.1131432733666
 31
0.0
  0
LEADER
  5
DD4
330
1F
100
AcDbEntity
  8
文字
100
AcDbLeader
  3
ISO-25
 73
     0
 74
     0
 75
     1
 40
4.501874999999998
 41
15.00624999999999
 76
     3
 10
682.7337033311059
 20
749.6642331359498
 30
0.0
 10
691.6886242958428
 20
764.534922650683
 30
0.0
 10
698.6886242958428
 20
764.534922650683
 30
0.0
340
DD5
1001
ACAD
1000
DSTYLE
1002
{
1070
    77
1070
     0
1070
    41
1040
7.0
1070
    42
1040
20.0
1070
   140
1040
15.0
1070
   147
1040
2.799999999999999
1070
   176
1070
   256
1070
   177
1070
   256
1070
   178
1070
   256
1002
}
  0
MTEXT
  5
DD5
102
{ACAD_REACTORS
330
DD4
102
}
330
1F
100
AcDbEntity
  8
文字
100
AcDbMText
 10
701.4886242958428
 20
764.534922650683
 30
0.0
 40
4.501874999999998
 41
0.0
 71
     4
 72
     1
  1
手洗器
  7
symbols
 73
     1
 44
1.0
  0
ARC
  5
DD6
102
{ACAD_REACTORS
330
DD0
102
}
330
1F
100
AcDbEntity
  8
かくれ線
 48
2.0
100
AcDbCircle
 10
797.7205092806284
 20
718.7748946045137
 30
0.0
 40
50.08335937499999
100
AcDbArc
 50
120.0000000000005
 51
237.1494793257183
  0
ARC
  5
DD7
102
{ACAD_REACTORS
330
DD0
102
}
330
1F
100
AcDbEntity
  8
かくれ線
 48
2.0
100
AcDbCircle
 10
797.7205092806284
 20
718.7748946045137
 30
0.0
 40
45.58148437499999
100
AcDbArc
 50
120.0000000000005
 51
237.1494793257183
  0
HATCH
  5
DD8
330
1F
100
AcDbEntity
  8
ハッチング
100
AcDbHatch
 10
0.0
 20
0.0
 30
0.0
210
0.0
220
0.0
230
1.0
  2
GRAVEL
 70
     0
 71
     0
 91
        1
 92
        7
 72
     0
 73
     1
 93
        4
 10
655.1590111660011
 20
743.115656010331
 10
668.3430736660016
 20
743.1156560103312
 10
668.3430736660016
 20
752.7625310103314
 10
655.1590111660011
 20
752.7625310103312
 97
        0
 75
     0
 76
     1
 52
0.0
 41
0.3215625
 77
     0
 78
    42
 53
228.0128
 43
297.4931830223693
 44
621.6591186984232
 45
-65.34155552064685
 46
-73.50927782533886
 79
     2
 49
1.098846590624999
 49
-108.7862015624999
 53
184.9697
 43
296.7580911473692
 44
620.8423499484232
 45
98.01240855018225
 46
8.167629861167794
 79
     2
 49
1.885658578124999
 49
-186.6798937499999
 53
132.5103999999999
 43
294.8795230223693
 44
620.6789961984232
 45
81.67681556988533
 46
-89.84465026231799
 79
     2
 49
1.329603056249999
 49
-131.6306446874999
 53
267.2737
 43
291.6941248973694
 44
618.6370743234232
 45
8.167652034319338
 46
163.3536974353563
 79
     2
 49
1.717159828124999
 49
-169.9985174999999
 53
292.8337
 43
291.6124480223696
 44
616.9218599484232
 45
-40.8385534409733
 46
98.01230572694558
 79
     2
 49
1.683810581249999
 49
-166.697356875
 53
357.2737
 43
292.2658630223693
 44
615.3699993234233
 45
-163.3536974353563
 46
8.167652034319349
 79
     2
 49
1.717159828124999
 49
-169.9985174999999
 53
37.6942
 43
293.9810773973695
 44
615.2883224484232
 45
-106.1800045819246
 46
-81.67680218855453
 79
     2
 49
2.270855081249997
 49
-224.8143121874999
 53
72.2553
 43
295.7779686473693
 44
616.6768293234232
 45
57.17392686520543
 46
179.6891771125357
 79
     2
 49
2.143921499999999
 49
-212.2482928125
 53
121.4296
 43
296.4313836473691
 44
618.7187511984232
 45
-65.34151683464734
 46
106.1798126050371
 79
     2
 49
1.722973678124998
 49
-170.5744359374997
 53
175.2364
 43
295.5329380223693
 44
620.1889349484233
 45
89.84449192685321
 46
-8.167610848250214
 79
     2
 49
1.96703961562499
 49
-96.38482218749963
 53
222.3974
 43
293.5726930223693
 44
620.3522886984233
 45
-98.01225294949894
 46
-89.84444561407949
 79
     2
 49
2.543810193749999
 49
-251.83746
 53
138.8141
 43
299.7801355223696
 44
618.5553974484232
 45
-57.17377608055391
 46
49.00604961650187
 79
     2
 49
0.8682348281249998
 49
-85.955585625
 53
171.4692
 43
299.1267205223694
 44
619.1271355734232
 45
106.1797754183236
 46
-16.33541616014695
 79
     2
 49
1.651808681249994
 49
-163.5293231249993
 53
225.0
 43
297.4931830223693
 44
619.3721661984231
 45
-0.0000000000000011
 46
-8.16768193278907
 79
     2
 49
1.155081440624999
 49
-10.39576190625
 53
203.1986
 43
296.9214448973694
 44
620.3522886984233
 45
40.83857521104051
 46
16.33544662581607
 79
     2
 49
0.6220337156249998
 49
-61.58114812499999
 53
291.8014
 43
296.3497067723695
 44
620.1072580734233
 45
-8.16769322990453
 46
24.5030782846409
 79
     2
 49
0.8796856687499998
 49
-43.10480999999999
 53
30.9638
 43
296.6764142723691
 44
619.2904893234232
 45
24.5030366296802
 46
16.33538772956783
 79
     2
 49
1.428766499999994
 49
-46.19663343749982
 53
161.5651
 43
297.9015673973695
 44
620.0255811984232
 45
16.33538245440071
 46
-8.167675352864263
 79
     2
 49
1.033138509374999
 49
-24.79536281249999
 53
16.38950000000001
 43
291.6124480223696
 44
620.1072580734233
 45
81.67692006367017
 46
24.50301153224021
 79
     2
 49
1.447314225
 49
-143.28439125
 53
70.3462
 43
293.0009548973694
 44
620.5156424484232
 45
-32.67065896140039
 46
-89.8444354459775
 79
     2
 49
1.214216784375
 49
-120.2071368749999
 53
293.1986
 43
297.9015673973695
 44
621.6591186984232
 45
-16.33544662581607
 46
40.83857521104051
 79
     2
 49
1.244060999999999
 49
-60.95924624999999
 53
343.6105
 43
298.3916286473696
 44
620.5156424484232
 45
-81.67692006367017
 46
24.50301153224024
 79
     2
 49
1.447314224999994
 49
-143.2843912499994
 53
339.4440000000001
 43
291.6124480223696
 44
615.0432918234232
 45
-40.8384881919354
 46
16.33535517904872
 79
     2
 49
1.395693796874999
 49
-68.38894781249999
 53
294.7751
 43
292.9192780223693
 44
614.5532305734233
 45
-40.83834232916255
 46
89.84452078098504
 79
     2
 49
1.169432774999995
 49
-115.7740762499996
 53
66.8014
 43
297.9832442723696
 44
613.4914311984232
 45
16.33544662581609
 46
40.83857521104051
 79
     2
 49
1.244060999999999
 49
-60.95924624999998
 53
17.354
 43
298.4733055223692
 44
614.6349074484232
 45
-106.1799432297934
 46
-32.67070072249436
 79
     2
 49
1.369158459374999
 49
-135.5463112499999
 53
69.444
 43
293.9810773973695
 44
613.4914311984232
 45
-16.33535517904874
 46
-40.8384881919354
 79
     2
 49
0.6978485062499999
 49
-69.08705999999999
 53
101.3098999999998
 43
297.4931830223693
 44
613.4914311984232
 45
-8.167647185347128
 46
32.67064536646498
 79
     2
 49
0.4164716718749997
 49
-41.23074374999996
 53
165.9638
 43
297.4115061473694
 44
613.8998155734232
 45
24.50307971869809
 46
-8.167673364510083
 79
     2
 49
1.683810581249999
 49
-31.99241390625
 53
186.009
 43
295.7779686473693
 44
614.3081999484231
 45
81.67675455692609
 46
8.167668426674206
 79
     2
 49
1.560436696875
 49
-154.483126875
 53
303.6901
 43
296.6764142723691
 44
618.5553974484232
 45
-8.167690301797318
 46
16.33535924096738
 79
     2
 49
1.177960612499999
 49
-28.2710675625
 53
353.1572
 43
297.3298292723693
 44
617.5752749484232
 45
138.8507449202689
 46
-16.33544816079009
 79
     2
 49
2.056575478125
 49
-203.6005125000001
 53
60.94540000000001
 43
299.3717511473697
 44
617.3302443234233
 45
-32.67067400136916
 46
-57.17367619233847
 79
     2
 49
0.8409116624999992
 49
-83.25060187499991
 53
90.0
 43
299.7801355223696
 44
618.0653361984232
 45
-8.167687499999997
 46
8.167687499999997
 79
     2
 49
0.49006125
 49
-7.677626249999997
 53
120.2563999999999
 43
295.6146148973694
 44
614.5532305734233
 45
32.67068075741987
 46
-57.17378366381066
 79
     2
 49
1.134687946874999
 49
-112.3343221875
 53
48.01280000000001
 43
295.0428767723695
 44
615.5333530734233
 45
65.34155552064683
 46
73.50927782533887
 79
     2
 49
2.197696396875
 49
-107.6874225
 53
0.0
 43
296.5130605223696
 44
617.1668905734232
 45
8.167687499999997
 46
8.167687499999997
 79
     2
 49
2.123598749999999
 49
-6.044088749999999
 53
325.3048
 43
298.6366592723698
 44
617.1668905734232
 45
-81.67673348341043
 46
57.17381793596505
 79
     2
 49
1.291427156249999
 49
-127.8509990624999
 53
254.0546
 43
299.6984586473695
 44
616.4317986984232
 45
-8.167708336290051
 46
-32.67082782842666
 79
     2
 49
1.189231378125
 49
-58.27259156250002
 53
207.6459999999999
 43
299.3717511473697
 44
615.2883224484232
 45
-155.1860079920136
 46
-81.67692636871988
 79
     2
 49
1.936272515624999
 49
-191.6914453124999
 53
175.4261
 43
297.6565367723694
 44
614.3898768234232
 45
-106.1799619540162
 46
8.167647983890081
 79
     2
 49
2.04844637812499
 49
-202.7959631249993
 53
175.4261
 43
297.6565367723694
 44
614.3898768234232
 45
-106.1799619540162
 46
8.167647983890081
 79
     2
 49
2.04844637812499
 49
-202.7959631249993
 47
0.6886187122875779
 98
        1
 10
662.7378798523846
 20
748.631736223129
  0
LINE
  5
DD9
330
1F
100
AcDbEntity
  8
外形線
100
AcDbLine
 10
655.1590111660011
 20
752.7625310103314
 30
0.0
 11
655.1590111660011
 21
743.1156560103312
 31
0.0
  0
LINE
  5
DDA
330
1F
100
AcDbEntity
  8
外形線
100
AcDbLine
 10
654.1943236660008
 20
747.0708747603311
 30
0.0
 11
654.1943236660013
 21
751.7978435103312
 31
0.0
  0
LINE
  5
DDB
330
1F
100
AcDbEntity
  8
外形線
100
AcDbLine
 10
653.036698666001
 20
747.0708747603311
 30
0.0
 11
653.036698666001
 21
752.7625310103314
 31
0.0
  0
ARC
  5
DDC
330
1F
100
AcDbEntity
  8
外形線
100
AcDbCircle
 10
671.9996906022256
 20
749.5469060103313
 30
0.0
 40
3.215624999999999
100
AcDbArc
 50
0.0
 51
90.0
  0
ARC
  5
DDD
330
1F
100
AcDbEntity
  8
外形線
100
AcDbCircle
 10
671.8389093522254
 20
749.3861247603312
 30
0.0
 40
4.823437499999999
100
AcDbArc
 50
0.0
 51
90.0
  0
LINE
  5
DDE
330
1F
100
AcDbEntity
  8
外形線
100
AcDbLine
 10
668.3430736660016
 20
752.7625310103314
 30
0.0
 11
668.3430736660016
 21
743.1156560103312
 31
0.0
  0
LEADER
  5
DDF
330
1F
100
AcDbEntity
  8
文字
100
AcDbLeader
  3
ISO-25
 76
     2
 10
745.0155272931797
 20
717.013549261261
 30
0.0
 10
735.0483593202348
 20
713.3124544189191
 30
0.0
1001
ACAD
1000
DSTYLE
1002
{
1070
    77
1070
     0
1070
    41
1040
7.0
1070
    42
1040
28.0
1070
    43
1040
7.5
1070
    44
1040
5.0
1070
   140
1040
14.0
1070
   141
1040
14.0
1070
   147
1040
2.799999999999999
1070
   176
1070
   256
1070
   177
1070
   256
1070
   178
1070
   256
1002
}
  0
MTEXT
  5
DE0
102
{ACAD_REACTORS
330
DE1
102
}
330
1F
100
AcDbEntity
  8
文字
100
AcDbMText
 10
691.8447708060593
 20
712.6990636526586
 30
0.0
 40
4.501874999999998
 41
0.0
 71
     4
 72
     1
  1
両面テープ付\Pスポンジパッキン
  7
symbols
 73
     1
 44
1.0
  0
LEADER
  5
DE1
330
1F
100
AcDbEntity
  8
文字
100
AcDbLeader
  3
ISO-25
 73
     0
 74
     0
 75
     1
 40
12.005
 41
40.81699999999998
 76
     3
 10
669.9791916119624
 20
741.6060756606224
 30
0.0
 10
682.0447708060594
 20
712.6990636526586
 30
0.0
 10
689.0447708060594
 20
712.6990636526586
 30
0.0
340
DE0
1001
ACAD
1000
DSTYLE
1002
{
1070
    77
1070
     0
1070
    41
1040
7.0
1070
    42
1040
20.0
1070
   140
1040
15.0
1070
   147
1040
2.799999999999999
1070
   176
1070
   256
1070
   177
1070
   256
1070
   178
1070
   256
1002
}
  0
LINE
  5
DE2
102
{ACAD_REACTORS
330
DBC
102
}
330
1F
100
AcDbEntity
  8
外形線
100
AcDbLine
 10
666.7352611660012
 20
743.1156560103312
 30
0.0
 11
666.7352611660012
 21
714.1750310103311
 31
0.0
  0
ARC
  5
DE3
330
1F
100
AcDbEntity
  8
外形線
100
AcDbCircle
 10
804.9749799160013
 20
743.9825958185698
 30
0.0
 40
128.3126330637751
100
AcDbArc
 50
180.0
 51
208.2589912544868
  0
ARC
  5
DE4
330
1F
100
AcDbEntity
  8
外形線
100
AcDbCircle
 10
804.9749799160013
 20
743.9825958185698
 30
0.0
 40
129.7596643137752
100
AcDbArc
 50
180.0
 51
207.9160960654256
  0
ARC
  5
DE5
330
1F
100
AcDbEntity
  8
外形線
100
AcDbCircle
 10
653.6155111660009
 20
747.0708747603311
 30
0.0
 40
0.5788124999999122
100
AcDbArc
 50
180.0
 51
0.0
  0
LINE
  5
DE6
330
1F
100
AcDbEntity
  8
外形線
100
AcDbLine
 10
676.6623468522257
 20
743.9825958185698
 30
0.0
 11
676.6623468522257
 21
749.3861247603312
 31
0.0
  0
LINE
  5
DE7
330
1F
100
AcDbEntity
  8
外形線
100
AcDbLine
 10
675.2153156022259
 20
743.9825958185698
 30
0.0
 11
675.2153156022259
 21
749.5469060103313
 31
0.0
  0
LINE
  5
DE8
102
{ACAD_REACTORS
330
DD0
102
}
330
1F
100
AcDbEntity
  8
かくれ線
 48
2.0
100
AcDbLine
 10
772.9948708696288
 20
680.4824080961019
 30
0.0
 11
770.5528325080486
 21
676.7004341199624
 31
0.0
  0
LINE
  5
DE9
102
{ACAD_REACTORS
330
DD0
102
}
330
1F
100
AcDbEntity
  8
かくれ線
 48
2.0
100
AcDbLine
 10
774.9297670931282
 20
679.30017119356
 30
0.0
 11
772.6788295931283
 21
675.4014330788979
 31
0.0
  0
CIRCLE
  5
DEA
330
1F
100
AcDbEntity
  8
外形線
100
AcDbCircle
 10
797.720509280628
 20
718.7748946045133
 30
0.0
 40
11.2546875
  0
CIRCLE
  5
DEB
330
1F
100
AcDbEntity
  8
外形線
100
AcDbCircle
 10
797.720509280628
 20
718.7748946045133
 30
0.0
 40
6.752812499999999
  0
LINE
  5
DEC
330
1F
100
AcDbEntity
  8
中心線
100
AcDbLine
 10
797.720509280628
 20
715.3984883545135
 30
0.0
 11
797.720509280628
 21
722.1513008545135
 31
0.0
  0
LINE
  5
DED
330
1F
100
AcDbEntity
  8
中心線
100
AcDbLine
 10
794.3441030306285
 20
718.7748946045133
 30
0.0
 11
801.0969155306284
 21
718.7748946045133
 31
0.0
  0
LINE
  5
DEE
330
1F
100
AcDbEntity
  8
外形線
100
AcDbLine
 10
736.8772003714075
 20
824.0496065931464
 30
0.0
 11
740.8967316214075
 21
824.0496065931464
 31
0.0
  0
CIRCLE
  5
DEF
330
1F
100
AcDbEntity
  8
寸法線
100
AcDbCircle
 10
738.2480283411959
 20
827.0021108302753
 30
0.0
 40
18.87767098829771
  0
LEADER
  5
DF0
330
1F
100
AcDbEntity
  8
寸法線
100
AcDbLeader
  3
ISO-25
 76
     2
 10
680.10308891782
 20
768.9115798853574
 30
0.0
 10
726.1061552855567
 20
812.5473060705024
 30
0.0
211
0.8491974670132654
221
-0.5280754321290225
231
0.0
1001
ACAD
1000
DSTYLE
1002
{
1070
    77
1070
     0
1070
    41
1040
20.0
1070
    42
1040
20.0
1070
   140
1040
15.0
1070
   147
1040
15.0
1070
   176
1070
   256
1070
   177
1070
   256
1070
   178
1070
   256
1002
}
  0
LINE
  5
DF1
330
1F
100
AcDbEntity
  8
外形線
100
AcDbLine
 10
655.1590111660011
 20
752.7625310103314
 30
0.0
 11
671.9996906022256
 21
752.7625310103314
 31
0.0
  0
LINE
  5
DF2
330
1F
100
AcDbEntity
  8
外形線
100
AcDbLine
 10
654.4837299160012
 20
754.2095622603312
 30
0.0
 11
671.8389093522254
 21
754.2095622603312
 31
0.0
  0
ARC
  5
DF3
330
1F
100
AcDbEntity
  8
外形線
100
AcDbCircle
 10
655.1590111660011
 20
751.7978435103312
 30
0.0
 40
0.9646874999999997
100
AcDbArc
 50
90.0
 51
180.0
  0
ARC
  5
DF4
330
1F
100
AcDbEntity
  8
外形線
100
AcDbCircle
 10
654.4837299160012
 20
752.7625310103314
 30
0.0
 40
1.447031249999999
100
AcDbArc
 50
90.0
 51
180.0
  0
LINE
  5
DF5
330
1F
100
AcDbEntity
  8
かくれ線
 48
3.0
100
AcDbLine
 10
718.2720624056282
 20
833.7600182733664
 30
0.0
 11
718.2720624056282
 21
824.1131432733666
 31
0.0
  0
ARC
  5
DF6
330
1F
100
AcDbEntity
  8
外形線
100
AcDbCircle
 10
797.720509280628
 20
834.0489982094462
 30
0.0
 40
43.25322143792507
100
AcDbArc
 50
193.2802131261194
 51
255.79832229143
  0
LINE
  5
DF7
102
{ACAD_REACTORS
330
DD0
102
}
330
1F
100
AcDbEntity
  8
かくれ線
 48
2.0
100
AcDbLine
 10
774.9297670931282
 20
758.249618015467
 30
0.0
 11
772.6788295931283
 21
762.148356130129
 31
0.0
  0
LINE
  5
DF8
102
{ACAD_REACTORS
330
DD0
102
}
330
1F
100
AcDbEntity
  8
かくれ線
 48
2.0
100
AcDbLine
 10
776.9210623957706
 20
759.334168847433
 30
0.0
 11
774.8667960367725
 21
763.3400230936472
 31
0.0
  0
LINE
  5
DF9
330
1F
100
AcDbEntity
  8
外形線
100
AcDbLine
 10
806.0811342806282
 20
789.2236120233666
 30
0.0
 11
808.3320717806282
 21
792.1176745233665
 31
0.0
  0
LINE
  5
DFA
330
1F
100
AcDbEntity
  8
外形線
100
AcDbLine
 10
787.1089467806282
 20
792.1176745233665
 30
0.0
 11
808.3320717806282
 21
792.1176745233665
 31
0.0
  0
LINE
  5
DFB
330
1F
100
AcDbEntity
  8
外形線
100
AcDbLine
 10
789.3598842806282
 20
789.2236120233666
 30
0.0
 11
806.0811342806282
 21
789.2236120233666
 31
0.0
  0
LINE
  5
DFC
330
1F
100
AcDbEntity
  8
外形線
100
AcDbLine
 10
787.1089467806282
 20
792.1176745233665
 30
0.0
 11
789.3598842806282
 21
789.2236120233666
 31
0.0
  0
LINE
  5
DFD
330
1F
100
AcDbEntity
  8
かくれ線
 48
1.5
100
AcDbLine
 10
747.8783217806281
 20
833.7600182733664
 30
0.0
 11
747.8783217806281
 21
824.1131432733666
 31
0.0
  0
LINE
  5
DFE
330
1F
100
AcDbEntity
  8
外形線
100
AcDbLine
 10
743.054916436878
 20
837.4579870233665
 30
0.0
 11
743.054916436878
 21
834.8854870233665
 31
0.0
  0
LINE
  5
DFF
330
1F
100
AcDbEntity
  8
外形線
100
AcDbLine
 10
743.6980414368786
 20
834.885487023366
 30
0.0
 11
743.6980414368786
 21
833.7600182733664
 31
0.0
  0
ARC
  5
E00
330
1F
100
AcDbEntity
  8
ハッチング
100
AcDbCircle
 10
743.6980414368786
 20
833.7600182733664
 30
0.0
 40
2.366834064351759
100
AcDbArc
 50
105.7668651044415
 51
180.0
  0
ARC
  5
E01
330
1F
100
AcDbEntity
  8
かくれ線
 48
2.0
100
AcDbCircle
 10
797.720509280628
 20
834.0489982094462
 30
0.0
 40
43.25322143792507
100
AcDbArc
 50
180.3828027909282
 51
193.2802131261194
  0
LINE
  5
E02
102
{ACAD_REACTORS
330
DD0
102
}
330
1F
100
AcDbEntity
  8
かくれ線
 48
2.0
100
AcDbLine
 10
843.3019936556284
 20
718.7748946045132
 30
0.0
 11
847.8038686556283
 21
718.7748946045132
 31
0.0
  0
LINE
  5
E03
102
{ACAD_REACTORS
330
DD0
102
}
330
1F
100
AcDbEntity
  8
かくれ線
 48
2.0
100
AcDbLine
 10
843.245594576485
 20
716.5081068700053
 30
0.0
 11
847.7418992970637
 21
716.2842265999306
 31
0.0
  0
ARC
  5
E04
330
1F
100
AcDbEntity
  8
ハッチング
100
AcDbCircle
 10
851.7429771243783
 20
833.7600182733664
 30
0.0
 40
2.366834064351759
100
AcDbArc
 50
0.0
 51
74.23313489555851
  0
ARC
  5
E05
330
1F
100
AcDbEntity
  8
かくれ線
 48
2.0
100
AcDbCircle
 10
797.720509280628
 20
834.0489982094462
 30
0.0
 40
43.25322143792507
100
AcDbArc
 50
346.7197868738804
 51
359.6171972090719
  0
LINE
  5
E06
330
1F
100
AcDbEntity
  8
かくれ線
 48
1.5
100
AcDbLine
 10
847.5626967806279
 20
833.7600182733664
 30
0.0
 11
847.5626967806279
 21
824.1131432733666
 31
0.0
  0
LINE
  5
E07
330
1F
100
AcDbEntity
  8
外形線
100
AcDbLine
 10
852.3861021243783
 20
837.4579870233665
 30
0.0
 11
852.3861021243783
 21
834.8854870233665
 31
0.0
  0
LINE
  5
E08
330
1F
100
AcDbEntity
  8
外形線
100
AcDbLine
 10
851.7429771243783
 20
834.8854870233665
 30
0.0
 11
851.7429771243783
 21
833.7600182733664
 31
0.0
  0
LWPOLYLINE
  5
E09
330
1F
100
AcDbEntity
  8
0
100
AcDbPolyline
 90
        4
 70
     1
 43
0.0
 10
598.2992075283259
 20
657.08395687866
 10
874.4280885043476
 20
657.08395687866
 10
874.4280885043478
 20
961.7888607937878
 10
598.299207528326
 20
961.7888607937878
  0
CIRCLE
  5
E2F
330
1F
100
AcDbEntity
  8
かくれ線
100
AcDbCircle
 10
1060.009495327244
 20
560.9595402706731
 30
0.0
 40
180.0
  0
ENDSEC
  0
SECTION
  2
OBJECTS
  0
DICTIONARY
  5
C
330
0
100
AcDbDictionary
281
     1
  3
ACAD_CIP_PREVIOUS_PRODUCT_INFO
350
C27
  3
ACAD_COLOR
350
C08
  3
ACAD_DETAILVIEWSTYLE
350
C21
  3
ACAD_GROUP
350
D
  3
ACAD_LAYOUT
350
1A
  3
ACAD_MATERIAL
350
BD6
  3
ACAD_MLEADERSTYLE
350
C1D
  3
ACAD_MLINESTYLE
350
17
  3
ACAD_PLOTSETTINGS
350
19
  3
ACAD_PLOTSTYLENAME
350
E
  3
ACAD_SCALELIST
350
C0B
  3
ACAD_SECTIONVIEWSTYLE
350
C1F
  3
ACAD_TABLESTYLE
350
C09
  3
ACAD_VISUALSTYLE
350
BEF
  3
ACDB_RECOMPOSE_DATA
350
E64
  3
AcDbVariableDictionary
350
C7
  3
AcDsDecomposeData
350
E6A
  0
DICTIONARY
  5
C5A
330
2
100
AcDbDictionary
280
     1
281
     1
  3
ACAD_LAYERSTATES
360
C5B
  0
DICTIONARY
  5
C2B
330
10
100
AcDbDictionary
280
     1
281
     1
  3
ADSK_XREC_LAYER_RECONCILED
360
C2C
  0
DICTIONARY
  5
C2D
330
2F
100
AcDbDictionary
280
     1
281
     1
  3
ADSK_XREC_LAYER_RECONCILED
360
C2E
  0
DICTIONARY
  5
C2F
330
30
100
AcDbDictionary
280
     1
281
     1
  3
ADSK_XREC_LAYER_RECONCILED
360
C30
  0
DICTIONARY
  5
C31
330
31
100
AcDbDictionary
280
     1
281
     1
  3
ADSK_XREC_LAYER_RECONCILED
360
C32
  0
DICTIONARY
  5
C33
330
32
100
AcDbDictionary
280
     1
281
     1
  3
ADSK_XREC_LAYER_RECONCILED
360
C34
  0
DICTIONARY
  5
C35
330
33
100
AcDbDictionary
280
     1
281
     1
  3
ADSK_XREC_LAYER_RECONCILED
360
C36
  0
DICTIONARY
  5
C37
330
34
100
AcDbDictionary
280
     1
281
     1
  3
ADSK_XREC_LAYER_RECONCILED
360
C38
  0
DICTIONARY
  5
C39
330
35
100
AcDbDictionary
280
     1
281
     1
  3
ADSK_XREC_LAYER_RECONCILED
360
C3A
  0
DICTIONARY
  5
C3B
330
36
100
AcDbDictionary
280
     1
281
     1
  3
ADSK_XREC_LAYER_RECONCILED
360
C3C
  0
DICTIONARY
  5
C3D
330
14E
100
AcDbDictionary
280
     1
281
     1
  3
ADSK_XREC_LAYER_RECONCILED
360
C3E
  0
DICTIONARY
  5
EA6
330
DA5
100
AcDbDictionary
280
     1
281
     1
  3
ACAD_MTEXT_2008_RT
360
EA7
  0
DICTIONARY
  5
EA8
330
E40
100
AcDbDictionary
280
     1
281
     1
  3
ACAD_MTEXT_2008_RT
360
EA9
  0
DICTIONARY
  5
4B3
330
4A6
100
AcDbDictionary
280
     1
281
     1
  3
ACAD_DIMASSOC
360
4BD
  0
DICTIONARY
  5
4CB
330
4BE
100
AcDbDictionary
280
     1
281
     1
  3
ACAD_DIMASSOC
360
4D5
  0
DICTIONARY
  5
82F
330
823
100
AcDbDictionary
280
     1
281
     1
  3
ACAD_DIMASSOC
360
838
  0
DICTIONARY
  5
971
330
962
100
AcDbDictionary
280
     1
281
     1
  3
ACAD_DIMASSOC
360
97D
  0
XRECORD
  5
C27
102
{ACAD_REACTORS
330
C
102
}
330
C
100
AcDbXrecord
280
     1
300
ACD
300
2014
300
DSPRM_F_S
  0
DICTIONARY
  5
C08
102
{ACAD_REACTORS
330
C
102
}
330
C
100
AcDbDictionary
281
     1
  0
DICTIONARY
  5
C21
102
{ACAD_REACTORS
330
C
102
}
330
C
100
AcDbDictionary
281
     1
  3
Metric50
350
C22
  0
DICTIONARY
  5
D
102
{ACAD_REACTORS
330
C
102
}
330
C
100
AcDbDictionary
281
     1
  0
DICTIONARY
  5
1A
102
{ACAD_REACTORS
330
C
102
}
330
C
100
AcDbDictionary
281
     1
  3
Model
350
22
  3
ﾚｲｱｳﾄ1
350
1E
  3
ﾚｲｱｳﾄ2
350
26
  0
DICTIONARY
  5
BD6
102
{ACAD_REACTORS
330
C
102
}
330
C
100
AcDbDictionary
281
     1
  3
ByBlock
350
BDF
  3
ByLayer
350
BD7
  3
Global
350
BE7
  0
DICTIONARY
  5
C1D
102
{ACAD_REACTORS
330
C
102
}
330
C
100
AcDbDictionary
281
     1
  3
Standard
350
C1E
  0
DICTIONARY
  5
17
102
{ACAD_REACTORS
330
C
102
}
330
C
100
AcDbDictionary
281
     1
  3
Standard
350
18
  0
DICTIONARY
  5
19
102
{ACAD_REACTORS
330
C
102
}
330
C
100
AcDbDictionary
281
     1
  0
ACDBDICTIONARYWDFLT
  5
E
102
{ACAD_REACTORS
330
C
102
}
330
C
100
AcDbDictionary
281
     1
  3
Normal
350
F
100
AcDbDictionaryWithDefault
340
F
  0
DICTIONARY
  5
C0B
102
{ACAD_REACTORS
330
C
102
}
330
C
100
AcDbDictionary
281
     1
  3
A0
350
C0C
  3
A1
350
C0D
  3
A2
350
C0E
  3
A3
350
C0F
  3
A4
350
C10
  3
A5
350
C11
  3
A6
350
C12
  3
A7
350
C13
  3
A8
350
C14
  3
A9
350
C15
  3
B0
350
C16
  3
B1
350
C17
  3
B2
350
C18
  3
B3
350
C19
  3
B4
350
C1A
  3
B5
350
C1B
  3
B6
350
C1C
  0
DICTIONARY
  5
C1F
102
{ACAD_REACTORS
330
C
102
}
330
C
100
AcDbDictionary
281
     1
  3
Metric50
350
C20
  0
DICTIONARY
  5
C09
102
{ACAD_REACTORS
330
C
102
}
330
C
100
AcDbDictionary
281
     1
  3
Standard
350
C0A
  0
DICTIONARY
  5
BEF
102
{ACAD_REACTORS
330
C
102
}
330
C
100
AcDbDictionary
281
     1
  3
2dWireframe
350
BF5
  3
Basic
350
BF4
  3
Brighten
350
BFB
  3
ColorChange
350
BFF
  3
Conceptual
350
BF8
  3
Dim
350
BFA
  3
EdgeColorOff
350
C07
  3
Facepattern
350
BFE
  3
Flat
350
BF0
  3
FlatWithEdges
350
BF1
  3
Gouraud
350
BF2
  3
GouraudWithEdges
350
BF3
  3
Hidden
350
BF7
  3
JitterOff
350
C05
  3
Linepattern
350
BFD
  3
OverhangOff
350
C06
  3
Realistic
350
BF9
  3
Shaded
350
C04
  3
Shaded with edges
350
C03
  3
Shades of Gray
350
C00
  3
Sketchy
350
C01
  3
Thicken
350
BFC
  3
Wireframe
350
BF6
  3
X-Ray
350
C02
  0
XRECORD
  5
E64
102
{ACAD_REACTORS
330
C
102
}
330
C
100
AcDbXrecord
280
     1
 90
        1
330
C0A
  0
DICTIONARY
  5
C7
102
{ACAD_REACTORS
330
C
102
}
330
C
100
AcDbDictionary
281
     1
  3
CANNOSCALE
350
C4A
  3
CMLEADERSTYLE
350
C46
  3
CTABLESTYLE
350
C45
  3
CVIEWDETAILSTYLE
350
C47
  3
CVIEWSECTIONSTYLE
350
C48
  3
DIMASSOC
350
C9
  3
HIDETEXT
350
C8
  3
LAYEREVAL
350
C4C
  3
LAYERNOTIFY
350
C4D
  3
LIGHTINGUNITS
350
C4B
  3
MSLTSCALE
350
C49
  3
XCLIPFRAME
350
E61
  0
DICTIONARY
  5
E6A
102
{ACAD_REACTORS
330
C
102
}
330
C
100
AcDbDictionary
281
     1
  3
AcDsRecords
350
E6C
  3
AcDsSchemas
350
E6B
1001
ACAD
1070
     2
  0
DICTIONARY
  5
C5B
102
{ACAD_REACTORS
330
C5A
102
}
330
C5A
100
AcDbDictionary
281
     1
  0
XRECORD
  5
C2C
102
{ACAD_REACTORS
330
C2B
102
}
330
C2B
100
AcDbXrecord
280
     1
290
     1
  0
XRECORD
  5
C2E
102
{ACAD_REACTORS
330
C2D
102
}
330
C2D
100
AcDbXrecord
280
     1
290
     1
  0
XRECORD
  5
C30
102
{ACAD_REACTORS
330
C2F
102
}
330
C2F
100
AcDbXrecord
280
     1
290
     1
  0
XRECORD
  5
C32
102
{ACAD_REACTORS
330
C31
102
}
330
C31
100
AcDbXrecord
280
     1
290
     1
  0
XRECORD
  5
C34
102
{ACAD_REACTORS
330
C33
102
}
330
C33
100
AcDbXrecord
280
     1
290
     1
  0
XRECORD
  5
C36
102
{ACAD_REACTORS
330
C35
102
}
330
C35
100
AcDbXrecord
280
     1
290
     1
  0
XRECORD
  5
C38
102
{ACAD_REACTORS
330
C37
102
}
330
C37
100
AcDbXrecord
280
     1
290
     1
  0
XRECORD
  5
C3A
102
{ACAD_REACTORS
330
C39
102
}
330
C39
100
AcDbXrecord
280
     1
290
     1
  0
XRECORD
  5
C3C
102
{ACAD_REACTORS
330
C3B
102
}
330
C3B
100
AcDbXrecord
280
     1
290
     1
  0
XRECORD
  5
C3E
102
{ACAD_REACTORS
330
C3D
102
}
330
C3D
100
AcDbXrecord
280
     1
290
     1
  0
XRECORD
  5
EA7
102
{ACAD_REACTORS
330
EA6
102
}
330
EA6
100
AcDbXrecord
280
     1
 40
2901.0
  1
\U+2205390
  0
XRECORD
  5
EA9
102
{ACAD_REACTORS
330
EA8
102
}
330
EA8
100
AcDbXrecord
280
     1
 40
4088.0
  1
穴あけ\U+2205360
  0
DIMASSOC
  5
4BD
102
{ACAD_REACTORS
330
4B3
102
}
330
4B3
100
AcDbDimAssoc
330
4A6
 90
        1
 70
     0
 71
     0
  1
AcDbOsnapPointRef
 72
    13
331
22E
 73
     2
 91
        0
 40
0.0
 10
1189.83481308232
 20
355.0669511966332
 30
0.0
 75
     0
  0
DIMASSOC
  5
4D5
102
{ACAD_REACTORS
330
4CB
102
}
330
4CB
100
AcDbDimAssoc
330
4BE
 90
        3
 70
     0
 71
     0
  1
AcDbOsnapPointRef
 72
    13
331
225
 73
     2
 91
        0
 40
0.0
 10
803.8348130823202
 20
355.0669511966332
 30
0.0
 75
     0
  1
AcDbOsnapPointRef
 72
    13
331
263
 73
     2
 91
        0
 40
0.0
 10
959.0348130823203
 20
130.8825797776225
 30
0.0
 75
     0
  0
DIMASSOC
  5
838
102
{ACAD_REACTORS
330
82F
102
}
330
82F
100
AcDbDimAssoc
330
823
 90
        2
 70
     0
 71
     0
  1
AcDbOsnapPointRef
 72
     3
331
218
 73
     2
 91
        0
 40
0.0
 10
996.8348130823203
 20
630.448086610061
 30
0.0
 75
     0
  0
DIMASSOC
  5
97D
102
{ACAD_REACTORS
330
971
102
}
330
971
100
AcDbDimAssoc
330
962
 90
        3
 70
     0
 71
     0
  1
AcDbOsnapPointRef
 72
    13
331
225
 73
     2
 91
        0
 40
0.0
 10
803.8348130823202
 20
355.0669511966332
 30
0.0
 75
     0
  1
AcDbOsnapPointRef
 72
     1
331
223
 73
     2
 91
        0
 40
1.0
 10
801.8348130823204
 20
347.0669511966331
 30
0.0
 75
     0
  0
ACDBDETAILVIEWSTYLE
  5
C22
102
{ACAD_XDICTIONARY
360
C42
102
}
102
{ACAD_REACTORS
330
C21
102
}
330
C21
100
AcDbModelDocViewStyle
 70
     0
  3
Metric50
290
     0
100
AcDbDetailViewStyle
 70
     0
 71
     0
 90
        3
 71
     1
340
11
 62
   256
 40
5.0
340
0
 62
   256
 40
5.0
300

 40
0.0
280
     1
 71
     2
340
16
 90
       25
 62
   256
 71
     3
340
11
 62
   256
 40
5.0
 90
        0
 40
15.0
 90
        1
300
%<\AcVar ViewDetailId>% (%<\AcVar ViewScale \f "%sn">%)
 71
     4
340
16
 90
       25
 62
   256
340
16
 90
       25
 62
   256
280
     0
  0
LAYOUT
  5
22
102
{ACAD_REACTORS
330
1A
102
}
330
1A
100
AcDbPlotSettings
  1

  2
Adobe PDF
  4
A4
  6

 40
3.174999952316283
 41
3.174999952316283
 42
3.175003051757812
 43
3.17498779296875
 44
209.9098358154297
 45
297.0318298339843
 46
0.0
 47
1.0
 48
0.0
 49
0.0
140
0.0
141
0.0
142
1.0
143
3.725039799155398
 70
 11956
 72
     1
 73
     0
 74
     1
  7
fuji.stb
 75
     0
147
0.268453507591177
 76
     0
 77
     2
 78
   300
148
-598.2321278047479
149
113.5189514914991
100
AcDbLayout
  1
Model
 70
     1
 71
     0
 10
0.0
 20
0.0
 11
12.0
 21
9.0
 12
0.0
 22
0.0
 32
0.0
 14
0.0
 24
0.0
 34
0.0
 15
0.0
 25
0.0
 35
0.0
146
0.0
 13
0.0
 23
0.0
 33
0.0
 16
1.0
 26
0.0
 36
0.0
 17
0.0
 27
1.0
 37
0.0
 76
     0
330
1F
331
BD3
  0
LAYOUT
  5
1E
102
{ACAD_REACTORS
330
1A
102
}
330
1A
100
AcDbPlotSettings
  1

  2
EPSON PM-3000C ESC/P R (コピー 3)
  4

  6

 40
0.0
 41
0.0
 42
0.0
 43
0.0
 44
0.0
 45
0.0
 46
0.0
 47
0.0
 48
0.0
 49
0.0
140
0.0
141
0.0
142
1.0
143
1.0
 70
   688
 72
     0
 73
     0
 74
     5
  7
fuji.stb
 75
    16
147
1.0
 76
     0
 77
     2
 78
   300
148
0.0
149
0.0
100
AcDbLayout
  1
ﾚｲｱｳﾄ1
 70
     1
 71
     1
 10
0.0
 20
0.0
 11
420.0
 21
297.0
 12
0.0
 22
0.0
 32
0.0
 14
1.000000000000000E+20
 24
1.000000000000000E+20
 34
1.000000000000000E+20
 15
-1.000000000000000E+20
 25
-1.000000000000000E+20
 35
-1.000000000000000E+20
146
0.0
 13
0.0
 23
0.0
 33
0.0
 16
1.0
 26
0.0
 36
0.0
 17
0.0
 27
1.0
 37
0.0
 76
     0
330
1B
  0
LAYOUT
  5
26
102
{ACAD_REACTORS
330
1A
102
}
330
1A
100
AcDbPlotSettings
  1

  2
EPSON PM-3000C ESC/P R (コピー 3)
  4

  6

 40
0.0
 41
0.0
 42
0.0
 43
0.0
 44
0.0
 45
0.0
 46
0.0
 47
0.0
 48
0.0
 49
0.0
140
0.0
141
0.0
142
1.0
143
1.0
 70
   688
 72
     0
 73
     0
 74
     5
  7
fuji.stb
 75
    16
147
1.0
 76
     0
 77
     2
 78
   300
148
0.0
149
0.0
100
AcDbLayout
  1
ﾚｲｱｳﾄ2
 70
     1
 71
     2
 10
0.0
 20
0.0
 11
12.0
 21
9.0
 12
0.0
 22
0.0
 32
0.0
 14
0.0
 24
0.0
 34
0.0
 15
0.0
 25
0.0
 35
0.0
146
0.0
 13
0.0
 23
0.0
 33
0.0
 16
1.0
 26
0.0
 36
0.0
 17
0.0
 27
1.0
 37
0.0
 76
     0
330
23
  0
MATERIAL
  5
BDF
102
{ACAD_XDICTIONARY
360
BE0
102
}
102
{ACAD_REACTORS
330
BD6
102
}
330
BD6
100
AcDbMaterial
  1
ByBlock
 72
     0
 43
0.0008202099737533
 43
0.0
 43
0.0
 43
0.0
 43
0.0
 43
0.0008202099737533
 43
0.0
 43
0.0
 43
0.0
 43
0.0
 43
1.0
 43
0.0
 43
0.0
 43
0.0
 43
0.0
 43
1.0
 77
     0
 47
0.0008202099737533
 47
0.0
 47
0.0
 47
0.0
 47
0.0
 47
0.0008202099737533
 47
0.0
 47
0.0
 47
0.0
 47
0.0
 47
1.0
 47
0.0
 47
0.0
 47
0.0
 47
0.0
 47
1.0
171
     0
 49
0.0008202099737533
 49
0.0
 49
0.0
 49
0.0
 49
0.0
 49
0.0008202099737533
 49
0.0
 49
0.0
 49
0.0
 49
0.0
 49
1.0
 49
0.0
 49
0.0
 49
0.0
 49
0.0
 49
1.0
175
     0
142
0.0008202099737533
142
0.0
142
0.0
142
0.0
142
0.0
142
0.0008202099737533
142
0.0
142
0.0
142
0.0
142
0.0
142
1.0
142
0.0
142
0.0
142
0.0
142
0.0
142
1.0
179
     0
144
0.0008202099737533
144
0.0
144
0.0
144
0.0
144
0.0
144
0.0008202099737533
144
0.0
144
0.0
144
0.0
144
0.0
144
1.0
144
0.0
144
0.0
144
0.0
144
0.0
144
1.0
147
0.0008202099737533
147
0.0
147
0.0
147
0.0
147
0.0
147
0.0008202099737533
147
0.0
147
0.0
147
0.0
147
0.0
147
1.0
147
0.0
147
0.0
147
0.0
147
0.0
147
1.0
  0
MATERIAL
  5
BD7
102
{ACAD_XDICTIONARY
360
BD8
102
}
102
{ACAD_REACTORS
330
BD6
102
}
330
BD6
100
AcDbMaterial
  1
ByLayer
 72
     0
 43
0.0008202099737533
 43
0.0
 43
0.0
 43
0.0
 43
0.0
 43
0.0008202099737533
 43
0.0
 43
0.0
 43
0.0
 43
0.0
 43
1.0
 43
0.0
 43
0.0
 43
0.0
 43
0.0
 43
1.0
 77
     0
 47
0.0008202099737533
 47
0.0
 47
0.0
 47
0.0
 47
0.0
 47
0.0008202099737533
 47
0.0
 47
0.0
 47
0.0
 47
0.0
 47
1.0
 47
0.0
 47
0.0
 47
0.0
 47
0.0
 47
1.0
171
     0
 49
0.0008202099737533
 49
0.0
 49
0.0
 49
0.0
 49
0.0
 49
0.0008202099737533
 49
0.0
 49
0.0
 49
0.0
 49
0.0
 49
1.0
 49
0.0
 49
0.0
 49
0.0
 49
0.0
 49
1.0
175
     0
142
0.0008202099737533
142
0.0
142
0.0
142
0.0
142
0.0
142
0.0008202099737533
142
0.0
142
0.0
142
0.0
142
0.0
142
1.0
142
0.0
142
0.0
142
0.0
142
0.0
142
1.0
179
     0
144
0.0008202099737533
144
0.0
144
0.0
144
0.0
144
0.0
144
0.0008202099737533
144
0.0
144
0.0
144
0.0
144
0.0
144
1.0
144
0.0
144
0.0
144
0.0
144
0.0
144
1.0
147
0.0008202099737533
147
0.0
147
0.0
147
0.0
147
0.0
147
0.0008202099737533
147
0.0
147
0.0
147
0.0
147
0.0
147
1.0
147
0.0
147
0.0
147
0.0
147
0.0
147
1.0
  0
MATERIAL
  5
BE7
102
{ACAD_XDICTIONARY
360
BE8
102
}
102
{ACAD_REACTORS
330
BD6
102
}
330
BD6
100
AcDbMaterial
  1
Global
 72
     0
 43
0.0008202099737533
 43
0.0
 43
0.0
 43
0.0
 43
0.0
 43
0.0008202099737533
 43
0.0
 43
0.0
 43
0.0
 43
0.0
 43
1.0
 43
0.0
 43
0.0
 43
0.0
 43
0.0
 43
1.0
 77
     0
 47
0.0008202099737533
 47
0.0
 47
0.0
 47
0.0
 47
0.0
 47
0.0008202099737533
 47
0.0
 47
0.0
 47
0.0
 47
0.0
 47
1.0
 47
0.0
 47
0.0
 47
0.0
 47
0.0
 47
1.0
171
     0
 49
0.0008202099737533
 49
0.0
 49
0.0
 49
0.0
 49
0.0
 49
0.0008202099737533
 49
0.0
 49
0.0
 49
0.0
 49
0.0
 49
1.0
 49
0.0
 49
0.0
 49
0.0
 49
0.0
 49
1.0
175
     0
142
0.0008202099737533
142
0.0
142
0.0
142
0.0
142
0.0
142
0.0008202099737533
142
0.0
142
0.0
142
0.0
142
0.0
142
1.0
142
0.0
142
0.0
142
0.0
142
0.0
142
1.0
179
     0
144
0.0008202099737533
144
0.0
144
0.0
144
0.0
144
0.0
144
0.0008202099737533
144
0.0
144
0.0
144
0.0
144
0.0
144
1.0
144
0.0
144
0.0
144
0.0
144
0.0
144
1.0
147
0.0008202099737533
147
0.0
147
0.0
147
0.0
147
0.0
147
0.0008202099737533
147
0.0
147
0.0
147
0.0
147
0.0
147
1.0
147
0.0
147
0.0
147
0.0
147
0.0
147
1.0
  0
MLEADERSTYLE
  5
C1E
102
{ACAD_REACTORS
330
C1D
102
}
330
C1D
100
AcDbMLeaderStyle
170
     2
171
     1
172
     0
 90
        2
 40
0.0
 41
0.0
173
     1
 91
-1056964608
340
14
 92
       -2
290
     1
 42
2.0
291
     1
 43
0.36
  3
Standard
 44
4.0
300

342
11
174
     1
178
     6
175
     1
176
     0
 93
-1056964608
 45
4.0
292
     0
297
     0
 46
4.0
 94
-1056964608
 47
1.0
 49
1.0
140
1.0
293
     1
141
0.0
294
     1
177
     0
142
1.0
295
     0
296
     0
143
0.125
1001
ACAD_MLEADERVER
1070
     2
  0
MLINESTYLE
  5
18
102
{ACAD_REACTORS
330
17
102
}
330
17
100
AcDbMlineStyle
  2
STANDARD
 70
     0
  3

 62
   256
 51
90.0
 52
90.0
 71
     2
 49
0.5
 62
   256
  6
BYLAYER
 49
-0.5
 62
   256
  6
BYLAYER
  0
ACDBPLACEHOLDER
  5
F
102
{ACAD_REACTORS
330
E
102
}
330
E
  0
SCALE
  5
C0C
102
{ACAD_REACTORS
330
C0B
102
}
330
C0B
100
AcDbScale
 70
     0
300
1:1
140
1.0
141
1.0
290
     1
  0
SCALE
  5
C0D
102
{ACAD_REACTORS
330
C0B
102
}
330
C0B
100
AcDbScale
 70
     0
300
1:2
140
1.0
141
2.0
290
     0
  0
SCALE
  5
C0E
102
{ACAD_REACTORS
330
C0B
102
}
330
C0B
100
AcDbScale
 70
     0
300
1:4
140
1.0
141
4.0
290
     0
  0
SCALE
  5
C0F
102
{ACAD_REACTORS
330
C0B
102
}
330
C0B
100
AcDbScale
 70
     0
300
1:5
140
1.0
141
5.0
290
     0
  0
SCALE
  5
C10
102
{ACAD_REACTORS
330
C0B
102
}
330
C0B
100
AcDbScale
 70
     0
300
1:8
140
1.0
141
8.0
290
     0
  0
SCALE
  5
C11
102
{ACAD_REACTORS
330
C0B
102
}
330
C0B
100
AcDbScale
 70
     0
300
1:10
140
1.0
141
10.0
290
     0
  0
SCALE
  5
C12
102
{ACAD_REACTORS
330
C0B
102
}
330
C0B
100
AcDbScale
 70
     0
300
1:16
140
1.0
141
16.0
290
     0
  0
SCALE
  5
C13
102
{ACAD_REACTORS
330
C0B
102
}
330
C0B
100
AcDbScale
 70
     0
300
1:20
140
1.0
141
20.0
290
     0
  0
SCALE
  5
C14
102
{ACAD_REACTORS
330
C0B
102
}
330
C0B
100
AcDbScale
 70
     0
300
1:30
140
1.0
141
30.0
290
     0
  0
SCALE
  5
C15
102
{ACAD_REACTORS
330
C0B
102
}
330
C0B
100
AcDbScale
 70
     0
300
1:40
140
1.0
141
40.0
290
     0
  0
SCALE
  5
C16
102
{ACAD_REACTORS
330
C0B
102
}
330
C0B
100
AcDbScale
 70
     0
300
1:50
140
1.0
141
50.0
290
     0
  0
SCALE
  5
C17
102
{ACAD_REACTORS
330
C0B
102
}
330
C0B
100
AcDbScale
 70
     0
300
1:100
140
1.0
141
100.0
290
     0
  0
SCALE
  5
C18
102
{ACAD_REACTORS
330
C0B
102
}
330
C0B
100
AcDbScale
 70
     0
300
2:1
140
2.0
141
1.0
290
     0
  0
SCALE
  5
C19
102
{ACAD_REACTORS
330
C0B
102
}
330
C0B
100
AcDbScale
 70
     0
300
4:1
140
4.0
141
1.0
290
     0
  0
SCALE
  5
C1A
102
{ACAD_REACTORS
330
C0B
102
}
330
C0B
100
AcDbScale
 70
     0
300
8:1
140
8.0
141
1.0
290
     0
  0
SCALE
  5
C1B
102
{ACAD_REACTORS
330
C0B
102
}
330
C0B
100
AcDbScale
 70
     0
300
10:1
140
10.0
141
1.0
290
     0
  0
SCALE
  5
C1C
102
{ACAD_REACTORS
330
C0B
102
}
330
C0B
100
AcDbScale
 70
     0
300
100:1
140
100.0
141
1.0
290
     0
  0
ACDBSECTIONVIEWSTYLE
  5
C20
102
{ACAD_XDICTIONARY
360
C40
102
}
102
{ACAD_REACTORS
330
C1F
102
}
330
C1F
100
AcDbModelDocViewStyle
 70
     0
  3
Metric50
290
     0
100
AcDbSectionViewStyle
 70
     0
 71
     0
 90
      102
 71
     1
340
11
 62
   256
 40
5.0
340
0
340
0
 62
   256
 40
5.0
300
I, O, Q, S, X, Z
 40
10.0
 90
        0
 40
2.5
 90
        0
 71
     2
340
16
 90
       25
 62
   256
340
16
 90
       50
 62
   256
 40
5.0
 40
2.5
 40
5.0
 71
     3
340
11
 62
   256
 40
5.0
 90
        0
 40
15.0
 90
        1
300
%<\AcVar ViewSectionStartId>%-%<\AcVar ViewSectionEndId>% (%<\AcVar ViewScale \f "%sn">%)
 71
     4
 62
   256
 62
   257
300
ANSI31
 40
1.0
 90
        0
290
     0
290
     0
 90
        6
 40
0.0
 40
1.570796326794896
 40
0.2617993877991494
 40
1.308996938995747
 40
-0.2617993877991494
 40
1.832595714594046
  0
TABLESTYLE
  5
C0A
102
{ACAD_XDICTIONARY
360
E62
102
}
102
{ACAD_REACTORS
330
C09
102
}
330
C09
100
AcDbTableStyle
  3
Standard
 70
     0
 71
     0
 40
1.5
 41
1.5
280
     0
281
     0
  7
Standard
140
4.5
170
     2
 62
     0
 63
     7
283
     0
274
    -2
284
     1
 64
     0
275
    -2
285
     1
 65
     0
276
    -2
286
     1
 66
     0
277
    -2
287
     1
 67
     0
278
    -2
288
     1
 68
     0
279
    -2
289
     1
 69
     0
  7
Standard
140
6.0
170
     5
 62
     0
 63
     7
283
     0
274
    -2
284
     1
 64
     0
275
    -2
285
     1
 65
     0
276
    -2
286
     1
 66
     0
277
    -2
287
     1
 67
     0
278
    -2
288
     1
 68
     0
279
    -2
289
     1
 69
     0
  7
Standard
140
4.5
170
     5
 62
     0
 63
     7
283
     0
274
    -2
284
     1
 64
     0
275
    -2
285
     1
 65
     0
276
    -2
286
     1
 66
     0
277
    -2
287
     1
 67
     0
278
    -2
288
     1
 68
     0
279
    -2
289
     1
 69
     0
  0
VISUALSTYLE
  5
BF5
102
{ACAD_XDICTIONARY
360
E7C
102
}
102
{ACAD_REACTORS
330
BEF
102
}
330
BEF
100
AcDbVisualStyle
  2
2dWireframe
 70
     4
 71
     0
 72
     2
 73
     0
 90
        0
 40
-0.6
 41
-30.0
 62
     5
 63
     7
421
 16777215
 74
     1
 91
        4
 64
     7
 65
   257
 75
     1
175
     1
 42
1.0
 92
        0
 66
   257
 43
1.0
 76
     1
 77
     6
 78
     2
 67
     7
 79
     5
170
     0
171
     0
290
     0
174
     0
 93
        1
 44
0.0
173
     0
291
     0
 45
0.0
1001
ACAD
1000
AcDbSavedByObjectVersion
1070
     0
  0
VISUALSTYLE
  5
BF4
102
{ACAD_XDICTIONARY
360
E7A
102
}
102
{ACAD_REACTORS
330
BEF
102
}
330
BEF
100
AcDbVisualStyle
  2
Basic
 70
     7
 71
     1
 72
     0
 73
     1
 90
        0
 40
-0.6
 41
-30.0
 62
     5
 63
     7
421
 16777215
 74
     0
 91
        4
 64
     7
 65
   257
 75
     1
175
     1
 42
1.0
 92
        8
 66
     7
 43
1.0
 76
     1
 77
     6
 78
     2
 67
     7
 79
     5
170
     0
171
     0
290
     0
174
     0
 93
        1
 44
0.0
173
     0
291
     1
 45
0.0
1001
ACAD
1000
AcDbSavedByObjectVersion
1070
     0
  0
VISUALSTYLE
  5
BFB
102
{ACAD_XDICTIONARY
360
E88
102
}
102
{ACAD_REACTORS
330
BEF
102
}
330
BEF
100
AcDbVisualStyle
  2
Brighten
 70
    12
 71
     2
 72
     2
 73
     0
 90
        0
 40
-0.6
 41
-30.0
 62
     5
 63
     7
421
 16777215
 74
     1
 91
        4
 64
     7
 65
   257
 75
     1
175
     1
 42
1.0
 92
        8
 66
     7
 43
1.0
 76
     1
 77
     6
 78
     2
 67
     7
 79
     5
170
     0
171
     0
290
     0
174
     0
 93
        1
 44
50.0
173
     0
291
     1
 45
0.0
1001
ACAD
1000
AcDbSavedByObjectVersion
1070
     0
  0
VISUALSTYLE
  5
BFF
102
{ACAD_XDICTIONARY
360
E90
102
}
102
{ACAD_REACTORS
330
BEF
102
}
330
BEF
100
AcDbVisualStyle
  2
ColorChange
 70
    16
 71
     2
 72
     2
 73
     3
 90
        0
 40
-0.6
 41
-30.0
 62
     5
 63
     8
421
  8421504
 74
     1
 91
        4
 64
     7
 65
   257
 75
     1
175
     1
 42
1.0
 92
        8
 66
     8
424
  8421504
 43
1.0
 76
     1
 77
     6
 78
     2
 67
     7
 79
     5
170
     0
171
     0
290
     0
174
     0
 93
        1
 44
0.0
173
     0
291
     1
 45
0.0
1001
ACAD
1000
AcDbSavedByObjectVersion
1070
     0
  0
VISUALSTYLE
  5
BF8
102
{ACAD_XDICTIONARY
360
E82
102
}
102
{ACAD_REACTORS
330
BEF
102
}
330
BEF
100
AcDbVisualStyle
  2
Conceptual
 70
     9
 71
     3
 72
     2
 73
     0
 90
        0
 40
-0.6
 41
-30.0
 62
     5
 63
     7
421
 16777215
 74
     2
 91
        2
 64
     7
 65
   257
 75
     1
175
     1
 42
179.0
 92
        8
 66
     7
 43
1.0
 76
     1
 77
     6
 78
     2
 67
     7
 79
     3
170
     0
171
     0
290
     0
174
     0
 93
        1
 44
0.0
173
     0
291
     0
 45
0.0
1001
ACAD
1000
AcDbSavedByObjectVersion
1070
     0
  0
VISUALSTYLE
  5
BFA
102
{ACAD_XDICTIONARY
360
E86
102
}
102
{ACAD_REACTORS
330
BEF
102
}
330
BEF
100
AcDbVisualStyle
  2
Dim
 70
    11
 71
     2
 72
     2
 73
     0
 90
        0
 40
-0.6
 41
-30.0
 62
     5
 63
     7
421
 16777215
 74
     1
 91
        4
 64
     7
 65
   257
 75
     1
175
     1
 42
1.0
 92
        8
 66
     7
 43
1.0
 76
     1
 77
     6
 78
     2
 67
     7
 79
     5
170
     0
171
     0
290
     0
174
     0
 93
        1
 44
-50.0
173
     0
291
     1
 45
0.0
1001
ACAD
1000
AcDbSavedByObjectVersion
1070
     0
  0
VISUALSTYLE
  5
C07
102
{ACAD_XDICTIONARY
360
EA0
102
}
102
{ACAD_REACTORS
330
BEF
102
}
330
BEF
100
AcDbVisualStyle
  2
EdgeColorOff
 70
    22
 71
     2
 72
     2
 73
     0
 90
        0
 40
-0.6
 41
-30.0
 62
     5
 63
     7
421
 16777215
 74
     1
 91
        4
 64
     7
 65
   257
 75
     1
175
     1
 42
1.0
 92
        8
 66
     7
 43
1.0
 76
     1
 77
     6
 78
     2
 67
     7
 79
     5
170
     0
171
     0
290
     0
174
     0
 93
        1
 44
0.0
173
     0
291
     1
 45
0.0
1001
ACAD
1000
AcDbSavedByObjectVersion
1070
     0
  0
VISUALSTYLE
  5
BFE
102
{ACAD_XDICTIONARY
360
E8E
102
}
102
{ACAD_REACTORS
330
BEF
102
}
330
BEF
100
AcDbVisualStyle
  2
Facepattern
 70
    15
 71
     2
 72
     2
 73
     0
 90
        0
 40
-0.6
 41
-30.0
 62
     5
 63
     7
421
 16777215
 74
     1
 91
        4
 64
     7
 65
   257
 75
     1
175
     1
 42
1.0
 92
        8
 66
     7
 43
1.0
 76
     1
 77
     6
 78
     2
 67
     7
 79
     5
170
     0
171
     0
290
     0
174
     0
 93
        1
 44
0.0
173
     0
291
     1
 45
0.0
1001
ACAD
1000
AcDbSavedByObjectVersion
1070
     0
  0
VISUALSTYLE
  5
BF0
102
{ACAD_XDICTIONARY
360
E72
102
}
102
{ACAD_REACTORS
330
BEF
102
}
330
BEF
100
AcDbVisualStyle
  2
Flat
 70
     0
 71
     2
 72
     1
 73
     1
 90
        2
 40
-0.6
 41
30.0
 62
     5
 63
     7
421
 16777215
 74
     0
 91
        0
 64
     7
 65
   257
 75
     1
175
     1
 42
1.0
 92
        8
 66
     7
 43
1.0
 76
     1
 77
     6
 78
     2
 67
     7
 79
     5
170
     0
171
     0
290
     0
174
     0
 93
       13
 44
0.0
173
     0
291
     1
 45
0.0
1001
ACAD
1000
AcDbSavedByObjectVersion
1070
     0
  0
VISUALSTYLE
  5
BF1
102
{ACAD_XDICTIONARY
360
E74
102
}
102
{ACAD_REACTORS
330
BEF
102
}
330
BEF
100
AcDbVisualStyle
  2
FlatWithEdges
 70
     1
 71
     2
 72
     1
 73
     1
 90
        2
 40
-0.6
 41
30.0
 62
     5
 63
     7
421
 16777215
 74
     1
 91
        0
 64
     7
 65
   257
 75
     1
175
     1
 42
1.0
 92
        0
 66
   257
 43
1.0
 76
     1
 77
     6
 78
     2
 67
     7
 79
     5
170
     0
171
     0
290
     0
174
     0
 93
       13
 44
0.0
173
     0
291
     1
 45
0.0
1001
ACAD
1000
AcDbSavedByObjectVersion
1070
     0
  0
VISUALSTYLE
  5
BF2
102
{ACAD_XDICTIONARY
360
E76
102
}
102
{ACAD_REACTORS
330
BEF
102
}
330
BEF
100
AcDbVisualStyle
  2
Gouraud
 70
     2
 71
     2
 72
     2
 73
     1
 90
        2
 40
-0.6
 41
30.0
 62
     5
 63
     7
421
 16777215
 74
     0
 91
        0
 64
     7
 65
   257
 75
     1
175
     1
 42
1.0
 92
        0
 66
     7
 43
1.0
 76
     1
 77
     6
 78
     2
 67
     7
 79
     5
170
     0
171
     0
290
     0
174
     0
 93
       13
 44
0.0
173
     0
291
     1
 45
0.0
1001
ACAD
1000
AcDbSavedByObjectVersion
1070
     0
  0
VISUALSTYLE
  5
BF3
102
{ACAD_XDICTIONARY
360
E78
102
}
102
{ACAD_REACTORS
330
BEF
102
}
330
BEF
100
AcDbVisualStyle
  2
GouraudWithEdges
 70
     3
 71
     2
 72
     2
 73
     1
 90
        2
 40
-0.6
 41
30.0
 62
     5
 63
     7
421
 16777215
 74
     1
 91
        0
 64
     7
 65
   257
 75
     1
175
     1
 42
1.0
 92
        0
 66
   257
 43
1.0
 76
     1
 77
     6
 78
     2
 67
     7
 79
     5
170
     0
171
     0
290
     0
174
     0
 93
       13
 44
0.0
173
     0
291
     1
 45
0.0
1001
ACAD
1000
AcDbSavedByObjectVersion
1070
     0
  0
VISUALSTYLE
  5
BF7
102
{ACAD_XDICTIONARY
360
E80
102
}
102
{ACAD_REACTORS
330
BEF
102
}
330
BEF
100
AcDbVisualStyle
  2
Hidden
 70
     6
 71
     1
 72
     2
 73
     2
 90
        0
 40
-0.6
 41
-30.0
 62
     5
 63
     7
421
 16777215
 74
     2
 91
        2
 64
     7
 65
   257
 75
     2
175
     1
 42
40.0
 92
        0
 66
   257
 43
1.0
 76
     1
 77
     6
 78
     2
 67
     7
 79
     3
170
     0
171
     0
290
     0
174
     0
 93
        1
 44
0.0
173
     0
291
     0
 45
0.0
1001
ACAD
1000
AcDbSavedByObjectVersion
1070
     0
  0
VISUALSTYLE
  5
C05
102
{ACAD_XDICTIONARY
360
E9C
102
}
102
{ACAD_REACTORS
330
BEF
102
}
330
BEF
100
AcDbVisualStyle
  2
JitterOff
 70
    20
 71
     2
 72
     2
 73
     0
 90
        0
 40
-0.6
 41
-30.0
 62
     5
 63
     7
421
 16777215
 74
     1
 91
        4
 64
     7
 65
   257
 75
     1
175
     1
 42
1.0
 92
       10
 66
     7
 43
1.0
 76
     1
 77
     6
 78
     2
 67
     7
 79
     5
170
     0
171
     0
290
     0
174
     0
 93
        1
 44
0.0
173
     0
291
     1
 45
0.0
1001
ACAD
1000
AcDbSavedByObjectVersion
1070
     0
  0
VISUALSTYLE
  5
BFD
102
{ACAD_XDICTIONARY
360
E8C
102
}
102
{ACAD_REACTORS
330
BEF
102
}
330
BEF
100
AcDbVisualStyle
  2
Linepattern
 70
    14
 71
     2
 72
     2
 73
     0
 90
        0
 40
-0.6
 41
-30.0
 62
     5
 63
     7
421
 16777215
 74
     1
 91
        4
 64
     7
 65
   257
 75
     7
175
     7
 42
1.0
 92
        8
 66
     7
 43
1.0
 76
     1
 77
     6
 78
     2
 67
     7
 79
     5
170
     0
171
     0
290
     0
174
     0
 93
        1
 44
0.0
173
     0
291
     1
 45
0.0
1001
ACAD
1000
AcDbSavedByObjectVersion
1070
     0
  0
VISUALSTYLE
  5
C06
102
{ACAD_XDICTIONARY
360
E9E
102
}
102
{ACAD_REACTORS
330
BEF
102
}
330
BEF
100
AcDbVisualStyle
  2
OverhangOff
 70
    21
 71
     2
 72
     2
 73
     0
 90
        0
 40
-0.6
 41
-30.0
 62
     5
 63
     7
421
 16777215
 74
     1
 91
        4
 64
     7
 65
   257
 75
     1
175
     1
 42
1.0
 92
        9
 66
     7
 43
1.0
 76
     1
 77
     6
 78
     2
 67
     7
 79
     5
170
     0
171
     0
290
     0
174
     0
 93
        1
 44
0.0
173
     0
291
     1
 45
0.0
1001
ACAD
1000
AcDbSavedByObjectVersion
1070
     0
  0
VISUALSTYLE
  5
BF9
102
{ACAD_XDICTIONARY
360
E84
102
}
102
{ACAD_REACTORS
330
BEF
102
}
330
BEF
100
AcDbVisualStyle
  2
Realistic
 70
     8
 71
     2
 72
     3
 73
     0
 90
        2
 40
-0.6
 41
30.0
 62
     5
 63
     7
421
 16777215
 74
     0
 91
        0
 64
     7
 65
   257
 75
     1
175
     1
 42
1.0
 92
        8
 66
   257
 43
1.0
 76
     1
 77
     6
 78
     2
 67
     7
 79
     3
170
     0
171
     0
290
     0
174
     0
 93
       13
 44
0.0
173
     0
291
     0
 45
0.0
1001
ACAD
1000
AcDbSavedByObjectVersion
1070
     0
  0
VISUALSTYLE
  5
C04
102
{ACAD_XDICTIONARY
360
E9A
102
}
102
{ACAD_REACTORS
330
BEF
102
}
330
BEF
100
AcDbVisualStyle
  2
Shaded
 70
    27
 71
     2
 72
     2
 73
     1
 90
        2
 40
-0.6
 41
30.0
 62
     5
 63
     7
421
 16777215
 74
     0
 91
        4
 64
     7
 65
   257
 75
     1
175
     1
 42
1.0
 92
        8
 66
   257
 43
1.0
 76
     1
 77
     6
 78
     2
 67
     8
425
  7895160
 79
     3
170
     0
171
     0
290
     0
174
     0
 93
        5
 44
0.0
173
     0
291
     0
 45
0.0
1001
ACAD
1000
AcDbSavedByObjectVersion
1070
     0
  0
VISUALSTYLE
  5
C03
102
{ACAD_XDICTIONARY
360
E98
102
}
102
{ACAD_REACTORS
330
BEF
102
}
330
BEF
100
AcDbVisualStyle
  2
Shaded with edges
 70
    26
 71
     2
 72
     2
 73
     1
 90
        2
 40
-0.6
 41
30.0
 62
     5
 63
     7
421
 16777215
 74
     1
 91
       10
 64
     7
 65
   257
 75
     2
175
     1
 42
1.0
 92
        8
 66
   257
 43
1.0
 76
     1
 77
     6
 78
     2
 67
     7
 79
     3
170
     0
171
     0
290
     0
174
     0
 93
        5
 44
0.0
173
     0
291
     0
 45
0.0
1001
ACAD
1000
AcDbSavedByObjectVersion
1070
     0
  0
VISUALSTYLE
  5
C00
102
{ACAD_XDICTIONARY
360
E92
102
}
102
{ACAD_REACTORS
330
BEF
102
}
330
BEF
100
AcDbVisualStyle
  2
Shades of Gray
 70
    23
 71
     2
 72
     2
 73
     3
 90
        0
 40
-0.6
 41
-30.0
 62
     5
 63
     7
421
 16777215
 74
     2
 91
        2
 64
     7
 65
     7
 75
     1
175
     1
 42
40.0
 92
        8
 66
     7
 43
1.0
 76
     1
 77
     6
 78
     2
 67
     7
 79
     3
170
     0
171
     0
290
     0
174
     0
 93
        1
 44
0.0
173
     0
291
     0
 45
0.0
1001
ACAD
1000
AcDbSavedByObjectVersion
1070
     0
  0
VISUALSTYLE
  5
C01
102
{ACAD_XDICTIONARY
360
E94
102
}
102
{ACAD_REACTORS
330
BEF
102
}
330
BEF
100
AcDbVisualStyle
  2
Sketchy
 70
    24
 71
     1
 72
     2
 73
     2
 90
        0
 40
-0.6
 41
-30.0
 62
     5
 63
     7
421
 16777215
 74
     2
 91
        2
 64
     7
 65
     7
 75
     1
175
     1
 42
40.0
 92
       11
 66
     7
 43
1.0
 76
     1
 77
     6
 78
     2
 67
     7
 79
     6
170
     0
171
     0
290
     0
174
     0
 93
        1
 44
0.0
173
     0
291
     0
 45
0.0
1001
ACAD
1000
AcDbSavedByObjectVersion
1070
     0
  0
VISUALSTYLE
  5
BFC
102
{ACAD_XDICTIONARY
360
E8A
102
}
102
{ACAD_REACTORS
330
BEF
102
}
330
BEF
100
AcDbVisualStyle
  2
Thicken
 70
    13
 71
     2
 72
     2
 73
     0
 90
        0
 40
-0.6
 41
-30.0
 62
     5
 63
     7
421
 16777215
 74
     1
 91
        4
 64
     7
 65
   257
 75
     1
175
     1
 42
1.0
 92
       12
 66
     7
 43
1.0
 76
     1
 77
     6
 78
     2
 67
     7
 79
     5
170
     0
171
     0
290
     0
174
     0
 93
        1
 44
0.0
173
     0
291
     1
 45
0.0
1001
ACAD
1000
AcDbSavedByObjectVersion
1070
     0
  0
VISUALSTYLE
  5
BF6
102
{ACAD_XDICTIONARY
360
E7E
102
}
102
{ACAD_REACTORS
330
BEF
102
}
330
BEF
100
AcDbVisualStyle
  2
Wireframe
 70
     5
 71
     0
 72
     2
 73
     0
 90
        0
 40
-0.6
 41
-30.0
 62
     5
 63
     7
421
 16777215
 74
     1
 91
        4
 64
     7
 65
   257
 75
     1
175
     1
 42
1.0
 92
        0
 66
   257
 43
1.0
 76
     1
 77
     6
 78
     2
 67
     7
 79
     3
170
     0
171
     0
290
     0
174
     0
 93
        1
 44
0.0
173
     0
291
     0
 45
0.0
1001
ACAD
1000
AcDbSavedByObjectVersion
1070
     0
  0
VISUALSTYLE
  5
C02
102
{ACAD_XDICTIONARY
360
E96
102
}
102
{ACAD_REACTORS
330
BEF
102
}
330
BEF
100
AcDbVisualStyle
  2
X-Ray
 70
    25
 71
     2
 72
     2
 73
     1
 90
        1
 40
0.5
 41
-30.0
 62
     5
 63
     7
421
 16777215
 74
     1
 91
        0
 64
     7
 65
   257
 75
     1
175
     1
 42
1.0
 92
        8
 66
     7
 43
1.0
 76
     1
 77
     6
 78
     2
 67
     7
 79
     3
170
     0
171
     0
290
     0
174
     0
 93
       13
 44
0.0
173
     0
291
     0
 45
0.0
1001
ACAD
1000
AcDbSavedByObjectVersion
1070
     0
  0
DICTIONARYVAR
  5
C4A
102
{ACAD_REACTORS
330
C7
102
}
330
C7
100
DictionaryVariables
280
     0
  1
1:1
  0
DICTIONARYVAR
  5
C46
102
{ACAD_REACTORS
330
C7
102
}
330
C7
100
DictionaryVariables
280
     0
  1
STANDARD
  0
DICTIONARYVAR
  5
C45
102
{ACAD_REACTORS
330
C7
102
}
330
C7
100
DictionaryVariables
280
     0
  1
STANDARD
  0
DICTIONARYVAR
  5
C47
102
{ACAD_REACTORS
330
C7
102
}
330
C7
100
DictionaryVariables
280
     0
  1
Metric50
  0
DICTIONARYVAR
  5
C48
102
{ACAD_REACTORS
330
C7
102
}
330
C7
100
DictionaryVariables
280
     0
  1
Metric50
  0
DICTIONARYVAR
  5
C9
102
{ACAD_REACTORS
330
C7
102
}
330
C7
100
DictionaryVariables
280
     0
  1
2
  0
DICTIONARYVAR
  5
C8
102
{ACAD_REACTORS
330
C7
102
}
330
C7
100
DictionaryVariables
280
     0
  1
1
  0
DICTIONARYVAR
  5
C4C
102
{ACAD_REACTORS
330
C7
102
}
330
C7
100
DictionaryVariables
280
     0
  1
1
  0
DICTIONARYVAR
  5
C4D
102
{ACAD_REACTORS
330
C7
102
}
330
C7
100
DictionaryVariables
280
     0
  1
15
  0
DICTIONARYVAR
  5
C4B
102
{ACAD_REACTORS
330
C7
102
}
330
C7
100
DictionaryVariables
280
     0
  1
0
  0
DICTIONARYVAR
  5
C49
102
{ACAD_REACTORS
330
C7
102
}
330
C7
100
DictionaryVariables
280
     0
  1
0
  0
DICTIONARYVAR
  5
E61
102
{ACAD_REACTORS
330
C7
102
}
330
C7
100
DictionaryVariables
280
     0
  1
2
  0
DICTIONARY
  5
E6C
102
{ACAD_REACTORS
330
E6A
102
}
330
E6A
100
AcDbDictionary
281
     1
  0
DICTIONARY
  5
E6B
102
{ACAD_REACTORS
330
E6A
102
}
330
E6A
100
AcDbDictionary
281
     1
  3
8796087857488
350
E65
  3
8796087857504
350
E66
  3
8796087857520
350
E67
  3
8796087857536
350
E68
  3
8796087857552
350
E69
  0
DICTIONARY
  5
C42
330
C22
100
AcDbDictionary
280
     1
281
     1
  3
ACAD_XREC_ROUNDTRIP
360
EA5
  0
DICTIONARY
  5
BE0
330
BDF
100
AcDbDictionary
280
     1
281
     1
  3
ACAD_XREC_ROUNDTRIP
360
E70
  3
BUMPTILE
360
BE2
  3
DIFFUSETILE
360
BE1
  3
OPACITYTILE
360
BE5
  3
REFLECTIONTILE
360
BE4
  3
REFRACTIONTILE
360
BE6
  3
SPECULARTILE
360
BE3
  0
DICTIONARY
  5
BD8
330
BD7
100
AcDbDictionary
280
     1
281
     1
  3
ACAD_XREC_ROUNDTRIP
360
E6F
  3
BUMPTILE
360
BDA
  3
DIFFUSETILE
360
BD9
  3
OPACITYTILE
360
BDD
  3
REFLECTIONTILE
360
BDC
  3
REFRACTIONTILE
360
BDE
  3
SPECULARTILE
360
BDB
  0
DICTIONARY
  5
BE8
330
BE7
100
AcDbDictionary
280
     1
281
     1
  3
ACAD_XREC_ROUNDTRIP
360
E71
  3
BUMPTILE
360
BEA
  3
DIFFUSETILE
360
BE9
  3
OPACITYTILE
360
BED
  3
REFLECTIONTILE
360
BEC
  3
REFRACTIONTILE
360
BEE
  3
SPECULARTILE
360
BEB
  0
DICTIONARY
  5
C40
330
C20
100
AcDbDictionary
280
     1
281
     1
  3
ACAD_XREC_ROUNDTRIP
360
EA4
  0
DICTIONARY
  5
E62
330
C0A
100
AcDbDictionary
280
     1
281
     1
  3
ACAD_ROUNDTRIP_2008_TABLESTYLE_CELLSTYLEMAP
360
E63
  3
ACAD_XREC_ROUNDTRIP
360
EA2
  0
DICTIONARY
  5
E7C
330
BF5
100
AcDbDictionary
280
     1
281
     1
  3
ACAD_XREC_ROUNDTRIP
360
E7D
  0
DICTIONARY
  5
E7A
330
BF4
100
AcDbDictionary
280
     1
281
     1
  3
ACAD_XREC_ROUNDTRIP
360
E7B
  0
DICTIONARY
  5
E88
330
BFB
100
AcDbDictionary
280
     1
281
     1
  3
ACAD_XREC_ROUNDTRIP
360
E89
  0
DICTIONARY
  5
E90
330
BFF
100
AcDbDictionary
280
     1
281
     1
  3
ACAD_XREC_ROUNDTRIP
360
E91
  0
DICTIONARY
  5
E82
330
BF8
100
AcDbDictionary
280
     1
281
     1
  3
ACAD_XREC_ROUNDTRIP
360
E83
  0
DICTIONARY
  5
E86
330
BFA
100
AcDbDictionary
280
     1
281
     1
  3
ACAD_XREC_ROUNDTRIP
360
E87
  0
DICTIONARY
  5
EA0
330
C07
100
AcDbDictionary
280
     1
281
     1
  3
ACAD_XREC_ROUNDTRIP
360
EA1
  0
DICTIONARY
  5
E8E
330
BFE
100
AcDbDictionary
280
     1
281
     1
  3
ACAD_XREC_ROUNDTRIP
360
E8F
  0
DICTIONARY
  5
E72
330
BF0
100
AcDbDictionary
280
     1
281
     1
  3
ACAD_XREC_ROUNDTRIP
360
E73
  0
DICTIONARY
  5
E74
330
BF1
100
AcDbDictionary
280
     1
281
     1
  3
ACAD_XREC_ROUNDTRIP
360
E75
  0
DICTIONARY
  5
E76
330
BF2
100
AcDbDictionary
280
     1
281
     1
  3
ACAD_XREC_ROUNDTRIP
360
E77
  0
DICTIONARY
  5
E78
330
BF3
100
AcDbDictionary
280
     1
281
     1
  3
ACAD_XREC_ROUNDTRIP
360
E79
  0
DICTIONARY
  5
E80
330
BF7
100
AcDbDictionary
280
     1
281
     1
  3
ACAD_XREC_ROUNDTRIP
360
E81
  0
DICTIONARY
  5
E9C
330
C05
100
AcDbDictionary
280
     1
281
     1
  3
ACAD_XREC_ROUNDTRIP
360
E9D
  0
DICTIONARY
  5
E8C
330
BFD
100
AcDbDictionary
280
     1
281
     1
  3
ACAD_XREC_ROUNDTRIP
360
E8D
  0
DICTIONARY
  5
E9E
330
C06
100
AcDbDictionary
280
     1
281
     1
  3
ACAD_XREC_ROUNDTRIP
360
E9F
  0
DICTIONARY
  5
E84
330
BF9
100
AcDbDictionary
280
     1
281
     1
  3
ACAD_XREC_ROUNDTRIP
360
E85
  0
DICTIONARY
  5
E9A
330
C04
100
AcDbDictionary
280
     1
281
     1
  3
ACAD_XREC_ROUNDTRIP
360
E9B
  0
DICTIONARY
  5
E98
330
C03
100
AcDbDictionary
280
     1
281
     1
  3
ACAD_XREC_ROUNDTRIP
360
E99
  0
DICTIONARY
  5
E92
330
C00
100
AcDbDictionary
280
     1
281
     1
  3
ACAD_XREC_ROUNDTRIP
360
E93
  0
DICTIONARY
  5
E94
330
C01
100
AcDbDictionary
280
     1
281
     1
  3
ACAD_XREC_ROUNDTRIP
360
E95
  0
DICTIONARY
  5
E8A
330
BFC
100
AcDbDictionary
280
     1
281
     1
  3
ACAD_XREC_ROUNDTRIP
360
E8B
  0
DICTIONARY
  5
E7E
330
BF6
100
AcDbDictionary
280
     1
281
     1
  3
ACAD_XREC_ROUNDTRIP
360
E7F
  0
DICTIONARY
  5
E96
330
C02
100
AcDbDictionary
280
     1
281
     1
  3
ACAD_XREC_ROUNDTRIP
360
E97
  0
XRECORD
  5
E65
102
{ACAD_REACTORS
330
E6B
102
}
330
E6B
100
AcDbXrecord
280
     1
  1
AcDb_Thumbnail_Schema
102
{ATTRRECORD
341
E66
  2
AcDbDs::TreatedAsObjectData
280
     1
291
     1
102
ATTRRECORD}
102
{ATTRRECORD
341
E67
  2
AcDbDs::Legacy
280
     1
291
     1
102
ATTRRECORD}
  2
AcDbDs::ID
280
    10
 91
        8
102
{ATTRRECORD
341
E68
  2
AcDs:Indexable
280
     1
291
     1
102
ATTRRECORD}
102
{ATTRRECORD
341
E69
  2
AcDbDs::HandleAttribute
280
     7
282
     1
102
ATTRRECORD}
  2
Thumbnail_Data
280
    15
 91
        0
  0
XRECORD
  5
E66
102
{ACAD_REACTORS
330
E6B
102
}
330
E6B
100
AcDbXrecord
280
     1
  1
AcDbDs::TreatedAsObjectDataSchema
  2
AcDbDs::TreatedAsObjectData
280
     1
 91
        0
  0
XRECORD
  5
E67
102
{ACAD_REACTORS
330
E6B
102
}
330
E6B
100
AcDbXrecord
280
     1
  1
AcDbDs::LegacySchema
  2
AcDbDs::Legacy
280
     1
 91
        0
  0
XRECORD
  5
E68
102
{ACAD_REACTORS
330
E6B
102
}
330
E6B
100
AcDbXrecord
280
     1
  1
AcDbDs::IndexedPropertySchema
  2
AcDs:Indexable
280
     1
 91
        0
  0
XRECORD
  5
E69
102
{ACAD_REACTORS
330
E6B
102
}
330
E6B
100
AcDbXrecord
280
     1
  1
AcDbDs::HandleAttributeSchema
  2
AcDbDs::HandleAttribute
280
     7
 91
        1
284
     1
  0
XRECORD
  5
EA5
102
{ACAD_REACTORS
330
C42
102
}
330
C42
100
AcDbXrecord
280
     1
102
DISPLAYNAME
  1
Metric50
102
FLAGS
 90
        0
  0
XRECORD
  5
E70
102
{ACAD_REACTORS
330
BE0
102
}
330
BE0
100
AcDbXrecord
280
     1
102
MATERIAL
148
0.0
149
0.0
149
0.0
 93
        0
 94
      127
282
     0
 72
     0
 77
     0
171
     0
175
     0
179
     0
273
     0
  0
XRECORD
  5
BE2
102
{ACAD_REACTORS
330
BE0
102
}
330
BE0
100
AcDbXrecord
280
     1
270
     1
271
     1
  0
XRECORD
  5
BE1
102
{ACAD_REACTORS
330
BE0
102
}
330
BE0
100
AcDbXrecord
280
     1
270
     1
271
     1
  0
XRECORD
  5
BE5
102
{ACAD_REACTORS
330
BE0
102
}
330
BE0
100
AcDbXrecord
280
     1
270
     1
271
     1
  0
XRECORD
  5
BE4
102
{ACAD_REACTORS
330
BE0
102
}
330
BE0
100
AcDbXrecord
280
     1
270
     1
271
     1
  0
XRECORD
  5
BE6
102
{ACAD_REACTORS
330
BE0
102
}
330
BE0
100
AcDbXrecord
280
     1
270
     1
271
     1
  0
XRECORD
  5
BE3
102
{ACAD_REACTORS
330
BE0
102
}
330
BE0
100
AcDbXrecord
280
     1
270
     1
271
     1
  0
XRECORD
  5
E6F
102
{ACAD_REACTORS
330
BD8
102
}
330
BD8
100
AcDbXrecord
280
     1
102
MATERIAL
148
0.0
149
0.0
149
0.0
 93
        0
 94
      127
282
     0
 72
     0
 77
     0
171
     0
175
     0
179
     0
273
     0
  0
XRECORD
  5
BDA
102
{ACAD_REACTORS
330
BD8
102
}
330
BD8
100
AcDbXrecord
280
     1
270
     1
271
     1
  0
XRECORD
  5
BD9
102
{ACAD_REACTORS
330
BD8
102
}
330
BD8
100
AcDbXrecord
280
     1
270
     1
271
     1
  0
XRECORD
  5
BDD
102
{ACAD_REACTORS
330
BD8
102
}
330
BD8
100
AcDbXrecord
280
     1
270
     1
271
     1
  0
XRECORD
  5
BDC
102
{ACAD_REACTORS
330
BD8
102
}
330
BD8
100
AcDbXrecord
280
     1
270
     1
271
     1
  0
XRECORD
  5
BDE
102
{ACAD_REACTORS
330
BD8
102
}
330
BD8
100
AcDbXrecord
280
     1
270
     1
271
     1
  0
XRECORD
  5
BDB
102
{ACAD_REACTORS
330
BD8
102
}
330
BD8
100
AcDbXrecord
280
     1
270
     1
271
     1
  0
XRECORD
  5
E71
102
{ACAD_REACTORS
330
BE8
102
}
330
BE8
100
AcDbXrecord
280
     1
102
MATERIAL
148
0.0
149
0.0
149
0.0
 93
        0
 94
      127
282
     0
 72
     0
 77
     0
171
     0
175
     0
179
     0
273
     0
  0
XRECORD
  5
BEA
102
{ACAD_REACTORS
330
BE8
102
}
330
BE8
100
AcDbXrecord
280
     1
270
     1
271
     1
  0
XRECORD
  5
BE9
102
{ACAD_REACTORS
330
BE8
102
}
330
BE8
100
AcDbXrecord
280
     1
270
     1
271
     1
  0
XRECORD
  5
BED
102
{ACAD_REACTORS
330
BE8
102
}
330
BE8
100
AcDbXrecord
280
     1
270
     1
271
     1
  0
XRECORD
  5
BEC
102
{ACAD_REACTORS
330
BE8
102
}
330
BE8
100
AcDbXrecord
280
     1
270
     1
271
     1
  0
XRECORD
  5
BEE
102
{ACAD_REACTORS
330
BE8
102
}
330
BE8
100
AcDbXrecord
280
     1
270
     1
271
     1
  0
XRECORD
  5
BEB
102
{ACAD_REACTORS
330
BE8
102
}
330
BE8
100
AcDbXrecord
280
     1
270
     1
271
     1
  0
XRECORD
  5
EA4
102
{ACAD_REACTORS
330
C40
102
}
330
C40
100
AcDbXrecord
280
     1
102
DISPLAYNAME
  1
Metric50
102
FLAGS
 90
        0
  0
CELLSTYLEMAP
  5
E63
102
{ACAD_REACTORS
330
E62
102
}
330
E62
100
AcDbCellStyleMap
 90
        3
300
CELLSTYLE
  1
TABLEFORMAT_BEGIN
 90
        5
170
     1
 91
        0
 92
    32768
 62
   257
 93
        1
300
CONTENTFORMAT
  1
CONTENTFORMAT_BEGIN
 90
        0
 91
        0
 92
      512
 93
        0
300

 40
0.0
140
1.0
 94
        5
 62
     0
340
11
144
6.0
309
CONTENTFORMAT_END
171
     1
301
MARGIN
  1
CELLMARGIN_BEGIN
 40
1.5
 40
1.5
 40
1.5
 40
1.5
 40
4.5
 40
4.5
309
CELLMARGIN_END
 94
        6
 95
        1
302
GRIDFORMAT
  1
GRIDFORMAT_BEGIN
 90
        0
 91
        1
 62
     0
 92
       -2
340
0
 93
        0
 40
1.125
309
GRIDFORMAT_END
 95
        2
302
GRIDFORMAT
  1
GRIDFORMAT_BEGIN
 90
        0
 91
        1
 62
     0
 92
       -2
340
0
 93
        0
 40
1.125
309
GRIDFORMAT_END
 95
        4
302
GRIDFORMAT
  1
GRIDFORMAT_BEGIN
 90
        0
 91
        1
 62
     0
 92
       -2
340
0
 93
        0
 40
1.125
309
GRIDFORMAT_END
 95
        8
302
GRIDFORMAT
  1
GRIDFORMAT_BEGIN
 90
        0
 91
        1
 62
     0
 92
       -2
340
0
 93
        0
 40
1.125
309
GRIDFORMAT_END
 95
       16
302
GRIDFORMAT
  1
GRIDFORMAT_BEGIN
 90
        0
 91
        1
 62
     0
 92
       -2
340
0
 93
        0
 40
1.125
309
GRIDFORMAT_END
 95
       32
302
GRIDFORMAT
  1
GRIDFORMAT_BEGIN
 90
        0
 91
        1
 62
     0
 92
       -2
340
0
 93
        0
 40
1.125
309
GRIDFORMAT_END
309
TABLEFORMAT_END
  1
CELLSTYLE_BEGIN
 90
        1
 91
        1
300
_TITLE
309
CELLSTYLE_END
300
CELLSTYLE
  1
TABLEFORMAT_BEGIN
 90
        5
170
     1
 91
        0
 92
        0
 62
   257
 93
        1
300
CONTENTFORMAT
  1
CONTENTFORMAT_BEGIN
 90
        0
 91
        0
 92
      512
 93
        0
300

 40
0.0
140
1.0
 94
        5
 62
     0
340
11
144
4.5
309
CONTENTFORMAT_END
171
     1
301
MARGIN
  1
CELLMARGIN_BEGIN
 40
1.5
 40
1.5
 40
1.5
 40
1.5
 40
4.5
 40
4.5
309
CELLMARGIN_END
 94
        6
 95
        1
302
GRIDFORMAT
  1
GRIDFORMAT_BEGIN
 90
        0
 91
        1
 62
     0
 92
       -2
340
0
 93
        0
 40
1.125
309
GRIDFORMAT_END
 95
        2
302
GRIDFORMAT
  1
GRIDFORMAT_BEGIN
 90
        0
 91
        1
 62
     0
 92
       -2
340
0
 93
        0
 40
1.125
309
GRIDFORMAT_END
 95
        4
302
GRIDFORMAT
  1
GRIDFORMAT_BEGIN
 90
        0
 91
        1
 62
     0
 92
       -2
340
0
 93
        0
 40
1.125
309
GRIDFORMAT_END
 95
        8
302
GRIDFORMAT
  1
GRIDFORMAT_BEGIN
 90
        0
 91
        1
 62
     0
 92
       -2
340
0
 93
        0
 40
1.125
309
GRIDFORMAT_END
 95
       16
302
GRIDFORMAT
  1
GRIDFORMAT_BEGIN
 90
        0
 91
        1
 62
     0
 92
       -2
340
0
 93
        0
 40
1.125
309
GRIDFORMAT_END
 95
       32
302
GRIDFORMAT
  1
GRIDFORMAT_BEGIN
 90
        0
 91
        1
 62
     0
 92
       -2
340
0
 93
        0
 40
1.125
309
GRIDFORMAT_END
309
TABLEFORMAT_END
  1
CELLSTYLE_BEGIN
 90
        2
 91
        1
300
_HEADER
309
CELLSTYLE_END
300
CELLSTYLE
  1
TABLEFORMAT_BEGIN
 90
        5
170
     1
 91
        0
 92
        0
 62
   257
 93
        1
300
CONTENTFORMAT
  1
CONTENTFORMAT_BEGIN
 90
        0
 91
        0
 92
      512
 93
        0
300

 40
0.0
140
1.0
 94
        2
 62
     0
340
11
144
4.5
309
CONTENTFORMAT_END
171
     1
301
MARGIN
  1
CELLMARGIN_BEGIN
 40
1.5
 40
1.5
 40
1.5
 40
1.5
 40
4.5
 40
4.5
309
CELLMARGIN_END
 94
        6
 95
        1
302
GRIDFORMAT
  1
GRIDFORMAT_BEGIN
 90
        0
 91
        1
 62
     0
 92
       -2
340
0
 93
        0
 40
1.125
309
GRIDFORMAT_END
 95
        2
302
GRIDFORMAT
  1
GRIDFORMAT_BEGIN
 90
        0
 91
        1
 62
     0
 92
       -2
340
0
 93
        0
 40
1.125
309
GRIDFORMAT_END
 95
        4
302
GRIDFORMAT
  1
GRIDFORMAT_BEGIN
 90
        0
 91
        1
 62
     0
 92
       -2
340
0
 93
        0
 40
1.125
309
GRIDFORMAT_END
 95
        8
302
GRIDFORMAT
  1
GRIDFORMAT_BEGIN
 90
        0
 91
        1
 62
     0
 92
       -2
340
0
 93
        0
 40
1.125
309
GRIDFORMAT_END
 95
       16
302
GRIDFORMAT
  1
GRIDFORMAT_BEGIN
 90
        0
 91
        1
 62
     0
 92
       -2
340
0
 93
        0
 40
1.125
309
GRIDFORMAT_END
 95
       32
302
GRIDFORMAT
  1
GRIDFORMAT_BEGIN
 90
        0
 91
        1
 62
     0
 92
       -2
340
0
 93
        0
 40
1.125
309
GRIDFORMAT_END
309
TABLEFORMAT_END
  1
CELLSTYLE_BEGIN
 90
        3
 91
        2
300
_DATA
309
CELLSTYLE_END
  0
XRECORD
  5
EA2
102
{ACAD_REACTORS
330
E62
102
}
330
E62
100
AcDbXrecord
280
     1
102
ACAD_ROUNDTRIP_PRE2007_TABLESTYLE
 90
      512
 91
        0
  1

 92
      512
 93
        0
  2

 94
      512
 95
        0
  3

  0
XRECORD
  5
E7D
102
{ACAD_REACTORS
330
E7C
102
}
330
E7C
100
AcDbXrecord
280
     1
102
RTVSPost2010Prop28
280
     1
102
RTVSPost2010PropOp28
 70
     1
102
RTVSPost2010Prop29
280
     1
102
RTVSPost2010PropOp29
 70
     1
102
RTVSPost2010Prop30
280
     0
102
RTVSPost2010PropOp30
 70
     1
102
RTVSPost2010Prop31
280
     0
102
RTVSPost2010PropOp31
 70
     1
102
RTVSPost2010Prop32
280
     0
102
RTVSPost2010PropOp32
 70
     1
102
RTVSPost2010Prop33
280
     0
102
RTVSPost2010PropOp33
 70
     1
102
RTVSPost2010Prop34
280
     0
102
RTVSPost2010PropOp34
 70
     1
102
RTVSPost2010Prop35
280
     0
102
RTVSPost2010PropOp35
 70
     1
102
RTVSPost2010Prop36
280
     0
102
RTVSPost2010PropOp36
 70
     1
102
RTVSPost2010Prop37
 90
       50
102
RTVSPost2010PropOp37
 70
     1
102
RTVSPost2010Prop38
140
0.0
102
RTVSPost2010PropOp38
 70
     1
102
RTVSPost2010Prop39
140
1.0
102
RTVSPost2010PropOp39
 70
     1
102
RTVSPost2010Prop40
 90
        0
102
RTVSPost2010PropOp40
 70
     1
102
RTVSPost2010Prop41ColorIndex
 90
       18
102
RTVSPost2010Prop41ColorRGB
 90
        0
102
RTVSPost2010PropOp41
 70
     1
102
RTVSPost2010Prop42
 90
       50
102
RTVSPost2010PropOp42
 70
     1
102
RTVSPost2010Prop43
 90
        3
102
RTVSPost2010PropOp43
 70
     1
102
RTVSPost2010Prop44ColorIndex
 90
        5
102
RTVSPost2010Prop44ColorRGB
 90
      255
102
RTVSPost2010PropOp44
 70
     1
102
RTVSPost2010Prop45
280
     0
102
RTVSPost2010PropOp45
 70
     1
102
RTVSPost2010Prop46
 90
       50
102
RTVSPost2010PropOp46
 70
     1
102
RTVSPost2010Prop47
 90
       50
102
RTVSPost2010PropOp47
 70
     1
102
RTVSPost2010Prop48
 90
       50
102
RTVSPost2010PropOp48
 70
     1
102
RTVSPost2010Prop49
280
     0
102
RTVSPost2010PropOp49
 70
     1
102
RTVSPost2010Prop50
 90
       50
102
RTVSPost2010PropOp50
 70
     1
102
RTVSPost2010Prop51ColorIndex
 90
      256
102
RTVSPost2010Prop51ColorRGB
 90
-16777216
102
RTVSPost2010PropOp51
 70
     0
102
RTVSPost2010Prop52
140
1.0
102
RTVSPost2010PropOp52
 70
     0
102
RTVSPost2010Prop53
 90
        2
102
RTVSPost2010PropOp53
 70
     1
102
RTVSPost2010Prop54
  1
strokes_ogs.tif
102
RTVSPost2010PropOp54
 70
     1
102
RTVSPost2010Prop55
280
     0
102
RTVSPost2010PropOp55
 70
     1
102
RTVSPost2010Prop56
140
1.0
102
RTVSPost2010PropOp56
 70
     1
102
RTVSPost2010Prop57
140
1.0
102
RTVSPost2010PropOp57
 70
     1
102
RTVSPropertyOp0
 70
     1
102
RTVSPropertyOp1
 70
     1
102
RTVSPropertyOp2
 70
     1
102
RTVSPropertyOp3
 70
     1
102
RTVSPropertyOp4
 70
     1
102
RTVSPropertyOp5
 70
     1
102
RTVSPropertyOp6
 70
     1
102
RTVSPropertyOp7
 70
     1
102
RTVSPropertyOp8
 70
     1
102
RTVSPropertyOp9
 70
     1
102
RTVSPropertyOp10
 70
     1
102
RTVSPropertyOp11
 70
     1
102
RTVSPropertyOp12
 70
     1
102
RTVSPropertyOp13
 70
     1
102
RTVSPropertyOp14
 70
     1
102
RTVSPropertyOp15
 70
     1
102
RTVSPropertyOp16
 70
     1
102
RTVSPropertyOp17
 70
     1
102
RTVSPropertyOp18
 70
     1
102
RTVSPropertyOp19
 70
     1
102
RTVSPropertyOp20
 70
     1
102
RTVSPropertyOp21
 70
     1
102
RTVSPropertyOp22
 70
     1
102
RTVSPropertyOp23
 70
     1
102
RTVSPropertyOp24
 70
     1
102
RTVSPropertyOp25
 70
     1
102
RTVSPropertyOp26
 70
     1
102
RTVSPropertyOp27
 70
     1
102
RTVSPropertyOp28
 70
     1
102
RTVSPropertyOp29
 70
     1
102
RTVSPropertyOp30
 70
     1
102
RTVSPropertyOp31
 70
     1
102
RTVSPropertyOp32
 70
     1
102
RTVSPropertyOp33
 70
     1
102
RTVSPropertyOp34
 70
     1
102
RTVSPropertyOp35
 70
     1
102
RTVSPropertyOp36
 70
     1
102
RTVSPropertyOp37
 70
     1
102
RTVSPropertyOp38
 70
     1
102
RTVSPropertyOp39
 70
     1
102
RTVSPropertyOp40
 70
     1
102
RTVSPropertyOp41
 70
     1
102
RTVSPropertyOp42
 70
     1
102
RTVSPropertyOp43
 70
     1
102
RTVSPropertyOp44
 70
     1
102
RTVSPropertyOp45
 70
     1
102
RTVSPropertyOp46
 70
     1
102
RTVSPropertyOp47
 70
     1
102
RTVSPropertyOp48
 70
     1
102
RTVSPropertyOp49
 70
     1
102
RTVSPropertyOp50
 70
     1
102
RTVSPropertyOp51
 70
     0
102
RTVSPropertyOp52
 70
     0
102
RTVSPropertyOp53
 70
     1
102
RTVSPropertyOp54
 70
     1
102
RTVSPropertyOp55
 70
     1
102
RTVSPropertyOp56
 70
     1
102
RTVSPropertyOp57
 70
     1
102
RTVSPropertyOp58
 70
     1
102
RTVSPropertyOp59
 70
     1
102
RTVSPropertyOp60
 70
     1
102
RTVSPropertyOp61
 70
     1
102
RTVSPropertyOp62
 70
     1
  0
XRECORD
  5
E7B
102
{ACAD_REACTORS
330
E7A
102
}
330
E7A
100
AcDbXrecord
280
     1
102
RTVSPost2010Prop28
280
     0
102
RTVSPost2010PropOp28
 70
     1
102
RTVSPost2010Prop29
280
     1
102
RTVSPost2010PropOp29
 70
     1
102
RTVSPost2010Prop30
280
     1
102
RTVSPost2010PropOp30
 70
     1
102
RTVSPost2010Prop31
280
     0
102
RTVSPost2010PropOp31
 70
     1
102
RTVSPost2010Prop32
280
     0
102
RTVSPost2010PropOp32
 70
     1
102
RTVSPost2010Prop33
280
     0
102
RTVSPost2010PropOp33
 70
     1
102
RTVSPost2010Prop34
280
     0
102
RTVSPost2010PropOp34
 70
     1
102
RTVSPost2010Prop35
280
     0
102
RTVSPost2010PropOp35
 70
     1
102
RTVSPost2010Prop36
280
     0
102
RTVSPost2010PropOp36
 70
     1
102
RTVSPost2010Prop37
 90
       50
102
RTVSPost2010PropOp37
 70
     1
102
RTVSPost2010Prop38
140
0.0
102
RTVSPost2010PropOp38
 70
     1
102
RTVSPost2010Prop39
140
1.0
102
RTVSPost2010PropOp39
 70
     1
102
RTVSPost2010Prop40
 90
        0
102
RTVSPost2010PropOp40
 70
     1
102
RTVSPost2010Prop41ColorIndex
 90
       18
102
RTVSPost2010Prop41ColorRGB
 90
        0
102
RTVSPost2010PropOp41
 70
     1
102
RTVSPost2010Prop42
 90
       50
102
RTVSPost2010PropOp42
 70
     1
102
RTVSPost2010Prop43
 90
        3
102
RTVSPost2010PropOp43
 70
     1
102
RTVSPost2010Prop44ColorIndex
 90
        5
102
RTVSPost2010Prop44ColorRGB
 90
      255
102
RTVSPost2010PropOp44
 70
     1
102
RTVSPost2010Prop45
280
     0
102
RTVSPost2010PropOp45
 70
     1
102
RTVSPost2010Prop46
 90
       50
102
RTVSPost2010PropOp46
 70
     1
102
RTVSPost2010Prop47
 90
       50
102
RTVSPost2010PropOp47
 70
     1
102
RTVSPost2010Prop48
 90
       50
102
RTVSPost2010PropOp48
 70
     1
102
RTVSPost2010Prop49
280
     0
102
RTVSPost2010PropOp49
 70
     1
102
RTVSPost2010Prop50
 90
       50
102
RTVSPost2010PropOp50
 70
     1
102
RTVSPost2010Prop51ColorIndex
 90
      256
102
RTVSPost2010Prop51ColorRGB
 90
-16777216
102
RTVSPost2010PropOp51
 70
     0
102
RTVSPost2010Prop52
140
1.0
102
RTVSPost2010PropOp52
 70
     0
102
RTVSPost2010Prop53
 90
        2
102
RTVSPost2010PropOp53
 70
     1
102
RTVSPost2010Prop54
  1
strokes_ogs.tif
102
RTVSPost2010PropOp54
 70
     1
102
RTVSPost2010Prop55
280
     0
102
RTVSPost2010PropOp55
 70
     1
102
RTVSPost2010Prop56
140
1.0
102
RTVSPost2010PropOp56
 70
     1
102
RTVSPost2010Prop57
140
1.0
102
RTVSPost2010PropOp57
 70
     1
102
RTVSPropertyOp0
 70
     1
102
RTVSPropertyOp1
 70
     1
102
RTVSPropertyOp2
 70
     1
102
RTVSPropertyOp3
 70
     1
102
RTVSPropertyOp4
 70
     1
102
RTVSPropertyOp5
 70
     1
102
RTVSPropertyOp6
 70
     1
102
RTVSPropertyOp7
 70
     1
102
RTVSPropertyOp8
 70
     1
102
RTVSPropertyOp9
 70
     1
102
RTVSPropertyOp10
 70
     1
102
RTVSPropertyOp11
 70
     1
102
RTVSPropertyOp12
 70
     1
102
RTVSPropertyOp13
 70
     1
102
RTVSPropertyOp14
 70
     1
102
RTVSPropertyOp15
 70
     1
102
RTVSPropertyOp16
 70
     1
102
RTVSPropertyOp17
 70
     1
102
RTVSPropertyOp18
 70
     1
102
RTVSPropertyOp19
 70
     1
102
RTVSPropertyOp20
 70
     1
102
RTVSPropertyOp21
 70
     1
102
RTVSPropertyOp22
 70
     1
102
RTVSPropertyOp23
 70
     1
102
RTVSPropertyOp24
 70
     1
102
RTVSPropertyOp25
 70
     1
102
RTVSPropertyOp26
 70
     1
102
RTVSPropertyOp27
 70
     1
102
RTVSPropertyOp28
 70
     1
102
RTVSPropertyOp29
 70
     1
102
RTVSPropertyOp30
 70
     1
102
RTVSPropertyOp31
 70
     1
102
RTVSPropertyOp32
 70
     1
102
RTVSPropertyOp33
 70
     1
102
RTVSPropertyOp34
 70
     1
102
RTVSPropertyOp35
 70
     1
102
RTVSPropertyOp36
 70
     1
102
RTVSPropertyOp37
 70
     1
102
RTVSPropertyOp38
 70
     1
102
RTVSPropertyOp39
 70
     1
102
RTVSPropertyOp40
 70
     1
102
RTVSPropertyOp41
 70
     1
102
RTVSPropertyOp42
 70
     1
102
RTVSPropertyOp43
 70
     1
102
RTVSPropertyOp44
 70
     1
102
RTVSPropertyOp45
 70
     1
102
RTVSPropertyOp46
 70
     1
102
RTVSPropertyOp47
 70
     1
102
RTVSPropertyOp48
 70
     1
102
RTVSPropertyOp49
 70
     1
102
RTVSPropertyOp50
 70
     1
102
RTVSPropertyOp51
 70
     0
102
RTVSPropertyOp52
 70
     0
102
RTVSPropertyOp53
 70
     1
102
RTVSPropertyOp54
 70
     1
102
RTVSPropertyOp55
 70
     1
102
RTVSPropertyOp56
 70
     1
102
RTVSPropertyOp57
 70
     1
102
RTVSPropertyOp58
 70
     1
102
RTVSPropertyOp59
 70
     1
102
RTVSPropertyOp60
 70
     1
102
RTVSPropertyOp61
 70
     1
102
RTVSPropertyOp62
 70
     1
  0
XRECORD
  5
E89
102
{ACAD_REACTORS
330
E88
102
}
330
E88
100
AcDbXrecord
280
     1
102
RTVSPost2010Prop28
280
     0
102
RTVSPost2010PropOp28
 70
     1
102
RTVSPost2010Prop29
280
     1
102
RTVSPost2010PropOp29
 70
     1
102
RTVSPost2010Prop30
280
     1
102
RTVSPost2010PropOp30
 70
     1
102
RTVSPost2010Prop31
280
     0
102
RTVSPost2010PropOp31
 70
     1
102
RTVSPost2010Prop32
280
     0
102
RTVSPost2010PropOp32
 70
     1
102
RTVSPost2010Prop33
280
     0
102
RTVSPost2010PropOp33
 70
     1
102
RTVSPost2010Prop34
280
     0
102
RTVSPost2010PropOp34
 70
     1
102
RTVSPost2010Prop35
280
     0
102
RTVSPost2010PropOp35
 70
     1
102
RTVSPost2010Prop36
280
     0
102
RTVSPost2010PropOp36
 70
     1
102
RTVSPost2010Prop37
 90
       50
102
RTVSPost2010PropOp37
 70
     1
102
RTVSPost2010Prop38
140
0.0
102
RTVSPost2010PropOp38
 70
     1
102
RTVSPost2010Prop39
140
1.0
102
RTVSPost2010PropOp39
 70
     1
102
RTVSPost2010Prop40
 90
        0
102
RTVSPost2010PropOp40
 70
     1
102
RTVSPost2010Prop41ColorIndex
 90
       18
102
RTVSPost2010Prop41ColorRGB
 90
        0
102
RTVSPost2010PropOp41
 70
     1
102
RTVSPost2010Prop42
 90
       50
102
RTVSPost2010PropOp42
 70
     1
102
RTVSPost2010Prop43
 90
        3
102
RTVSPost2010PropOp43
 70
     1
102
RTVSPost2010Prop44ColorIndex
 90
        5
102
RTVSPost2010Prop44ColorRGB
 90
      255
102
RTVSPost2010PropOp44
 70
     1
102
RTVSPost2010Prop45
280
     0
102
RTVSPost2010PropOp45
 70
     1
102
RTVSPost2010Prop46
 90
       50
102
RTVSPost2010PropOp46
 70
     1
102
RTVSPost2010Prop47
 90
       50
102
RTVSPost2010PropOp47
 70
     1
102
RTVSPost2010Prop48
 90
       50
102
RTVSPost2010PropOp48
 70
     1
102
RTVSPost2010Prop49
280
     0
102
RTVSPost2010PropOp49
 70
     1
102
RTVSPost2010Prop50
 90
       50
102
RTVSPost2010PropOp50
 70
     1
102
RTVSPost2010Prop51ColorIndex
 90
      256
102
RTVSPost2010Prop51ColorRGB
 90
-16777216
102
RTVSPost2010PropOp51
 70
     0
102
RTVSPost2010Prop52
140
1.0
102
RTVSPost2010PropOp52
 70
     0
102
RTVSPost2010Prop53
 90
        2
102
RTVSPost2010PropOp53
 70
     1
102
RTVSPost2010Prop54
  1
strokes_ogs.tif
102
RTVSPost2010PropOp54
 70
     1
102
RTVSPost2010Prop55
280
     0
102
RTVSPost2010PropOp55
 70
     1
102
RTVSPost2010Prop56
140
1.0
102
RTVSPost2010PropOp56
 70
     1
102
RTVSPost2010Prop57
140
1.0
102
RTVSPost2010PropOp57
 70
     1
102
RTVSPropertyOp0
 70
     1
102
RTVSPropertyOp1
 70
     1
102
RTVSPropertyOp2
 70
     1
102
RTVSPropertyOp3
 70
     1
102
RTVSPropertyOp4
 70
     1
102
RTVSPropertyOp5
 70
     1
102
RTVSPropertyOp6
 70
     1
102
RTVSPropertyOp7
 70
     1
102
RTVSPropertyOp8
 70
     1
102
RTVSPropertyOp9
 70
     1
102
RTVSPropertyOp10
 70
     1
102
RTVSPropertyOp11
 70
     1
102
RTVSPropertyOp12
 70
     1
102
RTVSPropertyOp13
 70
     1
102
RTVSPropertyOp14
 70
     1
102
RTVSPropertyOp15
 70
     1
102
RTVSPropertyOp16
 70
     1
102
RTVSPropertyOp17
 70
     1
102
RTVSPropertyOp18
 70
     1
102
RTVSPropertyOp19
 70
     1
102
RTVSPropertyOp20
 70
     1
102
RTVSPropertyOp21
 70
     1
102
RTVSPropertyOp22
 70
     1
102
RTVSPropertyOp23
 70
     1
102
RTVSPropertyOp24
 70
     1
102
RTVSPropertyOp25
 70
     1
102
RTVSPropertyOp26
 70
     1
102
RTVSPropertyOp27
 70
     1
102
RTVSPropertyOp28
 70
     1
102
RTVSPropertyOp29
 70
     1
102
RTVSPropertyOp30
 70
     1
102
RTVSPropertyOp31
 70
     1
102
RTVSPropertyOp32
 70
     1
102
RTVSPropertyOp33
 70
     1
102
RTVSPropertyOp34
 70
     1
102
RTVSPropertyOp35
 70
     1
102
RTVSPropertyOp36
 70
     1
102
RTVSPropertyOp37
 70
     1
102
RTVSPropertyOp38
 70
     1
102
RTVSPropertyOp39
 70
     1
102
RTVSPropertyOp40
 70
     1
102
RTVSPropertyOp41
 70
     1
102
RTVSPropertyOp42
 70
     1
102
RTVSPropertyOp43
 70
     1
102
RTVSPropertyOp44
 70
     1
102
RTVSPropertyOp45
 70
     1
102
RTVSPropertyOp46
 70
     1
102
RTVSPropertyOp47
 70
     1
102
RTVSPropertyOp48
 70
     1
102
RTVSPropertyOp49
 70
     1
102
RTVSPropertyOp50
 70
     1
102
RTVSPropertyOp51
 70
     0
102
RTVSPropertyOp52
 70
     0
102
RTVSPropertyOp53
 70
     1
102
RTVSPropertyOp54
 70
     1
102
RTVSPropertyOp55
 70
     1
102
RTVSPropertyOp56
 70
     1
102
RTVSPropertyOp57
 70
     1
102
RTVSPropertyOp58
 70
     1
102
RTVSPropertyOp59
 70
     1
102
RTVSPropertyOp60
 70
     1
102
RTVSPropertyOp61
 70
     1
102
RTVSPropertyOp62
 70
     1
  0
XRECORD
  5
E91
102
{ACAD_REACTORS
330
E90
102
}
330
E90
100
AcDbXrecord
280
     1
102
RTVSPost2010Prop28
280
     0
102
RTVSPost2010PropOp28
 70
     1
102
RTVSPost2010Prop29
280
     1
102
RTVSPost2010PropOp29
 70
     1
102
RTVSPost2010Prop30
280
     1
102
RTVSPost2010PropOp30
 70
     1
102
RTVSPost2010Prop31
280
     0
102
RTVSPost2010PropOp31
 70
     1
102
RTVSPost2010Prop32
280
     0
102
RTVSPost2010PropOp32
 70
     1
102
RTVSPost2010Prop33
280
     0
102
RTVSPost2010PropOp33
 70
     1
102
RTVSPost2010Prop34
280
     0
102
RTVSPost2010PropOp34
 70
     1
102
RTVSPost2010Prop35
280
     0
102
RTVSPost2010PropOp35
 70
     1
102
RTVSPost2010Prop36
280
     0
102
RTVSPost2010PropOp36
 70
     1
102
RTVSPost2010Prop37
 90
       50
102
RTVSPost2010PropOp37
 70
     1
102
RTVSPost2010Prop38
140
0.0
102
RTVSPost2010PropOp38
 70
     1
102
RTVSPost2010Prop39
140
1.0
102
RTVSPost2010PropOp39
 70
     1
102
RTVSPost2010Prop40
 90
        0
102
RTVSPost2010PropOp40
 70
     1
102
RTVSPost2010Prop41ColorIndex
 90
       18
102
RTVSPost2010Prop41ColorRGB
 90
        0
102
RTVSPost2010PropOp41
 70
     1
102
RTVSPost2010Prop42
 90
       50
102
RTVSPost2010PropOp42
 70
     1
102
RTVSPost2010Prop43
 90
        3
102
RTVSPost2010PropOp43
 70
     1
102
RTVSPost2010Prop44ColorIndex
 90
        5
102
RTVSPost2010Prop44ColorRGB
 90
      255
102
RTVSPost2010PropOp44
 70
     1
102
RTVSPost2010Prop45
280
     0
102
RTVSPost2010PropOp45
 70
     1
102
RTVSPost2010Prop46
 90
       50
102
RTVSPost2010PropOp46
 70
     1
102
RTVSPost2010Prop47
 90
       50
102
RTVSPost2010PropOp47
 70
     1
102
RTVSPost2010Prop48
 90
       50
102
RTVSPost2010PropOp48
 70
     1
102
RTVSPost2010Prop49
280
     0
102
RTVSPost2010PropOp49
 70
     1
102
RTVSPost2010Prop50
 90
       50
102
RTVSPost2010PropOp50
 70
     1
102
RTVSPost2010Prop51ColorIndex
 90
      256
102
RTVSPost2010Prop51ColorRGB
 90
-16777216
102
RTVSPost2010PropOp51
 70
     0
102
RTVSPost2010Prop52
140
1.0
102
RTVSPost2010PropOp52
 70
     0
102
RTVSPost2010Prop53
 90
        2
102
RTVSPost2010PropOp53
 70
     1
102
RTVSPost2010Prop54
  1
strokes_ogs.tif
102
RTVSPost2010PropOp54
 70
     1
102
RTVSPost2010Prop55
280
     0
102
RTVSPost2010PropOp55
 70
     1
102
RTVSPost2010Prop56
140
1.0
102
RTVSPost2010PropOp56
 70
     1
102
RTVSPost2010Prop57
140
1.0
102
RTVSPost2010PropOp57
 70
     1
102
RTVSPropertyOp0
 70
     1
102
RTVSPropertyOp1
 70
     1
102
RTVSPropertyOp2
 70
     1
102
RTVSPropertyOp3
 70
     1
102
RTVSPropertyOp4
 70
     1
102
RTVSPropertyOp5
 70
     1
102
RTVSPropertyOp6
 70
     1
102
RTVSPropertyOp7
 70
     1
102
RTVSPropertyOp8
 70
     1
102
RTVSPropertyOp9
 70
     1
102
RTVSPropertyOp10
 70
     1
102
RTVSPropertyOp11
 70
     1
102
RTVSPropertyOp12
 70
     1
102
RTVSPropertyOp13
 70
     1
102
RTVSPropertyOp14
 70
     1
102
RTVSPropertyOp15
 70
     1
102
RTVSPropertyOp16
 70
     1
102
RTVSPropertyOp17
 70
     1
102
RTVSPropertyOp18
 70
     1
102
RTVSPropertyOp19
 70
     1
102
RTVSPropertyOp20
 70
     1
102
RTVSPropertyOp21
 70
     1
102
RTVSPropertyOp22
 70
     1
102
RTVSPropertyOp23
 70
     1
102
RTVSPropertyOp24
 70
     1
102
RTVSPropertyOp25
 70
     1
102
RTVSPropertyOp26
 70
     1
102
RTVSPropertyOp27
 70
     1
102
RTVSPropertyOp28
 70
     1
102
RTVSPropertyOp29
 70
     1
102
RTVSPropertyOp30
 70
     1
102
RTVSPropertyOp31
 70
     1
102
RTVSPropertyOp32
 70
     1
102
RTVSPropertyOp33
 70
     1
102
RTVSPropertyOp34
 70
     1
102
RTVSPropertyOp35
 70
     1
102
RTVSPropertyOp36
 70
     1
102
RTVSPropertyOp37
 70
     1
102
RTVSPropertyOp38
 70
     1
102
RTVSPropertyOp39
 70
     1
102
RTVSPropertyOp40
 70
     1
102
RTVSPropertyOp41
 70
     1
102
RTVSPropertyOp42
 70
     1
102
RTVSPropertyOp43
 70
     1
102
RTVSPropertyOp44
 70
     1
102
RTVSPropertyOp45
 70
     1
102
RTVSPropertyOp46
 70
     1
102
RTVSPropertyOp47
 70
     1
102
RTVSPropertyOp48
 70
     1
102
RTVSPropertyOp49
 70
     1
102
RTVSPropertyOp50
 70
     1
102
RTVSPropertyOp51
 70
     0
102
RTVSPropertyOp52
 70
     0
102
RTVSPropertyOp53
 70
     1
102
RTVSPropertyOp54
 70
     1
102
RTVSPropertyOp55
 70
     1
102
RTVSPropertyOp56
 70
     1
102
RTVSPropertyOp57
 70
     1
102
RTVSPropertyOp58
 70
     1
102
RTVSPropertyOp59
 70
     1
102
RTVSPropertyOp60
 70
     1
102
RTVSPropertyOp61
 70
     1
102
RTVSPropertyOp62
 70
     1
  0
XRECORD
  5
E83
102
{ACAD_REACTORS
330
E82
102
}
330
E82
100
AcDbXrecord
280
     1
102
RTVSPost2010Prop28
280
     0
102
RTVSPost2010PropOp28
 70
     1
102
RTVSPost2010Prop29
280
     1
102
RTVSPost2010PropOp29
 70
     1
102
RTVSPost2010Prop30
280
     1
102
RTVSPost2010PropOp30
 70
     1
102
RTVSPost2010Prop31
280
     0
102
RTVSPost2010PropOp31
 70
     1
102
RTVSPost2010Prop32
280
     0
102
RTVSPost2010PropOp32
 70
     1
102
RTVSPost2010Prop33
280
     0
102
RTVSPost2010PropOp33
 70
     1
102
RTVSPost2010Prop34
280
     0
102
RTVSPost2010PropOp34
 70
     1
102
RTVSPost2010Prop35
280
     0
102
RTVSPost2010PropOp35
 70
     1
102
RTVSPost2010Prop36
280
     0
102
RTVSPost2010PropOp36
 70
     1
102
RTVSPost2010Prop37
 90
       50
102
RTVSPost2010PropOp37
 70
     1
102
RTVSPost2010Prop38
140
0.0
102
RTVSPost2010PropOp38
 70
     1
102
RTVSPost2010Prop39
140
1.0
102
RTVSPost2010PropOp39
 70
     1
102
RTVSPost2010Prop40
 90
        0
102
RTVSPost2010PropOp40
 70
     1
102
RTVSPost2010Prop41ColorIndex
 90
       18
102
RTVSPost2010Prop41ColorRGB
 90
        0
102
RTVSPost2010PropOp41
 70
     1
102
RTVSPost2010Prop42
 90
       50
102
RTVSPost2010PropOp42
 70
     1
102
RTVSPost2010Prop43
 90
        3
102
RTVSPost2010PropOp43
 70
     1
102
RTVSPost2010Prop44ColorIndex
 90
        5
102
RTVSPost2010Prop44ColorRGB
 90
      255
102
RTVSPost2010PropOp44
 70
     1
102
RTVSPost2010Prop45
280
     0
102
RTVSPost2010PropOp45
 70
     1
102
RTVSPost2010Prop46
 90
       50
102
RTVSPost2010PropOp46
 70
     1
102
RTVSPost2010Prop47
 90
       50
102
RTVSPost2010PropOp47
 70
     1
102
RTVSPost2010Prop48
 90
       50
102
RTVSPost2010PropOp48
 70
     1
102
RTVSPost2010Prop49
280
     0
102
RTVSPost2010PropOp49
 70
     1
102
RTVSPost2010Prop50
 90
       50
102
RTVSPost2010PropOp50
 70
     1
102
RTVSPost2010Prop51ColorIndex
 90
      256
102
RTVSPost2010Prop51ColorRGB
 90
-16777216
102
RTVSPost2010PropOp51
 70
     0
102
RTVSPost2010Prop52
140
1.0
102
RTVSPost2010PropOp52
 70
     0
102
RTVSPost2010Prop53
 90
        2
102
RTVSPost2010PropOp53
 70
     1
102
RTVSPost2010Prop54
  1
strokes_ogs.tif
102
RTVSPost2010PropOp54
 70
     1
102
RTVSPost2010Prop55
280
     0
102
RTVSPost2010PropOp55
 70
     1
102
RTVSPost2010Prop56
140
1.0
102
RTVSPost2010PropOp56
 70
     1
102
RTVSPost2010Prop57
140
1.0
102
RTVSPost2010PropOp57
 70
     1
102
RTVSPropertyOp0
 70
     1
102
RTVSPropertyOp1
 70
     1
102
RTVSPropertyOp2
 70
     1
102
RTVSPropertyOp3
 70
     1
102
RTVSPropertyOp4
 70
     1
102
RTVSPropertyOp5
 70
     1
102
RTVSPropertyOp6
 70
     1
102
RTVSPropertyOp7
 70
     1
102
RTVSPropertyOp8
 70
     1
102
RTVSPropertyOp9
 70
     1
102
RTVSPropertyOp10
 70
     1
102
RTVSPropertyOp11
 70
     1
102
RTVSPropertyOp12
 70
     1
102
RTVSPropertyOp13
 70
     1
102
RTVSPropertyOp14
 70
     1
102
RTVSPropertyOp15
 70
     1
102
RTVSPropertyOp16
 70
     1
102
RTVSPropertyOp17
 70
     1
102
RTVSPropertyOp18
 70
     1
102
RTVSPropertyOp19
 70
     1
102
RTVSPropertyOp20
 70
     1
102
RTVSPropertyOp21
 70
     1
102
RTVSPropertyOp22
 70
     1
102
RTVSPropertyOp23
 70
     1
102
RTVSPropertyOp24
 70
     1
102
RTVSPropertyOp25
 70
     1
102
RTVSPropertyOp26
 70
     1
102
RTVSPropertyOp27
 70
     1
102
RTVSPropertyOp28
 70
     1
102
RTVSPropertyOp29
 70
     1
102
RTVSPropertyOp30
 70
     1
102
RTVSPropertyOp31
 70
     1
102
RTVSPropertyOp32
 70
     1
102
RTVSPropertyOp33
 70
     1
102
RTVSPropertyOp34
 70
     1
102
RTVSPropertyOp35
 70
     1
102
RTVSPropertyOp36
 70
     1
102
RTVSPropertyOp37
 70
     1
102
RTVSPropertyOp38
 70
     1
102
RTVSPropertyOp39
 70
     1
102
RTVSPropertyOp40
 70
     1
102
RTVSPropertyOp41
 70
     1
102
RTVSPropertyOp42
 70
     1
102
RTVSPropertyOp43
 70
     1
102
RTVSPropertyOp44
 70
     1
102
RTVSPropertyOp45
 70
     1
102
RTVSPropertyOp46
 70
     1
102
RTVSPropertyOp47
 70
     1
102
RTVSPropertyOp48
 70
     1
102
RTVSPropertyOp49
 70
     1
102
RTVSPropertyOp50
 70
     1
102
RTVSPropertyOp51
 70
     0
102
RTVSPropertyOp52
 70
     0
102
RTVSPropertyOp53
 70
     1
102
RTVSPropertyOp54
 70
     1
102
RTVSPropertyOp55
 70
     1
102
RTVSPropertyOp56
 70
     1
102
RTVSPropertyOp57
 70
     1
102
RTVSPropertyOp58
 70
     1
102
RTVSPropertyOp59
 70
     1
102
RTVSPropertyOp60
 70
     1
102
RTVSPropertyOp61
 70
     1
102
RTVSPropertyOp62
 70
     1
  0
XRECORD
  5
E87
102
{ACAD_REACTORS
330
E86
102
}
330
E86
100
AcDbXrecord
280
     1
102
RTVSPost2010Prop28
280
     0
102
RTVSPost2010PropOp28
 70
     1
102
RTVSPost2010Prop29
280
     1
102
RTVSPost2010PropOp29
 70
     1
102
RTVSPost2010Prop30
280
     1
102
RTVSPost2010PropOp30
 70
     1
102
RTVSPost2010Prop31
280
     0
102
RTVSPost2010PropOp31
 70
     1
102
RTVSPost2010Prop32
280
     0
102
RTVSPost2010PropOp32
 70
     1
102
RTVSPost2010Prop33
280
     0
102
RTVSPost2010PropOp33
 70
     1
102
RTVSPost2010Prop34
280
     0
102
RTVSPost2010PropOp34
 70
     1
102
RTVSPost2010Prop35
280
     0
102
RTVSPost2010PropOp35
 70
     1
102
RTVSPost2010Prop36
280
     0
102
RTVSPost2010PropOp36
 70
     1
102
RTVSPost2010Prop37
 90
       50
102
RTVSPost2010PropOp37
 70
     1
102
RTVSPost2010Prop38
140
0.0
102
RTVSPost2010PropOp38
 70
     1
102
RTVSPost2010Prop39
140
1.0
102
RTVSPost2010PropOp39
 70
     1
102
RTVSPost2010Prop40
 90
        0
102
RTVSPost2010PropOp40
 70
     1
102
RTVSPost2010Prop41ColorIndex
 90
       18
102
RTVSPost2010Prop41ColorRGB
 90
        0
102
RTVSPost2010PropOp41
 70
     1
102
RTVSPost2010Prop42
 90
       50
102
RTVSPost2010PropOp42
 70
     1
102
RTVSPost2010Prop43
 90
        3
102
RTVSPost2010PropOp43
 70
     1
102
RTVSPost2010Prop44ColorIndex
 90
        5
102
RTVSPost2010Prop44ColorRGB
 90
      255
102
RTVSPost2010PropOp44
 70
     1
102
RTVSPost2010Prop45
280
     0
102
RTVSPost2010PropOp45
 70
     1
102
RTVSPost2010Prop46
 90
       50
102
RTVSPost2010PropOp46
 70
     1
102
RTVSPost2010Prop47
 90
       50
102
RTVSPost2010PropOp47
 70
     1
102
RTVSPost2010Prop48
 90
       50
102
RTVSPost2010PropOp48
 70
     1
102
RTVSPost2010Prop49
280
     0
102
RTVSPost2010PropOp49
 70
     1
102
RTVSPost2010Prop50
 90
       50
102
RTVSPost2010PropOp50
 70
     1
102
RTVSPost2010Prop51ColorIndex
 90
      256
102
RTVSPost2010Prop51ColorRGB
 90
-16777216
102
RTVSPost2010PropOp51
 70
     0
102
RTVSPost2010Prop52
140
1.0
102
RTVSPost2010PropOp52
 70
     0
102
RTVSPost2010Prop53
 90
        2
102
RTVSPost2010PropOp53
 70
     1
102
RTVSPost2010Prop54
  1
strokes_ogs.tif
102
RTVSPost2010PropOp54
 70
     1
102
RTVSPost2010Prop55
280
     0
102
RTVSPost2010PropOp55
 70
     1
102
RTVSPost2010Prop56
140
1.0
102
RTVSPost2010PropOp56
 70
     1
102
RTVSPost2010Prop57
140
1.0
102
RTVSPost2010PropOp57
 70
     1
102
RTVSPropertyOp0
 70
     1
102
RTVSPropertyOp1
 70
     1
102
RTVSPropertyOp2
 70
     1
102
RTVSPropertyOp3
 70
     1
102
RTVSPropertyOp4
 70
     1
102
RTVSPropertyOp5
 70
     1
102
RTVSPropertyOp6
 70
     1
102
RTVSPropertyOp7
 70
     1
102
RTVSPropertyOp8
 70
     1
102
RTVSPropertyOp9
 70
     1
102
RTVSPropertyOp10
 70
     1
102
RTVSPropertyOp11
 70
     1
102
RTVSPropertyOp12
 70
     1
102
RTVSPropertyOp13
 70
     1
102
RTVSPropertyOp14
 70
     1
102
RTVSPropertyOp15
 70
     1
102
RTVSPropertyOp16
 70
     1
102
RTVSPropertyOp17
 70
     1
102
RTVSPropertyOp18
 70
     1
102
RTVSPropertyOp19
 70
     1
102
RTVSPropertyOp20
 70
     1
102
RTVSPropertyOp21
 70
     1
102
RTVSPropertyOp22
 70
     1
102
RTVSPropertyOp23
 70
     1
102
RTVSPropertyOp24
 70
     1
102
RTVSPropertyOp25
 70
     1
102
RTVSPropertyOp26
 70
     1
102
RTVSPropertyOp27
 70
     1
102
RTVSPropertyOp28
 70
     1
102
RTVSPropertyOp29
 70
     1
102
RTVSPropertyOp30
 70
     1
102
RTVSPropertyOp31
 70
     1
102
RTVSPropertyOp32
 70
     1
102
RTVSPropertyOp33
 70
     1
102
RTVSPropertyOp34
 70
     1
102
RTVSPropertyOp35
 70
     1
102
RTVSPropertyOp36
 70
     1
102
RTVSPropertyOp37
 70
     1
102
RTVSPropertyOp38
 70
     1
102
RTVSPropertyOp39
 70
     1
102
RTVSPropertyOp40
 70
     1
102
RTVSPropertyOp41
 70
     1
102
RTVSPropertyOp42
 70
     1
102
RTVSPropertyOp43
 70
     1
102
RTVSPropertyOp44
 70
     1
102
RTVSPropertyOp45
 70
     1
102
RTVSPropertyOp46
 70
     1
102
RTVSPropertyOp47
 70
     1
102
RTVSPropertyOp48
 70
     1
102
RTVSPropertyOp49
 70
     1
102
RTVSPropertyOp50
 70
     1
102
RTVSPropertyOp51
 70
     0
102
RTVSPropertyOp52
 70
     0
102
RTVSPropertyOp53
 70
     1
102
RTVSPropertyOp54
 70
     1
102
RTVSPropertyOp55
 70
     1
102
RTVSPropertyOp56
 70
     1
102
RTVSPropertyOp57
 70
     1
102
RTVSPropertyOp58
 70
     1
102
RTVSPropertyOp59
 70
     1
102
RTVSPropertyOp60
 70
     1
102
RTVSPropertyOp61
 70
     1
102
RTVSPropertyOp62
 70
     1
  0
XRECORD
  5
EA1
102
{ACAD_REACTORS
330
EA0
102
}
330
EA0
100
AcDbXrecord
280
     1
102
RTVSPost2010Prop28
280
     0
102
RTVSPost2010PropOp28
 70
     1
102
RTVSPost2010Prop29
280
     1
102
RTVSPost2010PropOp29
 70
     1
102
RTVSPost2010Prop30
280
     1
102
RTVSPost2010PropOp30
 70
     1
102
RTVSPost2010Prop31
280
     0
102
RTVSPost2010PropOp31
 70
     1
102
RTVSPost2010Prop32
280
     0
102
RTVSPost2010PropOp32
 70
     1
102
RTVSPost2010Prop33
280
     0
102
RTVSPost2010PropOp33
 70
     1
102
RTVSPost2010Prop34
280
     0
102
RTVSPost2010PropOp34
 70
     1
102
RTVSPost2010Prop35
280
     0
102
RTVSPost2010PropOp35
 70
     1
102
RTVSPost2010Prop36
280
     0
102
RTVSPost2010PropOp36
 70
     1
102
RTVSPost2010Prop37
 90
       50
102
RTVSPost2010PropOp37
 70
     0
102
RTVSPost2010Prop38
140
0.0
102
RTVSPost2010PropOp38
 70
     0
102
RTVSPost2010Prop39
140
1.0
102
RTVSPost2010PropOp39
 70
     0
102
RTVSPost2010Prop40
 90
        0
102
RTVSPost2010PropOp40
 70
     0
102
RTVSPost2010Prop41ColorIndex
 90
       18
102
RTVSPost2010Prop41ColorRGB
 90
        0
102
RTVSPost2010PropOp41
 70
     0
102
RTVSPost2010Prop42
 90
       50
102
RTVSPost2010PropOp42
 70
     0
102
RTVSPost2010Prop43
 90
        3
102
RTVSPost2010PropOp43
 70
     0
102
RTVSPost2010Prop44ColorIndex
 90
        5
102
RTVSPost2010Prop44ColorRGB
 90
      255
102
RTVSPost2010PropOp44
 70
     0
102
RTVSPost2010Prop45
280
     0
102
RTVSPost2010PropOp45
 70
     1
102
RTVSPost2010Prop46
 90
       50
102
RTVSPost2010PropOp46
 70
     0
102
RTVSPost2010Prop47
 90
       50
102
RTVSPost2010PropOp47
 70
     0
102
RTVSPost2010Prop48
 90
       50
102
RTVSPost2010PropOp48
 70
     0
102
RTVSPost2010Prop49
280
     0
102
RTVSPost2010PropOp49
 70
     1
102
RTVSPost2010Prop50
 90
       50
102
RTVSPost2010PropOp50
 70
     0
102
RTVSPost2010Prop51ColorIndex
 90
      256
102
RTVSPost2010Prop51ColorRGB
 90
-16777216
102
RTVSPost2010PropOp51
 70
     0
102
RTVSPost2010Prop52
140
1.0
102
RTVSPost2010PropOp52
 70
     0
102
RTVSPost2010Prop53
 90
        2
102
RTVSPost2010PropOp53
 70
     0
102
RTVSPost2010Prop54
  1
strokes_ogs.tif
102
RTVSPost2010PropOp54
 70
     0
102
RTVSPost2010Prop55
280
     0
102
RTVSPost2010PropOp55
 70
     1
102
RTVSPost2010Prop56
140
1.0
102
RTVSPost2010PropOp56
 70
     0
102
RTVSPost2010Prop57
140
1.0
102
RTVSPost2010PropOp57
 70
     0
102
RTVSPropertyOp0
 70
     0
102
RTVSPropertyOp1
 70
     0
102
RTVSPropertyOp2
 70
     0
102
RTVSPropertyOp3
 70
     0
102
RTVSPropertyOp4
 70
     0
102
RTVSPropertyOp5
 70
     0
102
RTVSPropertyOp6
 70
     0
102
RTVSPropertyOp7
 70
     0
102
RTVSPropertyOp8
 70
     0
102
RTVSPropertyOp9
 70
     0
102
RTVSPropertyOp10
 70
     0
102
RTVSPropertyOp11
 70
     0
102
RTVSPropertyOp12
 70
     0
102
RTVSPropertyOp13
 70
     0
102
RTVSPropertyOp14
 70
     2
102
RTVSPropertyOp15
 70
     0
102
RTVSPropertyOp16
 70
     0
102
RTVSPropertyOp17
 70
     0
102
RTVSPropertyOp18
 70
     0
102
RTVSPropertyOp19
 70
     0
102
RTVSPropertyOp20
 70
     0
102
RTVSPropertyOp21
 70
     0
102
RTVSPropertyOp22
 70
     0
102
RTVSPropertyOp23
 70
     0
102
RTVSPropertyOp24
 70
     0
102
RTVSPropertyOp25
 70
     0
102
RTVSPropertyOp26
 70
     0
102
RTVSPropertyOp27
 70
     0
102
RTVSPropertyOp28
 70
     1
102
RTVSPropertyOp29
 70
     1
102
RTVSPropertyOp30
 70
     1
102
RTVSPropertyOp31
 70
     1
102
RTVSPropertyOp32
 70
     1
102
RTVSPropertyOp33
 70
     1
102
RTVSPropertyOp34
 70
     1
102
RTVSPropertyOp35
 70
     1
102
RTVSPropertyOp36
 70
     1
102
RTVSPropertyOp37
 70
     0
102
RTVSPropertyOp38
 70
     0
102
RTVSPropertyOp39
 70
     0
102
RTVSPropertyOp40
 70
     0
102
RTVSPropertyOp41
 70
     0
102
RTVSPropertyOp42
 70
     0
102
RTVSPropertyOp43
 70
     0
102
RTVSPropertyOp44
 70
     0
102
RTVSPropertyOp45
 70
     1
102
RTVSPropertyOp46
 70
     0
102
RTVSPropertyOp47
 70
     0
102
RTVSPropertyOp48
 70
     0
102
RTVSPropertyOp49
 70
     1
102
RTVSPropertyOp50
 70
     0
102
RTVSPropertyOp51
 70
     0
102
RTVSPropertyOp52
 70
     0
102
RTVSPropertyOp53
 70
     0
102
RTVSPropertyOp54
 70
     0
102
RTVSPropertyOp55
 70
     1
102
RTVSPropertyOp56
 70
     0
102
RTVSPropertyOp57
 70
     0
102
RTVSPropertyOp58
 70
     1
102
RTVSPropertyOp59
 70
     1
102
RTVSPropertyOp60
 70
     1
102
RTVSPropertyOp61
 70
     1
102
RTVSPropertyOp62
 70
     1
  0
XRECORD
  5
E8F
102
{ACAD_REACTORS
330
E8E
102
}
330
E8E
100
AcDbXrecord
280
     1
102
RTVSPost2010Prop28
280
     0
102
RTVSPost2010PropOp28
 70
     1
102
RTVSPost2010Prop29
280
     1
102
RTVSPost2010PropOp29
 70
     1
102
RTVSPost2010Prop30
280
     1
102
RTVSPost2010PropOp30
 70
     1
102
RTVSPost2010Prop31
280
     0
102
RTVSPost2010PropOp31
 70
     1
102
RTVSPost2010Prop32
280
     0
102
RTVSPost2010PropOp32
 70
     1
102
RTVSPost2010Prop33
280
     0
102
RTVSPost2010PropOp33
 70
     1
102
RTVSPost2010Prop34
280
     0
102
RTVSPost2010PropOp34
 70
     1
102
RTVSPost2010Prop35
280
     0
102
RTVSPost2010PropOp35
 70
     1
102
RTVSPost2010Prop36
280
     0
102
RTVSPost2010PropOp36
 70
     1
102
RTVSPost2010Prop37
 90
       50
102
RTVSPost2010PropOp37
 70
     1
102
RTVSPost2010Prop38
140
0.0
102
RTVSPost2010PropOp38
 70
     1
102
RTVSPost2010Prop39
140
1.0
102
RTVSPost2010PropOp39
 70
     1
102
RTVSPost2010Prop40
 90
        0
102
RTVSPost2010PropOp40
 70
     1
102
RTVSPost2010Prop41ColorIndex
 90
       18
102
RTVSPost2010Prop41ColorRGB
 90
        0
102
RTVSPost2010PropOp41
 70
     1
102
RTVSPost2010Prop42
 90
       50
102
RTVSPost2010PropOp42
 70
     1
102
RTVSPost2010Prop43
 90
        3
102
RTVSPost2010PropOp43
 70
     1
102
RTVSPost2010Prop44ColorIndex
 90
        5
102
RTVSPost2010Prop44ColorRGB
 90
      255
102
RTVSPost2010PropOp44
 70
     1
102
RTVSPost2010Prop45
280
     0
102
RTVSPost2010PropOp45
 70
     1
102
RTVSPost2010Prop46
 90
       50
102
RTVSPost2010PropOp46
 70
     1
102
RTVSPost2010Prop47
 90
       50
102
RTVSPost2010PropOp47
 70
     1
102
RTVSPost2010Prop48
 90
       50
102
RTVSPost2010PropOp48
 70
     1
102
RTVSPost2010Prop49
280
     0
102
RTVSPost2010PropOp49
 70
     1
102
RTVSPost2010Prop50
 90
       50
102
RTVSPost2010PropOp50
 70
     1
102
RTVSPost2010Prop51ColorIndex
 90
      256
102
RTVSPost2010Prop51ColorRGB
 90
-16777216
102
RTVSPost2010PropOp51
 70
     0
102
RTVSPost2010Prop52
140
1.0
102
RTVSPost2010PropOp52
 70
     0
102
RTVSPost2010Prop53
 90
        2
102
RTVSPost2010PropOp53
 70
     1
102
RTVSPost2010Prop54
  1
strokes_ogs.tif
102
RTVSPost2010PropOp54
 70
     1
102
RTVSPost2010Prop55
280
     0
102
RTVSPost2010PropOp55
 70
     1
102
RTVSPost2010Prop56
140
1.0
102
RTVSPost2010PropOp56
 70
     1
102
RTVSPost2010Prop57
140
1.0
102
RTVSPost2010PropOp57
 70
     1
102
RTVSPropertyOp0
 70
     1
102
RTVSPropertyOp1
 70
     1
102
RTVSPropertyOp2
 70
     1
102
RTVSPropertyOp3
 70
     1
102
RTVSPropertyOp4
 70
     1
102
RTVSPropertyOp5
 70
     1
102
RTVSPropertyOp6
 70
     1
102
RTVSPropertyOp7
 70
     1
102
RTVSPropertyOp8
 70
     1
102
RTVSPropertyOp9
 70
     1
102
RTVSPropertyOp10
 70
     1
102
RTVSPropertyOp11
 70
     1
102
RTVSPropertyOp12
 70
     1
102
RTVSPropertyOp13
 70
     1
102
RTVSPropertyOp14
 70
     1
102
RTVSPropertyOp15
 70
     1
102
RTVSPropertyOp16
 70
     1
102
RTVSPropertyOp17
 70
     1
102
RTVSPropertyOp18
 70
     1
102
RTVSPropertyOp19
 70
     1
102
RTVSPropertyOp20
 70
     1
102
RTVSPropertyOp21
 70
     1
102
RTVSPropertyOp22
 70
     1
102
RTVSPropertyOp23
 70
     1
102
RTVSPropertyOp24
 70
     1
102
RTVSPropertyOp25
 70
     1
102
RTVSPropertyOp26
 70
     1
102
RTVSPropertyOp27
 70
     1
102
RTVSPropertyOp28
 70
     1
102
RTVSPropertyOp29
 70
     1
102
RTVSPropertyOp30
 70
     1
102
RTVSPropertyOp31
 70
     1
102
RTVSPropertyOp32
 70
     1
102
RTVSPropertyOp33
 70
     1
102
RTVSPropertyOp34
 70
     1
102
RTVSPropertyOp35
 70
     1
102
RTVSPropertyOp36
 70
     1
102
RTVSPropertyOp37
 70
     1
102
RTVSPropertyOp38
 70
     1
102
RTVSPropertyOp39
 70
     1
102
RTVSPropertyOp40
 70
     1
102
RTVSPropertyOp41
 70
     1
102
RTVSPropertyOp42
 70
     1
102
RTVSPropertyOp43
 70
     1
102
RTVSPropertyOp44
 70
     1
102
RTVSPropertyOp45
 70
     1
102
RTVSPropertyOp46
 70
     1
102
RTVSPropertyOp47
 70
     1
102
RTVSPropertyOp48
 70
     1
102
RTVSPropertyOp49
 70
     1
102
RTVSPropertyOp50
 70
     1
102
RTVSPropertyOp51
 70
     0
102
RTVSPropertyOp52
 70
     0
102
RTVSPropertyOp53
 70
     1
102
RTVSPropertyOp54
 70
     1
102
RTVSPropertyOp55
 70
     1
102
RTVSPropertyOp56
 70
     1
102
RTVSPropertyOp57
 70
     1
102
RTVSPropertyOp58
 70
     1
102
RTVSPropertyOp59
 70
     1
102
RTVSPropertyOp60
 70
     1
102
RTVSPropertyOp61
 70
     1
102
RTVSPropertyOp62
 70
     1
  0
XRECORD
  5
E73
102
{ACAD_REACTORS
330
E72
102
}
330
E72
100
AcDbXrecord
280
     1
102
RTVSPost2010Prop28
280
     0
102
RTVSPost2010PropOp28
 70
     1
102
RTVSPost2010Prop29
280
     1
102
RTVSPost2010PropOp29
 70
     1
102
RTVSPost2010Prop30
280
     1
102
RTVSPost2010PropOp30
 70
     1
102
RTVSPost2010Prop31
280
     0
102
RTVSPost2010PropOp31
 70
     1
102
RTVSPost2010Prop32
280
     0
102
RTVSPost2010PropOp32
 70
     1
102
RTVSPost2010Prop33
280
     0
102
RTVSPost2010PropOp33
 70
     1
102
RTVSPost2010Prop34
280
     0
102
RTVSPost2010PropOp34
 70
     1
102
RTVSPost2010Prop35
280
     0
102
RTVSPost2010PropOp35
 70
     1
102
RTVSPost2010Prop36
280
     0
102
RTVSPost2010PropOp36
 70
     1
102
RTVSPost2010Prop37
 90
       50
102
RTVSPost2010PropOp37
 70
     1
102
RTVSPost2010Prop38
140
0.0
102
RTVSPost2010PropOp38
 70
     1
102
RTVSPost2010Prop39
140
1.0
102
RTVSPost2010PropOp39
 70
     1
102
RTVSPost2010Prop40
 90
        0
102
RTVSPost2010PropOp40
 70
     1
102
RTVSPost2010Prop41ColorIndex
 90
       18
102
RTVSPost2010Prop41ColorRGB
 90
        0
102
RTVSPost2010PropOp41
 70
     1
102
RTVSPost2010Prop42
 90
       50
102
RTVSPost2010PropOp42
 70
     1
102
RTVSPost2010Prop43
 90
        3
102
RTVSPost2010PropOp43
 70
     1
102
RTVSPost2010Prop44ColorIndex
 90
        5
102
RTVSPost2010Prop44ColorRGB
 90
      255
102
RTVSPost2010PropOp44
 70
     1
102
RTVSPost2010Prop45
280
     0
102
RTVSPost2010PropOp45
 70
     1
102
RTVSPost2010Prop46
 90
       50
102
RTVSPost2010PropOp46
 70
     1
102
RTVSPost2010Prop47
 90
       50
102
RTVSPost2010PropOp47
 70
     1
102
RTVSPost2010Prop48
 90
       50
102
RTVSPost2010PropOp48
 70
     1
102
RTVSPost2010Prop49
280
     0
102
RTVSPost2010PropOp49
 70
     1
102
RTVSPost2010Prop50
 90
       50
102
RTVSPost2010PropOp50
 70
     1
102
RTVSPost2010Prop51ColorIndex
 90
      256
102
RTVSPost2010Prop51ColorRGB
 90
-16777216
102
RTVSPost2010PropOp51
 70
     0
102
RTVSPost2010Prop52
140
1.0
102
RTVSPost2010PropOp52
 70
     0
102
RTVSPost2010Prop53
 90
        2
102
RTVSPost2010PropOp53
 70
     1
102
RTVSPost2010Prop54
  1
strokes_ogs.tif
102
RTVSPost2010PropOp54
 70
     1
102
RTVSPost2010Prop55
280
     0
102
RTVSPost2010PropOp55
 70
     1
102
RTVSPost2010Prop56
140
1.0
102
RTVSPost2010PropOp56
 70
     1
102
RTVSPost2010Prop57
140
1.0
102
RTVSPost2010PropOp57
 70
     1
102
RTVSPropertyOp0
 70
     1
102
RTVSPropertyOp1
 70
     1
102
RTVSPropertyOp2
 70
     1
102
RTVSPropertyOp3
 70
     1
102
RTVSPropertyOp4
 70
     1
102
RTVSPropertyOp5
 70
     1
102
RTVSPropertyOp6
 70
     1
102
RTVSPropertyOp7
 70
     1
102
RTVSPropertyOp8
 70
     1
102
RTVSPropertyOp9
 70
     1
102
RTVSPropertyOp10
 70
     1
102
RTVSPropertyOp11
 70
     1
102
RTVSPropertyOp12
 70
     1
102
RTVSPropertyOp13
 70
     1
102
RTVSPropertyOp14
 70
     1
102
RTVSPropertyOp15
 70
     1
102
RTVSPropertyOp16
 70
     1
102
RTVSPropertyOp17
 70
     1
102
RTVSPropertyOp18
 70
     1
102
RTVSPropertyOp19
 70
     1
102
RTVSPropertyOp20
 70
     1
102
RTVSPropertyOp21
 70
     1
102
RTVSPropertyOp22
 70
     1
102
RTVSPropertyOp23
 70
     1
102
RTVSPropertyOp24
 70
     1
102
RTVSPropertyOp25
 70
     1
102
RTVSPropertyOp26
 70
     1
102
RTVSPropertyOp27
 70
     1
102
RTVSPropertyOp28
 70
     1
102
RTVSPropertyOp29
 70
     1
102
RTVSPropertyOp30
 70
     1
102
RTVSPropertyOp31
 70
     1
102
RTVSPropertyOp32
 70
     1
102
RTVSPropertyOp33
 70
     1
102
RTVSPropertyOp34
 70
     1
102
RTVSPropertyOp35
 70
     1
102
RTVSPropertyOp36
 70
     1
102
RTVSPropertyOp37
 70
     1
102
RTVSPropertyOp38
 70
     1
102
RTVSPropertyOp39
 70
     1
102
RTVSPropertyOp40
 70
     1
102
RTVSPropertyOp41
 70
     1
102
RTVSPropertyOp42
 70
     1
102
RTVSPropertyOp43
 70
     1
102
RTVSPropertyOp44
 70
     1
102
RTVSPropertyOp45
 70
     1
102
RTVSPropertyOp46
 70
     1
102
RTVSPropertyOp47
 70
     1
102
RTVSPropertyOp48
 70
     1
102
RTVSPropertyOp49
 70
     1
102
RTVSPropertyOp50
 70
     1
102
RTVSPropertyOp51
 70
     0
102
RTVSPropertyOp52
 70
     0
102
RTVSPropertyOp53
 70
     1
102
RTVSPropertyOp54
 70
     1
102
RTVSPropertyOp55
 70
     1
102
RTVSPropertyOp56
 70
     1
102
RTVSPropertyOp57
 70
     1
102
RTVSPropertyOp58
 70
     1
102
RTVSPropertyOp59
 70
     1
102
RTVSPropertyOp60
 70
     1
102
RTVSPropertyOp61
 70
     1
102
RTVSPropertyOp62
 70
     1
  0
XRECORD
  5
E75
102
{ACAD_REACTORS
330
E74
102
}
330
E74
100
AcDbXrecord
280
     1
102
RTVSPost2010Prop28
280
     0
102
RTVSPost2010PropOp28
 70
     1
102
RTVSPost2010Prop29
280
     1
102
RTVSPost2010PropOp29
 70
     1
102
RTVSPost2010Prop30
280
     1
102
RTVSPost2010PropOp30
 70
     1
102
RTVSPost2010Prop31
280
     0
102
RTVSPost2010PropOp31
 70
     1
102
RTVSPost2010Prop32
280
     0
102
RTVSPost2010PropOp32
 70
     1
102
RTVSPost2010Prop33
280
     0
102
RTVSPost2010PropOp33
 70
     1
102
RTVSPost2010Prop34
280
     0
102
RTVSPost2010PropOp34
 70
     1
102
RTVSPost2010Prop35
280
     0
102
RTVSPost2010PropOp35
 70
     1
102
RTVSPost2010Prop36
280
     0
102
RTVSPost2010PropOp36
 70
     1
102
RTVSPost2010Prop37
 90
       50
102
RTVSPost2010PropOp37
 70
     1
102
RTVSPost2010Prop38
140
0.0
102
RTVSPost2010PropOp38
 70
     1
102
RTVSPost2010Prop39
140
1.0
102
RTVSPost2010PropOp39
 70
     1
102
RTVSPost2010Prop40
 90
        0
102
RTVSPost2010PropOp40
 70
     1
102
RTVSPost2010Prop41ColorIndex
 90
       18
102
RTVSPost2010Prop41ColorRGB
 90
        0
102
RTVSPost2010PropOp41
 70
     1
102
RTVSPost2010Prop42
 90
       50
102
RTVSPost2010PropOp42
 70
     1
102
RTVSPost2010Prop43
 90
        3
102
RTVSPost2010PropOp43
 70
     1
102
RTVSPost2010Prop44ColorIndex
 90
        5
102
RTVSPost2010Prop44ColorRGB
 90
      255
102
RTVSPost2010PropOp44
 70
     1
102
RTVSPost2010Prop45
280
     0
102
RTVSPost2010PropOp45
 70
     1
102
RTVSPost2010Prop46
 90
       50
102
RTVSPost2010PropOp46
 70
     1
102
RTVSPost2010Prop47
 90
       50
102
RTVSPost2010PropOp47
 70
     1
102
RTVSPost2010Prop48
 90
       50
102
RTVSPost2010PropOp48
 70
     1
102
RTVSPost2010Prop49
280
     0
102
RTVSPost2010PropOp49
 70
     1
102
RTVSPost2010Prop50
 90
       50
102
RTVSPost2010PropOp50
 70
     1
102
RTVSPost2010Prop51ColorIndex
 90
      256
102
RTVSPost2010Prop51ColorRGB
 90
-16777216
102
RTVSPost2010PropOp51
 70
     0
102
RTVSPost2010Prop52
140
1.0
102
RTVSPost2010PropOp52
 70
     0
102
RTVSPost2010Prop53
 90
        2
102
RTVSPost2010PropOp53
 70
     1
102
RTVSPost2010Prop54
  1
strokes_ogs.tif
102
RTVSPost2010PropOp54
 70
     1
102
RTVSPost2010Prop55
280
     0
102
RTVSPost2010PropOp55
 70
     1
102
RTVSPost2010Prop56
140
1.0
102
RTVSPost2010PropOp56
 70
     1
102
RTVSPost2010Prop57
140
1.0
102
RTVSPost2010PropOp57
 70
     1
102
RTVSPropertyOp0
 70
     1
102
RTVSPropertyOp1
 70
     1
102
RTVSPropertyOp2
 70
     1
102
RTVSPropertyOp3
 70
     1
102
RTVSPropertyOp4
 70
     1
102
RTVSPropertyOp5
 70
     1
102
RTVSPropertyOp6
 70
     1
102
RTVSPropertyOp7
 70
     1
102
RTVSPropertyOp8
 70
     1
102
RTVSPropertyOp9
 70
     1
102
RTVSPropertyOp10
 70
     1
102
RTVSPropertyOp11
 70
     1
102
RTVSPropertyOp12
 70
     1
102
RTVSPropertyOp13
 70
     1
102
RTVSPropertyOp14
 70
     1
102
RTVSPropertyOp15
 70
     1
102
RTVSPropertyOp16
 70
     1
102
RTVSPropertyOp17
 70
     1
102
RTVSPropertyOp18
 70
     1
102
RTVSPropertyOp19
 70
     1
102
RTVSPropertyOp20
 70
     1
102
RTVSPropertyOp21
 70
     1
102
RTVSPropertyOp22
 70
     1
102
RTVSPropertyOp23
 70
     1
102
RTVSPropertyOp24
 70
     1
102
RTVSPropertyOp25
 70
     1
102
RTVSPropertyOp26
 70
     1
102
RTVSPropertyOp27
 70
     1
102
RTVSPropertyOp28
 70
     1
102
RTVSPropertyOp29
 70
     1
102
RTVSPropertyOp30
 70
     1
102
RTVSPropertyOp31
 70
     1
102
RTVSPropertyOp32
 70
     1
102
RTVSPropertyOp33
 70
     1
102
RTVSPropertyOp34
 70
     1
102
RTVSPropertyOp35
 70
     1
102
RTVSPropertyOp36
 70
     1
102
RTVSPropertyOp37
 70
     1
102
RTVSPropertyOp38
 70
     1
102
RTVSPropertyOp39
 70
     1
102
RTVSPropertyOp40
 70
     1
102
RTVSPropertyOp41
 70
     1
102
RTVSPropertyOp42
 70
     1
102
RTVSPropertyOp43
 70
     1
102
RTVSPropertyOp44
 70
     1
102
RTVSPropertyOp45
 70
     1
102
RTVSPropertyOp46
 70
     1
102
RTVSPropertyOp47
 70
     1
102
RTVSPropertyOp48
 70
     1
102
RTVSPropertyOp49
 70
     1
102
RTVSPropertyOp50
 70
     1
102
RTVSPropertyOp51
 70
     0
102
RTVSPropertyOp52
 70
     0
102
RTVSPropertyOp53
 70
     1
102
RTVSPropertyOp54
 70
     1
102
RTVSPropertyOp55
 70
     1
102
RTVSPropertyOp56
 70
     1
102
RTVSPropertyOp57
 70
     1
102
RTVSPropertyOp58
 70
     1
102
RTVSPropertyOp59
 70
     1
102
RTVSPropertyOp60
 70
     1
102
RTVSPropertyOp61
 70
     1
102
RTVSPropertyOp62
 70
     1
  0
XRECORD
  5
E77
102
{ACAD_REACTORS
330
E76
102
}
330
E76
100
AcDbXrecord
280
     1
102
RTVSPost2010Prop28
280
     0
102
RTVSPost2010PropOp28
 70
     1
102
RTVSPost2010Prop29
280
     1
102
RTVSPost2010PropOp29
 70
     1
102
RTVSPost2010Prop30
280
     1
102
RTVSPost2010PropOp30
 70
     1
102
RTVSPost2010Prop31
280
     0
102
RTVSPost2010PropOp31
 70
     1
102
RTVSPost2010Prop32
280
     0
102
RTVSPost2010PropOp32
 70
     1
102
RTVSPost2010Prop33
280
     0
102
RTVSPost2010PropOp33
 70
     1
102
RTVSPost2010Prop34
280
     0
102
RTVSPost2010PropOp34
 70
     1
102
RTVSPost2010Prop35
280
     0
102
RTVSPost2010PropOp35
 70
     1
102
RTVSPost2010Prop36
280
     0
102
RTVSPost2010PropOp36
 70
     1
102
RTVSPost2010Prop37
 90
       50
102
RTVSPost2010PropOp37
 70
     1
102
RTVSPost2010Prop38
140
0.0
102
RTVSPost2010PropOp38
 70
     1
102
RTVSPost2010Prop39
140
1.0
102
RTVSPost2010PropOp39
 70
     1
102
RTVSPost2010Prop40
 90
        0
102
RTVSPost2010PropOp40
 70
     1
102
RTVSPost2010Prop41ColorIndex
 90
       18
102
RTVSPost2010Prop41ColorRGB
 90
        0
102
RTVSPost2010PropOp41
 70
     1
102
RTVSPost2010Prop42
 90
       50
102
RTVSPost2010PropOp42
 70
     1
102
RTVSPost2010Prop43
 90
        3
102
RTVSPost2010PropOp43
 70
     1
102
RTVSPost2010Prop44ColorIndex
 90
        5
102
RTVSPost2010Prop44ColorRGB
 90
      255
102
RTVSPost2010PropOp44
 70
     1
102
RTVSPost2010Prop45
280
     0
102
RTVSPost2010PropOp45
 70
     1
102
RTVSPost2010Prop46
 90
       50
102
RTVSPost2010PropOp46
 70
     1
102
RTVSPost2010Prop47
 90
       50
102
RTVSPost2010PropOp47
 70
     1
102
RTVSPost2010Prop48
 90
       50
102
RTVSPost2010PropOp48
 70
     1
102
RTVSPost2010Prop49
280
     0
102
RTVSPost2010PropOp49
 70
     1
102
RTVSPost2010Prop50
 90
       50
102
RTVSPost2010PropOp50
 70
     1
102
RTVSPost2010Prop51ColorIndex
 90
      256
102
RTVSPost2010Prop51ColorRGB
 90
-16777216
102
RTVSPost2010PropOp51
 70
     0
102
RTVSPost2010Prop52
140
1.0
102
RTVSPost2010PropOp52
 70
     0
102
RTVSPost2010Prop53
 90
        2
102
RTVSPost2010PropOp53
 70
     1
102
RTVSPost2010Prop54
  1
strokes_ogs.tif
102
RTVSPost2010PropOp54
 70
     1
102
RTVSPost2010Prop55
280
     0
102
RTVSPost2010PropOp55
 70
     1
102
RTVSPost2010Prop56
140
1.0
102
RTVSPost2010PropOp56
 70
     1
102
RTVSPost2010Prop57
140
1.0
102
RTVSPost2010PropOp57
 70
     1
102
RTVSPropertyOp0
 70
     1
102
RTVSPropertyOp1
 70
     1
102
RTVSPropertyOp2
 70
     1
102
RTVSPropertyOp3
 70
     1
102
RTVSPropertyOp4
 70
     1
102
RTVSPropertyOp5
 70
     1
102
RTVSPropertyOp6
 70
     1
102
RTVSPropertyOp7
 70
     1
102
RTVSPropertyOp8
 70
     1
102
RTVSPropertyOp9
 70
     1
102
RTVSPropertyOp10
 70
     1
102
RTVSPropertyOp11
 70
     1
102
RTVSPropertyOp12
 70
     1
102
RTVSPropertyOp13
 70
     1
102
RTVSPropertyOp14
 70
     1
102
RTVSPropertyOp15
 70
     1
102
RTVSPropertyOp16
 70
     1
102
RTVSPropertyOp17
 70
     1
102
RTVSPropertyOp18
 70
     1
102
RTVSPropertyOp19
 70
     1
102
RTVSPropertyOp20
 70
     1
102
RTVSPropertyOp21
 70
     1
102
RTVSPropertyOp22
 70
     1
102
RTVSPropertyOp23
 70
     1
102
RTVSPropertyOp24
 70
     1
102
RTVSPropertyOp25
 70
     1
102
RTVSPropertyOp26
 70
     1
102
RTVSPropertyOp27
 70
     1
102
RTVSPropertyOp28
 70
     1
102
RTVSPropertyOp29
 70
     1
102
RTVSPropertyOp30
 70
     1
102
RTVSPropertyOp31
 70
     1
102
RTVSPropertyOp32
 70
     1
102
RTVSPropertyOp33
 70
     1
102
RTVSPropertyOp34
 70
     1
102
RTVSPropertyOp35
 70
     1
102
RTVSPropertyOp36
 70
     1
102
RTVSPropertyOp37
 70
     1
102
RTVSPropertyOp38
 70
     1
102
RTVSPropertyOp39
 70
     1
102
RTVSPropertyOp40
 70
     1
102
RTVSPropertyOp41
 70
     1
102
RTVSPropertyOp42
 70
     1
102
RTVSPropertyOp43
 70
     1
102
RTVSPropertyOp44
 70
     1
102
RTVSPropertyOp45
 70
     1
102
RTVSPropertyOp46
 70
     1
102
RTVSPropertyOp47
 70
     1
102
RTVSPropertyOp48
 70
     1
102
RTVSPropertyOp49
 70
     1
102
RTVSPropertyOp50
 70
     1
102
RTVSPropertyOp51
 70
     0
102
RTVSPropertyOp52
 70
     0
102
RTVSPropertyOp53
 70
     1
102
RTVSPropertyOp54
 70
     1
102
RTVSPropertyOp55
 70
     1
102
RTVSPropertyOp56
 70
     1
102
RTVSPropertyOp57
 70
     1
102
RTVSPropertyOp58
 70
     1
102
RTVSPropertyOp59
 70
     1
102
RTVSPropertyOp60
 70
     1
102
RTVSPropertyOp61
 70
     1
102
RTVSPropertyOp62
 70
     1
  0
XRECORD
  5
E79
102
{ACAD_REACTORS
330
E78
102
}
330
E78
100
AcDbXrecord
280
     1
102
RTVSPost2010Prop28
280
     0
102
RTVSPost2010PropOp28
 70
     1
102
RTVSPost2010Prop29
280
     1
102
RTVSPost2010PropOp29
 70
     1
102
RTVSPost2010Prop30
280
     1
102
RTVSPost2010PropOp30
 70
     1
102
RTVSPost2010Prop31
280
     0
102
RTVSPost2010PropOp31
 70
     1
102
RTVSPost2010Prop32
280
     0
102
RTVSPost2010PropOp32
 70
     1
102
RTVSPost2010Prop33
280
     0
102
RTVSPost2010PropOp33
 70
     1
102
RTVSPost2010Prop34
280
     0
102
RTVSPost2010PropOp34
 70
     1
102
RTVSPost2010Prop35
280
     0
102
RTVSPost2010PropOp35
 70
     1
102
RTVSPost2010Prop36
280
     0
102
RTVSPost2010PropOp36
 70
     1
102
RTVSPost2010Prop37
 90
       50
102
RTVSPost2010PropOp37
 70
     1
102
RTVSPost2010Prop38
140
0.0
102
RTVSPost2010PropOp38
 70
     1
102
RTVSPost2010Prop39
140
1.0
102
RTVSPost2010PropOp39
 70
     1
102
RTVSPost2010Prop40
 90
        0
102
RTVSPost2010PropOp40
 70
     1
102
RTVSPost2010Prop41ColorIndex
 90
       18
102
RTVSPost2010Prop41ColorRGB
 90
        0
102
RTVSPost2010PropOp41
 70
     1
102
RTVSPost2010Prop42
 90
       50
102
RTVSPost2010PropOp42
 70
     1
102
RTVSPost2010Prop43
 90
        3
102
RTVSPost2010PropOp43
 70
     1
102
RTVSPost2010Prop44ColorIndex
 90
        5
102
RTVSPost2010Prop44ColorRGB
 90
      255
102
RTVSPost2010PropOp44
 70
     1
102
RTVSPost2010Prop45
280
     0
102
RTVSPost2010PropOp45
 70
     1
102
RTVSPost2010Prop46
 90
       50
102
RTVSPost2010PropOp46
 70
     1
102
RTVSPost2010Prop47
 90
       50
102
RTVSPost2010PropOp47
 70
     1
102
RTVSPost2010Prop48
 90
       50
102
RTVSPost2010PropOp48
 70
     1
102
RTVSPost2010Prop49
280
     0
102
RTVSPost2010PropOp49
 70
     1
102
RTVSPost2010Prop50
 90
       50
102
RTVSPost2010PropOp50
 70
     1
102
RTVSPost2010Prop51ColorIndex
 90
      256
102
RTVSPost2010Prop51ColorRGB
 90
-16777216
102
RTVSPost2010PropOp51
 70
     0
102
RTVSPost2010Prop52
140
1.0
102
RTVSPost2010PropOp52
 70
     0
102
RTVSPost2010Prop53
 90
        2
102
RTVSPost2010PropOp53
 70
     1
102
RTVSPost2010Prop54
  1
strokes_ogs.tif
102
RTVSPost2010PropOp54
 70
     1
102
RTVSPost2010Prop55
280
     0
102
RTVSPost2010PropOp55
 70
     1
102
RTVSPost2010Prop56
140
1.0
102
RTVSPost2010PropOp56
 70
     1
102
RTVSPost2010Prop57
140
1.0
102
RTVSPost2010PropOp57
 70
     1
102
RTVSPropertyOp0
 70
     1
102
RTVSPropertyOp1
 70
     1
102
RTVSPropertyOp2
 70
     1
102
RTVSPropertyOp3
 70
     1
102
RTVSPropertyOp4
 70
     1
102
RTVSPropertyOp5
 70
     1
102
RTVSPropertyOp6
 70
     1
102
RTVSPropertyOp7
 70
     1
102
RTVSPropertyOp8
 70
     1
102
RTVSPropertyOp9
 70
     1
102
RTVSPropertyOp10
 70
     1
102
RTVSPropertyOp11
 70
     1
102
RTVSPropertyOp12
 70
     1
102
RTVSPropertyOp13
 70
     1
102
RTVSPropertyOp14
 70
     1
102
RTVSPropertyOp15
 70
     1
102
RTVSPropertyOp16
 70
     1
102
RTVSPropertyOp17
 70
     1
102
RTVSPropertyOp18
 70
     1
102
RTVSPropertyOp19
 70
     1
102
RTVSPropertyOp20
 70
     1
102
RTVSPropertyOp21
 70
     1
102
RTVSPropertyOp22
 70
     1
102
RTVSPropertyOp23
 70
     1
102
RTVSPropertyOp24
 70
     1
102
RTVSPropertyOp25
 70
     1
102
RTVSPropertyOp26
 70
     1
102
RTVSPropertyOp27
 70
     1
102
RTVSPropertyOp28
 70
     1
102
RTVSPropertyOp29
 70
     1
102
RTVSPropertyOp30
 70
     1
102
RTVSPropertyOp31
 70
     1
102
RTVSPropertyOp32
 70
     1
102
RTVSPropertyOp33
 70
     1
102
RTVSPropertyOp34
 70
     1
102
RTVSPropertyOp35
 70
     1
102
RTVSPropertyOp36
 70
     1
102
RTVSPropertyOp37
 70
     1
102
RTVSPropertyOp38
 70
     1
102
RTVSPropertyOp39
 70
     1
102
RTVSPropertyOp40
 70
     1
102
RTVSPropertyOp41
 70
     1
102
RTVSPropertyOp42
 70
     1
102
RTVSPropertyOp43
 70
     1
102
RTVSPropertyOp44
 70
     1
102
RTVSPropertyOp45
 70
     1
102
RTVSPropertyOp46
 70
     1
102
RTVSPropertyOp47
 70
     1
102
RTVSPropertyOp48
 70
     1
102
RTVSPropertyOp49
 70
     1
102
RTVSPropertyOp50
 70
     1
102
RTVSPropertyOp51
 70
     0
102
RTVSPropertyOp52
 70
     0
102
RTVSPropertyOp53
 70
     1
102
RTVSPropertyOp54
 70
     1
102
RTVSPropertyOp55
 70
     1
102
RTVSPropertyOp56
 70
     1
102
RTVSPropertyOp57
 70
     1
102
RTVSPropertyOp58
 70
     1
102
RTVSPropertyOp59
 70
     1
102
RTVSPropertyOp60
 70
     1
102
RTVSPropertyOp61
 70
     1
102
RTVSPropertyOp62
 70
     1
  0
XRECORD
  5
E81
102
{ACAD_REACTORS
330
E80
102
}
330
E80
100
AcDbXrecord
280
     1
102
RTVSPost2010Prop28
280
     0
102
RTVSPost2010PropOp28
 70
     1
102
RTVSPost2010Prop29
280
     1
102
RTVSPost2010PropOp29
 70
     1
102
RTVSPost2010Prop30
280
     1
102
RTVSPost2010PropOp30
 70
     1
102
RTVSPost2010Prop31
280
     0
102
RTVSPost2010PropOp31
 70
     1
102
RTVSPost2010Prop32
280
     0
102
RTVSPost2010PropOp32
 70
     1
102
RTVSPost2010Prop33
280
     0
102
RTVSPost2010PropOp33
 70
     1
102
RTVSPost2010Prop34
280
     0
102
RTVSPost2010PropOp34
 70
     1
102
RTVSPost2010Prop35
280
     0
102
RTVSPost2010PropOp35
 70
     1
102
RTVSPost2010Prop36
280
     0
102
RTVSPost2010PropOp36
 70
     1
102
RTVSPost2010Prop37
 90
       50
102
RTVSPost2010PropOp37
 70
     1
102
RTVSPost2010Prop38
140
0.0
102
RTVSPost2010PropOp38
 70
     1
102
RTVSPost2010Prop39
140
1.0
102
RTVSPost2010PropOp39
 70
     1
102
RTVSPost2010Prop40
 90
        0
102
RTVSPost2010PropOp40
 70
     1
102
RTVSPost2010Prop41ColorIndex
 90
       18
102
RTVSPost2010Prop41ColorRGB
 90
        0
102
RTVSPost2010PropOp41
 70
     1
102
RTVSPost2010Prop42
 90
       50
102
RTVSPost2010PropOp42
 70
     1
102
RTVSPost2010Prop43
 90
        3
102
RTVSPost2010PropOp43
 70
     1
102
RTVSPost2010Prop44ColorIndex
 90
        5
102
RTVSPost2010Prop44ColorRGB
 90
      255
102
RTVSPost2010PropOp44
 70
     1
102
RTVSPost2010Prop45
280
     0
102
RTVSPost2010PropOp45
 70
     1
102
RTVSPost2010Prop46
 90
       50
102
RTVSPost2010PropOp46
 70
     1
102
RTVSPost2010Prop47
 90
       50
102
RTVSPost2010PropOp47
 70
     1
102
RTVSPost2010Prop48
 90
       50
102
RTVSPost2010PropOp48
 70
     1
102
RTVSPost2010Prop49
280
     0
102
RTVSPost2010PropOp49
 70
     1
102
RTVSPost2010Prop50
 90
       50
102
RTVSPost2010PropOp50
 70
     1
102
RTVSPost2010Prop51ColorIndex
 90
      256
102
RTVSPost2010Prop51ColorRGB
 90
-16777216
102
RTVSPost2010PropOp51
 70
     0
102
RTVSPost2010Prop52
140
1.0
102
RTVSPost2010PropOp52
 70
     0
102
RTVSPost2010Prop53
 90
        2
102
RTVSPost2010PropOp53
 70
     1
102
RTVSPost2010Prop54
  1
strokes_ogs.tif
102
RTVSPost2010PropOp54
 70
     1
102
RTVSPost2010Prop55
280
     0
102
RTVSPost2010PropOp55
 70
     1
102
RTVSPost2010Prop56
140
1.0
102
RTVSPost2010PropOp56
 70
     1
102
RTVSPost2010Prop57
140
1.0
102
RTVSPost2010PropOp57
 70
     1
102
RTVSPropertyOp0
 70
     1
102
RTVSPropertyOp1
 70
     1
102
RTVSPropertyOp2
 70
     1
102
RTVSPropertyOp3
 70
     1
102
RTVSPropertyOp4
 70
     1
102
RTVSPropertyOp5
 70
     1
102
RTVSPropertyOp6
 70
     1
102
RTVSPropertyOp7
 70
     1
102
RTVSPropertyOp8
 70
     1
102
RTVSPropertyOp9
 70
     1
102
RTVSPropertyOp10
 70
     1
102
RTVSPropertyOp11
 70
     1
102
RTVSPropertyOp12
 70
     1
102
RTVSPropertyOp13
 70
     1
102
RTVSPropertyOp14
 70
     1
102
RTVSPropertyOp15
 70
     1
102
RTVSPropertyOp16
 70
     1
102
RTVSPropertyOp17
 70
     1
102
RTVSPropertyOp18
 70
     1
102
RTVSPropertyOp19
 70
     1
102
RTVSPropertyOp20
 70
     1
102
RTVSPropertyOp21
 70
     1
102
RTVSPropertyOp22
 70
     1
102
RTVSPropertyOp23
 70
     1
102
RTVSPropertyOp24
 70
     1
102
RTVSPropertyOp25
 70
     1
102
RTVSPropertyOp26
 70
     1
102
RTVSPropertyOp27
 70
     1
102
RTVSPropertyOp28
 70
     1
102
RTVSPropertyOp29
 70
     1
102
RTVSPropertyOp30
 70
     1
102
RTVSPropertyOp31
 70
     1
102
RTVSPropertyOp32
 70
     1
102
RTVSPropertyOp33
 70
     1
102
RTVSPropertyOp34
 70
     1
102
RTVSPropertyOp35
 70
     1
102
RTVSPropertyOp36
 70
     1
102
RTVSPropertyOp37
 70
     1
102
RTVSPropertyOp38
 70
     1
102
RTVSPropertyOp39
 70
     1
102
RTVSPropertyOp40
 70
     1
102
RTVSPropertyOp41
 70
     1
102
RTVSPropertyOp42
 70
     1
102
RTVSPropertyOp43
 70
     1
102
RTVSPropertyOp44
 70
     1
102
RTVSPropertyOp45
 70
     1
102
RTVSPropertyOp46
 70
     1
102
RTVSPropertyOp47
 70
     1
102
RTVSPropertyOp48
 70
     1
102
RTVSPropertyOp49
 70
     1
102
RTVSPropertyOp50
 70
     1
102
RTVSPropertyOp51
 70
     0
102
RTVSPropertyOp52
 70
     0
102
RTVSPropertyOp53
 70
     1
102
RTVSPropertyOp54
 70
     1
102
RTVSPropertyOp55
 70
     1
102
RTVSPropertyOp56
 70
     1
102
RTVSPropertyOp57
 70
     1
102
RTVSPropertyOp58
 70
     1
102
RTVSPropertyOp59
 70
     1
102
RTVSPropertyOp60
 70
     1
102
RTVSPropertyOp61
 70
     1
102
RTVSPropertyOp62
 70
     1
  0
XRECORD
  5
E9D
102
{ACAD_REACTORS
330
E9C
102
}
330
E9C
100
AcDbXrecord
280
     1
102
RTVSPost2010Prop28
280
     0
102
RTVSPost2010PropOp28
 70
     1
102
RTVSPost2010Prop29
280
     1
102
RTVSPost2010PropOp29
 70
     1
102
RTVSPost2010Prop30
280
     1
102
RTVSPost2010PropOp30
 70
     1
102
RTVSPost2010Prop31
280
     0
102
RTVSPost2010PropOp31
 70
     1
102
RTVSPost2010Prop32
280
     0
102
RTVSPost2010PropOp32
 70
     1
102
RTVSPost2010Prop33
280
     0
102
RTVSPost2010PropOp33
 70
     1
102
RTVSPost2010Prop34
280
     0
102
RTVSPost2010PropOp34
 70
     1
102
RTVSPost2010Prop35
280
     0
102
RTVSPost2010PropOp35
 70
     1
102
RTVSPost2010Prop36
280
     0
102
RTVSPost2010PropOp36
 70
     1
102
RTVSPost2010Prop37
 90
       50
102
RTVSPost2010PropOp37
 70
     0
102
RTVSPost2010Prop38
140
0.0
102
RTVSPost2010PropOp38
 70
     0
102
RTVSPost2010Prop39
140
1.0
102
RTVSPost2010PropOp39
 70
     0
102
RTVSPost2010Prop40
 90
        0
102
RTVSPost2010PropOp40
 70
     0
102
RTVSPost2010Prop41ColorIndex
 90
       18
102
RTVSPost2010Prop41ColorRGB
 90
        0
102
RTVSPost2010PropOp41
 70
     0
102
RTVSPost2010Prop42
 90
       50
102
RTVSPost2010PropOp42
 70
     0
102
RTVSPost2010Prop43
 90
        3
102
RTVSPost2010PropOp43
 70
     0
102
RTVSPost2010Prop44ColorIndex
 90
        5
102
RTVSPost2010Prop44ColorRGB
 90
      255
102
RTVSPost2010PropOp44
 70
     0
102
RTVSPost2010Prop45
280
     0
102
RTVSPost2010PropOp45
 70
     1
102
RTVSPost2010Prop46
 90
       50
102
RTVSPost2010PropOp46
 70
     0
102
RTVSPost2010Prop47
 90
       50
102
RTVSPost2010PropOp47
 70
     0
102
RTVSPost2010Prop48
 90
       50
102
RTVSPost2010PropOp48
 70
     0
102
RTVSPost2010Prop49
280
     0
102
RTVSPost2010PropOp49
 70
     1
102
RTVSPost2010Prop50
 90
       50
102
RTVSPost2010PropOp50
 70
     0
102
RTVSPost2010Prop51ColorIndex
 90
      256
102
RTVSPost2010Prop51ColorRGB
 90
-16777216
102
RTVSPost2010PropOp51
 70
     0
102
RTVSPost2010Prop52
140
1.0
102
RTVSPost2010PropOp52
 70
     0
102
RTVSPost2010Prop53
 90
        2
102
RTVSPost2010PropOp53
 70
     0
102
RTVSPost2010Prop54
  1
strokes_ogs.tif
102
RTVSPost2010PropOp54
 70
     0
102
RTVSPost2010Prop55
280
     0
102
RTVSPost2010PropOp55
 70
     1
102
RTVSPost2010Prop56
140
1.0
102
RTVSPost2010PropOp56
 70
     0
102
RTVSPost2010Prop57
140
1.0
102
RTVSPost2010PropOp57
 70
     0
102
RTVSPropertyOp0
 70
     0
102
RTVSPropertyOp1
 70
     0
102
RTVSPropertyOp2
 70
     0
102
RTVSPropertyOp3
 70
     0
102
RTVSPropertyOp4
 70
     0
102
RTVSPropertyOp5
 70
     0
102
RTVSPropertyOp6
 70
     0
102
RTVSPropertyOp7
 70
     0
102
RTVSPropertyOp8
 70
     0
102
RTVSPropertyOp9
 70
     0
102
RTVSPropertyOp10
 70
     0
102
RTVSPropertyOp11
 70
     0
102
RTVSPropertyOp12
 70
     0
102
RTVSPropertyOp13
 70
     0
102
RTVSPropertyOp14
 70
     2
102
RTVSPropertyOp15
 70
     0
102
RTVSPropertyOp16
 70
     0
102
RTVSPropertyOp17
 70
     0
102
RTVSPropertyOp18
 70
     0
102
RTVSPropertyOp19
 70
     0
102
RTVSPropertyOp20
 70
     0
102
RTVSPropertyOp21
 70
     0
102
RTVSPropertyOp22
 70
     0
102
RTVSPropertyOp23
 70
     0
102
RTVSPropertyOp24
 70
     0
102
RTVSPropertyOp25
 70
     0
102
RTVSPropertyOp26
 70
     0
102
RTVSPropertyOp27
 70
     0
102
RTVSPropertyOp28
 70
     1
102
RTVSPropertyOp29
 70
     1
102
RTVSPropertyOp30
 70
     1
102
RTVSPropertyOp31
 70
     1
102
RTVSPropertyOp32
 70
     1
102
RTVSPropertyOp33
 70
     1
102
RTVSPropertyOp34
 70
     1
102
RTVSPropertyOp35
 70
     1
102
RTVSPropertyOp36
 70
     1
102
RTVSPropertyOp37
 70
     0
102
RTVSPropertyOp38
 70
     0
102
RTVSPropertyOp39
 70
     0
102
RTVSPropertyOp40
 70
     0
102
RTVSPropertyOp41
 70
     0
102
RTVSPropertyOp42
 70
     0
102
RTVSPropertyOp43
 70
     0
102
RTVSPropertyOp44
 70
     0
102
RTVSPropertyOp45
 70
     1
102
RTVSPropertyOp46
 70
     0
102
RTVSPropertyOp47
 70
     0
102
RTVSPropertyOp48
 70
     0
102
RTVSPropertyOp49
 70
     1
102
RTVSPropertyOp50
 70
     0
102
RTVSPropertyOp51
 70
     0
102
RTVSPropertyOp52
 70
     0
102
RTVSPropertyOp53
 70
     0
102
RTVSPropertyOp54
 70
     0
102
RTVSPropertyOp55
 70
     1
102
RTVSPropertyOp56
 70
     0
102
RTVSPropertyOp57
 70
     0
102
RTVSPropertyOp58
 70
     1
102
RTVSPropertyOp59
 70
     1
102
RTVSPropertyOp60
 70
     1
102
RTVSPropertyOp61
 70
     1
102
RTVSPropertyOp62
 70
     1
  0
XRECORD
  5
E8D
102
{ACAD_REACTORS
330
E8C
102
}
330
E8C
100
AcDbXrecord
280
     1
102
RTVSPost2010Prop28
280
     0
102
RTVSPost2010PropOp28
 70
     1
102
RTVSPost2010Prop29
280
     1
102
RTVSPost2010PropOp29
 70
     1
102
RTVSPost2010Prop30
280
     1
102
RTVSPost2010PropOp30
 70
     1
102
RTVSPost2010Prop31
280
     0
102
RTVSPost2010PropOp31
 70
     1
102
RTVSPost2010Prop32
280
     0
102
RTVSPost2010PropOp32
 70
     1
102
RTVSPost2010Prop33
280
     0
102
RTVSPost2010PropOp33
 70
     1
102
RTVSPost2010Prop34
280
     0
102
RTVSPost2010PropOp34
 70
     1
102
RTVSPost2010Prop35
280
     0
102
RTVSPost2010PropOp35
 70
     1
102
RTVSPost2010Prop36
280
     0
102
RTVSPost2010PropOp36
 70
     1
102
RTVSPost2010Prop37
 90
       50
102
RTVSPost2010PropOp37
 70
     1
102
RTVSPost2010Prop38
140
0.0
102
RTVSPost2010PropOp38
 70
     1
102
RTVSPost2010Prop39
140
1.0
102
RTVSPost2010PropOp39
 70
     1
102
RTVSPost2010Prop40
 90
        0
102
RTVSPost2010PropOp40
 70
     1
102
RTVSPost2010Prop41ColorIndex
 90
       18
102
RTVSPost2010Prop41ColorRGB
 90
        0
102
RTVSPost2010PropOp41
 70
     1
102
RTVSPost2010Prop42
 90
       50
102
RTVSPost2010PropOp42
 70
     1
102
RTVSPost2010Prop43
 90
        3
102
RTVSPost2010PropOp43
 70
     1
102
RTVSPost2010Prop44ColorIndex
 90
        5
102
RTVSPost2010Prop44ColorRGB
 90
      255
102
RTVSPost2010PropOp44
 70
     1
102
RTVSPost2010Prop45
280
     0
102
RTVSPost2010PropOp45
 70
     1
102
RTVSPost2010Prop46
 90
       50
102
RTVSPost2010PropOp46
 70
     1
102
RTVSPost2010Prop47
 90
       50
102
RTVSPost2010PropOp47
 70
     1
102
RTVSPost2010Prop48
 90
       50
102
RTVSPost2010PropOp48
 70
     1
102
RTVSPost2010Prop49
280
     0
102
RTVSPost2010PropOp49
 70
     1
102
RTVSPost2010Prop50
 90
       50
102
RTVSPost2010PropOp50
 70
     1
102
RTVSPost2010Prop51ColorIndex
 90
      256
102
RTVSPost2010Prop51ColorRGB
 90
-16777216
102
RTVSPost2010PropOp51
 70
     0
102
RTVSPost2010Prop52
140
1.0
102
RTVSPost2010PropOp52
 70
     0
102
RTVSPost2010Prop53
 90
        2
102
RTVSPost2010PropOp53
 70
     1
102
RTVSPost2010Prop54
  1
strokes_ogs.tif
102
RTVSPost2010PropOp54
 70
     1
102
RTVSPost2010Prop55
280
     0
102
RTVSPost2010PropOp55
 70
     1
102
RTVSPost2010Prop56
140
1.0
102
RTVSPost2010PropOp56
 70
     1
102
RTVSPost2010Prop57
140
1.0
102
RTVSPost2010PropOp57
 70
     1
102
RTVSPropertyOp0
 70
     1
102
RTVSPropertyOp1
 70
     1
102
RTVSPropertyOp2
 70
     1
102
RTVSPropertyOp3
 70
     1
102
RTVSPropertyOp4
 70
     1
102
RTVSPropertyOp5
 70
     1
102
RTVSPropertyOp6
 70
     1
102
RTVSPropertyOp7
 70
     1
102
RTVSPropertyOp8
 70
     1
102
RTVSPropertyOp9
 70
     1
102
RTVSPropertyOp10
 70
     1
102
RTVSPropertyOp11
 70
     1
102
RTVSPropertyOp12
 70
     1
102
RTVSPropertyOp13
 70
     1
102
RTVSPropertyOp14
 70
     1
102
RTVSPropertyOp15
 70
     1
102
RTVSPropertyOp16
 70
     1
102
RTVSPropertyOp17
 70
     1
102
RTVSPropertyOp18
 70
     1
102
RTVSPropertyOp19
 70
     1
102
RTVSPropertyOp20
 70
     1
102
RTVSPropertyOp21
 70
     1
102
RTVSPropertyOp22
 70
     1
102
RTVSPropertyOp23
 70
     1
102
RTVSPropertyOp24
 70
     1
102
RTVSPropertyOp25
 70
     1
102
RTVSPropertyOp26
 70
     1
102
RTVSPropertyOp27
 70
     1
102
RTVSPropertyOp28
 70
     1
102
RTVSPropertyOp29
 70
     1
102
RTVSPropertyOp30
 70
     1
102
RTVSPropertyOp31
 70
     1
102
RTVSPropertyOp32
 70
     1
102
RTVSPropertyOp33
 70
     1
102
RTVSPropertyOp34
 70
     1
102
RTVSPropertyOp35
 70
     1
102
RTVSPropertyOp36
 70
     1
102
RTVSPropertyOp37
 70
     1
102
RTVSPropertyOp38
 70
     1
102
RTVSPropertyOp39
 70
     1
102
RTVSPropertyOp40
 70
     1
102
RTVSPropertyOp41
 70
     1
102
RTVSPropertyOp42
 70
     1
102
RTVSPropertyOp43
 70
     1
102
RTVSPropertyOp44
 70
     1
102
RTVSPropertyOp45
 70
     1
102
RTVSPropertyOp46
 70
     1
102
RTVSPropertyOp47
 70
     1
102
RTVSPropertyOp48
 70
     1
102
RTVSPropertyOp49
 70
     1
102
RTVSPropertyOp50
 70
     1
102
RTVSPropertyOp51
 70
     0
102
RTVSPropertyOp52
 70
     0
102
RTVSPropertyOp53
 70
     1
102
RTVSPropertyOp54
 70
     1
102
RTVSPropertyOp55
 70
     1
102
RTVSPropertyOp56
 70
     1
102
RTVSPropertyOp57
 70
     1
102
RTVSPropertyOp58
 70
     1
102
RTVSPropertyOp59
 70
     1
102
RTVSPropertyOp60
 70
     1
102
RTVSPropertyOp61
 70
     1
102
RTVSPropertyOp62
 70
     1
  0
XRECORD
  5
E9F
102
{ACAD_REACTORS
330
E9E
102
}
330
E9E
100
AcDbXrecord
280
     1
102
RTVSPost2010Prop28
280
     0
102
RTVSPost2010PropOp28
 70
     1
102
RTVSPost2010Prop29
280
     1
102
RTVSPost2010PropOp29
 70
     1
102
RTVSPost2010Prop30
280
     1
102
RTVSPost2010PropOp30
 70
     1
102
RTVSPost2010Prop31
280
     0
102
RTVSPost2010PropOp31
 70
     1
102
RTVSPost2010Prop32
280
     0
102
RTVSPost2010PropOp32
 70
     1
102
RTVSPost2010Prop33
280
     0
102
RTVSPost2010PropOp33
 70
     1
102
RTVSPost2010Prop34
280
     0
102
RTVSPost2010PropOp34
 70
     1
102
RTVSPost2010Prop35
280
     0
102
RTVSPost2010PropOp35
 70
     1
102
RTVSPost2010Prop36
280
     0
102
RTVSPost2010PropOp36
 70
     1
102
RTVSPost2010Prop37
 90
       50
102
RTVSPost2010PropOp37
 70
     0
102
RTVSPost2010Prop38
140
0.0
102
RTVSPost2010PropOp38
 70
     0
102
RTVSPost2010Prop39
140
1.0
102
RTVSPost2010PropOp39
 70
     0
102
RTVSPost2010Prop40
 90
        0
102
RTVSPost2010PropOp40
 70
     0
102
RTVSPost2010Prop41ColorIndex
 90
       18
102
RTVSPost2010Prop41ColorRGB
 90
        0
102
RTVSPost2010PropOp41
 70
     0
102
RTVSPost2010Prop42
 90
       50
102
RTVSPost2010PropOp42
 70
     0
102
RTVSPost2010Prop43
 90
        3
102
RTVSPost2010PropOp43
 70
     0
102
RTVSPost2010Prop44ColorIndex
 90
        5
102
RTVSPost2010Prop44ColorRGB
 90
      255
102
RTVSPost2010PropOp44
 70
     0
102
RTVSPost2010Prop45
280
     0
102
RTVSPost2010PropOp45
 70
     1
102
RTVSPost2010Prop46
 90
       50
102
RTVSPost2010PropOp46
 70
     0
102
RTVSPost2010Prop47
 90
       50
102
RTVSPost2010PropOp47
 70
     0
102
RTVSPost2010Prop48
 90
       50
102
RTVSPost2010PropOp48
 70
     0
102
RTVSPost2010Prop49
280
     0
102
RTVSPost2010PropOp49
 70
     1
102
RTVSPost2010Prop50
 90
       50
102
RTVSPost2010PropOp50
 70
     0
102
RTVSPost2010Prop51ColorIndex
 90
      256
102
RTVSPost2010Prop51ColorRGB
 90
-16777216
102
RTVSPost2010PropOp51
 70
     0
102
RTVSPost2010Prop52
140
1.0
102
RTVSPost2010PropOp52
 70
     0
102
RTVSPost2010Prop53
 90
        2
102
RTVSPost2010PropOp53
 70
     0
102
RTVSPost2010Prop54
  1
strokes_ogs.tif
102
RTVSPost2010PropOp54
 70
     0
102
RTVSPost2010Prop55
280
     0
102
RTVSPost2010PropOp55
 70
     1
102
RTVSPost2010Prop56
140
1.0
102
RTVSPost2010PropOp56
 70
     0
102
RTVSPost2010Prop57
140
1.0
102
RTVSPost2010PropOp57
 70
     0
102
RTVSPropertyOp0
 70
     0
102
RTVSPropertyOp1
 70
     0
102
RTVSPropertyOp2
 70
     0
102
RTVSPropertyOp3
 70
     0
102
RTVSPropertyOp4
 70
     0
102
RTVSPropertyOp5
 70
     0
102
RTVSPropertyOp6
 70
     0
102
RTVSPropertyOp7
 70
     0
102
RTVSPropertyOp8
 70
     0
102
RTVSPropertyOp9
 70
     0
102
RTVSPropertyOp10
 70
     0
102
RTVSPropertyOp11
 70
     0
102
RTVSPropertyOp12
 70
     0
102
RTVSPropertyOp13
 70
     0
102
RTVSPropertyOp14
 70
     2
102
RTVSPropertyOp15
 70
     0
102
RTVSPropertyOp16
 70
     0
102
RTVSPropertyOp17
 70
     0
102
RTVSPropertyOp18
 70
     0
102
RTVSPropertyOp19
 70
     0
102
RTVSPropertyOp20
 70
     0
102
RTVSPropertyOp21
 70
     0
102
RTVSPropertyOp22
 70
     0
102
RTVSPropertyOp23
 70
     0
102
RTVSPropertyOp24
 70
     0
102
RTVSPropertyOp25
 70
     0
102
RTVSPropertyOp26
 70
     0
102
RTVSPropertyOp27
 70
     0
102
RTVSPropertyOp28
 70
     1
102
RTVSPropertyOp29
 70
     1
102
RTVSPropertyOp30
 70
     1
102
RTVSPropertyOp31
 70
     1
102
RTVSPropertyOp32
 70
     1
102
RTVSPropertyOp33
 70
     1
102
RTVSPropertyOp34
 70
     1
102
RTVSPropertyOp35
 70
     1
102
RTVSPropertyOp36
 70
     1
102
RTVSPropertyOp37
 70
     0
102
RTVSPropertyOp38
 70
     0
102
RTVSPropertyOp39
 70
     0
102
RTVSPropertyOp40
 70
     0
102
RTVSPropertyOp41
 70
     0
102
RTVSPropertyOp42
 70
     0
102
RTVSPropertyOp43
 70
     0
102
RTVSPropertyOp44
 70
     0
102
RTVSPropertyOp45
 70
     1
102
RTVSPropertyOp46
 70
     0
102
RTVSPropertyOp47
 70
     0
102
RTVSPropertyOp48
 70
     0
102
RTVSPropertyOp49
 70
     1
102
RTVSPropertyOp50
 70
     0
102
RTVSPropertyOp51
 70
     0
102
RTVSPropertyOp52
 70
     0
102
RTVSPropertyOp53
 70
     0
102
RTVSPropertyOp54
 70
     0
102
RTVSPropertyOp55
 70
     1
102
RTVSPropertyOp56
 70
     0
102
RTVSPropertyOp57
 70
     0
102
RTVSPropertyOp58
 70
     1
102
RTVSPropertyOp59
 70
     1
102
RTVSPropertyOp60
 70
     1
102
RTVSPropertyOp61
 70
     1
102
RTVSPropertyOp62
 70
     1
  0
XRECORD
  5
E85
102
{ACAD_REACTORS
330
E84
102
}
330
E84
100
AcDbXrecord
280
     1
102
RTVSPost2010Prop28
280
     0
102
RTVSPost2010PropOp28
 70
     1
102
RTVSPost2010Prop29
280
     1
102
RTVSPost2010PropOp29
 70
     1
102
RTVSPost2010Prop30
280
     1
102
RTVSPost2010PropOp30
 70
     1
102
RTVSPost2010Prop31
280
     0
102
RTVSPost2010PropOp31
 70
     1
102
RTVSPost2010Prop32
280
     0
102
RTVSPost2010PropOp32
 70
     1
102
RTVSPost2010Prop33
280
     0
102
RTVSPost2010PropOp33
 70
     1
102
RTVSPost2010Prop34
280
     0
102
RTVSPost2010PropOp34
 70
     1
102
RTVSPost2010Prop35
280
     0
102
RTVSPost2010PropOp35
 70
     1
102
RTVSPost2010Prop36
280
     0
102
RTVSPost2010PropOp36
 70
     1
102
RTVSPost2010Prop37
 90
       50
102
RTVSPost2010PropOp37
 70
     1
102
RTVSPost2010Prop38
140
0.0
102
RTVSPost2010PropOp38
 70
     1
102
RTVSPost2010Prop39
140
1.0
102
RTVSPost2010PropOp39
 70
     1
102
RTVSPost2010Prop40
 90
        0
102
RTVSPost2010PropOp40
 70
     1
102
RTVSPost2010Prop41ColorIndex
 90
       18
102
RTVSPost2010Prop41ColorRGB
 90
        0
102
RTVSPost2010PropOp41
 70
     1
102
RTVSPost2010Prop42
 90
       50
102
RTVSPost2010PropOp42
 70
     1
102
RTVSPost2010Prop43
 90
        3
102
RTVSPost2010PropOp43
 70
     1
102
RTVSPost2010Prop44ColorIndex
 90
        5
102
RTVSPost2010Prop44ColorRGB
 90
      255
102
RTVSPost2010PropOp44
 70
     1
102
RTVSPost2010Prop45
280
     0
102
RTVSPost2010PropOp45
 70
     1
102
RTVSPost2010Prop46
 90
       50
102
RTVSPost2010PropOp46
 70
     1
102
RTVSPost2010Prop47
 90
       50
102
RTVSPost2010PropOp47
 70
     1
102
RTVSPost2010Prop48
 90
       50
102
RTVSPost2010PropOp48
 70
     1
102
RTVSPost2010Prop49
280
     0
102
RTVSPost2010PropOp49
 70
     1
102
RTVSPost2010Prop50
 90
       50
102
RTVSPost2010PropOp50
 70
     1
102
RTVSPost2010Prop51ColorIndex
 90
      256
102
RTVSPost2010Prop51ColorRGB
 90
-16777216
102
RTVSPost2010PropOp51
 70
     0
102
RTVSPost2010Prop52
140
1.0
102
RTVSPost2010PropOp52
 70
     0
102
RTVSPost2010Prop53
 90
        2
102
RTVSPost2010PropOp53
 70
     1
102
RTVSPost2010Prop54
  1
strokes_ogs.tif
102
RTVSPost2010PropOp54
 70
     1
102
RTVSPost2010Prop55
280
     0
102
RTVSPost2010PropOp55
 70
     1
102
RTVSPost2010Prop56
140
1.0
102
RTVSPost2010PropOp56
 70
     1
102
RTVSPost2010Prop57
140
1.0
102
RTVSPost2010PropOp57
 70
     1
102
RTVSPropertyOp0
 70
     1
102
RTVSPropertyOp1
 70
     1
102
RTVSPropertyOp2
 70
     1
102
RTVSPropertyOp3
 70
     1
102
RTVSPropertyOp4
 70
     1
102
RTVSPropertyOp5
 70
     1
102
RTVSPropertyOp6
 70
     1
102
RTVSPropertyOp7
 70
     1
102
RTVSPropertyOp8
 70
     1
102
RTVSPropertyOp9
 70
     1
102
RTVSPropertyOp10
 70
     1
102
RTVSPropertyOp11
 70
     1
102
RTVSPropertyOp12
 70
     1
102
RTVSPropertyOp13
 70
     1
102
RTVSPropertyOp14
 70
     1
102
RTVSPropertyOp15
 70
     1
102
RTVSPropertyOp16
 70
     1
102
RTVSPropertyOp17
 70
     1
102
RTVSPropertyOp18
 70
     1
102
RTVSPropertyOp19
 70
     1
102
RTVSPropertyOp20
 70
     1
102
RTVSPropertyOp21
 70
     1
102
RTVSPropertyOp22
 70
     1
102
RTVSPropertyOp23
 70
     1
102
RTVSPropertyOp24
 70
     1
102
RTVSPropertyOp25
 70
     1
102
RTVSPropertyOp26
 70
     1
102
RTVSPropertyOp27
 70
     1
102
RTVSPropertyOp28
 70
     1
102
RTVSPropertyOp29
 70
     1
102
RTVSPropertyOp30
 70
     1
102
RTVSPropertyOp31
 70
     1
102
RTVSPropertyOp32
 70
     1
102
RTVSPropertyOp33
 70
     1
102
RTVSPropertyOp34
 70
     1
102
RTVSPropertyOp35
 70
     1
102
RTVSPropertyOp36
 70
     1
102
RTVSPropertyOp37
 70
     1
102
RTVSPropertyOp38
 70
     1
102
RTVSPropertyOp39
 70
     1
102
RTVSPropertyOp40
 70
     1
102
RTVSPropertyOp41
 70
     1
102
RTVSPropertyOp42
 70
     1
102
RTVSPropertyOp43
 70
     1
102
RTVSPropertyOp44
 70
     1
102
RTVSPropertyOp45
 70
     1
102
RTVSPropertyOp46
 70
     1
102
RTVSPropertyOp47
 70
     1
102
RTVSPropertyOp48
 70
     1
102
RTVSPropertyOp49
 70
     1
102
RTVSPropertyOp50
 70
     1
102
RTVSPropertyOp51
 70
     0
102
RTVSPropertyOp52
 70
     0
102
RTVSPropertyOp53
 70
     1
102
RTVSPropertyOp54
 70
     1
102
RTVSPropertyOp55
 70
     1
102
RTVSPropertyOp56
 70
     1
102
RTVSPropertyOp57
 70
     1
102
RTVSPropertyOp58
 70
     1
102
RTVSPropertyOp59
 70
     1
102
RTVSPropertyOp60
 70
     1
102
RTVSPropertyOp61
 70
     1
102
RTVSPropertyOp62
 70
     1
  0
XRECORD
  5
E9B
102
{ACAD_REACTORS
330
E9A
102
}
330
E9A
100
AcDbXrecord
280
     1
102
RTVSPost2010Prop28
280
     0
102
RTVSPost2010PropOp28
 70
     1
102
RTVSPost2010Prop29
280
     1
102
RTVSPost2010PropOp29
 70
     1
102
RTVSPost2010Prop30
280
     1
102
RTVSPost2010PropOp30
 70
     1
102
RTVSPost2010Prop31
280
     0
102
RTVSPost2010PropOp31
 70
     1
102
RTVSPost2010Prop32
280
     0
102
RTVSPost2010PropOp32
 70
     1
102
RTVSPost2010Prop33
280
     0
102
RTVSPost2010PropOp33
 70
     1
102
RTVSPost2010Prop34
280
     0
102
RTVSPost2010PropOp34
 70
     1
102
RTVSPost2010Prop35
280
     0
102
RTVSPost2010PropOp35
 70
     1
102
RTVSPost2010Prop36
280
     0
102
RTVSPost2010PropOp36
 70
     1
102
RTVSPost2010Prop37
 90
       50
102
RTVSPost2010PropOp37
 70
     1
102
RTVSPost2010Prop38
140
0.0
102
RTVSPost2010PropOp38
 70
     1
102
RTVSPost2010Prop39
140
1.0
102
RTVSPost2010PropOp39
 70
     1
102
RTVSPost2010Prop40
 90
        0
102
RTVSPost2010PropOp40
 70
     1
102
RTVSPost2010Prop41ColorIndex
 90
       18
102
RTVSPost2010Prop41ColorRGB
 90
        0
102
RTVSPost2010PropOp41
 70
     1
102
RTVSPost2010Prop42
 90
       50
102
RTVSPost2010PropOp42
 70
     1
102
RTVSPost2010Prop43
 90
        3
102
RTVSPost2010PropOp43
 70
     1
102
RTVSPost2010Prop44ColorIndex
 90
        5
102
RTVSPost2010Prop44ColorRGB
 90
      255
102
RTVSPost2010PropOp44
 70
     1
102
RTVSPost2010Prop45
280
     0
102
RTVSPost2010PropOp45
 70
     1
102
RTVSPost2010Prop46
 90
       50
102
RTVSPost2010PropOp46
 70
     1
102
RTVSPost2010Prop47
 90
       50
102
RTVSPost2010PropOp47
 70
     1
102
RTVSPost2010Prop48
 90
       50
102
RTVSPost2010PropOp48
 70
     1
102
RTVSPost2010Prop49
280
     0
102
RTVSPost2010PropOp49
 70
     1
102
RTVSPost2010Prop50
 90
       50
102
RTVSPost2010PropOp50
 70
     1
102
RTVSPost2010Prop51ColorIndex
 90
      256
102
RTVSPost2010Prop51ColorRGB
 90
-16777216
102
RTVSPost2010PropOp51
 70
     0
102
RTVSPost2010Prop52
140
1.0
102
RTVSPost2010PropOp52
 70
     0
102
RTVSPost2010Prop53
 90
        2
102
RTVSPost2010PropOp53
 70
     1
102
RTVSPost2010Prop54
  1
strokes_ogs.tif
102
RTVSPost2010PropOp54
 70
     1
102
RTVSPost2010Prop55
280
     0
102
RTVSPost2010PropOp55
 70
     1
102
RTVSPost2010Prop56
140
1.0
102
RTVSPost2010PropOp56
 70
     1
102
RTVSPost2010Prop57
140
1.0
102
RTVSPost2010PropOp57
 70
     1
102
RTVSPropertyOp0
 70
     1
102
RTVSPropertyOp1
 70
     1
102
RTVSPropertyOp2
 70
     1
102
RTVSPropertyOp3
 70
     1
102
RTVSPropertyOp4
 70
     1
102
RTVSPropertyOp5
 70
     1
102
RTVSPropertyOp6
 70
     1
102
RTVSPropertyOp7
 70
     1
102
RTVSPropertyOp8
 70
     1
102
RTVSPropertyOp9
 70
     1
102
RTVSPropertyOp10
 70
     1
102
RTVSPropertyOp11
 70
     1
102
RTVSPropertyOp12
 70
     1
102
RTVSPropertyOp13
 70
     1
102
RTVSPropertyOp14
 70
     1
102
RTVSPropertyOp15
 70
     1
102
RTVSPropertyOp16
 70
     1
102
RTVSPropertyOp17
 70
     1
102
RTVSPropertyOp18
 70
     1
102
RTVSPropertyOp19
 70
     1
102
RTVSPropertyOp20
 70
     1
102
RTVSPropertyOp21
 70
     1
102
RTVSPropertyOp22
 70
     1
102
RTVSPropertyOp23
 70
     1
102
RTVSPropertyOp24
 70
     1
102
RTVSPropertyOp25
 70
     1
102
RTVSPropertyOp26
 70
     1
102
RTVSPropertyOp27
 70
     1
102
RTVSPropertyOp28
 70
     1
102
RTVSPropertyOp29
 70
     1
102
RTVSPropertyOp30
 70
     1
102
RTVSPropertyOp31
 70
     1
102
RTVSPropertyOp32
 70
     1
102
RTVSPropertyOp33
 70
     1
102
RTVSPropertyOp34
 70
     1
102
RTVSPropertyOp35
 70
     1
102
RTVSPropertyOp36
 70
     1
102
RTVSPropertyOp37
 70
     1
102
RTVSPropertyOp38
 70
     1
102
RTVSPropertyOp39
 70
     1
102
RTVSPropertyOp40
 70
     1
102
RTVSPropertyOp41
 70
     1
102
RTVSPropertyOp42
 70
     1
102
RTVSPropertyOp43
 70
     1
102
RTVSPropertyOp44
 70
     1
102
RTVSPropertyOp45
 70
     1
102
RTVSPropertyOp46
 70
     1
102
RTVSPropertyOp47
 70
     1
102
RTVSPropertyOp48
 70
     1
102
RTVSPropertyOp49
 70
     1
102
RTVSPropertyOp50
 70
     1
102
RTVSPropertyOp51
 70
     0
102
RTVSPropertyOp52
 70
     0
102
RTVSPropertyOp53
 70
     1
102
RTVSPropertyOp54
 70
     1
102
RTVSPropertyOp55
 70
     1
102
RTVSPropertyOp56
 70
     1
102
RTVSPropertyOp57
 70
     1
102
RTVSPropertyOp58
 70
     1
102
RTVSPropertyOp59
 70
     1
102
RTVSPropertyOp60
 70
     1
102
RTVSPropertyOp61
 70
     1
102
RTVSPropertyOp62
 70
     1
  0
XRECORD
  5
E99
102
{ACAD_REACTORS
330
E98
102
}
330
E98
100
AcDbXrecord
280
     1
102
RTVSPost2010Prop28
280
     0
102
RTVSPost2010PropOp28
 70
     1
102
RTVSPost2010Prop29
280
     1
102
RTVSPost2010PropOp29
 70
     1
102
RTVSPost2010Prop30
280
     1
102
RTVSPost2010PropOp30
 70
     1
102
RTVSPost2010Prop31
280
     0
102
RTVSPost2010PropOp31
 70
     1
102
RTVSPost2010Prop32
280
     0
102
RTVSPost2010PropOp32
 70
     1
102
RTVSPost2010Prop33
280
     0
102
RTVSPost2010PropOp33
 70
     1
102
RTVSPost2010Prop34
280
     0
102
RTVSPost2010PropOp34
 70
     1
102
RTVSPost2010Prop35
280
     0
102
RTVSPost2010PropOp35
 70
     1
102
RTVSPost2010Prop36
280
     0
102
RTVSPost2010PropOp36
 70
     1
102
RTVSPost2010Prop37
 90
       50
102
RTVSPost2010PropOp37
 70
     1
102
RTVSPost2010Prop38
140
0.0
102
RTVSPost2010PropOp38
 70
     1
102
RTVSPost2010Prop39
140
1.0
102
RTVSPost2010PropOp39
 70
     1
102
RTVSPost2010Prop40
 90
        0
102
RTVSPost2010PropOp40
 70
     1
102
RTVSPost2010Prop41ColorIndex
 90
       18
102
RTVSPost2010Prop41ColorRGB
 90
        0
102
RTVSPost2010PropOp41
 70
     1
102
RTVSPost2010Prop42
 90
       50
102
RTVSPost2010PropOp42
 70
     1
102
RTVSPost2010Prop43
 90
        3
102
RTVSPost2010PropOp43
 70
     1
102
RTVSPost2010Prop44ColorIndex
 90
        5
102
RTVSPost2010Prop44ColorRGB
 90
      255
102
RTVSPost2010PropOp44
 70
     1
102
RTVSPost2010Prop45
280
     0
102
RTVSPost2010PropOp45
 70
     1
102
RTVSPost2010Prop46
 90
       50
102
RTVSPost2010PropOp46
 70
     1
102
RTVSPost2010Prop47
 90
       50
102
RTVSPost2010PropOp47
 70
     1
102
RTVSPost2010Prop48
 90
       50
102
RTVSPost2010PropOp48
 70
     1
102
RTVSPost2010Prop49
280
     0
102
RTVSPost2010PropOp49
 70
     1
102
RTVSPost2010Prop50
 90
       50
102
RTVSPost2010PropOp50
 70
     1
102
RTVSPost2010Prop51ColorIndex
 90
      256
102
RTVSPost2010Prop51ColorRGB
 90
-16777216
102
RTVSPost2010PropOp51
 70
     0
102
RTVSPost2010Prop52
140
1.0
102
RTVSPost2010PropOp52
 70
     0
102
RTVSPost2010Prop53
 90
        2
102
RTVSPost2010PropOp53
 70
     1
102
RTVSPost2010Prop54
  1
strokes_ogs.tif
102
RTVSPost2010PropOp54
 70
     1
102
RTVSPost2010Prop55
280
     0
102
RTVSPost2010PropOp55
 70
     1
102
RTVSPost2010Prop56
140
1.0
102
RTVSPost2010PropOp56
 70
     1
102
RTVSPost2010Prop57
140
1.0
102
RTVSPost2010PropOp57
 70
     1
102
RTVSPropertyOp0
 70
     1
102
RTVSPropertyOp1
 70
     1
102
RTVSPropertyOp2
 70
     1
102
RTVSPropertyOp3
 70
     1
102
RTVSPropertyOp4
 70
     1
102
RTVSPropertyOp5
 70
     1
102
RTVSPropertyOp6
 70
     1
102
RTVSPropertyOp7
 70
     1
102
RTVSPropertyOp8
 70
     1
102
RTVSPropertyOp9
 70
     1
102
RTVSPropertyOp10
 70
     1
102
RTVSPropertyOp11
 70
     1
102
RTVSPropertyOp12
 70
     1
102
RTVSPropertyOp13
 70
     1
102
RTVSPropertyOp14
 70
     1
102
RTVSPropertyOp15
 70
     1
102
RTVSPropertyOp16
 70
     1
102
RTVSPropertyOp17
 70
     1
102
RTVSPropertyOp18
 70
     1
102
RTVSPropertyOp19
 70
     1
102
RTVSPropertyOp20
 70
     1
102
RTVSPropertyOp21
 70
     1
102
RTVSPropertyOp22
 70
     1
102
RTVSPropertyOp23
 70
     1
102
RTVSPropertyOp24
 70
     1
102
RTVSPropertyOp25
 70
     1
102
RTVSPropertyOp26
 70
     1
102
RTVSPropertyOp27
 70
     1
102
RTVSPropertyOp28
 70
     1
102
RTVSPropertyOp29
 70
     1
102
RTVSPropertyOp30
 70
     1
102
RTVSPropertyOp31
 70
     1
102
RTVSPropertyOp32
 70
     1
102
RTVSPropertyOp33
 70
     1
102
RTVSPropertyOp34
 70
     1
102
RTVSPropertyOp35
 70
     1
102
RTVSPropertyOp36
 70
     1
102
RTVSPropertyOp37
 70
     1
102
RTVSPropertyOp38
 70
     1
102
RTVSPropertyOp39
 70
     1
102
RTVSPropertyOp40
 70
     1
102
RTVSPropertyOp41
 70
     1
102
RTVSPropertyOp42
 70
     1
102
RTVSPropertyOp43
 70
     1
102
RTVSPropertyOp44
 70
     1
102
RTVSPropertyOp45
 70
     1
102
RTVSPropertyOp46
 70
     1
102
RTVSPropertyOp47
 70
     1
102
RTVSPropertyOp48
 70
     1
102
RTVSPropertyOp49
 70
     1
102
RTVSPropertyOp50
 70
     1
102
RTVSPropertyOp51
 70
     0
102
RTVSPropertyOp52
 70
     0
102
RTVSPropertyOp53
 70
     1
102
RTVSPropertyOp54
 70
     1
102
RTVSPropertyOp55
 70
     1
102
RTVSPropertyOp56
 70
     1
102
RTVSPropertyOp57
 70
     1
102
RTVSPropertyOp58
 70
     1
102
RTVSPropertyOp59
 70
     1
102
RTVSPropertyOp60
 70
     1
102
RTVSPropertyOp61
 70
     1
102
RTVSPropertyOp62
 70
     1
  0
XRECORD
  5
E93
102
{ACAD_REACTORS
330
E92
102
}
330
E92
100
AcDbXrecord
280
     1
102
RTVSPost2010Prop28
280
     0
102
RTVSPost2010PropOp28
 70
     1
102
RTVSPost2010Prop29
280
     1
102
RTVSPost2010PropOp29
 70
     1
102
RTVSPost2010Prop30
280
     1
102
RTVSPost2010PropOp30
 70
     1
102
RTVSPost2010Prop31
280
     0
102
RTVSPost2010PropOp31
 70
     1
102
RTVSPost2010Prop32
280
     0
102
RTVSPost2010PropOp32
 70
     1
102
RTVSPost2010Prop33
280
     0
102
RTVSPost2010PropOp33
 70
     1
102
RTVSPost2010Prop34
280
     0
102
RTVSPost2010PropOp34
 70
     1
102
RTVSPost2010Prop35
280
     0
102
RTVSPost2010PropOp35
 70
     1
102
RTVSPost2010Prop36
280
     0
102
RTVSPost2010PropOp36
 70
     1
102
RTVSPost2010Prop37
 90
       50
102
RTVSPost2010PropOp37
 70
     1
102
RTVSPost2010Prop38
140
0.0
102
RTVSPost2010PropOp38
 70
     1
102
RTVSPost2010Prop39
140
1.0
102
RTVSPost2010PropOp39
 70
     1
102
RTVSPost2010Prop40
 90
        0
102
RTVSPost2010PropOp40
 70
     1
102
RTVSPost2010Prop41ColorIndex
 90
       18
102
RTVSPost2010Prop41ColorRGB
 90
        0
102
RTVSPost2010PropOp41
 70
     1
102
RTVSPost2010Prop42
 90
       50
102
RTVSPost2010PropOp42
 70
     1
102
RTVSPost2010Prop43
 90
        3
102
RTVSPost2010PropOp43
 70
     1
102
RTVSPost2010Prop44ColorIndex
 90
        5
102
RTVSPost2010Prop44ColorRGB
 90
      255
102
RTVSPost2010PropOp44
 70
     1
102
RTVSPost2010Prop45
280
     0
102
RTVSPost2010PropOp45
 70
     1
102
RTVSPost2010Prop46
 90
       50
102
RTVSPost2010PropOp46
 70
     1
102
RTVSPost2010Prop47
 90
       50
102
RTVSPost2010PropOp47
 70
     1
102
RTVSPost2010Prop48
 90
       50
102
RTVSPost2010PropOp48
 70
     1
102
RTVSPost2010Prop49
280
     0
102
RTVSPost2010PropOp49
 70
     1
102
RTVSPost2010Prop50
 90
       50
102
RTVSPost2010PropOp50
 70
     1
102
RTVSPost2010Prop51ColorIndex
 90
      256
102
RTVSPost2010Prop51ColorRGB
 90
-16777216
102
RTVSPost2010PropOp51
 70
     0
102
RTVSPost2010Prop52
140
1.0
102
RTVSPost2010PropOp52
 70
     0
102
RTVSPost2010Prop53
 90
        2
102
RTVSPost2010PropOp53
 70
     1
102
RTVSPost2010Prop54
  1
strokes_ogs.tif
102
RTVSPost2010PropOp54
 70
     1
102
RTVSPost2010Prop55
280
     0
102
RTVSPost2010PropOp55
 70
     1
102
RTVSPost2010Prop56
140
1.0
102
RTVSPost2010PropOp56
 70
     1
102
RTVSPost2010Prop57
140
1.0
102
RTVSPost2010PropOp57
 70
     1
102
RTVSPropertyOp0
 70
     1
102
RTVSPropertyOp1
 70
     1
102
RTVSPropertyOp2
 70
     1
102
RTVSPropertyOp3
 70
     1
102
RTVSPropertyOp4
 70
     1
102
RTVSPropertyOp5
 70
     1
102
RTVSPropertyOp6
 70
     1
102
RTVSPropertyOp7
 70
     1
102
RTVSPropertyOp8
 70
     1
102
RTVSPropertyOp9
 70
     1
102
RTVSPropertyOp10
 70
     1
102
RTVSPropertyOp11
 70
     1
102
RTVSPropertyOp12
 70
     1
102
RTVSPropertyOp13
 70
     1
102
RTVSPropertyOp14
 70
     1
102
RTVSPropertyOp15
 70
     1
102
RTVSPropertyOp16
 70
     1
102
RTVSPropertyOp17
 70
     1
102
RTVSPropertyOp18
 70
     1
102
RTVSPropertyOp19
 70
     1
102
RTVSPropertyOp20
 70
     1
102
RTVSPropertyOp21
 70
     1
102
RTVSPropertyOp22
 70
     1
102
RTVSPropertyOp23
 70
     1
102
RTVSPropertyOp24
 70
     1
102
RTVSPropertyOp25
 70
     1
102
RTVSPropertyOp26
 70
     1
102
RTVSPropertyOp27
 70
     1
102
RTVSPropertyOp28
 70
     1
102
RTVSPropertyOp29
 70
     1
102
RTVSPropertyOp30
 70
     1
102
RTVSPropertyOp31
 70
     1
102
RTVSPropertyOp32
 70
     1
102
RTVSPropertyOp33
 70
     1
102
RTVSPropertyOp34
 70
     1
102
RTVSPropertyOp35
 70
     1
102
RTVSPropertyOp36
 70
     1
102
RTVSPropertyOp37
 70
     1
102
RTVSPropertyOp38
 70
     1
102
RTVSPropertyOp39
 70
     1
102
RTVSPropertyOp40
 70
     1
102
RTVSPropertyOp41
 70
     1
102
RTVSPropertyOp42
 70
     1
102
RTVSPropertyOp43
 70
     1
102
RTVSPropertyOp44
 70
     1
102
RTVSPropertyOp45
 70
     1
102
RTVSPropertyOp46
 70
     1
102
RTVSPropertyOp47
 70
     1
102
RTVSPropertyOp48
 70
     1
102
RTVSPropertyOp49
 70
     1
102
RTVSPropertyOp50
 70
     1
102
RTVSPropertyOp51
 70
     0
102
RTVSPropertyOp52
 70
     0
102
RTVSPropertyOp53
 70
     1
102
RTVSPropertyOp54
 70
     1
102
RTVSPropertyOp55
 70
     1
102
RTVSPropertyOp56
 70
     1
102
RTVSPropertyOp57
 70
     1
102
RTVSPropertyOp58
 70
     1
102
RTVSPropertyOp59
 70
     1
102
RTVSPropertyOp60
 70
     1
102
RTVSPropertyOp61
 70
     1
102
RTVSPropertyOp62
 70
     1
  0
XRECORD
  5
E95
102
{ACAD_REACTORS
330
E94
102
}
330
E94
100
AcDbXrecord
280
     1
102
RTVSPost2010Prop28
280
     0
102
RTVSPost2010PropOp28
 70
     1
102
RTVSPost2010Prop29
280
     1
102
RTVSPost2010PropOp29
 70
     1
102
RTVSPost2010Prop30
280
     1
102
RTVSPost2010PropOp30
 70
     1
102
RTVSPost2010Prop31
280
     0
102
RTVSPost2010PropOp31
 70
     1
102
RTVSPost2010Prop32
280
     0
102
RTVSPost2010PropOp32
 70
     1
102
RTVSPost2010Prop33
280
     0
102
RTVSPost2010PropOp33
 70
     1
102
RTVSPost2010Prop34
280
     0
102
RTVSPost2010PropOp34
 70
     1
102
RTVSPost2010Prop35
280
     0
102
RTVSPost2010PropOp35
 70
     1
102
RTVSPost2010Prop36
280
     0
102
RTVSPost2010PropOp36
 70
     1
102
RTVSPost2010Prop37
 90
       50
102
RTVSPost2010PropOp37
 70
     1
102
RTVSPost2010Prop38
140
0.0
102
RTVSPost2010PropOp38
 70
     1
102
RTVSPost2010Prop39
140
1.0
102
RTVSPost2010PropOp39
 70
     1
102
RTVSPost2010Prop40
 90
        0
102
RTVSPost2010PropOp40
 70
     1
102
RTVSPost2010Prop41ColorIndex
 90
       18
102
RTVSPost2010Prop41ColorRGB
 90
        0
102
RTVSPost2010PropOp41
 70
     1
102
RTVSPost2010Prop42
 90
       50
102
RTVSPost2010PropOp42
 70
     1
102
RTVSPost2010Prop43
 90
        3
102
RTVSPost2010PropOp43
 70
     1
102
RTVSPost2010Prop44ColorIndex
 90
        5
102
RTVSPost2010Prop44ColorRGB
 90
      255
102
RTVSPost2010PropOp44
 70
     1
102
RTVSPost2010Prop45
280
     0
102
RTVSPost2010PropOp45
 70
     1
102
RTVSPost2010Prop46
 90
       50
102
RTVSPost2010PropOp46
 70
     1
102
RTVSPost2010Prop47
 90
       50
102
RTVSPost2010PropOp47
 70
     1
102
RTVSPost2010Prop48
 90
       50
102
RTVSPost2010PropOp48
 70
     1
102
RTVSPost2010Prop49
280
     0
102
RTVSPost2010PropOp49
 70
     1
102
RTVSPost2010Prop50
 90
       50
102
RTVSPost2010PropOp50
 70
     1
102
RTVSPost2010Prop51ColorIndex
 90
      256
102
RTVSPost2010Prop51ColorRGB
 90
-16777216
102
RTVSPost2010PropOp51
 70
     0
102
RTVSPost2010Prop52
140
1.0
102
RTVSPost2010PropOp52
 70
     0
102
RTVSPost2010Prop53
 90
        2
102
RTVSPost2010PropOp53
 70
     1
102
RTVSPost2010Prop54
  1
strokes_ogs.tif
102
RTVSPost2010PropOp54
 70
     1
102
RTVSPost2010Prop55
280
     0
102
RTVSPost2010PropOp55
 70
     1
102
RTVSPost2010Prop56
140
1.0
102
RTVSPost2010PropOp56
 70
     1
102
RTVSPost2010Prop57
140
1.0
102
RTVSPost2010PropOp57
 70
     1
102
RTVSPropertyOp0
 70
     1
102
RTVSPropertyOp1
 70
     1
102
RTVSPropertyOp2
 70
     1
102
RTVSPropertyOp3
 70
     1
102
RTVSPropertyOp4
 70
     1
102
RTVSPropertyOp5
 70
     1
102
RTVSPropertyOp6
 70
     1
102
RTVSPropertyOp7
 70
     1
102
RTVSPropertyOp8
 70
     1
102
RTVSPropertyOp9
 70
     1
102
RTVSPropertyOp10
 70
     1
102
RTVSPropertyOp11
 70
     1
102
RTVSPropertyOp12
 70
     1
102
RTVSPropertyOp13
 70
     1
102
RTVSPropertyOp14
 70
     1
102
RTVSPropertyOp15
 70
     1
102
RTVSPropertyOp16
 70
     1
102
RTVSPropertyOp17
 70
     1
102
RTVSPropertyOp18
 70
     1
102
RTVSPropertyOp19
 70
     1
102
RTVSPropertyOp20
 70
     1
102
RTVSPropertyOp21
 70
     1
102
RTVSPropertyOp22
 70
     1
102
RTVSPropertyOp23
 70
     1
102
RTVSPropertyOp24
 70
     1
102
RTVSPropertyOp25
 70
     1
102
RTVSPropertyOp26
 70
     1
102
RTVSPropertyOp27
 70
     1
102
RTVSPropertyOp28
 70
     1
102
RTVSPropertyOp29
 70
     1
102
RTVSPropertyOp30
 70
     1
102
RTVSPropertyOp31
 70
     1
102
RTVSPropertyOp32
 70
     1
102
RTVSPropertyOp33
 70
     1
102
RTVSPropertyOp34
 70
     1
102
RTVSPropertyOp35
 70
     1
102
RTVSPropertyOp36
 70
     1
102
RTVSPropertyOp37
 70
     1
102
RTVSPropertyOp38
 70
     1
102
RTVSPropertyOp39
 70
     1
102
RTVSPropertyOp40
 70
     1
102
RTVSPropertyOp41
 70
     1
102
RTVSPropertyOp42
 70
     1
102
RTVSPropertyOp43
 70
     1
102
RTVSPropertyOp44
 70
     1
102
RTVSPropertyOp45
 70
     1
102
RTVSPropertyOp46
 70
     1
102
RTVSPropertyOp47
 70
     1
102
RTVSPropertyOp48
 70
     1
102
RTVSPropertyOp49
 70
     1
102
RTVSPropertyOp50
 70
     1
102
RTVSPropertyOp51
 70
     0
102
RTVSPropertyOp52
 70
     0
102
RTVSPropertyOp53
 70
     1
102
RTVSPropertyOp54
 70
     1
102
RTVSPropertyOp55
 70
     1
102
RTVSPropertyOp56
 70
     1
102
RTVSPropertyOp57
 70
     1
102
RTVSPropertyOp58
 70
     1
102
RTVSPropertyOp59
 70
     1
102
RTVSPropertyOp60
 70
     1
102
RTVSPropertyOp61
 70
     1
102
RTVSPropertyOp62
 70
     1
  0
XRECORD
  5
E8B
102
{ACAD_REACTORS
330
E8A
102
}
330
E8A
100
AcDbXrecord
280
     1
102
RTVSPost2010Prop28
280
     0
102
RTVSPost2010PropOp28
 70
     1
102
RTVSPost2010Prop29
280
     1
102
RTVSPost2010PropOp29
 70
     1
102
RTVSPost2010Prop30
280
     1
102
RTVSPost2010PropOp30
 70
     1
102
RTVSPost2010Prop31
280
     0
102
RTVSPost2010PropOp31
 70
     1
102
RTVSPost2010Prop32
280
     0
102
RTVSPost2010PropOp32
 70
     1
102
RTVSPost2010Prop33
280
     0
102
RTVSPost2010PropOp33
 70
     1
102
RTVSPost2010Prop34
280
     0
102
RTVSPost2010PropOp34
 70
     1
102
RTVSPost2010Prop35
280
     0
102
RTVSPost2010PropOp35
 70
     1
102
RTVSPost2010Prop36
280
     0
102
RTVSPost2010PropOp36
 70
     1
102
RTVSPost2010Prop37
 90
       50
102
RTVSPost2010PropOp37
 70
     1
102
RTVSPost2010Prop38
140
0.0
102
RTVSPost2010PropOp38
 70
     1
102
RTVSPost2010Prop39
140
1.0
102
RTVSPost2010PropOp39
 70
     1
102
RTVSPost2010Prop40
 90
        0
102
RTVSPost2010PropOp40
 70
     1
102
RTVSPost2010Prop41ColorIndex
 90
       18
102
RTVSPost2010Prop41ColorRGB
 90
        0
102
RTVSPost2010PropOp41
 70
     1
102
RTVSPost2010Prop42
 90
       50
102
RTVSPost2010PropOp42
 70
     1
102
RTVSPost2010Prop43
 90
        3
102
RTVSPost2010PropOp43
 70
     1
102
RTVSPost2010Prop44ColorIndex
 90
        5
102
RTVSPost2010Prop44ColorRGB
 90
      255
102
RTVSPost2010PropOp44
 70
     1
102
RTVSPost2010Prop45
280
     0
102
RTVSPost2010PropOp45
 70
     1
102
RTVSPost2010Prop46
 90
       50
102
RTVSPost2010PropOp46
 70
     1
102
RTVSPost2010Prop47
 90
       50
102
RTVSPost2010PropOp47
 70
     1
102
RTVSPost2010Prop48
 90
       50
102
RTVSPost2010PropOp48
 70
     1
102
RTVSPost2010Prop49
280
     0
102
RTVSPost2010PropOp49
 70
     1
102
RTVSPost2010Prop50
 90
       50
102
RTVSPost2010PropOp50
 70
     1
102
RTVSPost2010Prop51ColorIndex
 90
      256
102
RTVSPost2010Prop51ColorRGB
 90
-16777216
102
RTVSPost2010PropOp51
 70
     0
102
RTVSPost2010Prop52
140
1.0
102
RTVSPost2010PropOp52
 70
     0
102
RTVSPost2010Prop53
 90
        2
102
RTVSPost2010PropOp53
 70
     1
102
RTVSPost2010Prop54
  1
strokes_ogs.tif
102
RTVSPost2010PropOp54
 70
     1
102
RTVSPost2010Prop55
280
     0
102
RTVSPost2010PropOp55
 70
     1
102
RTVSPost2010Prop56
140
1.0
102
RTVSPost2010PropOp56
 70
     1
102
RTVSPost2010Prop57
140
1.0
102
RTVSPost2010PropOp57
 70
     1
102
RTVSPropertyOp0
 70
     1
102
RTVSPropertyOp1
 70
     1
102
RTVSPropertyOp2
 70
     1
102
RTVSPropertyOp3
 70
     1
102
RTVSPropertyOp4
 70
     1
102
RTVSPropertyOp5
 70
     1
102
RTVSPropertyOp6
 70
     1
102
RTVSPropertyOp7
 70
     1
102
RTVSPropertyOp8
 70
     1
102
RTVSPropertyOp9
 70
     1
102
RTVSPropertyOp10
 70
     1
102
RTVSPropertyOp11
 70
     1
102
RTVSPropertyOp12
 70
     1
102
RTVSPropertyOp13
 70
     1
102
RTVSPropertyOp14
 70
     1
102
RTVSPropertyOp15
 70
     1
102
RTVSPropertyOp16
 70
     1
102
RTVSPropertyOp17
 70
     1
102
RTVSPropertyOp18
 70
     1
102
RTVSPropertyOp19
 70
     1
102
RTVSPropertyOp20
 70
     1
102
RTVSPropertyOp21
 70
     1
102
RTVSPropertyOp22
 70
     1
102
RTVSPropertyOp23
 70
     1
102
RTVSPropertyOp24
 70
     1
102
RTVSPropertyOp25
 70
     1
102
RTVSPropertyOp26
 70
     1
102
RTVSPropertyOp27
 70
     1
102
RTVSPropertyOp28
 70
     1
102
RTVSPropertyOp29
 70
     1
102
RTVSPropertyOp30
 70
     1
102
RTVSPropertyOp31
 70
     1
102
RTVSPropertyOp32
 70
     1
102
RTVSPropertyOp33
 70
     1
102
RTVSPropertyOp34
 70
     1
102
RTVSPropertyOp35
 70
     1
102
RTVSPropertyOp36
 70
     1
102
RTVSPropertyOp37
 70
     1
102
RTVSPropertyOp38
 70
     1
102
RTVSPropertyOp39
 70
     1
102
RTVSPropertyOp40
 70
     1
102
RTVSPropertyOp41
 70
     1
102
RTVSPropertyOp42
 70
     1
102
RTVSPropertyOp43
 70
     1
102
RTVSPropertyOp44
 70
     1
102
RTVSPropertyOp45
 70
     1
102
RTVSPropertyOp46
 70
     1
102
RTVSPropertyOp47
 70
     1
102
RTVSPropertyOp48
 70
     1
102
RTVSPropertyOp49
 70
     1
102
RTVSPropertyOp50
 70
     1
102
RTVSPropertyOp51
 70
     0
102
RTVSPropertyOp52
 70
     0
102
RTVSPropertyOp53
 70
     1
102
RTVSPropertyOp54
 70
     1
102
RTVSPropertyOp55
 70
     1
102
RTVSPropertyOp56
 70
     1
102
RTVSPropertyOp57
 70
     1
102
RTVSPropertyOp58
 70
     1
102
RTVSPropertyOp59
 70
     1
102
RTVSPropertyOp60
 70
     1
102
RTVSPropertyOp61
 70
     1
102
RTVSPropertyOp62
 70
     1
  0
XRECORD
  5
E7F
102
{ACAD_REACTORS
330
E7E
102
}
330
E7E
100
AcDbXrecord
280
     1
102
RTVSPost2010Prop28
280
     0
102
RTVSPost2010PropOp28
 70
     1
102
RTVSPost2010Prop29
280
     1
102
RTVSPost2010PropOp29
 70
     1
102
RTVSPost2010Prop30
280
     1
102
RTVSPost2010PropOp30
 70
     1
102
RTVSPost2010Prop31
280
     0
102
RTVSPost2010PropOp31
 70
     1
102
RTVSPost2010Prop32
280
     0
102
RTVSPost2010PropOp32
 70
     1
102
RTVSPost2010Prop33
280
     0
102
RTVSPost2010PropOp33
 70
     1
102
RTVSPost2010Prop34
280
     0
102
RTVSPost2010PropOp34
 70
     1
102
RTVSPost2010Prop35
280
     0
102
RTVSPost2010PropOp35
 70
     1
102
RTVSPost2010Prop36
280
     0
102
RTVSPost2010PropOp36
 70
     1
102
RTVSPost2010Prop37
 90
       50
102
RTVSPost2010PropOp37
 70
     1
102
RTVSPost2010Prop38
140
0.0
102
RTVSPost2010PropOp38
 70
     1
102
RTVSPost2010Prop39
140
1.0
102
RTVSPost2010PropOp39
 70
     1
102
RTVSPost2010Prop40
 90
        0
102
RTVSPost2010PropOp40
 70
     1
102
RTVSPost2010Prop41ColorIndex
 90
       18
102
RTVSPost2010Prop41ColorRGB
 90
        0
102
RTVSPost2010PropOp41
 70
     1
102
RTVSPost2010Prop42
 90
       50
102
RTVSPost2010PropOp42
 70
     1
102
RTVSPost2010Prop43
 90
        3
102
RTVSPost2010PropOp43
 70
     1
102
RTVSPost2010Prop44ColorIndex
 90
        5
102
RTVSPost2010Prop44ColorRGB
 90
      255
102
RTVSPost2010PropOp44
 70
     1
102
RTVSPost2010Prop45
280
     0
102
RTVSPost2010PropOp45
 70
     1
102
RTVSPost2010Prop46
 90
       50
102
RTVSPost2010PropOp46
 70
     1
102
RTVSPost2010Prop47
 90
       50
102
RTVSPost2010PropOp47
 70
     1
102
RTVSPost2010Prop48
 90
       50
102
RTVSPost2010PropOp48
 70
     1
102
RTVSPost2010Prop49
280
     0
102
RTVSPost2010PropOp49
 70
     1
102
RTVSPost2010Prop50
 90
       50
102
RTVSPost2010PropOp50
 70
     1
102
RTVSPost2010Prop51ColorIndex
 90
      256
102
RTVSPost2010Prop51ColorRGB
 90
-16777216
102
RTVSPost2010PropOp51
 70
     0
102
RTVSPost2010Prop52
140
1.0
102
RTVSPost2010PropOp52
 70
     0
102
RTVSPost2010Prop53
 90
        2
102
RTVSPost2010PropOp53
 70
     1
102
RTVSPost2010Prop54
  1
strokes_ogs.tif
102
RTVSPost2010PropOp54
 70
     1
102
RTVSPost2010Prop55
280
     0
102
RTVSPost2010PropOp55
 70
     1
102
RTVSPost2010Prop56
140
1.0
102
RTVSPost2010PropOp56
 70
     1
102
RTVSPost2010Prop57
140
1.0
102
RTVSPost2010PropOp57
 70
     1
102
RTVSPropertyOp0
 70
     1
102
RTVSPropertyOp1
 70
     1
102
RTVSPropertyOp2
 70
     1
102
RTVSPropertyOp3
 70
     1
102
RTVSPropertyOp4
 70
     1
102
RTVSPropertyOp5
 70
     1
102
RTVSPropertyOp6
 70
     1
102
RTVSPropertyOp7
 70
     1
102
RTVSPropertyOp8
 70
     1
102
RTVSPropertyOp9
 70
     1
102
RTVSPropertyOp10
 70
     1
102
RTVSPropertyOp11
 70
     1
102
RTVSPropertyOp12
 70
     1
102
RTVSPropertyOp13
 70
     1
102
RTVSPropertyOp14
 70
     1
102
RTVSPropertyOp15
 70
     1
102
RTVSPropertyOp16
 70
     1
102
RTVSPropertyOp17
 70
     1
102
RTVSPropertyOp18
 70
     1
102
RTVSPropertyOp19
 70
     1
102
RTVSPropertyOp20
 70
     1
102
RTVSPropertyOp21
 70
     1
102
RTVSPropertyOp22
 70
     1
102
RTVSPropertyOp23
 70
     1
102
RTVSPropertyOp24
 70
     1
102
RTVSPropertyOp25
 70
     1
102
RTVSPropertyOp26
 70
     1
102
RTVSPropertyOp27
 70
     1
102
RTVSPropertyOp28
 70
     1
102
RTVSPropertyOp29
 70
     1
102
RTVSPropertyOp30
 70
     1
102
RTVSPropertyOp31
 70
     1
102
RTVSPropertyOp32
 70
     1
102
RTVSPropertyOp33
 70
     1
102
RTVSPropertyOp34
 70
     1
102
RTVSPropertyOp35
 70
     1
102
RTVSPropertyOp36
 70
     1
102
RTVSPropertyOp37
 70
     1
102
RTVSPropertyOp38
 70
     1
102
RTVSPropertyOp39
 70
     1
102
RTVSPropertyOp40
 70
     1
102
RTVSPropertyOp41
 70
     1
102
RTVSPropertyOp42
 70
     1
102
RTVSPropertyOp43
 70
     1
102
RTVSPropertyOp44
 70
     1
102
RTVSPropertyOp45
 70
     1
102
RTVSPropertyOp46
 70
     1
102
RTVSPropertyOp47
 70
     1
102
RTVSPropertyOp48
 70
     1
102
RTVSPropertyOp49
 70
     1
102
RTVSPropertyOp50
 70
     1
102
RTVSPropertyOp51
 70
     0
102
RTVSPropertyOp52
 70
     0
102
RTVSPropertyOp53
 70
     1
102
RTVSPropertyOp54
 70
     1
102
RTVSPropertyOp55
 70
     1
102
RTVSPropertyOp56
 70
     1
102
RTVSPropertyOp57
 70
     1
102
RTVSPropertyOp58
 70
     1
102
RTVSPropertyOp59
 70
     1
102
RTVSPropertyOp60
 70
     1
102
RTVSPropertyOp61
 70
     1
102
RTVSPropertyOp62
 70
     1
  0
XRECORD
  5
E97
102
{ACAD_REACTORS
330
E96
102
}
330
E96
100
AcDbXrecord
280
     1
102
RTVSPost2010Prop28
280
     0
102
RTVSPost2010PropOp28
 70
     1
102
RTVSPost2010Prop29
280
     1
102
RTVSPost2010PropOp29
 70
     1
102
RTVSPost2010Prop30
280
     1
102
RTVSPost2010PropOp30
 70
     1
102
RTVSPost2010Prop31
280
     0
102
RTVSPost2010PropOp31
 70
     1
102
RTVSPost2010Prop32
280
     0
102
RTVSPost2010PropOp32
 70
     1
102
RTVSPost2010Prop33
280
     0
102
RTVSPost2010PropOp33
 70
     1
102
RTVSPost2010Prop34
280
     0
102
RTVSPost2010PropOp34
 70
     1
102
RTVSPost2010Prop35
280
     0
102
RTVSPost2010PropOp35
 70
     1
102
RTVSPost2010Prop36
280
     0
102
RTVSPost2010PropOp36
 70
     1
102
RTVSPost2010Prop37
 90
       50
102
RTVSPost2010PropOp37
 70
     1
102
RTVSPost2010Prop38
140
0.0
102
RTVSPost2010PropOp38
 70
     1
102
RTVSPost2010Prop39
140
1.0
102
RTVSPost2010PropOp39
 70
     1
102
RTVSPost2010Prop40
 90
        0
102
RTVSPost2010PropOp40
 70
     1
102
RTVSPost2010Prop41ColorIndex
 90
       18
102
RTVSPost2010Prop41ColorRGB
 90
        0
102
RTVSPost2010PropOp41
 70
     1
102
RTVSPost2010Prop42
 90
       50
102
RTVSPost2010PropOp42
 70
     1
102
RTVSPost2010Prop43
 90
        3
102
RTVSPost2010PropOp43
 70
     1
102
RTVSPost2010Prop44ColorIndex
 90
        5
102
RTVSPost2010Prop44ColorRGB
 90
      255
102
RTVSPost2010PropOp44
 70
     1
102
RTVSPost2010Prop45
280
     0
102
RTVSPost2010PropOp45
 70
     1
102
RTVSPost2010Prop46
 90
       50
102
RTVSPost2010PropOp46
 70
     1
102
RTVSPost2010Prop47
 90
       50
102
RTVSPost2010PropOp47
 70
     1
102
RTVSPost2010Prop48
 90
       50
102
RTVSPost2010PropOp48
 70
     1
102
RTVSPost2010Prop49
280
     0
102
RTVSPost2010PropOp49
 70
     1
102
RTVSPost2010Prop50
 90
       50
102
RTVSPost2010PropOp50
 70
     1
102
RTVSPost2010Prop51ColorIndex
 90
      256
102
RTVSPost2010Prop51ColorRGB
 90
-16777216
102
RTVSPost2010PropOp51
 70
     0
102
RTVSPost2010Prop52
140
1.0
102
RTVSPost2010PropOp52
 70
     0
102
RTVSPost2010Prop53
 90
        2
102
RTVSPost2010PropOp53
 70
     1
102
RTVSPost2010Prop54
  1
strokes_ogs.tif
102
RTVSPost2010PropOp54
 70
     1
102
RTVSPost2010Prop55
280
     0
102
RTVSPost2010PropOp55
 70
     1
102
RTVSPost2010Prop56
140
1.0
102
RTVSPost2010PropOp56
 70
     1
102
RTVSPost2010Prop57
140
1.0
102
RTVSPost2010PropOp57
 70
     1
102
RTVSPropertyOp0
 70
     1
102
RTVSPropertyOp1
 70
     1
102
RTVSPropertyOp2
 70
     1
102
RTVSPropertyOp3
 70
     1
102
RTVSPropertyOp4
 70
     1
102
RTVSPropertyOp5
 70
     1
102
RTVSPropertyOp6
 70
     1
102
RTVSPropertyOp7
 70
     1
102
RTVSPropertyOp8
 70
     1
102
RTVSPropertyOp9
 70
     1
102
RTVSPropertyOp10
 70
     1
102
RTVSPropertyOp11
 70
     1
102
RTVSPropertyOp12
 70
     1
102
RTVSPropertyOp13
 70
     1
102
RTVSPropertyOp14
 70
     1
102
RTVSPropertyOp15
 70
     1
102
RTVSPropertyOp16
 70
     1
102
RTVSPropertyOp17
 70
     1
102
RTVSPropertyOp18
 70
     1
102
RTVSPropertyOp19
 70
     1
102
RTVSPropertyOp20
 70
     1
102
RTVSPropertyOp21
 70
     1
102
RTVSPropertyOp22
 70
     1
102
RTVSPropertyOp23
 70
     1
102
RTVSPropertyOp24
 70
     1
102
RTVSPropertyOp25
 70
     1
102
RTVSPropertyOp26
 70
     1
102
RTVSPropertyOp27
 70
     1
102
RTVSPropertyOp28
 70
     1
102
RTVSPropertyOp29
 70
     1
102
RTVSPropertyOp30
 70
     1
102
RTVSPropertyOp31
 70
     1
102
RTVSPropertyOp32
 70
     1
102
RTVSPropertyOp33
 70
     1
102
RTVSPropertyOp34
 70
     1
102
RTVSPropertyOp35
 70
     1
102
RTVSPropertyOp36
 70
     1
102
RTVSPropertyOp37
 70
     1
102
RTVSPropertyOp38
 70
     1
102
RTVSPropertyOp39
 70
     1
102
RTVSPropertyOp40
 70
     1
102
RTVSPropertyOp41
 70
     1
102
RTVSPropertyOp42
 70
     1
102
RTVSPropertyOp43
 70
     1
102
RTVSPropertyOp44
 70
     1
102
RTVSPropertyOp45
 70
     1
102
RTVSPropertyOp46
 70
     1
102
RTVSPropertyOp47
 70
     1
102
RTVSPropertyOp48
 70
     1
102
RTVSPropertyOp49
 70
     1
102
RTVSPropertyOp50
 70
     1
102
RTVSPropertyOp51
 70
     0
102
RTVSPropertyOp52
 70
     0
102
RTVSPropertyOp53
 70
     1
102
RTVSPropertyOp54
 70
     1
102
RTVSPropertyOp55
 70
     1
102
RTVSPropertyOp56
 70
     1
102
RTVSPropertyOp57
 70
     1
102
RTVSPropertyOp58
 70
     1
102
RTVSPropertyOp59
 70
     1
102
RTVSPropertyOp60
 70
     1
102
RTVSPropertyOp61
 70
     1
102
RTVSPropertyOp62
 70
     1
  0
ENDSEC
  0
EOF
