  0
SECTION
  2
HEADER
  9
$ACADVER
  1
AC1024
  9
$ACADMAINTVER
 70
   155
  9
$DWGCODEPAGE
  3
ANSI_932
  9
$LASTSAVEDBY
  1
takase
  9
$INSBASE
 10
0.0
 20
0.0
 30
0.0
  9
$EXTMIN
 10
-637.0954545794806
 20
-594.7123884835974
 30
0.0
  9
$EXTMAX
 10
201.2889342862786
 20
264.7691373887124
 30
0.0
  9
$LIMMIN
 10
0.0
 20
0.0
  9
$LIMMAX
 10
210.0
 20
297.0
  9
$ORTHOMODE
 70
     0
  9
$REGENMODE
 70
     1
  9
$FILLMODE
 70
     1
  9
$QTEXTMODE
 70
     0
  9
$MIRRTEXT
 70
     1
  9
$LTSCALE
 40
1.0
  9
$ATTMODE
 70
     1
  9
$TEXTSIZE
 40
5.0
  9
$TRACEWID
 40
1.0
  9
$TEXTSTYLE
  7
symbols
  9
$CLAYER
  8
外形線
  9
$CELTYPE
  6
ByLayer
  9
$CECOLOR
 62
     0
  9
$CELTSCALE
 40
1.0
  9
$DISPSILH
 70
     0
  9
$DIMSCALE
 40
1.0
  9
$DIMASZ
 40
1.75
  9
$DIMEXO
 40
7.0
  9
$DIMDLI
 40
9.375
  9
$DIMRND
 40
0.0
  9
$DIMDLE
 40
0.0
  9
$DIMEXE
 40
1.25
  9
$DIMTP
 40
0.0
  9
$DIMTM
 40
0.0
  9
$DIMTXT
 40
3.5
  9
$DIMCEN
 40
3.5
  9
$DIMTSZ
 40
0.0
  9
$DIMTOL
 70
     0
  9
$DIMLIM
 70
     0
  9
$DIMTIH
 70
     0
  9
$DIMTOH
 70
     0
  9
$DIMSE1
 70
     0
  9
$DIMSE2
 70
     0
  9
$DIMTAD
 70
     1
  9
$DIMZIN
 70
     8
  9
$DIMBLK
  1

  9
$DIMASO
 70
     1
  9
$DIMSHO
 70
     1
  9
$DIMPOST
  1

  9
$DIMAPOST
  1

  9
$DIMALT
 70
     0
  9
$DIMALTD
 70
     3
  9
$DIMALTF
 40
0.03937007874016
  9
$DIMLFAC
 40
1.0
  9
$DIMTOFL
 70
     1
  9
$DIMTVP
 40
0.0
  9
$DIMTIX
 70
     0
  9
$DIMSOXD
 70
     0
  9
$DIMSAH
 70
     0
  9
$DIMBLK1
  1

  9
$DIMBLK2
  1

  9
$DIMSTYLE
  2
ISO-25
  9
$DIMCLRD
 70
     0
  9
$DIMCLRE
 70
     0
  9
$DIMCLRT
 70
     0
  9
$DIMTFAC
 40
1.0
  9
$DIMGAP
 40
0.7
  9
$DIMJUST
 70
     0
  9
$DIMSD1
 70
     0
  9
$DIMSD2
 70
     0
  9
$DIMTOLJ
 70
     0
  9
$DIMTZIN
 70
     8
  9
$DIMALTZ
 70
     0
  9
$DIMALTTZ
 70
     0
  9
$DIMUPT
 70
     0
  9
$DIMDEC
 70
     2
  9
$DIMTDEC
 70
     2
  9
$DIMALTU
 70
     2
  9
$DIMALTTD
 70
     3
  9
$DIMTXSTY
  7
Standard
  9
$DIMAUNIT
 70
     0
  9
$DIMADEC
 70
     0
  9
$DIMALTRND
 40
0.0
  9
$DIMAZIN
 70
     0
  9
$DIMDSEP
 70
    46
  9
$DIMATFIT
 70
     3
  9
$DIMFRAC
 70
     0
  9
$DIMLDRBLK
  1

  9
$DIMLUNIT
 70
     2
  9
$DIMLWD
 70
    -2
  9
$DIMLWE
 70
    -2
  9
$DIMTMOVE
 70
     0
  9
$DIMFXL
 40
1.0
  9
$DIMFXLON
 70
     0
  9
$DIMJOGANG
 40
0.7853981633974483
  9
$DIMTFILL
 70
     0
  9
$DIMTFILLCLR
 70
     0
  9
$DIMARCSYM
 70
     0
  9
$DIMLTYPE
  6

  9
$DIMLTEX1
  6

  9
$DIMLTEX2
  6

  9
$DIMTXTDIRECTION
 70
     0
  9
$LUNITS
 70
     2
  9
$LUPREC
 70
     4
  9
$SKETCHINC
 40
1.0
  9
$FILLETRAD
 40
0.1
  9
$AUNITS
 70
     0
  9
$AUPREC
 70
     0
  9
$MENU
  1
.
  9
$ELEVATION
 40
0.0
  9
$PELEVATION
 40
0.0
  9
$THICKNESS
 40
0.0
  9
$LIMCHECK
 70
     0
  9
$CHAMFERA
 40
10.0
  9
$CHAMFERB
 40
10.0
  9
$CHAMFERC
 40
20.0
  9
$CHAMFERD
 40
0.0
  9
$SKPOLY
 70
     0
  9
$TDCREATE
 40
2454825.733664641
  9
$TDUCREATE
 40
2454825.358664642
  9
$TDUPDATE
 40
2457700.952705336
  9
$TDUUPDATE
 40
2457700.577705336
  9
$TDINDWG
 40
0.6483756134
  9
$TDUSRTIMER
 40
0.6483756134
  9
$USRTIMER
 70
     1
  9
$ANGBASE
 50
0.0
  9
$ANGDIR
 70
     0
  9
$PDMODE
 70
     0
  9
$PDSIZE
 40
0.0
  9
$PLINEWID
 40
0.0
  9
$SPLFRAME
 70
     0
  9
$SPLINETYPE
 70
     6
  9
$SPLINESEGS
 70
     8
  9
$HANDSEED
  5
4454
  9
$SURFTAB1
 70
     6
  9
$SURFTAB2
 70
     6
  9
$SURFTYPE
 70
     6
  9
$SURFU
 70
     6
  9
$SURFV
 70
     6
  9
$UCSBASE
  2

  9
$UCSNAME
  2

  9
$UCSORG
 10
-519.0954545794864
 20
-565.9091501563412
 30
0.0
  9
$UCSXDIR
 10
1.0
 20
0.0
 30
0.0
  9
$UCSYDIR
 10
0.0
 20
1.0
 30
0.0
  9
$UCSORTHOREF
  2

  9
$UCSORTHOVIEW
 70
     0
  9
$UCSORGTOP
 10
0.0
 20
0.0
 30
0.0
  9
$UCSORGBOTTOM
 10
0.0
 20
0.0
 30
0.0
  9
$UCSORGLEFT
 10
0.0
 20
0.0
 30
0.0
  9
$UCSORGRIGHT
 10
0.0
 20
0.0
 30
0.0
  9
$UCSORGFRONT
 10
0.0
 20
0.0
 30
0.0
  9
$UCSORGBACK
 10
0.0
 20
0.0
 30
0.0
  9
$PUCSBASE
  2

  9
$PUCSNAME
  2

  9
$PUCSORG
 10
0.0
 20
0.0
 30
0.0
  9
$PUCSXDIR
 10
1.0
 20
0.0
 30
0.0
  9
$PUCSYDIR
 10
0.0
 20
1.0
 30
0.0
  9
$PUCSORTHOREF
  2

  9
$PUCSORTHOVIEW
 70
     0
  9
$PUCSORGTOP
 10
0.0
 20
0.0
 30
0.0
  9
$PUCSORGBOTTOM
 10
0.0
 20
0.0
 30
0.0
  9
$PUCSORGLEFT
 10
0.0
 20
0.0
 30
0.0
  9
$PUCSORGRIGHT
 10
0.0
 20
0.0
 30
0.0
  9
$PUCSORGFRONT
 10
0.0
 20
0.0
 30
0.0
  9
$PUCSORGBACK
 10
0.0
 20
0.0
 30
0.0
  9
$USERI1
 70
     0
  9
$USERI2
 70
     0
  9
$USERI3
 70
     0
  9
$USERI4
 70
     0
  9
$USERI5
 70
     0
  9
$USERR1
 40
0.0
  9
$USERR2
 40
0.0
  9
$USERR3
 40
0.0
  9
$USERR4
 40
0.0
  9
$USERR5
 40
0.0
  9
$WORLDVIEW
 70
     1
  9
$SHADEDGE
 70
     3
  9
$SHADEDIF
 70
    70
  9
$TILEMODE
 70
     1
  9
$MAXACTVP
 70
    64
  9
$PINSBASE
 10
0.0
 20
0.0
 30
0.0
  9
$PLIMCHECK
 70
     0
  9
$PEXTMIN
 10
1.000000000000000E+20
 20
1.000000000000000E+20
 30
1.000000000000000E+20
  9
$PEXTMAX
 10
-1.000000000000000E+20
 20
-1.000000000000000E+20
 30
-1.000000000000000E+20
  9
$PLIMMIN
 10
0.0
 20
0.0
  9
$PLIMMAX
 10
420.0
 20
297.0
  9
$UNITMODE
 70
     0
  9
$VISRETAIN
 70
     1
  9
$PLINEGEN
 70
     0
  9
$PSLTSCALE
 70
     1
  9
$TREEDEPTH
 70
  3020
  9
$CMLSTYLE
  2
Standard
  9
$CMLJUST
 70
     0
  9
$CMLSCALE
 40
20.0
  9
$PROXYGRAPHICS
 70
     1
  9
$MEASUREMENT
 70
     1
  9
$CELWEIGHT
370
     9
  9
$ENDCAPS
280
     0
  9
$JOINSTYLE
280
     0
  9
$LWDISPLAY
290
     0
  9
$INSUNITS
 70
     4
  9
$HYPERLINKBASE
  1

  9
$STYLESHEET
  1
monochrome.stb
  9
$XEDIT
290
     1
  9
$CEPSNTYPE
380
     0
  9
$PSTYLEMODE
290
     0
  9
$FINGERPRINTGUID
  2
{E3C53965-147C-4B87-A988-E3E6194F7297}
  9
$VERSIONGUID
  2
{BB8954DA-922A-497F-B6DE-5F431F8C26B1}
  9
$EXTNAMES
290
     1
  9
$PSVPSCALE
 40
0.0
  9
$OLESTARTUP
290
     0
  9
$SORTENTS
280
   127
  9
$INDEXCTL
280
     0
  9
$HIDETEXT
280
     1
  9
$XCLIPFRAME
280
     2
  9
$HALOGAP
280
     0
  9
$OBSCOLOR
 70
   257
  9
$OBSLTYPE
280
     0
  9
$INTERSECTIONDISPLAY
280
     0
  9
$INTERSECTIONCOLOR
 70
   257
  9
$DIMASSOC
280
     2
  9
$PROJECTNAME
  1

  9
$CAMERADISPLAY
290
     0
  9
$LENSLENGTH
 40
50.0
  9
$CAMERAHEIGHT
 40
0.0
  9
$STEPSPERSEC
 40
2.0
  9
$STEPSIZE
 40
6.0
  9
$3DDWFPREC
 40
2.0
  9
$PSOLWIDTH
 40
0.25
  9
$PSOLHEIGHT
 40
4.0
  9
$LOFTANG1
 40
1.570796326794896
  9
$LOFTANG2
 40
1.570796326794896
  9
$LOFTMAG1
 40
0.0
  9
$LOFTMAG2
 40
0.0
  9
$LOFTPARAM
 70
     7
  9
$LOFTNORMALS
280
     1
  9
$LATITUDE
 40
37.795
  9
$LONGITUDE
 40
-122.394
  9
$NORTHDIRECTION
 40
0.0
  9
$TIMEZONE
 70
 -8000
  9
$LIGHTGLYPHDISPLAY
280
     1
  9
$TILEMODELIGHTSYNCH
280
     1
  9
$CMATERIAL
347
3E6D
  9
$SOLIDHIST
280
     0
  9
$SHOWHIST
280
     1
  9
$DWFFRAME
280
     2
  9
$DGNFRAME
280
     0
  9
$REALWORLDSCALE
290
     1
  9
$INTERFERECOLOR
 62
     1
  9
$INTERFEREOBJVS
345
3E8F
  9
$INTERFEREVPVS
346
3E8C
  9
$CSHADOW
280
     0
  9
$SHADOWPLANELOCATION
 40
0.0
  0
ENDSEC
  0
SECTION
  2
CLASSES
  0
CLASS
  1
ACDBDICTIONARYWDFLT
  2
AcDbDictionaryWithDefault
  3
ObjectDBX Classes
 90
        0
 91
        1
280
     0
281
     0
  0
CLASS
  1
DICTIONARYVAR
  2
AcDbDictionaryVar
  3
ObjectDBX Classes
 90
        0
 91
       13
280
     0
281
     0
  0
CLASS
  1
DIMASSOC
  2
AcDbDimAssoc
  3
"AcDbDimAssoc|Product Desc:     AcDim ARX App For Dimension|Company:          Autodesk, Inc.|WEB Address:      www.autodesk.com"
 90
        0
 91
       18
280
     0
281
     0
  0
CLASS
  1
MATERIAL
  2
AcDbMaterial
  3
ObjectDBX Classes
 90
     1153
 91
        3
280
     0
281
     0
  0
CLASS
  1
VISUALSTYLE
  2
AcDbVisualStyle
  3
ObjectDBX Classes
 90
     4095
 91
       24
280
     0
281
     0
  0
CLASS
  1
TABLESTYLE
  2
AcDbTableStyle
  3
ObjectDBX Classes
 90
     4095
 91
        1
280
     0
281
     0
  0
CLASS
  1
SCALE
  2
AcDbScale
  3
ObjectDBX Classes
 90
     1153
 91
       17
280
     0
281
     0
  0
CLASS
  1
MLEADERSTYLE
  2
AcDbMLeaderStyle
  3
ACDB_MLEADERSTYLE_CLASS
 90
     4095
 91
        1
280
     0
281
     0
  0
CLASS
  1
ACDBSECTIONVIEWSTYLE
  2
AcDbSectionViewStyle
  3
ObjectDBX Classes
 90
     1025
 91
        1
280
     0
281
     0
  0
CLASS
  1
ACDBDETAILVIEWSTYLE
  2
AcDbDetailViewStyle
  3
ObjectDBX Classes
 90
     1025
 91
        1
280
     0
281
     0
  0
CLASS
  1
SORTENTSTABLE
  2
AcDbSortentsTable
  3
ObjectDBX Classes
 90
        0
 91
        1
280
     0
281
     0
  0
CLASS
  1
CELLSTYLEMAP
  2
AcDbCellStyleMap
  3
ObjectDBX Classes
 90
     1152
 91
        2
280
     0
281
     0
  0
CLASS
  1
MULTILEADER
  2
AcDbMLeader
  3
ACDB_MLEADER_CLASS
 90
     1025
 91
        7
280
     0
281
     1
  0
CLASS
  1
PLOTSETTINGS
  2
AcDbPlotSettings
  3
ObjectDBX Classes
 90
        0
 91
        1
280
     0
281
     0
  0
ENDSEC
  0
SECTION
  2
TABLES
  0
TABLE
  2
VPORT
  5
8
330
0
100
AcDbSymbolTable
 70
     1
  0
VPORT
  5
3E6A
330
8
100
AcDbSymbolTableRecord
100
AcDbViewportTableRecord
  2
*Active
 70
     0
 10
0.0
 20
0.0
 11
1.0
 21
1.0
 12
-475.4450944273458
 22
-367.7347852068592
 13
0.0
 23
0.0
 14
1.0
 24
1.0
 15
1.0
 25
1.0
 16
0.0
 26
0.0
 36
1.0
 17
0.0
 27
0.0
 37
0.0
 40
321.2819508628381
 41
1.983076923076923
 42
50.0
 43
0.0
 44
0.0
 50
0.0
 51
0.0
 71
     0
 72
   100
 73
     1
 74
     3
 75
     0
 76
     0
 77
     0
 78
     0
281
     0
 65
     1
110
-519.0954545794864
120
-565.9091501563412
130
0.0
111
1.0
121
0.0
131
0.0
112
0.0
122
1.0
132
0.0
 79
     0
146
0.0
348
3E8B
 60
     3
 61
     5
292
     1
282
     1
141
0.0
142
0.0
 63
   250
421
  3355443
1001
ACAD_NAV_VCDISPLAY
1070
     3
  0
ENDTAB
  0
TABLE
  2
LTYPE
  5
5
330
0
100
AcDbSymbolTable
 70
     7
  0
LTYPE
  5
14
330
5
100
AcDbSymbolTableRecord
100
AcDbLinetypeTableRecord
  2
ByBlock
 70
     0
  3

 72
    65
 73
     0
 40
0.0
  0
LTYPE
  5
15
330
5
100
AcDbSymbolTableRecord
100
AcDbLinetypeTableRecord
  2
ByLayer
 70
     0
  3

 72
    65
 73
     0
 40
0.0
  0
LTYPE
  5
16
330
5
100
AcDbSymbolTableRecord
100
AcDbLinetypeTableRecord
  2
Continuous
 70
     0
  3
Solid line
 72
    65
 73
     0
 40
0.0
  0
LTYPE
  5
2D
330
5
100
AcDbSymbolTableRecord
100
AcDbLinetypeTableRecord
  2
HIDDEN
 70
     0
  3
Hidden __ __ __ __ __ __ __ __ __ __ __ __ __ _
 72
    65
 73
     2
 40
9.524999999999998
 49
6.349999999999999
 74
     0
 49
-3.174999999999999
 74
     0
  0
LTYPE
  5
2E
330
5
100
AcDbSymbolTableRecord
100
AcDbLinetypeTableRecord
  2
CENTER
 70
     0
  3
Center ____ _ ____ _ ____ _ ____ _ ____ _ ____
 72
    65
 73
     4
 40
50.8
 49
31.75
 74
     0
 49
-6.349999999999999
 74
     0
 49
6.349999999999999
 74
     0
 49
-6.349999999999999
 74
     0
  0
LTYPE
  5
9E
330
5
100
AcDbSymbolTableRecord
100
AcDbLinetypeTableRecord
  2
HIDDEN2
 70
     0
  3
Hidden (.5x) _ _ _ _ _ _ _ _ _ _ _ _ _ _ _ _ _
 72
    65
 73
     2
 40
4.762499999999999
 49
3.174999999999999
 74
     0
 49
-1.587499999999999
 74
     0
  0
LTYPE
  5
9F
330
5
100
AcDbSymbolTableRecord
100
AcDbLinetypeTableRecord
  2
CENTER2
 70
     0
  3
Center (.5x) ___ _ ___ _ ___ _ ___ _ ___ _ ___
 72
    65
 73
     4
 40
28.575
 49
19.05
 74
     0
 49
-3.174999999999999
 74
     0
 49
3.174999999999999
 74
     0
 49
-3.174999999999999
 74
     0
  0
ENDTAB
  0
TABLE
  2
LAYER
  5
2
102
{ACAD_XDICTIONARY
360
4028
102
}
330
0
100
AcDbSymbolTable
 70
    10
  0
LAYER
  5
10
102
{ACAD_XDICTIONARY
360
3F7B
102
}
330
2
100
AcDbSymbolTableRecord
100
AcDbLayerTableRecord
  2
0
 70
     0
 62
     7
  6
Continuous
370
    -3
390
F
347
3E7D
  0
LAYER
  5
2F
102
{ACAD_XDICTIONARY
360
3F7D
102
}
330
2
100
AcDbSymbolTableRecord
100
AcDbLayerTableRecord
  2
外形線
 70
     0
 62
     7
  6
Continuous
370
    20
390
F
347
3E7D
  0
LAYER
  5
30
102
{ACAD_XDICTIONARY
360
3F7F
102
}
330
2
100
AcDbSymbolTableRecord
100
AcDbLayerTableRecord
  2
中心線
 70
     0
 62
     1
  6
CENTER2
370
    13
390
F
347
3E7D
  0
LAYER
  5
31
102
{ACAD_XDICTIONARY
360
3F81
102
}
330
2
100
AcDbSymbolTableRecord
100
AcDbLayerTableRecord
  2
かくれ線
 70
     0
 62
     3
  6
HIDDEN2
370
     9
390
F
347
3E7D
  0
LAYER
  5
32
102
{ACAD_XDICTIONARY
360
3F83
102
}
330
2
100
AcDbSymbolTableRecord
100
AcDbLayerTableRecord
  2
図枠
 70
     0
 62
     1
  6
Continuous
370
    -3
390
F
347
3E7D
  0
LAYER
  5
33
102
{ACAD_XDICTIONARY
360
3F85
102
}
330
2
100
AcDbSymbolTableRecord
100
AcDbLayerTableRecord
  2
文字
 70
     0
 62
     4
  6
Continuous
370
    25
390
F
347
3E7D
  0
LAYER
  5
34
102
{ACAD_XDICTIONARY
360
3F87
102
}
330
2
100
AcDbSymbolTableRecord
100
AcDbLayerTableRecord
  2
ハッチング
 70
     0
 62
   253
  6
Continuous
370
    13
390
F
347
3E7D
  0
LAYER
  5
35
102
{ACAD_XDICTIONARY
360
3F89
102
}
330
2
100
AcDbSymbolTableRecord
100
AcDbLayerTableRecord
  2
補助線
 70
     0
 62
     5
  6
Continuous
370
    -3
390
F
347
3E7D
  0
LAYER
  5
36
102
{ACAD_XDICTIONARY
360
3F8B
102
}
330
2
100
AcDbSymbolTableRecord
100
AcDbLayerTableRecord
  2
寸法線
 70
     0
 62
     2
  6
Continuous
370
     5
390
F
347
3E7D
  0
LAYER
  5
13E
330
2
100
AcDbSymbolTableRecord
100
AcDbLayerTableRecord
  2
Defpoints
 70
     0
 62
     7
  6
Continuous
290
     0
370
    -3
390
F
347
3E7D
  0
ENDTAB
  0
TABLE
  2
STYLE
  5
3
330
0
100
AcDbSymbolTable
 70
     4
  0
STYLE
  5
11
330
3
100
AcDbSymbolTableRecord
100
AcDbTextStyleTableRecord
  2
Standard
 70
     0
 40
0.0
 41
1.0
 50
0.0
 71
     0
 42
2.5
  3
isocp.shx
  4
extfont.shx
  0
STYLE
  5
2C
330
3
100
AcDbSymbolTableRecord
100
AcDbTextStyleTableRecord
  2

 70
     1
 40
0.0
 41
1.0
 50
0.0
 71
     0
 42
2.5
  3
ltypeshp.shx
  4

  0
STYLE
  5
4C
330
3
100
AcDbSymbolTableRecord
100
AcDbTextStyleTableRecord
  2
symbols
 70
     0
 40
0.0
 41
1.0
 50
0.0
 71
     0
 42
5.0
  3
MS UI Gothic.ttf
  4

1001
ACAD
1000
MS UI Gothic
1071
    32818
  0
STYLE
  5
128F
330
3
100
AcDbSymbolTableRecord
100
AcDbTextStyleTableRecord
  2
ｽﾀｲﾙ1
 70
     0
 40
0.0
 41
1.0
 50
0.0
 71
     0
 42
5.0
  3
isocp.shx
  4
extfont.shx
  0
ENDTAB
  0
TABLE
  2
VIEW
  5
6
330
0
100
AcDbSymbolTable
 70
     0
  0
ENDTAB
  0
TABLE
  2
UCS
  5
7
330
0
100
AcDbSymbolTable
 70
     0
  0
ENDTAB
  0
TABLE
  2
APPID
  5
9
330
0
100
AcDbSymbolTable
 70
     8
  0
APPID
  5
12
330
9
100
AcDbSymbolTableRecord
100
AcDbRegAppTableRecord
  2
ACAD
 70
     0
  0
APPID
  5
3EC0
330
9
100
AcDbSymbolTableRecord
100
AcDbRegAppTableRecord
  2
ACAD_DSTYLE_DIMRADIAL_EXTENSION
 70
     0
  0
APPID
  5
3EDF
330
9
100
AcDbSymbolTableRecord
100
AcDbRegAppTableRecord
  2
ACAD_NAV_VCDISPLAY
 70
     0
  0
APPID
  5
3F11
330
9
100
AcDbSymbolTableRecord
100
AcDbRegAppTableRecord
  2
GradientColor1ACI
 70
     0
  0
APPID
  5
3F12
330
9
100
AcDbSymbolTableRecord
100
AcDbRegAppTableRecord
  2
GradientColor2ACI
 70
     0
  0
APPID
  5
3F96
330
9
100
AcDbSymbolTableRecord
100
AcDbRegAppTableRecord
  2
ACAD_PSEXT
 70
     0
  0
APPID
  5
3FE5
330
9
100
AcDbSymbolTableRecord
100
AcDbRegAppTableRecord
  2
ACAD_MLEADERVER
 70
     0
  0
APPID
  5
41C2
330
9
100
AcDbSymbolTableRecord
100
AcDbRegAppTableRecord
  2
ACAD_EXEMPT_FROM_CAD_STANDARDS
 70
     0
  0
ENDTAB
  0
TABLE
  2
DIMSTYLE
  5
A
330
0
100
AcDbSymbolTable
 70
     3
100
AcDbDimStyleTable
 71
     1
340
27
  0
DIMSTYLE
105
27
102
{ACAD_REACTORS
330
373F
330
3694
330
36CB
330
36DC
102
}
330
A
100
AcDbSymbolTableRecord
100
AcDbDimStyleTableRecord
  2
ISO-25
 70
     0
 41
2.5
 42
0.625
 43
3.75
 44
1.25
 73
     0
 74
     0
 77
     1
 78
     8
140
3.5
141
2.5
143
0.03937007874016
147
0.625
171
     3
172
     1
271
     2
272
     2
274
     3
283
     0
284
     8
340
11
  0
DIMSTYLE
105
FCC
330
A
100
AcDbSymbolTableRecord
100
AcDbDimStyleTableRecord
  2
STANDARD
 70
     0
 41
3.0
 42
1.0
 43
7.5
 44
2.0
 45
2.0
 77
     1
 78
     1
140
5.0
141
0.0
147
2.0
171
     0
172
     1
176
     1
177
     1
178
     1
271
     2
272
     2
279
     2
284
     1
285
     1
286
     1
340
11
  0
ENDTAB
  0
TABLE
  2
BLOCK_RECORD
  5
1
330
0
100
AcDbSymbolTable
 70
    19
  0
BLOCK_RECORD
  5
1F
102
{ACAD_XDICTIONARY
360
3EEB
102
}
330
1
100
AcDbSymbolTableRecord
100
AcDbBlockTableRecord
  2
*Model_Space
340
22
 70
     0
280
     1
281
     0
  0
BLOCK_RECORD
  5
1B
330
1
100
AcDbSymbolTableRecord
100
AcDbBlockTableRecord
  2
*Paper_Space
340
1E
 70
     0
280
     1
281
     0
  0
BLOCK_RECORD
  5
23
330
1
100
AcDbSymbolTableRecord
100
AcDbBlockTableRecord
  2
*Paper_Space0
340
26
 70
     0
280
     1
281
     0
  0
BLOCK_RECORD
  5
378F
330
1
100
AcDbSymbolTableRecord
100
AcDbBlockTableRecord
  2
*D1
340
0
 70
     0
280
     1
281
     0
  0
BLOCK_RECORD
  5
379B
330
1
100
AcDbSymbolTableRecord
100
AcDbBlockTableRecord
  2
*D2
340
0
 70
     0
280
     1
281
     0
  0
BLOCK_RECORD
  5
37A7
330
1
100
AcDbSymbolTableRecord
100
AcDbBlockTableRecord
  2
*D3
340
0
 70
     0
280
     1
281
     0
  0
BLOCK_RECORD
  5
37BC
330
1
100
AcDbSymbolTableRecord
100
AcDbBlockTableRecord
  2
*D4
340
0
 70
     0
280
     1
281
     0
  0
BLOCK_RECORD
  5
3865
330
1
100
AcDbSymbolTableRecord
100
AcDbBlockTableRecord
  2
*D5
340
0
 70
     0
280
     1
281
     0
  0
BLOCK_RECORD
  5
38E3
330
1
100
AcDbSymbolTableRecord
100
AcDbBlockTableRecord
  2
A$C7A7334A3
340
0
 70
     0
280
     1
281
     0
  0
BLOCK_RECORD
  5
3D3A
330
1
100
AcDbSymbolTableRecord
100
AcDbBlockTableRecord
  2
*D7
340
0
 70
     0
280
     1
281
     0
  0
BLOCK_RECORD
  5
3E2F
330
1
100
AcDbSymbolTableRecord
100
AcDbBlockTableRecord
  2
*D8
340
0
 70
     0
280
     1
281
     0
  0
BLOCK_RECORD
  5
3E3A
330
1
100
AcDbSymbolTableRecord
100
AcDbBlockTableRecord
  2
A$C241D59FB
340
0
 70
     0
280
     1
281
     0
  0
BLOCK_RECORD
  5
3EC2
330
1
100
AcDbSymbolTableRecord
100
AcDbBlockTableRecord
  2
*D10
340
0
 70
     0
280
     1
281
     0
  0
BLOCK_RECORD
  5
3F15
330
1
100
AcDbSymbolTableRecord
100
AcDbBlockTableRecord
  2
*D11
340
0
 70
     0
280
     1
281
     0
  0
BLOCK_RECORD
  5
3F47
330
1
100
AcDbSymbolTableRecord
100
AcDbBlockTableRecord
  2
*D12
340
0
 70
     0
280
     1
281
     0
  0
BLOCK_RECORD
  5
3F63
330
1
100
AcDbSymbolTableRecord
100
AcDbBlockTableRecord
  2
*D13
340
0
 70
     0
280
     1
281
     0
  0
BLOCK_RECORD
  5
415C
330
1
100
AcDbSymbolTableRecord
100
AcDbBlockTableRecord
  2
*D14
340
0
 70
     0
280
     1
281
     0
  0
BLOCK_RECORD
  5
4167
330
1
100
AcDbSymbolTableRecord
100
AcDbBlockTableRecord
  2
*D15
340
0
 70
     0
280
     1
281
     0
  0
BLOCK_RECORD
  5
4173
330
1
100
AcDbSymbolTableRecord
100
AcDbBlockTableRecord
  2
*D16
340
0
 70
     0
280
     1
281
     0
  0
BLOCK_RECORD
  5
417F
330
1
100
AcDbSymbolTableRecord
100
AcDbBlockTableRecord
  2
*D17
340
0
 70
     0
280
     1
281
     0
  0
ENDTAB
  0
ENDSEC
  0
SECTION
  2
BLOCKS
  0
BLOCK
  5
20
330
1F
100
AcDbEntity
  8
0
100
AcDbBlockBegin
  2
*Model_Space
 70
     0
 10
0.0
 20
0.0
 30
0.0
  3
*Model_Space
  1

  0
ENDBLK
  5
21
330
1F
100
AcDbEntity
  8
0
100
AcDbBlockEnd
  0
BLOCK
  5
1C
330
1B
100
AcDbEntity
 67
     1
  8
0
100
AcDbBlockBegin
  2
*Paper_Space
 70
     0
 10
0.0
 20
0.0
 30
0.0
  3
*Paper_Space
  1

  0
ENDBLK
  5
1D
330
1B
100
AcDbEntity
 67
     1
  8
0
100
AcDbBlockEnd
  0
BLOCK
  5
24
330
23
100
AcDbEntity
 67
     1
  8
0
100
AcDbBlockBegin
  2
*Paper_Space0
 70
     0
 10
0.0
 20
0.0
 30
0.0
  3
*Paper_Space0
  1

  0
ENDBLK
  5
25
330
23
100
AcDbEntity
 67
     1
  8
0
100
AcDbBlockEnd
  0
BLOCK
  5
3799
330
378F
100
AcDbEntity
  8
0
100
AcDbBlockBegin
  2
*D1
 70
     1
 10
0.0
 20
0.0
 30
0.0
  3
*D1
  1

  0
LINE
  5
4405
330
378F
100
AcDbEntity
  8
寸法線
 62
     0
440
 16777216
370
    -2
100
AcDbLine
 10
-582.8011919136939
 20
-524.6160667752584
 30
0.0
 11
-582.8011919136939
 21
-543.460032366415
 31
0.0
  0
LINE
  5
4406
330
378F
100
AcDbEntity
  8
寸法線
 62
     0
440
 16777216
370
    -2
100
AcDbLine
 10
-550.801191913694
 20
-524.6160667752584
 30
0.0
 11
-550.801191913694
 21
-543.460032366415
 31
0.0
  0
LINE
  5
4407
330
378F
100
AcDbEntity
  8
寸法線
 62
     0
440
 16777216
370
    -2
100
AcDbLine
 10
-581.0511919136938
 20
-542.210032366415
 30
0.0
 11
-552.551191913694
 21
-542.210032366415
 31
0.0
  0
SOLID
  5
4408
330
378F
100
AcDbEntity
  8
寸法線
 62
     0
440
 16777216
370
     9
100
AcDbTrace
 10
-581.0511919136938
 20
-541.9183656997484
 30
0.0
 11
-581.0511919136938
 21
-542.5016990330816
 31
0.0
 12
-582.8011919136939
 22
-542.210032366415
 32
0.0
 13
-582.8011919136939
 23
-542.210032366415
 33
0.0
  0
SOLID
  5
4409
330
378F
100
AcDbEntity
  8
寸法線
 62
     0
440
 16777216
370
     9
100
AcDbTrace
 10
-552.551191913694
 20
-541.9183656997484
 30
0.0
 11
-552.551191913694
 21
-542.5016990330816
 31
0.0
 12
-550.801191913694
 22
-542.210032366415
 32
0.0
 13
-550.801191913694
 23
-542.210032366415
 33
0.0
  0
MTEXT
  5
440A
330
378F
100
AcDbEntity
  8
寸法線
 62
     0
440
 16777216
100
AcDbMText
 10
-566.93847192585
 20
-539.759687878226
 30
0.0
 40
3.5
 41
0.0
 46
0.0
 71
     5
 72
     1
  1
%%c32
 73
     1
 44
1.0
  0
POINT
  5
440B
330
378F
100
AcDbEntity
  8
Defpoints
 62
     0
440
 16777216
370
     9
100
AcDbPoint
 10
-582.8011919136939
 20
-517.6160667752584
 30
0.0
  0
POINT
  5
440C
330
378F
100
AcDbEntity
  8
Defpoints
 62
     0
440
 16777216
370
     9
100
AcDbPoint
 10
-550.801191913694
 20
-517.6160667752584
 30
0.0
  0
POINT
  5
440D
330
378F
100
AcDbEntity
  8
Defpoints
 62
     0
440
 16777216
370
     9
100
AcDbPoint
 10
-550.801191913694
 20
-542.210032366415
 30
0.0
  0
ENDBLK
  5
379A
330
378F
100
AcDbEntity
  8
0
100
AcDbBlockEnd
  0
BLOCK
  5
37A5
330
379B
100
AcDbEntity
  8
0
100
AcDbBlockBegin
  2
*D2
 70
     1
 10
0.0
 20
0.0
 30
0.0
  3
*D2
  1

  0
LINE
  5
3C23
330
379B
100
AcDbEntity
  8
寸法線
 62
     0
440
 16777216
370
    -2
100
AcDbLine
 10
-598.3011919136941
 20
-370.4030513846984
 30
0.0
 11
-598.3011919136941
 21
-366.5751349138473
 31
0.0
  0
LINE
  5
3C24
330
379B
100
AcDbEntity
  8
寸法線
 62
     0
440
 16777216
370
    -2
100
AcDbLine
 10
-535.3011919136941
 20
-370.4030513846984
 30
0.0
 11
-535.3011919136941
 21
-366.5751349138473
 31
0.0
  0
LINE
  5
3C25
330
379B
100
AcDbEntity
  8
寸法線
 62
     0
440
 16777216
370
    -2
100
AcDbLine
 10
-596.5511919136941
 20
-367.8251349138473
 30
0.0
 11
-537.0511919136941
 21
-367.8251349138473
 31
0.0
  0
SOLID
  5
3C26
330
379B
100
AcDbEntity
  8
寸法線
 62
     0
440
 16777216
100
AcDbTrace
 10
-596.5511919136941
 20
-367.5334682471806
 30
0.0
 11
-596.5511919136941
 21
-368.1168015805139
 31
0.0
 12
-598.3011919136941
 22
-367.8251349138473
 32
0.0
 13
-598.3011919136941
 23
-367.8251349138473
 33
0.0
  0
SOLID
  5
3C27
330
379B
100
AcDbEntity
  8
寸法線
 62
     0
440
 16777216
100
AcDbTrace
 10
-537.0511919136941
 20
-367.5334682471806
 30
0.0
 11
-537.0511919136941
 21
-368.1168015805139
 31
0.0
 12
-535.3011919136941
 22
-367.8251349138473
 32
0.0
 13
-535.3011919136941
 23
-367.8251349138473
 33
0.0
  0
MTEXT
  5
3C28
330
379B
100
AcDbEntity
  8
寸法線
 62
     0
440
 16777216
100
AcDbMText
 10
-566.801191913694
 20
-365.3751349138472
 30
0.0
 40
3.5
 41
0.0
 46
0.0
 71
     5
 72
     1
  1
%%c63
 73
     1
 44
1.0
  0
POINT
  5
3C29
330
379B
100
AcDbEntity
  8
Defpoints
 62
     0
440
 16777216
100
AcDbPoint
 10
-598.3011919136941
 20
-377.4030513846984
 30
0.0
  0
POINT
  5
3C2A
330
379B
100
AcDbEntity
  8
Defpoints
 62
     0
440
 16777216
100
AcDbPoint
 10
-535.3011919136941
 20
-377.4030513846984
 30
0.0
  0
POINT
  5
3C2B
330
379B
100
AcDbEntity
  8
Defpoints
 62
     0
440
 16777216
100
AcDbPoint
 10
-535.3011919136941
 20
-367.8251349138473
 30
0.0
  0
ENDBLK
  5
37A6
330
379B
100
AcDbEntity
  8
0
100
AcDbBlockEnd
  0
BLOCK
  5
37B1
330
37A7
100
AcDbEntity
  8
0
100
AcDbBlockBegin
  2
*D3
 70
     1
 10
0.0
 20
0.0
 30
0.0
  3
*D3
  1

  0
LINE
  5
3DB4
330
37A7
100
AcDbEntity
  8
寸法線
 62
     0
440
 16777216
370
    -2
100
AcDbLine
 10
-603.301191913694
 20
-459.720388582235
 30
0.0
 11
-608.605874671554
 21
-459.720388582235
 31
0.0
  0
LINE
  5
3DB5
330
37A7
100
AcDbEntity
  8
寸法線
 62
     0
440
 16777216
370
    -2
100
AcDbLine
 10
-593.7288904591991
 20
-509.720388582235
 30
0.0
 11
-608.605874671554
 21
-509.720388582235
 31
0.0
  0
LINE
  5
3DB6
330
37A7
100
AcDbEntity
  8
寸法線
 62
     0
440
 16777216
370
    -2
100
AcDbLine
 10
-607.355874671554
 20
-461.470388582235
 30
0.0
 11
-607.355874671554
 21
-507.970388582235
 31
0.0
  0
SOLID
  5
3DB7
330
37A7
100
AcDbEntity
  8
寸法線
 62
     0
440
 16777216
100
AcDbTrace
 10
-607.6475413382206
 20
-461.470388582235
 30
0.0
 11
-607.0642080048874
 21
-461.470388582235
 31
0.0
 12
-607.355874671554
 22
-459.720388582235
 32
0.0
 13
-607.355874671554
 23
-459.720388582235
 33
0.0
  0
SOLID
  5
3DB8
330
37A7
100
AcDbEntity
  8
寸法線
 62
     0
440
 16777216
100
AcDbTrace
 10
-607.6475413382206
 20
-507.970388582235
 30
0.0
 11
-607.0642080048874
 21
-507.970388582235
 31
0.0
 12
-607.355874671554
 22
-509.720388582235
 32
0.0
 13
-607.355874671554
 23
-509.720388582235
 33
0.0
  0
MTEXT
  5
3DB9
330
37A7
100
AcDbEntity
  8
寸法線
 62
     0
440
 16777216
100
AcDbMText
 10
-609.805874671554
 20
-484.720388582235
 30
0.0
 40
3.5
 41
0.0
 46
0.0
 71
     5
 72
     1
  1
50
 11
0.0000000000000001
 21
1.0
 31
0.0
 73
     1
 44
1.0
  0
POINT
  5
3DBA
330
37A7
100
AcDbEntity
  8
Defpoints
 62
     0
440
 16777216
100
AcDbPoint
 10
-596.301191913694
 20
-459.720388582235
 30
0.0
  0
POINT
  5
3DBB
330
37A7
100
AcDbEntity
  8
Defpoints
 62
     0
440
 16777216
100
AcDbPoint
 10
-586.728890459199
 20
-509.720388582235
 30
0.0
  0
POINT
  5
3DBC
330
37A7
100
AcDbEntity
  8
Defpoints
 62
     0
440
 16777216
100
AcDbPoint
 10
-607.355874671554
 20
-509.720388582235
 30
0.0
  0
ENDBLK
  5
37B2
330
37A7
100
AcDbEntity
  8
0
100
AcDbBlockEnd
  0
BLOCK
  5
37C6
330
37BC
100
AcDbEntity
  8
0
100
AcDbBlockBegin
  2
*D4
 70
     1
 10
0.0
 20
0.0
 30
0.0
  3
*D4
  1

  0
LINE
  5
3DBE
330
37BC
100
AcDbEntity
  8
寸法線
 62
     0
440
 16777216
370
    -2
100
AcDbLine
 10
-566.801191913694
 20
-469.220388582235
 30
0.0
 11
-566.801191913694
 21
-473.8141595188198
 31
0.0
  0
LINE
  5
3DBF
330
37BC
100
AcDbEntity
  8
寸法線
 62
     0
440
 16777216
370
    -2
100
AcDbLine
 10
-441.1304963377364
 20
-477.2203885822349
 30
0.0
 11
-441.1304963377364
 21
-471.3141595188199
 31
0.0
  0
LINE
  5
3DC0
330
37BC
100
AcDbEntity
  8
寸法線
 62
     0
440
 16777216
370
    -2
100
AcDbLine
 10
-565.051191913694
 20
-472.5641595188199
 30
0.0
 11
-442.8804963377364
 21
-472.5641595188199
 31
0.0
  0
SOLID
  5
3DC1
330
37BC
100
AcDbEntity
  8
寸法線
 62
     0
440
 16777216
100
AcDbTrace
 10
-565.051191913694
 20
-472.2724928521532
 30
0.0
 11
-565.051191913694
 21
-472.8558261854866
 31
0.0
 12
-566.801191913694
 22
-472.5641595188199
 32
0.0
 13
-566.801191913694
 23
-472.5641595188199
 33
0.0
  0
SOLID
  5
3DC2
330
37BC
100
AcDbEntity
  8
寸法線
 62
     0
440
 16777216
100
AcDbTrace
 10
-442.8804963377364
 20
-472.2724928521532
 30
0.0
 11
-442.8804963377364
 21
-472.8558261854866
 31
0.0
 12
-441.1304963377364
 22
-472.5641595188199
 32
0.0
 13
-441.1304963377364
 23
-472.5641595188199
 33
0.0
  0
MTEXT
  5
3DC3
330
37BC
100
AcDbEntity
  8
寸法線
 62
     0
440
 16777216
100
AcDbMText
 10
-503.9658441257152
 20
-469.9391595188199
 30
0.0
 40
3.5
 41
0.0
 46
0.0
 71
     5
 72
     1
  1
(300)
 73
     1
 44
1.0
  0
POINT
  5
3DC4
330
37BC
100
AcDbEntity
  8
Defpoints
 62
     0
440
 16777216
100
AcDbPoint
 10
-566.801191913694
 20
-462.220388582235
 30
0.0
  0
POINT
  5
3DC5
330
37BC
100
AcDbEntity
  8
Defpoints
 62
     0
440
 16777216
100
AcDbPoint
 10
-441.1304963377364
 20
-484.220388582235
 30
0.0
  0
POINT
  5
3DC6
330
37BC
100
AcDbEntity
  8
Defpoints
 62
     0
440
 16777216
100
AcDbPoint
 10
-441.1304963377364
 20
-472.5641595188199
 30
0.0
  0
ENDBLK
  5
37C7
330
37BC
100
AcDbEntity
  8
0
100
AcDbBlockEnd
  0
BLOCK
  5
386F
330
3865
100
AcDbEntity
  8
0
100
AcDbBlockBegin
  2
*D5
 70
     1
 10
0.0
 20
0.0
 30
0.0
  3
*D5
  1

  0
LINE
  5
3EF3
330
3865
100
AcDbEntity
  8
外形線
440
 16777216
370
    -2
100
AcDbLine
 10
-519.7758200923567
 20
-337.3912957568409
 30
0.0
 11
-523.8257444849844
 21
-337.3912957568409
 31
0.0
  0
LINE
  5
3EF4
330
3865
100
AcDbEntity
  8
外形線
440
 16777216
370
    -2
100
AcDbLine
 10
-520.0758200923569
 20
-342.3912957568394
 30
0.0
 11
-523.8257444849844
 21
-342.3912957568394
 31
0.0
  0
LINE
  5
3EF5
330
3865
100
AcDbEntity
  8
外形線
440
 16777216
370
    -2
100
AcDbLine
 10
-522.5757444849843
 20
-339.1412957568409
 30
0.0
 11
-522.5757444849843
 21
-340.6412957568394
 31
0.0
  0
SOLID
  5
3EF6
330
3865
100
AcDbEntity
  8
外形線
440
 16777216
100
AcDbTrace
 10
-522.867411151651
 20
-339.1412957568409
 30
0.0
 11
-522.2840778183178
 21
-339.1412957568409
 31
0.0
 12
-522.5757444849843
 22
-337.3912957568409
 32
0.0
 13
-522.5757444849843
 23
-337.3912957568409
 33
0.0
  0
SOLID
  5
3EF7
330
3865
100
AcDbEntity
  8
外形線
440
 16777216
100
AcDbTrace
 10
-522.867411151651
 20
-340.6412957568394
 30
0.0
 11
-522.2840778183178
 21
-340.6412957568394
 31
0.0
 12
-522.5757444849843
 22
-342.3912957568394
 32
0.0
 13
-522.5757444849843
 23
-342.3912957568394
 33
0.0
  0
MTEXT
  5
3EF8
330
3865
100
AcDbEntity
  8
外形線
440
 16777216
100
AcDbMText
 10
-525.0257444849843
 20
-339.8912957568402
 30
0.0
 40
3.5
 41
0.0
 46
0.0
 71
     5
 72
     1
  1
5
 11
0.0000000000000001
 21
1.0
 31
0.0
 73
     1
 44
1.0
  0
POINT
  5
3EF9
330
3865
100
AcDbEntity
  8
Defpoints
 62
     0
440
 16777216
100
AcDbPoint
 10
-512.7758200923567
 20
-337.3912957568409
 30
0.0
  0
POINT
  5
3EFA
330
3865
100
AcDbEntity
  8
Defpoints
 62
     0
440
 16777216
100
AcDbPoint
 10
-513.0758200923569
 20
-342.3912957568394
 30
0.0
  0
POINT
  5
3EFB
330
3865
100
AcDbEntity
  8
Defpoints
 62
     0
440
 16777216
100
AcDbPoint
 10
-522.5757444849843
 20
-342.3912957568394
 30
0.0
  0
ENDBLK
  5
3870
330
3865
100
AcDbEntity
  8
0
100
AcDbBlockEnd
  0
BLOCK
  5
38E6
330
38E3
100
AcDbEntity
  8
0
100
AcDbBlockBegin
  2
A$C7A7334A3
 70
     0
 10
0.0
 20
0.0
 30
0.0
  3
A$C7A7334A3
  1

  0
CIRCLE
  5
38E4
330
38E3
100
AcDbEntity
  8
外形線
 62
     1
100
AcDbCircle
 10
7.25000000000017
 20
-12.55736835487448
 30
0.0
 40
8.961492836873766
  0
CIRCLE
  5
38E5
330
38E3
100
AcDbEntity
  8
外形線
100
AcDbCircle
 10
0.0
 20
0.0
 30
0.0
 40
2.5
  0
ENDBLK
  5
38E7
330
38E3
100
AcDbEntity
  8
0
100
AcDbBlockEnd
  0
BLOCK
  5
3D43
330
3D3A
100
AcDbEntity
  8
0
 62
     0
100
AcDbBlockBegin
  2
*D7
 70
     1
 10
0.0
 20
0.0
 30
0.0
  3
*D7
  1

  0
LINE
  5
3E58
330
3D3A
100
AcDbEntity
  8
補助線
 62
     0
440
 16777216
370
    -2
100
AcDbLine
 10
-466.9741887782036
 20
-328.6614997996508
 30
0.0
 11
-485.729179759145
 21
-316.2780345026081
 31
0.0
  0
LINE
  5
3E59
330
3D3A
100
AcDbEntity
  8
補助線
 62
     0
440
 16777216
370
    -2
100
AcDbLine
 10
-492.8224604255679
 20
-311.594513456712
 30
0.0
 11
-494.2828417392432
 21
-310.6302591237334
 31
0.0
  0
MTEXT
  5
3E5A
330
3D3A
100
AcDbEntity
  8
補助線
 62
     0
440
 16777216
100
AcDbMText
 10
-471.5532772747011
 20
-322.7017489478221
 30
0.0
 40
3.5
 41
0.0
 46
0.0
 71
     5
 72
     1
  1
∅5X22
 11
0.8345036078144534
 21
-0.551002475987777
 31
0.0
 73
     1
 44
1.0
  0
LINE
  5
3E5B
330
3D3A
100
AcDbEntity
  8
補助線
 62
     0
440
 16777216
370
    -2
100
AcDbLine
 10
-491.3620791118926
 20
-312.5587677896906
 30
0.0
 11
-487.1895610728203
 21
-315.3137801696295
 31
0.0
  0
SOLID
  5
3E5C
330
3D3A
100
AcDbEntity
  8
補助線
 62
     0
440
 16777216
100
AcDbTrace
 10
-492.6617513700715
 20
-311.3511165710995
 30
0.0
 11
-492.9831694810643
 21
-311.8379103423245
 31
0.0
 12
-491.3620791118926
 22
-312.5587677896906
 32
0.0
 13
-491.3620791118926
 23
-312.5587677896906
 33
0.0
  0
SOLID
  5
3E5D
330
3D3A
100
AcDbEntity
  8
補助線
 62
     0
440
 16777216
100
AcDbTrace
 10
-485.5684707036487
 20
-316.0346376169956
 30
0.0
 11
-485.8898888146415
 21
-316.5214313882207
 31
0.0
 12
-487.1895610728203
 22
-315.3137801696295
 32
0.0
 13
-487.1895610728203
 23
-315.3137801696295
 33
0.0
  0
POINT
  5
3E5E
330
3D3A
100
AcDbEntity
  8
Defpoints
 62
     0
440
 16777216
100
AcDbPoint
 10
-487.1895610728203
 20
-315.3137801696295
 30
0.0
  0
POINT
  5
3E5F
330
3D3A
100
AcDbEntity
  8
Defpoints
 62
     0
440
 16777216
100
AcDbPoint
 10
-491.3620791118926
 20
-312.5587677896906
 30
0.0
  0
ENDBLK
  5
3D44
330
3D3A
100
AcDbEntity
  8
0
 62
     0
100
AcDbBlockEnd
  0
BLOCK
  5
3E38
330
3E2F
100
AcDbEntity
  8
0
 62
     0
100
AcDbBlockBegin
  2
*D8
 70
     1
 10
0.0
 20
0.0
 30
0.0
  3
*D8
  1

  0
LINE
  5
3E30
330
3E2F
100
AcDbEntity
  8
中心線
 62
     0
370
    -2
100
AcDbLine
 10
-463.1126183669006
 20
-321.6773364874175
 30
0.0
 11
-479.64199485349
 21
-310.8391700737609
 31
0.0
  0
LINE
  5
3E31
330
3E2F
100
AcDbEntity
  8
中心線
 62
     0
370
    -2
100
AcDbLine
 10
-489.2590102366125
 20
-304.5333778855595
 30
0.0
 11
-490.7224690992617
 21
-303.5738008134418
 31
0.0
  0
MTEXT
  5
3E32
330
3E2F
100
AcDbEntity
  8
中心線
 62
     0
100
AcDbMText
 10
-466.6712214909038
 20
-316.4142886743635
 30
0.0
 40
3.5
 41
0.0
 46
0.0
 71
     5
 72
     1
  1
∅8X6
 11
0.8362622072280526
 21
-0.5483297554957833
 31
0.0
 73
     1
 44
1.0
  0
LINE
  5
3E33
330
3E2F
100
AcDbEntity
  8
中心線
 62
     0
370
    -2
100
AcDbLine
 10
-487.7955513739634
 20
-305.4929549576771
 30
0.0
 11
-481.1054537161391
 21
-309.8795930016434
 31
0.0
  0
SOLID
  5
3E34
330
3E2F
100
AcDbEntity
  8
中心線
 62
     0
100
AcDbTrace
 10
-489.099080724593
 20
-304.2894680751181
 30
0.0
 11
-489.4189397486321
 21
-304.777287696001
 31
0.0
 12
-487.7955513739634
 22
-305.4929549576771
 32
0.0
 13
-487.7955513739634
 23
-305.4929549576771
 33
0.0
  0
SOLID
  5
3E35
330
3E2F
100
AcDbEntity
  8
中心線
 62
     0
100
AcDbTrace
 10
-479.4820653414705
 20
-310.5952602633195
 30
0.0
 11
-479.8019243655097
 21
-311.0830798842024
 31
0.0
 12
-481.1054537161391
 22
-309.8795930016434
 32
0.0
 13
-481.1054537161391
 23
-309.8795930016434
 33
0.0
  0
POINT
  5
3E36
330
3E2F
100
AcDbEntity
  8
Defpoints
 62
     0
100
AcDbPoint
 10
-481.1054537161391
 20
-309.8795930016434
 30
0.0
  0
POINT
  5
3E37
330
3E2F
100
AcDbEntity
  8
Defpoints
 62
     0
100
AcDbPoint
 10
-487.7955513739634
 20
-305.4929549576771
 30
0.0
  0
ENDBLK
  5
3E39
330
3E2F
100
AcDbEntity
  8
0
 62
     0
100
AcDbBlockEnd
  0
BLOCK
  5
3E3C
330
3E3A
100
AcDbEntity
  8
0
 62
     0
100
AcDbBlockBegin
  2
A$C241D59FB
 70
     0
 10
0.0
 20
0.0
 30
0.0
  3
A$C241D59FB
  1

  0
DIMENSION
  5
3E3B
330
3E3A
100
AcDbEntity
  8
中心線
 62
     0
100
AcDbDimension
280
     0
  2
*D8
 10
522.0223713684771
 20
582.0935324844558
 30
0.0
 11
541.803293350572
 21
569.1233563600605
 31
0.0
 12
1009.81792274244
 22
887.5864874421329
 32
0.0
 70
   131
  1
<>X6
 71
     5
 42
7.999999999999914
 73
     0
 74
     0
 75
     0
  3
ISO-25
100
AcDbDiametricDimension
 15
528.7124690263015
 25
577.7068944404895
 35
0.0
 40
0.0
1001
ACAD
1000
DSTYLE
1002
{
1070
    41
1040
1.75
1070
    42
1040
7.0
1070
    43
1040
9.375
1070
   141
1040
3.5
1070
   147
1040
0.7
1070
   288
1070
     1
1002
}
  0
ENDBLK
  5
3E3D
330
3E3A
100
AcDbEntity
  8
0
 62
     0
100
AcDbBlockEnd
  0
BLOCK
  5
3EC3
330
3EC2
100
AcDbEntity
  8
0
 62
     0
100
AcDbBlockBegin
  2
*D10
 70
     1
 10
0.0
 20
0.0
 30
0.0
  3
*D10
  1

  0
LINE
  5
3ECE
330
3EC2
100
AcDbEntity
  8
補助線
 62
     0
440
 16777216
370
    -2
100
AcDbLine
 10
-472.9246352035024
 20
-334.1993649045865
 30
0.0
 11
-491.8307929616445
 21
-317.0594595438968
 31
0.0
  0
LINE
  5
3ECF
330
3EC2
100
AcDbEntity
  8
補助線
 62
     0
440
 16777216
370
    -2
100
AcDbLine
 10
-498.7208472230687
 20
-310.8130884154231
 30
0.0
 11
-500.0173628098957
 21
-309.6376959987749
 31
0.0
  0
MTEXT
  5
3ED0
330
3EC2
100
AcDbEntity
  8
補助線
 62
     0
440
 16777216
100
AcDbMText
 10
-474.779677904628
 20
-329.2106835580782
 30
0.0
 40
3.5
 41
0.0
 46
0.0
 71
     5
 72
     1
  1
∅5.8
 11
0.7408660496155077
 21
-0.6716528095133022
 31
0.0
 73
     1
 44
1.0
  0
LINE
  5
3ED1
330
3EC2
100
AcDbEntity
  8
補助線
 62
     0
440
 16777216
370
    -2
100
AcDbLine
 10
-497.4243316362414
 20
-311.9884808320714
 30
0.0
 11
-493.1273085484717
 21
-315.8840671272485
 31
0.0
  0
SOLID
  5
3ED2
330
3EC2
100
AcDbEntity
  8
補助線
 62
     0
440
 16777216
100
AcDbTrace
 10
-498.5249484869607
 20
-310.5970024842853
 30
0.0
 11
-498.9167459591767
 21
-311.029174346561
 31
0.0
 12
-497.4243316362414
 22
-311.9884808320714
 32
0.0
 13
-497.4243316362414
 23
-311.9884808320714
 33
0.0
  0
SOLID
  5
3ED3
330
3EC2
100
AcDbEntity
  8
補助線
 62
     0
440
 16777216
100
AcDbTrace
 10
-491.6348942255365
 20
-316.843373612759
 30
0.0
 11
-492.0266916977525
 21
-317.2755454750346
 31
0.0
 12
-493.1273085484717
 22
-315.8840671272485
 32
0.0
 13
-493.1273085484717
 23
-315.8840671272485
 33
0.0
  0
POINT
  5
3ED4
330
3EC2
100
AcDbEntity
  8
Defpoints
 62
     0
440
 16777216
100
AcDbPoint
 10
-493.1273085484717
 20
-315.8840671272485
 30
0.0
  0
POINT
  5
3ED5
330
3EC2
100
AcDbEntity
  8
Defpoints
 62
     0
440
 16777216
100
AcDbPoint
 10
-497.4243316362414
 20
-311.9884808320714
 30
0.0
  0
ENDBLK
  5
3EC4
330
3EC2
100
AcDbEntity
  8
0
 62
     0
100
AcDbBlockEnd
  0
BLOCK
  5
3F16
330
3F15
100
AcDbEntity
  8
0
 62
     0
100
AcDbBlockBegin
  2
*D11
 70
     1
 10
0.0
 20
0.0
 30
0.0
  3
*D11
  1

  0
LINE
  5
3F3A
330
3F15
100
AcDbEntity
  8
寸法線
 62
     0
440
 16777216
370
    -2
100
AcDbLine
 10
-502.2758200923568
 20
-337.3912957568409
 30
0.0
 11
-516.7127054891807
 21
-337.3912957568409
 31
0.0
  0
LINE
  5
3F3B
330
3F15
100
AcDbEntity
  8
寸法線
 62
     0
440
 16777216
370
    -2
100
AcDbLine
 10
-502.2758200923568
 20
-340.3912957568409
 30
0.0
 11
-516.7127054891807
 21
-340.3912957568409
 31
0.0
  0
LINE
  5
3F3C
330
3F15
100
AcDbEntity
  8
寸法線
 62
     0
440
 16777216
370
    -2
100
AcDbLine
 10
-515.4627054891807
 20
-335.6412957568409
 30
0.0
 11
-515.4627054891807
 21
-333.8912957568409
 31
0.0
  0
LINE
  5
3F3D
330
3F15
100
AcDbEntity
  8
寸法線
 62
     0
440
 16777216
370
    -2
100
AcDbLine
 10
-515.4627054891807
 20
-342.1412957568409
 30
0.0
 11
-515.4627054891807
 21
-343.8912957568409
 31
0.0
  0
LINE
  5
3F3E
330
3F15
100
AcDbEntity
  8
寸法線
 62
     0
440
 16777216
370
    -2
100
AcDbLine
 10
-515.4627054891807
 20
-337.3912957568409
 30
0.0
 11
-515.4627054891807
 21
-340.3912957568409
 31
0.0
  0
SOLID
  5
3F3F
330
3F15
100
AcDbEntity
  8
寸法線
 62
     0
440
 16777216
370
     9
100
AcDbTrace
 10
-515.7543721558473
 20
-335.6412957568409
 30
0.0
 11
-515.1710388225141
 21
-335.6412957568409
 31
0.0
 12
-515.4627054891807
 22
-337.3912957568409
 32
0.0
 13
-515.4627054891807
 23
-337.3912957568409
 33
0.0
  0
SOLID
  5
3F40
330
3F15
100
AcDbEntity
  8
寸法線
 62
     0
440
 16777216
370
     9
100
AcDbTrace
 10
-515.7543721558473
 20
-342.1412957568409
 30
0.0
 11
-515.1710388225141
 21
-342.1412957568409
 31
0.0
 12
-515.4627054891807
 22
-340.3912957568409
 32
0.0
 13
-515.4627054891807
 23
-340.3912957568409
 33
0.0
  0
MTEXT
  5
3F41
330
3F15
100
AcDbEntity
  8
寸法線
 62
     0
440
 16777216
100
AcDbMText
 10
-517.9127054891806
 20
-338.891295756841
 30
0.0
 40
3.5
 41
0.0
 46
0.0
 71
     5
 72
     1
  1
3
 11
0.0000000000000001
 21
1.0
 31
0.0
 73
     1
 44
1.0
  0
POINT
  5
3F42
330
3F15
100
AcDbEntity
  8
Defpoints
 62
     0
440
 16777216
370
     9
100
AcDbPoint
 10
-495.2758200923567
 20
-337.3912957568409
 30
0.0
  0
POINT
  5
3F43
330
3F15
100
AcDbEntity
  8
Defpoints
 62
     0
440
 16777216
370
     9
100
AcDbPoint
 10
-495.2758200923567
 20
-340.3912957568409
 30
0.0
  0
POINT
  5
3F44
330
3F15
100
AcDbEntity
  8
Defpoints
 62
     0
440
 16777216
370
     9
100
AcDbPoint
 10
-515.4627054891807
 20
-340.3912957568409
 30
0.0
  0
ENDBLK
  5
3F17
330
3F15
100
AcDbEntity
  8
0
 62
     0
100
AcDbBlockEnd
  0
BLOCK
  5
3F48
330
3F47
100
AcDbEntity
  8
0
 62
     0
370
     9
100
AcDbBlockBegin
  2
*D12
 70
     1
 10
0.0
 20
0.0
 30
0.0
  3
*D12
  1

  0
LINE
  5
3F56
330
3F47
100
AcDbEntity
  8
外形線
 62
     0
440
 16777216
370
    -2
100
AcDbLine
 10
-513.1746902209831
 20
-330.4913047844083
 30
0.0
 11
-513.1746902209831
 21
-332.3667980161622
 31
0.0
  0
LINE
  5
3F57
330
3F47
100
AcDbEntity
  8
外形線
 62
     0
440
 16777216
370
    -2
100
AcDbLine
 10
-512.1758200923566
 20
-331.2487535567976
 30
0.0
 11
-512.1758200923566
 21
-332.3667980161622
 31
0.0
  0
LINE
  5
3F58
330
3F47
100
AcDbEntity
  8
外形線
 62
     0
440
 16777216
370
    -2
100
AcDbLine
 10
-514.9246902209831
 20
-333.6167980161622
 30
0.0
 11
-516.6746902209832
 21
-333.6167980161622
 31
0.0
  0
LINE
  5
3F59
330
3F47
100
AcDbEntity
  8
外形線
 62
     0
440
 16777216
370
    -2
100
AcDbLine
 10
-510.4258200923566
 20
-333.6167980161622
 30
0.0
 11
-506.5758200923566
 21
-333.6167980161622
 31
0.0
  0
LINE
  5
3F5A
330
3F47
100
AcDbEntity
  8
外形線
 62
     0
440
 16777216
370
    -2
100
AcDbLine
 10
-513.1746902209831
 20
-333.6167980161622
 30
0.0
 11
-512.1758200923566
 21
-333.6167980161622
 31
0.0
  0
SOLID
  5
3F5B
330
3F47
100
AcDbEntity
  8
外形線
 62
     0
440
 16777216
370
     9
100
AcDbTrace
 10
-514.9246902209831
 20
-333.3251313494955
 30
0.0
 11
-514.9246902209831
 21
-333.9084646828289
 31
0.0
 12
-513.1746902209831
 22
-333.6167980161622
 32
0.0
 13
-513.1746902209831
 23
-333.6167980161622
 33
0.0
  0
SOLID
  5
3F5C
330
3F47
100
AcDbEntity
  8
外形線
 62
     0
440
 16777216
370
     9
100
AcDbTrace
 10
-510.4258200923566
 20
-333.3251313494955
 30
0.0
 11
-510.4258200923566
 21
-333.9084646828289
 31
0.0
 12
-512.1758200923566
 22
-333.6167980161622
 32
0.0
 13
-512.1758200923566
 23
-333.6167980161622
 33
0.0
  0
MTEXT
  5
3F5D
330
3F47
100
AcDbEntity
  8
外形線
 62
     0
440
 16777216
370
     9
100
AcDbMText
 10
-507.6258200923565
 20
-331.1667980161622
 30
0.0
 40
3.5
 41
0.0
 46
0.0
 71
     5
 72
     1
  1
1
 73
     1
 44
1.0
  0
POINT
  5
3F5E
330
3F47
100
AcDbEntity
  8
Defpoints
 62
     0
440
 16777216
370
     9
100
AcDbPoint
 10
-513.1746902209831
 20
-337.4913047844083
 30
0.0
  0
POINT
  5
3F5F
330
3F47
100
AcDbEntity
  8
Defpoints
 62
     0
440
 16777216
370
     9
100
AcDbPoint
 10
-512.1758200923566
 20
-338.2487535567976
 30
0.0
  0
POINT
  5
3F60
330
3F47
100
AcDbEntity
  8
Defpoints
 62
     0
440
 16777216
370
     9
100
AcDbPoint
 10
-512.1758200923566
 20
-333.6167980161622
 30
0.0
  0
ENDBLK
  5
3F49
330
3F47
100
AcDbEntity
  8
0
 62
     0
370
     9
100
AcDbBlockEnd
  0
BLOCK
  5
3F64
330
3F63
100
AcDbEntity
  8
0
 62
     0
370
     9
100
AcDbBlockBegin
  2
*D13
 70
     1
 10
0.0
 20
0.0
 30
0.0
  3
*D13
  1

  0
LINE
  5
3F70
330
3F63
100
AcDbEntity
  8
外形線
 62
     0
440
 16777216
370
    -2
100
AcDbLine
 10
-513.1758200923569
 20
-349.2912957562609
 30
0.0
 11
-513.1758200923569
 21
-352.0440696403091
 31
0.0
  0
LINE
  5
3F71
330
3F63
100
AcDbEntity
  8
外形線
 62
     0
440
 16777216
370
    -2
100
AcDbLine
 10
-477.3758200923567
 20
-349.2912957562609
 30
0.0
 11
-477.3758200923567
 21
-352.0440696403091
 31
0.0
  0
LINE
  5
3F72
330
3F63
100
AcDbEntity
  8
外形線
 62
     0
440
 16777216
370
    -2
100
AcDbLine
 10
-511.4258200923569
 20
-350.7940696403091
 30
0.0
 11
-479.1258200923567
 21
-350.7940696403091
 31
0.0
  0
SOLID
  5
3F73
330
3F63
100
AcDbEntity
  8
外形線
 62
     0
440
 16777216
370
     9
100
AcDbTrace
 10
-511.4258200923569
 20
-350.5024029736424
 30
0.0
 11
-511.4258200923569
 21
-351.0857363069758
 31
0.0
 12
-513.1758200923569
 22
-350.7940696403091
 32
0.0
 13
-513.1758200923569
 23
-350.7940696403091
 33
0.0
  0
SOLID
  5
3F74
330
3F63
100
AcDbEntity
  8
外形線
 62
     0
440
 16777216
370
     9
100
AcDbTrace
 10
-479.1258200923567
 20
-350.5024029736424
 30
0.0
 11
-479.1258200923567
 21
-351.0857363069758
 31
0.0
 12
-477.3758200923567
 22
-350.7940696403091
 32
0.0
 13
-477.3758200923567
 23
-350.7940696403091
 33
0.0
  0
MTEXT
  5
3F75
330
3F63
100
AcDbEntity
  8
外形線
 62
     0
440
 16777216
370
     9
100
AcDbMText
 10
-495.2758200923568
 20
-348.3440696403091
 30
0.0
 40
3.5
 41
0.0
 46
0.0
 71
     5
 72
     1
  1
35.8
 73
     1
 44
1.0
  0
POINT
  5
3F76
330
3F63
100
AcDbEntity
  8
Defpoints
 62
     0
440
 16777216
370
     9
100
AcDbPoint
 10
-513.1758200923569
 20
-342.2912957562609
 30
0.0
  0
POINT
  5
3F77
330
3F63
100
AcDbEntity
  8
Defpoints
 62
     0
440
 16777216
370
     9
100
AcDbPoint
 10
-477.3758200923567
 20
-342.2912957562609
 30
0.0
  0
POINT
  5
3F78
330
3F63
100
AcDbEntity
  8
Defpoints
 62
     0
440
 16777216
370
     9
100
AcDbPoint
 10
-477.3758200923567
 20
-350.7940696403091
 30
0.0
  0
ENDBLK
  5
3F65
330
3F63
100
AcDbEntity
  8
0
 62
     0
370
     9
100
AcDbBlockEnd
  0
BLOCK
  5
415D
330
415C
100
AcDbEntity
  8
0
 62
     0
370
     9
100
AcDbBlockBegin
  2
*D14
 70
     1
 10
0.0
 20
0.0
 30
0.0
  3
*D14
  1

  0
LINE
  5
42C5
330
415C
100
AcDbEntity
  8
寸法線
 62
     0
440
 16777216
370
    -2
100
AcDbLine
 10
-90.51306076196885
 20
-381.3825554209099
 30
0.0
 11
-108.0571068042434
 21
-366.5709275745777
 31
0.0
  0
LINE
  5
42C6
330
415C
100
AcDbEntity
  8
寸法線
 62
     0
440
 16777216
370
    -2
100
AcDbLine
 10
-155.4314129213854
 20
-326.5749887817523
 30
0.0
 11
-159.2519214792193
 21
-323.349509846847
 31
0.0
  0
MTEXT
  5
42C7
330
415C
100
AcDbEntity
  8
寸法線
 62
     0
440
 16777216
100
AcDbMText
 10
-93.63289297762014
 20
-371.1572397969408
 30
0.0
 40
6.0
 41
0.0
 46
0.0
 71
     5
 72
     1
  1
∅52
 11
0.7641017115667943
 21
-0.6450957869810463
 31
0.0
 73
     1
 44
1.0
  0
LINE
  5
42C8
330
415C
100
AcDbEntity
  8
寸法線
 62
     0
440
 16777216
370
    -2
100
AcDbLine
 10
-151.6109043635514
 20
-329.8004677166574
 30
0.0
 11
-111.8776153620773
 21
-363.3454486396725
 31
0.0
  0
SOLID
  5
42C9
330
415C
100
AcDbEntity
  8
寸法線
 62
     0
440
 16777216
370
     9
100
AcDbTrace
 10
-154.8938330989012
 20
-325.9382373554466
 30
0.0
 11
-155.9689927438696
 21
-327.2117402080579
 31
0.0
 12
-151.6109043635514
 22
-329.8004677166574
 32
0.0
 13
-151.6109043635514
 23
-329.8004677166574
 33
0.0
  0
SOLID
  5
42CA
330
415C
100
AcDbEntity
  8
寸法線
 62
     0
440
 16777216
370
     9
100
AcDbTrace
 10
-107.5195269817592
 20
-365.9341761482721
 30
0.0
 11
-108.5946866267275
 21
-367.2076790008834
 31
0.0
 12
-111.8776153620773
 22
-363.3454486396725
 32
0.0
 13
-111.8776153620773
 23
-363.3454486396725
 33
0.0
  0
POINT
  5
42CB
330
415C
100
AcDbEntity
  8
Defpoints
 62
     0
440
 16777216
370
     9
100
AcDbPoint
 10
-111.8776153620773
 20
-363.3454486396725
 30
0.0
  0
POINT
  5
42CC
330
415C
100
AcDbEntity
  8
Defpoints
 62
     0
440
 16777216
370
     9
100
AcDbPoint
 10
-151.6109043635514
 20
-329.8004677166574
 30
0.0
  0
ENDBLK
  5
415E
330
415C
100
AcDbEntity
  8
0
 62
     0
370
     9
100
AcDbBlockEnd
  0
BLOCK
  5
4168
330
4167
100
AcDbEntity
  8
0
 62
     0
370
     9
100
AcDbBlockBegin
  2
*D15
 70
     1
 10
0.0
 20
0.0
 30
0.0
  3
*D15
  1

  0
LINE
  5
42CD
330
4167
100
AcDbEntity
  8
寸法線
 62
     0
440
 16777216
370
    -2
100
AcDbLine
 10
-136.7442598628149
 20
-456.3562900587285
 30
0.0
 11
-179.5039118669757
 21
-456.3562900587285
 31
0.0
  0
LINE
  5
42CE
330
4167
100
AcDbEntity
  8
寸法線
 62
     0
440
 16777216
370
    -2
100
AcDbLine
 10
-136.7442598628158
 20
-559.9232386241697
 30
0.0
 11
-179.5039118669757
 21
-559.9232386241697
 31
0.0
  0
LINE
  5
42CF
330
4167
100
AcDbEntity
  8
寸法線
 62
     0
440
 16777216
370
    -2
100
AcDbLine
 10
-174.5039118669757
 20
-461.3562900587285
 30
0.0
 11
-174.5039118669757
 21
-554.9232386241697
 31
0.0
  0
SOLID
  5
42D0
330
4167
100
AcDbEntity
  8
寸法線
 62
     0
440
 16777216
370
     9
100
AcDbTrace
 10
-175.337245200309
 20
-461.3562900587285
 30
0.0
 11
-173.6705785336423
 21
-461.3562900587285
 31
0.0
 12
-174.5039118669757
 22
-456.3562900587285
 32
0.0
 13
-174.5039118669757
 23
-456.3562900587285
 33
0.0
  0
SOLID
  5
42D1
330
4167
100
AcDbEntity
  8
寸法線
 62
     0
440
 16777216
370
     9
100
AcDbTrace
 10
-175.337245200309
 20
-554.9232386241697
 30
0.0
 11
-173.6705785336423
 21
-554.9232386241697
 31
0.0
 12
-174.5039118669757
 22
-559.9232386241697
 32
0.0
 13
-174.5039118669757
 23
-559.9232386241697
 33
0.0
  0
MTEXT
  5
42D2
330
4167
100
AcDbEntity
  8
寸法線
 62
     0
440
 16777216
100
AcDbMText
 10
-180.3039118669756
 20
-501.1401204372845
 30
0.0
 40
6.0
 41
0.0
 46
0.0
 71
     5
 72
     1
  1
104
 11
0.0000000000000001
 21
1.0
 31
0.0
 73
     1
 44
1.0
  0
POINT
  5
42D3
330
4167
100
AcDbEntity
  8
Defpoints
 62
     0
440
 16777216
370
     9
100
AcDbPoint
 10
-131.7442598628149
 20
-456.3562900587285
 30
0.0
  0
POINT
  5
42D4
330
4167
100
AcDbEntity
  8
Defpoints
 62
     0
440
 16777216
370
     9
100
AcDbPoint
 10
-131.7442598628158
 20
-559.9232386241697
 30
0.0
  0
POINT
  5
42D5
330
4167
100
AcDbEntity
  8
Defpoints
 62
     0
440
 16777216
370
     9
100
AcDbPoint
 10
-174.5039118669757
 20
-559.9232386241697
 30
0.0
  0
ENDBLK
  5
4169
330
4167
100
AcDbEntity
  8
0
 62
     0
370
     9
100
AcDbBlockEnd
  0
BLOCK
  5
4174
330
4173
100
AcDbEntity
  8
0
 62
     0
370
     9
100
AcDbBlockBegin
  2
*D16
 70
     1
 10
0.0
 20
0.0
 30
0.0
  3
*D16
  1

  0
LINE
  5
42AB
330
4173
100
AcDbEntity
  8
寸法線
 62
     0
440
 16777216
370
    -2
100
AcDbLine
 10
-156.7442598628149
 20
-423.3562900587286
 30
0.0
 11
-156.7442598628149
 21
-411.5729581781648
 31
0.0
  0
LINE
  5
42AC
330
4173
100
AcDbEntity
  8
寸法線
 62
     0
440
 16777216
370
    -2
100
AcDbLine
 10
-106.7442598628149
 20
-423.3562900587286
 30
0.0
 11
-106.7442598628149
 21
-411.5729581781648
 31
0.0
  0
LINE
  5
42AD
330
4173
100
AcDbEntity
  8
寸法線
 62
     0
440
 16777216
370
    -2
100
AcDbLine
 10
-151.7442598628149
 20
-416.5729581781648
 30
0.0
 11
-111.7442598628149
 21
-416.5729581781648
 31
0.0
  0
SOLID
  5
42AE
330
4173
100
AcDbEntity
  8
寸法線
 62
     0
440
 16777216
370
     9
100
AcDbTrace
 10
-151.7442598628149
 20
-415.7396248448314
 30
0.0
 11
-151.7442598628149
 21
-417.4062915114981
 31
0.0
 12
-156.7442598628149
 22
-416.5729581781648
 32
0.0
 13
-156.7442598628149
 23
-416.5729581781648
 33
0.0
  0
SOLID
  5
42AF
330
4173
100
AcDbEntity
  8
寸法線
 62
     0
440
 16777216
370
     9
100
AcDbTrace
 10
-111.7442598628149
 20
-415.7396248448314
 30
0.0
 11
-111.7442598628149
 21
-417.4062915114981
 31
0.0
 12
-106.7442598628149
 22
-416.5729581781648
 32
0.0
 13
-106.7442598628149
 23
-416.5729581781648
 33
0.0
  0
MTEXT
  5
42B0
330
4173
100
AcDbEntity
  8
寸法線
 62
     0
440
 16777216
100
AcDbMText
 10
-131.7442598628149
 20
-410.7729581781647
 30
0.0
 40
6.0
 41
0.0
 46
0.0
 71
     5
 72
     1
  1
50
 73
     1
 44
1.0
  0
POINT
  5
42B1
330
4173
100
AcDbEntity
  8
Defpoints
 62
     0
440
 16777216
370
     9
100
AcDbPoint
 10
-156.7442598628149
 20
-428.3562900587286
 30
0.0
  0
POINT
  5
42B2
330
4173
100
AcDbEntity
  8
Defpoints
 62
     0
440
 16777216
370
     9
100
AcDbPoint
 10
-106.7442598628149
 20
-428.3562900587286
 30
0.0
  0
POINT
  5
42B3
330
4173
100
AcDbEntity
  8
Defpoints
 62
     0
440
 16777216
370
     9
100
AcDbPoint
 10
-106.7442598628149
 20
-416.5729581781648
 30
0.0
  0
ENDBLK
  5
4175
330
4173
100
AcDbEntity
  8
0
 62
     0
370
     9
100
AcDbBlockEnd
  0
BLOCK
  5
4180
330
417F
100
AcDbEntity
  8
0
 62
     0
370
     9
100
AcDbBlockBegin
  2
*D17
 70
     1
 10
0.0
 20
0.0
 30
0.0
  3
*D17
  1

  0
LINE
  5
42B4
330
417F
100
AcDbEntity
  8
外形線
440
 16777216
370
    -2
100
AcDbLine
 10
-198.4893704543761
 20
-422.6484894277901
 30
0.0
 11
-181.2072006847725
 21
-402.9504136479135
 31
0.0
  0
LINE
  5
42B5
330
417F
100
AcDbEntity
  8
外形線
440
 16777216
370
    -2
100
AcDbLine
 10
-82.2813190408574
 20
-290.1955027084161
 30
0.0
 11
-78.98378965272687
 21
-286.4370056770995
 31
0.0
  0
MTEXT
  5
42B6
330
417F
100
AcDbEntity
  8
外形線
440
 16777216
100
AcDbMText
 10
-195.8569068199668
 20
-410.8535659632788
 30
0.0
 40
6.0
 41
0.0
 46
0.0
 71
     5
 72
     1
  1
∅140
 11
0.659505877626102
 21
0.7516994062633181
 31
0.0
 73
     1
 44
1.0
  0
LINE
  5
42B7
330
417F
100
AcDbEntity
  8
外形線
440
 16777216
370
    -2
100
AcDbLine
 10
-85.5788484289879
 20
-293.9539997397327
 30
0.0
 11
-177.909671296642
 21
-399.191916616597
 31
0.0
  0
SOLID
  5
42B8
330
417F
100
AcDbEntity
  8
外形線
440
 16777216
370
     9
100
AcDbTrace
 10
-82.90773521274351
 20
-289.6459144770611
 30
0.0
 11
-81.6549028689713
 21
-290.7450909397712
 31
0.0
 12
-85.5788484289879
 22
-293.9539997397327
 32
0.0
 13
-85.5788484289879
 23
-293.9539997397327
 33
0.0
  0
SOLID
  5
42B9
330
417F
100
AcDbEntity
  8
外形線
440
 16777216
370
     9
100
AcDbTrace
 10
-181.8336168566586
 20
-402.4008254165584
 30
0.0
 11
-180.5807845128864
 21
-403.5000018792687
 31
0.0
 12
-177.909671296642
 22
-399.191916616597
 32
0.0
 13
-177.909671296642
 23
-399.191916616597
 33
0.0
  0
POINT
  5
42BA
330
417F
100
AcDbEntity
  8
Defpoints
 62
     0
440
 16777216
370
     9
100
AcDbPoint
 10
-177.909671296642
 20
-399.191916616597
 30
0.0
  0
POINT
  5
42BB
330
417F
100
AcDbEntity
  8
Defpoints
 62
     0
440
 16777216
370
     9
100
AcDbPoint
 10
-85.5788484289879
 20
-293.9539997397327
 30
0.0
  0
ENDBLK
  5
4181
330
417F
100
AcDbEntity
  8
0
 62
     0
370
     9
100
AcDbBlockEnd
  0
ENDSEC
  0
SECTION
  2
ENTITIES
  0
MTEXT
  5
54
330
1F
100
AcDbEntity
  8
図枠
100
AcDbMText
 10
88.0
 20
12.0
 30
0.0
 40
5.0
 41
16.0
 46
0.0
 71
     1
 72
     5
  1

  7
symbols
 73
     1
 44
1.0
  0
MTEXT
  5
C3
330
1F
100
AcDbEntity
  8
外形線
100
AcDbMText
 10
1.0
 20
13.0
 30
0.0
 40
5.0
 41
0.0
 46
0.0
 71
     1
 72
     5
  1

  7
symbols
 73
     1
 44
1.0
  0
LINE
  5
2F4E
330
1F
100
AcDbEntity
  8
図枠
 62
     0
100
AcDbLine
 10
-587.0954545794827
 20
-558.9091501563414
 30
0.0
 11
-637.0954545794806
 21
-558.9091501563414
 31
0.0
  0
LINE
  5
2F4F
330
1F
100
AcDbEntity
  8
図枠
 62
     0
100
AcDbLine
 10
-637.0954545794806
 20
-553.9091501563416
 30
0.0
 11
-551.0954545794842
 21
-553.9091501563416
 31
0.0
  0
LWPOLYLINE
  5
2F51
330
1F
100
AcDbEntity
  8
図枠
 62
     0
100
AcDbPolyline
 90
        4
 70
     1
 43
0.0
 10
-637.0954545794806
 20
-565.9091501563412
 10
-429.095454579489
 20
-565.9091501563412
 10
-429.095454579489
 20
-270.9091501563529
 10
-637.0954545794806
 20
-270.9091501563529
  0
LINE
  5
2F53
330
1F
100
AcDbEntity
  8
図枠
 62
     0
100
AcDbLine
 10
-628.095454579481
 20
-553.9091501563416
 30
0.0
 11
-628.095454579481
 21
-558.9091501563414
 31
0.0
  0
LINE
  5
2F56
330
1F
100
AcDbEntity
  8
図枠
 62
     0
100
AcDbLine
 10
-429.095454579489
 20
-558.9091501563414
 30
0.0
 11
-551.0954545794842
 21
-558.9091501563414
 31
0.0
  0
LINE
  5
2F57
330
1F
100
AcDbEntity
  8
図枠
 62
     0
100
AcDbLine
 10
-429.095454579489
 20
-553.9091501563416
 30
0.0
 11
-551.0954545794842
 21
-553.9091501563416
 31
0.0
  0
MTEXT
  5
2F58
330
1F
100
AcDbEntity
  8
図枠
 62
     0
100
AcDbMText
 10
-550.0954545794842
 20
-554.9091501563416
 30
0.0
 40
2.0
 41
13.0316684656629
 46
0.0
 71
     1
 72
     5
  1
社内品番
  7
symbols
 73
     1
 44
1.0
  0
MTEXT
  5
2F59
330
1F
100
AcDbEntity
  8
図枠
 62
     0
100
AcDbMText
 10
-586.5954545794827
 20
-554.4091501563416
 30
0.0
 40
2.0
 41
6.626862839102805
 46
0.0
 71
     1
 72
     5
  1
承認
  7
symbols
 73
     1
 44
1.0
  0
LINE
  5
2F5A
330
1F
100
AcDbEntity
  8
図枠
 62
     0
100
AcDbLine
 10
-587.0954545794827
 20
-553.9091501563416
 30
0.0
 11
-587.0954545794827
 21
-565.9091501563412
 31
0.0
  0
MTEXT
  5
2F5B
330
1F
100
AcDbEntity
  8
図枠
 62
     0
100
AcDbMText
 10
-562.5954545794837
 20
-554.4091501563416
 30
0.0
 40
2.0
 41
6.42167954220369
 46
0.0
 71
     1
 72
     5
  1
尺度
  7
symbols
 73
     1
 44
1.0
  0
MTEXT
  5
2F5C
330
1F
100
AcDbEntity
  8
文字
 62
     0
100
AcDbMText
 10
-561.9637452574397
 20
-559.2227933593683
 30
0.0
 40
4.0
 41
10.01915599625771
 46
0.0
 71
     1
 72
     5
  1
Free
  7
symbols
 73
     1
 44
1.0
  0
LINE
  5
2F5D
330
1F
100
AcDbEntity
  8
図枠
 62
     0
100
AcDbLine
 10
-575.0954545794832
 20
-553.9091501563416
 30
0.0
 11
-575.0954545794832
 21
-565.9091501563412
 31
0.0
  0
MTEXT
  5
2F5E
330
1F
100
AcDbEntity
  8
図枠
 62
     0
100
AcDbMText
 10
-574.5954545794833
 20
-554.4091501563416
 30
0.0
 40
2.0
 41
6.524271190653247
 46
0.0
 71
     1
 72
     5
  1
作図
  7
symbols
 73
     1
 44
1.0
  0
LINE
  5
2F5F
330
1F
100
AcDbEntity
  8
図枠
 62
     0
100
AcDbLine
 10
-563.0954545794837
 20
-553.9091501563416
 30
0.0
 11
-563.0954545794837
 21
-565.9091501563412
 31
0.0
  0
LINE
  5
2F60
330
1F
100
AcDbEntity
  8
図枠
 62
     0
100
AcDbLine
 10
-551.0954545794842
 20
-558.9091501563414
 30
0.0
 11
-551.0954545794842
 21
-565.9091501563412
 31
0.0
  0
LINE
  5
2F61
330
1F
100
AcDbEntity
  8
図枠
 62
     0
100
AcDbLine
 10
-551.0954545794842
 20
-553.9091501563416
 30
0.0
 11
-551.0954545794842
 21
-558.9091501563414
 31
0.0
  0
MTEXT
  5
2F62
330
1F
100
AcDbEntity
  8
図枠
 62
     0
100
AcDbMText
 10
-548.1152903637503
 20
-562.8266729471399
 30
0.0
 40
1.5
 41
51.91483578426609
 46
0.0
 71
     1
 72
     5
  1
ポップアップ排水口金
  7
symbols
 73
     1
 44
1.0
  0
LINE
  5
2F63
330
1F
100
AcDbEntity
  8
図枠
 62
     0
100
AcDbLine
 10
-494.0954545794864
 20
-558.9091501563414
 30
0.0
 11
-494.0954545794864
 21
-565.9091501563412
 31
0.0
  0
LINE
  5
2F66
330
1F
100
AcDbEntity
  8
図枠
 62
     0
100
AcDbLine
 10
-494.0954545794864
 20
-558.9091501563414
 30
0.0
 11
-494.0954545794864
 21
-553.9091501563416
 31
0.0
  0
MTEXT
  5
3242
330
1F
100
AcDbEntity
  8
図枠
100
AcDbMText
 10
-637.0954545794806
 20
-562.4091501563412
 30
0.0
 40
5.0
 41
50.0
 46
0.0
 71
     5
 72
     5
  1

  7
symbols
 73
     1
 44
1.0
  0
MTEXT
  5
3243
330
1F
100
AcDbEntity
  8
図枠
 62
     0
100
AcDbMText
 10
-612.0954545794806
 20
-562.4091501563412
 30
0.0
 40
4.5
 41
50.0
 46
0.0
 71
     5
 72
     5
  1
PICOLO
  7
symbols
 73
     1
 44
1.0
  0
MTEXT
  5
3244
330
1F
100
AcDbEntity
  8
文字
 62
     0
100
AcDbMText
 10
-607.595454579481
 20
-556.4091501563415
 30
0.0
 40
3.5
 41
41.0
 46
0.0
 71
     5
 72
     5
  1
2012/9/10
  7
symbols
 73
     1
 44
1.0
  0
MTEXT
  5
3249
330
1F
100
AcDbEntity
  8
文字
 62
     0
100
AcDbMText
 10
-457.5954545794864
 20
-556.4091501563415
 30
0.0
 40
4.0
 41
57.0
 46
0.0
 71
     5
 72
     5
  1
Parts
  7
symbols
 73
     1
 44
1.0
  0
MTEXT
  5
324A
330
1F
100
AcDbEntity
  8
文字
 62
     0
100
AcDbMText
 10
-457.5954545794864
 20
-562.4091501563412
 30
0.0
 40
5.0
 41
57.0
 46
0.0
 71
     5
 72
     5
  1
F14L
  7
symbols
 73
     1
 44
1.0
  0
LINE
  5
3264
330
1F
100
AcDbEntity
  8
図枠
 62
     0
100
AcDbLine
 10
-551.095454579489
 20
-548.9091501563412
 30
0.0
 11
-429.095454579489
 21
-548.9091501563412
 31
0.0
  0
LINE
  5
3266
330
1F
100
AcDbEntity
  8
図枠
 62
     0
100
AcDbLine
 10
-551.095454579489
 20
-553.9091501563412
 30
0.0
 11
-551.095454579489
 21
-548.9091501563412
 31
0.0
  0
LINE
  5
3267
330
1F
100
AcDbEntity
  8
図枠
 62
     0
100
AcDbLine
 10
-543.095454579489
 20
-548.9091501563412
 30
0.0
 11
-543.095454579489
 21
-553.9091501563412
 31
0.0
  0
LINE
  5
326B
330
1F
100
AcDbEntity
  8
図枠
 62
     0
100
AcDbLine
 10
-497.095454579489
 20
-548.9091501563412
 30
0.0
 11
-497.095454579489
 21
-553.9091501563412
 31
0.0
  0
LINE
  5
326D
330
1F
100
AcDbEntity
  8
図枠
 62
     0
100
AcDbLine
 10
-492.0954545794891
 20
-548.9091501563412
 30
0.0
 11
-492.0954545794891
 21
-553.9091501563412
 31
0.0
  0
LINE
  5
326E
330
1F
100
AcDbEntity
  8
図枠
 62
     0
100
AcDbLine
 10
-477.095454579489
 20
-548.9091501563412
 30
0.0
 11
-477.095454579489
 21
-553.9091501563412
 31
0.0
  0
LINE
  5
326F
330
1F
100
AcDbEntity
  8
図枠
 62
     0
100
AcDbLine
 10
-455.0954545794891
 20
-548.9091501563412
 30
0.0
 11
-455.0954545794891
 21
-553.9091501563412
 31
0.0
  0
MTEXT
  5
3272
330
1F
100
AcDbEntity
  8
図枠
 62
     0
100
AcDbMText
 10
-633.1226767132543
 20
-556.4091501563415
 30
0.0
 40
2.0
 41
7.767794817108097
 46
0.0
 71
     5
 72
     5
  1
日付
  7
symbols
 73
     1
 44
1.0
  0
MTEXT
  5
3273
330
1F
100
AcDbEntity
  8
図枠
 62
     0
100
AcDbMText
 10
-490.0954545794864
 20
-556.4091501563415
 30
0.0
 40
2.0
 41
8.0
 46
0.0
 71
     5
 72
     5
  1
型番
  7
symbols
 73
     1
 44
1.0
  0
MTEXT
  5
3274
330
1F
100
AcDbEntity
  8
図枠
 62
     0
100
AcDbMText
 10
-490.0954545794864
 20
-562.4091501563412
 30
0.0
 40
2.0
 41
8.0
 46
0.0
 71
     5
 72
     5
  1
品名
  7
symbols
 73
     1
 44
1.0
  0
MTEXT
  5
3275
330
1F
100
AcDbEntity
  8
図枠
 62
     0
100
AcDbMText
 10
-547.095454579489
 20
-551.4091501563411
 30
0.0
 40
2.0
 41
8.0
 46
0.0
 71
     5
 72
     5
  1
番号
  7
symbols
 73
     1
 44
1.0
  0
MTEXT
  5
3276
330
1F
100
AcDbEntity
  8
図枠
 62
     0
100
AcDbMText
 10
-520.0954545794891
 20
-551.4091501563414
 30
0.0
 40
2.0
 41
46.0
 46
0.0
 71
     5
 72
     5
  1
部品名
  7
symbols
 73
     1
 44
1.0
  0
MTEXT
  5
3277
330
1F
100
AcDbEntity
  8
図枠
 62
     0
100
AcDbMText
 10
-494.5954545794891
 20
-551.4091501563411
 30
0.0
 40
2.0
 41
5.0
 46
0.0
 71
     5
 72
     5
  1
数
  7
symbols
 73
     1
 44
1.0
  0
MTEXT
  5
3278
330
1F
100
AcDbEntity
  8
図枠
 62
     0
100
AcDbMText
 10
-484.595454579489
 20
-551.4091501563414
 30
0.0
 40
2.0
 41
15.0
 46
0.0
 71
     5
 72
     5
  1
材質
  7
symbols
 73
     1
 44
1.0
  0
MTEXT
  5
3279
330
1F
100
AcDbEntity
  8
図枠
 62
     0
100
AcDbMText
 10
-466.095454579489
 20
-551.4091501563414
 30
0.0
 40
2.0
 41
22.0
 46
0.0
 71
     5
 72
     5
  1
処理
  7
symbols
 73
     1
 44
1.0
  0
MTEXT
  5
327A
330
1F
100
AcDbEntity
  8
図枠
 62
     0
100
AcDbMText
 10
-442.0954545794891
 20
-551.4091501563414
 30
0.0
 40
2.0
 41
26.0
 46
0.0
 71
     5
 72
     5
  1
備考
  7
symbols
 73
     1
 44
1.0
  0
LINE
  5
3674
330
1F
100
AcDbEntity
  8
外形線
 62
     0
100
AcDbLine
 10
-547.3011919136941
 20
-436.7030513846984
 30
0.0
 11
-547.3011919136941
 21
-408.8030513846984
 31
0.0
  0
LINE
  5
3675
330
1F
100
AcDbEntity
  8
外形線
 62
     0
100
AcDbLine
 10
-546.0511919136941
 20
-435.4530513846985
 30
0.0
 11
-546.051191913694
 21
-415.3593725550705
 31
0.0
  0
LINE
  5
3676
330
1F
100
AcDbEntity
  8
外形線
 62
     0
100
AcDbLine
 10
-587.5511919136938
 20
-435.4530513846985
 30
0.0
 11
-587.5511919136941
 21
-415.0973925323903
 31
0.0
  0
LINE
  5
3677
330
1F
100
AcDbEntity
  8
外形線
 62
     0
100
AcDbLine
 10
-586.301191913694
 20
-436.7030513846984
 30
0.0
 11
-586.301191913694
 21
-408.8030513846984
 31
0.0
  0
LINE
  5
3679
102
{ACAD_REACTORS
330
3850
102
}
330
1F
100
AcDbEntity
  8
外形線
 62
     0
100
AcDbLine
 10
-593.8011919136941
 20
-443.2237427248616
 30
0.0
 11
-539.8011919136941
 21
-443.2237427248616
 31
0.0
  0
LINE
  5
367A
102
{ACAD_REACTORS
330
3850
102
}
330
1F
100
AcDbEntity
  8
外形線
 62
     0
100
AcDbLine
 10
-597.8011919136941
 20
-445.2237427248617
 30
0.0
 11
-535.8011919136941
 21
-445.2237427248617
 31
0.0
  0
LINE
  5
367B
102
{ACAD_REACTORS
330
3850
102
}
330
1F
100
AcDbEntity
  8
外形線
 62
     0
100
AcDbLine
 10
-597.8011919136941
 20
-448.2237427248616
 30
0.0
 11
-535.8011919136941
 21
-448.2237427248616
 31
0.0
  0
LINE
  5
367C
330
1F
100
AcDbEntity
  8
外形線
 62
     0
100
AcDbLine
 10
-587.5511919136938
 20
-435.4530513846985
 30
0.0
 11
-546.051191913694
 21
-435.4530513846985
 31
0.0
  0
LINE
  5
367D
330
1F
100
AcDbEntity
  8
外形線
 62
     0
100
AcDbLine
 10
-547.501191913694
 20
-436.9030513846984
 30
0.0
 11
-586.101191913694
 21
-436.9030513846984
 31
0.0
  0
LINE
  5
367E
330
1F
100
AcDbEntity
  8
外形線
 62
     0
100
AcDbLine
 10
-546.0511919136941
 20
-499.720388582235
 30
0.0
 11
-587.5511919136941
 21
-499.720388582235
 31
0.0
  0
LINE
  5
367F
330
1F
100
AcDbEntity
  8
外形線
 62
     0
100
AcDbLine
 10
-587.5511919136941
 20
-498.720388582235
 30
0.0
 11
-546.0511919136941
 21
-498.720388582235
 31
0.0
  0
LINE
  5
3685
102
{ACAD_REACTORS
330
3696
102
}
330
1F
100
AcDbEntity
  8
外形線
 62
     0
100
AcDbLine
 10
-537.301191913694
 20
-459.720388582235
 30
0.0
 11
-596.301191913694
 21
-459.720388582235
 31
0.0
  0
LINE
  5
3686
330
1F
100
AcDbEntity
  8
外形線
 62
     0
100
AcDbLine
 10
-537.801191913694
 20
-462.220388582235
 30
0.0
 11
-595.801191913694
 21
-462.220388582235
 31
0.0
  0
LINE
  5
3688
330
1F
100
AcDbEntity
  8
ハッチング
 62
     0
100
AcDbLine
 10
-586.801191913694
 20
-501.2730737725956
 30
0.0
 11
-546.8011919136938
 21
-500.225636909828
 31
0.0
  0
LINE
  5
3689
330
1F
100
AcDbEntity
  8
ハッチング
 62
     0
100
AcDbLine
 10
-586.1408470934727
 20
-436.8633962049195
 30
0.0
 11
-547.3011919136941
 21
-435.8463440406076
 31
0.0
  0
LINE
  5
368A
330
1F
100
AcDbEntity
  8
ハッチング
 62
     0
100
AcDbLine
 10
-586.301191913694
 20
-434.4855287071871
 30
0.0
 11
-547.3011919136938
 21
-433.4642777659887
 31
0.0
  0
LINE
  5
368B
330
1F
100
AcDbEntity
  8
ハッチング
 62
     0
100
AcDbLine
 10
-586.3011919136938
 20
-432.1034624325682
 30
0.0
 11
-547.3011919136938
 21
-431.0822114913698
 31
0.0
  0
LINE
  5
368C
330
1F
100
AcDbEntity
  8
ハッチング
 62
     0
100
AcDbLine
 10
-586.301191913694
 20
-429.7213961579493
 30
0.0
 11
-547.3011919136941
 21
-428.700145216751
 31
0.0
  0
LINE
  5
368D
330
1F
100
AcDbEntity
  8
ハッチング
 62
     0
100
AcDbLine
 10
-586.301191913694
 20
-427.3393298833304
 30
0.0
 11
-547.3011919136938
 21
-426.3180789421321
 31
0.0
  0
LINE
  5
368E
330
1F
100
AcDbEntity
  8
ハッチング
 62
     0
100
AcDbLine
 10
-586.301191913694
 20
-424.9572636087115
 30
0.0
 11
-547.3011919136941
 21
-423.9360126675133
 31
0.0
  0
LINE
  5
368F
330
1F
100
AcDbEntity
  8
ハッチング
 62
     0
100
AcDbLine
 10
-586.301191913694
 20
-422.4572636087115
 30
0.0
 11
-547.3011919136941
 21
-421.4360126675132
 31
0.0
  0
LINE
  5
3690
330
1F
100
AcDbEntity
  8
ハッチング
 62
     0
100
AcDbLine
 10
-586.301191913694
 20
-419.9572636087115
 30
0.0
 11
-547.3011919136941
 21
-418.9360126675133
 31
0.0
  0
DIMENSION
  5
3694
102
{ACAD_XDICTIONARY
360
3695
102
}
102
{ACAD_REACTORS
330
3696
102
}
330
1F
100
AcDbEntity
  8
寸法線
 62
     0
100
AcDbDimension
280
     0
  2
*D3
 10
-607.355874671554
 20
-509.720388582235
 30
0.0
 11
-609.805874671554
 21
-484.720388582235
 31
0.0
 70
    32
 71
     5
 42
50.0
 73
     0
 74
     0
 75
     0
  3
ISO-25
100
AcDbAlignedDimension
 13
-596.301191913694
 23
-459.720388582235
 33
0.0
 14
-586.728890459199
 24
-509.720388582235
 34
0.0
 50
90.0
100
AcDbRotatedDimension
1001
ACAD
1000
DSTYLE
1002
{
1070
   271
1070
     0
1070
    41
1040
1.75
1070
    42
1040
7.0
1070
    43
1040
1.875
1070
   141
1040
3.5
1070
   147
1040
0.7
1070
   176
1070
     0
1070
   177
1070
     0
1070
   178
1070
     0
1002
}
  0
ARC
  5
36A2
330
1F
100
AcDbEntity
  8
外形線
 62
     0
100
AcDbCircle
 10
-592.2874174929459
 20
-465.220388582235
 30
0.0
 40
3.0
100
AcDbArc
 50
1.735704588930756
 51
90.0
  0
LINE
  5
36A3
330
1F
100
AcDbEntity
  8
外形線
 62
     0
100
AcDbLine
 10
-589.2887939555098
 20
-465.1295212023127
 30
0.0
 11
-588.301191913694
 21
-497.720388582235
 31
0.0
  0
LINE
  5
36A4
330
1F
100
AcDbEntity
  8
外形線
 62
     0
100
AcDbLine
 10
-587.5511919136939
 20
-508.6239866429084
 30
0.0
 11
-587.5511919136941
 21
-498.720388582235
 31
0.0
  0
LINE
  5
36A5
330
1F
100
AcDbEntity
  8
外形線
 62
     0
100
AcDbLine
 10
-588.301191913694
 20
-497.720388582235
 30
0.0
 11
-586.801191913694
 21
-499.720388582235
 31
0.0
  0
LINE
  5
36A8
330
1F
100
AcDbEntity
  8
ハッチング
 62
     0
100
AcDbLine
 10
-587.5511919136941
 20
-501.2927132137725
 30
0.0
 11
-586.801191913694
 21
-501.2730737725956
 31
0.0
  0
LINE
  5
36A9
330
1F
100
AcDbEntity
  8
外形線
 62
     0
100
AcDbLine
 10
-586.8011919136939
 20
-509.720388582235
 30
0.0
 11
-586.801191913694
 21
-499.720388582235
 31
0.0
  0
MTEXT
  5
36AA
102
{ACAD_REACTORS
330
36B7
102
}
330
1F
100
AcDbEntity
  8
文字
 62
     0
100
AcDbMText
 10
-529.4114319542647
 20
-437.7909836623772
 30
0.0
 40
3.5
 41
0.0
 46
0.0
 71
     4
 72
     1
  1
異形パッキン
  7
symbols
 73
     1
 44
1.0
  0
ARC
  5
36AB
330
1F
100
AcDbEntity
  8
外形線
 62
     0
100
AcDbCircle
 10
-595.801191913694
 20
-461.220388582235
 30
0.0
 40
1.0
100
AcDbArc
 50
180.0
 51
270.0
  0
LINE
  5
36AC
330
1F
100
AcDbEntity
  8
外形線
 62
     0
100
AcDbLine
 10
-596.301191913694
 20
-459.720388582235
 30
0.0
 11
-596.801191913694
 21
-460.220388582235
 31
0.0
  0
LINE
  5
36AD
330
1F
100
AcDbEntity
  8
外形線
 62
     0
100
AcDbLine
 10
-596.801191913694
 20
-460.220388582235
 30
0.0
 11
-596.801191913694
 21
-461.220388582235
 31
0.0
  0
LINE
  5
36AE
102
{ACAD_REACTORS
330
3850
102
}
330
1F
100
AcDbEntity
  8
かくれ線
 62
     0
100
AcDbLine
 10
-587.801191913694
 20
-447.7237427248616
 30
0.0
 11
-592.8011919136941
 21
-447.7237427248616
 31
0.0
  0
LINE
  5
36AF
102
{ACAD_REACTORS
330
3850
102
}
330
1F
100
AcDbEntity
  8
かくれ線
 62
     0
100
AcDbLine
 10
-596.101191913694
 20
-448.2237427248616
 30
0.0
 11
-596.101191913694
 21
-445.8237427248616
 31
0.0
  0
LINE
  5
36B0
102
{ACAD_REACTORS
330
3850
102
}
330
1F
100
AcDbEntity
  8
かくれ線
 62
     0
100
AcDbLine
 10
-592.8011919136941
 20
-447.7237427248616
 30
0.0
 11
-592.8011919136941
 21
-445.8237427248616
 31
0.0
  0
LINE
  5
36B1
102
{ACAD_REACTORS
330
3850
102
}
330
1F
100
AcDbEntity
  8
外形線
 62
     0
100
AcDbLine
 10
-597.8011919136941
 20
-448.2237427248616
 30
0.0
 11
-597.8011919136941
 21
-445.2237427248617
 31
0.0
  0
LINE
  5
36B2
102
{ACAD_REACTORS
330
3850
102
}
330
1F
100
AcDbEntity
  8
外形線
 62
     0
100
AcDbLine
 10
-597.8011919136941
 20
-445.2237427248617
 30
0.0
 11
-593.8011919136941
 21
-443.2237427248616
 31
0.0
  0
LINE
  5
36B3
102
{ACAD_REACTORS
330
3850
102
}
330
1F
100
AcDbEntity
  8
かくれ線
 62
     0
100
AcDbLine
 10
-596.101191913694
 20
-445.8237427248616
 30
0.0
 11
-592.8011919136941
 21
-445.8237427248616
 31
0.0
  0
LINE
  5
36B4
102
{ACAD_REACTORS
330
3850
102
}
330
1F
100
AcDbEntity
  8
かくれ線
 62
     0
100
AcDbLine
 10
-587.801191913694
 20
-445.7237427248617
 30
0.0
 11
-587.801191913694
 21
-447.7237427248616
 31
0.0
  0
LINE
  5
36B5
102
{ACAD_REACTORS
330
3850
102
}
330
1F
100
AcDbEntity
  8
かくれ線
 62
     0
100
AcDbLine
 10
-589.8011919136941
 20
-445.7237427248617
 30
0.0
 11
-587.801191913694
 21
-445.7237427248617
 31
0.0
  0
LINE
  5
36B6
102
{ACAD_REACTORS
330
3850
102
}
330
1F
100
AcDbEntity
  8
かくれ線
 62
     0
100
AcDbLine
 10
-589.8011919136941
 20
-445.7237427248617
 30
0.0
 11
-591.801191913694
 21
-443.2237427248616
 31
0.0
  0
LEADER
  5
36B7
330
1F
100
AcDbEntity
  8
文字
 62
     0
100
AcDbLeader
  3
ISO-25
 73
     0
 74
     0
 75
     1
 40
4.693181818181818
 41
24.91761363636364
 76
     3
 10
-538.3067417977298
 20
-442.0122187956377
 30
0.0
 10
-531.8614319542648
 20
-437.7909836623772
 30
0.0
 10
-530.1114319542648
 20
-437.7909836623772
 30
0.0
340
36AA
1001
ACAD
1000
DSTYLE
1002
{
1070
    77
1070
     0
1070
    41
1040
1.75
1070
    42
1040
7.0
1070
    43
1040
1.875
1070
   141
1040
3.5
1070
   147
1040
0.7
1070
   176
1070
     0
1070
   177
1070
   256
1070
   178
1070
   256
1002
}
  0
LINE
  5
36B8
330
1F
100
AcDbEntity
  8
外形線
 62
     0
100
AcDbLine
 10
-586.101191913694
 20
-436.9030513846984
 30
0.0
 11
-587.5511919136938
 21
-435.4530513846985
 31
0.0
  0
LINE
  5
36B9
330
1F
100
AcDbEntity
  8
ハッチング
 62
     0
100
AcDbLine
 10
-587.5511919136938
 20
-434.5182611091485
 30
0.0
 11
-586.301191913694
 21
-434.4855287071871
 31
0.0
  0
LINE
  5
36BA
330
1F
100
AcDbEntity
  8
ハッチング
 62
     0
100
AcDbLine
 10
-587.5511919136938
 20
-432.1361948345296
 30
0.0
 11
-586.3011919136938
 21
-432.1034624325682
 31
0.0
  0
LINE
  5
36BB
330
1F
100
AcDbEntity
  8
ハッチング
 62
     0
100
AcDbLine
 10
-587.5511919136938
 20
-429.7541285599107
 30
0.0
 11
-586.301191913694
 21
-429.7213961579493
 31
0.0
  0
LINE
  5
36BC
330
1F
100
AcDbEntity
  8
ハッチング
 62
     0
100
AcDbLine
 10
-587.5511919136941
 20
-427.3720622852919
 30
0.0
 11
-586.301191913694
 21
-427.3393298833304
 31
0.0
  0
LINE
  5
36BD
330
1F
100
AcDbEntity
  8
ハッチング
 62
     0
100
AcDbLine
 10
-587.5511919136941
 20
-424.989996010673
 30
0.0
 11
-586.301191913694
 21
-424.9572636087115
 31
0.0
  0
LINE
  5
36BE
330
1F
100
AcDbEntity
  8
ハッチング
 62
     0
100
AcDbLine
 10
-587.5511919136941
 20
-419.989996010673
 30
0.0
 11
-586.301191913694
 21
-419.9572636087115
 31
0.0
  0
LINE
  5
36BF
330
1F
100
AcDbEntity
  8
ハッチング
 62
     0
100
AcDbLine
 10
-587.5511919136941
 20
-422.489996010673
 30
0.0
 11
-586.301191913694
 21
-422.4572636087115
 31
0.0
  0
DIMENSION
  5
36CB
330
1F
100
AcDbEntity
  8
寸法線
 62
     0
100
AcDbDimension
280
     0
  2
*D1
 10
-550.801191913694
 20
-542.210032366415
 30
0.0
 11
-566.93847192585
 21
-542.210032366415
 31
0.0
 70
   160
  1
%%c<>
 71
     5
 42
31.99999999999977
 73
     0
 74
     0
 75
     0
  3
ISO-25
100
AcDbAlignedDimension
 13
-582.8011919136939
 23
-517.6160667752584
 33
0.0
 14
-550.801191913694
 24
-517.6160667752584
 34
0.0
100
AcDbRotatedDimension
1001
ACAD
1000
DSTYLE
1002
{
1070
    41
1040
1.75
1070
    42
1040
7.0
1070
    43
1040
1.875
1070
   141
1040
3.5
1070
   147
1040
0.7
1002
}
  0
DIMENSION
  5
36DC
102
{ACAD_XDICTIONARY
360
36DD
102
}
102
{ACAD_REACTORS
330
36DE
102
}
330
1F
100
AcDbEntity
  8
寸法線
 62
     0
100
AcDbDimension
280
     0
  2
*D4
 10
-441.1304963377364
 20
-472.5641595188199
 30
0.0
 11
-503.9658441257152
 21
-469.9391595188199
 31
0.0
 70
    32
  1
(300)
 71
     5
 42
125.6706955759576
 73
     0
 74
     0
 75
     0
  3
ISO-25
100
AcDbAlignedDimension
 13
-566.801191913694
 23
-462.220388582235
 33
0.0
 14
-441.1304963377364
 24
-484.220388582235
 34
0.0
100
AcDbRotatedDimension
1001
ACAD
1000
DSTYLE
1002
{
1070
    41
1040
1.75
1070
    42
1040
7.0
1070
    43
1040
1.875
1070
   141
1040
3.5
1070
   147
1040
0.7
1070
   176
1070
     0
1070
   177
1070
     0
1070
   178
1070
     0
1002
}
  0
LINE
  5
36DF
330
1F
100
AcDbEntity
  8
外形線
 62
     0
100
AcDbLine
 10
-523.1480790582675
 20
-489.220388582235
 30
0.0
 11
-505.9188130879355
 21
-489.220388582235
 31
0.0
  0
LINE
  5
36E0
330
1F
100
AcDbEntity
  8
外形線
 62
     0
100
AcDbLine
 10
-523.1480790582675
 20
-484.220388582235
 30
0.0
 11
-506.0009738303666
 21
-484.220388582235
 31
0.0
  0
ARC
  5
36E1
330
1F
100
AcDbEntity
  8
外形線
 62
     0
100
AcDbCircle
 10
-541.3149663344422
 20
-465.220388582235
 30
0.0
 40
3.0
100
AcDbArc
 50
90.0
 51
178.2642954110692
  0
LINE
  5
36ED
330
1F
100
AcDbEntity
  8
ハッチング
 62
     0
100
AcDbLine
 10
-538.7109292424216
 20
-495.970388582235
 30
0.0
 11
-539.0011919136941
 21
-484.8857043749028
 31
0.0
  0
LINE
  5
36EE
330
1F
100
AcDbEntity
  8
ハッチング
 62
     0
100
AcDbLine
 10
-537.1228850593422
 20
-495.970388582235
 30
0.0
 11
-537.6073246083722
 21
-477.4703885822352
 31
0.0
  0
LINE
  5
36EF
330
1F
100
AcDbEntity
  8
ハッチング
 62
     0
100
AcDbLine
 10
-535.5348408762631
 20
-495.9703885822351
 30
0.0
 11
-536.0192804252931
 21
-477.4703885822352
 31
0.0
  0
HATCH
  5
36F0
330
1F
100
AcDbEntity
  8
ハッチング
 62
     0
100
AcDbHatch
 10
0.0
 20
0.0
 30
0.0
210
0.0
220
0.0
230
1.0
  2
LINE
 70
     0
 71
     0
 91
        1
 92
        7
 72
     0
 73
     1
 93
       10
 10
-525.1480790582674
 20
-475.720388582235
 10
-525.3980790582675
 20
-475.220388582235
 10
-532.8980790582675
 20
-475.220388582235
 10
-533.1480790582674
 20
-475.720388582235
 10
-533.1480790582674
 20
-486.720388582235
 10
-533.1480790582674
 20
-497.720388582235
 10
-532.8980790582675
 20
-498.220388582235
 10
-525.3980790582675
 20
-498.220388582235
 10
-525.1480790582674
 20
-497.7203885822349
 10
-525.1480790582674
 20
-486.720388582235
 97
        0
 75
     0
 76
     1
 52
0.0
 41
0.5
 77
     0
 78
     1
 53
0.0
 43
-751.1608702677732
 44
-199.720388582235
 45
0.0
 46
1.587499999999999
 79
     0
 47
0.2059759880143258
 98
        1
 10
-529.5742416637738
 20
-485.4882871832429
  0
ELLIPSE
  5
36F1
330
1F
100
AcDbEntity
  8
外形線
 62
     0
100
AcDbEllipse
 10
-544.9678585803606
 20
-486.720388582235
 30
0.0
 11
0.318181818181813
 21
10.5
 31
0.0
210
0.0
220
0.0
230
1.0
 40
0.3905228362046315
 41
0.0
 42
3.165259599504274
  0
LINE
  5
36F2
330
1F
100
AcDbEntity
  8
外形線
 62
     0
100
AcDbLine
 10
-535.1480790582675
 20
-497.5203885822351
 30
0.0
 11
-534.9480790582674
 21
-497.720388582235
 31
0.0
  0
LINE
  5
36F3
330
1F
100
AcDbEntity
  8
外形線
 62
     0
100
AcDbLine
 10
-545.301191913694
 20
-497.720388582235
 30
0.0
 11
-546.801191913694
 21
-499.720388582235
 31
0.0
  0
LINE
  5
36F4
330
1F
100
AcDbEntity
  8
外形線
 62
     0
100
AcDbLine
 10
-546.051191913694
 20
-508.8167905215615
 30
0.0
 11
-546.0511919136941
 21
-498.720388582235
 31
0.0
  0
LINE
  5
36F6
330
1F
100
AcDbEntity
  8
ハッチング
 62
     0
100
AcDbLine
 10
-546.8011919136938
 20
-500.225636909828
 30
0.0
 11
-546.0511919136938
 21
-500.2059974686511
 31
0.0
  0
LINE
  5
36F7
330
1F
100
AcDbEntity
  8
外形線
 62
     0
100
AcDbLine
 10
-546.801191913694
 20
-509.720388582235
 30
0.0
 11
-546.801191913694
 21
-499.720388582235
 31
0.0
  0
LINE
  5
36F9
330
1F
100
AcDbEntity
  8
外形線
 62
     0
100
AcDbLine
 10
-545.2860403985425
 20
-497.220388582235
 30
0.0
 11
-540.801191913694
 21
-497.220388582235
 31
0.0
  0
LINE
  5
36FA
330
1F
100
AcDbEntity
  8
外形線
 62
     0
100
AcDbLine
 10
-545.2860403985425
 20
-497.220388582235
 30
0.0
 11
-545.301191913694
 21
-497.720388582235
 31
0.0
  0
LINE
  5
36FB
330
1F
100
AcDbEntity
  8
外形線
 62
     0
100
AcDbLine
 10
-539.0011919136941
 20
-495.970388582235
 30
0.0
 11
-539.8011919136941
 21
-496.970388582235
 31
0.0
  0
LINE
  5
36FC
330
1F
100
AcDbEntity
  8
外形線
 62
     0
100
AcDbLine
 10
-535.1480790582675
 20
-496.970388582235
 30
0.0
 11
-539.8011919136941
 21
-496.970388582235
 31
0.0
  0
LINE
  5
36FD
330
1F
100
AcDbEntity
  8
外形線
 62
     0
100
AcDbLine
 10
-540.801191913694
 20
-497.220388582235
 30
0.0
 11
-539.8011919136941
 21
-496.970388582235
 31
0.0
  0
LINE
  5
36FE
330
1F
100
AcDbEntity
  8
ハッチング
 62
     0
100
AcDbLine
 10
-537.0966991377732
 20
-496.9703885822351
 30
0.0
 11
-537.1228850593422
 21
-495.9703885822351
 31
0.0
  0
LINE
  5
36FF
330
1F
100
AcDbEntity
  8
ハッチング
 62
     0
100
AcDbLine
 10
-535.5086549546938
 20
-496.9703885822351
 30
0.0
 11
-535.5348408762631
 21
-495.9703885822351
 31
0.0
  0
LINE
  5
3700
330
1F
100
AcDbEntity
  8
ハッチング
 62
     0
100
AcDbLine
 10
-538.6847433208524
 20
-496.9703885822351
 30
0.0
 11
-538.7109292424216
 21
-495.9703885822351
 31
0.0
  0
LINE
  5
3701
330
1F
100
AcDbEntity
  8
外形線
 62
     0
100
AcDbLine
 10
-535.1480790582675
 20
-495.970388582235
 30
0.0
 11
-539.0011919136941
 21
-495.970388582235
 31
0.0
  0
LINE
  5
3702
330
1F
100
AcDbEntity
  8
外形線
 62
     0
100
AcDbLine
 10
-532.8980790582675
 20
-498.220388582235
 30
0.0
 11
-525.3980790582675
 21
-498.220388582235
 31
0.0
  0
LINE
  5
3703
330
1F
100
AcDbEntity
  8
外形線
 62
     0
100
AcDbLine
 10
-534.9480790582674
 20
-497.720388582235
 30
0.0
 11
-533.1480790582674
 21
-497.720388582235
 31
0.0
  0
LINE
  5
3704
330
1F
100
AcDbEntity
  8
外形線
 62
     0
100
AcDbLine
 10
-533.1480790582674
 20
-497.720388582235
 30
0.0
 11
-532.8980790582675
 21
-498.220388582235
 31
0.0
  0
LINE
  5
3705
330
1F
100
AcDbEntity
  8
外形線
 62
     0
100
AcDbLine
 10
-525.1480790582674
 20
-497.720388582235
 30
0.0
 11
-524.1480790582675
 21
-497.720388582235
 31
0.0
  0
LINE
  5
3706
330
1F
100
AcDbEntity
  8
外形線
 62
     0
100
AcDbLine
 10
-525.1480790582674
 20
-497.720388582235
 30
0.0
 11
-525.3980790582675
 21
-498.220388582235
 31
0.0
  0
ARC
  5
3707
330
1F
100
AcDbEntity
  8
外形線
 62
     0
100
AcDbCircle
 10
-524.1480790582675
 20
-496.720388582235
 30
0.0
 40
1.0
100
AcDbArc
 50
270.0
 51
0.0
  0
LINE
  5
3708
330
1F
100
AcDbEntity
  8
外形線
 62
     0
100
AcDbLine
 10
-535.1480790582675
 20
-475.920388582235
 30
0.0
 11
-534.9480790582674
 21
-475.720388582235
 31
0.0
  0
LINE
  5
3709
330
1F
100
AcDbEntity
  8
外形線
 62
     0
100
AcDbLine
 10
-540.801191913694
 20
-476.220388582235
 30
0.0
 11
-539.8011919136941
 21
-476.470388582235
 31
0.0
  0
LINE
  5
370A
330
1F
100
AcDbEntity
  8
外形線
 62
     0
100
AcDbLine
 10
-535.1480790582672
 20
-497.5203885822353
 30
0.0
 11
-535.1480790582675
 21
-475.920388582235
 31
0.0
  0
LINE
  5
370B
330
1F
100
AcDbEntity
  8
外形線
 62
     0
100
AcDbLine
 10
-539.0011919136941
 20
-496.970388582235
 30
0.0
 11
-539.0011919136941
 21
-476.470388582235
 31
0.0
  0
LINE
  5
370C
330
1F
100
AcDbEntity
  8
外形線
 62
     0
100
AcDbLine
 10
-535.1480790582675
 20
-476.470388582235
 30
0.0
 11
-539.8011919136941
 21
-476.470388582235
 31
0.0
  0
LINE
  5
370D
330
1F
100
AcDbEntity
  8
外形線
 62
     0
100
AcDbLine
 10
-539.0011919136941
 20
-477.470388582235
 30
0.0
 11
-539.8011919136941
 21
-476.470388582235
 31
0.0
  0
LINE
  5
370E
330
1F
100
AcDbEntity
  8
外形線
 62
     0
100
AcDbLine
 10
-535.1480790582675
 20
-477.470388582235
 30
0.0
 11
-539.0011919136941
 21
-477.470388582235
 31
0.0
  0
LINE
  5
370F
330
1F
100
AcDbEntity
  8
ハッチング
 62
     0
100
AcDbLine
 10
-537.6073246083722
 20
-477.4703885822352
 30
0.0
 11
-537.6335105299415
 21
-476.4703885822351
 31
0.0
  0
LINE
  5
3710
330
1F
100
AcDbEntity
  8
ハッチング
 62
     0
100
AcDbLine
 10
-536.0192804252931
 20
-477.4703885822351
 30
0.0
 11
-536.0454663468622
 21
-476.4703885822351
 31
0.0
  0
LINE
  5
3711
330
1F
100
AcDbEntity
  8
外形線
 62
     0
100
AcDbLine
 10
-544.649676762179
 20
-476.220388582235
 30
0.0
 11
-540.801191913694
 21
-476.220388582235
 31
0.0
  0
LINE
  5
3712
330
1F
100
AcDbEntity
  8
外形線
 62
     0
100
AcDbLine
 10
-544.3135898718783
 20
-465.1295212023127
 30
0.0
 11
-544.6496767621788
 21
-476.220388582235
 31
0.0
  0
ARC
  5
3713
330
1F
100
AcDbEntity
  8
外形線
 62
     0
100
AcDbCircle
 10
-524.1480790582675
 20
-476.720388582235
 30
0.0
 40
1.0
100
AcDbArc
 50
0.0
 51
90.0
  0
LINE
  5
3714
330
1F
100
AcDbEntity
  8
外形線
 62
     0
100
AcDbLine
 10
-533.1480790582674
 20
-475.720388582235
 30
0.0
 11
-533.1480790582674
 21
-497.7203885822349
 31
0.0
  0
LINE
  5
3715
330
1F
100
AcDbEntity
  8
外形線
 62
     0
100
AcDbLine
 10
-525.1480790582674
 20
-475.720388582235
 30
0.0
 11
-525.1480790582674
 21
-497.720388582235
 31
0.0
  0
LINE
  5
3716
330
1F
100
AcDbEntity
  8
外形線
 62
     0
100
AcDbLine
 10
-523.1480790582675
 20
-476.720388582235
 30
0.0
 11
-523.1480790582675
 21
-496.720388582235
 31
0.0
  0
LINE
  5
3717
330
1F
100
AcDbEntity
  8
外形線
 62
     0
100
AcDbLine
 10
-532.8980790582675
 20
-475.220388582235
 30
0.0
 11
-525.3980790582675
 21
-475.220388582235
 31
0.0
  0
LINE
  5
3718
330
1F
100
AcDbEntity
  8
外形線
 62
     0
100
AcDbLine
 10
-534.9480790582674
 20
-475.720388582235
 30
0.0
 11
-533.1480790582674
 21
-475.720388582235
 31
0.0
  0
LINE
  5
3719
330
1F
100
AcDbEntity
  8
外形線
 62
     0
100
AcDbLine
 10
-533.1480790582674
 20
-475.720388582235
 30
0.0
 11
-532.8980790582675
 21
-475.220388582235
 31
0.0
  0
LINE
  5
371A
330
1F
100
AcDbEntity
  8
外形線
 62
     0
100
AcDbLine
 10
-525.1480790582674
 20
-475.720388582235
 30
0.0
 11
-524.1480790582675
 21
-475.720388582235
 31
0.0
  0
LINE
  5
371B
330
1F
100
AcDbEntity
  8
外形線
 62
     0
100
AcDbLine
 10
-525.1480790582674
 20
-475.720388582235
 30
0.0
 11
-525.3980790582675
 21
-475.220388582235
 31
0.0
  0
LINE
  5
3720
330
1F
100
AcDbEntity
  8
外形線
 62
     0
100
AcDbLine
 10
-537.301191913694
 20
-459.720388582235
 30
0.0
 11
-536.801191913694
 21
-460.220388582235
 31
0.0
  0
ARC
  5
3722
330
1F
100
AcDbEntity
  8
外形線
 62
     0
100
AcDbCircle
 10
-537.801191913694
 20
-461.220388582235
 30
0.0
 40
1.0
100
AcDbArc
 50
270.0
 51
0.0
  0
LINE
  5
3723
330
1F
100
AcDbEntity
  8
外形線
 62
     0
100
AcDbLine
 10
-536.801191913694
 20
-460.220388582235
 30
0.0
 11
-536.801191913694
 21
-461.220388582235
 31
0.0
  0
LINE
  5
3724
102
{ACAD_REACTORS
330
3850
102
}
330
1F
100
AcDbEntity
  8
かくれ線
 62
     0
100
AcDbLine
 10
-545.801191913694
 20
-447.7237427248616
 30
0.0
 11
-540.801191913694
 21
-447.7237427248616
 31
0.0
  0
LINE
  5
3725
102
{ACAD_REACTORS
330
3850
102
}
330
1F
100
AcDbEntity
  8
かくれ線
 62
     0
100
AcDbLine
 10
-543.8011919136941
 20
-445.7237427248617
 30
0.0
 11
-541.801191913694
 21
-443.2237427248616
 31
0.0
  0
LINE
  5
3726
102
{ACAD_REACTORS
330
3850
102
}
330
1F
100
AcDbEntity
  8
かくれ線
 62
     0
100
AcDbLine
 10
-545.801191913694
 20
-445.7237427248617
 30
0.0
 11
-545.801191913694
 21
-447.7237427248616
 31
0.0
  0
LINE
  5
3727
102
{ACAD_REACTORS
330
3850
102
}
330
1F
100
AcDbEntity
  8
かくれ線
 62
     0
100
AcDbLine
 10
-543.8011919136941
 20
-445.7237427248617
 30
0.0
 11
-545.801191913694
 21
-445.7237427248617
 31
0.0
  0
LINE
  5
3728
102
{ACAD_REACTORS
330
3850
102
}
330
1F
100
AcDbEntity
  8
かくれ線
 62
     0
100
AcDbLine
 10
-540.801191913694
 20
-447.7237427248616
 30
0.0
 11
-540.801191913694
 21
-445.8237427248616
 31
0.0
  0
LINE
  5
3729
102
{ACAD_REACTORS
330
3850
102
}
330
1F
100
AcDbEntity
  8
かくれ線
 62
     0
100
AcDbLine
 10
-537.501191913694
 20
-448.2237427248616
 30
0.0
 11
-537.501191913694
 21
-445.8237427248616
 31
0.0
  0
LINE
  5
372A
102
{ACAD_REACTORS
330
3850
102
}
330
1F
100
AcDbEntity
  8
外形線
 62
     0
100
AcDbLine
 10
-535.8011919136941
 20
-448.2237427248616
 30
0.0
 11
-535.8011919136941
 21
-445.2237427248617
 31
0.0
  0
LINE
  5
372B
102
{ACAD_REACTORS
330
3850
102
}
330
1F
100
AcDbEntity
  8
かくれ線
 62
     0
100
AcDbLine
 10
-537.501191913694
 20
-445.8237427248616
 30
0.0
 11
-540.801191913694
 21
-445.8237427248616
 31
0.0
  0
LINE
  5
372C
102
{ACAD_REACTORS
330
3850
102
}
330
1F
100
AcDbEntity
  8
外形線
 62
     0
100
AcDbLine
 10
-539.8011919136941
 20
-443.2237427248616
 30
0.0
 11
-535.8011919136941
 21
-445.2237427248617
 31
0.0
  0
LINE
  5
372D
330
1F
100
AcDbEntity
  8
外形線
 62
     0
100
AcDbLine
 10
-547.5011919136941
 20
-436.9030513846984
 30
0.0
 11
-546.0511919136941
 21
-435.4530513846985
 31
0.0
  0
LINE
  5
372E
330
1F
100
AcDbEntity
  8
ハッチング
 62
     0
100
AcDbLine
 10
-547.3011919136938
 20
-433.4642777659887
 30
0.0
 11
-546.0511919136941
 21
-433.4315453640273
 31
0.0
  0
LINE
  5
372F
330
1F
100
AcDbEntity
  8
ハッチング
 62
     0
100
AcDbLine
 10
-547.3011919136938
 20
-431.0822114913698
 30
0.0
 11
-546.0511919136941
 21
-431.0494790894084
 31
0.0
  0
LINE
  5
3731
330
1F
100
AcDbEntity
  8
ハッチング
 62
     0
100
AcDbLine
 10
-547.3011919136941
 20
-428.700145216751
 30
0.0
 11
-546.0511919136941
 21
-428.6674128147895
 31
0.0
  0
LINE
  5
3732
330
1F
100
AcDbEntity
  8
ハッチング
 62
     0
100
AcDbLine
 10
-547.3011919136938
 20
-426.3180789421321
 30
0.0
 11
-546.0511919136938
 21
-426.2853465401706
 31
0.0
  0
LINE
  5
3733
330
1F
100
AcDbEntity
  8
ハッチング
 62
     0
100
AcDbLine
 10
-547.3011919136941
 20
-421.4360126675132
 30
0.0
 11
-546.0511919136941
 21
-421.4032802655517
 31
0.0
  0
LINE
  5
3734
330
1F
100
AcDbEntity
  8
ハッチング
 62
     0
100
AcDbLine
 10
-547.3011919136941
 20
-418.9360126675133
 30
0.0
 11
-546.0511919136941
 21
-418.9032802655517
 31
0.0
  0
LINE
  5
3735
330
1F
100
AcDbEntity
  8
ハッチング
 62
     0
100
AcDbLine
 10
-547.3011919136941
 20
-423.9360126675133
 30
0.0
 11
-546.0511919136941
 21
-423.9032802655517
 31
0.0
  0
LINE
  5
3736
330
1F
100
AcDbEntity
  8
外形線
 62
     0
100
AcDbLine
 10
-503.5955993993337
 20
-489.220388582235
 30
0.0
 11
-441.1304963377365
 21
-489.220388582235
 31
0.0
  0
LINE
  5
3737
102
{ACAD_REACTORS
330
36DE
102
}
330
1F
100
AcDbEntity
  8
外形線
 62
     0
100
AcDbLine
 10
-503.6777601417648
 20
-484.220388582235
 30
0.0
 11
-441.1304963377364
 21
-484.220388582235
 31
0.0
  0
SPLINE
  5
3738
330
1F
100
AcDbEntity
  8
外形線
 62
     0
100
AcDbSpline
210
0.0
220
0.0
230
1.0
 70
  1064
 71
     3
 72
    10
 73
     6
 74
     4
 42
0.000000001
 43
0.0000000001
 44
0.0000000001
 40
0.0
 40
0.0
 40
0.0
 40
0.0
 40
1.722274385363678
 40
4.634170641707108
 40
6.638311346315436
 40
6.638311346315436
 40
6.638311346315436
 40
6.638311346315436
 10
-503.6777601417648
 20
-484.220388582235
 30
0.0
 10
-504.1496927174145
 20
-484.7508054829146
 30
0.0
 10
-505.4195345646412
 20
-486.1780126979113
 30
0.0
 10
-501.2343645359515
 20
-487.3309013528723
 30
0.0
 10
-502.9117662477089
 20
-488.6731774483289
 30
0.0
 10
-503.5955993993337
 20
-489.220388582235
 30
0.0
 11
-503.6777601417648
 21
-484.220388582235
 31
0.0
 11
-504.5146242159493
 21
-485.7256751263252
 31
0.0
 11
-502.3379871637413
 21
-487.6599426752084
 31
0.0
 11
-503.5955993993337
 21
-489.220388582235
 31
0.0
  0
SPLINE
  5
3739
330
1F
100
AcDbEntity
  8
外形線
 62
     0
100
AcDbSpline
210
0.0
220
0.0
230
1.0
 70
  1064
 71
     3
 72
    10
 73
     6
 74
     4
 42
0.000000001
 43
0.0000000001
 44
0.0000000001
 40
0.0
 40
0.0
 40
0.0
 40
0.0
 40
1.722274385363678
 40
4.634170641707108
 40
6.638311346315436
 40
6.638311346315436
 40
6.638311346315436
 40
6.638311346315436
 10
-506.0009738303666
 20
-484.220388582235
 30
0.0
 10
-506.4729064060162
 20
-484.7508054829146
 30
0.0
 10
-507.7427482532428
 20
-486.1780126979113
 30
0.0
 10
-503.5575782245533
 20
-487.3309013528723
 30
0.0
 10
-505.2349799363106
 20
-488.6731774483289
 30
0.0
 10
-505.9188130879355
 20
-489.220388582235
 30
0.0
 11
-506.0009738303666
 21
-484.220388582235
 31
0.0
 11
-506.837837904551
 21
-485.7256751263252
 31
0.0
 11
-504.6612008523431
 21
-487.6599426752084
 31
0.0
 11
-505.9188130879355
 21
-489.220388582235
 31
0.0
  0
LINE
  5
373B
330
1F
100
AcDbEntity
  8
外形線
 62
     0
100
AcDbLine
 10
-441.1304963377365
 20
-484.2203885822351
 30
0.0
 11
-441.1304963377365
 21
-489.2203885822351
 31
0.0
  0
LINE
  5
373C
330
1F
100
AcDbEntity
  8
外形線
 62
     0
100
AcDbLine
 10
-596.801191913694
 20
-392.741860121067
 30
0.0
 11
-536.801191913694
 21
-392.741860121067
 31
0.0
  0
LINE
  5
373D
330
1F
100
AcDbEntity
  8
外形線
 62
     0
100
AcDbLine
 10
-596.801191913694
 20
-387.741860121067
 30
0.0
 11
-536.801191913694
 21
-387.741860121067
 31
0.0
  0
LINE
  5
373E
330
1F
100
AcDbEntity
  8
外形線
 62
     0
100
AcDbLine
 10
-597.8011919136941
 20
-376.9030513846984
 30
0.0
 11
-535.8011919136941
 21
-376.9030513846984
 31
0.0
  0
DIMENSION
  5
373F
102
{ACAD_XDICTIONARY
360
3740
102
}
102
{ACAD_REACTORS
330
3741
102
}
330
1F
100
AcDbEntity
  8
寸法線
 62
     0
100
AcDbDimension
280
     0
  2
*D2
 10
-535.3011919136941
 20
-367.8251349138473
 30
0.0
 11
-566.801191913694
 21
-365.3751349138472
 31
0.0
 70
    32
  1
%%c<>
 71
     5
 42
63.0
 73
     0
 74
     0
 75
     0
  3
ISO-25
100
AcDbAlignedDimension
 13
-598.3011919136941
 23
-377.4030513846984
 33
0.0
 14
-535.3011919136941
 24
-377.4030513846984
 34
0.0
100
AcDbRotatedDimension
1001
ACAD
1000
DSTYLE
1002
{
1070
    41
1040
1.75
1070
    42
1040
7.0
1070
    43
1040
1.875
1070
   141
1040
3.5
1070
   147
1040
0.7
1070
   176
1070
     0
1070
   177
1070
     0
1070
   178
1070
     0
1002
}
  0
ELLIPSE
  5
3742
330
1F
100
AcDbEntity
  8
外形線
 62
     0
100
AcDbEllipse
 10
-566.801191913694
 20
-292.8912957568409
 30
0.0
 11
19.5
 21
0.0
 31
0.0
210
0.0
220
0.0
230
-1.0
 40
0.0769230769230769
 41
3.141592653589793
 42
4.712388980384689
  0
LINE
  5
3743
330
1F
100
AcDbEntity
  8
外形線
 62
     0
100
AcDbLine
 10
-584.8011919136941
 20
-299.3912957568409
 30
0.0
 11
-571.0511919136941
 21
-299.3912957568409
 31
0.0
  0
LINE
  5
3744
102
{ACAD_REACTORS
330
3746
102
}
330
1F
100
AcDbEntity
  8
外形線
 62
     0
100
AcDbLine
 10
-585.6973457598478
 20
-294.6412957568409
 30
0.0
 11
-566.801191913694
 21
-294.6412957568409
 31
0.0
  0
LINE
  5
3745
102
{ACAD_REACTORS
330
3746
102
}
330
1F
100
AcDbEntity
  8
外形線
 62
     0
100
AcDbLine
 10
-585.0050380675402
 20
-297.6412957568409
 30
0.0
 11
-566.801191913694
 21
-297.6412957568409
 31
0.0
  0
HATCH
  5
3746
330
1F
100
AcDbEntity
  8
ハッチング
 62
     0
100
AcDbHatch
 10
0.0
 20
0.0
 30
0.0
210
0.0
220
0.0
230
1.0
  2
SOLID
 70
     1
 71
     1
 91
        1
 92
        7
 72
     1
 73
     1
 93
        6
 10
-584.551191913694
 20
-294.6412957568409
 42
1.0
 10
-584.551191913694
 20
-297.6412957568409
 42
0.0
 10
-566.801191913694
 20
-297.6412957568409
 42
0.0
 10
-549.0511919136941
 20
-297.6412957568409
 42
1.0
 10
-549.0511919136941
 20
-294.6412957568409
 42
0.0
 10
-566.801191913694
 20
-294.6412957568409
 42
0.0
 97
        6
330
3780
330
3744
330
3754
330
3745
330
377F
330
378A
 75
     0
 76
     1
 47
0.6761258869797182
 98
        1
 10
-562.9675408267369
 20
-296.2844628643507
450
        0
451
        0
460
0.0
461
0.0
452
        0
462
0.0
453
        0
470

  0
LINE
  5
3747
330
1F
100
AcDbEntity
  8
外形線
 62
     0
100
AcDbLine
 10
-585.6821819250341
 20
-413.2283825437303
 30
0.0
 11
-548.1821819250341
 21
-413.2283825437303
 31
0.0
  0
LINE
  5
3748
330
1F
100
AcDbEntity
  8
ハッチング
 62
     0
100
AcDbLine
 10
-586.301191913694
 20
-417.4572636087114
 30
0.0
 11
-547.3011919136941
 21
-416.4360126675132
 31
0.0
  0
LINE
  5
3749
330
1F
100
AcDbEntity
  8
ハッチング
 62
     0
100
AcDbLine
 10
-586.301191913694
 20
-414.9572636087115
 30
0.0
 11
-547.3011919136941
 21
-413.9360126675133
 31
0.0
  0
LINE
  5
374A
330
1F
100
AcDbEntity
  8
外形線
 62
     0
100
AcDbLine
 10
-586.301191913694
 20
-408.8030513846984
 30
0.0
 11
-586.301191913694
 21
-389.9030513846982
 31
0.0
  0
LINE
  5
374B
330
1F
100
AcDbEntity
  8
ハッチング
 62
     0
100
AcDbLine
 10
-587.5511919136941
 20
-417.489996010673
 30
0.0
 11
-586.301191913694
 21
-417.4572636087114
 31
0.0
  0
LINE
  5
374C
330
1F
100
AcDbEntity
  8
ハッチング
 62
     0
100
AcDbLine
 10
-587.5511919136941
 20
-414.989996010673
 30
0.0
 11
-586.301191913694
 21
-414.9572636087115
 31
0.0
  0
LINE
  5
374D
330
1F
100
AcDbEntity
  8
外形線
 62
     0
100
AcDbLine
 10
-585.6821819250341
 20
-413.2283825437303
 30
0.0
 11
-587.5511919136941
 21
-415.0973925323903
 31
0.0
  0
LINE
  5
374E
330
1F
100
AcDbEntity
  8
外形線
 62
     0
100
AcDbLine
 10
-586.301191913694
 20
-389.9030513846982
 30
0.0
 11
-588.2062673465213
 21
-382.7932130771355
 31
0.0
  0
LINE
  5
374F
330
1F
100
AcDbEntity
  8
外形線
 62
     0
100
AcDbLine
 10
-596.801191913694
 20
-387.741860121067
 30
0.0
 11
-596.801191913694
 21
-392.741860121067
 31
0.0
  0
LINE
  5
3750
330
1F
100
AcDbEntity
  8
かくれ線
 62
     0
100
AcDbLine
 10
-587.801191913694
 20
-387.741860121067
 30
0.0
 11
-587.801191913694
 21
-392.741860121067
 31
0.0
  0
LINE
  5
3751
330
1F
100
AcDbEntity
  8
外形線
 62
     0
100
AcDbLine
 10
-598.0797386264969
 20
-377.8182762981932
 30
0.0
 11
-590.9053241885469
 21
-380.0017937358301
 31
0.0
  0
ARC
  5
3752
102
{ACAD_REACTORS
330
3741
102
}
330
1F
100
AcDbEntity
  8
外形線
 62
     0
100
AcDbCircle
 10
-597.8011919136941
 20
-377.4030513846984
 30
0.0
 40
0.5
100
AcDbArc
 50
90.0
 51
236.1449738717041
  0
ARC
  5
3753
330
1F
100
AcDbEntity
  8
外形線
 62
     0
100
AcDbCircle
 10
-592.0699706516777
 20
-383.8284892575456
 30
0.0
 40
4.0
100
AcDbArc
 50
15.00000000000074
 51
73.07248693585295
  0
ARC
  5
3754
102
{ACAD_REACTORS
330
3746
102
}
330
1F
100
AcDbEntity
  8
外形線
 62
     0
100
AcDbCircle
 10
-584.551191913694
 20
-296.1412957568409
 30
0.0
 40
1.5
100
AcDbArc
 50
90.0
 51
270.0
  0
LINE
  5
3755
330
1F
100
AcDbEntity
  8
外形線
 62
     0
100
AcDbLine
 10
-585.0050380675402
 20
-297.6412957568409
 30
0.0
 11
-585.1600661662005
 21
-297.8361739959798
 31
0.0
  0
LINE
  5
3756
330
1F
100
AcDbEntity
  8
外形線
 62
     0
100
AcDbLine
 10
-584.8011919136941
 20
-299.3912957568409
 30
0.0
 11
-585.1600661662005
 21
-297.8361739959798
 31
0.0
  0
LINE
  5
3757
330
1F
100
AcDbEntity
  8
外形線
 62
     0
100
AcDbLine
 10
-585.9423176611874
 20
-294.446417517702
 30
0.0
 11
-586.301191913694
 21
-292.8912957568409
 31
0.0
  0
LINE
  5
3758
330
1F
100
AcDbEntity
  8
外形線
 62
     0
100
AcDbLine
 10
-585.6973457598478
 20
-294.6412957568409
 30
0.0
 11
-585.9423176611874
 21
-294.446417517702
 31
0.0
  0
LINE
  5
3759
330
1F
100
AcDbEntity
  8
外形線
 62
     0
100
AcDbLine
 10
-562.5511919136941
 20
-299.3912957568409
 30
0.0
 11
-562.5511919136941
 21
-332.3912957568409
 31
0.0
  0
LINE
  5
375A
330
1F
100
AcDbEntity
  8
外形線
 62
     0
100
AcDbLine
 10
-571.0511919136941
 20
-299.3912957568409
 30
0.0
 11
-571.0511919136941
 21
-332.3912957568409
 31
0.0
  0
LINE
  5
375B
330
1F
100
AcDbEntity
  8
外形線
 62
     0
100
AcDbLine
 10
-553.2011919136939
 20
-399.9030513846984
 30
0.0
 11
-580.4011919136939
 21
-399.9030513846984
 31
0.0
  0
LINE
  5
375C
330
1F
100
AcDbEntity
  8
外形線
 62
     0
100
AcDbLine
 10
-580.4011919136939
 20
-408.8030513846984
 30
0.0
 11
-553.2011919136939
 21
-408.8030513846984
 31
0.0
  0
LINE
  5
375D
330
1F
100
AcDbEntity
  8
外形線
 62
     0
100
AcDbLine
 10
-580.4011919136939
 20
-408.8030513846984
 30
0.0
 11
-580.4011919136939
 21
-399.9030513846984
 31
0.0
  0
LINE
  5
375E
330
1F
100
AcDbEntity
  8
外形線
 62
     0
100
AcDbLine
 10
-553.2011919136939
 20
-408.8030513846984
 30
0.0
 11
-553.2011919136939
 21
-399.9030513846984
 31
0.0
  0
LINE
  5
3760
330
1F
100
AcDbEntity
  8
外形線
 62
     0
100
AcDbLine
 10
-547.3011919136941
 20
-408.8030513846984
 30
0.0
 11
-547.3011919136941
 21
-389.9030513846981
 31
0.0
  0
LINE
  5
3761
330
1F
100
AcDbEntity
  8
外形線
 62
     0
100
AcDbLine
 10
-548.1821819250341
 20
-413.2283825437303
 30
0.0
 11
-546.051191913694
 21
-415.3593725550705
 31
0.0
  0
LINE
  5
3762
330
1F
100
AcDbEntity
  8
ハッチング
 62
     0
100
AcDbLine
 10
-547.3011919136941
 20
-416.4360126675132
 30
0.0
 11
-546.0511919136941
 21
-416.4032802655517
 31
0.0
  0
LINE
  5
3763
330
1F
100
AcDbEntity
  8
外形線
 62
     0
100
AcDbLine
 10
-547.3011919136941
 20
-389.9030513846982
 30
0.0
 11
-545.3961164808665
 21
-382.7932130771355
 31
0.0
  0
LINE
  5
3764
330
1F
100
AcDbEntity
  8
かくれ線
 62
     0
100
AcDbLine
 10
-545.801191913694
 20
-387.741860121067
 30
0.0
 11
-545.801191913694
 21
-392.741860121067
 31
0.0
  0
LINE
  5
3765
330
1F
100
AcDbEntity
  8
外形線
 62
     0
100
AcDbLine
 10
-536.801191913694
 20
-387.741860121067
 30
0.0
 11
-536.801191913694
 21
-392.741860121067
 31
0.0
  0
ARC
  5
3766
330
1F
100
AcDbEntity
  8
外形線
 62
     0
100
AcDbCircle
 10
-541.5324131757103
 20
-383.8284892575456
 30
0.0
 40
4.0
100
AcDbArc
 50
106.927513064147
 51
164.9999999999992
  0
ARC
  5
3767
102
{ACAD_REACTORS
330
3741
102
}
330
1F
100
AcDbEntity
  8
外形線
 62
     0
100
AcDbCircle
 10
-535.8011919136941
 20
-377.4030513846984
 30
0.0
 40
0.5
100
AcDbArc
 50
303.855026128296
 51
90.0
  0
LINE
  5
3768
330
1F
100
AcDbEntity
  8
外形線
 62
     0
100
AcDbLine
 10
-535.5226452008913
 20
-377.8182762981932
 30
0.0
 11
-542.6970596388412
 21
-380.0017937358301
 31
0.0
  0
LINE
  5
376B
330
1F
100
AcDbEntity
  8
外形線
 62
     0
100
AcDbLine
 10
-564.3011919136941
 20
-332.3912957568409
 30
0.0
 11
-564.3011919136942
 21
-337.3912957568414
 31
0.0
  0
LINE
  5
376C
330
1F
100
AcDbEntity
  8
外形線
 62
     0
100
AcDbLine
 10
-563.8011919136941
 20
-348.3912957568414
 30
0.0
 11
-563.8011919136941
 21
-337.3912957568415
 31
0.0
  0
LINE
  5
376D
330
1F
100
AcDbEntity
  8
外形線
 62
     0
100
AcDbLine
 10
-569.3011919136941
 20
-347.3912957568414
 30
0.0
 11
-569.3011919136941
 21
-337.3912957568415
 31
0.0
  0
LINE
  5
376E
330
1F
100
AcDbEntity
  8
外形線
 62
     0
100
AcDbLine
 10
-569.801191913694
 20
-348.3912957568414
 30
0.0
 11
-569.801191913694
 21
-337.3912957568415
 31
0.0
  0
LINE
  5
376F
330
1F
100
AcDbEntity
  8
外形線
 62
     0
100
AcDbLine
 10
-559.076191913694
 20
-348.3912957568414
 30
0.0
 11
-574.526191913694
 21
-348.3912957568414
 31
0.0
  0
LINE
  5
3770
330
1F
100
AcDbEntity
  8
外形線
 62
     0
100
AcDbLine
 10
-559.076191913694
 20
-352.3912957568414
 30
0.0
 11
-574.526191913694
 21
-352.3912957568414
 31
0.0
  0
LINE
  5
3771
330
1F
100
AcDbEntity
  8
外形線
 62
     0
100
AcDbLine
 10
-569.801191913694
 20
-347.3912957568414
 30
0.0
 11
-566.801191913694
 21
-347.3912957568414
 31
0.0
  0
LINE
  5
3772
330
1F
100
AcDbEntity
  8
外形線
 62
     0
100
AcDbLine
 10
-574.526191913694
 20
-352.3912957568414
 30
0.0
 11
-574.526191913694
 21
-348.3912957568414
 31
0.0
  0
LINE
  5
3773
330
1F
100
AcDbEntity
  8
外形線
 62
     0
100
AcDbLine
 10
-569.801191913694
 20
-347.8912957568414
 30
0.0
 11
-569.3011919136941
 21
-347.3912957568414
 31
0.0
  0
LINE
  5
3774
330
1F
100
AcDbEntity
  8
外形線
 62
     0
100
AcDbLine
 10
-564.3011919136941
 20
-347.3912957568414
 30
0.0
 11
-563.8011919136941
 21
-347.8912957568414
 31
0.0
  0
LINE
  5
3775
330
1F
100
AcDbEntity
  8
外形線
 62
     0
100
AcDbLine
 10
-563.8011919136941
 20
-347.3912957568414
 30
0.0
 11
-566.801191913694
 21
-347.3912957568414
 31
0.0
  0
LINE
  5
3776
330
1F
100
AcDbEntity
  8
外形線
 62
     0
100
AcDbLine
 10
-559.076191913694
 20
-352.3912957568414
 30
0.0
 11
-559.076191913694
 21
-348.3912957568414
 31
0.0
  0
LINE
  5
3777
330
1F
100
AcDbEntity
  8
外形線
 62
     0
100
AcDbLine
 10
-574.801191913694
 20
-340.3912957568414
 30
0.0
 11
-558.801191913694
 21
-340.3912957568414
 31
0.0
  0
LINE
  5
3779
330
1F
100
AcDbEntity
  8
外形線
 62
     0
100
AcDbLine
 10
-571.301191913694
 20
-337.3912957568414
 30
0.0
 11
-571.301191913694
 21
-340.3912957568414
 31
0.0
  0
LINE
  5
377A
330
1F
100
AcDbEntity
  8
外形線
 62
     0
100
AcDbLine
 10
-574.801191913694
 20
-337.3912957568414
 30
0.0
 11
-574.801191913694
 21
-340.3912957568414
 31
0.0
  0
LINE
  5
377B
330
1F
100
AcDbEntity
  8
外形線
 62
     0
100
AcDbLine
 10
-562.301191913694
 20
-337.3912957568414
 30
0.0
 11
-562.301191913694
 21
-340.3912957568414
 31
0.0
  0
LINE
  5
377C
330
1F
100
AcDbEntity
  8
外形線
 62
     0
100
AcDbLine
 10
-558.801191913694
 20
-337.3912957568414
 30
0.0
 11
-558.801191913694
 21
-340.3912957568414
 31
0.0
  0
LINE
  5
377F
102
{ACAD_REACTORS
330
3746
102
}
330
1F
100
AcDbEntity
  8
外形線
 62
     0
100
AcDbLine
 10
-548.5973457598479
 20
-297.6412957568409
 30
0.0
 11
-566.801191913694
 21
-297.6412957568409
 31
0.0
  0
LINE
  5
3780
102
{ACAD_REACTORS
330
3746
102
}
330
1F
100
AcDbEntity
  8
外形線
 62
     0
100
AcDbLine
 10
-547.9050380675403
 20
-294.6412957568409
 30
0.0
 11
-566.801191913694
 21
-294.6412957568409
 31
0.0
  0
ELLIPSE
  5
3781
330
1F
100
AcDbEntity
  8
外形線
 62
     0
100
AcDbEllipse
 10
-566.801191913694
 20
-292.8912957568409
 30
0.0
 11
-19.5
 21
0.0
 31
0.0
210
0.0
220
0.0
230
1.0
 40
0.0769230769230769
 41
3.141592653589793
 42
4.712388980384689
  0
LINE
  5
3782
330
1F
100
AcDbEntity
  8
外形線
 62
     0
100
AcDbLine
 10
-548.801191913694
 20
-299.3912957568409
 30
0.0
 11
-562.5511919136941
 21
-299.3912957568409
 31
0.0
  0
LINE
  5
3783
330
1F
100
AcDbEntity
  8
外形線
 62
     0
100
AcDbLine
 10
-583.301191913694
 20
-299.3912957568409
 30
0.0
 11
-583.3011919136938
 21
-333.6878686320944
 31
0.0
  0
LINE
  5
3784
330
1F
100
AcDbEntity
  8
外形線
 62
     0
100
AcDbLine
 10
-568.3011919136941
 20
-302.1412957568409
 30
0.0
 11
-568.3011919136939
 21
-335.6878686320944
 31
0.0
  0
LINE
  5
3785
330
1F
100
AcDbEntity
  8
外形線
 62
     0
100
AcDbLine
 10
-565.3011919136941
 20
-302.1412957568409
 30
0.0
 11
-565.3011919136941
 21
-335.6878686320944
 31
0.0
  0
LINE
  5
3786
330
1F
100
AcDbEntity
  8
外形線
 62
     0
100
AcDbLine
 10
-568.3011919136941
 20
-335.6878686320944
 30
0.0
 11
-566.801191913694
 21
-335.6878686320944
 31
0.0
  0
LINE
  5
3787
330
1F
100
AcDbEntity
  8
外形線
 62
     0
100
AcDbLine
 10
-577.1761919136941
 20
-332.3912957568409
 30
0.0
 11
-571.0511919136941
 21
-332.3912957568409
 31
0.0
  0
LINE
  5
3788
330
1F
100
AcDbEntity
  8
外形線
 62
     0
100
AcDbLine
 10
-565.3011919136941
 20
-335.6878686320944
 30
0.0
 11
-566.801191913694
 21
-335.6878686320944
 31
0.0
  0
LINE
  5
3789
330
1F
100
AcDbEntity
  8
外形線
 62
     0
100
AcDbLine
 10
-550.301191913694
 20
-299.3912957568409
 30
0.0
 11
-550.3011919136943
 21
-333.6878686320944
 31
0.0
  0
ARC
  5
378A
102
{ACAD_REACTORS
330
3746
102
}
330
1F
100
AcDbEntity
  8
外形線
 62
     0
100
AcDbCircle
 10
-549.0511919136941
 20
-296.1412957568409
 30
0.0
 40
1.5
100
AcDbArc
 50
270.0
 51
90.0
  0
LINE
  5
378B
330
1F
100
AcDbEntity
  8
外形線
 62
     0
100
AcDbLine
 10
-548.5973457598479
 20
-297.6412957568409
 30
0.0
 11
-548.4423176611876
 21
-297.8361739959798
 31
0.0
  0
LINE
  5
378C
330
1F
100
AcDbEntity
  8
外形線
 62
     0
100
AcDbLine
 10
-548.801191913694
 20
-299.3912957568409
 30
0.0
 11
-548.4423176611876
 21
-297.8361739959798
 31
0.0
  0
LINE
  5
378D
330
1F
100
AcDbEntity
  8
外形線
 62
     0
100
AcDbLine
 10
-547.6600661662005
 20
-294.446417517702
 30
0.0
 11
-547.3011919136941
 21
-292.8912957568409
 31
0.0
  0
LINE
  5
378E
330
1F
100
AcDbEntity
  8
外形線
 62
     0
100
AcDbLine
 10
-547.9050380675403
 20
-294.6412957568409
 30
0.0
 11
-547.6600661662005
 21
-294.446417517702
 31
0.0
  0
LEADER
  5
37FE
330
1F
100
AcDbEntity
  8
文字
 62
     0
100
AcDbLeader
  3
ISO-25
 73
     0
 74
     0
 75
     1
 40
4.59375
 41
30.80397727272727
 76
     3
 10
-538.3067417977298
 20
-394.6517633399616
 30
0.0
 10
-531.8614319542648
 20
-399.0829187937669
 30
0.0
 10
-530.1114319542648
 20
-399.0829187937669
 30
0.0
340
37FF
1001
ACAD
1000
DSTYLE
1002
{
1070
    77
1070
     0
1070
    41
1040
1.75
1070
    42
1040
7.0
1070
    43
1040
1.875
1070
   141
1040
3.5
1070
   147
1040
0.7
1070
   176
1070
     0
1070
   177
1070
   256
1070
   178
1070
   256
1002
}
  0
MTEXT
  5
37FF
102
{ACAD_REACTORS
330
37FE
102
}
330
1F
100
AcDbEntity
  8
文字
 62
     0
100
AcDbMText
 10
-529.4114319542647
 20
-399.0829187937669
 30
0.0
 40
3.5
 41
0.0
 46
0.0
 71
     4
 72
     1
  1
スポンジパッキン
  7
symbols
 73
     1
 44
1.0
  0
HATCH
  5
381F
330
1F
100
AcDbEntity
  8
ハッチング
 62
     0
100
AcDbHatch
 10
0.0
 20
0.0
 30
0.0
210
0.0
220
0.0
230
1.0
  2
GRAVEL
 70
     0
 71
     0
 91
        5
 92
        7
 72
     0
 73
     1
 93
        4
 10
-587.801191913694
 20
-387.741860121067
 10
-596.801191913694
 20
-387.741860121067
 10
-596.801191913694
 20
-392.741860121067
 10
-587.801191913694
 20
-392.741860121067
 97
        0
 92
        7
 72
     0
 73
     1
 93
        5
 10
-586.301191913694
 20
-389.9030513846982
 10
-586.8802813674732
 20
-387.741860121067
 10
-587.801191913694
 20
-387.741860121067
 10
-587.801191913694
 20
-392.741860121067
 10
-586.301191913694
 20
-392.741860121067
 97
        0
 92
        7
 72
     0
 73
     1
 93
        6
 10
-546.7221024599147
 20
-387.741860121067
 10
-586.8802813674732
 20
-387.741860121067
 10
-586.301191913694
 20
-389.9030513846982
 10
-586.301191913694
 20
-392.741860121067
 10
-547.3011919136941
 20
-392.741860121067
 10
-547.3011919136941
 20
-389.9030513846982
 97
        0
 92
        7
 72
     0
 73
     1
 93
        5
 10
-545.801191913694
 20
-387.741860121067
 10
-546.7221024599147
 20
-387.741860121067
 10
-547.3011919136941
 20
-389.9030513846982
 10
-547.3011919136941
 20
-392.741860121067
 10
-545.801191913694
 20
-392.741860121067
 97
        0
 92
        7
 72
     0
 73
     1
 93
        4
 10
-536.801191913694
 20
-387.741860121067
 10
-545.801191913694
 20
-387.741860121067
 10
-545.801191913694
 20
-392.741860121067
 10
-536.801191913694
 20
-392.741860121067
 97
        0
 75
     0
 76
     1
 52
15.0
 41
0.25
 77
     0
 78
    42
 53
243.0128
 43
-516.3227426380939
 44
-558.5922004851968
 45
-34.27754706656073
 46
-68.35074746644922
 79
     2
 49
0.8543025
 49
-84.57625
 53
199.9696999999999
 43
-516.7104191541779
 44
-559.3534784691664
 45
71.96017769018329
 46
25.85562885257771
 79
     2
 49
1.466012499999999
 49
-145.135
 53
147.5104
 43
-518.0882838047451
 44
-559.8541562644775
 45
79.41477329948646
 46
-51.03498746703165
 79
     2
 49
1.033704999999999
 49
-102.33675
 53
282.2737
 43
-520.0695238794497
 44
-562.0285288789077
 45
-26.7364057874391
 46
124.3160342646245
 79
     2
 49
1.335012499999999
 49
-132.166
 53
307.8337
 43
-519.7857249727749
 44
-563.3330259776283
 45
-50.39025450220937
 46
65.38606180045538
 79
     2
 49
1.309085
 49
-129.5995
 53
12.27370000000003
 43
-518.9827694751038
 44
-564.3669354121339
 45
-124.3160342646245
 46
-26.73640578743909
 79
     2
 49
1.335012499999999
 49
-132.166
 53
52.6942
 43
-517.6782723763833
 44
-564.083136505459
 45
-63.30223262328746
 46
-82.70176096210173
 79
     2
 49
1.765484999999999
 49
-174.78275
 53
87.2553
 43
-516.6082691562458
 44
-562.6788493699717
 45
6.778457775657997
 46
146.4444066345132
 79
     2
 49
1.6668
 49
-165.01325
 53
136.4296
 43
-516.528454070591
 44
-561.0139620458258
 45
-70.43453165954374
 46
66.58907229002545
 79
     2
 49
1.3395325
 49
-132.61375
 53
190.2364
 43
-517.4989834288062
 44
-560.0906939293814
 45
69.11335148103427
 46
11.94492466536493
 79
     2
 49
1.5292825
 49
-74.93475
 53
237.3974
 43
-519.0039244067987
 44
-560.362461574179
 45
-55.52506339754831
 46
-87.19184301962997
 79
     2
 49
1.977694999999999
 49
-195.792
 53
153.8141
 43
-513.9807961631195
 44
-560.4627992418401
 45
-52.79636607865111
 46
25.29721814492389
 79
     2
 49
0.6750125000000001
 49
-66.82649999999999
 53
186.4692
 43
-514.5865315484225
 44
-560.1649252869666
 45
83.02406539790355
 46
9.098190655552869
 79
     2
 49
1.284204999999999
 49
-127.1365
 53
240.0
 43
-515.8625623759015
 44
-560.3096166043388
 45
1.643499816167601
 46
-6.133624816167603
 79
     2
 49
0.8980225
 49
-8.082224999999999
 53
218.1986
 43
-516.4891365180552
 44
-559.6886261902547
 45
27.38123211519974
 46
20.48484417439173
 79
     2
 49
0.4836025000000001
 49
-47.87649999999999
 53
306.8014
 43
-516.8691855197486
 44
-559.9876801257107
 45
-11.06413928526665
 46
16.75739675511236
 79
     2
 49
0.683915
 49
-33.512
 53
45.96380000000001
 43
-516.4594902662311
 44
-560.5353029879482
 45
15.1138631289166
 46
17.19776515688321
 79
     2
 49
1.1108
 49
-35.91575
 53
176.5651
 43
-515.6873610009669
 44
-559.736751237764
 45
13.91076208400441
 46
-2.846616502113746
 79
     2
 49
0.8032175
 49
-19.27725
 53
31.3895
 43
-520.4266903379712
 44
-560.9409106688233
 45
56.40583125701562
 46
34.83586714763362
 79
     2
 49
1.12522
 49
-111.397
 53
85.3462
 43
-519.4661484553123
 44
-560.3548340597884
 45
-6.455962886527554
 46
-74.04380898028413
 79
     2
 49
0.9439975
 49
-93.45549999999999
 53
308.1986
 43
-516.0160611882471
 44
-558.5100254383768
 45
-20.48484417439173
 46
27.38123211519974
 79
     2
 49
0.9671999999999998
 49
-47.393
 53
358.6105
 43
-515.4179533173349
 44
-559.2701234417638
 45
-66.26681636397067
 46
1.965830284202674
 79
     2
 49
1.12522
 49
-111.397
 53
354.444
 43
-519.4077197574026
 44
-564.7437606469233
 45
-33.95518093686568
 46
4.04972822684607
 79
     2
 49
1.085087499999999
 49
-53.16925000000001
 53
309.7751
 43
-518.3277290617089
 44
-564.8488182369153
 45
-48.74657542064164
 46
59.25240210512314
 79
     2
 49
0.9091799999999999
 49
-90.00899999999999
 53
81.80139999999999
 43
-514.3112239618767
 44
-564.6272194259483
 45
4.049779389989039
 46
33.95526468587716
 79
     2
 49
0.9671999999999998
 49
-47.393
 53
32.354
 43
-514.1732963531567
 44
-563.6699013101933
 45
-73.16318743303273
 46
-45.89999230833292
 79
     2
 49
1.0644575
 49
-105.381
 53
84.44399999999999
 43
-517.3167021703751
 44
-565.4325348847849
 45
-4.049728226846088
 46
-33.95518093686567
 79
     2
 49
0.542545
 49
-53.71199999999999
 53
116.3099
 43
-514.6792417016928
 44
-564.7258294821324
 45
-12.70758141339209
 46
22.89094458756383
 79
     2
 49
0.3237875
 49
-32.055
 53
180.9637999999999
 43
-514.8227530384822
 44
-564.4355830416497
 45
20.04439801346718
 46
-1.20311210776228
 79
     2
 49
1.309085
 49
-24.872625
 53
201.009
 43
-516.1316538846894
 44
-564.4576017790831
 45
59.69270242262582
 46
22.56859980205014
 79
     2
 49
1.213167499999999
 49
-120.1035
 53
318.6901
 43
-516.311575181955
 44
-561.0873295976724
 45
-9.420629802752653
 46
10.62374465924656
 79
     2
 49
0.9158100000000001
 49
-21.97945
 53
8.157199999999962
 43
-515.623664749832
 44
-561.6918850023927
 45
107.5587526625935
 46
15.67221453801694
 79
     2
 49
1.598892499999999
 49
-158.29
 53
75.94540000000001
 43
-514.0409524725062
 44
-561.4650186382005
 45
-13.02997978860371
 46
-49.50928906974406
 79
     2
 49
0.65377
 49
-64.7235
 53
105.0
 43
-513.8821861069354
 44
-560.8308169816561
 45
-7.77712993333659
 46
4.490128060534576
 79
     2
 49
0.381
 49
-5.968999999999999
 53
135.2564
 43
-516.3036314927202
 44
-564.3064629279031
 45
36.03896474153759
 46
-36.36139151102355
 79
     2
 49
0.8821674999999999
 49
-87.33475
 53
63.0128
 43
-516.9302056348738
 44
-563.6854725138188
 45
34.27754706656072
 46
68.35074746644922
 79
     2
 49
1.7086075
 49
-83.72200000000001
 53
15.0
 43
-516.1548526027056
 44
-562.1629165458795
 45
4.490128060534576
 46
7.77712993333659
 79
     2
 49
1.650999999999999
 49
-4.698999999999999
 53
340.3048
 43
-514.5601090635023
 44
-561.7356063024153
 45
-72.84069134430096
 46
26.50042617269461
 79
     2
 49
1.004024999999999
 49
-99.39825
 53
269.0546
 43
-513.6148222096246
 44
-562.0739777904073
 45
0.4403747620160701
 46
-26.17807956306737
 79
     2
 49
0.9245725
 49
-45.30425
 53
222.646
 43
-513.6300772384059
 44
-562.9984258874344
 45
-100.1038903078925
 46
-92.56283536888032
 79
     2
 49
1.505362499999999
 49
-149.03125
 53
190.4261
 43
-514.7373542247582
 44
-564.0182602737414
 45
-81.38068830919255
 46
-15.23191777203746
 79
     2
 49
1.592572499999999
 49
-157.6645
 53
190.4261
 43
-514.7373542247582
 44
-564.0182602737414
 45
-81.38068830919255
 46
-15.23191777203746
 79
     2
 49
1.592572499999999
 49
-157.6645
 47
0.0838510151920245
 98
        5
 10
-592.1165391569566
 20
-391.0378642267514
 10
-587.0844279534853
 20
-391.7925234058472
 10
-579.9556039222898
 20
-389.7800993905552
 10
-546.3243284561665
 20
-391.0378642267514
 10
-539.4471098809113
 20
-390.7024599930543
  0
HATCH
  5
3850
330
1F
100
AcDbEntity
  8
ハッチング
 62
     0
100
AcDbHatch
 10
0.0
 20
0.0
 30
0.0
210
0.0
220
0.0
230
1.0
  2
SOLID
 70
     1
 71
     1
 91
        6
 92
        7
 72
     0
 73
     1
 93
        4
 10
-597.8011919136941
 20
-445.2237427248617
 10
-590.201191913694
 20
-445.2237427248617
 10
-591.801191913694
 20
-443.2237427248616
 10
-593.8011919136941
 20
-443.2237427248616
 97
        4
330
3679
330
36B2
330
367A
330
36B6
 92
        7
 72
     0
 73
     1
 93
        4
 10
-590.201191913694
 20
-445.2237427248617
 10
-543.4011919136941
 20
-445.2237427248617
 10
-541.801191913694
 20
-443.2237427248616
 10
-591.801191913694
 20
-443.2237427248616
 97
        4
330
3679
330
36B6
330
367A
330
3725
 92
        7
 72
     0
 73
     1
 93
        4
 10
-543.4011919136941
 20
-445.2237427248617
 10
-535.8011919136941
 20
-445.2237427248617
 10
-539.8011919136941
 20
-443.2237427248616
 10
-541.801191913694
 20
-443.2237427248616
 97
        4
330
3679
330
3725
330
367A
330
372C
 92
        7
 72
     0
 73
     1
 93
       10
 10
-537.501191913694
 20
-448.2237427248616
 10
-535.8011919136941
 20
-448.2237427248616
 10
-535.8011919136941
 20
-445.2237427248617
 10
-543.4011919136941
 20
-445.2237427248617
 10
-543.8011919136941
 20
-445.7237427248617
 10
-545.801191913694
 20
-445.7237427248617
 10
-545.801191913694
 20
-447.7237427248616
 10
-540.801191913694
 20
-447.7237427248616
 10
-540.801191913694
 20
-445.8237427248616
 10
-537.501191913694
 20
-445.8237427248616
 97
       10
330
372B
330
3729
330
367B
330
372A
330
367A
330
3725
330
3727
330
3726
330
3724
330
3728
 92
        7
 72
     0
 73
     1
 93
       16
 10
-596.101191913694
 20
-448.2237427248616
 10
-537.501191913694
 20
-448.2237427248617
 10
-537.501191913694
 20
-445.8237427248616
 10
-540.801191913694
 20
-445.8237427248616
 10
-540.801191913694
 20
-447.7237427248616
 10
-545.801191913694
 20
-447.7237427248616
 10
-545.801191913694
 20
-445.7237427248617
 10
-543.8011919136941
 20
-445.7237427248617
 10
-543.4011919136941
 20
-445.2237427248617
 10
-590.201191913694
 20
-445.2237427248617
 10
-589.8011919136941
 20
-445.7237427248617
 10
-587.801191913694
 20
-445.7237427248617
 10
-587.801191913694
 20
-447.7237427248616
 10
-592.8011919136941
 20
-447.7237427248616
 10
-592.8011919136941
 20
-445.8237427248616
 10
-596.101191913694
 20
-445.8237427248616
 97
       16
330
3727
330
3725
330
367A
330
36B6
330
36B5
330
36B4
330
36AE
330
36B0
330
36B3
330
36AF
330
367B
330
3729
330
372B
330
3728
330
3724
330
3726
 92
        7
 72
     0
 73
     1
 93
       10
 10
-597.8011919136941
 20
-448.2237427248616
 10
-596.101191913694
 20
-448.2237427248616
 10
-596.101191913694
 20
-445.8237427248616
 10
-592.8011919136941
 20
-445.8237427248616
 10
-592.8011919136941
 20
-447.7237427248616
 10
-587.801191913694
 20
-447.7237427248616
 10
-587.801191913694
 20
-445.7237427248617
 10
-589.8011919136941
 20
-445.7237427248617
 10
-590.201191913694
 20
-445.2237427248617
 10
-597.8011919136941
 20
-445.2237427248617
 97
       10
330
36B5
330
36B6
330
367A
330
36B1
330
367B
330
36AF
330
36B3
330
36B0
330
36AE
330
36B4
 75
     0
 76
     1
 47
0.0838510151920245
 98
        6
 10
-592.6197500688374
 20
-444.1155575116733
 10
-589.3488780992806
 20
-444.2832596285219
 10
-539.8664526549225
 20
-444.2832596285219
 10
-542.2986401187888
 20
-446.631087877511
 10
-556.8078936371205
 20
-446.4633857606624
 10
-590.5230372411131
 20
-446.631087877511
450
        0
451
        0
460
0.0
461
0.0
452
        0
462
0.0
453
        0
470

  0
ARC
  5
3858
330
1F
100
AcDbEntity
  8
外形線
 62
     0
100
AcDbCircle
 10
-571.0511919136941
 20
-302.1412957568409
 30
0.0
 40
2.75
100
AcDbArc
 50
0.0
 51
90.0
  0
ARC
  5
3859
330
1F
100
AcDbEntity
  8
外形線
 62
     0
100
AcDbCircle
 10
-562.5511919136941
 20
-302.1412957568409
 30
0.0
 40
2.75
100
AcDbArc
 50
90.0
 51
180.0
  0
CIRCLE
  5
3A15
330
1F
100
AcDbEntity
  8
外形線
100
AcDbCircle
 10
198.7889342862786
 20
262.2691373887124
 30
0.0
 40
2.5
  0
LINE
  5
3AB1
330
1F
100
AcDbEntity
  8
外形線
 62
     0
100
AcDbLine
 10
-577.1761919136941
 20
-332.3912957568409
 30
0.0
 11
-579.8869783513207
 21
-335.1020821944675
 31
0.0
  0
ARC
  5
3AB3
330
1F
100
AcDbEntity
  8
外形線
 62
     0
100
AcDbCircle
 10
-581.3011919136938
 20
-333.6878686320944
 30
0.0
 40
2.0
100
AcDbArc
 50
180.0000000000002
 51
314.9999999999983
  0
ARC
  5
3AB6
330
1F
100
AcDbEntity
  8
外形線
 62
     0
100
AcDbCircle
 10
-552.3011919136942
 20
-333.6878686320944
 30
0.0
 40
2.0
100
AcDbArc
 50
225.0000000000018
 51
359.9999999999998
  0
LINE
  5
3AB7
330
1F
100
AcDbEntity
  8
外形線
 62
     0
100
AcDbLine
 10
-556.426191913694
 20
-332.3912957568409
 30
0.0
 11
-562.5511919136941
 21
-332.3912957568409
 31
0.0
  0
LINE
  5
3AB8
330
1F
100
AcDbEntity
  8
外形線
 62
     0
100
AcDbLine
 10
-556.426191913694
 20
-332.3912957568409
 30
0.0
 11
-553.7154054760674
 21
-335.1020821944675
 31
0.0
  0
LINE
  5
3ABB
330
1F
100
AcDbEntity
  8
外形線
 62
     0
100
AcDbLine
 10
-571.0511919136941
 20
-332.3912957568409
 30
0.0
 11
-562.5511919136941
 21
-332.3912957568409
 31
0.0
  0
LINE
  5
3AC9
330
1F
100
AcDbEntity
  8
外形線
 62
     0
100
AcDbLine
 10
-563.8011919136941
 20
-337.3912957568414
 30
0.0
 11
-563.8011919136941
 21
-332.3912957568409
 31
0.0
  0
LINE
  5
3ACA
330
1F
100
AcDbEntity
  8
外形線
 62
     0
100
AcDbLine
 10
-564.3011919136941
 20
-337.3912957568415
 30
0.0
 11
-564.3011919136941
 21
-347.3912957568414
 31
0.0
  0
LINE
  5
3ACB
330
1F
100
AcDbEntity
  8
外形線
 62
     0
100
AcDbLine
 10
-569.3011919136941
 20
-337.3912957568414
 30
0.0
 11
-569.3011919136941
 21
-332.3912957568409
 31
0.0
  0
LINE
  5
3ACC
330
1F
100
AcDbEntity
  8
外形線
 62
     0
100
AcDbLine
 10
-569.801191913694
 20
-337.3912957568414
 30
0.0
 11
-569.801191913694
 21
-332.3912957568409
 31
0.0
  0
LINE
  5
3DAB
330
1F
100
AcDbEntity
  8
外形線
 62
     0
100
AcDbLine
 10
-546.7288904591992
 20
-509.720388582235
 30
0.0
 11
-586.728890459199
 21
-509.720388582235
 31
0.0
  0
LINE
  5
3DAC
330
1F
100
AcDbEntity
  8
外形線
 62
     0
100
AcDbLine
 10
-587.5511919136939
 20
-508.6239866429084
 30
0.0
 11
-586.7288904591991
 21
-509.720388582235
 31
0.0
  0
LINE
  5
3DAD
330
1F
100
AcDbEntity
  8
外形線
 62
     0
100
AcDbLine
 10
-546.051191913694
 20
-508.8167905215615
 30
0.0
 11
-546.7288904591992
 21
-509.720388582235
 31
0.0
  0
LINE
  5
3DAE
330
1F
100
AcDbEntity
  8
ハッチング
 62
     0
100
AcDbLine
 10
-586.801191913694
 20
-503.2730737725955
 30
0.0
 11
-546.8011919136938
 21
-502.2256369098281
 31
0.0
  0
LINE
  5
3DAF
330
1F
100
AcDbEntity
  8
ハッチング
 62
     0
100
AcDbLine
 10
-586.801191913694
 20
-503.2730737725955
 30
0.0
 11
-546.8011919136938
 21
-502.2256369098281
 31
0.0
  0
LINE
  5
3DB0
330
1F
100
AcDbEntity
  8
ハッチング
 62
     0
100
AcDbLine
 10
-586.801191913694
 20
-505.2730737725956
 30
0.0
 11
-546.8011919136938
 21
-504.225636909828
 31
0.0
  0
LINE
  5
3DB1
330
1F
100
AcDbEntity
  8
ハッチング
 62
     0
100
AcDbLine
 10
-586.6965200012081
 20
-505.2703328421046
 30
0.0
 11
-546.6965200012079
 21
-504.2228959793372
 31
0.0
  0
LINE
  5
3DB2
330
1F
100
AcDbEntity
  8
ハッチング
 62
     0
100
AcDbLine
 10
-586.6965200012081
 20
-507.2703328421047
 30
0.0
 11
-546.6965200012079
 21
-506.2228959793372
 31
0.0
  0
LINE
  5
3DB3
330
1F
100
AcDbEntity
  8
ハッチング
 62
     0
100
AcDbLine
 10
-586.6965200012081
 20
-509.2703328421047
 30
0.0
 11
-546.6965200012079
 21
-508.2228959793372
 31
0.0
  0
MTEXT
  5
3DBD
330
1F
100
AcDbEntity
  8
文字
 62
     0
100
AcDbMText
 10
-607.595454579481
 20
-551.4091501563417
 30
0.0
 40
3.5
 41
41.0
 46
0.0
 71
     5
 72
     5
  1
更新2012/11/15
  7
symbols
 73
     1
 44
1.0
  0
MTEXT
  5
3DC8
330
1F
100
AcDbEntity
  8
寸法線
 62
     0
100
AcDbMText
 10
-573.3783609791762
 20
-511.9075248645012
 30
0.0
 40
3.5
 41
39.2732
 46
0.0
 71
     1
 72
     5
  1
G1"1/4
  7
symbols
 73
     1
 44
1.0
  0
LINE
  5
43E2
330
1F
100
AcDbEntity
  8
外形線
 62
     0
100
AcDbLine
 10
-574.801191913694
 20
-337.3912957568414
 30
0.0
 11
-558.801191913694
 21
-337.3912957568414
 31
0.0
  0
LINE
  5
43E4
330
1F
100
AcDbEntity
  8
外形線
 62
     0
100
AcDbLine
 10
-566.7288904592028
 20
-517.2298714105136
 30
0.0
 11
-546.7288904592028
 21
-517.2298714105136
 31
0.0
  0
ELLIPSE
  5
43E5
330
1F
100
AcDbEntity
  8
外形線
 62
     0
100
AcDbEllipse
 10
-548.9753696816219
 20
-523.1800086952689
 30
0.0
 11
0.0
 21
-5.5
 31
0.0
210
0.0
220
0.0
230
1.0
 40
0.8430562268632526
 41
0.0
 42
6.283185307179585
  0
ELLIPSE
  5
43E6
330
1F
100
AcDbEntity
  8
外形線
 62
     0
100
AcDbEllipse
 10
-566.7288904592028
 20
-523.1800086952689
 30
0.0
 11
-9.273618495495739
 21
0.0
 31
0.0
210
0.0
220
0.0
230
1.0
 40
0.593080252618909
 41
1.570796326794896
 42
4.712388980384688
  0
ELLIPSE
  5
43E7
330
1F
100
AcDbEntity
  8
外形線
 62
     0
100
AcDbEllipse
 10
-546.7288904592028
 20
-523.1800086952689
 30
0.0
 11
0.0
 21
6.0
 31
0.0
210
0.0
220
0.0
230
1.0
 40
0.4166666666666667
 41
3.141592653589792
 42
6.283185307179585
  0
LINE
  5
43E8
330
1F
100
AcDbEntity
  8
外形線
 62
     0
100
AcDbLine
 10
-546.7288904592028
 20
-529.1800086952689
 30
0.0
 11
-566.7288904592028
 21
-529.1800086952689
 31
0.0
  0
LINE
  5
43E9
330
1F
100
AcDbEntity
  8
外形線
 62
     0
100
AcDbLine
 10
-566.7288904592028
 20
-517.180008695269
 30
0.0
 11
-546.7288904592028
 21
-517.180008695269
 31
0.0
  0
LINE
  5
43EA
330
1F
100
AcDbEntity
  8
外形線
 62
     0
100
AcDbLine
 10
-566.7288904591991
 20
-517.2298714105136
 30
0.0
 11
-586.7288904591991
 21
-517.2298714105136
 31
0.0
  0
ELLIPSE
  5
43EB
330
1F
100
AcDbEntity
  8
外形線
 62
     0
100
AcDbEllipse
 10
-584.4824112367801
 20
-523.1800086952689
 30
0.0
 11
0.0
 21
-5.5
 31
0.0
210
0.0
220
0.0
230
-1.0
 40
0.8430562268632526
 41
0.0
 42
6.283185307179585
  0
ELLIPSE
  5
43EC
330
1F
100
AcDbEntity
  8
外形線
 62
     0
100
AcDbEllipse
 10
-566.7288904591991
 20
-523.1800086952689
 30
0.0
 11
9.273618495495739
 21
0.0
 31
0.0
210
0.0
220
0.0
230
-1.0
 40
0.593080252618909
 41
1.570796326794896
 42
4.712388980384688
  0
ELLIPSE
  5
43ED
330
1F
100
AcDbEntity
  8
外形線
 62
     0
100
AcDbEllipse
 10
-586.7288904591991
 20
-523.1800086952689
 30
0.0
 11
0.0
 21
6.0
 31
0.0
210
0.0
220
0.0
230
-1.0
 40
0.4166666666666667
 41
3.141592653589792
 42
6.283185307179585
  0
LINE
  5
43EE
330
1F
100
AcDbEntity
  8
外形線
 62
     0
100
AcDbLine
 10
-586.7288904591991
 20
-529.1800086952689
 30
0.0
 11
-566.7288904591991
 21
-529.1800086952689
 31
0.0
  0
LINE
  5
43EF
330
1F
100
AcDbEntity
  8
外形線
 62
     0
100
AcDbLine
 10
-566.7288904591991
 20
-517.180008695269
 30
0.0
 11
-586.7288904591991
 21
-517.180008695269
 31
0.0
  0
ENDSEC
  0
SECTION
  2
OBJECTS
  0
DICTIONARY
  5
C
330
0
100
AcDbDictionary
281
     1
  3
ACAD_CIP_PREVIOUS_PRODUCT_INFO
350
3EBF
  3
ACAD_COLOR
350
3E9E
  3
ACAD_DETAILVIEWSTYLE
350
3EB7
  3
ACAD_GROUP
350
D
  3
ACAD_LAYOUT
350
1A
  3
ACAD_MATERIAL
350
3E6C
  3
ACAD_MLEADERSTYLE
350
3EB3
  3
ACAD_MLINESTYLE
350
17
  3
ACAD_PLOTSETTINGS
350
19
  3
ACAD_PLOTSTYLENAME
350
E
  3
ACAD_SCALELIST
350
3EA1
  3
ACAD_SECTIONVIEWSTYLE
350
3EB5
  3
ACAD_TABLESTYLE
350
3E9F
  3
ACAD_VISUALSTYLE
350
3E85
  3
ACDB_RECOMPOSE_DATA
350
4414
  3
AcDbVariableDictionary
350
C7
  3
AcDsDecomposeData
350
441A
  0
DICTIONARY
  5
4028
330
2
100
AcDbDictionary
280
     1
281
     1
  3
ACAD_LAYERSTATES
360
4029
  0
DICTIONARY
  5
3F7B
330
10
100
AcDbDictionary
280
     1
281
     1
  3
ADSK_XREC_LAYER_RECONCILED
360
3F7C
  0
DICTIONARY
  5
3F7D
330
2F
100
AcDbDictionary
280
     1
281
     1
  3
ADSK_XREC_LAYER_RECONCILED
360
3F7E
  0
DICTIONARY
  5
3F7F
330
30
100
AcDbDictionary
280
     1
281
     1
  3
ADSK_XREC_LAYER_RECONCILED
360
3F80
  0
DICTIONARY
  5
3F81
330
31
100
AcDbDictionary
280
     1
281
     1
  3
ADSK_XREC_LAYER_RECONCILED
360
3F82
  0
DICTIONARY
  5
3F83
330
32
100
AcDbDictionary
280
     1
281
     1
  3
ADSK_XREC_LAYER_RECONCILED
360
3F84
  0
DICTIONARY
  5
3F85
330
33
100
AcDbDictionary
280
     1
281
     1
  3
ADSK_XREC_LAYER_RECONCILED
360
3F86
  0
DICTIONARY
  5
3F87
330
34
100
AcDbDictionary
280
     1
281
     1
  3
ADSK_XREC_LAYER_RECONCILED
360
3F88
  0
DICTIONARY
  5
3F89
330
35
100
AcDbDictionary
280
     1
281
     1
  3
ADSK_XREC_LAYER_RECONCILED
360
3F8A
  0
DICTIONARY
  5
3F8B
330
36
100
AcDbDictionary
280
     1
281
     1
  3
ADSK_XREC_LAYER_RECONCILED
360
3F8C
  0
DICTIONARY
  5
3EEB
330
1F
100
AcDbDictionary
280
     1
281
     1
  3
ACAD_SORTENTS
360
3EEC
  0
DICTIONARY
  5
3695
330
3694
100
AcDbDictionary
280
     1
281
     1
  3
ACAD_DIMASSOC
360
3696
  0
DICTIONARY
  5
36DD
330
36DC
100
AcDbDictionary
280
     1
281
     1
  3
ACAD_DIMASSOC
360
36DE
  0
DICTIONARY
  5
3740
330
373F
100
AcDbDictionary
280
     1
281
     1
  3
ACAD_DIMASSOC
360
3741
  0
XRECORD
  5
3EBF
102
{ACAD_REACTORS
330
C
102
}
330
C
100
AcDbXrecord
280
     1
300
ACD
300
2014
300
DSPRM_F_S
  0
DICTIONARY
  5
3E9E
102
{ACAD_REACTORS
330
C
102
}
330
C
100
AcDbDictionary
281
     1
  0
DICTIONARY
  5
3EB7
102
{ACAD_REACTORS
330
C
102
}
330
C
100
AcDbDictionary
281
     1
  3
Metric50
350
3EB8
  0
DICTIONARY
  5
D
102
{ACAD_REACTORS
330
C
102
}
330
C
100
AcDbDictionary
281
     1
  0
DICTIONARY
  5
1A
102
{ACAD_REACTORS
330
C
102
}
330
C
100
AcDbDictionary
281
     1
  3
Model
350
22
  3
ﾚｲｱｳﾄ1
350
1E
  3
ﾚｲｱｳﾄ2
350
26
  0
DICTIONARY
  5
3E6C
102
{ACAD_REACTORS
330
C
102
}
330
C
100
AcDbDictionary
281
     1
  3
ByBlock
350
3E75
  3
ByLayer
350
3E6D
  3
Global
350
3E7D
  0
DICTIONARY
  5
3EB3
102
{ACAD_REACTORS
330
C
102
}
330
C
100
AcDbDictionary
281
     1
  3
Standard
350
3EB4
  0
DICTIONARY
  5
17
102
{ACAD_REACTORS
330
C
102
}
330
C
100
AcDbDictionary
281
     1
  3
Standard
350
18
  0
DICTIONARY
  5
19
102
{ACAD_REACTORS
330
C
102
}
330
C
100
AcDbDictionary
281
     1
  0
ACDBDICTIONARYWDFLT
  5
E
102
{ACAD_REACTORS
330
C
102
}
330
C
100
AcDbDictionary
281
     1
  3
Normal
350
F
100
AcDbDictionaryWithDefault
340
F
  0
DICTIONARY
  5
3EA1
102
{ACAD_REACTORS
330
C
102
}
330
C
100
AcDbDictionary
281
     1
  3
A0
350
3EA2
  3
A1
350
3EA3
  3
A2
350
3EA4
  3
A3
350
3EA5
  3
A4
350
3EA6
  3
A5
350
3EA7
  3
A6
350
3EA8
  3
A7
350
3EA9
  3
A8
350
3EAA
  3
A9
350
3EAB
  3
B0
350
3EAC
  3
B1
350
3EAD
  3
B2
350
3EAE
  3
B3
350
3EAF
  3
B4
350
3EB0
  3
B5
350
3EB1
  3
B6
350
3EB2
  0
DICTIONARY
  5
3EB5
102
{ACAD_REACTORS
330
C
102
}
330
C
100
AcDbDictionary
281
     1
  3
Metric50
350
3EB6
  0
DICTIONARY
  5
3E9F
102
{ACAD_REACTORS
330
C
102
}
330
C
100
AcDbDictionary
281
     1
  3
Standard
350
3EA0
  0
DICTIONARY
  5
3E85
102
{ACAD_REACTORS
330
C
102
}
330
C
100
AcDbDictionary
281
     1
  3
2dWireframe
350
3E8B
  3
Basic
350
3E8A
  3
Brighten
350
3E91
  3
ColorChange
350
3E95
  3
Conceptual
350
3E8E
  3
Dim
350
3E90
  3
EdgeColorOff
350
3E9D
  3
Facepattern
350
3E94
  3
Flat
350
3E86
  3
FlatWithEdges
350
3E87
  3
Gouraud
350
3E88
  3
GouraudWithEdges
350
3E89
  3
Hidden
350
3E8D
  3
JitterOff
350
3E9B
  3
Linepattern
350
3E93
  3
OverhangOff
350
3E9C
  3
Realistic
350
3E8F
  3
Shaded
350
3E9A
  3
Shaded with edges
350
3E99
  3
Shades of Gray
350
3E96
  3
Sketchy
350
3E97
  3
Thicken
350
3E92
  3
Wireframe
350
3E8C
  3
X-Ray
350
3E98
  0
XRECORD
  5
4414
102
{ACAD_REACTORS
330
C
102
}
330
C
100
AcDbXrecord
280
     1
 90
        1
330
3EA0
  0
DICTIONARY
  5
C7
102
{ACAD_REACTORS
330
C
102
}
330
C
100
AcDbDictionary
281
     1
  3
CANNOSCALE
350
3FED
  3
CMLEADERSTYLE
350
3FE9
  3
CTABLESTYLE
350
3FE8
  3
CVIEWDETAILSTYLE
350
3FEA
  3
CVIEWSECTIONSTYLE
350
3FEB
  3
DIMASSOC
350
C9
  3
EXPORTMODELSPACE
350
429F
  3
HIDETEXT
350
C8
  3
LAYEREVAL
350
3FEF
  3
LAYERNOTIFY
350
3FF0
  3
LIGHTINGUNITS
350
3FEE
  3
MSLTSCALE
350
3FEC
  0
DICTIONARY
  5
441A
102
{ACAD_REACTORS
330
C
102
}
330
C
100
AcDbDictionary
281
     1
  3
AcDsRecords
350
441C
  3
AcDsSchemas
350
441B
1001
ACAD
1070
     2
  0
DICTIONARY
  5
4029
102
{ACAD_REACTORS
330
4028
102
}
330
4028
100
AcDbDictionary
281
     1
  0
XRECORD
  5
3F7C
102
{ACAD_REACTORS
330
3F7B
102
}
330
3F7B
100
AcDbXrecord
280
     1
290
     1
  0
XRECORD
  5
3F7E
102
{ACAD_REACTORS
330
3F7D
102
}
330
3F7D
100
AcDbXrecord
280
     1
290
     1
  0
XRECORD
  5
3F80
102
{ACAD_REACTORS
330
3F7F
102
}
330
3F7F
100
AcDbXrecord
280
     1
290
     1
  0
XRECORD
  5
3F82
102
{ACAD_REACTORS
330
3F81
102
}
330
3F81
100
AcDbXrecord
280
     1
290
     1
  0
XRECORD
  5
3F84
102
{ACAD_REACTORS
330
3F83
102
}
330
3F83
100
AcDbXrecord
280
     1
290
     1
  0
XRECORD
  5
3F86
102
{ACAD_REACTORS
330
3F85
102
}
330
3F85
100
AcDbXrecord
280
     1
290
     1
  0
XRECORD
  5
3F88
102
{ACAD_REACTORS
330
3F87
102
}
330
3F87
100
AcDbXrecord
280
     1
290
     1
  0
XRECORD
  5
3F8A
102
{ACAD_REACTORS
330
3F89
102
}
330
3F89
100
AcDbXrecord
280
     1
290
     1
  0
XRECORD
  5
3F8C
102
{ACAD_REACTORS
330
3F8B
102
}
330
3F8B
100
AcDbXrecord
280
     1
290
     1
  0
SORTENTSTABLE
  5
3EEC
102
{ACAD_REACTORS
330
3EEB
102
}
330
3EEB
100
AcDbSortentsTable
330
1F
331
326E
  5
326E
331
3766
  5
3766
331
3727
  5
3727
331
3266
  5
3266
331
3762
  5
3762
331
3723
  5
3723
331
375E
  5
375E
331
36E0
  5
36E0
331
375A
  5
375A
331
3858
  5
3858
331
368D
  5
368D
331
324A
  5
324A
331
3689
  5
3689
331
36DC
  5
36DC
331
371B
  5
371B
331
3756
  5
3756
331
3717
  5
3717
331
3685
  5
3685
331
3242
  5
3242
331
3752
  5
3752
331
3713
  5
3713
331
378D
  5
378D
331
374E
  5
374E
331
3850
  5
3850
331
3789
  5
3789
331
3DB0
  5
3DC7
331
374A
  5
374A
331
3DAC
  5
3DB1
331
367D
  5
367D
331
2F66
  5
2F66
331
370F
  5
370F
331
3679
  5
3679
331
370B
  5
370B
331
36BC
  5
36BC
331
2F62
  5
2F62
331
3675
  5
3675
331
2F5E
  5
2F5E
331
3707
  5
3707
331
3785
  5
3785
331
3746
  5
3746
331
36B8
  5
36B8
331
C3
  5
C3
331
3703
  5
3703
331
3742
  5
3742
331
3781
  5
3781
331
36B4
  5
36B4
331
2F5A
  5
2F5A
331
3ACA
  5
3C8B
331
373E
  5
373E
331
36B0
  5
36B0
331
3779
  5
3779
331
2F56
  5
2F56
331
36FF
  5
36FF
331
36AC
  5
36AC
331
36FB
  5
36FB
331
3279
  5
3279
331
2F4E
  5
2F4E
331
3275
  5
3275
331
3775
  5
3775
331
3736
  5
3736
331
36A8
  5
36A8
331
36F7
  5
36F7
331
36F3
  5
36F3
331
3771
  5
3771
331
3732
  5
3732
331
36A4
  5
36A4
331
376D
  5
376D
331
372E
  5
372E
331
3AB6
  5
3ABE
331
372A
  5
372A
331
326D
  5
326D
331
36EF
  5
36EF
331
3694
  5
3694
331
3765
  5
3765
331
3726
  5
3726
331
3761
  5
3761
331
3722
  5
3722
331
3690
  5
3690
331
375D
  5
375D
331
3759
  5
3759
331
368C
  5
368C
331
36DF
  5
36DF
331
3688
  5
3688
331
371A
  5
371A
331
3249
  5
3249
331
3755
  5
3755
331
3716
  5
3716
331
3751
  5
3751
331
36CB
  5
36CB
331
3712
  5
3712
331
3DB3
  5
3E29
331
381F
  5
381F
331
374D
  5
374D
331
378C
  5
378C
331
3749
  5
3749
331
3788
  5
3788
331
3DAF
  5
3DBD
331
3DAB
  5
3DB0
331
367C
  5
367C
331
36BF
  5
36BF
331
370E
  5
370E
331
36BB
  5
36BB
331
370A
  5
370A
331
2F61
  5
2F61
331
2F5D
  5
2F5D
331
3674
  5
3674
331
3706
  5
3706
331
3784
  5
3784
331
37FF
  5
37FF
331
3745
  5
3745
331
36B7
  5
36B7
331
3702
  5
3702
331
3780
  5
3780
331
36B3
  5
36B3
331
2F59
  5
2F59
331
377C
  5
377C
331
3AC9
  5
3C06
331
373D
  5
373D
331
3739
  5
3739
331
36FE
  5
36FE
331
36AF
  5
36AF
331
3278
  5
3278
331
36FA
  5
36FA
331
36AB
  5
36AB
331
2F51
  5
2F51
331
3274
  5
3274
331
3774
  5
3774
331
3735
  5
3735
331
36F6
  5
36F6
331
36F2
  5
36F2
331
3731
  5
3731
331
3770
  5
3770
331
36A3
  5
36A3
331
372D
  5
372D
331
376C
  5
376C
331
3729
  5
3729
331
3768
  5
3768
331
3AB1
  5
3ABB
331
36EE
  5
36EE
331
3264
  5
3264
331
3764
  5
3764
331
3725
  5
3725
331
3760
  5
3760
331
375C
  5
375C
331
3758
  5
3758
331
368F
  5
368F
331
368B
  5
368B
331
3719
  5
3719
331
3244
  5
3244
331
3A15
  5
3AB1
331
3754
  5
3754
331
3715
  5
3715
331
3750
  5
3750
331
3711
  5
3711
331
378B
  5
378B
331
3DB2
  5
3E24
331
374C
  5
374C
331
3748
  5
3748
331
3DAE
  5
3DB3
331
367F
  5
367F
331
367B
  5
367B
331
370D
  5
370D
331
36BE
  5
36BE
331
3677
  5
3677
331
3709
  5
3709
331
3787
  5
3787
331
36BA
  5
36BA
331
2F60
  5
2F60
331
2F5C
  5
2F5C
331
3705
  5
3705
331
3783
  5
3783
331
37FE
  5
37FE
331
3744
  5
3744
331
36B6
  5
36B6
331
3ACC
  5
3C93
331
377F
  5
377F
331
36B2
  5
36B2
331
3701
  5
3701
331
2F58
  5
2F58
331
373C
  5
373C
331
377B
  5
377B
331
3738
  5
3738
331
36AE
  5
36AE
331
36FD
  5
36FD
331
3777
  5
3777
331
36AA
  5
36AA
331
36F9
  5
36F9
331
3277
  5
3277
331
3273
  5
3273
331
3773
  5
3773
331
3734
  5
3734
331
36F1
  5
36F1
331
376F
  5
376F
331
36A2
  5
36A2
331
376B
  5
376B
331
3AB8
  5
3AC2
331
372C
  5
372C
331
3728
  5
3728
331
326F
  5
326F
331
326B
  5
326B
331
36ED
  5
36ED
331
3767
  5
3767
331
3267
  5
3267
331
3763
  5
3763
331
3724
  5
3724
331
3720
  5
3720
331
36E1
  5
36E1
331
375B
  5
375B
331
3DBD
  5
3E2A
331
3859
  5
3859
331
368E
  5
368E
331
368A
  5
368A
331
3757
  5
3757
331
3718
  5
3718
331
3686
  5
3686
331
3243
  5
3243
331
3753
  5
3753
331
3714
  5
3714
331
374F
  5
374F
331
378E
  5
378E
331
3710
  5
3710
331
3DB1
  5
3DC8
331
374B
  5
374B
331
378A
  5
378A
331
3DAD
  5
3DB2
331
367E
  5
367E
331
2F63
  5
2F63
331
367A
  5
367A
331
36BD
  5
36BD
331
370C
  5
370C
331
3786
  5
3786
331
3747
  5
3747
331
36B9
  5
36B9
331
3708
  5
3708
331
2F5F
  5
2F5F
331
3676
  5
3676
331
2F5B
  5
2F5B
331
3704
  5
3704
331
3782
  5
3782
331
3743
  5
3743
331
36B5
  5
36B5
331
3700
  5
3700
331
3ACB
  5
3C8C
331
373F
  5
373F
331
36B1
  5
36B1
331
377A
  5
377A
331
373B
  5
373B
331
2F57
  5
2F57
331
327A
  5
327A
331
2F53
  5
2F53
331
36FC
  5
36FC
331
36AD
  5
36AD
331
54
  5
54
331
3276
  5
3276
331
3776
  5
3776
331
3737
  5
3737
331
36A9
  5
36A9
331
2F4F
  5
2F4F
331
3272
  5
3272
331
36F4
  5
36F4
331
3772
  5
3772
331
3733
  5
3733
331
36A5
  5
36A5
331
3ABB
  5
3AC4
331
372F
  5
372F
331
376E
  5
376E
331
36F0
  5
36F0
331
3AB7
  5
3AC1
331
372B
  5
372B
331
3AB3
  5
3ABD
331
3DC8
  5
3E2D
  0
DIMASSOC
  5
3696
102
{ACAD_REACTORS
330
3695
102
}
330
3695
100
AcDbDimAssoc
330
3694
 90
        1
 70
     0
 71
     0
  1
AcDbOsnapPointRef
 72
     1
331
3685
 73
     2
 91
        0
 40
1.0
 10
-596.301191913694
 20
-459.720388582235
 30
0.0
 75
     0
  0
DIMASSOC
  5
36DE
102
{ACAD_REACTORS
330
36DD
102
}
330
36DD
100
AcDbDimAssoc
330
36DC
 90
        2
 70
     0
 71
     0
  1
AcDbOsnapPointRef
 72
     1
331
3737
 73
     2
 91
        0
 40
1.0
 10
-441.1304963377364
 20
-484.220388582235
 30
0.0
 75
     0
  0
DIMASSOC
  5
3741
102
{ACAD_REACTORS
330
3740
102
}
330
3740
100
AcDbDimAssoc
330
373F
 90
        3
 70
     0
 71
     0
  1
AcDbOsnapPointRef
 72
     5
331
3752
 73
     2
 91
        0
 40
3.141592653589793
 10
-598.3011919136941
 20
-377.4030513846984
 30
0.0
 75
     0
  1
AcDbOsnapPointRef
 72
     5
331
3767
 73
     2
 91
        0
 40
6.283185307179586
 10
-535.3011919136941
 20
-377.4030513846984
 30
0.0
 75
     0
  0
ACDBDETAILVIEWSTYLE
  5
3EB8
102
{ACAD_XDICTIONARY
360
4452
102
}
102
{ACAD_REACTORS
330
3EB7
102
}
330
3EB7
100
AcDbModelDocViewStyle
 70
     0
  3
Metric50
290
     0
100
AcDbDetailViewStyle
 70
     0
 71
     0
 90
        3
 71
     1
340
11
 62
   256
 40
5.0
340
0
 62
   256
 40
5.0
300

 40
0.0
280
     1
 71
     2
340
16
 90
       25
 62
   256
 71
     3
340
11
 62
   256
 40
5.0
 90
        0
 40
15.0
 90
        1
300
%<\AcVar ViewDetailId>% (%<\AcVar ViewScale \f "%sn">%)
 71
     4
340
16
 90
       25
 62
   256
340
16
 90
       25
 62
   256
280
     0
  0
LAYOUT
  5
22
102
{ACAD_XDICTIONARY
360
429D
102
}
102
{ACAD_REACTORS
330
1A
102
}
330
1A
100
AcDbPlotSettings
  1

  2
OKI MC860(PS) (一時).pc3
  4
A4
  6

 40
5.365749835968017
 41
5.365741252899169
 42
5.4080810546875
 43
5.365753173828125
 44
297.0530090332031
 45
209.8886566162109
 46
71.6101251386727
 47
0.0
 48
-592.614156523251
 49
-384.9554536070325
140
-424.5986112198688
141
-264.2662275127154
142
1.0
143
0.8436329552814552
 70
 11956
 72
     1
 73
     1
 74
     4
  7
monochrome.stb
 75
     0
147
1.185349616488579
 76
     0
 77
     2
 78
   300
148
592.614156523251
149
384.9554536070325
100
AcDbLayout
  1
Model
 70
     1
 71
     0
 10
0.0
 20
0.0
 11
12.0
 21
9.0
 12
0.0
 22
0.0
 32
0.0
 14
0.0
 24
0.0
 34
0.0
 15
0.0
 25
0.0
 35
0.0
146
0.0
 13
0.0
 23
0.0
 33
0.0
 16
1.0
 26
0.0
 36
0.0
 17
0.0
 27
1.0
 37
0.0
 76
     0
330
1F
331
3E6A
1001
ACAD_PSEXT
1000
OKI MC860(PS) (一時).pc3
1000
OKI MC860(PS)
1000
192.168.1.200
1000

1070
     0
  0
LAYOUT
  5
1E
102
{ACAD_REACTORS
330
1A
102
}
330
1A
100
AcDbPlotSettings
  1

  2
EPSON PM-3000C ESC/P R (コピー 3)
  4

  6

 40
0.0
 41
0.0
 42
0.0
 43
0.0
 44
0.0
 45
0.0
 46
0.0
 47
0.0
 48
0.0
 49
0.0
140
0.0
141
0.0
142
1.0
143
1.0
 70
   688
 72
     0
 73
     0
 74
     5
  7
monochrome.stb
 75
    16
147
1.0
 76
     0
 77
     2
 78
   300
148
0.0
149
0.0
100
AcDbLayout
  1
ﾚｲｱｳﾄ1
 70
     1
 71
     1
 10
0.0
 20
0.0
 11
420.0
 21
297.0
 12
0.0
 22
0.0
 32
0.0
 14
1.000000000000000E+20
 24
1.000000000000000E+20
 34
1.000000000000000E+20
 15
-1.000000000000000E+20
 25
-1.000000000000000E+20
 35
-1.000000000000000E+20
146
0.0
 13
0.0
 23
0.0
 33
0.0
 16
1.0
 26
0.0
 36
0.0
 17
0.0
 27
1.0
 37
0.0
 76
     0
330
1B
  0
LAYOUT
  5
26
102
{ACAD_REACTORS
330
1A
102
}
330
1A
100
AcDbPlotSettings
  1

  2
EPSON PM-3000C ESC/P R (コピー 3)
  4

  6

 40
0.0
 41
0.0
 42
0.0
 43
0.0
 44
0.0
 45
0.0
 46
0.0
 47
0.0
 48
0.0
 49
0.0
140
0.0
141
0.0
142
1.0
143
1.0
 70
   688
 72
     0
 73
     0
 74
     5
  7
monochrome.stb
 75
    16
147
1.0
 76
     0
 77
     2
 78
   300
148
0.0
149
0.0
100
AcDbLayout
  1
ﾚｲｱｳﾄ2
 70
     1
 71
     2
 10
0.0
 20
0.0
 11
12.0
 21
9.0
 12
0.0
 22
0.0
 32
0.0
 14
0.0
 24
0.0
 34
0.0
 15
0.0
 25
0.0
 35
0.0
146
0.0
 13
0.0
 23
0.0
 33
0.0
 16
1.0
 26
0.0
 36
0.0
 17
0.0
 27
1.0
 37
0.0
 76
     0
330
23
  0
MATERIAL
  5
3E75
102
{ACAD_XDICTIONARY
360
3E76
102
}
102
{ACAD_REACTORS
330
3E6C
102
}
330
3E6C
100
AcDbMaterial
  1
ByBlock
 72
     0
 43
0.0008202099737533
 43
0.0
 43
0.0
 43
0.0
 43
0.0
 43
0.0008202099737533
 43
0.0
 43
0.0
 43
0.0
 43
0.0
 43
1.0
 43
0.0
 43
0.0
 43
0.0
 43
0.0
 43
1.0
 77
     0
 47
0.0008202099737533
 47
0.0
 47
0.0
 47
0.0
 47
0.0
 47
0.0008202099737533
 47
0.0
 47
0.0
 47
0.0
 47
0.0
 47
1.0
 47
0.0
 47
0.0
 47
0.0
 47
0.0
 47
1.0
171
     0
 49
0.0008202099737533
 49
0.0
 49
0.0
 49
0.0
 49
0.0
 49
0.0008202099737533
 49
0.0
 49
0.0
 49
0.0
 49
0.0
 49
1.0
 49
0.0
 49
0.0
 49
0.0
 49
0.0
 49
1.0
175
     0
142
0.0008202099737533
142
0.0
142
0.0
142
0.0
142
0.0
142
0.0008202099737533
142
0.0
142
0.0
142
0.0
142
0.0
142
1.0
142
0.0
142
0.0
142
0.0
142
0.0
142
1.0
179
     0
144
0.0008202099737533
144
0.0
144
0.0
144
0.0
144
0.0
144
0.0008202099737533
144
0.0
144
0.0
144
0.0
144
0.0
144
1.0
144
0.0
144
0.0
144
0.0
144
0.0
144
1.0
147
0.0008202099737533
147
0.0
147
0.0
147
0.0
147
0.0
147
0.0008202099737533
147
0.0
147
0.0
147
0.0
147
0.0
147
1.0
147
0.0
147
0.0
147
0.0
147
0.0
147
1.0
  0
MATERIAL
  5
3E6D
102
{ACAD_XDICTIONARY
360
3E6E
102
}
102
{ACAD_REACTORS
330
3E6C
102
}
330
3E6C
100
AcDbMaterial
  1
ByLayer
 72
     0
 43
0.0008202099737533
 43
0.0
 43
0.0
 43
0.0
 43
0.0
 43
0.0008202099737533
 43
0.0
 43
0.0
 43
0.0
 43
0.0
 43
1.0
 43
0.0
 43
0.0
 43
0.0
 43
0.0
 43
1.0
 77
     0
 47
0.0008202099737533
 47
0.0
 47
0.0
 47
0.0
 47
0.0
 47
0.0008202099737533
 47
0.0
 47
0.0
 47
0.0
 47
0.0
 47
1.0
 47
0.0
 47
0.0
 47
0.0
 47
0.0
 47
1.0
171
     0
 49
0.0008202099737533
 49
0.0
 49
0.0
 49
0.0
 49
0.0
 49
0.0008202099737533
 49
0.0
 49
0.0
 49
0.0
 49
0.0
 49
1.0
 49
0.0
 49
0.0
 49
0.0
 49
0.0
 49
1.0
175
     0
142
0.0008202099737533
142
0.0
142
0.0
142
0.0
142
0.0
142
0.0008202099737533
142
0.0
142
0.0
142
0.0
142
0.0
142
1.0
142
0.0
142
0.0
142
0.0
142
0.0
142
1.0
179
     0
144
0.0008202099737533
144
0.0
144
0.0
144
0.0
144
0.0
144
0.0008202099737533
144
0.0
144
0.0
144
0.0
144
0.0
144
1.0
144
0.0
144
0.0
144
0.0
144
0.0
144
1.0
147
0.0008202099737533
147
0.0
147
0.0
147
0.0
147
0.0
147
0.0008202099737533
147
0.0
147
0.0
147
0.0
147
0.0
147
1.0
147
0.0
147
0.0
147
0.0
147
0.0
147
1.0
  0
MATERIAL
  5
3E7D
102
{ACAD_XDICTIONARY
360
3E7E
102
}
102
{ACAD_REACTORS
330
3E6C
102
}
330
3E6C
100
AcDbMaterial
  1
Global
 72
     0
 43
0.0008202099737533
 43
0.0
 43
0.0
 43
0.0
 43
0.0
 43
0.0008202099737533
 43
0.0
 43
0.0
 43
0.0
 43
0.0
 43
1.0
 43
0.0
 43
0.0
 43
0.0
 43
0.0
 43
1.0
 77
     0
 47
0.0008202099737533
 47
0.0
 47
0.0
 47
0.0
 47
0.0
 47
0.0008202099737533
 47
0.0
 47
0.0
 47
0.0
 47
0.0
 47
1.0
 47
0.0
 47
0.0
 47
0.0
 47
0.0
 47
1.0
171
     0
 49
0.0008202099737533
 49
0.0
 49
0.0
 49
0.0
 49
0.0
 49
0.0008202099737533
 49
0.0
 49
0.0
 49
0.0
 49
0.0
 49
1.0
 49
0.0
 49
0.0
 49
0.0
 49
0.0
 49
1.0
175
     0
142
0.0008202099737533
142
0.0
142
0.0
142
0.0
142
0.0
142
0.0008202099737533
142
0.0
142
0.0
142
0.0
142
0.0
142
1.0
142
0.0
142
0.0
142
0.0
142
0.0
142
1.0
179
     0
144
0.0008202099737533
144
0.0
144
0.0
144
0.0
144
0.0
144
0.0008202099737533
144
0.0
144
0.0
144
0.0
144
0.0
144
1.0
144
0.0
144
0.0
144
0.0
144
0.0
144
1.0
147
0.0008202099737533
147
0.0
147
0.0
147
0.0
147
0.0
147
0.0008202099737533
147
0.0
147
0.0
147
0.0
147
0.0
147
1.0
147
0.0
147
0.0
147
0.0
147
0.0
147
1.0
  0
MLEADERSTYLE
  5
3EB4
102
{ACAD_XDICTIONARY
360
444E
102
}
102
{ACAD_REACTORS
330
3EB3
102
}
330
3EB3
100
AcDbMLeaderStyle
179
     2
170
     2
171
     1
172
     0
 90
        2
 40
0.0
 41
0.0
173
     1
 91
-1056964608
340
14
 92
       -2
290
     1
 42
2.0
291
     1
 43
0.36
  3
Standard
 44
4.0
300

342
11
174
     1
178
     6
175
     1
176
     0
 93
-1056964608
 45
4.0
292
     0
297
     0
 46
4.0
 94
-1056964608
 47
1.0
 49
1.0
140
1.0
293
     1
141
0.0
294
     1
177
     0
142
1.0
295
     0
296
     0
143
0.125
271
     0
272
     9
273
     9
  0
MLINESTYLE
  5
18
102
{ACAD_REACTORS
330
17
102
}
330
17
100
AcDbMlineStyle
  2
STANDARD
 70
     0
  3

 62
   256
 51
90.0
 52
90.0
 71
     2
 49
0.5
 62
   256
  6
BYLAYER
 49
-0.5
 62
   256
  6
BYLAYER
  0
ACDBPLACEHOLDER
  5
F
102
{ACAD_REACTORS
330
E
102
}
330
E
  0
SCALE
  5
3EA2
102
{ACAD_REACTORS
330
3EA1
102
}
330
3EA1
100
AcDbScale
 70
     0
300
1:1
140
1.0
141
1.0
290
     1
  0
SCALE
  5
3EA3
102
{ACAD_REACTORS
330
3EA1
102
}
330
3EA1
100
AcDbScale
 70
     0
300
1:2
140
1.0
141
2.0
290
     0
  0
SCALE
  5
3EA4
102
{ACAD_REACTORS
330
3EA1
102
}
330
3EA1
100
AcDbScale
 70
     0
300
1:4
140
1.0
141
4.0
290
     0
  0
SCALE
  5
3EA5
102
{ACAD_REACTORS
330
3EA1
102
}
330
3EA1
100
AcDbScale
 70
     0
300
1:5
140
1.0
141
5.0
290
     0
  0
SCALE
  5
3EA6
102
{ACAD_REACTORS
330
3EA1
102
}
330
3EA1
100
AcDbScale
 70
     0
300
1:8
140
1.0
141
8.0
290
     0
  0
SCALE
  5
3EA7
102
{ACAD_REACTORS
330
3EA1
102
}
330
3EA1
100
AcDbScale
 70
     0
300
1:10
140
1.0
141
10.0
290
     0
  0
SCALE
  5
3EA8
102
{ACAD_REACTORS
330
3EA1
102
}
330
3EA1
100
AcDbScale
 70
     0
300
1:16
140
1.0
141
16.0
290
     0
  0
SCALE
  5
3EA9
102
{ACAD_REACTORS
330
3EA1
102
}
330
3EA1
100
AcDbScale
 70
     0
300
1:20
140
1.0
141
20.0
290
     0
  0
SCALE
  5
3EAA
102
{ACAD_REACTORS
330
3EA1
102
}
330
3EA1
100
AcDbScale
 70
     0
300
1:30
140
1.0
141
30.0
290
     0
  0
SCALE
  5
3EAB
102
{ACAD_REACTORS
330
3EA1
102
}
330
3EA1
100
AcDbScale
 70
     0
300
1:40
140
1.0
141
40.0
290
     0
  0
SCALE
  5
3EAC
102
{ACAD_REACTORS
330
3EA1
102
}
330
3EA1
100
AcDbScale
 70
     0
300
1:50
140
1.0
141
50.0
290
     0
  0
SCALE
  5
3EAD
102
{ACAD_REACTORS
330
3EA1
102
}
330
3EA1
100
AcDbScale
 70
     0
300
1:100
140
1.0
141
100.0
290
     0
  0
SCALE
  5
3EAE
102
{ACAD_REACTORS
330
3EA1
102
}
330
3EA1
100
AcDbScale
 70
     0
300
2:1
140
2.0
141
1.0
290
     0
  0
SCALE
  5
3EAF
102
{ACAD_REACTORS
330
3EA1
102
}
330
3EA1
100
AcDbScale
 70
     0
300
4:1
140
4.0
141
1.0
290
     0
  0
SCALE
  5
3EB0
102
{ACAD_REACTORS
330
3EA1
102
}
330
3EA1
100
AcDbScale
 70
     0
300
8:1
140
8.0
141
1.0
290
     0
  0
SCALE
  5
3EB1
102
{ACAD_REACTORS
330
3EA1
102
}
330
3EA1
100
AcDbScale
 70
     0
300
10:1
140
10.0
141
1.0
290
     0
  0
SCALE
  5
3EB2
102
{ACAD_REACTORS
330
3EA1
102
}
330
3EA1
100
AcDbScale
 70
     0
300
100:1
140
100.0
141
1.0
290
     0
  0
ACDBSECTIONVIEWSTYLE
  5
3EB6
102
{ACAD_XDICTIONARY
360
4450
102
}
102
{ACAD_REACTORS
330
3EB5
102
}
330
3EB5
100
AcDbModelDocViewStyle
 70
     0
  3
Metric50
290
     0
100
AcDbSectionViewStyle
 70
     0
 71
     0
 90
      102
 71
     1
340
11
 62
   256
 40
5.0
340
0
340
0
 62
   256
 40
5.0
300
I, O, Q, S, X, Z
 40
10.0
 90
        0
 40
2.5
 90
        0
 71
     2
340
16
 90
       25
 62
   256
340
16
 90
       50
 62
   256
 40
5.0
 40
2.5
 40
5.0
 71
     3
340
11
 62
   256
 40
5.0
 90
        0
 40
15.0
 90
        1
300
%<\AcVar ViewSectionStartId>%-%<\AcVar ViewSectionEndId>% (%<\AcVar ViewScale \f "%sn">%)
 71
     4
 62
   256
 62
   257
300
ANSI31
 40
1.0
 90
        0
290
     0
290
     0
 90
        6
 40
0.0
 40
1.570796326794896
 40
0.2617993877991494
 40
1.308996938995747
 40
-0.2617993877991494
 40
1.832595714594046
  0
TABLESTYLE
  5
3EA0
102
{ACAD_XDICTIONARY
360
3FB1
102
}
102
{ACAD_REACTORS
330
3E9F
102
}
330
3E9F
100
AcDbTableStyle
280
     0
  3
Standard
 70
     0
 71
     0
 40
1.5
 41
1.5
280
     0
281
     0
  7
Standard
140
4.5
170
     2
 62
     0
 63
     7
283
     0
 90
      512
 91
        0
  1

274
    -2
284
     1
 64
     0
275
    -2
285
     1
 65
     0
276
    -2
286
     1
 66
     0
277
    -2
287
     1
 67
     0
278
    -2
288
     1
 68
     0
279
    -2
289
     1
 69
     0
  7
Standard
140
6.0
170
     5
 62
     0
 63
     7
283
     0
 90
      512
 91
        0
  1

274
    -2
284
     1
 64
     0
275
    -2
285
     1
 65
     0
276
    -2
286
     1
 66
     0
277
    -2
287
     1
 67
     0
278
    -2
288
     1
 68
     0
279
    -2
289
     1
 69
     0
  7
Standard
140
4.5
170
     5
 62
     0
 63
     7
283
     0
 90
      512
 91
        0
  1

274
    -2
284
     1
 64
     0
275
    -2
285
     1
 65
     0
276
    -2
286
     1
 66
     0
277
    -2
287
     1
 67
     0
278
    -2
288
     1
 68
     0
279
    -2
289
     1
 69
     0
  0
VISUALSTYLE
  5
3E8B
102
{ACAD_XDICTIONARY
360
4428
102
}
102
{ACAD_REACTORS
330
3E85
102
}
330
3E85
100
AcDbVisualStyle
  2
2dWireframe
 70
     4
177
     2
291
     0
 71
     0
176
     1
 72
     2
176
     1
 73
     0
176
     1
 90
        0
176
     1
 40
0.6
176
     1
 41
30.0
176
     1
 63
     7
421
 16777215
176
     1
 74
     1
176
     1
 91
        4
176
     1
 64
     7
176
     1
 65
   257
176
     1
 75
     1
176
     1
175
     1
176
     1
 42
1.0
176
     1
 92
        0
176
     1
 66
   257
176
     1
 43
1.0
176
     1
 76
     1
176
     1
 77
     6
176
     1
 78
     2
176
     1
 67
     7
176
     1
 79
     5
176
     1
170
     0
176
     1
171
     0
176
     1
290
     0
176
     1
 93
        1
176
     1
 44
0.0
176
     1
173
     0
176
     1
1001
ACAD
1000
AcDbSavedByObjectVersion
1070
     0
  0
VISUALSTYLE
  5
3E8A
102
{ACAD_XDICTIONARY
360
4426
102
}
102
{ACAD_REACTORS
330
3E85
102
}
330
3E85
100
AcDbVisualStyle
  2
Basic
 70
     7
177
     2
291
     1
 71
     1
176
     1
 72
     0
176
     1
 73
     1
176
     1
 90
        0
176
     1
 40
0.6
176
     1
 41
30.0
176
     1
 63
     7
421
 16777215
176
     1
 74
     0
176
     1
 91
        4
176
     1
 64
     7
176
     1
 65
   257
176
     1
 75
     1
176
     1
175
     1
176
     1
 42
1.0
176
     1
 92
        8
176
     1
 66
     7
176
     1
 43
1.0
176
     1
 76
     1
176
     1
 77
     6
176
     1
 78
     2
176
     1
 67
     7
176
     1
 79
     5
176
     1
170
     0
176
     1
171
     0
176
     1
290
     0
176
     1
 93
        1
176
     1
 44
0.0
176
     1
173
     0
176
     1
1001
ACAD
1000
AcDbSavedByObjectVersion
1070
     0
  0
VISUALSTYLE
  5
3E91
102
{ACAD_XDICTIONARY
360
4434
102
}
102
{ACAD_REACTORS
330
3E85
102
}
330
3E85
100
AcDbVisualStyle
  2
Brighten
 70
    12
177
     2
291
     1
 71
     2
176
     1
 72
     2
176
     1
 73
     0
176
     1
 90
        0
176
     1
 40
0.6
176
     1
 41
30.0
176
     1
 63
     7
421
 16777215
176
     1
 74
     1
176
     1
 91
        4
176
     1
 64
     7
176
     1
 65
   257
176
     1
 75
     1
176
     1
175
     1
176
     1
 42
1.0
176
     1
 92
        8
176
     1
 66
     7
176
     1
 43
1.0
176
     1
 76
     1
176
     1
 77
     6
176
     1
 78
     2
176
     1
 67
     7
176
     1
 79
     5
176
     1
170
     0
176
     1
171
     0
176
     1
290
     0
176
     1
 93
        1
176
     1
 44
50.0
176
     1
173
     0
176
     1
1001
ACAD
1000
AcDbSavedByObjectVersion
1070
     0
  0
VISUALSTYLE
  5
3E95
102
{ACAD_XDICTIONARY
360
443C
102
}
102
{ACAD_REACTORS
330
3E85
102
}
330
3E85
100
AcDbVisualStyle
  2
ColorChange
 70
    16
177
     2
291
     1
 71
     2
176
     1
 72
     2
176
     1
 73
     3
176
     1
 90
        0
176
     1
 40
0.6
176
     1
 41
30.0
176
     1
 63
     8
421
  8421504
176
     1
 74
     1
176
     1
 91
        4
176
     1
 64
     7
176
     1
 65
   257
176
     1
 75
     1
176
     1
175
     1
176
     1
 42
1.0
176
     1
 92
        8
176
     1
 66
     8
424
  8421504
176
     1
 43
1.0
176
     1
 76
     1
176
     1
 77
     6
176
     1
 78
     2
176
     1
 67
     7
176
     1
 79
     5
176
     1
170
     0
176
     1
171
     0
176
     1
290
     0
176
     1
 93
        1
176
     1
 44
0.0
176
     1
173
     0
176
     1
1001
ACAD
1000
AcDbSavedByObjectVersion
1070
     0
  0
VISUALSTYLE
  5
3E8E
102
{ACAD_XDICTIONARY
360
442E
102
}
102
{ACAD_REACTORS
330
3E85
102
}
330
3E85
100
AcDbVisualStyle
  2
Conceptual
 70
     9
177
     2
291
     0
 71
     3
176
     1
 72
     2
176
     1
 73
     0
176
     1
 90
        0
176
     1
 40
0.6
176
     1
 41
30.0
176
     1
 63
     7
421
 16777215
176
     1
 74
     2
176
     1
 91
        2
176
     1
 64
     7
176
     1
 65
   257
176
     1
 75
     1
176
     1
175
     1
176
     1
 42
179.0
176
     1
 92
        8
176
     1
 66
     7
176
     1
 43
1.0
176
     1
 76
     1
176
     1
 77
     6
176
     1
 78
     2
176
     1
 67
     7
176
     1
 79
     3
176
     1
170
     0
176
     1
171
     0
176
     1
290
     0
176
     1
 93
        1
176
     1
 44
0.0
176
     1
173
     0
176
     1
1001
ACAD
1000
AcDbSavedByObjectVersion
1070
     0
  0
VISUALSTYLE
  5
3E90
102
{ACAD_XDICTIONARY
360
4432
102
}
102
{ACAD_REACTORS
330
3E85
102
}
330
3E85
100
AcDbVisualStyle
  2
Dim
 70
    11
177
     2
291
     1
 71
     2
176
     1
 72
     2
176
     1
 73
     0
176
     1
 90
        0
176
     1
 40
0.6
176
     1
 41
30.0
176
     1
 63
     7
421
 16777215
176
     1
 74
     1
176
     1
 91
        4
176
     1
 64
     7
176
     1
 65
   257
176
     1
 75
     1
176
     1
175
     1
176
     1
 42
1.0
176
     1
 92
        8
176
     1
 66
     7
176
     1
 43
1.0
176
     1
 76
     1
176
     1
 77
     6
176
     1
 78
     2
176
     1
 67
     7
176
     1
 79
     5
176
     1
170
     0
176
     1
171
     0
176
     1
290
     0
176
     1
 93
        1
176
     1
 44
-50.0
176
     1
173
     0
176
     1
1001
ACAD
1000
AcDbSavedByObjectVersion
1070
     0
  0
VISUALSTYLE
  5
3E9D
102
{ACAD_XDICTIONARY
360
444C
102
}
102
{ACAD_REACTORS
330
3E85
102
}
330
3E85
100
AcDbVisualStyle
  2
EdgeColorOff
 70
    22
177
     2
291
     1
 71
     2
176
     0
 72
     2
176
     0
 73
     0
176
     0
 90
        0
176
     0
 40
0.6
176
     0
 41
30.0
176
     0
 63
     7
421
 16777215
176
     0
 74
     1
176
     0
 91
        4
176
     0
 64
     7
176
     0
 65
   257
176
     0
 75
     1
176
     0
175
     1
176
     0
 42
1.0
176
     0
 92
        8
176
     2
 66
     7
176
     0
 43
1.0
176
     0
 76
     1
176
     0
 77
     6
176
     0
 78
     2
176
     0
 67
     7
176
     0
 79
     5
176
     0
170
     0
176
     0
171
     0
176
     0
290
     0
176
     0
 93
        1
176
     0
 44
0.0
176
     0
173
     0
176
     0
1001
ACAD
1000
AcDbSavedByObjectVersion
1070
     0
  0
VISUALSTYLE
  5
3E94
102
{ACAD_XDICTIONARY
360
443A
102
}
102
{ACAD_REACTORS
330
3E85
102
}
330
3E85
100
AcDbVisualStyle
  2
Facepattern
 70
    15
177
     2
291
     1
 71
     2
176
     1
 72
     2
176
     1
 73
     0
176
     1
 90
        0
176
     1
 40
0.6
176
     1
 41
30.0
176
     1
 63
     7
421
 16777215
176
     1
 74
     1
176
     1
 91
        4
176
     1
 64
     7
176
     1
 65
   257
176
     1
 75
     1
176
     1
175
     1
176
     1
 42
1.0
176
     1
 92
        8
176
     1
 66
     7
176
     1
 43
1.0
176
     1
 76
     1
176
     1
 77
     6
176
     1
 78
     2
176
     1
 67
     7
176
     1
 79
     5
176
     1
170
     0
176
     1
171
     0
176
     1
290
     0
176
     1
 93
        1
176
     1
 44
0.0
176
     1
173
     0
176
     1
1001
ACAD
1000
AcDbSavedByObjectVersion
1070
     0
  0
VISUALSTYLE
  5
3E86
102
{ACAD_XDICTIONARY
360
441E
102
}
102
{ACAD_REACTORS
330
3E85
102
}
330
3E85
100
AcDbVisualStyle
  2
Flat
 70
     0
177
     2
291
     1
 71
     2
176
     1
 72
     1
176
     1
 73
     1
176
     1
 90
        2
176
     1
 40
0.6
176
     1
 41
30.0
176
     1
 63
     7
421
 16777215
176
     1
 74
     0
176
     1
 91
        0
176
     1
 64
     7
176
     1
 65
   257
176
     1
 75
     1
176
     1
175
     1
176
     1
 42
1.0
176
     1
 92
        8
176
     1
 66
     7
176
     1
 43
1.0
176
     1
 76
     1
176
     1
 77
     6
176
     1
 78
     2
176
     1
 67
     7
176
     1
 79
     5
176
     1
170
     0
176
     1
171
     0
176
     1
290
     0
176
     1
 93
       13
176
     1
 44
0.0
176
     1
173
     0
176
     1
1001
ACAD
1000
AcDbSavedByObjectVersion
1070
     0
  0
VISUALSTYLE
  5
3E87
102
{ACAD_XDICTIONARY
360
4420
102
}
102
{ACAD_REACTORS
330
3E85
102
}
330
3E85
100
AcDbVisualStyle
  2
FlatWithEdges
 70
     1
177
     2
291
     1
 71
     2
176
     1
 72
     1
176
     1
 73
     1
176
     1
 90
        2
176
     1
 40
0.6
176
     1
 41
30.0
176
     1
 63
     7
421
 16777215
176
     1
 74
     1
176
     1
 91
        0
176
     1
 64
     7
176
     1
 65
   257
176
     1
 75
     1
176
     1
175
     1
176
     1
 42
1.0
176
     1
 92
        0
176
     1
 66
   257
176
     1
 43
1.0
176
     1
 76
     1
176
     1
 77
     6
176
     1
 78
     2
176
     1
 67
     7
176
     1
 79
     5
176
     1
170
     0
176
     1
171
     0
176
     1
290
     0
176
     1
 93
       13
176
     1
 44
0.0
176
     1
173
     0
176
     1
1001
ACAD
1000
AcDbSavedByObjectVersion
1070
     0
  0
VISUALSTYLE
  5
3E88
102
{ACAD_XDICTIONARY
360
4422
102
}
102
{ACAD_REACTORS
330
3E85
102
}
330
3E85
100
AcDbVisualStyle
  2
Gouraud
 70
     2
177
     2
291
     1
 71
     2
176
     1
 72
     2
176
     1
 73
     1
176
     1
 90
        2
176
     1
 40
0.6
176
     1
 41
30.0
176
     1
 63
     7
421
 16777215
176
     1
 74
     0
176
     1
 91
        0
176
     1
 64
     7
176
     1
 65
   257
176
     1
 75
     1
176
     1
175
     1
176
     1
 42
1.0
176
     1
 92
        0
176
     1
 66
     7
176
     1
 43
1.0
176
     1
 76
     1
176
     1
 77
     6
176
     1
 78
     2
176
     1
 67
     7
176
     1
 79
     5
176
     1
170
     0
176
     1
171
     0
176
     1
290
     0
176
     1
 93
       13
176
     1
 44
0.0
176
     1
173
     0
176
     1
1001
ACAD
1000
AcDbSavedByObjectVersion
1070
     0
  0
VISUALSTYLE
  5
3E89
102
{ACAD_XDICTIONARY
360
4424
102
}
102
{ACAD_REACTORS
330
3E85
102
}
330
3E85
100
AcDbVisualStyle
  2
GouraudWithEdges
 70
     3
177
     2
291
     1
 71
     2
176
     1
 72
     2
176
     1
 73
     1
176
     1
 90
        2
176
     1
 40
0.6
176
     1
 41
30.0
176
     1
 63
     7
421
 16777215
176
     1
 74
     1
176
     1
 91
        0
176
     1
 64
     7
176
     1
 65
   257
176
     1
 75
     1
176
     1
175
     1
176
     1
 42
1.0
176
     1
 92
        0
176
     1
 66
   257
176
     1
 43
1.0
176
     1
 76
     1
176
     1
 77
     6
176
     1
 78
     2
176
     1
 67
     7
176
     1
 79
     5
176
     1
170
     0
176
     1
171
     0
176
     1
290
     0
176
     1
 93
       13
176
     1
 44
0.0
176
     1
173
     0
176
     1
1001
ACAD
1000
AcDbSavedByObjectVersion
1070
     0
  0
VISUALSTYLE
  5
3E8D
102
{ACAD_XDICTIONARY
360
442C
102
}
102
{ACAD_REACTORS
330
3E85
102
}
330
3E85
100
AcDbVisualStyle
  2
Hidden
 70
     6
177
     2
291
     0
 71
     1
176
     1
 72
     2
176
     1
 73
     2
176
     1
 90
        0
176
     1
 40
0.6
176
     1
 41
30.0
176
     1
 63
     7
421
 16777215
176
     1
 74
     2
176
     1
 91
        2
176
     1
 64
     7
176
     1
 65
   257
176
     1
 75
     2
176
     1
175
     1
176
     1
 42
40.0
176
     1
 92
        0
176
     1
 66
   257
176
     1
 43
1.0
176
     1
 76
     1
176
     1
 77
     6
176
     1
 78
     2
176
     1
 67
     7
176
     1
 79
     3
176
     1
170
     0
176
     1
171
     0
176
     1
290
     0
176
     1
 93
        1
176
     1
 44
0.0
176
     1
173
     0
176
     1
1001
ACAD
1000
AcDbSavedByObjectVersion
1070
     0
  0
VISUALSTYLE
  5
3E9B
102
{ACAD_XDICTIONARY
360
4448
102
}
102
{ACAD_REACTORS
330
3E85
102
}
330
3E85
100
AcDbVisualStyle
  2
JitterOff
 70
    20
177
     2
291
     1
 71
     2
176
     0
 72
     2
176
     0
 73
     0
176
     0
 90
        0
176
     0
 40
0.6
176
     0
 41
30.0
176
     0
 63
     7
421
 16777215
176
     0
 74
     1
176
     0
 91
        4
176
     0
 64
     7
176
     0
 65
   257
176
     0
 75
     1
176
     0
175
     1
176
     0
 42
1.0
176
     0
 92
       10
176
     2
 66
     7
176
     0
 43
1.0
176
     0
 76
     1
176
     0
 77
     6
176
     0
 78
     2
176
     0
 67
     7
176
     0
 79
     5
176
     0
170
     0
176
     0
171
     0
176
     0
290
     0
176
     0
 93
        1
176
     0
 44
0.0
176
     0
173
     0
176
     0
1001
ACAD
1000
AcDbSavedByObjectVersion
1070
     0
  0
VISUALSTYLE
  5
3E93
102
{ACAD_XDICTIONARY
360
4438
102
}
102
{ACAD_REACTORS
330
3E85
102
}
330
3E85
100
AcDbVisualStyle
  2
Linepattern
 70
    14
177
     2
291
     1
 71
     2
176
     1
 72
     2
176
     1
 73
     0
176
     1
 90
        0
176
     1
 40
0.6
176
     1
 41
30.0
176
     1
 63
     7
421
 16777215
176
     1
 74
     1
176
     1
 91
        4
176
     1
 64
     7
176
     1
 65
   257
176
     1
 75
     7
176
     1
175
     7
176
     1
 42
1.0
176
     1
 92
        8
176
     1
 66
     7
176
     1
 43
1.0
176
     1
 76
     1
176
     1
 77
     6
176
     1
 78
     2
176
     1
 67
     7
176
     1
 79
     5
176
     1
170
     0
176
     1
171
     0
176
     1
290
     0
176
     1
 93
        1
176
     1
 44
0.0
176
     1
173
     0
176
     1
1001
ACAD
1000
AcDbSavedByObjectVersion
1070
     0
  0
VISUALSTYLE
  5
3E9C
102
{ACAD_XDICTIONARY
360
444A
102
}
102
{ACAD_REACTORS
330
3E85
102
}
330
3E85
100
AcDbVisualStyle
  2
OverhangOff
 70
    21
177
     2
291
     1
 71
     2
176
     0
 72
     2
176
     0
 73
     0
176
     0
 90
        0
176
     0
 40
0.6
176
     0
 41
30.0
176
     0
 63
     7
421
 16777215
176
     0
 74
     1
176
     0
 91
        4
176
     0
 64
     7
176
     0
 65
   257
176
     0
 75
     1
176
     0
175
     1
176
     0
 42
1.0
176
     0
 92
        9
176
     2
 66
     7
176
     0
 43
1.0
176
     0
 76
     1
176
     0
 77
     6
176
     0
 78
     2
176
     0
 67
     7
176
     0
 79
     5
176
     0
170
     0
176
     0
171
     0
176
     0
290
     0
176
     0
 93
        1
176
     0
 44
0.0
176
     0
173
     0
176
     0
1001
ACAD
1000
AcDbSavedByObjectVersion
1070
     0
  0
VISUALSTYLE
  5
3E8F
102
{ACAD_XDICTIONARY
360
4430
102
}
102
{ACAD_REACTORS
330
3E85
102
}
330
3E85
100
AcDbVisualStyle
  2
Realistic
 70
     8
177
     2
291
     0
 71
     2
176
     1
 72
     2
176
     1
 73
     0
176
     1
 90
        2
176
     1
 40
0.6
176
     1
 41
30.0
176
     1
 63
     7
421
 16777215
176
     1
 74
     0
176
     1
 91
        0
176
     1
 64
     7
176
     1
 65
   257
176
     1
 75
     1
176
     1
175
     1
176
     1
 42
1.0
176
     1
 92
        8
176
     1
 66
   257
176
     1
 43
1.0
176
     1
 76
     1
176
     1
 77
     6
176
     1
 78
     2
176
     1
 67
     7
176
     1
 79
     3
176
     1
170
     0
176
     1
171
     0
176
     1
290
     0
176
     1
 93
       13
176
     1
 44
0.0
176
     1
173
     0
176
     1
1001
ACAD
1000
AcDbSavedByObjectVersion
1070
     0
  0
VISUALSTYLE
  5
3E9A
102
{ACAD_XDICTIONARY
360
4446
102
}
102
{ACAD_REACTORS
330
3E85
102
}
330
3E85
100
AcDbVisualStyle
  2
Shaded
 70
    27
177
     2
291
     0
 71
     2
176
     1
 72
     2
176
     1
 73
     1
176
     1
 90
        2
176
     1
 40
0.6
176
     1
 41
30.0
176
     1
 63
     7
421
 16777215
176
     1
 74
     0
176
     1
 91
        4
176
     1
 64
     7
176
     1
 65
   257
176
     1
 75
     1
176
     1
175
     1
176
     1
 42
1.0
176
     1
 92
        8
176
     1
 66
   257
176
     1
 43
1.0
176
     1
 76
     1
176
     1
 77
     6
176
     1
 78
     2
176
     1
 67
     8
425
  7895160
176
     1
 79
     3
176
     1
170
     0
176
     1
171
     0
176
     1
290
     0
176
     1
 93
        5
176
     1
 44
0.0
176
     1
173
     0
176
     1
1001
ACAD
1000
AcDbSavedByObjectVersion
1070
     0
  0
VISUALSTYLE
  5
3E99
102
{ACAD_XDICTIONARY
360
4444
102
}
102
{ACAD_REACTORS
330
3E85
102
}
330
3E85
100
AcDbVisualStyle
  2
Shaded with edges
 70
    26
177
     2
291
     0
 71
     2
176
     1
 72
     2
176
     1
 73
     1
176
     1
 90
        2
176
     1
 40
0.6
176
     1
 41
30.0
176
     1
 63
     7
421
 16777215
176
     1
 74
     1
176
     1
 91
       10
176
     1
 64
     7
176
     1
 65
   257
176
     1
 75
     2
176
     1
175
     1
176
     1
 42
1.0
176
     1
 92
        8
176
     1
 66
   257
176
     1
 43
1.0
176
     1
 76
     1
176
     1
 77
     6
176
     1
 78
     2
176
     1
 67
     7
176
     1
 79
     3
176
     1
170
     0
176
     1
171
     0
176
     1
290
     0
176
     1
 93
        5
176
     1
 44
0.0
176
     1
173
     0
176
     1
1001
ACAD
1000
AcDbSavedByObjectVersion
1070
     0
  0
VISUALSTYLE
  5
3E96
102
{ACAD_XDICTIONARY
360
443E
102
}
102
{ACAD_REACTORS
330
3E85
102
}
330
3E85
100
AcDbVisualStyle
  2
Shades of Gray
 70
    23
177
     2
291
     0
 71
     2
176
     1
 72
     2
176
     1
 73
     3
176
     1
 90
        0
176
     1
 40
0.6
176
     1
 41
30.0
176
     1
 63
     7
421
 16777215
176
     1
 74
     2
176
     1
 91
        2
176
     1
 64
     7
176
     1
 65
     7
176
     1
 75
     1
176
     1
175
     1
176
     1
 42
40.0
176
     1
 92
        8
176
     1
 66
     7
176
     1
 43
1.0
176
     1
 76
     1
176
     1
 77
     6
176
     1
 78
     2
176
     1
 67
     7
176
     1
 79
     3
176
     1
170
     0
176
     1
171
     0
176
     1
290
     0
176
     1
 93
        1
176
     1
 44
0.0
176
     1
173
     0
176
     1
1001
ACAD
1000
AcDbSavedByObjectVersion
1070
     0
  0
VISUALSTYLE
  5
3E97
102
{ACAD_XDICTIONARY
360
4440
102
}
102
{ACAD_REACTORS
330
3E85
102
}
330
3E85
100
AcDbVisualStyle
  2
Sketchy
 70
    24
177
     2
291
     0
 71
     1
176
     1
 72
     2
176
     1
 73
     2
176
     1
 90
        0
176
     1
 40
0.6
176
     1
 41
30.0
176
     1
 63
     7
421
 16777215
176
     1
 74
     2
176
     1
 91
        2
176
     1
 64
     7
176
     1
 65
     7
176
     1
 75
     1
176
     1
175
     1
176
     1
 42
40.0
176
     1
 92
       11
176
     1
 66
     7
176
     1
 43
1.0
176
     1
 76
     1
176
     1
 77
     6
176
     1
 78
     2
176
     1
 67
     7
176
     1
 79
     6
176
     1
170
     0
176
     1
171
     0
176
     1
290
     0
176
     1
 93
        1
176
     1
 44
0.0
176
     1
173
     0
176
     1
1001
ACAD
1000
AcDbSavedByObjectVersion
1070
     0
  0
VISUALSTYLE
  5
3E92
102
{ACAD_XDICTIONARY
360
4436
102
}
102
{ACAD_REACTORS
330
3E85
102
}
330
3E85
100
AcDbVisualStyle
  2
Thicken
 70
    13
177
     2
291
     1
 71
     2
176
     1
 72
     2
176
     1
 73
     0
176
     1
 90
        0
176
     1
 40
0.6
176
     1
 41
30.0
176
     1
 63
     7
421
 16777215
176
     1
 74
     1
176
     1
 91
        4
176
     1
 64
     7
176
     1
 65
   257
176
     1
 75
     1
176
     1
175
     1
176
     1
 42
1.0
176
     1
 92
       12
176
     1
 66
     7
176
     1
 43
1.0
176
     1
 76
     1
176
     1
 77
     6
176
     1
 78
     2
176
     1
 67
     7
176
     1
 79
     5
176
     1
170
     0
176
     1
171
     0
176
     1
290
     0
176
     1
 93
        1
176
     1
 44
0.0
176
     1
173
     0
176
     1
1001
ACAD
1000
AcDbSavedByObjectVersion
1070
     0
  0
VISUALSTYLE
  5
3E8C
102
{ACAD_XDICTIONARY
360
442A
102
}
102
{ACAD_REACTORS
330
3E85
102
}
330
3E85
100
AcDbVisualStyle
  2
Wireframe
 70
     5
177
     2
291
     0
 71
     0
176
     1
 72
     2
176
     1
 73
     0
176
     1
 90
        0
176
     1
 40
0.6
176
     1
 41
30.0
176
     1
 63
     7
421
 16777215
176
     1
 74
     1
176
     1
 91
        4
176
     1
 64
     7
176
     1
 65
   257
176
     1
 75
     1
176
     1
175
     1
176
     1
 42
1.0
176
     1
 92
        0
176
     1
 66
   257
176
     1
 43
1.0
176
     1
 76
     1
176
     1
 77
     6
176
     1
 78
     2
176
     1
 67
     7
176
     1
 79
     3
176
     1
170
     0
176
     1
171
     0
176
     1
290
     0
176
     1
 93
        1
176
     1
 44
0.0
176
     1
173
     0
176
     1
1001
ACAD
1000
AcDbSavedByObjectVersion
1070
     0
  0
VISUALSTYLE
  5
3E98
102
{ACAD_XDICTIONARY
360
4442
102
}
102
{ACAD_REACTORS
330
3E85
102
}
330
3E85
100
AcDbVisualStyle
  2
X-Ray
 70
    25
177
     2
291
     0
 71
     2
176
     1
 72
     2
176
     1
 73
     1
176
     1
 90
        1
176
     1
 40
0.5
176
     1
 41
30.0
176
     1
 63
     7
421
 16777215
176
     1
 74
     1
176
     1
 91
        0
176
     1
 64
     7
176
     1
 65
   257
176
     1
 75
     1
176
     1
175
     1
176
     1
 42
1.0
176
     1
 92
        8
176
     1
 66
     7
176
     1
 43
1.0
176
     1
 76
     1
176
     1
 77
     6
176
     1
 78
     2
176
     1
 67
     7
176
     1
 79
     3
176
     1
170
     0
176
     1
171
     0
176
     1
290
     0
176
     1
 93
       13
176
     1
 44
0.0
176
     1
173
     0
176
     1
1001
ACAD
1000
AcDbSavedByObjectVersion
1070
     0
  0
DICTIONARYVAR
  5
3FED
102
{ACAD_REACTORS
330
C7
102
}
330
C7
100
DictionaryVariables
280
     0
  1
1:1
  0
DICTIONARYVAR
  5
3FE9
102
{ACAD_REACTORS
330
C7
102
}
330
C7
100
DictionaryVariables
280
     0
  1
STANDARD
  0
DICTIONARYVAR
  5
3FE8
102
{ACAD_REACTORS
330
C7
102
}
330
C7
100
DictionaryVariables
280
     0
  1
STANDARD
  0
DICTIONARYVAR
  5
3FEA
102
{ACAD_REACTORS
330
C7
102
}
330
C7
100
DictionaryVariables
280
     0
  1
Metric50
  0
DICTIONARYVAR
  5
3FEB
102
{ACAD_REACTORS
330
C7
102
}
330
C7
100
DictionaryVariables
280
     0
  1
Metric50
  0
DICTIONARYVAR
  5
C9
102
{ACAD_REACTORS
330
C7
102
}
330
C7
100
DictionaryVariables
280
     0
  1
2
  0
DICTIONARYVAR
  5
429F
102
{ACAD_REACTORS
330
C7
102
}
330
C7
100
DictionaryVariables
280
     0
  1
2
  0
DICTIONARYVAR
  5
C8
102
{ACAD_REACTORS
330
C7
102
}
330
C7
100
DictionaryVariables
280
     0
  1
1
  0
DICTIONARYVAR
  5
3FEF
102
{ACAD_REACTORS
330
C7
102
}
330
C7
100
DictionaryVariables
280
     0
  1
1
  0
DICTIONARYVAR
  5
3FF0
102
{ACAD_REACTORS
330
C7
102
}
330
C7
100
DictionaryVariables
280
     0
  1
15
  0
DICTIONARYVAR
  5
3FEE
102
{ACAD_REACTORS
330
C7
102
}
330
C7
100
DictionaryVariables
280
     0
  1
0
  0
DICTIONARYVAR
  5
3FEC
102
{ACAD_REACTORS
330
C7
102
}
330
C7
100
DictionaryVariables
280
     0
  1
0
  0
DICTIONARY
  5
441C
102
{ACAD_REACTORS
330
441A
102
}
330
441A
100
AcDbDictionary
281
     1
  0
DICTIONARY
  5
441B
102
{ACAD_REACTORS
330
441A
102
}
330
441A
100
AcDbDictionary
281
     1
  3
8796084953808
350
4415
  3
8796084953824
350
4416
  3
8796084953840
350
4417
  3
8796084953856
350
4418
  3
8796084953872
350
4419
  0
DICTIONARY
  5
4452
330
3EB8
100
AcDbDictionary
280
     1
281
     1
  3
ACAD_XREC_ROUNDTRIP
360
4453
  0
DICTIONARY
  5
429D
330
22
100
AcDbDictionary
280
     1
281
     1
  3
AcPublish_PlotSettingsOverride
360
429E
  3
ADSK_XREC_LAYOUTTHUMBNAIL
360
42E9
  0
DICTIONARY
  5
3E76
330
3E75
100
AcDbDictionary
280
     1
281
     1
  3
BUMPTILE
360
3E78
  3
DIFFUSETILE
360
3E77
  3
OPACITYTILE
360
3E7B
  3
REFLECTIONTILE
360
3E7A
  3
REFRACTIONTILE
360
3E7C
  3
SPECULARTILE
360
3E79
  0
DICTIONARY
  5
3E6E
330
3E6D
100
AcDbDictionary
280
     1
281
     1
  3
BUMPTILE
360
3E70
  3
DIFFUSETILE
360
3E6F
  3
OPACITYTILE
360
3E73
  3
REFLECTIONTILE
360
3E72
  3
REFRACTIONTILE
360
3E74
  3
SPECULARTILE
360
3E71
  0
DICTIONARY
  5
3E7E
330
3E7D
100
AcDbDictionary
280
     1
281
     1
  3
BUMPTILE
360
3E80
  3
DIFFUSETILE
360
3E7F
  3
OPACITYTILE
360
3E83
  3
REFLECTIONTILE
360
3E82
  3
REFRACTIONTILE
360
3E84
  3
SPECULARTILE
360
3E81
  0
DICTIONARY
  5
444E
330
3EB4
100
AcDbDictionary
280
     1
281
     1
  3
ACAD_XREC_ROUNDTRIP
360
444F
  0
DICTIONARY
  5
4450
330
3EB6
100
AcDbDictionary
280
     1
281
     1
  3
ACAD_XREC_ROUNDTRIP
360
4451
  0
DICTIONARY
  5
3FB1
330
3EA0
100
AcDbDictionary
280
     1
281
     1
  3
ACAD_ROUNDTRIP_2008_TABLESTYLE_CELLSTYLEMAP
360
4413
  0
DICTIONARY
  5
4428
330
3E8B
100
AcDbDictionary
280
     1
281
     1
  3
ACAD_XREC_ROUNDTRIP
360
4429
  0
DICTIONARY
  5
4426
330
3E8A
100
AcDbDictionary
280
     1
281
     1
  3
ACAD_XREC_ROUNDTRIP
360
4427
  0
DICTIONARY
  5
4434
330
3E91
100
AcDbDictionary
280
     1
281
     1
  3
ACAD_XREC_ROUNDTRIP
360
4435
  0
DICTIONARY
  5
443C
330
3E95
100
AcDbDictionary
280
     1
281
     1
  3
ACAD_XREC_ROUNDTRIP
360
443D
  0
DICTIONARY
  5
442E
330
3E8E
100
AcDbDictionary
280
     1
281
     1
  3
ACAD_XREC_ROUNDTRIP
360
442F
  0
DICTIONARY
  5
4432
330
3E90
100
AcDbDictionary
280
     1
281
     1
  3
ACAD_XREC_ROUNDTRIP
360
4433
  0
DICTIONARY
  5
444C
330
3E9D
100
AcDbDictionary
280
     1
281
     1
  3
ACAD_XREC_ROUNDTRIP
360
444D
  0
DICTIONARY
  5
443A
330
3E94
100
AcDbDictionary
280
     1
281
     1
  3
ACAD_XREC_ROUNDTRIP
360
443B
  0
DICTIONARY
  5
441E
330
3E86
100
AcDbDictionary
280
     1
281
     1
  3
ACAD_XREC_ROUNDTRIP
360
441F
  0
DICTIONARY
  5
4420
330
3E87
100
AcDbDictionary
280
     1
281
     1
  3
ACAD_XREC_ROUNDTRIP
360
4421
  0
DICTIONARY
  5
4422
330
3E88
100
AcDbDictionary
280
     1
281
     1
  3
ACAD_XREC_ROUNDTRIP
360
4423
  0
DICTIONARY
  5
4424
330
3E89
100
AcDbDictionary
280
     1
281
     1
  3
ACAD_XREC_ROUNDTRIP
360
4425
  0
DICTIONARY
  5
442C
330
3E8D
100
AcDbDictionary
280
     1
281
     1
  3
ACAD_XREC_ROUNDTRIP
360
442D
  0
DICTIONARY
  5
4448
330
3E9B
100
AcDbDictionary
280
     1
281
     1
  3
ACAD_XREC_ROUNDTRIP
360
4449
  0
DICTIONARY
  5
4438
330
3E93
100
AcDbDictionary
280
     1
281
     1
  3
ACAD_XREC_ROUNDTRIP
360
4439
  0
DICTIONARY
  5
444A
330
3E9C
100
AcDbDictionary
280
     1
281
     1
  3
ACAD_XREC_ROUNDTRIP
360
444B
  0
DICTIONARY
  5
4430
330
3E8F
100
AcDbDictionary
280
     1
281
     1
  3
ACAD_XREC_ROUNDTRIP
360
4431
  0
DICTIONARY
  5
4446
330
3E9A
100
AcDbDictionary
280
     1
281
     1
  3
ACAD_XREC_ROUNDTRIP
360
4447
  0
DICTIONARY
  5
4444
330
3E99
100
AcDbDictionary
280
     1
281
     1
  3
ACAD_XREC_ROUNDTRIP
360
4445
  0
DICTIONARY
  5
443E
330
3E96
100
AcDbDictionary
280
     1
281
     1
  3
ACAD_XREC_ROUNDTRIP
360
443F
  0
DICTIONARY
  5
4440
330
3E97
100
AcDbDictionary
280
     1
281
     1
  3
ACAD_XREC_ROUNDTRIP
360
4441
  0
DICTIONARY
  5
4436
330
3E92
100
AcDbDictionary
280
     1
281
     1
  3
ACAD_XREC_ROUNDTRIP
360
4437
  0
DICTIONARY
  5
442A
330
3E8C
100
AcDbDictionary
280
     1
281
     1
  3
ACAD_XREC_ROUNDTRIP
360
442B
  0
DICTIONARY
  5
4442
330
3E98
100
AcDbDictionary
280
     1
281
     1
  3
ACAD_XREC_ROUNDTRIP
360
4443
  0
XRECORD
  5
4415
102
{ACAD_REACTORS
330
441B
102
}
330
441B
100
AcDbXrecord
280
     1
  1
AcDb_Thumbnail_Schema
102
{ATTRRECORD
341
4416
  2
AcDbDs::TreatedAsObjectData
280
     1
291
     1
102
ATTRRECORD}
102
{ATTRRECORD
341
4417
  2
AcDbDs::Legacy
280
     1
291
     1
102
ATTRRECORD}
  2
AcDbDs::ID
280
    10
 91
        8
102
{ATTRRECORD
341
4418
  2
AcDs:Indexable
280
     1
291
     1
102
ATTRRECORD}
102
{ATTRRECORD
341
4419
  2
AcDbDs::HandleAttribute
280
     7
282
     1
102
ATTRRECORD}
  2
Thumbnail_Data
280
    15
 91
        0
  0
XRECORD
  5
4416
102
{ACAD_REACTORS
330
441B
102
}
330
441B
100
AcDbXrecord
280
     1
  1
AcDbDs::TreatedAsObjectDataSchema
  2
AcDbDs::TreatedAsObjectData
280
     1
 91
        0
  0
XRECORD
  5
4417
102
{ACAD_REACTORS
330
441B
102
}
330
441B
100
AcDbXrecord
280
     1
  1
AcDbDs::LegacySchema
  2
AcDbDs::Legacy
280
     1
 91
        0
  0
XRECORD
  5
4418
102
{ACAD_REACTORS
330
441B
102
}
330
441B
100
AcDbXrecord
280
     1
  1
AcDbDs::IndexedPropertySchema
  2
AcDs:Indexable
280
     1
 91
        0
  0
XRECORD
  5
4419
102
{ACAD_REACTORS
330
441B
102
}
330
441B
100
AcDbXrecord
280
     1
  1
AcDbDs::HandleAttributeSchema
  2
AcDbDs::HandleAttribute
280
     7
 91
        1
284
     1
  0
XRECORD
  5
4453
102
{ACAD_REACTORS
330
4452
102
}
330
4452
100
AcDbXrecord
280
     1
102
DISPLAYNAME
  1
Metric50
102
FLAGS
 90
        0
  0
PLOTSETTINGS
  5
429E
102
{ACAD_REACTORS
330
429D
102
}
330
429D
100
AcDbPlotSettings
  1

  2
OKI MC860(PS) (一時).pc3
  4
ANSI_A_(8.50_x_11.00_Inches)
  6

 40
5.365749835968017
 41
5.365741252899169
 42
5.4080810546875
 43
5.365753173828125
 44
297.0530090332031
 45
209.8886566162109
 46
1.910351460942735
 47
0.0
 48
-230.2063926974977
 49
-594.7030134835974
140
-1.40639269750693
141
-270.2030134836102
142
1.0
143
1.148841434998476
 70
 11956
 72
     1
 73
     1
 74
     4
  7
monochrome.stb
 75
     0
147
0.8704421424365895
 76
     0
 77
     2
 78
   300
148
230.2063926974977
149
594.7030134835974
1001
ACAD_PSEXT
1000
OKI MC860(PS) (一時).pc3
1000
OKI MC860(PS)
1000
192.168.1.200
1000

1070
     0
  0
XRECORD
  5
42E9
102
{ACAD_REACTORS
330
429D
102
}
330
429D
100
AcDbXrecord
280
     1
310
28000000000100005100000001000800000000000051000001000000010000000001000000000000000000FF000000FFFFFFFFFF000000FF000000FF000000FF000000FF000000FF000000FF000000FF000000FF330000FF660000FF990000FFCC0000FFFF0000FF003300FF333300FF663300FF993300FFCC3300FFFF3300
310
FF006600FF336600FF666600FF996600FFCC6600FFFF6600FF009900FF339900FF669900FF999900FFCC9900FFFF9900FF00CC00FF33CC00FF66CC00FF99CC00FFCCCC00FFFFCC00FF00FF00FF33FF00FF66FF00FF99FF00FFCCFF00FFFFFF00FF000033FF330033FF660033FF990033FFCC0033FFFF0033FF003333FF3333
310
33FF663333FF993333FFCC3333FFFF3333FF006633FF336633FF666633FF996633FFCC6633FFFF6633FF009933FF339933FF669933FF999933FFCC9933FFFF9933FF00CC33FF33CC33FF66CC33FF99CC33FFCCCC33FFFFCC33FF00FF33FF33FF33FF66FF33FF99FF33FFCCFF33FFFFFF33FF000066FF330066FF660066FF99
310
0066FFCC0066FFFF0066FF003366FF333366FF663366FF993366FFCC3366FFFF3366FF006666FF336666FF666666FF996666FFCC6666FFFF6666FF009966FF339966FF669966FF999966FFCC9966FFFF9966FF00CC66FF33CC66FF66CC66FF99CC66FFCCCC66FFFFCC66FF00FF66FF33FF66FF66FF66FF99FF66FFCCFF66FF
310
FFFF66FF000099FF330099FF660099FF990099FFCC0099FFFF0099FF003399FF333399FF663399FF993399FFCC3399FFFF3399FF006699FF336699FF666699FF996699FFCC6699FFFF6699FF009999FF339999FF669999FF999999FFCC9999FFFF9999FF00CC99FF33CC99FF66CC99FF99CC99FFCCCC99FFFFCC99FF00FF99
310
FF33FF99FF66FF99FF99FF99FFCCFF99FFFFFF99FF0000CCFF3300CCFF6600CCFF9900CCFFCC00CCFFFF00CCFF0033CCFF3333CCFF6633CCFF9933CCFFCC33CCFFFF33CCFF0066CCFF3366CCFF6666CCFF9966CCFFCC66CCFFFF66CCFF0099CCFF3399CCFF6699CCFF9999CCFFCC99CCFFFF99CCFF00CCCCFF33CCCCFF66CC
310
CCFF99CCCCFFCCCCCCFFFFCCCCFF00FFCCFF33FFCCFF66FFCCFF99FFCCFFCCFFCCFFFFFFCCFF0000FFFF3300FFFF6600FFFF9900FFFFCC00FFFFFF00FFFF0033FFFF3333FFFF6633FFFF9933FFFFCC33FFFFFF33FFFF0066FFFF3366FFFF6666FFFF9966FFFFCC66FFFFFF66FFFF0099FFFF3399FFFF6699FFFF9999FFFFCC
310
99FFFFFF99FFFF00CCFFFF33CCFFFF66CCFFFF99CCFFFFCCCCFFFFFFCCFFFF00FFFFFF33FFFFFF66FFFFFF99FFFFFFCCFFFFFFFFFFFFFF000000FF0D0D0DFF1A1A1AFF282828FF353535FF434343FF505050FF5D5D5DFF6B6B6BFF787878FF868686FF939393FFA1A1A1FFAEAEAEFFBBBBBBFFC9C9C9FFD6D6D6FFE4E4E4FF
310
F1F1F1FFFFFFFFFF000000FF000000FF000000FF000000FF000000FF000000FF000000FF000000FF000000FF0000000000000000000000000000000000000000000000000000000000000000000000000000000000000000000000000000000000000000000000000000000000000000000000000000000000000000000000
310
00000000000000000000000000000000000000000000000000000000000000000000000000000000000000000000000000000000000000000000000000000000000000000000000000000000000000000000000000000000000000000000000000000000000000000000000000000000000000000000000000000000000000
310
00000000000000000000000000000000000000000000000000000000000000000000000000000000000000000000000000000000000000000000000000000000000000000000000000000000000000000000000000000000000000000000000000000000000000000000000000000000000000000000000000000000000000
310
00000000000000000000000000000000000000000000000000000000000000000000000000000000000000000000000000000000000000000000000000000000000000000000000000000000000000000000000000000000000000000000000000000000000000000000000000000000000000000000000000000000000000
310
00000000000000000000000000000000000000000000000000000000000000000000000000000000000000000000000000000000000000000000000000000000000000000000000000000000000000000000000000000000000000000000000000000000000000000000000000000000000000000000000000000000000000
310
00000000000000000000000000000000000000000000000000000000000000000000000000000000000000000000000000000000000000000000000000000000000000000000000000000000000000000000000000000000000000000000000000000000000000000000000000000000000000000000000000000000000000
310
00000000000000000000000000000000000000000000000000000000000000000000000000000000000000000000000000000000000000000000000000000000000000000000000000000000000000000000000000000000000000000000000000000000000000000000000000000000000000000000000000000000000000
310
00000000000000000000000000000000000000000000000000000000000000000000000000000000000000000000000000000000000000000000000000000000000000000000000000000000000000000000000000000000000000000000000000000000000000000000000000000000000000000000000000000000000000
310
00000000000000000000000000000000000000000000000000000000000000000000000000000000000000000000000000000000000000000000000000000000000000000000000000000000000000000000000000000000000000000000000000000000000000000000000000000000000000000000000000000000000000
310
00000000000000000000000000000000000000000000000000000000000000000000000000000000000000000000000000000000000000000000000000000000000000000000000000000000000000000000000000000000000000000000000000000000000000000000000000000000000000000000000000000000000000
310
00000000000000000000000000000000000000000000000000000000000000000000000000000000000000000000000000000000000000000000000000000000000000000000000000000000000000000000000000000000000000000000000000000000000000000000000000000000000000000000000000000000000000
310
00000000000000000000000000000000000000000000000000000000000000000000000000000000000000000000000000000000000000000000000000000000000000000000000000000000000000000000000000000000000000000000000000000000000000000000000000000000000000000000000000000000000000
310
00000000000000000000000000000000000000000000000000000000000000000000000000000000000000000000000000000000000000000000000000000000000000000000000000000000000000000000000000000000000000000000000000000000000000000000000000000000000000000000000000000000000000
310
00000000000000000000000000000000000000000000000000000000000000000000000000000000000000000000000000000000000000000000000000000000000000000000000000000000000000000000000000000000000000000000000000000000000000000000000000000000000000000000000000000000000000
310
00000000000000000000000000000000000000000000000000000000000000000000000000000000000000000000000000000000000000000000000000000000000000000000000000000000000000000000000000000000000000000000000000000000000000000000000000000000000000000000000000000000000000
310
0000000000000000000000000000000000000000000000000000000000000000000000000000000000000000000000000000000000000000F5F5F5F5F5F5F5F5F5F5F5F5F5F5F5F5F5F5F5F5F5F5F5F5F5F5F5F5F5F5F5F5F5F5F5F5F5F5F5F5F5F5F5F5F50000000000000000000000000000000000000000000000000000
310
00000000000000000000000000000000000000000000000000000000000000000000000000000000000000000000000000000000000000000000000000000000000000000000000000000000000000000000000000000000000000000000000000000000000000000000000000000000000000000000000000000000000000
310
00000000000000000000000000000000000000000000000000000000000000000000000000000000000000000000000000000000000000000000F50000F5F5F5F5F5000000F500F50000F5F500F50000000000000000000000F5000000F5F5F5F5F5F5F50000F5000000000000000000000000000000000000000000000000
310
00000000000000000000000000000000000000000000000000000000000000000000000000000000000000000000000000000000000000000000000000000000000000000000000000000000000000000000000000000000000000000000000000000000000000000000000000000000000000000000000000000000000000
310
000000000000000000000000000000000000000000000000000000000000000000000000000000000000000000000000000000000000000000000000F5F5F5F5F5F5F5F5F5F5F5F500F5F500F50000F5F5F5F5F5F5F5F5F5F5F5F5F5F5F5F5F5F5F5F5F5F5F5F5F5F500000000000000000000000000000000000000000000
310
00000000000000000000000000000000000000000000000000000000000000000000000000000000000000000000000000000000000000000000000000000000000000000000000000000000000000000000000000000000000000000000000000000000000000000000000000000000000000000000000000000000000000
310
0000000000000000000000000000000000000000000000000000000000000000000000000000000000000000000000000000000000000000000000000000F5F5F5F5F5F5F5F5F5F5F5F5F5F5F5F5F5F5F5F5F5F5F5F5F5F5F5F5F5F5F5F5F5F5F5F5F5F5F5F5F5F5F5F5F50000000000000000000000000000000000000000
310
00000000000000000000000000000000000000000000000000000000000000000000000000000000000000000000000000000000000000000000000000000000000000000000000000000000000000000000000000000000000000000000000000000000000000000000000000000000000000000000000000000000000000
310
00000000000000000000000000000000000000000000000000000000000000000000000000000000000000000000000000000000000000000000000000000000F5000000000000000000000000000000000000F5F5F5F5F5F5F5F5F5F5F5F5F5F5F5F5F5F5F5F5F5F5F5F5F5F5000000000000000000000000000000000000
310
00000000000000000000000000000000000000000000000000000000000000000000000000000000000000000000000000000000000000000000000000000000000000000000000000000000000000000000000000000000000000000000000000000000000000000000000000000000000000000000000000000000000000
310
000000000000000000000000000000000000000000000000000000000000000000000000000000000000000000000000000000000000000000000000000000000000F500000000000000000000000000000000000000000000000000F5F5F5F5F5F5F5F5F5F5F5F5F5F5F5000000F500000000000000000000000000000000
310
00000000000000000000000000000000000000000000000000000000000000000000000000000000000000000000000000000000000000000000000000000000000000000000000000000000000000000000000000000000000000000000000000000000000000000000000000000000000000000000F5F5F5F5F5F5F5F5F5
310
F5F5F5F5F5F5F5F5F5F5F5F5F5F5F5F5F5F5F5F5F5F5F5F5F5F5F5F5F5F5F500000000000000000000000000000000000000000000000000000000000000000000000000F50000000000000000000000000000000000000000000000F5F50000F5F5F5F5F500F5F500F5F5F5F5000000F50000000000000000000000000000
310
000000000000000000000000000000000000000000000000000000000000000000000000000000000000000000000000000000000000000000000000000000000000000000000000000000000000000000000000000000000000000000000000000000000000000000000000000000000000000000000000F5F5F5F5F5F5F5
310
F5F5F500F5F500F500F5F5F5F5F5F5F5F5F5F5F5F5F5F5F5F5F5F5F5F5F5F5F5F500000000000000000000000000000000000000000000000000000000000000000000000000F5000000000000000000F5F5F5F5F5F5F5F5F5F5F5F5F5F50000000000000000000000000000000000000000F5000000000000000000000000
310
0000000000000000000000000000000000000000000000000000000000000000000000000000000000000000000000000000000000000000000000000000000000000000000000000000000000000000000000000000000000000000000000000000000000000000000000000000000000000000000000000000F5F5F5F5F5
310
F5F5F5F5F5F5F5F5F5F5F5F5F5F5F5F5F5F5F5F5F5F5F5F5F5F5F5F5F5F5F5F5F5F5F500000000000000000000000000000000000000000000000000000000000000000000000000F500000000000000000000F5000000F500F5F50000F5F5F5F500000000000000000000000000000000000000F500000000000000000000
310
00000000000000000000000000000000000000000000000000000000000000000000000000000000000000000000000000000000000000000000000000000000000000000000000000000000000000000000000000000000000000000000000000000000000000000000000000000000000000000000000000000000F50000
310
00000000000000000000000000F5F5F5F5F5F5F5F5F5F5F5F5F5F5F5F5F5F5F5F5F5F5F5F500000000000000000000000000000000000000000000000000000000000000000000000000F500000000000000000000F5000000F5F5F5F5F5F5F5F5F50000000000000000000000000000000000000000F50000000000000000
310
000000000000000000000000000000000000000000000000000000000000000000000000000000000000000000000000000000000000000000000000000000000000000000000000000000000000000000000000000000000000000000000000000000000000000000000000000000000000000000000000000000000000F5
310
0000000000000000000000000000000000000000000000000000000000000000000000000000F500000000000000000000000000000000000000000000000000000000000000000000000000F500000000000000000000F500000000F5F5F5F5F5F5F50000000000F5F5F5F5F5F5F5F5F5F5F5F500000000F5000000000000
310
00000000000000000000000000000000000000000000000000000000000000000000000000000000000000000000000000000000000000000000000000000000000000000000000000000000000000000000000000000000000000000000000000000000000000000000000000000000000000000000000000000000000000
310
00F50000000000000000000000000000000000000000000000000000000000000000000000000000F500000000000000000000000000000000000000000000000000000000000000000000000000F500000000000000000000F500000000F5F5F5F5F5F5F500000000F5F5F500F500F5F5F5F500F50000000000F500000000
310
00000000000000000000000000000000000000000000000000000000000000000000000000000000000000000000000000000000000000000000000000000000000000000000000000000000000000000000000000000000000000000000000000000000000000000000000000000000000000000000000000000000000000
310
000000F50000000000000000000000000000000000000000000000000000000000000000000000000000F500000000000000000000000000000000000000000000000000000000000000000000000000F500000000000000000000F500000000F5F5F5F5F5F5F5000000F50000000000000000000000000000000000F50000
310
00000000000000000000000000000000000000000000000000000000000000000000000000000000000000000000000000000000000000000000000000000000000000000000000000000000000000000000000000000000000000000000000000000000000000000000000000000000000000000000000000000000000000
310
0000000000F500000000000000000000F5F5F500000000000000000000000000000000000000000000000000F500000000000000000000000000000000000000000000000000000000000000000000000000F500000000000000000000F500000000F5F5F5F5F5F5F50000F50000F5F5F5F5F5F5F5F5F5F5F5F5F5F5F500F5
310
00000000000000000000000000000000000000000000000000000000000000000000000000000000000000000000000000000000000000000000000000000000000000000000000000000000000000000000000000000000000000000000000000000000000000000000000000000000000000000000000000000000000000
310
00000000000000F5000000000000000000F5F5F5F5F5F5F500000000000000000000000000000000000000000000F500000000000000000000000000000000000000000000000000000000000000000000000000F500000000000000000000F5000000F5F5F5F5F5F5F5F5F5F50000F5000000000000000000000000000000
310
00F50000000000000000000000000000000000000000000000000000000000000000000000000000000000000000000000000000000000000000000000000000000000000000000000000000000000000000000000000000000000000000000000000000000000000000000000000000000000000000000000000000000000
310
000000000000000000F5000000000000000000F500F5F5F500F500000000000000000000000000000000000000000000F500000000000000000000000000000000000000000000000000000000000000000000000000F50000000000F5F5F5F5F5F5F5F5F5F5F5F5F5F5F5F5F5F5F5F5F5F5F5F5F5F5F5F500000000000000
310
000000F5000000000000000000000000000000000000000000000000000000000000000000000000000000000000000000000000000000000000000000000000000000000000000000000000000000000000000000000000000000000000000000000000000000000000000000000000000000000000000000000000000000
310
0000000000000000000000F500000000F5F5F5F5F5F5F5F5F5F5F5F5F5000000000000000000000000000000000000000000F500000000000000000000000000000000000000000000000000000000000000000000000000F50000000000F5F5F5F5F5F5F5F5F5F5F5F5F5F5F5F5F5F5F5F5F5F5F5F5F5F5F5F50000000000
310
0000000000F500000000000000000000000000000000000000000000000000000000000000000000000000000000000000000000000000000000000000000000000000000000000000000000000000000000000000000000000000000000000000000000000000000000000000000000000000000000000000000000000000
310
00000000000000000000000000F500000000F5000000F5F5F5F5F5F5F5F5F5000000000000000000000000000000000000000000F500000000000000000000000000000000000000000000000000000000000000000000000000F50000000000000000F5F5F500000000F5F5F5F5F5F5F50000000000000000000000000000
310
00000000000000F50000000000000000000000000000000000000000000000000000000000000000000000000000000000000000000000000000000000000000000000000000000000000000000000000000000000000000000000000000000000000000000000000000000000000000000000000000000000000000000000
310
000000000000000000000000000000F500000000F5000000F5F5F5F5F5F5F5F5F5000000000000000000000000000000000000000000F500000000000000000000000000000000000000000000000000000000000000000000000000F50000000000000000F5F5F500000000F5F5F5F5F5F5F5000000000000000000000000
310
000000000000000000F5000000000000000000000000000000000000000000000000000000000000000000000000000000000000000000000000000000000000000000000000000000000000000000000000000000000000000000000000000000000000000000000000000000000000000000000000000000000000000000
310
0000000000000000000000000000000000F500000000F5000000F500000000000000F5F5F5F5F50000000000000000000000000000000000F500000000000000000000000000000000000000000000000000000000000000000000000000F50000000000000000F5F5F500000000F5F5F5F5F5F5F500000000000000000000
310
0000000000000000000000F500000000000000000000000000000000000000000000000000000000000000000000000000000000000000000000000000000000000000000000000000000000000000000000000000000000000000000000000000000000000000000000000000000000000000000000000000000000000000
310
00000000000000000000000000000000000000F500000000F5000000F5000000000000F5F5F5F5F5F5F5F5F5F5F5F5F5F5F5F5F5F5F5F5F5F500F500000000000000000000000000000000000000000000000000000000000000000000000000F500000000000000000000F500000000F5F5F5F5F5F5F5000000F5F5F5F5F5
310
F5F5F5F5F5F5F5000000000000F50000000000000000000000000000000000000000000000000000000000000000000000000000000000000000000000000000000000000000000000000000000000000000000000000000000000000000000000000000000000000000000000000000000000000000000000000000000000
310
000000000000000000000000000000000000000000F5000000F5F5000000F5000000000000F500F5F5F5F5F5F5F5F5F5F5F5F5F5F5F5F5F5F5F5F500F500000000000000000000000000000000000000000000000000000000000000000000000000F500000000000000000000F5000000F5F5F5F5F5F5F5F5F5F5F5000000
310
000000000000000000000000000000F5000000000000000000000000000000000000000000000000000000000000000000000000000000000000000000000000000000000000000000000000000000000000000000000000000000000000000000000000000000000000000000000000000000000000000000000000000000
310
0000000000000000000000000000000000000000000000F500000000F5000000F5000000000000F5F5F5F5F5F50000000000000000000000000000000000F500000000000000000000000000000000000000000000000000000000000000000000000000F500000000000000000000F5000000F5F5F5F5F5F5F5F5F5F50000
310
0000000000000000000000000000000000F500000000000000000000000000000000000000000000000000000000000000000000000000000000000000000000000000000000000000000000000000000000000000000000000000000000000000000000000000000000000000000000000000000000000000000000000000
310
00000000000000000000000000000000000000000000000000F500000000F5000000F5000000F5F5F5F5F5F5F5F5F5F5F5F5F5F5F5F5F5F5F5F5F5F5F5F5F500F500000000000000000000000000000000000000000000000000000000000000000000000000F500000000000000000000F50000F5F5F5F5F5F5F5F5F5F5F5
310
F500F5F5F5F5F5000000000000000000000000F50000000000000000000000000000000000000000000000000000000000000000000000000000000000000000000000000000000000000000000000000000000000000000000000000000000000000000000000000000000000000000000000000000000000000000000000
310
000000000000000000000000000000000000000000000000000000F500000000F5000000F5000000F5000000F5000000000000F5F5F500000000000000000000F500F500000000000000000000000000000000000000000000000000000000000000000000000000F500000000000000000000F5000000F5F5F5F5F5F5F5F5
310
F5F5F5F50000000000000000000000000000000000F5000000000000000000000000000000000000000000000000000000000000000000000000000000000000000000000000000000000000000000000000000000000000000000000000000000000000000000000000000000000000000000000000000000000000000000
310
0000000000000000000000000000000000000000000000000000000000F500000000F500F5F5F5F5F5F5F5F5F5F5F5F5F500000000000000000000000000000000000000F500000000000000000000000000000000000000000000000000000000000000000000000000F500000000000000000000F500000000F5F5F5F5F5
310
F5F5F5F5F5000000000000000000000000000000000000F500000000000000000000000000000000000000000000000000000000000000000000000000000000000000000000000000000000000000000000000000000000000000000000000000000000000000000000000000000000000000000000000000000000000000
310
00000000000000000000000000000000000000000000000000000000000000F500000000F5F5F5F5F5F5F5F5F5F5F5F5F5F5F500000000000000000000000000000000000000F500000000000000000000000000000000000000000000000000000000000000000000000000F5000000000000000000F5F5F5F5F5F5F5F5F5
310
F5F5F5F5F5F500000000000000000000000000000000000000F50000000000000000000000000000000000000000000000000000000000000000000000000000000000000000000000000000000000000000000000000000000000000000000000000000000000000000000000000000000000000000000000000000000000
310
000000000000000000000000000000000000000000000000000000000000000000F50000000000000000000000000000000000000000000000000000000000000000000000000000F500000000000000000000000000000000000000000000000000000000000000000000000000F5000000000000000000000000000000F5
310
F5F5F5F5F5F5000000000000000000000000000000000000000000F5000000000000000000000000000000000000000000000000000000000000000000000000000000000000000000000000000000000000000000000000000000000000000000000000000000000000000000000000000000000000000000000000000000
310
0000000000000000000000000000000000000000000000000000000000000000000000F5000000000000F5F5F5F5F5F5F5F5F5F5F5F5F500000000000000000000000000000000000000F500000000000000000000000000000000000000000000000000000000000000000000000000F50000000000000000000000000000
310
00F50000F50000F5000000F5F5F500000000F500F50000000000000000F500000000000000000000000000000000000000000000000000000000000000000000000000000000000000000000000000000000000000000000000000000000000000000000000000000000000000000000000000000000000000000000000000
310
00000000000000000000000000000000000000000000000000000000000000000000000000F5000000000000F5F5F5F5F5F5F5F5F5F5F5F5F5F5F5F5F5F50000000000000000000000000000F500000000000000000000000000000000000000000000000000000000000000000000000000F5000000000000000000000000
310
000000F5F5F5F5F5F5F5F50000F5F5F5F5F5F5F5F5F5F5F5F5F50000000000F50000000000000000000000000000000000000000000000000000000000000000000000000000000000000000000000000000000000000000000000000000000000000000000000000000000000000000000000000000000000000000000000
310
000000000000000000000000000000000000000000000000000000000000000000000000000000F50000000000000000F5F5F5F5F5F5F5F5F50000F5000000000000000000000000000000000000F500000000000000000000000000000000000000000000000000000000000000000000000000F500000000000000000000
310
0000000000000000F5F5000000F5F5000000000000000000000000000000000000F5000000000000000000000000000000000000000000000000000000000000000000000000000000000000000000000000000000000000000000000000000000000000000000000000000000000000000000000000000000000000000000
310
0000000000000000000000000000000000000000000000000000000000000000000000000000000000F50000000000000000F5F5F5F5F5F5F5F5F5000000000000000000000000000000000000000000F500000000000000000000000000000000000000000000000000000000000000000000000000F50000000000000000
310
0000000000000000F5F5F5F5F5F5F50000000000000000000000000000000000000000F500000000000000000000000000000000000000000000000000000000000000000000000000000000000000000000000000000000000000000000000000000000000000000000000000000000000000000000000000000000000000
310
00000000000000000000000000000000000000000000000000000000000000000000000000000000000000F50000000000000000F5F5F5F5F5F5F5F5F5000000000000000000000000000000000000000000F500000000000000000000000000000000000000000000000000000000000000000000000000F5000000000000
310
00000000000000F5F5F5F5F5F5F5F5F5F5F500000000000000000000000000000000000000F50000000000000000000000000000000000000000000000000000000000000000000000000000000000000000000000000000000000000000000000000000000000000000000000000000000000000000000000000000000000
310
000000000000000000000000000000000000000000000000000000000000000000000000000000000000000000F50000000000000000F5F5F5F5F5F5F5F5F5000000000000000000000000000000000000000000F500000000000000000000000000000000000000000000000000000000000000000000000000F500000000
310
00F500000000000000F50000F5F5F5F5F50000F500000000000000000000000000000000000000F5000000000000000000000000000000000000000000000000000000000000000000000000000000000000000000000000000000000000000000000000000000000000000000000000000000000000000000000000000000
310
0000000000000000000000000000000000000000000000000000000000000000000000000000000000000000000000F50000000000000000F5F5F5F5F5F5F5F5F5000000000000000000000000000000000000000000F500000000000000000000000000000000000000000000000000000000000000000000000000F50000
310
000000F5F5000000000000F5F5F5F5F5F5F5F5F5F5F500000000000000000000000000000000000000F500000000000000000000000000000000000000000000000000000000000000000000000000000000000000000000000000000000000000000000000000000000000000000000000000000000000000000000000000
310
00000000000000000000000000000000000000000000000000000000000000000000000000000000000000000000000000F50000000000000000F5F5F5F5F5F5F5F5F5000000000000000000000000000000000000000000F500000000000000000000000000000000000000000000000000000000000000000000000000F5
310
0000000000F5F5F50000000000F5F5F5F500F5F5F5F5F5F500000000000000000000000000000000000000F50000000000000000000000000000000000000000000000000000000000000000000000000000000000000000000000000000000000000000000000000000000000000000000000000000000000000000000000
310
000000000000000000000000000000000000000000000000000000000000000000000000000000000000000000000000000000F50000000000000000F5F50000000000F5F5000000000000000000000000000000000000000000F5000000000000000000000000000000000000000000000000000000000000000000000000
310
00F5000000000000F5F5F5F50000F5F500000000F5F5000000F5F5000000000000000000000000000000000000F5000000000000000000000000000000000000000000000000000000000000000000000000000000000000000000000000000000000000000000000000000000000000000000000000000000000000000000
310
0000000000000000000000000000000000000000000000000000000000000000000000000000000000000000000000000000000000F50000000000000000F5F5F5F5F5F5F5F5F50000F5F5F5F5F5F500000000000000000000000000F500000000000000000000000000000000000000000000000000000000000000000000
310
000000F5000000000000000000F5F5F5000000000000F5000000000000F5F500000000000000000000000000000000F500000000000000000000000000000000000000000000000000000000000000000000000000000000000000000000000000000000000000000000000000000000000000000000000000000000000000
310
00000000000000000000000000000000000000000000000000000000000000000000000000000000000000000000000000000000000000F5000000000000F5F5F5F5F5F5F5F5F5F5F5F5F500000000000000000000000000000000000000F50000000000000000000000000000000000000000000000000000000000000000
310
0000000000F50000000000000000F5F5F500000000000000F50000000000000000F5F50000000000000000000000000000F50000000000000000000000000000000000000000000000000000000000000000000000000000000000000000000000000000000000000000000000000000000000000000000000000000000000
310
000000000000000000000000000000000000000000000000000000000000000000000000000000000000000000000000000000000000000000F5000000000000F5F5F5F5F5F5F5F5F5F5F5F5F500000000000000000000000000000000000000F5000000000000000000000000000000000000000000000000000000000000
310
00000000000000F500000000000000F5000000F5000000000000F500000000000000000000F500000000000000000000000000F5000000000000000000000000000000000000000000000000000000000000000000000000000000000000000000000000000000000000000000000000000000000000000000000000000000
310
0000000000000000000000000000000000000000000000000000000000000000000000000000000000000000000000000000000000000000000000F50000000000000000F500000000000000F50000000000F5F5F5F5F5F5F5000000000000000000F500000000000000000000000000000000000000000000000000000000
310
000000000000000000F500000000000000F500000000F50000000000F50000000000000000000000F5000000000000000000000000F500000000000000000000000000000000000000000000000000000000000000000000000000000000000000000000000000000000000000000000000000000000000000000000000000
310
00000000000000000000000000000000000000000000000000000000000000000000000000000000000000000000000000000000000000000000000000F5000000000000F5F5F5F5F5F5F5F5F5F5F5F5F5000000F5F5F5F5F5F5F5000000000000000000F50000000000000000000000000000000000000000000000000000
310
0000000000000000000000F500000000000000F50000000000F500000000F500000000000000F5000000F5000000000000000000000000F50000000000000000000000000000000000000000000000000000000000000000000000000000000000000000000000000000000000000000000000000000000000000000000000
310
000000000000000000000000000000000000000000000000000000000000000000000000000000000000000000000000000000000000000000000000000000F500000000000000000000000000000000000000000000F5F5F5F5F5F5F5F50000000000000000F5000000000000000000000000000000000000000000000000
310
00000000000000000000000000F5000000000000F5000000000000F500000000F5F500000000F5F5F5F5000000F50000000000000000000000F5000000000000000000000000000000000000000000000000000000000000000000000000000000000000000000000000000000000000000000000000000000000000000000
310
0000000000000000000000000000000000000000000000000000000000000000000000000000000000000000000000000000000000000000000000000000000000F5000000000000F5F5F5F5F5F5F5F5F5F5F5F5F50000F500000000000000000000000000000000F500000000000000000000000000000000000000000000
310
000000000000000000000000000000F5000000000000F500000000000000F500F5F5F500F5F500F5F5F5F500000000F50000000000000000000000F500000000000000000000000000000000000000000000000000000000000000000000000000000000000000000000000000000000000000000000000000000000000000
310
00000000000000000000000000000000000000000000000000000000000000000000000000000000000000000000000000000000000000000000000000000000000000F50000000000000000000000F5F5F5000000000000F50000000000000000000000000000000000F50000000000000000000000000000000000000000
310
0000000000000000000000000000000000F5000000000000F50000000000000000F500F5F5F5F500F5F500000000000000F50000000000000000000000F50000000000000000000000000000000000000000000000000000000000000000000000000000000000000000000000000000000000000000000000000000000000
310
000000000000000000000000000000000000000000000000000000000000000000000000000000000000000000000000000000000000000000000000000000000000000000F50000000000000000000000F5F5F500000000F5F500F5F5F5F5F5F5F50000F500000000000000F5000000000000000000000000000000000000
310
00000000000000000000000000000000000000F5000000000000F500000000000000F500F500F500F5F5F5F50000000000000000F500000000000000000000F5000000000000000000000000000000000000000000000000000000000000000000000000000000000000000000000000000000000000000000000000000000
310
0000000000000000000000000000000000000000000000000000000000000000000000000000000000000000000000000000000000000000000000000000000000000000000000F50000000000000000000000F5F5F5000000F50000F500F5F5F5F5F5F5F5F500F5000000000000F500000000000000000000000000000000
310
000000000000000000000000000000000000000000F50000000000F50000000000000000F5F500F5F5F500F500F50000000000000000F500000000000000000000F500000000000000000000000000000000000000000000000000000000000000000000000000000000000000000000000000000000000000000000000000
310
00000000000000000000000000000000000000000000000000000000000000000000000000000000000000000000000000000000000000000000000000000000000000000000000000F500000000000000000000F5F5F5F5F500F500F5F50000F50000F5F50000F50000F50000000000F50000000000000000000000000000
310
0000000000000000000000000000000000000000000000F50000000000F500000000000000F500F50000F5000000F5F50000000000000000F500000000000000000000F50000000000000000000000000000000000000000000000000000000000000000000000000000000000000000000000000000000000000000000000
310
000000000000000000000000000000000000000000000000000000000000000000000000000000000000000000000000000000000000000000000000000000000000000000000000000000F5000000000000000000F5F5F5F5F5F5F50000F500F5F5F5F5F5F5F5F5F5F5000000F500000000F5000000000000000000000000
310
00000000000000000000000000000000000000000000000000F50000000000F500000000000000F500F5F5F5F5F50000F5F50000000000000000F500000000000000000000F5000000000000000000000000000000000000000000000000000000000000000000000000000000000000000000000000000000000000000000
310
0000000000000000000000000000000000000000000000000000000000000000000000000000000000000000000000000000000000000000000000000000000000000000000000000000000000F5000000000000000000F5F5F5F5F5F5F50000F500F5F5F5F5F5F5F5F5F5F5000000F500000000F500000000000000000000
310
000000000000000000000000000000000000000000000000000000F5000000000000F500000000000000F5F50000F500F5F5F5F50000000000000000F500000000000000000000F500000000000000000000000000000000000000000000000000000000000000000000000000000000000000000000000000000000000000
310
00000000000000000000000000000000000000000000000000000000000000000000000000000000000000000000000000000000000000000000000000000000000000000000000000000000000000F5000000000000000000F5F5F5F5F5F5F50000F5000000F5F5F5F5F5F500F5F5000000F5000000F50000000000000000
310
0000000000000000000000000000000000000000000000000000000000F5000000000000F500000000000000F500F5F5F5F5F5F5F5F500000000000000F50000000000000000000000F50000000000000000000000000000000000000000000000000000000000000000000000000000000000000000000000000000000000
310
000000000000000000000000000000000000000000000000000000000000000000000000000000000000000000000000000000000000000000000000000000000000000000000000000000000000000000F5000000000000000000F500F5F5F500F50000F500000000F5F5F5F5F5F5F5F5F50000F5000000F5000000000000
310
00000000000000000000000000000000000000000000000000000000000000F5000000000000F500000000000000F5F5F500F500F5F5F50000000000000000F50000000000000000000000F5000000000000000000000000000000000000000000000000000000000000000000000000000000000000000000000000000000
310
0000000000000000000000000000000000000000000000000000000000000000000000000000000000000000000000000000000000000000000000000000000000000000000000000000000000000000000000F5000000000000000000F500F5F5F500F50000F500000000F5F5F5F5F5F5F5F5F500F500000000F500000000
310
000000000000000000000000000000000000000000000000000000000000000000F5000000000000F5000000000000F5000000F5F5F50000F50000000000000000F50000000000000000000000F500000000000000000000000000000000000000000000000000000000000000000000000000000000000000000000000000
310
00000000000000000000000000000000000000000000000000000000000000000000000000000000000000000000000000000000000000000000000000000000000000000000000000000000000000000000000000F5000000000000000000F500F5F5F500F50000F5000000F5F5F5F5F5F5F5F500000000F5000000F50000
310
0000000000000000000000000000000000000000000000000000000000000000000000F500000000000000F500000000000000000000F500000000F5000000000000F5000000000000000000000000F50000000000000000000000000000000000000000000000000000000000000000000000000000000000000000000000
310
000000000000000000000000000000000000000000000000000000000000000000000000000000000000000000000000000000000000000000000000000000000000000000000000000000000000000000000000000000F5000000000000000000F500F5F5F500F5000000F5000000F5F5F5F5F5F5F5000000F500000000F5
310
00000000000000000000000000000000000000000000000000000000000000000000000000F500000000000000F500000000000000000000F50000000000F50000000000F5000000000000000000000000F5000000000000000000000000000000000000000000000000000000000000000000000000000000000000000000
310
0000000000000000000000000000000000000000000000000000000000000000000000000000000000000000000000000000000000000000000000000000000000000000000000000000000000000000000000000000000000F5000000000000000000F500F5F5F500F5000000F5000000F5F5F5F5F5F5F500000000F50000
310
00F500000000000000000000000000000000000000000000000000000000000000000000000000F500000000000000F500000000000000000000F5000000000000F5000000F500000000000000000000000000F500000000000000000000000000000000000000000000000000000000000000000000000000000000000000
310
00000000000000000000000000000000000000000000000000000000000000000000000000000000000000000000000000000000000000000000000000000000000000000000000000000000000000000000000000000000000000F50000000000000000F5F5F5F5F5F5F5F5F500F500000000F5F5F5F5F5F50000000000F5
310
000000F500000000000000000000000000000000000000000000000000000000000000000000000000F50000000000000000F50000000000000000000000000000000000F500F50000000000000000000000000000F50000000000000000000000000000000000000000000000000000000000000000000000000000000000
310
000000000000000000000000000000000000000000000000000000000000000000000000000000000000000000000000000000000000000000000000000000000000000000000000000000000000000000000000000000000000000000F50000000000000000F5F5F5F5F5F5F5F5F50000F50000000000F5F5000000000000
310
F500000000F500000000000000000000000000000000000000000000000000000000000000000000000000F5000000000000000000F50000000000000000000000000000000000F5000000000000000000000000000000F5000000000000000000000000000000000000000000000000000000000000000000000000000000
310
0000000000000000000000000000000000000000000000000000000000000000000000000000000000000000000000000000000000000000000000000000000000000000000000000000000000000000000000000000000000000000000000F5000000000000000000F5F5F5F5F5F5F5000000F5000000000000F500000000
310
0000F500000000F500000000000000000000000000000000000000000000000000000000000000000000000000F500000000000000000000F5000000000000000000000000000000F500F50000000000000000000000000000F500000000000000000000000000000000000000000000000000000000000000000000000000
310
00000000000000000000000000000000000000000000000000000000000000000000000000000000000000000000000000000000000000000000000000000000000000000000000000000000000000000000000000000000000000000000000000F500000000000000000000000000000000000000F5F5F500000000F50000
310
0000F5F50000000000F500000000000000000000000000000000000000000000000000000000000000000000000000F50000000000000000000000F5F50000000000000000000000F5F50000F50000000000000000000000000000F50000000000000000000000000000000000000000000000000000000000000000000000
310
000000000000000000000000000000000000000000000000000000000000000000000000000000000000000000000000000000000000000000000000000000000000000000000000000000000000000000000000000000000000000000000000000000F500000000000000000000000000000000000000000000F50000F5F5
310
F5F5F5F500000000000000F500000000000000000000000000000000000000000000000000000000000000000000000000F500000000000000000000000000F5F5F5F5F5F5F5F5F5F5F500000000000000000000000000000000000000F5000000000000000000000000000000000000000000000000000000000000000000
310
0000000000000000000000000000000000000000000000000000000000000000000000000000000000000000000000000000000000000000000000000000000000000000000000000000000000000000000000000000000000000000000000000000000000F50000000000000000000000000000000000000000000000F5F5
310
00F50000000000000000000000F500000000000000000000000000000000000000000000000000000000000000000000000000F500000000000000000000000000000000000000000000000000000000000000000000000000000000000000F500000000000000000000000000000000000000000000000000000000000000
310
00000000000000000000000000000000000000000000000000000000000000000000000000000000000000000000000000000000000000000000000000000000000000000000000000000000000000000000000000000000000000000000000000000000000000F5F5F5F5F5F5F5F5F5F5F5F5F5F5F5F5F5F5F5F5F5F5F5F5
310
F5F5F5F5F5F5F5F5F5F5F5F5F5F5F5F500000000000000000000000000000000000000000000000000000000000000000000000000F5F5F5F5F5F5F5F5F5F5F5F5F5F5F5F5F5F5F5F5F5F5F5F5F5F5F5F5F5F5F5F5F5F5F5F5F5F5F5F5F5F5F5F5F50000000000000000000000000000000000000000000000000000000000
310
00000000000000000000000000000000000000000000000000000000000000000000000000000000000000000000000000000000000000000000000000000000000000000000000000000000000000000000000000000000000000000000000000000000000000000000000000000000000000000000000000000000000000
310
00000000000000000000000000000000000000000000000000000000000000000000000000000000000000000000000000000000000000000000000000000000000000000000000000000000000000000000000000000000000000000000000000000000000000000000000000000000000000000000000000000000000000
310
00000000000000000000000000000000000000000000000000000000000000000000000000000000000000000000000000000000000000000000000000000000000000000000000000000000000000000000000000000000000000000000000000000000000000000000000000000000000000000000000000000000000000
310
00000000000000000000000000000000000000000000000000000000000000000000000000000000000000000000000000000000000000000000000000000000000000000000000000000000000000000000000000000000000000000000000000000000000000000000000000000000000000000000000000000000000000
310
00000000000000000000000000000000000000000000000000000000000000000000000000000000000000000000000000000000000000000000000000000000000000000000000000000000000000000000000000000000000000000000000000000000000000000000000000000000000000000000000000000000000000
310
00000000000000000000000000000000000000000000000000000000000000000000000000000000000000000000000000000000000000000000000000000000000000000000000000000000000000000000000000000000000000000000000000000000000000000000000000000000000000000000000000000000000000
310
00000000000000000000000000000000000000000000000000000000000000000000000000000000000000000000000000000000000000000000000000000000000000000000000000000000000000000000000000000000000000000000000000000000000000000000000000000000000000000000000000000000000000
310
00000000000000000000000000000000000000000000000000000000000000000000000000000000000000000000000000000000000000000000000000000000000000000000000000000000000000000000000000000000000000000000000000000000000000000000000000000000000000000000000000000000000000
310
00000000000000000000000000000000000000000000000000000000000000000000000000000000000000000000000000000000000000000000000000000000000000000000000000000000000000000000000000000000000000000000000000000000000000000000000000000000000000000000000000000000000000
310
00000000000000000000000000000000000000000000000000000000000000000000000000000000000000000000000000000000000000000000000000000000000000000000000000000000000000000000000000000000000000000000000000000000000000000000000000000000000000000000000000000000000000
310
00000000000000000000000000000000000000000000000000000000000000000000000000000000000000000000000000000000000000000000000000000000000000000000000000000000000000000000000000000000000000000000000000000000000000000000000000000000000000000000000000000000000000
310
00000000000000000000000000000000000000000000000000000000000000000000000000000000000000000000000000000000000000000000000000000000000000000000000000000000000000000000000000000000000000000000000000000000000000000000000000000000000000000000000000000000000000
310
00000000000000000000000000000000000000000000000000000000000000000000000000000000000000000000000000000000000000000000000000000000000000000000000000000000000000000000000000000000000000000000000000000000000000000000000000000000000000000000000000000000000000
310
00000000000000000000000000000000000000000000000000000000000000000000000000000000000000000000000000000000000000000000000000000000000000000000000000000000000000000000000000000000000000000000000000000000000000000000000000000000000000000000000000000000000000
310
00000000000000000000000000000000000000000000000000000000000000000000000000000000000000000000000000000000000000000000000000000000000000000000000000000000000000000000000000000000000000000000000000000000000000000000000000000000000000000000000000000000000000
310
00000000000000000000000000000000000000000000000000000000000000000000000000000000000000000000000000000000000000000000000000000000000000000000000000000000000000000000000000000000000000000000000000000000000000000000000000000000000000000000000000000000000000
310
00000000000000000000000000000000000000000000000000000000000000000000000000000000000000000000000000000000000000000000000000000000000000000000000000000000000000000000000000000000000000000000000000000000000000000000000000000000000000000000000000000000000000
310
00000000000000000000000000000000000000000000000000000000000000000000000000000000000000000000000000000000000000000000000000000000000000000000000000000000000000000000000000000000000000000000000000000000000000000000000000000000000000000000000000000000000000
310
00000000000000000000000000000000000000000000000000000000000000000000000000000000000000000000000000000000000000000000000000000000000000000000000000000000000000000000000000000000000000000000000000000000000000000000000000000000000000000000000000000000000000
310
00000000000000000000000000000000000000000000000000000000000000000000000000000000000000000000000000000000000000000000000000000000000000000000000000000000000000000000000000000000000000000000000000000000000000000000000000000000000000000000000000000000000000
310
00000000000000000000000000000000000000000000000000000000000000000000000000000000000000000000000000000000000000000000000000000000000000000000000000000000000000000000000000000000000000000000000000000000000000000000000000000000000000000000000000000000000000
310
00000000000000000000000000000000000000000000000000000000000000000000000000000000000000000000000000000000000000000000000000000000000000000000000000000000000000000000000000000000000000000000000000000000000000000000000000000000000000000000000000000000000000
310
0000000000000000000000000000000000000000000000000000000000000000000000000000000000000000000000000000000000000000000000000000000000000000000000000000000000000000000000
  0
XRECORD
  5
3E78
102
{ACAD_REACTORS
330
3E76
102
}
330
3E76
100
AcDbXrecord
280
     1
270
     1
271
     1
  0
XRECORD
  5
3E77
102
{ACAD_REACTORS
330
3E76
102
}
330
3E76
100
AcDbXrecord
280
     1
270
     1
271
     1
  0
XRECORD
  5
3E7B
102
{ACAD_REACTORS
330
3E76
102
}
330
3E76
100
AcDbXrecord
280
     1
270
     1
271
     1
  0
XRECORD
  5
3E7A
102
{ACAD_REACTORS
330
3E76
102
}
330
3E76
100
AcDbXrecord
280
     1
270
     1
271
     1
  0
XRECORD
  5
3E7C
102
{ACAD_REACTORS
330
3E76
102
}
330
3E76
100
AcDbXrecord
280
     1
270
     1
271
     1
  0
XRECORD
  5
3E79
102
{ACAD_REACTORS
330
3E76
102
}
330
3E76
100
AcDbXrecord
280
     1
270
     1
271
     1
  0
XRECORD
  5
3E70
102
{ACAD_REACTORS
330
3E6E
102
}
330
3E6E
100
AcDbXrecord
280
     1
270
     1
271
     1
  0
XRECORD
  5
3E6F
102
{ACAD_REACTORS
330
3E6E
102
}
330
3E6E
100
AcDbXrecord
280
     1
270
     1
271
     1
  0
XRECORD
  5
3E73
102
{ACAD_REACTORS
330
3E6E
102
}
330
3E6E
100
AcDbXrecord
280
     1
270
     1
271
     1
  0
XRECORD
  5
3E72
102
{ACAD_REACTORS
330
3E6E
102
}
330
3E6E
100
AcDbXrecord
280
     1
270
     1
271
     1
  0
XRECORD
  5
3E74
102
{ACAD_REACTORS
330
3E6E
102
}
330
3E6E
100
AcDbXrecord
280
     1
270
     1
271
     1
  0
XRECORD
  5
3E71
102
{ACAD_REACTORS
330
3E6E
102
}
330
3E6E
100
AcDbXrecord
280
     1
270
     1
271
     1
  0
XRECORD
  5
3E80
102
{ACAD_REACTORS
330
3E7E
102
}
330
3E7E
100
AcDbXrecord
280
     1
270
     1
271
     1
  0
XRECORD
  5
3E7F
102
{ACAD_REACTORS
330
3E7E
102
}
330
3E7E
100
AcDbXrecord
280
     1
270
     1
271
     1
  0
XRECORD
  5
3E83
102
{ACAD_REACTORS
330
3E7E
102
}
330
3E7E
100
AcDbXrecord
280
     1
270
     1
271
     1
  0
XRECORD
  5
3E82
102
{ACAD_REACTORS
330
3E7E
102
}
330
3E7E
100
AcDbXrecord
280
     1
270
     1
271
     1
  0
XRECORD
  5
3E84
102
{ACAD_REACTORS
330
3E7E
102
}
330
3E7E
100
AcDbXrecord
280
     1
270
     1
271
     1
  0
XRECORD
  5
3E81
102
{ACAD_REACTORS
330
3E7E
102
}
330
3E7E
100
AcDbXrecord
280
     1
270
     1
271
     1
  0
XRECORD
  5
444F
102
{ACAD_REACTORS
330
444E
102
}
330
444E
100
AcDbXrecord
280
     1
102
ACAD_ROUNDTRIP_2012_MLEADER_STYLE
298
     1
  0
XRECORD
  5
4451
102
{ACAD_REACTORS
330
4450
102
}
330
4450
100
AcDbXrecord
280
     1
102
DISPLAYNAME
  1
Metric50
102
FLAGS
 90
        0
  0
CELLSTYLEMAP
  5
4413
102
{ACAD_REACTORS
330
3FB1
102
}
330
3FB1
100
AcDbCellStyleMap
 90
        3
300
CELLSTYLE
  1
TABLEFORMAT_BEGIN
 90
        5
170
     1
 91
        0
 92
    32768
 62
   257
 93
        1
300
CONTENTFORMAT
  1
CONTENTFORMAT_BEGIN
 90
        0
 91
        0
 92
      512
 93
        0
300

 40
0.0
140
1.0
 94
        5
 62
     0
340
11
144
6.0
309
CONTENTFORMAT_END
171
     1
301
MARGIN
  1
CELLMARGIN_BEGIN
 40
1.5
 40
1.5
 40
1.5
 40
1.5
 40
4.5
 40
4.5
309
CELLMARGIN_END
 94
        6
 95
        1
302
GRIDFORMAT
  1
GRIDFORMAT_BEGIN
 90
        0
 91
        1
 62
     0
 92
       -2
340
0
 93
        0
 40
1.125
309
GRIDFORMAT_END
 95
        2
302
GRIDFORMAT
  1
GRIDFORMAT_BEGIN
 90
        0
 91
        1
 62
     0
 92
       -2
340
0
 93
        0
 40
1.125
309
GRIDFORMAT_END
 95
        4
302
GRIDFORMAT
  1
GRIDFORMAT_BEGIN
 90
        0
 91
        1
 62
     0
 92
       -2
340
0
 93
        0
 40
1.125
309
GRIDFORMAT_END
 95
        8
302
GRIDFORMAT
  1
GRIDFORMAT_BEGIN
 90
        0
 91
        1
 62
     0
 92
       -2
340
0
 93
        0
 40
1.125
309
GRIDFORMAT_END
 95
       16
302
GRIDFORMAT
  1
GRIDFORMAT_BEGIN
 90
        0
 91
        1
 62
     0
 92
       -2
340
0
 93
        0
 40
1.125
309
GRIDFORMAT_END
 95
       32
302
GRIDFORMAT
  1
GRIDFORMAT_BEGIN
 90
        0
 91
        1
 62
     0
 92
       -2
340
0
 93
        0
 40
1.125
309
GRIDFORMAT_END
309
TABLEFORMAT_END
  1
CELLSTYLE_BEGIN
 90
        1
 91
        1
300
_TITLE
309
CELLSTYLE_END
300
CELLSTYLE
  1
TABLEFORMAT_BEGIN
 90
        5
170
     1
 91
        0
 92
        0
 62
   257
 93
        1
300
CONTENTFORMAT
  1
CONTENTFORMAT_BEGIN
 90
        0
 91
        0
 92
      512
 93
        0
300

 40
0.0
140
1.0
 94
        5
 62
     0
340
11
144
4.5
309
CONTENTFORMAT_END
171
     1
301
MARGIN
  1
CELLMARGIN_BEGIN
 40
1.5
 40
1.5
 40
1.5
 40
1.5
 40
4.5
 40
4.5
309
CELLMARGIN_END
 94
        6
 95
        1
302
GRIDFORMAT
  1
GRIDFORMAT_BEGIN
 90
        0
 91
        1
 62
     0
 92
       -2
340
0
 93
        0
 40
1.125
309
GRIDFORMAT_END
 95
        2
302
GRIDFORMAT
  1
GRIDFORMAT_BEGIN
 90
        0
 91
        1
 62
     0
 92
       -2
340
0
 93
        0
 40
1.125
309
GRIDFORMAT_END
 95
        4
302
GRIDFORMAT
  1
GRIDFORMAT_BEGIN
 90
        0
 91
        1
 62
     0
 92
       -2
340
0
 93
        0
 40
1.125
309
GRIDFORMAT_END
 95
        8
302
GRIDFORMAT
  1
GRIDFORMAT_BEGIN
 90
        0
 91
        1
 62
     0
 92
       -2
340
0
 93
        0
 40
1.125
309
GRIDFORMAT_END
 95
       16
302
GRIDFORMAT
  1
GRIDFORMAT_BEGIN
 90
        0
 91
        1
 62
     0
 92
       -2
340
0
 93
        0
 40
1.125
309
GRIDFORMAT_END
 95
       32
302
GRIDFORMAT
  1
GRIDFORMAT_BEGIN
 90
        0
 91
        1
 62
     0
 92
       -2
340
0
 93
        0
 40
1.125
309
GRIDFORMAT_END
309
TABLEFORMAT_END
  1
CELLSTYLE_BEGIN
 90
        2
 91
        1
300
_HEADER
309
CELLSTYLE_END
300
CELLSTYLE
  1
TABLEFORMAT_BEGIN
 90
        5
170
     1
 91
        0
 92
        0
 62
   257
 93
        1
300
CONTENTFORMAT
  1
CONTENTFORMAT_BEGIN
 90
        0
 91
        0
 92
      512
 93
        0
300

 40
0.0
140
1.0
 94
        2
 62
     0
340
11
144
4.5
309
CONTENTFORMAT_END
171
     1
301
MARGIN
  1
CELLMARGIN_BEGIN
 40
1.5
 40
1.5
 40
1.5
 40
1.5
 40
4.5
 40
4.5
309
CELLMARGIN_END
 94
        6
 95
        1
302
GRIDFORMAT
  1
GRIDFORMAT_BEGIN
 90
        0
 91
        1
 62
     0
 92
       -2
340
0
 93
        0
 40
1.125
309
GRIDFORMAT_END
 95
        2
302
GRIDFORMAT
  1
GRIDFORMAT_BEGIN
 90
        0
 91
        1
 62
     0
 92
       -2
340
0
 93
        0
 40
1.125
309
GRIDFORMAT_END
 95
        4
302
GRIDFORMAT
  1
GRIDFORMAT_BEGIN
 90
        0
 91
        1
 62
     0
 92
       -2
340
0
 93
        0
 40
1.125
309
GRIDFORMAT_END
 95
        8
302
GRIDFORMAT
  1
GRIDFORMAT_BEGIN
 90
        0
 91
        1
 62
     0
 92
       -2
340
0
 93
        0
 40
1.125
309
GRIDFORMAT_END
 95
       16
302
GRIDFORMAT
  1
GRIDFORMAT_BEGIN
 90
        0
 91
        1
 62
     0
 92
       -2
340
0
 93
        0
 40
1.125
309
GRIDFORMAT_END
 95
       32
302
GRIDFORMAT
  1
GRIDFORMAT_BEGIN
 90
        0
 91
        1
 62
     0
 92
       -2
340
0
 93
        0
 40
1.125
309
GRIDFORMAT_END
309
TABLEFORMAT_END
  1
CELLSTYLE_BEGIN
 90
        3
 91
        2
300
_DATA
309
CELLSTYLE_END
  0
XRECORD
  5
4429
102
{ACAD_REACTORS
330
4428
102
}
330
4428
100
AcDbXrecord
280
     1
102
RTVSPost2010Prop28
280
     1
102
RTVSPost2010PropOp28
 70
     1
102
RTVSPost2010Prop29
280
     1
102
RTVSPost2010PropOp29
 70
     1
102
RTVSPost2010Prop30
280
     0
102
RTVSPost2010PropOp30
 70
     1
102
RTVSPost2010Prop31
280
     0
102
RTVSPost2010PropOp31
 70
     1
102
RTVSPost2010Prop32
280
     0
102
RTVSPost2010PropOp32
 70
     1
102
RTVSPost2010Prop33
280
     0
102
RTVSPost2010PropOp33
 70
     1
102
RTVSPost2010Prop34
280
     0
102
RTVSPost2010PropOp34
 70
     1
102
RTVSPost2010Prop35
280
     0
102
RTVSPost2010PropOp35
 70
     1
102
RTVSPost2010Prop36
280
     0
102
RTVSPost2010PropOp36
 70
     1
102
RTVSPost2010Prop37
 90
       50
102
RTVSPost2010PropOp37
 70
     1
102
RTVSPost2010Prop38
140
0.0
102
RTVSPost2010PropOp38
 70
     1
102
RTVSPost2010Prop39
140
1.0
102
RTVSPost2010PropOp39
 70
     1
102
RTVSPost2010Prop40
 90
        0
102
RTVSPost2010PropOp40
 70
     1
102
RTVSPost2010Prop41ColorIndex
 90
       18
102
RTVSPost2010Prop41ColorRGB
 90
        0
102
RTVSPost2010PropOp41
 70
     1
102
RTVSPost2010Prop42
 90
       50
102
RTVSPost2010PropOp42
 70
     1
102
RTVSPost2010Prop43
 90
        3
102
RTVSPost2010PropOp43
 70
     1
102
RTVSPost2010Prop44ColorIndex
 90
        5
102
RTVSPost2010Prop44ColorRGB
 90
      255
102
RTVSPost2010PropOp44
 70
     1
102
RTVSPost2010Prop45
280
     0
102
RTVSPost2010PropOp45
 70
     1
102
RTVSPost2010Prop46
 90
       50
102
RTVSPost2010PropOp46
 70
     1
102
RTVSPost2010Prop47
 90
       50
102
RTVSPost2010PropOp47
 70
     1
102
RTVSPost2010Prop48
 90
       50
102
RTVSPost2010PropOp48
 70
     1
102
RTVSPost2010Prop49
280
     0
102
RTVSPost2010PropOp49
 70
     1
102
RTVSPost2010Prop50
 90
       50
102
RTVSPost2010PropOp50
 70
     1
102
RTVSPost2010Prop51ColorIndex
 90
      256
102
RTVSPost2010Prop51ColorRGB
 90
-16777216
102
RTVSPost2010PropOp51
 70
     0
102
RTVSPost2010Prop52
140
1.0
102
RTVSPost2010PropOp52
 70
     0
102
RTVSPost2010Prop53
 90
        2
102
RTVSPost2010PropOp53
 70
     1
102
RTVSPost2010Prop54
  1
strokes_ogs.tif
102
RTVSPost2010PropOp54
 70
     1
102
RTVSPost2010Prop55
280
     0
102
RTVSPost2010PropOp55
 70
     1
102
RTVSPost2010Prop56
140
1.0
102
RTVSPost2010PropOp56
 70
     1
102
RTVSPost2010Prop57
140
1.0
102
RTVSPost2010PropOp57
 70
     1
  0
XRECORD
  5
4427
102
{ACAD_REACTORS
330
4426
102
}
330
4426
100
AcDbXrecord
280
     1
102
RTVSPost2010Prop28
280
     0
102
RTVSPost2010PropOp28
 70
     1
102
RTVSPost2010Prop29
280
     1
102
RTVSPost2010PropOp29
 70
     1
102
RTVSPost2010Prop30
280
     1
102
RTVSPost2010PropOp30
 70
     1
102
RTVSPost2010Prop31
280
     0
102
RTVSPost2010PropOp31
 70
     1
102
RTVSPost2010Prop32
280
     0
102
RTVSPost2010PropOp32
 70
     1
102
RTVSPost2010Prop33
280
     0
102
RTVSPost2010PropOp33
 70
     1
102
RTVSPost2010Prop34
280
     0
102
RTVSPost2010PropOp34
 70
     1
102
RTVSPost2010Prop35
280
     0
102
RTVSPost2010PropOp35
 70
     1
102
RTVSPost2010Prop36
280
     0
102
RTVSPost2010PropOp36
 70
     1
102
RTVSPost2010Prop37
 90
       50
102
RTVSPost2010PropOp37
 70
     1
102
RTVSPost2010Prop38
140
0.0
102
RTVSPost2010PropOp38
 70
     1
102
RTVSPost2010Prop39
140
1.0
102
RTVSPost2010PropOp39
 70
     1
102
RTVSPost2010Prop40
 90
        0
102
RTVSPost2010PropOp40
 70
     1
102
RTVSPost2010Prop41ColorIndex
 90
       18
102
RTVSPost2010Prop41ColorRGB
 90
        0
102
RTVSPost2010PropOp41
 70
     1
102
RTVSPost2010Prop42
 90
       50
102
RTVSPost2010PropOp42
 70
     1
102
RTVSPost2010Prop43
 90
        3
102
RTVSPost2010PropOp43
 70
     1
102
RTVSPost2010Prop44ColorIndex
 90
        5
102
RTVSPost2010Prop44ColorRGB
 90
      255
102
RTVSPost2010PropOp44
 70
     1
102
RTVSPost2010Prop45
280
     0
102
RTVSPost2010PropOp45
 70
     1
102
RTVSPost2010Prop46
 90
       50
102
RTVSPost2010PropOp46
 70
     1
102
RTVSPost2010Prop47
 90
       50
102
RTVSPost2010PropOp47
 70
     1
102
RTVSPost2010Prop48
 90
       50
102
RTVSPost2010PropOp48
 70
     1
102
RTVSPost2010Prop49
280
     0
102
RTVSPost2010PropOp49
 70
     1
102
RTVSPost2010Prop50
 90
       50
102
RTVSPost2010PropOp50
 70
     1
102
RTVSPost2010Prop51ColorIndex
 90
      256
102
RTVSPost2010Prop51ColorRGB
 90
-16777216
102
RTVSPost2010PropOp51
 70
     0
102
RTVSPost2010Prop52
140
1.0
102
RTVSPost2010PropOp52
 70
     0
102
RTVSPost2010Prop53
 90
        2
102
RTVSPost2010PropOp53
 70
     1
102
RTVSPost2010Prop54
  1
strokes_ogs.tif
102
RTVSPost2010PropOp54
 70
     1
102
RTVSPost2010Prop55
280
     0
102
RTVSPost2010PropOp55
 70
     1
102
RTVSPost2010Prop56
140
1.0
102
RTVSPost2010PropOp56
 70
     1
102
RTVSPost2010Prop57
140
1.0
102
RTVSPost2010PropOp57
 70
     1
  0
XRECORD
  5
4435
102
{ACAD_REACTORS
330
4434
102
}
330
4434
100
AcDbXrecord
280
     1
102
RTVSPost2010Prop28
280
     0
102
RTVSPost2010PropOp28
 70
     1
102
RTVSPost2010Prop29
280
     1
102
RTVSPost2010PropOp29
 70
     1
102
RTVSPost2010Prop30
280
     1
102
RTVSPost2010PropOp30
 70
     1
102
RTVSPost2010Prop31
280
     0
102
RTVSPost2010PropOp31
 70
     1
102
RTVSPost2010Prop32
280
     0
102
RTVSPost2010PropOp32
 70
     1
102
RTVSPost2010Prop33
280
     0
102
RTVSPost2010PropOp33
 70
     1
102
RTVSPost2010Prop34
280
     0
102
RTVSPost2010PropOp34
 70
     1
102
RTVSPost2010Prop35
280
     0
102
RTVSPost2010PropOp35
 70
     1
102
RTVSPost2010Prop36
280
     0
102
RTVSPost2010PropOp36
 70
     1
102
RTVSPost2010Prop37
 90
       50
102
RTVSPost2010PropOp37
 70
     1
102
RTVSPost2010Prop38
140
0.0
102
RTVSPost2010PropOp38
 70
     1
102
RTVSPost2010Prop39
140
1.0
102
RTVSPost2010PropOp39
 70
     1
102
RTVSPost2010Prop40
 90
        0
102
RTVSPost2010PropOp40
 70
     1
102
RTVSPost2010Prop41ColorIndex
 90
       18
102
RTVSPost2010Prop41ColorRGB
 90
        0
102
RTVSPost2010PropOp41
 70
     1
102
RTVSPost2010Prop42
 90
       50
102
RTVSPost2010PropOp42
 70
     1
102
RTVSPost2010Prop43
 90
        3
102
RTVSPost2010PropOp43
 70
     1
102
RTVSPost2010Prop44ColorIndex
 90
        5
102
RTVSPost2010Prop44ColorRGB
 90
      255
102
RTVSPost2010PropOp44
 70
     1
102
RTVSPost2010Prop45
280
     0
102
RTVSPost2010PropOp45
 70
     1
102
RTVSPost2010Prop46
 90
       50
102
RTVSPost2010PropOp46
 70
     1
102
RTVSPost2010Prop47
 90
       50
102
RTVSPost2010PropOp47
 70
     1
102
RTVSPost2010Prop48
 90
       50
102
RTVSPost2010PropOp48
 70
     1
102
RTVSPost2010Prop49
280
     0
102
RTVSPost2010PropOp49
 70
     1
102
RTVSPost2010Prop50
 90
       50
102
RTVSPost2010PropOp50
 70
     1
102
RTVSPost2010Prop51ColorIndex
 90
      256
102
RTVSPost2010Prop51ColorRGB
 90
-16777216
102
RTVSPost2010PropOp51
 70
     0
102
RTVSPost2010Prop52
140
1.0
102
RTVSPost2010PropOp52
 70
     0
102
RTVSPost2010Prop53
 90
        2
102
RTVSPost2010PropOp53
 70
     1
102
RTVSPost2010Prop54
  1
strokes_ogs.tif
102
RTVSPost2010PropOp54
 70
     1
102
RTVSPost2010Prop55
280
     0
102
RTVSPost2010PropOp55
 70
     1
102
RTVSPost2010Prop56
140
1.0
102
RTVSPost2010PropOp56
 70
     1
102
RTVSPost2010Prop57
140
1.0
102
RTVSPost2010PropOp57
 70
     1
  0
XRECORD
  5
443D
102
{ACAD_REACTORS
330
443C
102
}
330
443C
100
AcDbXrecord
280
     1
102
RTVSPost2010Prop28
280
     0
102
RTVSPost2010PropOp28
 70
     1
102
RTVSPost2010Prop29
280
     1
102
RTVSPost2010PropOp29
 70
     1
102
RTVSPost2010Prop30
280
     1
102
RTVSPost2010PropOp30
 70
     1
102
RTVSPost2010Prop31
280
     0
102
RTVSPost2010PropOp31
 70
     1
102
RTVSPost2010Prop32
280
     0
102
RTVSPost2010PropOp32
 70
     1
102
RTVSPost2010Prop33
280
     0
102
RTVSPost2010PropOp33
 70
     1
102
RTVSPost2010Prop34
280
     0
102
RTVSPost2010PropOp34
 70
     1
102
RTVSPost2010Prop35
280
     0
102
RTVSPost2010PropOp35
 70
     1
102
RTVSPost2010Prop36
280
     0
102
RTVSPost2010PropOp36
 70
     1
102
RTVSPost2010Prop37
 90
       50
102
RTVSPost2010PropOp37
 70
     1
102
RTVSPost2010Prop38
140
0.0
102
RTVSPost2010PropOp38
 70
     1
102
RTVSPost2010Prop39
140
1.0
102
RTVSPost2010PropOp39
 70
     1
102
RTVSPost2010Prop40
 90
        0
102
RTVSPost2010PropOp40
 70
     1
102
RTVSPost2010Prop41ColorIndex
 90
       18
102
RTVSPost2010Prop41ColorRGB
 90
        0
102
RTVSPost2010PropOp41
 70
     1
102
RTVSPost2010Prop42
 90
       50
102
RTVSPost2010PropOp42
 70
     1
102
RTVSPost2010Prop43
 90
        3
102
RTVSPost2010PropOp43
 70
     1
102
RTVSPost2010Prop44ColorIndex
 90
        5
102
RTVSPost2010Prop44ColorRGB
 90
      255
102
RTVSPost2010PropOp44
 70
     1
102
RTVSPost2010Prop45
280
     0
102
RTVSPost2010PropOp45
 70
     1
102
RTVSPost2010Prop46
 90
       50
102
RTVSPost2010PropOp46
 70
     1
102
RTVSPost2010Prop47
 90
       50
102
RTVSPost2010PropOp47
 70
     1
102
RTVSPost2010Prop48
 90
       50
102
RTVSPost2010PropOp48
 70
     1
102
RTVSPost2010Prop49
280
     0
102
RTVSPost2010PropOp49
 70
     1
102
RTVSPost2010Prop50
 90
       50
102
RTVSPost2010PropOp50
 70
     1
102
RTVSPost2010Prop51ColorIndex
 90
      256
102
RTVSPost2010Prop51ColorRGB
 90
-16777216
102
RTVSPost2010PropOp51
 70
     0
102
RTVSPost2010Prop52
140
1.0
102
RTVSPost2010PropOp52
 70
     0
102
RTVSPost2010Prop53
 90
        2
102
RTVSPost2010PropOp53
 70
     1
102
RTVSPost2010Prop54
  1
strokes_ogs.tif
102
RTVSPost2010PropOp54
 70
     1
102
RTVSPost2010Prop55
280
     0
102
RTVSPost2010PropOp55
 70
     1
102
RTVSPost2010Prop56
140
1.0
102
RTVSPost2010PropOp56
 70
     1
102
RTVSPost2010Prop57
140
1.0
102
RTVSPost2010PropOp57
 70
     1
  0
XRECORD
  5
442F
102
{ACAD_REACTORS
330
442E
102
}
330
442E
100
AcDbXrecord
280
     1
102
RTVSPost2010Prop28
280
     0
102
RTVSPost2010PropOp28
 70
     1
102
RTVSPost2010Prop29
280
     1
102
RTVSPost2010PropOp29
 70
     1
102
RTVSPost2010Prop30
280
     1
102
RTVSPost2010PropOp30
 70
     1
102
RTVSPost2010Prop31
280
     0
102
RTVSPost2010PropOp31
 70
     1
102
RTVSPost2010Prop32
280
     0
102
RTVSPost2010PropOp32
 70
     1
102
RTVSPost2010Prop33
280
     0
102
RTVSPost2010PropOp33
 70
     1
102
RTVSPost2010Prop34
280
     0
102
RTVSPost2010PropOp34
 70
     1
102
RTVSPost2010Prop35
280
     0
102
RTVSPost2010PropOp35
 70
     1
102
RTVSPost2010Prop36
280
     0
102
RTVSPost2010PropOp36
 70
     1
102
RTVSPost2010Prop37
 90
       50
102
RTVSPost2010PropOp37
 70
     1
102
RTVSPost2010Prop38
140
0.0
102
RTVSPost2010PropOp38
 70
     1
102
RTVSPost2010Prop39
140
1.0
102
RTVSPost2010PropOp39
 70
     1
102
RTVSPost2010Prop40
 90
        0
102
RTVSPost2010PropOp40
 70
     1
102
RTVSPost2010Prop41ColorIndex
 90
       18
102
RTVSPost2010Prop41ColorRGB
 90
        0
102
RTVSPost2010PropOp41
 70
     1
102
RTVSPost2010Prop42
 90
       50
102
RTVSPost2010PropOp42
 70
     1
102
RTVSPost2010Prop43
 90
        3
102
RTVSPost2010PropOp43
 70
     1
102
RTVSPost2010Prop44ColorIndex
 90
        5
102
RTVSPost2010Prop44ColorRGB
 90
      255
102
RTVSPost2010PropOp44
 70
     1
102
RTVSPost2010Prop45
280
     0
102
RTVSPost2010PropOp45
 70
     1
102
RTVSPost2010Prop46
 90
       50
102
RTVSPost2010PropOp46
 70
     1
102
RTVSPost2010Prop47
 90
       50
102
RTVSPost2010PropOp47
 70
     1
102
RTVSPost2010Prop48
 90
       50
102
RTVSPost2010PropOp48
 70
     1
102
RTVSPost2010Prop49
280
     0
102
RTVSPost2010PropOp49
 70
     1
102
RTVSPost2010Prop50
 90
       50
102
RTVSPost2010PropOp50
 70
     1
102
RTVSPost2010Prop51ColorIndex
 90
      256
102
RTVSPost2010Prop51ColorRGB
 90
-16777216
102
RTVSPost2010PropOp51
 70
     0
102
RTVSPost2010Prop52
140
1.0
102
RTVSPost2010PropOp52
 70
     0
102
RTVSPost2010Prop53
 90
        2
102
RTVSPost2010PropOp53
 70
     1
102
RTVSPost2010Prop54
  1
strokes_ogs.tif
102
RTVSPost2010PropOp54
 70
     1
102
RTVSPost2010Prop55
280
     0
102
RTVSPost2010PropOp55
 70
     1
102
RTVSPost2010Prop56
140
1.0
102
RTVSPost2010PropOp56
 70
     1
102
RTVSPost2010Prop57
140
1.0
102
RTVSPost2010PropOp57
 70
     1
  0
XRECORD
  5
4433
102
{ACAD_REACTORS
330
4432
102
}
330
4432
100
AcDbXrecord
280
     1
102
RTVSPost2010Prop28
280
     0
102
RTVSPost2010PropOp28
 70
     1
102
RTVSPost2010Prop29
280
     1
102
RTVSPost2010PropOp29
 70
     1
102
RTVSPost2010Prop30
280
     1
102
RTVSPost2010PropOp30
 70
     1
102
RTVSPost2010Prop31
280
     0
102
RTVSPost2010PropOp31
 70
     1
102
RTVSPost2010Prop32
280
     0
102
RTVSPost2010PropOp32
 70
     1
102
RTVSPost2010Prop33
280
     0
102
RTVSPost2010PropOp33
 70
     1
102
RTVSPost2010Prop34
280
     0
102
RTVSPost2010PropOp34
 70
     1
102
RTVSPost2010Prop35
280
     0
102
RTVSPost2010PropOp35
 70
     1
102
RTVSPost2010Prop36
280
     0
102
RTVSPost2010PropOp36
 70
     1
102
RTVSPost2010Prop37
 90
       50
102
RTVSPost2010PropOp37
 70
     1
102
RTVSPost2010Prop38
140
0.0
102
RTVSPost2010PropOp38
 70
     1
102
RTVSPost2010Prop39
140
1.0
102
RTVSPost2010PropOp39
 70
     1
102
RTVSPost2010Prop40
 90
        0
102
RTVSPost2010PropOp40
 70
     1
102
RTVSPost2010Prop41ColorIndex
 90
       18
102
RTVSPost2010Prop41ColorRGB
 90
        0
102
RTVSPost2010PropOp41
 70
     1
102
RTVSPost2010Prop42
 90
       50
102
RTVSPost2010PropOp42
 70
     1
102
RTVSPost2010Prop43
 90
        3
102
RTVSPost2010PropOp43
 70
     1
102
RTVSPost2010Prop44ColorIndex
 90
        5
102
RTVSPost2010Prop44ColorRGB
 90
      255
102
RTVSPost2010PropOp44
 70
     1
102
RTVSPost2010Prop45
280
     0
102
RTVSPost2010PropOp45
 70
     1
102
RTVSPost2010Prop46
 90
       50
102
RTVSPost2010PropOp46
 70
     1
102
RTVSPost2010Prop47
 90
       50
102
RTVSPost2010PropOp47
 70
     1
102
RTVSPost2010Prop48
 90
       50
102
RTVSPost2010PropOp48
 70
     1
102
RTVSPost2010Prop49
280
     0
102
RTVSPost2010PropOp49
 70
     1
102
RTVSPost2010Prop50
 90
       50
102
RTVSPost2010PropOp50
 70
     1
102
RTVSPost2010Prop51ColorIndex
 90
      256
102
RTVSPost2010Prop51ColorRGB
 90
-16777216
102
RTVSPost2010PropOp51
 70
     0
102
RTVSPost2010Prop52
140
1.0
102
RTVSPost2010PropOp52
 70
     0
102
RTVSPost2010Prop53
 90
        2
102
RTVSPost2010PropOp53
 70
     1
102
RTVSPost2010Prop54
  1
strokes_ogs.tif
102
RTVSPost2010PropOp54
 70
     1
102
RTVSPost2010Prop55
280
     0
102
RTVSPost2010PropOp55
 70
     1
102
RTVSPost2010Prop56
140
1.0
102
RTVSPost2010PropOp56
 70
     1
102
RTVSPost2010Prop57
140
1.0
102
RTVSPost2010PropOp57
 70
     1
  0
XRECORD
  5
444D
102
{ACAD_REACTORS
330
444C
102
}
330
444C
100
AcDbXrecord
280
     1
102
RTVSPost2010Prop28
280
     0
102
RTVSPost2010PropOp28
 70
     0
102
RTVSPost2010Prop29
280
     1
102
RTVSPost2010PropOp29
 70
     0
102
RTVSPost2010Prop30
280
     1
102
RTVSPost2010PropOp30
 70
     0
102
RTVSPost2010Prop31
280
     0
102
RTVSPost2010PropOp31
 70
     0
102
RTVSPost2010Prop32
280
     0
102
RTVSPost2010PropOp32
 70
     0
102
RTVSPost2010Prop33
280
     0
102
RTVSPost2010PropOp33
 70
     0
102
RTVSPost2010Prop34
280
     0
102
RTVSPost2010PropOp34
 70
     0
102
RTVSPost2010Prop35
280
     0
102
RTVSPost2010PropOp35
 70
     0
102
RTVSPost2010Prop36
280
     0
102
RTVSPost2010PropOp36
 70
     0
102
RTVSPost2010Prop37
 90
       50
102
RTVSPost2010PropOp37
 70
     0
102
RTVSPost2010Prop38
140
0.0
102
RTVSPost2010PropOp38
 70
     0
102
RTVSPost2010Prop39
140
1.0
102
RTVSPost2010PropOp39
 70
     0
102
RTVSPost2010Prop40
 90
        0
102
RTVSPost2010PropOp40
 70
     0
102
RTVSPost2010Prop41ColorIndex
 90
       18
102
RTVSPost2010Prop41ColorRGB
 90
        0
102
RTVSPost2010PropOp41
 70
     0
102
RTVSPost2010Prop42
 90
       50
102
RTVSPost2010PropOp42
 70
     0
102
RTVSPost2010Prop43
 90
        3
102
RTVSPost2010PropOp43
 70
     0
102
RTVSPost2010Prop44ColorIndex
 90
        5
102
RTVSPost2010Prop44ColorRGB
 90
      255
102
RTVSPost2010PropOp44
 70
     0
102
RTVSPost2010Prop45
280
     0
102
RTVSPost2010PropOp45
 70
     0
102
RTVSPost2010Prop46
 90
       50
102
RTVSPost2010PropOp46
 70
     0
102
RTVSPost2010Prop47
 90
       50
102
RTVSPost2010PropOp47
 70
     0
102
RTVSPost2010Prop48
 90
       50
102
RTVSPost2010PropOp48
 70
     0
102
RTVSPost2010Prop49
280
     0
102
RTVSPost2010PropOp49
 70
     0
102
RTVSPost2010Prop50
 90
       50
102
RTVSPost2010PropOp50
 70
     0
102
RTVSPost2010Prop51ColorIndex
 90
      256
102
RTVSPost2010Prop51ColorRGB
 90
-16777216
102
RTVSPost2010PropOp51
 70
     0
102
RTVSPost2010Prop52
140
1.0
102
RTVSPost2010PropOp52
 70
     0
102
RTVSPost2010Prop53
 90
        2
102
RTVSPost2010PropOp53
 70
     0
102
RTVSPost2010Prop54
  1
strokes_ogs.tif
102
RTVSPost2010PropOp54
 70
     0
102
RTVSPost2010Prop55
280
     0
102
RTVSPost2010PropOp55
 70
     0
102
RTVSPost2010Prop56
140
1.0
102
RTVSPost2010PropOp56
 70
     0
102
RTVSPost2010Prop57
140
1.0
102
RTVSPost2010PropOp57
 70
     0
  0
XRECORD
  5
443B
102
{ACAD_REACTORS
330
443A
102
}
330
443A
100
AcDbXrecord
280
     1
102
RTVSPost2010Prop28
280
     0
102
RTVSPost2010PropOp28
 70
     1
102
RTVSPost2010Prop29
280
     1
102
RTVSPost2010PropOp29
 70
     1
102
RTVSPost2010Prop30
280
     1
102
RTVSPost2010PropOp30
 70
     1
102
RTVSPost2010Prop31
280
     0
102
RTVSPost2010PropOp31
 70
     1
102
RTVSPost2010Prop32
280
     0
102
RTVSPost2010PropOp32
 70
     1
102
RTVSPost2010Prop33
280
     0
102
RTVSPost2010PropOp33
 70
     1
102
RTVSPost2010Prop34
280
     0
102
RTVSPost2010PropOp34
 70
     1
102
RTVSPost2010Prop35
280
     0
102
RTVSPost2010PropOp35
 70
     1
102
RTVSPost2010Prop36
280
     0
102
RTVSPost2010PropOp36
 70
     1
102
RTVSPost2010Prop37
 90
       50
102
RTVSPost2010PropOp37
 70
     1
102
RTVSPost2010Prop38
140
0.0
102
RTVSPost2010PropOp38
 70
     1
102
RTVSPost2010Prop39
140
1.0
102
RTVSPost2010PropOp39
 70
     1
102
RTVSPost2010Prop40
 90
        0
102
RTVSPost2010PropOp40
 70
     1
102
RTVSPost2010Prop41ColorIndex
 90
       18
102
RTVSPost2010Prop41ColorRGB
 90
        0
102
RTVSPost2010PropOp41
 70
     1
102
RTVSPost2010Prop42
 90
       50
102
RTVSPost2010PropOp42
 70
     1
102
RTVSPost2010Prop43
 90
        3
102
RTVSPost2010PropOp43
 70
     1
102
RTVSPost2010Prop44ColorIndex
 90
        5
102
RTVSPost2010Prop44ColorRGB
 90
      255
102
RTVSPost2010PropOp44
 70
     1
102
RTVSPost2010Prop45
280
     0
102
RTVSPost2010PropOp45
 70
     1
102
RTVSPost2010Prop46
 90
       50
102
RTVSPost2010PropOp46
 70
     1
102
RTVSPost2010Prop47
 90
       50
102
RTVSPost2010PropOp47
 70
     1
102
RTVSPost2010Prop48
 90
       50
102
RTVSPost2010PropOp48
 70
     1
102
RTVSPost2010Prop49
280
     0
102
RTVSPost2010PropOp49
 70
     1
102
RTVSPost2010Prop50
 90
       50
102
RTVSPost2010PropOp50
 70
     1
102
RTVSPost2010Prop51ColorIndex
 90
      256
102
RTVSPost2010Prop51ColorRGB
 90
-16777216
102
RTVSPost2010PropOp51
 70
     0
102
RTVSPost2010Prop52
140
1.0
102
RTVSPost2010PropOp52
 70
     0
102
RTVSPost2010Prop53
 90
        2
102
RTVSPost2010PropOp53
 70
     1
102
RTVSPost2010Prop54
  1
strokes_ogs.tif
102
RTVSPost2010PropOp54
 70
     1
102
RTVSPost2010Prop55
280
     0
102
RTVSPost2010PropOp55
 70
     1
102
RTVSPost2010Prop56
140
1.0
102
RTVSPost2010PropOp56
 70
     1
102
RTVSPost2010Prop57
140
1.0
102
RTVSPost2010PropOp57
 70
     1
  0
XRECORD
  5
441F
102
{ACAD_REACTORS
330
441E
102
}
330
441E
100
AcDbXrecord
280
     1
102
RTVSPost2010Prop28
280
     0
102
RTVSPost2010PropOp28
 70
     1
102
RTVSPost2010Prop29
280
     1
102
RTVSPost2010PropOp29
 70
     1
102
RTVSPost2010Prop30
280
     1
102
RTVSPost2010PropOp30
 70
     1
102
RTVSPost2010Prop31
280
     0
102
RTVSPost2010PropOp31
 70
     1
102
RTVSPost2010Prop32
280
     0
102
RTVSPost2010PropOp32
 70
     1
102
RTVSPost2010Prop33
280
     0
102
RTVSPost2010PropOp33
 70
     1
102
RTVSPost2010Prop34
280
     0
102
RTVSPost2010PropOp34
 70
     1
102
RTVSPost2010Prop35
280
     0
102
RTVSPost2010PropOp35
 70
     1
102
RTVSPost2010Prop36
280
     0
102
RTVSPost2010PropOp36
 70
     1
102
RTVSPost2010Prop37
 90
       50
102
RTVSPost2010PropOp37
 70
     1
102
RTVSPost2010Prop38
140
0.0
102
RTVSPost2010PropOp38
 70
     1
102
RTVSPost2010Prop39
140
1.0
102
RTVSPost2010PropOp39
 70
     1
102
RTVSPost2010Prop40
 90
        0
102
RTVSPost2010PropOp40
 70
     1
102
RTVSPost2010Prop41ColorIndex
 90
       18
102
RTVSPost2010Prop41ColorRGB
 90
        0
102
RTVSPost2010PropOp41
 70
     1
102
RTVSPost2010Prop42
 90
       50
102
RTVSPost2010PropOp42
 70
     1
102
RTVSPost2010Prop43
 90
        3
102
RTVSPost2010PropOp43
 70
     1
102
RTVSPost2010Prop44ColorIndex
 90
        5
102
RTVSPost2010Prop44ColorRGB
 90
      255
102
RTVSPost2010PropOp44
 70
     1
102
RTVSPost2010Prop45
280
     0
102
RTVSPost2010PropOp45
 70
     1
102
RTVSPost2010Prop46
 90
       50
102
RTVSPost2010PropOp46
 70
     1
102
RTVSPost2010Prop47
 90
       50
102
RTVSPost2010PropOp47
 70
     1
102
RTVSPost2010Prop48
 90
       50
102
RTVSPost2010PropOp48
 70
     1
102
RTVSPost2010Prop49
280
     0
102
RTVSPost2010PropOp49
 70
     1
102
RTVSPost2010Prop50
 90
       50
102
RTVSPost2010PropOp50
 70
     1
102
RTVSPost2010Prop51ColorIndex
 90
      256
102
RTVSPost2010Prop51ColorRGB
 90
-16777216
102
RTVSPost2010PropOp51
 70
     0
102
RTVSPost2010Prop52
140
1.0
102
RTVSPost2010PropOp52
 70
     0
102
RTVSPost2010Prop53
 90
        2
102
RTVSPost2010PropOp53
 70
     1
102
RTVSPost2010Prop54
  1
strokes_ogs.tif
102
RTVSPost2010PropOp54
 70
     1
102
RTVSPost2010Prop55
280
     0
102
RTVSPost2010PropOp55
 70
     1
102
RTVSPost2010Prop56
140
1.0
102
RTVSPost2010PropOp56
 70
     1
102
RTVSPost2010Prop57
140
1.0
102
RTVSPost2010PropOp57
 70
     1
  0
XRECORD
  5
4421
102
{ACAD_REACTORS
330
4420
102
}
330
4420
100
AcDbXrecord
280
     1
102
RTVSPost2010Prop28
280
     0
102
RTVSPost2010PropOp28
 70
     1
102
RTVSPost2010Prop29
280
     1
102
RTVSPost2010PropOp29
 70
     1
102
RTVSPost2010Prop30
280
     1
102
RTVSPost2010PropOp30
 70
     1
102
RTVSPost2010Prop31
280
     0
102
RTVSPost2010PropOp31
 70
     1
102
RTVSPost2010Prop32
280
     0
102
RTVSPost2010PropOp32
 70
     1
102
RTVSPost2010Prop33
280
     0
102
RTVSPost2010PropOp33
 70
     1
102
RTVSPost2010Prop34
280
     0
102
RTVSPost2010PropOp34
 70
     1
102
RTVSPost2010Prop35
280
     0
102
RTVSPost2010PropOp35
 70
     1
102
RTVSPost2010Prop36
280
     0
102
RTVSPost2010PropOp36
 70
     1
102
RTVSPost2010Prop37
 90
       50
102
RTVSPost2010PropOp37
 70
     1
102
RTVSPost2010Prop38
140
0.0
102
RTVSPost2010PropOp38
 70
     1
102
RTVSPost2010Prop39
140
1.0
102
RTVSPost2010PropOp39
 70
     1
102
RTVSPost2010Prop40
 90
        0
102
RTVSPost2010PropOp40
 70
     1
102
RTVSPost2010Prop41ColorIndex
 90
       18
102
RTVSPost2010Prop41ColorRGB
 90
        0
102
RTVSPost2010PropOp41
 70
     1
102
RTVSPost2010Prop42
 90
       50
102
RTVSPost2010PropOp42
 70
     1
102
RTVSPost2010Prop43
 90
        3
102
RTVSPost2010PropOp43
 70
     1
102
RTVSPost2010Prop44ColorIndex
 90
        5
102
RTVSPost2010Prop44ColorRGB
 90
      255
102
RTVSPost2010PropOp44
 70
     1
102
RTVSPost2010Prop45
280
     0
102
RTVSPost2010PropOp45
 70
     1
102
RTVSPost2010Prop46
 90
       50
102
RTVSPost2010PropOp46
 70
     1
102
RTVSPost2010Prop47
 90
       50
102
RTVSPost2010PropOp47
 70
     1
102
RTVSPost2010Prop48
 90
       50
102
RTVSPost2010PropOp48
 70
     1
102
RTVSPost2010Prop49
280
     0
102
RTVSPost2010PropOp49
 70
     1
102
RTVSPost2010Prop50
 90
       50
102
RTVSPost2010PropOp50
 70
     1
102
RTVSPost2010Prop51ColorIndex
 90
      256
102
RTVSPost2010Prop51ColorRGB
 90
-16777216
102
RTVSPost2010PropOp51
 70
     0
102
RTVSPost2010Prop52
140
1.0
102
RTVSPost2010PropOp52
 70
     0
102
RTVSPost2010Prop53
 90
        2
102
RTVSPost2010PropOp53
 70
     1
102
RTVSPost2010Prop54
  1
strokes_ogs.tif
102
RTVSPost2010PropOp54
 70
     1
102
RTVSPost2010Prop55
280
     0
102
RTVSPost2010PropOp55
 70
     1
102
RTVSPost2010Prop56
140
1.0
102
RTVSPost2010PropOp56
 70
     1
102
RTVSPost2010Prop57
140
1.0
102
RTVSPost2010PropOp57
 70
     1
  0
XRECORD
  5
4423
102
{ACAD_REACTORS
330
4422
102
}
330
4422
100
AcDbXrecord
280
     1
102
RTVSPost2010Prop28
280
     0
102
RTVSPost2010PropOp28
 70
     1
102
RTVSPost2010Prop29
280
     1
102
RTVSPost2010PropOp29
 70
     1
102
RTVSPost2010Prop30
280
     1
102
RTVSPost2010PropOp30
 70
     1
102
RTVSPost2010Prop31
280
     0
102
RTVSPost2010PropOp31
 70
     1
102
RTVSPost2010Prop32
280
     0
102
RTVSPost2010PropOp32
 70
     1
102
RTVSPost2010Prop33
280
     0
102
RTVSPost2010PropOp33
 70
     1
102
RTVSPost2010Prop34
280
     0
102
RTVSPost2010PropOp34
 70
     1
102
RTVSPost2010Prop35
280
     0
102
RTVSPost2010PropOp35
 70
     1
102
RTVSPost2010Prop36
280
     0
102
RTVSPost2010PropOp36
 70
     1
102
RTVSPost2010Prop37
 90
       50
102
RTVSPost2010PropOp37
 70
     1
102
RTVSPost2010Prop38
140
0.0
102
RTVSPost2010PropOp38
 70
     1
102
RTVSPost2010Prop39
140
1.0
102
RTVSPost2010PropOp39
 70
     1
102
RTVSPost2010Prop40
 90
        0
102
RTVSPost2010PropOp40
 70
     1
102
RTVSPost2010Prop41ColorIndex
 90
       18
102
RTVSPost2010Prop41ColorRGB
 90
        0
102
RTVSPost2010PropOp41
 70
     1
102
RTVSPost2010Prop42
 90
       50
102
RTVSPost2010PropOp42
 70
     1
102
RTVSPost2010Prop43
 90
        3
102
RTVSPost2010PropOp43
 70
     1
102
RTVSPost2010Prop44ColorIndex
 90
        5
102
RTVSPost2010Prop44ColorRGB
 90
      255
102
RTVSPost2010PropOp44
 70
     1
102
RTVSPost2010Prop45
280
     0
102
RTVSPost2010PropOp45
 70
     1
102
RTVSPost2010Prop46
 90
       50
102
RTVSPost2010PropOp46
 70
     1
102
RTVSPost2010Prop47
 90
       50
102
RTVSPost2010PropOp47
 70
     1
102
RTVSPost2010Prop48
 90
       50
102
RTVSPost2010PropOp48
 70
     1
102
RTVSPost2010Prop49
280
     0
102
RTVSPost2010PropOp49
 70
     1
102
RTVSPost2010Prop50
 90
       50
102
RTVSPost2010PropOp50
 70
     1
102
RTVSPost2010Prop51ColorIndex
 90
      256
102
RTVSPost2010Prop51ColorRGB
 90
-16777216
102
RTVSPost2010PropOp51
 70
     0
102
RTVSPost2010Prop52
140
1.0
102
RTVSPost2010PropOp52
 70
     0
102
RTVSPost2010Prop53
 90
        2
102
RTVSPost2010PropOp53
 70
     1
102
RTVSPost2010Prop54
  1
strokes_ogs.tif
102
RTVSPost2010PropOp54
 70
     1
102
RTVSPost2010Prop55
280
     0
102
RTVSPost2010PropOp55
 70
     1
102
RTVSPost2010Prop56
140
1.0
102
RTVSPost2010PropOp56
 70
     1
102
RTVSPost2010Prop57
140
1.0
102
RTVSPost2010PropOp57
 70
     1
  0
XRECORD
  5
4425
102
{ACAD_REACTORS
330
4424
102
}
330
4424
100
AcDbXrecord
280
     1
102
RTVSPost2010Prop28
280
     0
102
RTVSPost2010PropOp28
 70
     1
102
RTVSPost2010Prop29
280
     1
102
RTVSPost2010PropOp29
 70
     1
102
RTVSPost2010Prop30
280
     1
102
RTVSPost2010PropOp30
 70
     1
102
RTVSPost2010Prop31
280
     0
102
RTVSPost2010PropOp31
 70
     1
102
RTVSPost2010Prop32
280
     0
102
RTVSPost2010PropOp32
 70
     1
102
RTVSPost2010Prop33
280
     0
102
RTVSPost2010PropOp33
 70
     1
102
RTVSPost2010Prop34
280
     0
102
RTVSPost2010PropOp34
 70
     1
102
RTVSPost2010Prop35
280
     0
102
RTVSPost2010PropOp35
 70
     1
102
RTVSPost2010Prop36
280
     0
102
RTVSPost2010PropOp36
 70
     1
102
RTVSPost2010Prop37
 90
       50
102
RTVSPost2010PropOp37
 70
     1
102
RTVSPost2010Prop38
140
0.0
102
RTVSPost2010PropOp38
 70
     1
102
RTVSPost2010Prop39
140
1.0
102
RTVSPost2010PropOp39
 70
     1
102
RTVSPost2010Prop40
 90
        0
102
RTVSPost2010PropOp40
 70
     1
102
RTVSPost2010Prop41ColorIndex
 90
       18
102
RTVSPost2010Prop41ColorRGB
 90
        0
102
RTVSPost2010PropOp41
 70
     1
102
RTVSPost2010Prop42
 90
       50
102
RTVSPost2010PropOp42
 70
     1
102
RTVSPost2010Prop43
 90
        3
102
RTVSPost2010PropOp43
 70
     1
102
RTVSPost2010Prop44ColorIndex
 90
        5
102
RTVSPost2010Prop44ColorRGB
 90
      255
102
RTVSPost2010PropOp44
 70
     1
102
RTVSPost2010Prop45
280
     0
102
RTVSPost2010PropOp45
 70
     1
102
RTVSPost2010Prop46
 90
       50
102
RTVSPost2010PropOp46
 70
     1
102
RTVSPost2010Prop47
 90
       50
102
RTVSPost2010PropOp47
 70
     1
102
RTVSPost2010Prop48
 90
       50
102
RTVSPost2010PropOp48
 70
     1
102
RTVSPost2010Prop49
280
     0
102
RTVSPost2010PropOp49
 70
     1
102
RTVSPost2010Prop50
 90
       50
102
RTVSPost2010PropOp50
 70
     1
102
RTVSPost2010Prop51ColorIndex
 90
      256
102
RTVSPost2010Prop51ColorRGB
 90
-16777216
102
RTVSPost2010PropOp51
 70
     0
102
RTVSPost2010Prop52
140
1.0
102
RTVSPost2010PropOp52
 70
     0
102
RTVSPost2010Prop53
 90
        2
102
RTVSPost2010PropOp53
 70
     1
102
RTVSPost2010Prop54
  1
strokes_ogs.tif
102
RTVSPost2010PropOp54
 70
     1
102
RTVSPost2010Prop55
280
     0
102
RTVSPost2010PropOp55
 70
     1
102
RTVSPost2010Prop56
140
1.0
102
RTVSPost2010PropOp56
 70
     1
102
RTVSPost2010Prop57
140
1.0
102
RTVSPost2010PropOp57
 70
     1
  0
XRECORD
  5
442D
102
{ACAD_REACTORS
330
442C
102
}
330
442C
100
AcDbXrecord
280
     1
102
RTVSPost2010Prop28
280
     0
102
RTVSPost2010PropOp28
 70
     1
102
RTVSPost2010Prop29
280
     1
102
RTVSPost2010PropOp29
 70
     1
102
RTVSPost2010Prop30
280
     1
102
RTVSPost2010PropOp30
 70
     1
102
RTVSPost2010Prop31
280
     0
102
RTVSPost2010PropOp31
 70
     1
102
RTVSPost2010Prop32
280
     0
102
RTVSPost2010PropOp32
 70
     1
102
RTVSPost2010Prop33
280
     0
102
RTVSPost2010PropOp33
 70
     1
102
RTVSPost2010Prop34
280
     0
102
RTVSPost2010PropOp34
 70
     1
102
RTVSPost2010Prop35
280
     0
102
RTVSPost2010PropOp35
 70
     1
102
RTVSPost2010Prop36
280
     0
102
RTVSPost2010PropOp36
 70
     1
102
RTVSPost2010Prop37
 90
       50
102
RTVSPost2010PropOp37
 70
     1
102
RTVSPost2010Prop38
140
0.0
102
RTVSPost2010PropOp38
 70
     1
102
RTVSPost2010Prop39
140
1.0
102
RTVSPost2010PropOp39
 70
     1
102
RTVSPost2010Prop40
 90
        0
102
RTVSPost2010PropOp40
 70
     1
102
RTVSPost2010Prop41ColorIndex
 90
       18
102
RTVSPost2010Prop41ColorRGB
 90
        0
102
RTVSPost2010PropOp41
 70
     1
102
RTVSPost2010Prop42
 90
       50
102
RTVSPost2010PropOp42
 70
     1
102
RTVSPost2010Prop43
 90
        3
102
RTVSPost2010PropOp43
 70
     1
102
RTVSPost2010Prop44ColorIndex
 90
        5
102
RTVSPost2010Prop44ColorRGB
 90
      255
102
RTVSPost2010PropOp44
 70
     1
102
RTVSPost2010Prop45
280
     0
102
RTVSPost2010PropOp45
 70
     1
102
RTVSPost2010Prop46
 90
       50
102
RTVSPost2010PropOp46
 70
     1
102
RTVSPost2010Prop47
 90
       50
102
RTVSPost2010PropOp47
 70
     1
102
RTVSPost2010Prop48
 90
       50
102
RTVSPost2010PropOp48
 70
     1
102
RTVSPost2010Prop49
280
     0
102
RTVSPost2010PropOp49
 70
     1
102
RTVSPost2010Prop50
 90
       50
102
RTVSPost2010PropOp50
 70
     1
102
RTVSPost2010Prop51ColorIndex
 90
      256
102
RTVSPost2010Prop51ColorRGB
 90
-16777216
102
RTVSPost2010PropOp51
 70
     0
102
RTVSPost2010Prop52
140
1.0
102
RTVSPost2010PropOp52
 70
     0
102
RTVSPost2010Prop53
 90
        2
102
RTVSPost2010PropOp53
 70
     1
102
RTVSPost2010Prop54
  1
strokes_ogs.tif
102
RTVSPost2010PropOp54
 70
     1
102
RTVSPost2010Prop55
280
     0
102
RTVSPost2010PropOp55
 70
     1
102
RTVSPost2010Prop56
140
1.0
102
RTVSPost2010PropOp56
 70
     1
102
RTVSPost2010Prop57
140
1.0
102
RTVSPost2010PropOp57
 70
     1
  0
XRECORD
  5
4449
102
{ACAD_REACTORS
330
4448
102
}
330
4448
100
AcDbXrecord
280
     1
102
RTVSPost2010Prop28
280
     0
102
RTVSPost2010PropOp28
 70
     0
102
RTVSPost2010Prop29
280
     1
102
RTVSPost2010PropOp29
 70
     0
102
RTVSPost2010Prop30
280
     1
102
RTVSPost2010PropOp30
 70
     0
102
RTVSPost2010Prop31
280
     0
102
RTVSPost2010PropOp31
 70
     0
102
RTVSPost2010Prop32
280
     0
102
RTVSPost2010PropOp32
 70
     0
102
RTVSPost2010Prop33
280
     0
102
RTVSPost2010PropOp33
 70
     0
102
RTVSPost2010Prop34
280
     0
102
RTVSPost2010PropOp34
 70
     0
102
RTVSPost2010Prop35
280
     0
102
RTVSPost2010PropOp35
 70
     0
102
RTVSPost2010Prop36
280
     0
102
RTVSPost2010PropOp36
 70
     0
102
RTVSPost2010Prop37
 90
       50
102
RTVSPost2010PropOp37
 70
     0
102
RTVSPost2010Prop38
140
0.0
102
RTVSPost2010PropOp38
 70
     0
102
RTVSPost2010Prop39
140
1.0
102
RTVSPost2010PropOp39
 70
     0
102
RTVSPost2010Prop40
 90
        0
102
RTVSPost2010PropOp40
 70
     0
102
RTVSPost2010Prop41ColorIndex
 90
       18
102
RTVSPost2010Prop41ColorRGB
 90
        0
102
RTVSPost2010PropOp41
 70
     0
102
RTVSPost2010Prop42
 90
       50
102
RTVSPost2010PropOp42
 70
     0
102
RTVSPost2010Prop43
 90
        3
102
RTVSPost2010PropOp43
 70
     0
102
RTVSPost2010Prop44ColorIndex
 90
        5
102
RTVSPost2010Prop44ColorRGB
 90
      255
102
RTVSPost2010PropOp44
 70
     0
102
RTVSPost2010Prop45
280
     0
102
RTVSPost2010PropOp45
 70
     0
102
RTVSPost2010Prop46
 90
       50
102
RTVSPost2010PropOp46
 70
     0
102
RTVSPost2010Prop47
 90
       50
102
RTVSPost2010PropOp47
 70
     0
102
RTVSPost2010Prop48
 90
       50
102
RTVSPost2010PropOp48
 70
     0
102
RTVSPost2010Prop49
280
     0
102
RTVSPost2010PropOp49
 70
     0
102
RTVSPost2010Prop50
 90
       50
102
RTVSPost2010PropOp50
 70
     0
102
RTVSPost2010Prop51ColorIndex
 90
      256
102
RTVSPost2010Prop51ColorRGB
 90
-16777216
102
RTVSPost2010PropOp51
 70
     0
102
RTVSPost2010Prop52
140
1.0
102
RTVSPost2010PropOp52
 70
     0
102
RTVSPost2010Prop53
 90
        2
102
RTVSPost2010PropOp53
 70
     0
102
RTVSPost2010Prop54
  1
strokes_ogs.tif
102
RTVSPost2010PropOp54
 70
     0
102
RTVSPost2010Prop55
280
     0
102
RTVSPost2010PropOp55
 70
     0
102
RTVSPost2010Prop56
140
1.0
102
RTVSPost2010PropOp56
 70
     0
102
RTVSPost2010Prop57
140
1.0
102
RTVSPost2010PropOp57
 70
     0
  0
XRECORD
  5
4439
102
{ACAD_REACTORS
330
4438
102
}
330
4438
100
AcDbXrecord
280
     1
102
RTVSPost2010Prop28
280
     0
102
RTVSPost2010PropOp28
 70
     1
102
RTVSPost2010Prop29
280
     1
102
RTVSPost2010PropOp29
 70
     1
102
RTVSPost2010Prop30
280
     1
102
RTVSPost2010PropOp30
 70
     1
102
RTVSPost2010Prop31
280
     0
102
RTVSPost2010PropOp31
 70
     1
102
RTVSPost2010Prop32
280
     0
102
RTVSPost2010PropOp32
 70
     1
102
RTVSPost2010Prop33
280
     0
102
RTVSPost2010PropOp33
 70
     1
102
RTVSPost2010Prop34
280
     0
102
RTVSPost2010PropOp34
 70
     1
102
RTVSPost2010Prop35
280
     0
102
RTVSPost2010PropOp35
 70
     1
102
RTVSPost2010Prop36
280
     0
102
RTVSPost2010PropOp36
 70
     1
102
RTVSPost2010Prop37
 90
       50
102
RTVSPost2010PropOp37
 70
     1
102
RTVSPost2010Prop38
140
0.0
102
RTVSPost2010PropOp38
 70
     1
102
RTVSPost2010Prop39
140
1.0
102
RTVSPost2010PropOp39
 70
     1
102
RTVSPost2010Prop40
 90
        0
102
RTVSPost2010PropOp40
 70
     1
102
RTVSPost2010Prop41ColorIndex
 90
       18
102
RTVSPost2010Prop41ColorRGB
 90
        0
102
RTVSPost2010PropOp41
 70
     1
102
RTVSPost2010Prop42
 90
       50
102
RTVSPost2010PropOp42
 70
     1
102
RTVSPost2010Prop43
 90
        3
102
RTVSPost2010PropOp43
 70
     1
102
RTVSPost2010Prop44ColorIndex
 90
        5
102
RTVSPost2010Prop44ColorRGB
 90
      255
102
RTVSPost2010PropOp44
 70
     1
102
RTVSPost2010Prop45
280
     0
102
RTVSPost2010PropOp45
 70
     1
102
RTVSPost2010Prop46
 90
       50
102
RTVSPost2010PropOp46
 70
     1
102
RTVSPost2010Prop47
 90
       50
102
RTVSPost2010PropOp47
 70
     1
102
RTVSPost2010Prop48
 90
       50
102
RTVSPost2010PropOp48
 70
     1
102
RTVSPost2010Prop49
280
     0
102
RTVSPost2010PropOp49
 70
     1
102
RTVSPost2010Prop50
 90
       50
102
RTVSPost2010PropOp50
 70
     1
102
RTVSPost2010Prop51ColorIndex
 90
      256
102
RTVSPost2010Prop51ColorRGB
 90
-16777216
102
RTVSPost2010PropOp51
 70
     0
102
RTVSPost2010Prop52
140
1.0
102
RTVSPost2010PropOp52
 70
     0
102
RTVSPost2010Prop53
 90
        2
102
RTVSPost2010PropOp53
 70
     1
102
RTVSPost2010Prop54
  1
strokes_ogs.tif
102
RTVSPost2010PropOp54
 70
     1
102
RTVSPost2010Prop55
280
     0
102
RTVSPost2010PropOp55
 70
     1
102
RTVSPost2010Prop56
140
1.0
102
RTVSPost2010PropOp56
 70
     1
102
RTVSPost2010Prop57
140
1.0
102
RTVSPost2010PropOp57
 70
     1
  0
XRECORD
  5
444B
102
{ACAD_REACTORS
330
444A
102
}
330
444A
100
AcDbXrecord
280
     1
102
RTVSPost2010Prop28
280
     0
102
RTVSPost2010PropOp28
 70
     0
102
RTVSPost2010Prop29
280
     1
102
RTVSPost2010PropOp29
 70
     0
102
RTVSPost2010Prop30
280
     1
102
RTVSPost2010PropOp30
 70
     0
102
RTVSPost2010Prop31
280
     0
102
RTVSPost2010PropOp31
 70
     0
102
RTVSPost2010Prop32
280
     0
102
RTVSPost2010PropOp32
 70
     0
102
RTVSPost2010Prop33
280
     0
102
RTVSPost2010PropOp33
 70
     0
102
RTVSPost2010Prop34
280
     0
102
RTVSPost2010PropOp34
 70
     0
102
RTVSPost2010Prop35
280
     0
102
RTVSPost2010PropOp35
 70
     0
102
RTVSPost2010Prop36
280
     0
102
RTVSPost2010PropOp36
 70
     0
102
RTVSPost2010Prop37
 90
       50
102
RTVSPost2010PropOp37
 70
     0
102
RTVSPost2010Prop38
140
0.0
102
RTVSPost2010PropOp38
 70
     0
102
RTVSPost2010Prop39
140
1.0
102
RTVSPost2010PropOp39
 70
     0
102
RTVSPost2010Prop40
 90
        0
102
RTVSPost2010PropOp40
 70
     0
102
RTVSPost2010Prop41ColorIndex
 90
       18
102
RTVSPost2010Prop41ColorRGB
 90
        0
102
RTVSPost2010PropOp41
 70
     0
102
RTVSPost2010Prop42
 90
       50
102
RTVSPost2010PropOp42
 70
     0
102
RTVSPost2010Prop43
 90
        3
102
RTVSPost2010PropOp43
 70
     0
102
RTVSPost2010Prop44ColorIndex
 90
        5
102
RTVSPost2010Prop44ColorRGB
 90
      255
102
RTVSPost2010PropOp44
 70
     0
102
RTVSPost2010Prop45
280
     0
102
RTVSPost2010PropOp45
 70
     0
102
RTVSPost2010Prop46
 90
       50
102
RTVSPost2010PropOp46
 70
     0
102
RTVSPost2010Prop47
 90
       50
102
RTVSPost2010PropOp47
 70
     0
102
RTVSPost2010Prop48
 90
       50
102
RTVSPost2010PropOp48
 70
     0
102
RTVSPost2010Prop49
280
     0
102
RTVSPost2010PropOp49
 70
     0
102
RTVSPost2010Prop50
 90
       50
102
RTVSPost2010PropOp50
 70
     0
102
RTVSPost2010Prop51ColorIndex
 90
      256
102
RTVSPost2010Prop51ColorRGB
 90
-16777216
102
RTVSPost2010PropOp51
 70
     0
102
RTVSPost2010Prop52
140
1.0
102
RTVSPost2010PropOp52
 70
     0
102
RTVSPost2010Prop53
 90
        2
102
RTVSPost2010PropOp53
 70
     0
102
RTVSPost2010Prop54
  1
strokes_ogs.tif
102
RTVSPost2010PropOp54
 70
     0
102
RTVSPost2010Prop55
280
     0
102
RTVSPost2010PropOp55
 70
     0
102
RTVSPost2010Prop56
140
1.0
102
RTVSPost2010PropOp56
 70
     0
102
RTVSPost2010Prop57
140
1.0
102
RTVSPost2010PropOp57
 70
     0
  0
XRECORD
  5
4431
102
{ACAD_REACTORS
330
4430
102
}
330
4430
100
AcDbXrecord
280
     1
102
RTVSPost2010Prop28
280
     0
102
RTVSPost2010PropOp28
 70
     1
102
RTVSPost2010Prop29
280
     1
102
RTVSPost2010PropOp29
 70
     1
102
RTVSPost2010Prop30
280
     1
102
RTVSPost2010PropOp30
 70
     1
102
RTVSPost2010Prop31
280
     0
102
RTVSPost2010PropOp31
 70
     1
102
RTVSPost2010Prop32
280
     0
102
RTVSPost2010PropOp32
 70
     1
102
RTVSPost2010Prop33
280
     0
102
RTVSPost2010PropOp33
 70
     1
102
RTVSPost2010Prop34
280
     0
102
RTVSPost2010PropOp34
 70
     1
102
RTVSPost2010Prop35
280
     0
102
RTVSPost2010PropOp35
 70
     1
102
RTVSPost2010Prop36
280
     0
102
RTVSPost2010PropOp36
 70
     1
102
RTVSPost2010Prop37
 90
       50
102
RTVSPost2010PropOp37
 70
     1
102
RTVSPost2010Prop38
140
0.0
102
RTVSPost2010PropOp38
 70
     1
102
RTVSPost2010Prop39
140
1.0
102
RTVSPost2010PropOp39
 70
     1
102
RTVSPost2010Prop40
 90
        0
102
RTVSPost2010PropOp40
 70
     1
102
RTVSPost2010Prop41ColorIndex
 90
       18
102
RTVSPost2010Prop41ColorRGB
 90
        0
102
RTVSPost2010PropOp41
 70
     1
102
RTVSPost2010Prop42
 90
       50
102
RTVSPost2010PropOp42
 70
     1
102
RTVSPost2010Prop43
 90
        3
102
RTVSPost2010PropOp43
 70
     1
102
RTVSPost2010Prop44ColorIndex
 90
        5
102
RTVSPost2010Prop44ColorRGB
 90
      255
102
RTVSPost2010PropOp44
 70
     1
102
RTVSPost2010Prop45
280
     0
102
RTVSPost2010PropOp45
 70
     1
102
RTVSPost2010Prop46
 90
       50
102
RTVSPost2010PropOp46
 70
     1
102
RTVSPost2010Prop47
 90
       50
102
RTVSPost2010PropOp47
 70
     1
102
RTVSPost2010Prop48
 90
       50
102
RTVSPost2010PropOp48
 70
     1
102
RTVSPost2010Prop49
280
     0
102
RTVSPost2010PropOp49
 70
     1
102
RTVSPost2010Prop50
 90
       50
102
RTVSPost2010PropOp50
 70
     1
102
RTVSPost2010Prop51ColorIndex
 90
      256
102
RTVSPost2010Prop51ColorRGB
 90
-16777216
102
RTVSPost2010PropOp51
 70
     0
102
RTVSPost2010Prop52
140
1.0
102
RTVSPost2010PropOp52
 70
     0
102
RTVSPost2010Prop53
 90
        2
102
RTVSPost2010PropOp53
 70
     1
102
RTVSPost2010Prop54
  1
strokes_ogs.tif
102
RTVSPost2010PropOp54
 70
     1
102
RTVSPost2010Prop55
280
     0
102
RTVSPost2010PropOp55
 70
     1
102
RTVSPost2010Prop56
140
1.0
102
RTVSPost2010PropOp56
 70
     1
102
RTVSPost2010Prop57
140
1.0
102
RTVSPost2010PropOp57
 70
     1
  0
XRECORD
  5
4447
102
{ACAD_REACTORS
330
4446
102
}
330
4446
100
AcDbXrecord
280
     1
102
RTVSPost2010Prop28
280
     0
102
RTVSPost2010PropOp28
 70
     1
102
RTVSPost2010Prop29
280
     1
102
RTVSPost2010PropOp29
 70
     1
102
RTVSPost2010Prop30
280
     1
102
RTVSPost2010PropOp30
 70
     1
102
RTVSPost2010Prop31
280
     0
102
RTVSPost2010PropOp31
 70
     1
102
RTVSPost2010Prop32
280
     0
102
RTVSPost2010PropOp32
 70
     1
102
RTVSPost2010Prop33
280
     0
102
RTVSPost2010PropOp33
 70
     1
102
RTVSPost2010Prop34
280
     0
102
RTVSPost2010PropOp34
 70
     1
102
RTVSPost2010Prop35
280
     0
102
RTVSPost2010PropOp35
 70
     1
102
RTVSPost2010Prop36
280
     0
102
RTVSPost2010PropOp36
 70
     1
102
RTVSPost2010Prop37
 90
       50
102
RTVSPost2010PropOp37
 70
     1
102
RTVSPost2010Prop38
140
0.0
102
RTVSPost2010PropOp38
 70
     1
102
RTVSPost2010Prop39
140
1.0
102
RTVSPost2010PropOp39
 70
     1
102
RTVSPost2010Prop40
 90
        0
102
RTVSPost2010PropOp40
 70
     1
102
RTVSPost2010Prop41ColorIndex
 90
       18
102
RTVSPost2010Prop41ColorRGB
 90
        0
102
RTVSPost2010PropOp41
 70
     1
102
RTVSPost2010Prop42
 90
       50
102
RTVSPost2010PropOp42
 70
     1
102
RTVSPost2010Prop43
 90
        3
102
RTVSPost2010PropOp43
 70
     1
102
RTVSPost2010Prop44ColorIndex
 90
        5
102
RTVSPost2010Prop44ColorRGB
 90
      255
102
RTVSPost2010PropOp44
 70
     1
102
RTVSPost2010Prop45
280
     0
102
RTVSPost2010PropOp45
 70
     1
102
RTVSPost2010Prop46
 90
       50
102
RTVSPost2010PropOp46
 70
     1
102
RTVSPost2010Prop47
 90
       50
102
RTVSPost2010PropOp47
 70
     1
102
RTVSPost2010Prop48
 90
       50
102
RTVSPost2010PropOp48
 70
     1
102
RTVSPost2010Prop49
280
     0
102
RTVSPost2010PropOp49
 70
     1
102
RTVSPost2010Prop50
 90
       50
102
RTVSPost2010PropOp50
 70
     1
102
RTVSPost2010Prop51ColorIndex
 90
      256
102
RTVSPost2010Prop51ColorRGB
 90
-16777216
102
RTVSPost2010PropOp51
 70
     0
102
RTVSPost2010Prop52
140
1.0
102
RTVSPost2010PropOp52
 70
     0
102
RTVSPost2010Prop53
 90
        2
102
RTVSPost2010PropOp53
 70
     1
102
RTVSPost2010Prop54
  1
strokes_ogs.tif
102
RTVSPost2010PropOp54
 70
     1
102
RTVSPost2010Prop55
280
     0
102
RTVSPost2010PropOp55
 70
     1
102
RTVSPost2010Prop56
140
1.0
102
RTVSPost2010PropOp56
 70
     1
102
RTVSPost2010Prop57
140
1.0
102
RTVSPost2010PropOp57
 70
     1
  0
XRECORD
  5
4445
102
{ACAD_REACTORS
330
4444
102
}
330
4444
100
AcDbXrecord
280
     1
102
RTVSPost2010Prop28
280
     0
102
RTVSPost2010PropOp28
 70
     1
102
RTVSPost2010Prop29
280
     1
102
RTVSPost2010PropOp29
 70
     1
102
RTVSPost2010Prop30
280
     1
102
RTVSPost2010PropOp30
 70
     1
102
RTVSPost2010Prop31
280
     0
102
RTVSPost2010PropOp31
 70
     1
102
RTVSPost2010Prop32
280
     0
102
RTVSPost2010PropOp32
 70
     1
102
RTVSPost2010Prop33
280
     0
102
RTVSPost2010PropOp33
 70
     1
102
RTVSPost2010Prop34
280
     0
102
RTVSPost2010PropOp34
 70
     1
102
RTVSPost2010Prop35
280
     0
102
RTVSPost2010PropOp35
 70
     1
102
RTVSPost2010Prop36
280
     0
102
RTVSPost2010PropOp36
 70
     1
102
RTVSPost2010Prop37
 90
       50
102
RTVSPost2010PropOp37
 70
     1
102
RTVSPost2010Prop38
140
0.0
102
RTVSPost2010PropOp38
 70
     1
102
RTVSPost2010Prop39
140
1.0
102
RTVSPost2010PropOp39
 70
     1
102
RTVSPost2010Prop40
 90
        0
102
RTVSPost2010PropOp40
 70
     1
102
RTVSPost2010Prop41ColorIndex
 90
       18
102
RTVSPost2010Prop41ColorRGB
 90
        0
102
RTVSPost2010PropOp41
 70
     1
102
RTVSPost2010Prop42
 90
       50
102
RTVSPost2010PropOp42
 70
     1
102
RTVSPost2010Prop43
 90
        3
102
RTVSPost2010PropOp43
 70
     1
102
RTVSPost2010Prop44ColorIndex
 90
        5
102
RTVSPost2010Prop44ColorRGB
 90
      255
102
RTVSPost2010PropOp44
 70
     1
102
RTVSPost2010Prop45
280
     0
102
RTVSPost2010PropOp45
 70
     1
102
RTVSPost2010Prop46
 90
       50
102
RTVSPost2010PropOp46
 70
     1
102
RTVSPost2010Prop47
 90
       50
102
RTVSPost2010PropOp47
 70
     1
102
RTVSPost2010Prop48
 90
       50
102
RTVSPost2010PropOp48
 70
     1
102
RTVSPost2010Prop49
280
     0
102
RTVSPost2010PropOp49
 70
     1
102
RTVSPost2010Prop50
 90
       50
102
RTVSPost2010PropOp50
 70
     1
102
RTVSPost2010Prop51ColorIndex
 90
      256
102
RTVSPost2010Prop51ColorRGB
 90
-16777216
102
RTVSPost2010PropOp51
 70
     0
102
RTVSPost2010Prop52
140
1.0
102
RTVSPost2010PropOp52
 70
     0
102
RTVSPost2010Prop53
 90
        2
102
RTVSPost2010PropOp53
 70
     1
102
RTVSPost2010Prop54
  1
strokes_ogs.tif
102
RTVSPost2010PropOp54
 70
     1
102
RTVSPost2010Prop55
280
     0
102
RTVSPost2010PropOp55
 70
     1
102
RTVSPost2010Prop56
140
1.0
102
RTVSPost2010PropOp56
 70
     1
102
RTVSPost2010Prop57
140
1.0
102
RTVSPost2010PropOp57
 70
     1
  0
XRECORD
  5
443F
102
{ACAD_REACTORS
330
443E
102
}
330
443E
100
AcDbXrecord
280
     1
102
RTVSPost2010Prop28
280
     0
102
RTVSPost2010PropOp28
 70
     1
102
RTVSPost2010Prop29
280
     1
102
RTVSPost2010PropOp29
 70
     1
102
RTVSPost2010Prop30
280
     1
102
RTVSPost2010PropOp30
 70
     1
102
RTVSPost2010Prop31
280
     0
102
RTVSPost2010PropOp31
 70
     1
102
RTVSPost2010Prop32
280
     0
102
RTVSPost2010PropOp32
 70
     1
102
RTVSPost2010Prop33
280
     0
102
RTVSPost2010PropOp33
 70
     1
102
RTVSPost2010Prop34
280
     0
102
RTVSPost2010PropOp34
 70
     1
102
RTVSPost2010Prop35
280
     0
102
RTVSPost2010PropOp35
 70
     1
102
RTVSPost2010Prop36
280
     0
102
RTVSPost2010PropOp36
 70
     1
102
RTVSPost2010Prop37
 90
       50
102
RTVSPost2010PropOp37
 70
     1
102
RTVSPost2010Prop38
140
0.0
102
RTVSPost2010PropOp38
 70
     1
102
RTVSPost2010Prop39
140
1.0
102
RTVSPost2010PropOp39
 70
     1
102
RTVSPost2010Prop40
 90
        0
102
RTVSPost2010PropOp40
 70
     1
102
RTVSPost2010Prop41ColorIndex
 90
       18
102
RTVSPost2010Prop41ColorRGB
 90
        0
102
RTVSPost2010PropOp41
 70
     1
102
RTVSPost2010Prop42
 90
       50
102
RTVSPost2010PropOp42
 70
     1
102
RTVSPost2010Prop43
 90
        3
102
RTVSPost2010PropOp43
 70
     1
102
RTVSPost2010Prop44ColorIndex
 90
        5
102
RTVSPost2010Prop44ColorRGB
 90
      255
102
RTVSPost2010PropOp44
 70
     1
102
RTVSPost2010Prop45
280
     0
102
RTVSPost2010PropOp45
 70
     1
102
RTVSPost2010Prop46
 90
       50
102
RTVSPost2010PropOp46
 70
     1
102
RTVSPost2010Prop47
 90
       50
102
RTVSPost2010PropOp47
 70
     1
102
RTVSPost2010Prop48
 90
       50
102
RTVSPost2010PropOp48
 70
     1
102
RTVSPost2010Prop49
280
     0
102
RTVSPost2010PropOp49
 70
     1
102
RTVSPost2010Prop50
 90
       50
102
RTVSPost2010PropOp50
 70
     1
102
RTVSPost2010Prop51ColorIndex
 90
      256
102
RTVSPost2010Prop51ColorRGB
 90
-16777216
102
RTVSPost2010PropOp51
 70
     0
102
RTVSPost2010Prop52
140
1.0
102
RTVSPost2010PropOp52
 70
     0
102
RTVSPost2010Prop53
 90
        2
102
RTVSPost2010PropOp53
 70
     1
102
RTVSPost2010Prop54
  1
strokes_ogs.tif
102
RTVSPost2010PropOp54
 70
     1
102
RTVSPost2010Prop55
280
     0
102
RTVSPost2010PropOp55
 70
     1
102
RTVSPost2010Prop56
140
1.0
102
RTVSPost2010PropOp56
 70
     1
102
RTVSPost2010Prop57
140
1.0
102
RTVSPost2010PropOp57
 70
     1
  0
XRECORD
  5
4441
102
{ACAD_REACTORS
330
4440
102
}
330
4440
100
AcDbXrecord
280
     1
102
RTVSPost2010Prop28
280
     0
102
RTVSPost2010PropOp28
 70
     1
102
RTVSPost2010Prop29
280
     1
102
RTVSPost2010PropOp29
 70
     1
102
RTVSPost2010Prop30
280
     1
102
RTVSPost2010PropOp30
 70
     1
102
RTVSPost2010Prop31
280
     0
102
RTVSPost2010PropOp31
 70
     1
102
RTVSPost2010Prop32
280
     0
102
RTVSPost2010PropOp32
 70
     1
102
RTVSPost2010Prop33
280
     0
102
RTVSPost2010PropOp33
 70
     1
102
RTVSPost2010Prop34
280
     0
102
RTVSPost2010PropOp34
 70
     1
102
RTVSPost2010Prop35
280
     0
102
RTVSPost2010PropOp35
 70
     1
102
RTVSPost2010Prop36
280
     0
102
RTVSPost2010PropOp36
 70
     1
102
RTVSPost2010Prop37
 90
       50
102
RTVSPost2010PropOp37
 70
     1
102
RTVSPost2010Prop38
140
0.0
102
RTVSPost2010PropOp38
 70
     1
102
RTVSPost2010Prop39
140
1.0
102
RTVSPost2010PropOp39
 70
     1
102
RTVSPost2010Prop40
 90
        0
102
RTVSPost2010PropOp40
 70
     1
102
RTVSPost2010Prop41ColorIndex
 90
       18
102
RTVSPost2010Prop41ColorRGB
 90
        0
102
RTVSPost2010PropOp41
 70
     1
102
RTVSPost2010Prop42
 90
       50
102
RTVSPost2010PropOp42
 70
     1
102
RTVSPost2010Prop43
 90
        3
102
RTVSPost2010PropOp43
 70
     1
102
RTVSPost2010Prop44ColorIndex
 90
        5
102
RTVSPost2010Prop44ColorRGB
 90
      255
102
RTVSPost2010PropOp44
 70
     1
102
RTVSPost2010Prop45
280
     0
102
RTVSPost2010PropOp45
 70
     1
102
RTVSPost2010Prop46
 90
       50
102
RTVSPost2010PropOp46
 70
     1
102
RTVSPost2010Prop47
 90
       50
102
RTVSPost2010PropOp47
 70
     1
102
RTVSPost2010Prop48
 90
       50
102
RTVSPost2010PropOp48
 70
     1
102
RTVSPost2010Prop49
280
     0
102
RTVSPost2010PropOp49
 70
     1
102
RTVSPost2010Prop50
 90
       50
102
RTVSPost2010PropOp50
 70
     1
102
RTVSPost2010Prop51ColorIndex
 90
      256
102
RTVSPost2010Prop51ColorRGB
 90
-16777216
102
RTVSPost2010PropOp51
 70
     0
102
RTVSPost2010Prop52
140
1.0
102
RTVSPost2010PropOp52
 70
     0
102
RTVSPost2010Prop53
 90
        2
102
RTVSPost2010PropOp53
 70
     1
102
RTVSPost2010Prop54
  1
strokes_ogs.tif
102
RTVSPost2010PropOp54
 70
     1
102
RTVSPost2010Prop55
280
     0
102
RTVSPost2010PropOp55
 70
     1
102
RTVSPost2010Prop56
140
1.0
102
RTVSPost2010PropOp56
 70
     1
102
RTVSPost2010Prop57
140
1.0
102
RTVSPost2010PropOp57
 70
     1
  0
XRECORD
  5
4437
102
{ACAD_REACTORS
330
4436
102
}
330
4436
100
AcDbXrecord
280
     1
102
RTVSPost2010Prop28
280
     0
102
RTVSPost2010PropOp28
 70
     1
102
RTVSPost2010Prop29
280
     1
102
RTVSPost2010PropOp29
 70
     1
102
RTVSPost2010Prop30
280
     1
102
RTVSPost2010PropOp30
 70
     1
102
RTVSPost2010Prop31
280
     0
102
RTVSPost2010PropOp31
 70
     1
102
RTVSPost2010Prop32
280
     0
102
RTVSPost2010PropOp32
 70
     1
102
RTVSPost2010Prop33
280
     0
102
RTVSPost2010PropOp33
 70
     1
102
RTVSPost2010Prop34
280
     0
102
RTVSPost2010PropOp34
 70
     1
102
RTVSPost2010Prop35
280
     0
102
RTVSPost2010PropOp35
 70
     1
102
RTVSPost2010Prop36
280
     0
102
RTVSPost2010PropOp36
 70
     1
102
RTVSPost2010Prop37
 90
       50
102
RTVSPost2010PropOp37
 70
     1
102
RTVSPost2010Prop38
140
0.0
102
RTVSPost2010PropOp38
 70
     1
102
RTVSPost2010Prop39
140
1.0
102
RTVSPost2010PropOp39
 70
     1
102
RTVSPost2010Prop40
 90
        0
102
RTVSPost2010PropOp40
 70
     1
102
RTVSPost2010Prop41ColorIndex
 90
       18
102
RTVSPost2010Prop41ColorRGB
 90
        0
102
RTVSPost2010PropOp41
 70
     1
102
RTVSPost2010Prop42
 90
       50
102
RTVSPost2010PropOp42
 70
     1
102
RTVSPost2010Prop43
 90
        3
102
RTVSPost2010PropOp43
 70
     1
102
RTVSPost2010Prop44ColorIndex
 90
        5
102
RTVSPost2010Prop44ColorRGB
 90
      255
102
RTVSPost2010PropOp44
 70
     1
102
RTVSPost2010Prop45
280
     0
102
RTVSPost2010PropOp45
 70
     1
102
RTVSPost2010Prop46
 90
       50
102
RTVSPost2010PropOp46
 70
     1
102
RTVSPost2010Prop47
 90
       50
102
RTVSPost2010PropOp47
 70
     1
102
RTVSPost2010Prop48
 90
       50
102
RTVSPost2010PropOp48
 70
     1
102
RTVSPost2010Prop49
280
     0
102
RTVSPost2010PropOp49
 70
     1
102
RTVSPost2010Prop50
 90
       50
102
RTVSPost2010PropOp50
 70
     1
102
RTVSPost2010Prop51ColorIndex
 90
      256
102
RTVSPost2010Prop51ColorRGB
 90
-16777216
102
RTVSPost2010PropOp51
 70
     0
102
RTVSPost2010Prop52
140
1.0
102
RTVSPost2010PropOp52
 70
     0
102
RTVSPost2010Prop53
 90
        2
102
RTVSPost2010PropOp53
 70
     1
102
RTVSPost2010Prop54
  1
strokes_ogs.tif
102
RTVSPost2010PropOp54
 70
     1
102
RTVSPost2010Prop55
280
     0
102
RTVSPost2010PropOp55
 70
     1
102
RTVSPost2010Prop56
140
1.0
102
RTVSPost2010PropOp56
 70
     1
102
RTVSPost2010Prop57
140
1.0
102
RTVSPost2010PropOp57
 70
     1
  0
XRECORD
  5
442B
102
{ACAD_REACTORS
330
442A
102
}
330
442A
100
AcDbXrecord
280
     1
102
RTVSPost2010Prop28
280
     0
102
RTVSPost2010PropOp28
 70
     1
102
RTVSPost2010Prop29
280
     1
102
RTVSPost2010PropOp29
 70
     1
102
RTVSPost2010Prop30
280
     1
102
RTVSPost2010PropOp30
 70
     1
102
RTVSPost2010Prop31
280
     0
102
RTVSPost2010PropOp31
 70
     1
102
RTVSPost2010Prop32
280
     0
102
RTVSPost2010PropOp32
 70
     1
102
RTVSPost2010Prop33
280
     0
102
RTVSPost2010PropOp33
 70
     1
102
RTVSPost2010Prop34
280
     0
102
RTVSPost2010PropOp34
 70
     1
102
RTVSPost2010Prop35
280
     0
102
RTVSPost2010PropOp35
 70
     1
102
RTVSPost2010Prop36
280
     0
102
RTVSPost2010PropOp36
 70
     1
102
RTVSPost2010Prop37
 90
       50
102
RTVSPost2010PropOp37
 70
     1
102
RTVSPost2010Prop38
140
0.0
102
RTVSPost2010PropOp38
 70
     1
102
RTVSPost2010Prop39
140
1.0
102
RTVSPost2010PropOp39
 70
     1
102
RTVSPost2010Prop40
 90
        0
102
RTVSPost2010PropOp40
 70
     1
102
RTVSPost2010Prop41ColorIndex
 90
       18
102
RTVSPost2010Prop41ColorRGB
 90
        0
102
RTVSPost2010PropOp41
 70
     1
102
RTVSPost2010Prop42
 90
       50
102
RTVSPost2010PropOp42
 70
     1
102
RTVSPost2010Prop43
 90
        3
102
RTVSPost2010PropOp43
 70
     1
102
RTVSPost2010Prop44ColorIndex
 90
        5
102
RTVSPost2010Prop44ColorRGB
 90
      255
102
RTVSPost2010PropOp44
 70
     1
102
RTVSPost2010Prop45
280
     0
102
RTVSPost2010PropOp45
 70
     1
102
RTVSPost2010Prop46
 90
       50
102
RTVSPost2010PropOp46
 70
     1
102
RTVSPost2010Prop47
 90
       50
102
RTVSPost2010PropOp47
 70
     1
102
RTVSPost2010Prop48
 90
       50
102
RTVSPost2010PropOp48
 70
     1
102
RTVSPost2010Prop49
280
     0
102
RTVSPost2010PropOp49
 70
     1
102
RTVSPost2010Prop50
 90
       50
102
RTVSPost2010PropOp50
 70
     1
102
RTVSPost2010Prop51ColorIndex
 90
      256
102
RTVSPost2010Prop51ColorRGB
 90
-16777216
102
RTVSPost2010PropOp51
 70
     0
102
RTVSPost2010Prop52
140
1.0
102
RTVSPost2010PropOp52
 70
     0
102
RTVSPost2010Prop53
 90
        2
102
RTVSPost2010PropOp53
 70
     1
102
RTVSPost2010Prop54
  1
strokes_ogs.tif
102
RTVSPost2010PropOp54
 70
     1
102
RTVSPost2010Prop55
280
     0
102
RTVSPost2010PropOp55
 70
     1
102
RTVSPost2010Prop56
140
1.0
102
RTVSPost2010PropOp56
 70
     1
102
RTVSPost2010Prop57
140
1.0
102
RTVSPost2010PropOp57
 70
     1
  0
XRECORD
  5
4443
102
{ACAD_REACTORS
330
4442
102
}
330
4442
100
AcDbXrecord
280
     1
102
RTVSPost2010Prop28
280
     0
102
RTVSPost2010PropOp28
 70
     1
102
RTVSPost2010Prop29
280
     1
102
RTVSPost2010PropOp29
 70
     1
102
RTVSPost2010Prop30
280
     1
102
RTVSPost2010PropOp30
 70
     1
102
RTVSPost2010Prop31
280
     0
102
RTVSPost2010PropOp31
 70
     1
102
RTVSPost2010Prop32
280
     0
102
RTVSPost2010PropOp32
 70
     1
102
RTVSPost2010Prop33
280
     0
102
RTVSPost2010PropOp33
 70
     1
102
RTVSPost2010Prop34
280
     0
102
RTVSPost2010PropOp34
 70
     1
102
RTVSPost2010Prop35
280
     0
102
RTVSPost2010PropOp35
 70
     1
102
RTVSPost2010Prop36
280
     0
102
RTVSPost2010PropOp36
 70
     1
102
RTVSPost2010Prop37
 90
       50
102
RTVSPost2010PropOp37
 70
     1
102
RTVSPost2010Prop38
140
0.0
102
RTVSPost2010PropOp38
 70
     1
102
RTVSPost2010Prop39
140
1.0
102
RTVSPost2010PropOp39
 70
     1
102
RTVSPost2010Prop40
 90
        0
102
RTVSPost2010PropOp40
 70
     1
102
RTVSPost2010Prop41ColorIndex
 90
       18
102
RTVSPost2010Prop41ColorRGB
 90
        0
102
RTVSPost2010PropOp41
 70
     1
102
RTVSPost2010Prop42
 90
       50
102
RTVSPost2010PropOp42
 70
     1
102
RTVSPost2010Prop43
 90
        3
102
RTVSPost2010PropOp43
 70
     1
102
RTVSPost2010Prop44ColorIndex
 90
        5
102
RTVSPost2010Prop44ColorRGB
 90
      255
102
RTVSPost2010PropOp44
 70
     1
102
RTVSPost2010Prop45
280
     0
102
RTVSPost2010PropOp45
 70
     1
102
RTVSPost2010Prop46
 90
       50
102
RTVSPost2010PropOp46
 70
     1
102
RTVSPost2010Prop47
 90
       50
102
RTVSPost2010PropOp47
 70
     1
102
RTVSPost2010Prop48
 90
       50
102
RTVSPost2010PropOp48
 70
     1
102
RTVSPost2010Prop49
280
     0
102
RTVSPost2010PropOp49
 70
     1
102
RTVSPost2010Prop50
 90
       50
102
RTVSPost2010PropOp50
 70
     1
102
RTVSPost2010Prop51ColorIndex
 90
      256
102
RTVSPost2010Prop51ColorRGB
 90
-16777216
102
RTVSPost2010PropOp51
 70
     0
102
RTVSPost2010Prop52
140
1.0
102
RTVSPost2010PropOp52
 70
     0
102
RTVSPost2010Prop53
 90
        2
102
RTVSPost2010PropOp53
 70
     1
102
RTVSPost2010Prop54
  1
strokes_ogs.tif
102
RTVSPost2010PropOp54
 70
     1
102
RTVSPost2010Prop55
280
     0
102
RTVSPost2010PropOp55
 70
     1
102
RTVSPost2010Prop56
140
1.0
102
RTVSPost2010PropOp56
 70
     1
102
RTVSPost2010Prop57
140
1.0
102
RTVSPost2010PropOp57
 70
     1
  0
ENDSEC
  0
EOF
