  0
SECTION
  2
HEADER
  9
$ACADVER
  1
AC1015
  9
$ACADMAINTVER
 70
     6
  9
$DWGCODEPAGE
  3
DOS932
  9
$INSBASE
 10
0.0
 20
0.0
 30
0.0
  9
$EXTMIN
 10
0.0
 20
0.0
 30
0.0
  9
$EXTMAX
 10
2520.0
 20
3564.0
 30
0.0
  9
$LIMMIN
 10
0.0
 20
0.0
  9
$LIMMAX
 10
12.0
 20
9.0
  9
$ORTHOMODE
 70
     0
  9
$REGENMODE
 70
     1
  9
$FILLMODE
 70
     1
  9
$QTEXTMODE
 70
     0
  9
$MIRRTEXT
 70
     1
  9
$LTSCALE
 40
1.0
  9
$ATTMODE
 70
     1
  9
$TEXTSIZE
 40
0.2
  9
$TRACEWID
 40
0.05
  9
$TEXTSTYLE
  7
Standard
  9
$CLAYER
  8
0
  9
$CELTYPE
  6
ByLayer
  9
$CECOLOR
 62
   256
  9
$CELTSCALE
 40
1.0
  9
$DISPSILH
 70
     0
  9
$DIMSCALE
 40
1.0
  9
$DIMASZ
 40
0.18
  9
$DIMEXO
 40
0.0625
  9
$DIMDLI
 40
0.38
  9
$DIMRND
 40
0.0
  9
$DIMDLE
 40
0.0
  9
$DIMEXE
 40
0.18
  9
$DIMTP
 40
0.0
  9
$DIMTM
 40
0.0
  9
$DIMTXT
 40
0.18
  9
$DIMCEN
 40
0.09
  9
$DIMTSZ
 40
0.0
  9
$DIMTOL
 70
     0
  9
$DIMLIM
 70
     0
  9
$DIMTIH
 70
     1
  9
$DIMTOH
 70
     1
  9
$DIMSE1
 70
     0
  9
$DIMSE2
 70
     0
  9
$DIMTAD
 70
     0
  9
$DIMZIN
 70
     0
  9
$DIMBLK
  1

  9
$DIMASO
 70
     1
  9
$DIMSHO
 70
     1
  9
$DIMPOST
  1

  9
$DIMAPOST
  1

  9
$DIMALT
 70
     0
  9
$DIMALTD
 70
     2
  9
$DIMALTF
 40
25.4
  9
$DIMLFAC
 40
1.0
  9
$DIMTOFL
 70
     0
  9
$DIMTVP
 40
0.0
  9
$DIMTIX
 70
     0
  9
$DIMSOXD
 70
     0
  9
$DIMSAH
 70
     0
  9
$DIMBLK1
  1

  9
$DIMBLK2
  1

  9
$DIMSTYLE
  2
Standard
  9
$DIMCLRD
 70
     0
  9
$DIMCLRE
 70
     0
  9
$DIMCLRT
 70
     0
  9
$DIMTFAC
 40
1.0
  9
$DIMGAP
 40
0.09
  9
$DIMJUST
 70
     0
  9
$DIMSD1
 70
     0
  9
$DIMSD2
 70
     0
  9
$DIMTOLJ
 70
     1
  9
$DIMTZIN
 70
     0
  9
$DIMALTZ
 70
     0
  9
$DIMALTTZ
 70
     0
  9
$DIMUPT
 70
     0
  9
$DIMDEC
 70
     4
  9
$DIMTDEC
 70
     4
  9
$DIMALTU
 70
     2
  9
$DIMALTTD
 70
     2
  9
$DIMTXSTY
  7
Standard
  9
$DIMAUNIT
 70
     0
  9
$DIMADEC
 70
     0
  9
$DIMALTRND
 40
0.0
  9
$DIMAZIN
 70
     0
  9
$DIMDSEP
 70
    46
  9
$DIMATFIT
 70
     3
  9
$DIMFRAC
 70
     0
  9
$DIMLDRBLK
  1

  9
$DIMLUNIT
 70
     2
  9
$DIMLWD
 70
    -2
  9
$DIMLWE
 70
    -2
  9
$DIMTMOVE
 70
     0
  9
$LUNITS
 70
     2
  9
$LUPREC
 70
     4
  9
$SKETCHINC
 40
0.1
  9
$FILLETRAD
 40
0.5
  9
$AUNITS
 70
     0
  9
$AUPREC
 70
     0
  9
$MENU
  1
.
  9
$ELEVATION
 40
0.0
  9
$PELEVATION
 40
0.0
  9
$THICKNESS
 40
0.0
  9
$LIMCHECK
 70
     0
  9
$CHAMFERA
 40
0.5
  9
$CHAMFERB
 40
0.5
  9
$CHAMFERC
 40
1.0
  9
$CHAMFERD
 40
0.0
  9
$SKPOLY
 70
     0
  9
$TDCREATE
 40
2456118.429193241
  9
$TDUCREATE
 40
2456118.054193241
  9
$TDUPDATE
 40
2456118.429193252
  9
$TDUUPDATE
 40
2456118.054193252
  9
$TDINDWG
 40
0.0000000116
  9
$TDUSRTIMER
 40
0.0000000116
  9
$USRTIMER
 70
     1
  9
$ANGBASE
 50
0.0
  9
$ANGDIR
 70
     0
  9
$PDMODE
 70
     0
  9
$PDSIZE
 40
0.0
  9
$PLINEWID
 40
0.0
  9
$SPLFRAME
 70
     0
  9
$SPLINETYPE
 70
     6
  9
$SPLINESEGS
 70
     8
  9
$HANDSEED
  5
165
  9
$SURFTAB1
 70
     6
  9
$SURFTAB2
 70
     6
  9
$SURFTYPE
 70
     6
  9
$SURFU
 70
     6
  9
$SURFV
 70
     6
  9
$UCSBASE
  2

  9
$UCSNAME
  2

  9
$UCSORG
 10
0.0
 20
0.0
 30
0.0
  9
$UCSXDIR
 10
1.0
 20
0.0
 30
0.0
  9
$UCSYDIR
 10
0.0
 20
1.0
 30
0.0
  9
$UCSORTHOREF
  2

  9
$UCSORTHOVIEW
 70
     0
  9
$UCSORGTOP
 10
0.0
 20
0.0
 30
0.0
  9
$UCSORGBOTTOM
 10
0.0
 20
0.0
 30
0.0
  9
$UCSORGLEFT
 10
0.0
 20
0.0
 30
0.0
  9
$UCSORGRIGHT
 10
0.0
 20
0.0
 30
0.0
  9
$UCSORGFRONT
 10
0.0
 20
0.0
 30
0.0
  9
$UCSORGBACK
 10
0.0
 20
0.0
 30
0.0
  9
$PUCSBASE
  2

  9
$PUCSNAME
  2

  9
$PUCSORG
 10
0.0
 20
0.0
 30
0.0
  9
$PUCSXDIR
 10
1.0
 20
0.0
 30
0.0
  9
$PUCSYDIR
 10
0.0
 20
1.0
 30
0.0
  9
$PUCSORTHOREF
  2

  9
$PUCSORTHOVIEW
 70
     0
  9
$PUCSORGTOP
 10
0.0
 20
0.0
 30
0.0
  9
$PUCSORGBOTTOM
 10
0.0
 20
0.0
 30
0.0
  9
$PUCSORGLEFT
 10
0.0
 20
0.0
 30
0.0
  9
$PUCSORGRIGHT
 10
0.0
 20
0.0
 30
0.0
  9
$PUCSORGFRONT
 10
0.0
 20
0.0
 30
0.0
  9
$PUCSORGBACK
 10
0.0
 20
0.0
 30
0.0
  9
$USERI1
 70
     0
  9
$USERI2
 70
     0
  9
$USERI3
 70
     0
  9
$USERI4
 70
     0
  9
$USERI5
 70
     0
  9
$USERR1
 40
13.2
  9
$USERR2
 40
0.0
  9
$USERR3
 40
0.0
  9
$USERR4
 40
0.0
  9
$USERR5
 40
0.0
  9
$WORLDVIEW
 70
     1
  9
$SHADEDGE
 70
     3
  9
$SHADEDIF
 70
    70
  9
$TILEMODE
 70
     1
  9
$MAXACTVP
 70
    64
  9
$PINSBASE
 10
0.0
 20
0.0
 30
0.0
  9
$PLIMCHECK
 70
     0
  9
$PEXTMIN
 10
1.00000000000000E+20
 20
1.00000000000000E+20
 30
1.00000000000000E+20
  9
$PEXTMAX
 10
-1.00000000000000E+20
 20
-1.00000000000000E+20
 30
-1.00000000000000E+20
  9
$PLIMMIN
 10
0.0
 20
0.0
  9
$PLIMMAX
 10
12.0
 20
9.0
  9
$UNITMODE
 70
     0
  9
$VISRETAIN
 70
     1
  9
$PLINEGEN
 70
     0
  9
$PSLTSCALE
 70
     1
  9
$TREEDEPTH
 70
  3020
  9
$CMLSTYLE
  2
Standard
  9
$CMLJUST
 70
     0
  9
$CMLSCALE
 40
1.0
  9
$PROXYGRAPHICS
 70
     1
  9
$MEASUREMENT
 70
     1
  9
$CELWEIGHT
370
    -1
  9
$ENDCAPS
280
     0
  9
$JOINSTYLE
280
     0
  9
$LWDISPLAY
290
     0
  9
$INSUNITS
 70
     1
  9
$HYPERLINKBASE
  1

  9
$STYLESHEET
  1

  9
$XEDIT
290
     1
  9
$CEPSNTYPE
380
     0
  9
$PSTYLEMODE
290
     0
  9
$FINGERPRINTGUID
  2
{FAEB1C30-E019-11D5-929B-00C0DF256EC4}
  9
$VERSIONGUID
  2
{FAEB1C32-E019-11D5-929B-00C0DF256EC4}
  9
$EXTNAMES
290
     1
  9
$PSVPSCALE
 40
0.0
  9
$OLESTARTUP
290
     0
  0
ENDSEC
  0
SECTION
  2
CLASSES
  0
CLASS
  1
ACDBDICTIONARYWDFLT
  2
AcDbDictionaryWithDefault
  3
ObjectDBX Classes
 90
        0
280
     0
281
     0
  0
CLASS
  1
TABLESTYLE
  2
AcDbTableStyle
  3
ObjectDBX Classes
 90
     2047
280
     0
281
     0
  0
CLASS
  1
DICTIONARYVAR
  2
AcDbDictionaryVar
  3
ObjectDBX Classes
 90
        0
280
     0
281
     0
  0
CLASS
  1

  2
exOdDbCircle
  3

 90
        0
280
     0
281
     1
  0
CLASS
  1

  2
exOdDbPolyline
  3

 90
        0
280
     0
281
     1
  0
CLASS
  1

  2
exOdDbSpline
  3

 90
        0
280
     0
281
     1
  0
CLASS
  1
ACDBPLACEHOLDER
  2
AcDbPlaceHolder
  3
ObjectDBX Classes
 90
        0
280
     0
281
     0
  0
CLASS
  1
LAYOUT
  2
AcDbLayout
  3
ObjectDBX Classes
 90
        0
280
     0
281
     0
  0
ENDSEC
  0
SECTION
  2
TABLES
  0
TABLE
  2
VPORT
  5
8
330
0
100
AcDbSymbolTable
 70
     2
  0
VPORT
  5
29
330
8
100
AcDbSymbolTableRecord
100
AcDbViewportTableRecord
  2
*Active
 70
     0
 10
0.0
 20
0.0
 11
1.0
 21
1.0
 12
1260.0
 22
1782.0
 13
0.0
 23
0.0
 14
0.5
 24
0.5
 15
0.5
 25
0.5
 16
0.0
 26
0.0
 36
1.0
 17
0.0
 27
0.0
 37
0.0
 40
3920.4
 41
1.60267857142857
 42
50.0
 43
0.0
 44
0.0
 50
0.0
 51
0.0
 71
     0
 72
   100
 73
     1
 74
     3
 75
     0
 76
     0
 77
     0
 78
     0
281
     0
 65
     1
110
0.0
120
0.0
130
0.0
111
1.0
121
0.0
131
0.0
112
0.0
122
1.0
132
0.0
 79
     0
146
0.0
  0
ENDTAB
  0
TABLE
  2
LTYPE
  5
5
330
0
100
AcDbSymbolTable
 70
     8
  0
LTYPE
  5
14
330
5
100
AcDbSymbolTableRecord
100
AcDbLinetypeTableRecord
  2
ByBlock
 70
     0
  3

 72
    65
 73
     0
 40
0.0
  0
LTYPE
  5
15
330
5
100
AcDbSymbolTableRecord
100
AcDbLinetypeTableRecord
  2
ByLayer
 70
     0
  3

 72
    65
 73
     0
 40
0.0
  0
LTYPE
  5
16
330
5
100
AcDbSymbolTableRecord
100
AcDbLinetypeTableRecord
  2
Continuous
 70
     0
  3
Solid line
 72
    65
 73
     0
 40
0.0
  0
LTYPE
  5
2E
330
5
100
AcDbSymbolTableRecord
100
AcDbLinetypeTableRecord
  2
DASHED
 70
     0
  3
Dashed
 72
    65
 73
     2
 40
15.0
 49
7.0
 74
     0
 49
-8.0
 74
     0
  0
LTYPE
  5
2F
330
5
100
AcDbSymbolTableRecord
100
AcDbLinetypeTableRecord
  2
DOTTED
 70
     0
  3
Dotted
 72
    65
 73
     2
 40
1.0
 49
0.0
 74
     0
 49
-1.0
 74
     0
  0
LTYPE
  5
30
330
5
100
AcDbSymbolTableRecord
100
AcDbLinetypeTableRecord
  2
DOT_CENTER
 70
     0
  3
Dot_Center
 72
    65
 73
     4
 40
14.0
 49
12.0
 74
     0
 49
-1.0
 74
     0
 49
0.0
 74
     0
 49
-1.0
 74
     0
  0
LTYPE
  5
31
330
5
100
AcDbSymbolTableRecord
100
AcDbLinetypeTableRecord
  2
LONG_DASHED
 70
     0
  3
Long_Dashed
 72
    65
 73
     2
 40
15.0
 49
10.0
 74
     0
 49
-5.0
 74
     0
  0
LTYPE
  5
32
330
5
100
AcDbSymbolTableRecord
100
AcDbLinetypeTableRecord
  2
DASH_CENTER
 70
     0
  3
Dash_Center
 72
    65
 73
     4
 40
14.0
 49
11.0
 74
     0
 49
-1.0
 74
     0
 49
1.0
 74
     0
 49
-1.0
 74
     0
  0
LTYPE
  5
33
330
5
100
AcDbSymbolTableRecord
100
AcDbLinetypeTableRecord
  2
PHANTOM
 70
     0
  3
Phantom
 72
    65
 73
     6
 40
13.0
 49
10.0
 74
     0
 49
-1.0
 74
     0
 49
0.0
 74
     0
 49
-1.0
 74
     0
 49
0.0
 74
     0
 49
-1.0
 74
     0
  0
LTYPE
  5
34
330
5
100
AcDbSymbolTableRecord
100
AcDbLinetypeTableRecord
  2
CENTER_DASH_DASH
 70
     0
  3
Center_Dash_Dash
 72
    65
 73
     6
 40
14.0
 49
9.0
 74
     0
 49
-1.0
 74
     0
 49
1.0
 74
     0
 49
-1.0
 74
     0
 49
1.0
 74
     0
 49
-1.0
 74
     0
  0
ENDTAB
  0
TABLE
  2
LAYER
  5
2
330
0
100
AcDbSymbolTable
 70
     2
  0
LAYER
  5
10
330
2
100
AcDbSymbolTableRecord
100
AcDbLayerTableRecord
  2
0
 70
     0
 62
     7
  6
Continuous
370
    -3
390
F
  0
LAYER
  5
35
330
2
100
AcDbSymbolTableRecord
100
AcDbLayerTableRecord
  2
1
 70
     0
 62
     7
  6
Continuous
370
    -3
390
F
  0
ENDTAB
  0
TABLE
  2
STYLE
  5
3
330
0
100
AcDbSymbolTable
 70
     3
  0
STYLE
  5
11
330
3
100
AcDbSymbolTableRecord
100
AcDbTextStyleTableRecord
  2
Standard
 70
     0
 40
0.0
 41
1.0
 50
0.0
 71
     0
 42
0.2
  3
txt
  4

  0
STYLE
  5
89
330
3
100
AcDbSymbolTableRecord
100
AcDbTextStyleTableRecord
  2
CONVERTER_1
 70
     0
 40
0.0
 41
0.89
 50
0.0
 71
     0
 42
0.2
  3
msmincho.ttc
  4

1001
ACAD
1000
MS Mincho
1071
    32785
  0
STYLE
  5
D9
330
3
100
AcDbSymbolTableRecord
100
AcDbTextStyleTableRecord
  2
CONVERTER_2
 70
     0
 40
0.0
 41
0.9
 50
0.0
 71
     0
 42
0.2
  3
txt.shx
  4

  0
ENDTAB
  0
TABLE
  2
VIEW
  5
6
330
0
100
AcDbSymbolTable
 70
     0
  0
ENDTAB
  0
TABLE
  2
UCS
  5
7
330
0
100
AcDbSymbolTable
 70
     0
  0
ENDTAB
  0
TABLE
  2
APPID
  5
9
330
0
100
AcDbSymbolTable
 70
     1
  0
APPID
  5
12
330
9
100
AcDbSymbolTableRecord
100
AcDbRegAppTableRecord
  2
ACAD
 70
     0
  0
ENDTAB
  0
TABLE
  2
DIMSTYLE
  5
A
330
0
100
AcDbSymbolTable
 70
     9
100
AcDbDimStyleTable
  0
DIMSTYLE
105
27
330
A
100
AcDbSymbolTableRecord
100
AcDbDimStyleTableRecord
  2
Standard
 70
     0
340
11
  0
DIMSTYLE
105
FA
102
{ACAD_REACTORS
330
FB
102
}
330
A
100
AcDbSymbolTableRecord
100
AcDbDimStyleTableRecord
  2
ME10_DIM_0
 70
     0
 41
42.0
 42
0.0
 44
12.0
 73
     0
 74
     0
 77
     1
 78
     8
140
42.0
147
0.625
172
     1
173
     1
176
     2
177
     2
178
     7
271
     2
340
D9
  0
DIMSTYLE
105
105
102
{ACAD_REACTORS
330
106
102
}
330
A
100
AcDbSymbolTableRecord
100
AcDbDimStyleTableRecord
  2
ME10_DIM_1
 70
     0
 41
42.0
 42
0.0
 44
12.0
 73
     0
 74
     0
 77
     1
 78
     8
140
42.0
147
0.625
172
     1
173
     1
176
     2
177
     2
178
     7
271
     2
340
D9
  0
DIMSTYLE
105
110
102
{ACAD_REACTORS
330
111
102
}
330
A
100
AcDbSymbolTableRecord
100
AcDbDimStyleTableRecord
  2
ME10_DIM_2
 70
     0
 41
42.0
 42
0.0
 44
12.0
 73
     0
 74
     0
 77
     1
 78
     8
140
42.0
147
0.625
172
     1
173
     1
176
     2
177
     2
178
     7
271
     2
340
D9
  0
DIMSTYLE
105
11B
102
{ACAD_REACTORS
330
11C
102
}
330
A
100
AcDbSymbolTableRecord
100
AcDbDimStyleTableRecord
  2
ME10_DIM_3
 70
     0
 41
42.0
 42
0.0
 44
12.0
 73
     0
 74
     0
 77
     1
 78
     8
140
42.0
147
0.625
172
     1
173
     1
176
     2
177
     2
178
     7
271
     2
340
D9
  0
DIMSTYLE
105
126
102
{ACAD_REACTORS
330
127
102
}
330
A
100
AcDbSymbolTableRecord
100
AcDbDimStyleTableRecord
  2
ME10_DIM_4
 70
     0
 41
42.0
 42
0.0
 44
12.0
 73
     0
 74
     0
 77
     1
 78
     8
140
42.0
147
0.625
172
     1
173
     1
176
     2
177
     2
178
     7
271
     2
340
D9
  0
DIMSTYLE
105
133
102
{ACAD_REACTORS
330
134
102
}
330
A
100
AcDbSymbolTableRecord
100
AcDbDimStyleTableRecord
  2
ME10_DIM_5
 70
     0
 41
42.0
 42
0.0
 44
12.0
 73
     0
 74
     0
 77
     1
 78
     8
140
42.0
147
0.625
172
     1
173
     1
176
     2
177
     2
178
     7
271
     2
340
D9
  0
DIMSTYLE
105
140
102
{ACAD_REACTORS
330
141
102
}
330
A
100
AcDbSymbolTableRecord
100
AcDbDimStyleTableRecord
  2
ME10_DIM_6
 70
     0
 41
42.0
 42
0.0
 44
12.0
 73
     0
 74
     0
 77
     1
 78
     8
140
42.0
147
0.625
172
     1
173
     1
176
     2
177
     2
178
     7
271
     2
340
D9
  0
DIMSTYLE
105
14B
102
{ACAD_REACTORS
330
14C
102
}
330
A
100
AcDbSymbolTableRecord
100
AcDbDimStyleTableRecord
  2
ME10_DIM_7
 70
     0
 41
42.0
 42
0.0
 44
12.0
 73
     0
 74
     0
 77
     1
 78
     8
140
42.0
147
0.625
172
     1
173
     1
176
     2
177
     2
178
     7
271
     2
340
D9
  0
ENDTAB
  0
TABLE
  2
BLOCK_RECORD
  5
1
330
0
100
AcDbSymbolTable
 70
    14
  0
BLOCK_RECORD
  5
1F
330
1
100
AcDbSymbolTableRecord
100
AcDbBlockTableRecord
  2
*Model_Space
340
22
  0
BLOCK_RECORD
  5
1B
330
1
100
AcDbSymbolTableRecord
100
AcDbBlockTableRecord
  2
*Paper_Space
340
1E
  0
BLOCK_RECORD
  5
23
330
1
100
AcDbSymbolTableRecord
100
AcDbBlockTableRecord
  2
*Paper_Space0
340
26
  0
BLOCK_RECORD
  5
36
330
1
100
AcDbSymbolTableRecord
100
AcDbBlockTableRecord
  2
_J__A4
340
0
102
{BLKREFS
331
3C
102
}
  0
BLOCK_RECORD
  5
39
330
1
100
AcDbSymbolTableRecord
100
AcDbBlockTableRecord
  2
K475NJV-2T_V2261-X2-13_S
340
0
102
{BLKREFS
331
3D
102
}
  0
BLOCK_RECORD
  5
F1
330
1
100
AcDbSymbolTableRecord
100
AcDbBlockTableRecord
  2
*D03
340
0
  0
BLOCK_RECORD
  5
FC
330
1
100
AcDbSymbolTableRecord
100
AcDbBlockTableRecord
  2
*D14
340
0
  0
BLOCK_RECORD
  5
107
330
1
100
AcDbSymbolTableRecord
100
AcDbBlockTableRecord
  2
*D25
340
0
  0
BLOCK_RECORD
  5
112
330
1
100
AcDbSymbolTableRecord
100
AcDbBlockTableRecord
  2
*D36
340
0
  0
BLOCK_RECORD
  5
11D
330
1
100
AcDbSymbolTableRecord
100
AcDbBlockTableRecord
  2
*D47
340
0
  0
BLOCK_RECORD
  5
128
330
1
100
AcDbSymbolTableRecord
100
AcDbBlockTableRecord
  2
*D58
340
0
  0
BLOCK_RECORD
  5
135
330
1
100
AcDbSymbolTableRecord
100
AcDbBlockTableRecord
  2
*D69
340
0
  0
BLOCK_RECORD
  5
142
330
1
100
AcDbSymbolTableRecord
100
AcDbBlockTableRecord
  2
*D710
340
0
  0
BLOCK_RECORD
  5
14D
330
1
100
AcDbSymbolTableRecord
100
AcDbBlockTableRecord
  2
*D811
340
0
102
{BLKREFS
331
154
102
}
  0
BLOCK_RECORD
  5
155
330
1
100
AcDbSymbolTableRecord
100
AcDbBlockTableRecord
  2
*D912
340
0
102
{BLKREFS
331
15C
102
}
  0
BLOCK_RECORD
  5
15D
330
1
100
AcDbSymbolTableRecord
100
AcDbBlockTableRecord
  2
*D1013
340
0
102
{BLKREFS
331
164
102
}
  0
ENDTAB
  0
ENDSEC
  0
SECTION
  2
BLOCKS
  0
BLOCK
  5
20
330
1F
100
AcDbEntity
  8
0
100
AcDbBlockBegin
  2
*Model_Space
 70
     0
 71
     0
 10
0.0
 20
0.0
 30
0.0
  3
*Model_Space
  1

  0
ENDBLK
  5
21
330
1F
100
AcDbEntity
  8
0
100
AcDbBlockEnd
  0
BLOCK
  5
1C
330
1B
100
AcDbEntity
 67
     1
  8
0
100
AcDbBlockBegin
  2
*Paper_Space
 70
     0
 71
     0
 10
0.0
 20
0.0
 30
0.0
  3
*Paper_Space
  1

  0
ENDBLK
  5
1D
330
1B
100
AcDbEntity
 67
     1
  8
0
100
AcDbBlockEnd
  0
BLOCK
  5
24
330
23
100
AcDbEntity
  8
0
100
AcDbBlockBegin
  2
*Paper_Space0
 70
     0
 71
     0
 10
0.0
 20
0.0
 30
0.0
  3
*Paper_Space0
  1

  0
ENDBLK
  5
25
330
23
100
AcDbEntity
  8
0
100
AcDbBlockEnd
  0
BLOCK
  5
37
330
36
100
AcDbEntity
  8
0
100
AcDbBlockBegin
  2
_J__A4
 70
     0
 71
     0
 10
0.0
 20
0.0
 30
0.0
  3
_J__A4
  1

  0
POINT
  5
3E
330
36
100
AcDbEntity
  8
1
 62
     4
100
AcDbPoint
 10
93.75
 20
17.0
 30
0.0
  0
POINT
  5
3F
330
36
100
AcDbEntity
  8
1
 62
     4
100
AcDbPoint
 10
85.25
 20
17.0
 30
0.0
  0
POINT
  5
40
330
36
100
AcDbEntity
  8
1
 62
     4
100
AcDbPoint
 10
106.5
 20
19.00000000000001
 30
0.0
  0
POINT
  5
41
330
36
100
AcDbEntity
  8
1
 62
     4
100
AcDbPoint
 10
106.5
 20
12.5
 30
0.0
  0
POINT
  5
42
330
36
100
AcDbEntity
  8
1
 62
     4
100
AcDbPoint
 10
112.25
 20
12.5
 30
0.0
  0
POINT
  5
43
330
36
100
AcDbEntity
  8
1
 62
     4
100
AcDbPoint
 10
100.75
 20
12.5
 30
0.0
  0
POINT
  5
44
330
36
100
AcDbEntity
  8
1
 62
     4
100
AcDbPoint
 10
123.5
 20
19.00000000000001
 30
0.0
  0
POINT
  5
45
330
36
100
AcDbEntity
  8
1
 62
     4
100
AcDbPoint
 10
123.5
 20
12.5
 30
0.0
  0
POINT
  5
46
330
36
100
AcDbEntity
  8
1
 62
     4
100
AcDbPoint
 10
129.25
 20
12.5
 30
0.0
  0
POINT
  5
47
330
36
100
AcDbEntity
  8
1
 62
     4
100
AcDbPoint
 10
117.75
 20
12.5
 30
0.0
  0
POINT
  5
48
330
36
100
AcDbEntity
  8
1
 62
     4
100
AcDbPoint
 10
140.5
 20
19.00000000000001
 30
0.0
  0
POINT
  5
49
330
36
100
AcDbEntity
  8
1
 62
     4
100
AcDbPoint
 10
140.5
 20
12.5
 30
0.0
  0
POINT
  5
4A
330
36
100
AcDbEntity
  8
1
 62
     4
100
AcDbPoint
 10
146.25
 20
12.5
 30
0.0
  0
POINT
  5
4B
330
36
100
AcDbEntity
  8
1
 62
     4
100
AcDbPoint
 10
134.75
 20
12.5
 30
0.0
  0
POINT
  5
4C
330
36
100
AcDbEntity
  8
1
 62
     4
100
AcDbPoint
 10
151.75
 20
12.5
 30
0.0
  0
POINT
  5
4D
330
36
100
AcDbEntity
  8
1
 62
     4
100
AcDbPoint
 10
163.25
 20
12.5
 30
0.0
  0
POINT
  5
4E
330
36
100
AcDbEntity
  8
1
 62
     4
100
AcDbPoint
 10
157.5
 20
12.5
 30
0.0
  0
POINT
  5
4F
330
36
100
AcDbEntity
  8
1
 62
     4
100
AcDbPoint
 10
57.00000000000001
 20
14.25
 30
0.0
  0
POINT
  5
50
330
36
100
AcDbEntity
  8
1
 62
     4
100
AcDbPoint
 10
57.00000000000001
 20
22.75000000000001
 30
0.0
  0
POINT
  5
51
330
36
100
AcDbEntity
  8
1
 62
     4
100
AcDbPoint
 10
47.5
 20
282.0000000000003
 30
0.0
  0
POINT
  5
52
330
36
100
AcDbEntity
  8
1
 62
     4
100
AcDbPoint
 10
157.5
 20
19.00000000000001
 30
0.0
  0
POINT
  5
53
330
36
100
AcDbEntity
  8
1
 62
     4
100
AcDbPoint
 10
57.00000000000001
 20
16.25
 30
0.0
  0
POINT
  5
54
330
36
100
AcDbEntity
  8
1
 62
     4
100
AcDbPoint
 10
57.0
 20
24.75000000000001
 30
0.0
  0
POINT
  5
55
330
36
100
AcDbEntity
  8
1
 62
     4
100
AcDbPoint
 10
57.00000000000001
 20
20.75000000000001
 30
0.0
  0
POINT
  5
56
330
36
100
AcDbEntity
  8
1
 62
     4
100
AcDbPoint
 10
57.00000000000001
 20
12.25
 30
0.0
  0
POINT
  5
57
330
36
100
AcDbEntity
  8
1
 62
     4
100
AcDbPoint
 10
34.0
 20
34.0
 30
0.0
  0
LINE
  5
58
330
36
100
AcDbEntity
  8
1
  6
Continuous
 62
     7
100
AcDbLine
 10
105.0
 20
10.0
 30
0.0
 11
200.0
 21
10.0
 31
0.0
  0
LINE
  5
59
330
36
100
AcDbEntity
  8
1
  6
Continuous
 62
     2
100
AcDbLine
 10
105.0
 20
10.0
 30
0.0
 11
105.0
 21
5.0
 31
0.0
  0
LINE
  5
5A
330
36
100
AcDbEntity
  8
1
  6
Continuous
 62
     7
100
AcDbLine
 10
200.0
 20
148.5
 30
0.0
 11
200.0
 21
287.0000000000003
 31
0.0
  0
LINE
  5
5B
330
36
100
AcDbEntity
  8
1
  6
Continuous
 62
     2
100
AcDbLine
 10
200.0
 20
148.5
 30
0.0
 11
205.0
 21
148.5
 31
0.0
  0
LINE
  5
5C
330
36
100
AcDbEntity
  8
1
  6
Continuous
 62
     7
100
AcDbLine
 10
25.0
 20
148.5
 30
0.0
 11
25.0
 21
287.0000000000003
 31
0.0
  0
LINE
  5
5D
330
36
100
AcDbEntity
  8
1
  6
Continuous
 62
     2
100
AcDbLine
 10
25.0
 20
148.5
 30
0.0
 11
20.0
 21
148.5
 31
0.0
  0
LINE
  5
5E
330
36
100
AcDbEntity
  8
1
  6
Continuous
 62
     7
100
AcDbLine
 10
105.0
 20
287.0000000000003
 30
0.0
 11
25.0
 21
287.0000000000003
 31
0.0
  0
LINE
  5
5F
330
36
100
AcDbEntity
  8
1
  6
Continuous
 62
     2
100
AcDbLine
 10
105.0
 20
287.0000000000003
 30
0.0
 11
105.0
 21
292.0000000000003
 31
0.0
  0
LINE
  5
60
330
36
100
AcDbEntity
  8
1
  6
Continuous
 62
     2
100
AcDbLine
 10
166.0
 20
20.00000000000001
 30
0.0
 11
200.0
 21
20.00000000000001
 31
0.0
  0
LINE
  5
61
330
36
100
AcDbEntity
  8
1
  6
Continuous
 62
     2
100
AcDbLine
 10
98.0
 20
27.00000000000001
 30
0.0
 11
98.0
 21
9.99999999999999
 31
0.0
  0
LINE
  5
62
330
36
100
AcDbEntity
  8
1
  6
Continuous
 62
     2
100
AcDbLine
 10
115.0
 20
27.00000000000001
 30
0.0
 11
115.0
 21
9.99999999999999
 31
0.0
  0
LINE
  5
63
330
36
100
AcDbEntity
  8
1
  6
Continuous
 62
     2
100
AcDbLine
 10
149.0
 20
27.00000000000001
 30
0.0
 11
149.0
 21
10.0
 31
0.0
  0
LINE
  5
64
330
36
100
AcDbEntity
  8
1
  6
Continuous
 62
     2
100
AcDbLine
 10
132.0
 20
27.00000000000001
 30
0.0
 11
132.0
 21
9.99999999999999
 31
0.0
  0
LINE
  5
65
330
36
100
AcDbEntity
  8
1
  6
Continuous
 62
     2
100
AcDbLine
 10
166.0
 20
27.00000000000001
 30
0.0
 11
166.0
 21
10.0
 31
0.0
  0
LINE
  5
66
330
36
100
AcDbEntity
  8
1
  6
Continuous
 62
     2
100
AcDbLine
 10
55.00000000000001
 20
277.0000000000003
 30
0.0
 11
25.0
 21
277.0000000000003
 31
0.0
  0
LINE
  5
67
330
36
100
AcDbEntity
  8
1
  6
Continuous
 62
     7
100
AcDbLine
 10
25.0
 20
10.0
 30
0.0
 11
25.0
 21
148.5
 31
0.0
  0
LINE
  5
68
330
36
100
AcDbEntity
  8
1
  6
Continuous
 62
     2
100
AcDbLine
 10
40.0
 20
287.0000000000003
 30
0.0
 11
40.0
 21
277.0000000000003
 31
0.0
  0
LINE
  5
69
330
36
100
AcDbEntity
  8
1
  6
Continuous
 62
     2
100
AcDbLine
 10
55.0
 20
287.0000000000003
 30
0.0
 11
55.00000000000001
 21
277.0000000000003
 31
0.0
  0
LINE
  5
6A
330
36
100
AcDbEntity
  8
1
  6
Continuous
 62
     2
100
AcDbLine
 10
33.0
 20
41.0
 30
0.0
 11
33.0
 21
27.0
 31
0.0
  0
LINE
  5
6B
330
36
100
AcDbEntity
  8
1
  6
Continuous
 62
     7
100
AcDbLine
 10
200.0
 20
27.00000000000001
 30
0.0
 11
25.0
 21
27.00000000000001
 31
0.0
  0
LINE
  5
6C
330
36
100
AcDbEntity
  8
1
  6
Continuous
 62
     7
100
AcDbLine
 10
25.0
 20
41.0
 30
0.0
 11
200.0
 21
41.0
 31
0.0
  0
LINE
  5
6D
330
36
100
AcDbEntity
  8
1
  6
PHANTOM
 62
     4
100
AcDbLine
 10
0.0
 20
0.0
 30
0.0
 11
210.0
 21
0.0
 31
0.0
  0
LINE
  5
6E
330
36
100
AcDbEntity
  8
1
  6
PHANTOM
 62
     4
100
AcDbLine
 10
210.0
 20
0.0
 30
0.0
 11
210.0
 21
297.0
 31
0.0
  0
LINE
  5
6F
330
36
100
AcDbEntity
  8
1
  6
PHANTOM
 62
     4
100
AcDbLine
 10
210.0
 20
297.0
 30
0.0
 11
0.0
 21
297.0
 31
0.0
  0
LINE
  5
70
330
36
100
AcDbEntity
  8
1
  6
PHANTOM
 62
     4
100
AcDbLine
 10
0.0
 20
297.0
 30
0.0
 11
0.0
 21
0.0
 31
0.0
  0
LINE
  5
71
330
36
100
AcDbEntity
  8
1
  6
Continuous
 62
     7
100
AcDbLine
 10
25.0
 20
10.0
 30
0.0
 11
105.0
 21
10.0
 31
0.0
  0
LINE
  5
72
330
36
100
AcDbEntity
  8
1
  6
Continuous
 62
     7
100
AcDbLine
 10
200.0
 20
10.0
 30
0.0
 11
200.0
 21
148.5
 31
0.0
  0
LINE
  5
73
330
36
100
AcDbEntity
  8
1
  6
Continuous
 62
     7
100
AcDbLine
 10
200.0
 20
287.0000000000003
 30
0.0
 11
105.0
 21
287.0000000000003
 31
0.0
  0
LINE
  5
74
330
36
100
AcDbEntity
  8
1
  6
Continuous
 62
     2
100
AcDbLine
 10
25.0
 20
18.50000000000001
 30
0.0
 11
81.0
 21
18.50000000000001
 31
0.0
  0
LINE
  5
75
330
36
100
AcDbEntity
  8
1
  6
Continuous
 62
     2
100
AcDbLine
 10
33.0
 20
27.0
 30
0.0
 11
33.0
 21
10.0
 31
0.0
  0
LINE
  5
76
330
36
100
AcDbEntity
  8
1
  6
Continuous
 62
     7
100
AcDbLine
 10
191.0
 20
24.70000000000001
 30
0.0
 11
191.0
 21
22.30000000000001
 31
0.0
  0
LINE
  5
77
330
36
100
AcDbEntity
  8
1
  6
Continuous
 62
     7
100
AcDbLine
 10
191.0
 20
24.70000000000001
 30
0.0
 11
196.0
 21
25.50000000000001
 31
0.0
  0
LINE
  5
78
330
36
100
AcDbEntity
  8
1
  6
Continuous
 62
     7
100
AcDbLine
 10
196.0
 20
25.50000000000001
 30
0.0
 11
196.0
 21
21.50000000000001
 31
0.0
  0
LINE
  5
79
330
36
100
AcDbEntity
  8
1
  6
Continuous
 62
     7
100
AcDbLine
 10
196.0
 20
21.50000000000001
 30
0.0
 11
191.0
 21
22.30000000000001
 31
0.0
  0
LINE
  5
7A
330
36
100
AcDbEntity
  8
1
  6
DOT_CENTER
 62
     2
100
AcDbLine
 10
184.0
 20
23.50000000000001
 30
0.0
 11
197.0
 21
23.50000000000001
 31
0.0
  0
LINE
  5
7B
330
36
100
AcDbEntity
  8
1
  6
DOT_CENTER
 62
     2
100
AcDbLine
 10
187.0
 20
26.50000000000001
 30
0.0
 11
187.0
 21
20.50000000000001
 31
0.0
  0
LINE
  5
7C
330
36
100
AcDbEntity
  8
1
  6
Continuous
 62
     2
100
AcDbLine
 10
81.0
 20
27.00000000000001
 30
0.0
 11
81.0
 21
10.0
 31
0.0
  0
CIRCLE
  5
7D
330
36
100
AcDbEntity
  8
1
  6
Continuous
 62
     7
100
AcDbCircle
 10
103.5
 20
12.5
 30
0.0
 40
0.2999999999999972
  0
CIRCLE
  5
7E
330
36
100
AcDbEntity
  8
1
  6
Continuous
 62
     7
100
AcDbCircle
 10
109.5
 20
12.5
 30
0.0
 40
0.2999999999999972
  0
CIRCLE
  5
7F
330
36
100
AcDbEntity
  8
1
  6
Continuous
 62
     7
100
AcDbCircle
 10
120.5
 20
12.5
 30
0.0
 40
0.2999999999999972
  0
CIRCLE
  5
80
330
36
100
AcDbEntity
  8
1
  6
Continuous
 62
     7
100
AcDbCircle
 10
126.5
 20
12.5
 30
0.0
 40
0.2999999999999972
  0
CIRCLE
  5
81
330
36
100
AcDbEntity
  8
1
  6
Continuous
 62
     7
100
AcDbCircle
 10
137.5
 20
12.5
 30
0.0
 40
0.3000000000000114
  0
CIRCLE
  5
82
330
36
100
AcDbEntity
  8
1
  6
Continuous
 62
     7
100
AcDbCircle
 10
143.5
 20
12.5
 30
0.0
 40
0.3000000000000114
  0
CIRCLE
  5
83
330
36
100
AcDbEntity
  8
1
  6
Continuous
 62
     7
100
AcDbCircle
 10
160.5
 20
12.5
 30
0.0
 40
0.3000000000000114
  0
CIRCLE
  5
84
330
36
100
AcDbEntity
  8
1
  6
Continuous
 62
     7
100
AcDbCircle
 10
154.5
 20
12.5
 30
0.0
 40
0.3000000000000114
  0
CIRCLE
  5
85
330
36
100
AcDbEntity
  8
1
  6
Continuous
 62
     7
100
AcDbCircle
 10
187.0
 20
23.50000000000001
 30
0.0
 40
1.200000000000102
  0
CIRCLE
  5
86
330
36
100
AcDbEntity
  8
1
  6
Continuous
 62
     7
100
AcDbCircle
 10
187.0
 20
23.50000000000001
 30
0.0
 40
2.0
  0
CIRCLE
  5
87
330
36
100
AcDbEntity
  8
1
  6
DOT_CENTER
 62
     7
100
AcDbCircle
 10
89.5
 20
16.0
 30
0.0
 40
0.1000000000000227
  0
CIRCLE
  5
88
330
36
100
AcDbEntity
  8
1
  6
DOT_CENTER
 62
     7
100
AcDbCircle
 10
89.5
 20
18.0
 30
0.0
 40
0.1000000000000227
  0
MTEXT
  5
8A
330
36
100
AcDbEntity
  8
1
 62
     7
100
AcDbMText
 10
188.5
 20
15.0
 30
0.0
 40
3.0
 41
0.0
 71
     5
 72
     1
  1
三栄水栓製作所
  7
CONVERTER_1
 73
     1
 44
1.32052821128451
  0
MTEXT
  5
8B
330
36
100
AcDbEntity
  8
1
 62
     7
100
AcDbMText
 10
171.5
 20
15.0
 30
0.0
 40
2.5
 41
0.0
 71
     5
 72
     1
  1
株式会社
  7
CONVERTER_1
 73
     1
 44
1.32052821128451
  0
MTEXT
  5
8C
330
36
100
AcDbEntity
  8
1
 62
     2
100
AcDbMText
 10
32.5
 20
282.0000000000003
 30
0.0
 40
5.0
 41
0.0
 71
     5
 72
     1
  1
図番
  7
CONVERTER_1
 73
     1
 44
0.60024009603842
  0
MTEXT
  5
8D
330
36
100
AcDbEntity
  8
1
 62
     2
100
AcDbMText
 10
29.0
 20
34.0
 30
0.0
 40
3.5
 41
0.0
 71
     5
 72
     1
  1
備考
  7
CONVERTER_1
 73
     1
 44
0.60024009603842
  0
MTEXT
  5
8E
330
36
100
AcDbEntity
  8
1
 62
     2
100
AcDbMText
 10
29.0
 20
22.75
 30
0.0
 40
3.5
 41
0.0
 71
     5
 72
     1
  1
品名
  7
CONVERTER_1
 73
     1
 44
0.96038415366146
  0
MTEXT
  5
8F
330
36
100
AcDbEntity
  8
1
 62
     2
100
AcDbMText
 10
29.0
 20
14.25
 30
0.0
 40
3.5
 41
0.0
 71
     5
 72
     1
  1
品番
  7
CONVERTER_1
 73
     1
 44
0.96038415366146
  0
MTEXT
  5
90
330
36
100
AcDbEntity
  8
1
 62
     2
100
AcDbMText
 10
101.5
 20
25.00000000000001
 30
0.0
 40
3.0
 41
0.0
 71
     5
 72
     1
  1
承認
  7
CONVERTER_1
 73
     1
 44
0.78031212484994
  0
MTEXT
  5
91
330
36
100
AcDbEntity
  8
1
 62
     2
100
AcDbMText
 10
175.0
 20
23.50000000000001
 30
0.0
 40
3.5
 41
0.0
 71
     5
 72
     1
  1
第三角法
  7
CONVERTER_1
 73
     1
 44
0.7202881152461
  0
MTEXT
  5
92
330
36
100
AcDbEntity
  8
1
 62
     2
100
AcDbMText
 10
118.5
 20
25.00000000000001
 30
0.0
 40
3.0
 41
0.0
 71
     5
 72
     1
  1
検図
  7
CONVERTER_1
 73
     1
 44
0.78031212484994
  0
MTEXT
  5
93
330
36
100
AcDbEntity
  8
1
 62
     2
100
AcDbMText
 10
152.5
 20
25.00000000000001
 30
0.0
 40
3.0
 41
0.0
 71
     5
 72
     1
  1
担当
  7
CONVERTER_1
 73
     1
 44
0.78031212484994
  0
MTEXT
  5
94
330
36
100
AcDbEntity
  8
1
 62
     2
100
AcDbMText
 10
135.5
 20
25.00000000000001
 30
0.0
 40
3.0
 41
0.0
 71
     5
 72
     1
  1
製図
  7
CONVERTER_1
 73
     1
 44
0.78031212484994
  0
MTEXT
  5
95
330
36
100
AcDbEntity
  8
1
 62
     2
100
AcDbMText
 10
89.5
 20
24.00000000000001
 30
0.0
 40
3.5
 41
0.0
 71
     5
 72
     1
  1
尺度
  7
CONVERTER_1
 73
     1
 44
0.7202881152461
  0
MTEXT
  5
96
330
36
100
AcDbEntity
  8
1
 62
   250
100
AcDbMText
 10
25.0
 20
5.0
 30
0.0
 40
3.5
 41
0.0
 71
     4
 72
     1
  1
備考欄の文字列 原点位置=4
  7
CONVERTER_1
 73
     1
 44
0.7202881152461
  0
ENDBLK
  5
38
330
36
100
AcDbEntity
  8
0
100
AcDbBlockEnd
  0
BLOCK
  5
3A
330
39
100
AcDbEntity
  8
0
100
AcDbBlockBegin
  2
K475NJV-2T_V2261-X2-13_S
 70
     0
 71
     0
 10
19897.78608665745
 20
2522.194595945304
 30
0.0
  3
K475NJV-2T_V2261-X2-13_S
  1

  0
LINE
  5
97
330
39
100
AcDbEntity
  8
1
  6
CENTER_DASH_DASH
 62
     2
100
AcDbLine
 10
960.7688117111361
 20
2922.94014541197
 30
0.0
 11
2250.773282197247
 21
2922.94014541197
 31
0.0
  0
LINE
  5
98
330
39
100
AcDbEntity
  8
1
  6
PHANTOM
 62
     4
100
AcDbLine
 10
2250.773282197247
 20
2934.940145411972
 30
0.0
 11
960.7688117111372
 21
2934.940145411972
 31
0.0
  0
LINE
  5
99
330
39
100
AcDbEntity
  8
1
  6
PHANTOM
 62
     4
100
AcDbLine
 10
2250.773282197247
 20
2922.94014541197
 30
0.0
 11
2250.773282197247
 21
2934.940145411972
 31
0.0
  0
LINE
  5
9A
330
39
100
AcDbEntity
  8
1
  6
PHANTOM
 62
     4
100
AcDbLine
 10
960.7688117111372
 20
2934.940145411972
 30
0.0
 11
960.7688117111361
 21
2922.94014541197
 31
0.0
  0
LINE
  5
9B
330
39
100
AcDbEntity
  8
1
  6
PHANTOM
 62
     4
100
AcDbLine
 10
397.8191237400606
 20
1889.159515677717
 30
0.0
 11
385.8191237400592
 21
1889.159515677717
 31
0.0
  0
LINE
  5
9C
330
39
100
AcDbEntity
  8
1
  6
PHANTOM
 62
     4
100
AcDbLine
 10
385.8191237400592
 20
1479.217397688725
 30
0.0
 11
397.8191237400606
 21
1479.217397688725
 31
0.0
  0
LINE
  5
9D
330
39
100
AcDbEntity
  8
1
  6
PHANTOM
 62
     4
100
AcDbLine
 10
385.8191237400592
 20
1889.159515677717
 30
0.0
 11
385.8191237400592
 21
1479.217397688725
 31
0.0
  0
LINE
  5
9E
330
39
100
AcDbEntity
  8
1
  6
CENTER_DASH_DASH
 62
     2
100
AcDbLine
 10
397.8191237400606
 20
1479.217397688725
 30
0.0
 11
397.8191237400606
 21
1889.159515677717
 31
0.0
  0
LWPOLYLINE
  5
A0
330
39
100
AcDbEntity
  8
1
  6
Continuous
 62
     4
 60
     1
100
AcDbPolyline
 90
        2
 70
     0
 43
0.0
 10
960.7688117111361
 20
2922.94014541197
 10
2250.773282197247
 20
2922.94014541197
  0
LWPOLYLINE
  5
A3
330
39
100
AcDbEntity
  8
1
  6
Continuous
 62
     4
 60
     1
100
AcDbPolyline
 90
        2
 70
     0
 43
0.0
 10
397.8191237400606
 20
1889.159515677717
 10
397.8191237400606
 20
1479.217397688725
  0
HATCH
  5
A5
330
39
100
AcDbEntity
  8
0
  6
Continuous
 62
     4
100
AcDbHatch
 10
0.0
 20
0.0
 30
0.0
210
0.0
220
0.0
230
1.0
  2
CUSTOM0
 70
     0
 71
     0
 91
        1
 92
        1
 93
        4
 72
     1
 10
960.7688117111361
 20
2922.94014541197
 11
2250.773282197247
 21
2922.94014541197
 72
     1
 10
2250.773282197247
 20
2922.94014541197
 11
2250.773282197247
 21
2934.940145411972
 72
     1
 10
2250.773282197247
 20
2934.940145411972
 11
960.7688117111372
 21
2934.940145411972
 72
     1
 10
960.7688117111372
 20
2934.940145411972
 11
960.7688117111361
 21
2922.94014541197
 97
        0
 75
     1
 76
     2
 52
45.0
 41
15.0
 77
     0
 78
     2
 53
45.0
 43
0.0
 44
0.0
 45
-21.21320343559642
 46
0.0000000000000017
 79
     0
 53
45.0
 43
3.535533905932737
 44
-3.535533905932738
 45
-21.21320343559642
 46
0.0000000000000017
 79
     0
 98
        1
 10
0.0
 20
0.0
  0
HATCH
  5
A6
330
39
100
AcDbEntity
  8
0
  6
Continuous
 62
     4
100
AcDbHatch
 10
0.0
 20
0.0
 30
0.0
210
0.0
220
0.0
230
1.0
  2
CUSTOM1
 70
     0
 71
     0
 91
        1
 92
        1
 93
        4
 72
     1
 10
397.8191237400606
 20
1889.159515677717
 11
397.8191237400606
 21
1479.217397688725
 72
     1
 10
397.8191237400606
 20
1479.217397688725
 11
385.8191237400592
 21
1479.217397688725
 72
     1
 10
385.8191237400592
 20
1479.217397688725
 11
385.8191237400592
 21
1889.159515677717
 72
     1
 10
385.8191237400592
 20
1889.159515677717
 11
397.8191237400606
 21
1889.159515677717
 97
        0
 75
     1
 76
     2
 52
45.0
 41
15.0
 77
     0
 78
     2
 53
45.0
 43
0.0
 44
0.0
 45
-21.21320343559642
 46
0.0000000000000017
 79
     0
 53
45.0
 43
3.535533905932737
 44
-3.535533905932738
 45
-21.21320343559642
 46
0.0000000000000017
 79
     0
 98
        1
 10
0.0
 20
0.0
  0
ENDBLK
  5
3B
330
39
100
AcDbEntity
  8
0
100
AcDbBlockEnd
  0
BLOCK
  5
F8
330
F1
100
AcDbEntity
  8
0
100
AcDbBlockBegin
  2
*D03
 70
     1
 71
     0
 10
0.0
 20
0.0
 30
0.0
  3
*D03
  1

  0
LINE
  5
F2
330
F1
100
AcDbEntity
  8
1
  6
Continuous
 62
     2
100
AcDbLine
 10
960.768811711136
 20
2441.891107809001
 30
0.0
 11
960.768811711136
 21
2922.940145411971
 31
0.0
  0
LINE
  5
F3
330
F1
100
AcDbEntity
  8
1
  6
Continuous
 62
     2
100
AcDbLine
 10
1080.769510757198
 20
2441.891107809001
 30
0.0
 11
948.768811711136
 21
2441.891107809001
 31
0.0
  0
LINE
  5
F4
330
F1
100
AcDbEntity
  8
1
  6
Continuous
 62
     2
100
AcDbLine
 10
960.7688117111361
 20
2922.940145411971
 30
0.0
 11
948.768811711136
 21
2922.940145411971
 31
0.0
  0
SOLID
  5
F5
330
F1
100
AcDbEntity
  8
1
 62
     2
100
AcDbTrace
 10
955.2394068124654
 20
2483.891107809001
 30
0.0
 11
966.2982166098066
 21
2483.891107809001
 31
0.0
 12
960.768811711136
 22
2441.891107809001
 32
0.0
 13
960.768811711136
 23
2441.891107809001
 33
0.0
  0
SOLID
  5
F6
330
F1
100
AcDbEntity
  8
1
 62
     2
100
AcDbTrace
 10
966.2982166098066
 20
2880.940145411971
 30
0.0
 11
955.2394068124654
 21
2880.940145411971
 31
0.0
 12
960.768811711136
 22
2922.940145411971
 32
0.0
 13
960.768811711136
 23
2922.940145411971
 33
0.0
  0
MTEXT
  5
F7
330
F1
100
AcDbEntity
  8
1
 62
     7
100
AcDbMText
 10
948.768811711136
 20
2632.538257391136
 30
0.0
 40
42.0
 41
0.0
 71
     7
 72
     1
  1
480
  7
CONVERTER_2
 11
0.0
 21
1.0
 31
0.0
 73
     1
 44
0.60024009603842
  0
ENDBLK
  5
F9
330
F1
100
AcDbEntity
  8
0
100
AcDbBlockEnd
  0
BLOCK
  5
103
330
FC
100
AcDbEntity
  8
0
100
AcDbBlockBegin
  2
*D14
 70
     1
 71
     0
 10
0.0
 20
0.0
 30
0.0
  3
*D14
  1

  0
LINE
  5
FD
330
FC
100
AcDbEntity
  8
1
  6
Continuous
 62
     2
100
AcDbLine
 10
2346.773282197246
 20
2922.94014541197
 30
0.0
 11
2346.773282197246
 21
2722.93719402308
 31
0.0
  0
LINE
  5
FE
330
FC
100
AcDbEntity
  8
1
  6
Continuous
 62
     2
100
AcDbLine
 10
2250.773282197247
 20
2922.94014541197
 30
0.0
 11
2358.773282197246
 21
2922.94014541197
 31
0.0
  0
LINE
  5
FF
330
FC
100
AcDbEntity
  8
1
  6
Continuous
 62
     2
100
AcDbLine
 10
2166.773282197246
 20
2722.93719402308
 30
0.0
 11
2358.773282197246
 21
2722.93719402308
 31
0.0
  0
SOLID
  5
100
330
FC
100
AcDbEntity
  8
1
 62
     2
100
AcDbTrace
 10
2352.302687095917
 20
2880.94014541197
 30
0.0
 11
2341.243877298575
 21
2880.94014541197
 31
0.0
 12
2346.773282197246
 22
2922.94014541197
 32
0.0
 13
2346.773282197246
 23
2922.94014541197
 33
0.0
  0
SOLID
  5
101
330
FC
100
AcDbEntity
  8
1
 62
     2
100
AcDbTrace
 10
2341.243877298575
 20
2764.93719402308
 30
0.0
 11
2352.302687095917
 21
2764.93719402308
 31
0.0
 12
2346.773282197246
 22
2722.93719402308
 32
0.0
 13
2346.773282197246
 23
2722.93719402308
 33
0.0
  0
MTEXT
  5
102
330
FC
100
AcDbEntity
  8
1
 62
     7
100
AcDbMText
 10
2334.773282197246
 20
2772.538669717525
 30
0.0
 40
42.0
 41
0.0
 71
     7
 72
     1
  1
200
  7
CONVERTER_2
 11
0.0
 21
1.0
 31
0.0
 73
     1
 44
0.60024009603842
  0
ENDBLK
  5
104
330
FC
100
AcDbEntity
  8
0
100
AcDbBlockEnd
  0
BLOCK
  5
10E
330
107
100
AcDbEntity
  8
0
100
AcDbBlockBegin
  2
*D25
 70
     1
 71
     0
 10
0.0
 20
0.0
 30
0.0
  3
*D25
  1

  0
LINE
  5
108
330
107
100
AcDbEntity
  8
1
  6
Continuous
 62
     2
100
AcDbLine
 10
2250.773282197246
 20
2852.94131728697
 30
0.0
 11
2250.773282197246
 21
2722.93719402308
 31
0.0
  0
LINE
  5
109
330
107
100
AcDbEntity
  8
1
  6
Continuous
 62
     2
100
AcDbLine
 10
1640.770461016692
 20
2852.94131728697
 30
0.0
 11
2262.773282197246
 21
2852.94131728697
 31
0.0
  0
LINE
  5
10A
330
107
100
AcDbEntity
  8
1
  6
Continuous
 62
     2
100
AcDbLine
 10
2166.773282197246
 20
2722.93719402308
 30
0.0
 11
2262.773282197246
 21
2722.93719402308
 31
0.0
  0
SOLID
  5
10B
330
107
100
AcDbEntity
  8
1
 62
     2
100
AcDbTrace
 10
2256.302687095917
 20
2810.94131728697
 30
0.0
 11
2245.243877298575
 21
2810.94131728697
 31
0.0
 12
2250.773282197246
 22
2852.94131728697
 32
0.0
 13
2250.773282197246
 23
2852.94131728697
 33
0.0
  0
SOLID
  5
10C
330
107
100
AcDbEntity
  8
1
 62
     2
100
AcDbTrace
 10
2245.243877298575
 20
2764.93719402308
 30
0.0
 11
2256.302687095917
 21
2764.93719402308
 31
0.0
 12
2250.773282197246
 22
2722.93719402308
 32
0.0
 13
2250.773282197246
 23
2722.93719402308
 33
0.0
  0
MTEXT
  5
10D
330
107
100
AcDbEntity
  8
1
 62
     7
100
AcDbMText
 10
2238.773282197246
 20
2743.839255655025
 30
0.0
 40
42.0
 41
0.0
 71
     7
 72
     1
  1
130
  7
CONVERTER_2
 11
0.0
 21
1.0
 31
0.0
 73
     1
 44
0.60024009603842
  0
ENDBLK
  5
10F
330
107
100
AcDbEntity
  8
0
100
AcDbBlockEnd
  0
BLOCK
  5
119
330
112
100
AcDbEntity
  8
0
100
AcDbBlockBegin
  2
*D36
 70
     1
 71
     0
 10
0.0
 20
0.0
 30
0.0
  3
*D36
  1

  0
LINE
  5
113
330
112
100
AcDbEntity
  8
1
  6
Continuous
 62
     2
100
AcDbLine
 10
1080.769510757198
 20
2322.936369370303
 30
0.0
 11
2130.778095303962
 21
2322.936369370303
 31
0.0
  0
LINE
  5
114
330
112
100
AcDbEntity
  8
1
  6
Continuous
 62
     2
100
AcDbLine
 10
2130.778095303962
 20
2457.891107809001
 30
0.0
 11
2130.778095303962
 21
2310.936369370303
 31
0.0
  0
LINE
  5
115
330
112
100
AcDbEntity
  8
1
  6
Continuous
 62
     2
100
AcDbLine
 10
1080.769510757198
 20
2441.891107809001
 30
0.0
 11
1080.769510757198
 21
2310.936369370303
 31
0.0
  0
SOLID
  5
116
330
112
100
AcDbEntity
  8
1
 62
     2
100
AcDbTrace
 10
1122.769510757198
 20
2328.465774268974
 30
0.0
 11
1122.769510757198
 21
2317.406964471632
 31
0.0
 12
1080.769510757198
 22
2322.936369370303
 32
0.0
 13
1080.769510757198
 23
2322.936369370303
 33
0.0
  0
SOLID
  5
117
330
112
100
AcDbEntity
  8
1
 62
     2
100
AcDbTrace
 10
2088.778095303962
 20
2317.406964471632
 30
0.0
 11
2088.778095303962
 21
2328.465774268974
 31
0.0
 12
2130.778095303962
 22
2322.936369370303
 32
0.0
 13
2130.778095303962
 23
2322.936369370303
 33
0.0
  0
MTEXT
  5
118
330
112
100
AcDbEntity
  8
1
 62
     7
100
AcDbMText
 10
1542.77380303058
 20
2334.936369370303
 30
0.0
 40
42.0
 41
0.0
 71
     7
 72
     1
  1
1050
  7
CONVERTER_2
 11
0.9999999999970621
 21
2.424068405545307E-6
 31
0.0
 73
     1
 44
0.60024009603842
  0
ENDBLK
  5
11A
330
112
100
AcDbEntity
  8
0
100
AcDbBlockEnd
  0
BLOCK
  5
124
330
11D
100
AcDbEntity
  8
0
100
AcDbBlockBegin
  2
*D47
 70
     1
 71
     0
 10
0.0
 20
0.0
 30
0.0
  3
*D47
  1

  0
LINE
  5
11E
330
11D
100
AcDbEntity
  8
1
  6
Continuous
 62
     2
100
AcDbLine
 10
1745.677752683358
 20
1889.199124561256
 30
0.0
 11
1465.941511363913
 21
1889.199124561256
 31
0.0
  0
LINE
  5
11F
330
11D
100
AcDbEntity
  8
1
  6
Continuous
 62
     2
100
AcDbLine
 10
1465.941511363913
 20
1735.971867616811
 30
0.0
 11
1465.941511363913
 21
1901.199124561256
 31
0.0
  0
LINE
  5
120
330
11D
100
AcDbEntity
  8
1
  6
Continuous
 62
     2
100
AcDbLine
 10
1745.677752683358
 20
1735.971867616811
 30
0.0
 11
1745.677752683358
 21
1901.199124561256
 31
0.0
  0
SOLID
  5
121
330
11D
100
AcDbEntity
  8
1
 62
     2
100
AcDbTrace
 10
1703.677752683358
 20
1883.669719662585
 30
0.0
 11
1703.677752683358
 21
1894.728529459927
 31
0.0
 12
1745.677752683358
 22
1889.199124561256
 32
0.0
 13
1745.677752683358
 23
1889.199124561256
 33
0.0
  0
SOLID
  5
122
330
11D
100
AcDbEntity
  8
1
 62
     2
100
AcDbTrace
 10
1507.941511363913
 20
1894.728529459927
 30
0.0
 11
1507.941511363913
 21
1883.669719662585
 31
0.0
 12
1465.941511363913
 22
1889.199124561256
 32
0.0
 13
1465.941511363913
 23
1889.199124561256
 33
0.0
  0
MTEXT
  5
123
330
11D
100
AcDbEntity
  8
1
 62
     7
100
AcDbMText
 10
1555.37380303058
 20
1901.199124561256
 30
0.0
 40
42.0
 41
0.0
 71
     7
 72
     1
  1
280
  7
CONVERTER_2
 11
0.9999999999970621
 21
2.424068405545307E-6
 31
0.0
 73
     1
 44
0.60024009603842
  0
ENDBLK
  5
125
330
11D
100
AcDbEntity
  8
0
100
AcDbBlockEnd
  0
BLOCK
  5
131
330
128
100
AcDbEntity
  8
0
100
AcDbBlockBegin
  2
*D58
 70
     1
 71
     0
 10
0.0
 20
0.0
 30
0.0
  3
*D58
  1

  0
LINE
  5
129
330
128
100
AcDbEntity
  8
1
  6
Continuous
 62
     2
100
AcDbLine
 10
2250.563799868305
 20
1898.503946981839
 30
0.0
 11
2250.563799868305
 21
1769.195138344991
 31
0.0
  0
LINE
  5
12A
330
128
100
AcDbEntity
  8
1
  6
Continuous
 62
     2
100
AcDbLine
 10
2250.563799868305
 20
1769.195138344991
 30
0.0
 11
2250.563799868305
 21
1719.203898866811
 31
0.0
  0
LINE
  5
12B
330
128
100
AcDbEntity
  8
1
  6
Continuous
 62
     2
100
AcDbLine
 10
2250.563799868305
 20
1719.203898866811
 30
0.0
 11
2250.563799868305
 21
1635.203898866811
 31
0.0
  0
LINE
  5
12C
330
128
100
AcDbEntity
  8
1
  6
Continuous
 62
     2
100
AcDbLine
 10
1773.668464488914
 20
1719.203898866811
 30
0.0
 11
2262.563799868305
 21
1719.203898866811
 31
0.0
  0
LINE
  5
12D
330
128
100
AcDbEntity
  8
1
  6
Continuous
 62
     2
100
AcDbLine
 10
2130.613799868305
 20
1769.195138344991
 30
0.0
 11
2262.563799868305
 21
1769.195138344991
 31
0.0
  0
SOLID
  5
12E
330
128
100
AcDbEntity
  8
1
 62
     2
100
AcDbTrace
 10
2245.034394969634
 20
1811.195138344991
 30
0.0
 11
2256.093204766976
 21
1811.195138344991
 31
0.0
 12
2250.563799868305
 22
1769.195138344991
 32
0.0
 13
2250.563799868305
 23
1769.195138344991
 33
0.0
  0
SOLID
  5
12F
330
128
100
AcDbEntity
  8
1
 62
     2
100
AcDbTrace
 10
2256.093204766976
 20
1677.203898866811
 30
0.0
 11
2245.034394969634
 21
1677.203898866811
 31
0.0
 12
2250.563799868305
 22
1719.203898866811
 32
0.0
 13
2250.563799868305
 23
1719.203898866811
 33
0.0
  0
MTEXT
  5
130
330
128
100
AcDbEntity
  8
1
 62
     7
100
AcDbMText
 10
2238.563799868305
 20
1835.503946981839
 30
0.0
 40
42.0
 41
0.0
 71
     7
 72
     1
  1
50
  7
CONVERTER_2
 11
0.0
 21
1.0
 31
0.0
 73
     1
 44
0.60024009603842
  0
ENDBLK
  5
132
330
128
100
AcDbEntity
  8
0
100
AcDbBlockEnd
  0
BLOCK
  5
13E
330
135
100
AcDbEntity
  8
0
100
AcDbBlockBegin
  2
*D69
 70
     1
 71
     0
 10
0.0
 20
0.0
 30
0.0
  3
*D69
  1

  0
LINE
  5
136
330
135
100
AcDbEntity
  8
1
  6
Continuous
 62
     2
100
AcDbLine
 10
2346.563799868305
 20
1570.199081158478
 30
0.0
 11
2346.563799868305
 21
1654.199081158478
 31
0.0
  0
LINE
  5
137
330
135
100
AcDbEntity
  8
1
  6
Continuous
 62
     2
100
AcDbLine
 10
2346.563799868305
 20
1654.199081158478
 30
0.0
 11
2346.563799868305
 21
1769.195138344992
 31
0.0
  0
LINE
  5
138
330
135
100
AcDbEntity
  8
1
  6
Continuous
 62
     2
100
AcDbLine
 10
2346.563799868305
 20
1769.195138344992
 30
0.0
 11
2346.563799868305
 21
1853.195138344992
 31
0.0
  0
LINE
  5
139
330
135
100
AcDbEntity
  8
1
  6
Continuous
 62
     2
100
AcDbLine
 10
2130.613799868305
 20
1769.195138344992
 30
0.0
 11
2358.563799868305
 21
1769.195138344992
 31
0.0
  0
LINE
  5
13A
330
135
100
AcDbEntity
  8
1
  6
Continuous
 62
     2
100
AcDbLine
 10
2109.563924145166
 20
1654.199081158478
 30
0.0
 11
2358.563799868305
 21
1654.199081158478
 31
0.0
  0
SOLID
  5
13B
330
135
100
AcDbEntity
  8
1
 62
     2
100
AcDbTrace
 10
2352.093204766976
 20
1612.199081158478
 30
0.0
 11
2341.034394969634
 21
1612.199081158478
 31
0.0
 12
2346.563799868305
 22
1654.199081158478
 32
0.0
 13
2346.563799868305
 23
1654.199081158478
 33
0.0
  0
SOLID
  5
13C
330
135
100
AcDbEntity
  8
1
 62
     2
100
AcDbTrace
 10
2341.034394969634
 20
1811.195138344992
 30
0.0
 11
2352.093204766976
 21
1811.195138344992
 31
0.0
 12
2346.563799868305
 22
1769.195138344992
 32
0.0
 13
2346.563799868305
 23
1769.195138344992
 33
0.0
  0
MTEXT
  5
13D
330
135
100
AcDbEntity
  8
1
 62
     7
100
AcDbMText
 10
2334.563799868305
 20
1673.899102859867
 30
0.0
 40
42.0
 41
0.0
 71
     7
 72
     1
  1
115
  7
CONVERTER_2
 11
0.0
 21
1.0
 31
0.0
 73
     1
 44
0.60024009603842
  0
ENDBLK
  5
13F
330
135
100
AcDbEntity
  8
0
100
AcDbBlockEnd
  0
BLOCK
  5
149
330
142
100
AcDbEntity
  8
0
100
AcDbBlockBegin
  2
*D710
 70
     1
 71
     0
 10
0.0
 20
0.0
 30
0.0
  3
*D710
  1

  0
LINE
  5
143
330
142
100
AcDbEntity
  8
1
  6
Continuous
 62
     2
100
AcDbLine
 10
960.9479639052324
 20
1599.20433289459
 30
0.0
 11
960.9479639052324
 21
1769.195138344992
 31
0.0
  0
LINE
  5
144
330
142
100
AcDbEntity
  8
1
  6
Continuous
 62
     2
100
AcDbLine
 10
1080.897963905232
 20
1769.195138344992
 30
0.0
 11
948.9479639052324
 21
1769.195138344992
 31
0.0
  0
LINE
  5
145
330
142
100
AcDbEntity
  8
1
  6
Continuous
 62
     2
100
AcDbLine
 10
1605.77380303058
 20
1599.20433289459
 30
0.0
 11
948.9479639052324
 21
1599.20433289459
 31
0.0
  0
SOLID
  5
146
330
142
100
AcDbEntity
  8
1
 62
     2
100
AcDbTrace
 10
955.4185590065619
 20
1641.20433289459
 30
0.0
 11
966.477368803903
 21
1641.20433289459
 31
0.0
 12
960.9479639052324
 22
1599.20433289459
 32
0.0
 13
960.9479639052324
 23
1599.20433289459
 33
0.0
  0
SOLID
  5
147
330
142
100
AcDbEntity
  8
1
 62
     2
100
AcDbTrace
 10
966.477368803903
 20
1727.195138344992
 30
0.0
 11
955.4185590065619
 21
1727.195138344992
 31
0.0
 12
960.9479639052324
 22
1769.195138344992
 32
0.0
 13
960.9479639052324
 23
1769.195138344992
 33
0.0
  0
MTEXT
  5
148
330
142
100
AcDbEntity
  8
1
 62
     7
100
AcDbMText
 10
948.9479639052324
 20
1640.101728727923
 30
0.0
 40
42.0
 41
0.0
 71
     7
 72
     1
  1
170
  7
CONVERTER_2
 11
0.0
 21
1.0
 31
0.0
 73
     1
 44
0.60024009603842
  0
ENDBLK
  5
14A
330
142
100
AcDbEntity
  8
0
100
AcDbBlockEnd
  0
BLOCK
  5
152
330
14D
100
AcDbEntity
  8
0
100
AcDbBlockBegin
  2
*D811
 70
     1
 71
     0
 10
0.0
 20
0.0
 30
0.0
  3
*D811
  1

  0
LINE
  5
14E
330
14D
100
AcDbEntity
  8
1
  6
Continuous
 62
     2
100
AcDbLine
 10
1547.791046973284
 20
2794.958561229673
 30
0.0
 11
1757.879591178117
 21
3005.047105434506
 31
0.0
  0
SOLID
  5
14F
330
14D
100
AcDbEntity
  8
1
 62
     2
100
AcDbTrace
 10
1644.997436983178
 20
2899.984710639129
 30
0.0
 11
1652.817196382732
 21
2892.164951239578
 31
0.0
 12
1619.208831873125
 22
2866.376346129514
 32
0.0
 13
1619.208831873125
 23
2866.376346129514
 33
0.0
  0
SOLID
  5
150
330
14D
100
AcDbEntity
  8
1
 62
     2
100
AcDbTrace
 10
1566.550169077982
 20
2805.89792393481
 30
0.0
 11
1558.730409678429
 21
2813.717683334361
 31
0.0
 12
1592.338774188036
 22
2839.506288444425
 32
0.0
 13
1592.338774188036
 23
2839.506288444425
 33
0.0
  0
MTEXT
  5
151
330
14D
100
AcDbEntity
  8
1
 62
     7
100
AcDbMText
 10
1656.141067500997
 20
2920.279144505863
 30
0.0
 40
42.0
 41
0.0
 71
     7
 72
     1
  1
\C7;{\Fgdt;n}\C7;38
  7
CONVERTER_2
 11
0.7071067811865484
 21
0.7071067811865467
 31
0.0
 73
     1
 44
0.60024009603842
  0
ENDBLK
  5
153
330
14D
100
AcDbEntity
  8
0
100
AcDbBlockEnd
  0
BLOCK
  5
15A
330
155
100
AcDbEntity
  8
0
100
AcDbBlockBegin
  2
*D912
 70
     1
 71
     0
 10
0.0
 20
0.0
 30
0.0
  3
*D912
  1

  0
LINE
  5
156
330
155
100
AcDbEntity
  8
1
  6
Continuous
 62
     2
100
AcDbLine
 10
1687.730983041963
 20
2781.1030830353
 30
0.0
 11
1440.668141727178
 21
2605.759936712263
 31
0.0
  0
SOLID
  5
157
330
155
100
AcDbEntity
  8
1
 62
     2
100
AcDbTrace
 10
1544.14223030157
 20
2672.416173036939
 30
0.0
 11
1537.741777532622
 21
2681.434569706316
 31
0.0
 12
1575.1927657129
 22
2701.233504093148
 32
0.0
 13
1575.1927657129
 23
2701.233504093148
 33
0.0
  0
SOLID
  5
158
330
155
100
AcDbEntity
  8
1
 62
     2
100
AcDbTrace
 10
1667.405375759591
 20
2773.458215009223
 30
0.0
 11
1673.805828528539
 21
2764.439818339846
 31
0.0
 12
1636.35484034826
 22
2744.640883953014
 32
0.0
 13
1636.35484034826
 23
2744.640883953014
 33
0.0
  0
MTEXT
  5
159
330
155
100
AcDbEntity
  8
1
 62
     7
100
AcDbMText
 10
1418.652625759446
 20
2604.85029025645
 30
0.0
 40
42.0
 41
0.0
 71
     7
 72
     1
  1
\C7;{\Fgdt;n}\C7;75
  7
CONVERTER_2
 11
0.8154943284714685
 21
0.5787650647982034
 31
0.0
 73
     1
 44
0.60024009603842
  0
ENDBLK
  5
15B
330
155
100
AcDbEntity
  8
0
100
AcDbBlockEnd
  0
BLOCK
  5
162
330
15D
100
AcDbEntity
  8
0
100
AcDbBlockBegin
  2
*D1013
 70
     1
 71
     0
 10
0.0
 20
0.0
 30
0.0
  3
*D1013
  1

  0
LINE
  5
15E
330
15D
100
AcDbEntity
  8
1
  6
Continuous
 62
     2
100
AcDbLine
 10
1628.498119872095
 20
2805.880580884762
 30
0.0
 11
1555.578697534062
 21
2539.725875381596
 31
0.0
  0
SOLID
  5
15F
330
15D
100
AcDbEntity
  8
1
 62
     2
100
AcDbTrace
 10
1593.931325994843
 20
2658.78635571062
 30
0.0
 11
1583.265568561696
 21
2661.708494056258
 31
0.0
 12
1599.696369456688
 22
2700.754660327515
 32
0.0
 13
1599.696369456688
 23
2700.754660327515
 33
0.0
  0
SOLID
  5
160
330
15D
100
AcDbEntity
  8
1
 62
     2
100
AcDbTrace
 10
1617.616280066319
 20
2787.088032335541
 30
0.0
 11
1628.282037499466
 21
2784.165893989903
 31
0.0
 12
1611.851236604474
 22
2745.119727718646
 32
0.0
 13
1611.851236604474
 23
2745.119727718646
 33
0.0
  0
MTEXT
  5
161
330
15D
100
AcDbEntity
  8
1
 62
     7
100
AcDbMText
 10
1539.122115934395
 20
2525.073526694321
 30
0.0
 40
42.0
 41
0.0
 71
     7
 72
     1
  1
\C7;{\Fgdt;n}\C7;46
  7
CONVERTER_2
 11
0.2642362423431877
 21
0.9644579867637326
 31
0.0
 73
     1
 44
0.60024009603842
  0
ENDBLK
  5
163
330
15D
100
AcDbEntity
  8
0
100
AcDbBlockEnd
  0
ENDSEC
  0
SECTION
  2
ENTITIES
  0
INSERT
  5
3C
330
1F
100
AcDbEntity
  8
1
100
AcDbBlockReference
  2
_J__A4
 10
0.0
 20
0.0
 30
0.0
 41
12.0
 42
12.0
 43
12.0
  0
INSERT
  5
3D
330
1F
100
AcDbEntity
  8
0
100
AcDbBlockReference
  2
K475NJV-2T_V2261-X2-13_S
 10
19897.78608665745
 20
2522.194595945304
 30
0.0
  0
LINE
  5
A7
330
1F
100
AcDbEntity
  8
1
  6
PHANTOM
 62
     4
100
AcDbLine
 10
2130.728095303962
 20
2442.941107809
 30
0.0
 11
2130.828095303962
 21
2442.941107809
 31
0.0
  0
LINE
  5
A8
330
1F
100
AcDbEntity
  8
1
  6
PHANTOM
 62
     4
100
AcDbLine
 10
2130.778095303962
 20
2457.991107809002
 30
0.0
 11
2130.778095303962
 21
2457.891107809001
 31
0.0
  0
LINE
  5
A9
330
1F
100
AcDbEntity
  8
1
  6
PHANTOM
 62
     4
100
AcDbLine
 10
1080.769510757198
 20
2441.891107809001
 30
0.0
 11
1080.769510757198
 21
2441.991107809002
 31
0.0
  0
LINE
  5
AA
330
1F
100
AcDbEntity
  8
1
  6
PHANTOM
 62
     4
100
AcDbLine
 10
1080.719510757198
 20
2441.941107809
 30
0.0
 11
1080.819510757198
 21
2441.941107809
 31
0.0
  0
LINE
  5
AB
330
1F
100
AcDbEntity
  8
0
  6
Continuous
 62
     7
100
AcDbLine
 10
2072.465730113914
 20
2473.242185342526
 30
0.0
 11
1605.77380303058
 21
2473.242185342526
 31
0.0
  0
LINE
  5
AC
330
1F
100
AcDbEntity
  8
0
  6
PHANTOM
 62
     5
100
AcDbLine
 10
1493.932223169469
 20
1719.203898866811
 30
0.0
 11
1437.950799558359
 21
1719.203898866811
 31
0.0
  0
LINE
  5
AD
330
1F
100
AcDbEntity
  8
0
  6
PHANTOM
 62
     5
100
AcDbLine
 10
1465.941511363914
 20
1735.971867616811
 30
0.0
 11
1465.941511363914
 21
1702.430417964033
 31
0.0
  0
LINE
  5
AE
330
1F
100
AcDbEntity
  8
0
  6
PHANTOM
 62
     5
100
AcDbLine
 10
1717.698065183358
 20
1719.203898866811
 30
0.0
 11
1773.668464488914
 21
1719.203898866811
 31
0.0
  0
LINE
  5
AF
330
1F
100
AcDbEntity
  8
0
  6
PHANTOM
 62
     5
100
AcDbLine
 10
1745.677752683358
 20
1735.971867616811
 30
0.0
 11
1745.677752683358
 21
1702.430417964033
 31
0.0
  0
LINE
  5
B8
330
1F
100
AcDbEntity
  8
1
  6
DASH_CENTER
 62
     2
100
AcDbLine
 10
1605.77380303058
 20
1563.204332894589
 30
0.0
 11
1605.77380303058
 21
1599.204332894589
 31
0.0
  0
LINE
  5
B9
330
1F
100
AcDbEntity
  8
1
  6
DASH_CENTER
 62
     2
100
AcDbLine
 10
1605.77380303058
 20
2406.936369370303
 30
0.0
 11
1605.77380303058
 21
2958.94014541197
 31
0.0
  0
LINE
  5
BA
330
1F
100
AcDbEntity
  8
1
  6
DASH_CENTER
 62
     2
100
AcDbLine
 10
1640.770461016692
 20
2852.94131728697
 30
0.0
 11
1624.77380303058
 21
2852.94131728697
 31
0.0
  0
LINE
  5
BB
330
1F
100
AcDbEntity
  8
1
  6
DASH_CENTER
 62
     2
100
AcDbLine
 10
597.8110508234012
 20
1563.217397688725
 30
0.0
 11
597.8110508233928
 21
1805.159515677717
 31
0.0
  0
LINE
  5
BC
330
1F
100
AcDbEntity
  8
1
  6
DASH_CENTER
 62
     2
100
AcDbLine
 10
1624.77380303058
 20
2852.94131728697
 30
0.0
 11
1570.766120738911
 21
2852.94131728697
 31
0.0
  0
LINE
  5
BD
330
1F
100
AcDbEntity
  8
1
  6
DASH_CENTER
 62
     2
100
AcDbLine
 10
2166.773282197246
 20
2722.93719402308
 30
0.0
 11
1044.768811711136
 21
2722.93719402308
 31
0.0
  0
LINE
  5
BE
330
1F
100
AcDbEntity
  8
1
  6
PHANTOM
 62
     4
100
AcDbLine
 10
2130.513799868305
 20
1769.195138344992
 30
0.0
 11
2130.613799868305
 21
1769.195138344992
 31
0.0
  0
LINE
  5
BF
330
1F
100
AcDbEntity
  8
1
  6
PHANTOM
 62
     4
100
AcDbLine
 10
2130.563799868305
 20
1769.245138344994
 30
0.0
 11
2130.563799868305
 21
1769.145138344993
 31
0.0
  0
LINE
  5
C0
330
1F
100
AcDbEntity
  8
1
  6
PHANTOM
 62
     4
100
AcDbLine
 10
2109.513924145166
 20
1654.24908115848
 30
0.0
 11
2109.513924145166
 21
1654.14908115848
 31
0.0
  0
LINE
  5
C1
330
1F
100
AcDbEntity
  8
1
  6
PHANTOM
 62
     4
100
AcDbLine
 10
2109.463924145166
 20
1654.199081158478
 30
0.0
 11
2109.563924145166
 21
1654.199081158478
 31
0.0
  0
LINE
  5
C2
330
1F
100
AcDbEntity
  8
1
  6
DASH_CENTER
 62
     2
100
AcDbLine
 10
1605.77380303058
 20
1599.204332894589
 30
0.0
 11
1605.77380303058
 21
1805.199124561256
 31
0.0
  0
LINE
  5
C3
330
1F
100
AcDbEntity
  8
1
  6
PHANTOM
 62
     4
100
AcDbLine
 10
1080.947963905232
 20
1769.245138344994
 30
0.0
 11
1080.947963905232
 21
1769.145138344993
 31
0.0
  0
LINE
  5
C4
330
1F
100
AcDbEntity
  8
1
  6
PHANTOM
 62
     4
100
AcDbLine
 10
1080.897963905232
 20
1769.195138344992
 30
0.0
 11
1080.997963905233
 21
1769.195138344992
 31
0.0
  0
CIRCLE
  5
C5
330
1F
100
AcDbEntity
  8
1
  6
Continuous
 62
     7
100
AcDbCircle
 10
1605.77380303058
 20
2852.94131728697
 30
0.0
 40
19.0
  0
CIRCLE
  5
C6
330
1F
100
AcDbEntity
  8
1
  6
Continuous
 62
     7
100
AcDbCircle
 10
1605.77380303058
 20
2722.93719402308
 30
0.0
 40
23.0
  0
CIRCLE
  5
C7
330
1F
100
AcDbEntity
  8
1
  6
Continuous
 62
     7
100
AcDbCircle
 10
1605.77380303058
 20
2722.93719402308
 30
0.0
 40
37.5
  0
SPLINE
  5
C8
330
1F
100
AcDbEntity
  8
0
  6
Continuous
 62
     7
100
AcDbSpline
210
0.0
220
0.0
230
1.0
 70
     8
 71
     3
 72
    36
 73
    32
 74
    30
 42
0.0000000001
 43
0.0000000001
 44
0.00000001
 40
0.0
 40
0.0
 40
0.0
 40
0.0
 40
10.89832938845726
 40
21.79388268607941
 40
32.69000498310489
 40
43.58671075796443
 40
52.08369426490904
 40
60.58067777185343
 40
69.93863749407561
 40
92.25377221629779
 40
118.887965271853
 40
141.203099994075
 40
150.5610597162974
 40
161.6727431010712
 40
189.4519515630051
 40
225.5649225635199
 40
261.6778935640344
 40
289.4571020259688
 40
300.5687854107424
 40
311.6112207812936
 40
340.7230958491106
 40
381.8812640484379
 40
429.0625788135204
 40
476.2438935786028
 40
517.4020617779303
 40
546.5139368457473
 40
557.5563722162984
 40
568.4557809611257
 40
579.354194466469
 40
590.247066566141
 40
601.1452615012727
 40
601.1452615012727
 40
601.1452615012727
 40
601.1452615012727
 10
1890.685955808358
 20
2745.939407564748
 30
0.0
 10
1890.266592442085
 20
2749.597441161599
 30
0.0
 10
1889.427972532407
 20
2756.912576558033
 30
0.0
 10
1882.958061568768
 20
2766.173398496621
 30
0.0
 10
1873.741664071702
 20
2772.497738266844
 30
0.0
 10
1863.537657685602
 20
2774.148020695724
 30
0.0
 10
1854.263211438401
 20
2773.803149246534
 30
0.0
 10
1845.473663770017
 20
2773.88876661506
 30
0.0
 10
1832.085800992115
 20
2773.855528098329
 30
0.0
 10
1812.648736712862
 20
2773.875530452732
 30
0.0
 10
1788.894405171834
 20
2773.868012283603
 30
0.0
 10
1769.458537885983
 20
2773.869622356428
 30
0.0
 10
1755.196955959618
 20
2773.869458208064
 30
0.0
 10
1739.114002249173
 20
2773.86950715383
 30
0.0
 10
1714.112716708852
 20
2773.869475610055
 30
0.0
 10
1680.777665627835
 20
2773.869487991268
 30
0.0
 10
1647.442615931255
 20
2773.869487625595
 30
0.0
 10
1622.441327755178
 20
2773.869480349933
 30
0.0
 10
1605.796886176966
 20
2773.869493012632
 30
0.0
 10
1588.708218039162
 20
2773.869438491077
 30
0.0
 10
1561.604101383912
 20
2773.870101278656
 30
0.0
 10
1522.453384604499
 20
2773.866020004839
 30
0.0
 10
1477.280969852859
 20
2773.884324465066
 30
0.0
 10
1432.103038914721
 20
2773.817384896865
 30
0.0
 10
1392.965443617234
 20
2774.016075588547
 30
0.0
 10
1365.833741449368
 20
2773.590447455326
 30
0.0
 10
1348.857024481931
 20
2774.226965609922
 30
0.0
 10
1337.799382564284
 20
2772.513343763764
 30
0.0
 10
1328.577966032785
 20
2766.171555130753
 30
0.0
 10
1322.114324183885
 20
2756.912010378025
 30
0.0
 10
1321.275601752009
 20
2749.597537396949
 30
0.0
 10
1320.856138100024
 20
2745.939407564748
 30
0.0
 11
1890.685955808358
 21
2745.939407564748
 31
0.0
 11
1888.558953855233
 21
2756.628160819956
 31
0.0
 11
1882.500408933358
 21
2765.683938814747
 31
0.0
 11
1873.442563881275
 21
2771.74041667933
 31
0.0
 11
1862.755877683358
 21
2773.869485689747
 31
0.0
 11
1854.258894176413
 21
2773.869485689747
 31
0.0
 11
1845.761910669469
 21
2773.869485689747
 31
0.0
 11
1836.403950947247
 21
2773.869485689747
 31
0.0
 11
1814.088816225025
 21
2773.869485689747
 31
0.0
 11
1787.454623169469
 21
2773.869485689747
 31
0.0
 11
1765.139488447248
 21
2773.869485689747
 31
0.0
 11
1755.781528725025
 21
2773.869485689747
 31
0.0
 11
1744.669845340251
 21
2773.869485689747
 31
0.0
 11
1716.890636878317
 21
2773.869485689747
 31
0.0
 11
1680.777665877803
 21
2773.869485689747
 31
0.0
 11
1644.664694877288
 21
2773.869485689747
 31
0.0
 11
1616.885486415354
 21
2773.869485689747
 31
0.0
 11
1605.77380303058
 21
2773.869485689747
 31
0.0
 11
1594.731367660029
 21
2773.869485689747
 31
0.0
 11
1565.619492592212
 21
2773.869485689747
 31
0.0
 11
1524.461324392885
 21
2773.869485689747
 31
0.0
 11
1477.280009627802
 21
2773.869485689747
 31
0.0
 11
1430.09869486272
 21
2773.869485689747
 31
0.0
 11
1388.940526663392
 21
2773.869485689747
 31
0.0
 11
1359.828651595575
 21
2773.869485689747
 31
0.0
 11
1348.786216225024
 21
2773.869485689747
 31
0.0
 11
1338.096773950719
 21
2771.74041667933
 31
0.0
 11
1329.036172822247
 21
2765.683938814747
 31
0.0
 11
1322.982451034052
 21
2756.628160819956
 31
0.0
 11
1320.856138100024
 21
2745.939407564748
 31
0.0
  0
SPLINE
  5
C9
330
1F
100
AcDbEntity
  8
0
  6
Continuous
 62
     7
100
AcDbSpline
210
0.0
220
0.0
230
1.0
 70
    11
 71
     3
 72
    63
 73
    59
 74
    57
 42
0.0000000001
 43
0.0000000001
 44
0.00000001
 40
0.0
 40
0.0
 40
0.0
 40
0.0
 40
16.86677919238628
 40
59.03372717335378
 40
113.8507595486117
 40
168.6677919238687
 40
210.8347399048362
 40
227.7015190972229
 40
262.1396669640908
 40
296.5820071343521
 40
310.3744258205768
 40
345.9443476955767
 40
394.5807714838418
 40
447.5726959098624
 40
496.2091196981278
 40
531.7790415731276
 40
545.5714602593521
 40
559.3635736076676
 40
594.932708032271
 40
643.5680551026467
 40
696.5588063882797
 40
745.1941534586558
 40
780.7632878832583
 40
794.555401231574
 40
828.997741401835
 40
863.4358892687035
 40
880.3026684610907
 40
922.4696164420577
 40
977.2866488173152
 40
1032.103681192573
 40
1074.270629173539
 40
1091.137408365926
 40
1105.573113295349
 40
1120.012596843476
 40
1134.448830866024
 40
1148.886025385493
 40
1157.383008892438
 40
1165.879992399382
 40
1179.939427078202
 40
1210.870183371604
 40
1241.800939665007
 40
1255.860374343826
 40
1271.461177816048
 40
1308.663093788271
 40
1353.065380593826
 40
1390.267296566049
 40
1405.868100038271
 40
1420.103564030416
 40
1456.81607643121
 40
1507.014817877193
 40
1561.708969004906
 40
1611.907710450889
 40
1648.620222851683
 40
1662.855686843827
 40
1677.294908743165
 40
1691.729423705385
 40
1706.17005527277
 40
1720.605356820814
 40
1720.605356820814
 40
1720.605356820814
 40
1720.605356820814
 10
1311.783134627802
 20
2745.939407564748
 30
0.0
 10
1311.78340986384
 20
2740.317108714351
 30
0.0
 10
1311.784373189974
 20
2720.639062737961
 30
0.0
 10
1311.766723679019
 20
2682.691318099537
 30
0.0
 10
1311.862836103589
 20
2632.077319957531
 30
0.0
 10
1311.517524969952
 20
2581.526061832418
 30
0.0
 10
1312.340278002509
 20
2543.458869854138
 30
0.0
 10
1310.719320272843
 20
2512.531966682908
 30
0.0
 10
1320.970821734561
 20
2482.492487070432
 30
0.0
 10
1350.027576845098
 20
2472.389430675603
 30
0.0
 10
1377.774987848834
 20
2473.652937052383
 30
0.0
 10
1410.532986934982
 20
2473.034641666156
 30
0.0
 10
1456.224680932687
 20
2473.311379848778
 30
0.0
 10
1506.32582987404
 20
2473.2244857077
 30
0.0
 10
1552.055469216989
 20
2473.245537214038
 30
0.0
 10
1584.72225153047
 20
2473.241886740769
 30
0.0
 10
1605.773701250734
 20
2473.242268773769
 30
0.0
 10
1626.824888494487
 20
2473.241886752228
 30
0.0
 10
1659.490947565269
 20
2473.245537090491
 30
0.0
 10
1705.219574900209
 20
2473.224486358914
 30
0.0
 10
1755.319613214763
 20
2473.311377303233
 30
0.0
 10
1801.010300407295
 20
2473.034649301266
 30
0.0
 10
1833.767563743656
 20
2473.652921941668
 30
0.0
 10
1861.51463448882
 20
2472.389450550993
 30
0.0
 10
1890.571136510048
 20
2482.492501032792
 30
0.0
 10
1900.823162266798
 20
2512.531943689166
 30
0.0
 10
1899.200770190604
 20
2543.458930172799
 30
0.0
 10
1900.037309090136
 20
2581.525331349601
 30
0.0
 10
1899.617573653959
 20
2632.080855933114
 30
0.0
 10
1899.980897072912
 20
2682.679536668752
 30
0.0
 10
1899.326612382874
 20
2720.663775171318
 30
0.0
 10
1900.313674699026
 20
2745.097243600574
 30
0.0
 10
1897.971933999792
 20
2760.478950688073
 30
0.0
 10
1889.565661045446
 20
2772.760961313172
 30
0.0
 10
1877.302245679809
 20
2781.106624867692
 30
0.0
 10
1864.719704376218
 20
2783.20851414193
 30
0.0
 10
1854.262195916436
 20
2782.881783421876
 30
0.0
 10
1843.906239163238
 20
2782.962404761565
 30
0.0
 10
1826.079856487565
 20
2782.917679989405
 30
0.0
 10
1800.771307179227
 20
2782.94387289176
 30
0.0
 10
1775.46478295935
 20
2782.936213279688
 30
0.0
 10
1755.267730195955
 20
2782.937126394379
 30
0.0
 10
1732.980360886328
 20
2782.936868321305
 30
0.0
 10
1700.578683053768
 20
2782.937026938367
 30
0.0
 10
1660.976645980069
 20
2782.936953346679
 30
0.0
 10
1628.574979098202
 20
2782.93700628312
 30
0.0
 10
1606.228913672424
 20
2782.936937829734
 30
0.0
 10
1584.04600405654
 20
2782.937200880984
 30
0.0
 10
1550.330234939186
 20
2782.934167078372
 30
0.0
 10
1503.129580962519
 20
2782.951884149345
 30
0.0
 10
1451.42762769911
 20
2782.878682363854
 30
0.0
 10
1404.240929120565
 20
2783.111830732859
 30
0.0
 10
1370.491612637391
 20
2782.5909218757
 30
0.0
 10
1348.748007718784
 20
2783.395626734971
 30
0.0
 10
1334.232398397965
 20
2781.143723057147
 30
0.0
 10
1322.006966654801
 20
2772.75157469281
 30
0.0
 10
1313.452007012141
 20
2760.475766163949
 30
0.0
 10
1312.339356963654
 20
2750.78426413419
 30
0.0
 10
1311.783134627802
 20
2745.939407564748
 30
0.0
 11
1311.783134627802
 21
2745.939407564748
 31
0.0
 11
1311.783134627802
 21
2729.072628372362
 31
0.0
 11
1311.783134627802
 21
2686.905680391394
 31
0.0
 11
1311.783134627802
 21
2632.088648016136
 31
0.0
 11
1311.783134627802
 21
2577.271615640879
 31
0.0
 11
1311.783134627802
 21
2535.104667659912
 31
0.0
 11
1311.783134627802
 21
2518.237888467525
 31
0.0
 11
1324.963380938566
 21
2486.421742634193
 31
0.0
 11
1356.78434990558
 21
2473.242185342526
 31
0.0
 11
1370.576768591805
 21
2473.242185342526
 31
0.0
 11
1406.146690466805
 21
2473.242185342527
 31
0.0
 11
1454.78311425507
 21
2473.242185342526
 31
0.0
 11
1507.77503868109
 21
2473.242185342526
 31
0.0
 11
1556.411462469356
 21
2473.242185342527
 31
0.0
 11
1591.981384344356
 21
2473.242185342526
 31
0.0
 11
1605.77380303058
 21
2473.242185342526
 31
0.0
 11
1619.565916378896
 21
2473.242185342526
 31
0.0
 11
1655.135050803499
 21
2473.242185342527
 31
0.0
 11
1703.770397873875
 21
2473.242185342527
 31
0.0
 11
1756.761149159508
 21
2473.242185342526
 31
0.0
 11
1805.396496229884
 21
2473.242185342527
 31
0.0
 11
1840.965630654486
 21
2473.242185342526
 31
0.0
 11
1854.757744002802
 21
2473.242185342526
 31
0.0
 11
1886.578712969816
 21
2486.421742634193
 31
0.0
 11
1899.75895928058
 21
2518.237888467525
 31
0.0
 11
1899.75895928058
 21
2535.104667659912
 31
0.0
 11
1899.75895928058
 21
2577.271615640879
 31
0.0
 11
1899.75895928058
 21
2632.088648016137
 31
0.0
 11
1899.75895928058
 21
2686.905680391394
 31
0.0
 11
1899.75895928058
 21
2729.072628372361
 31
0.0
 11
1899.75895928058
 21
2745.939407564748
 31
0.0
 11
1896.940871172942
 21
2760.09737197447
 31
0.0
 11
1888.922066919469
 21
2772.105596800859
 31
0.0
 11
1876.915909150372
 21
2780.121644977942
 31
0.0
 11
1862.755877683358
 21
2782.936977009192
 31
0.0
 11
1854.258894176413
 21
2782.936977009192
 31
0.0
 11
1845.761910669469
 21
2782.936977009192
 31
0.0
 11
1831.70247599065
 21
2782.936977009192
 31
0.0
 11
1800.771719697247
 21
2782.936977009192
 31
0.0
 11
1769.840963403844
 21
2782.936977009192
 31
0.0
 11
1755.781528725025
 21
2782.936977009192
 31
0.0
 11
1740.180725252803
 21
2782.936977009193
 31
0.0
 11
1702.97880928058
 21
2782.936977009192
 31
0.0
 11
1658.576522475025
 21
2782.936977009193
 31
0.0
 11
1621.374606502802
 21
2782.936977009193
 31
0.0
 11
1605.77380303058
 21
2782.936977009192
 31
0.0
 11
1591.538339038436
 21
2782.936977009192
 31
0.0
 11
1554.825826637642
 21
2782.936977009192
 31
0.0
 11
1504.627085191658
 21
2782.936977009192
 31
0.0
 11
1449.932934063946
 21
2782.936977009193
 31
0.0
 11
1399.734192617962
 21
2782.936977009192
 31
0.0
 11
1363.021680217168
 21
2782.936977009192
 31
0.0
 11
1348.786216225024
 21
2782.936977009192
 31
0.0
 11
1334.624117700719
 21
2780.121644977942
 31
0.0
 11
1322.620026988914
 21
2772.105596800859
 31
0.0
 11
1314.599155678149
 21
2760.097371974469
 31
0.0
 11
1311.783134627802
 21
2745.939407564748
 31
0.0
  0
SPLINE
  5
CA
330
1F
100
AcDbEntity
  8
0
  6
Continuous
 62
     7
100
AcDbSpline
210
0.0
220
0.0
230
1.0
 70
    11
 71
     3
 72
    65
 73
    61
 74
    59
 42
0.0000000001
 43
0.0000000001
 44
0.00000001
 40
0.0
 40
0.0
 40
0.0
 40
0.0
 40
20.62492540147582
 40
74.99972873263891
 40
151.8744506835938
 40
239.9991319444446
 40
328.1238132052954
 40
404.9985351562505
 40
459.3733384874136
 40
479.9982638888891
 40
497.5547487551388
 40
515.1127852814379
 40
532.6689146072158
 40
550.2299918640721
 40
568.9217449972103
 40
618.2000032573011
 40
687.8692649353608
 40
767.7340283224049
 40
847.5987917094491
 40
917.2680533875092
 40
966.5463116476004
 40
985.2380647807382
 40
1003.24216214585
 40
1051.493143084351
 40
1121.349040860985
 40
1204.1678887405
 40
1291.307719987642
 40
1374.126567867158
 40
1443.982465643792
 40
1492.233446582292
 40
1510.237543947404
 40
1528.241830343818
 40
1576.493317886209
 40
1646.349949104297
 40
1729.169666527803
 40
1816.310412686449
 40
1899.130130109955
 40
1968.986761328043
 40
2017.238248870434
 40
2035.242535266848
 40
2053.934288399986
 40
2103.212546660077
 40
2172.881808338137
 40
2252.746571725181
 40
2332.611335112225
 40
2402.280596790286
 40
2451.558855050376
 40
2470.250608183514
 40
2487.811282155064
 40
2505.368559808997
 40
2522.924877276289
 40
2540.483389502348
 40
2561.108551754138
 40
2615.483979508858
 40
2692.359584265531
 40
2780.485277523181
 40
2868.610970780831
 40
2945.486575537504
 40
2999.862003292224
 40
3020.487165544015
 40
3020.487165544015
 40
3020.487165544015
 40
3020.487165544015
 10
1605.77380303058
 20
2442.936369370303
 30
0.0
 10
1612.648779230453
 20
2442.936387265992
 30
0.0
 10
1637.648692684537
 20
2442.936452341225
 30
0.0
 10
1688.273431792811
 20
2442.935146547501
 30
0.0
 10
1761.39865210618
 20
2442.943284842981
 30
0.0
 10
1845.771170635537
 20
2442.906751498375
 30
0.0
 10
1930.153824732163
 20
2443.040363375479
 30
0.0
 10
2003.254935334456
 20
2442.643773249959
 30
0.0
 10
2053.930360694692
 20
2443.493334837406
 30
0.0
 10
2084.70897131876
 20
2442.26015611286
 30
0.0
 10
2103.458262461987
 20
2445.105132960579
 30
0.0
 10
2118.376719626913
 20
2455.328423691944
 30
0.0
 10
2128.595422202728
 20
2470.242175805573
 30
0.0
 10
2131.38060942627
 20
2488.345435029905
 30
0.0
 10
2130.289778389127
 20
2516.789727356918
 30
0.0
 10
2131.035743222075
 20
2562.723092292375
 30
0.0
 10
2130.633519329126
 20
2628.914834198487
 30
0.0
 10
2131.011375397382
 20
2705.650064315602
 30
0.0
 10
2130.021462018048
 20
2781.156189161856
 30
0.0
 10
2132.872783321707
 20
2850.271632542057
 30
0.0
 10
2126.778765249285
 20
2890.058450589516
 30
0.0
 10
2135.843645535993
 20
2927.781278829772
 30
0.0
 10
2098.915349372674
 20
2919.16861330341
 30
0.0
 10
2059.353940268591
 20
2924.97751598796
 30
0.0
 10
1989.585349628052
 20
2922.184173919532
 30
0.0
 10
1910.633082971634
 20
2923.170098035601
 30
0.0
 10
1826.084066624141
 20
2922.880254945021
 30
0.0
 10
1746.218951217745
 20
2922.953342180462
 30
0.0
 10
1679.228283190398
 20
2922.93788660518
 30
0.0
 10
1633.860341918474
 20
2922.940332621543
 30
0.0
 10
1605.773740019952
 20
2922.940094539372
 30
0.0
 10
1577.686969251311
 20
2922.940332624716
 30
0.0
 10
1532.318551658602
 20
2922.937886569275
 30
0.0
 10
1465.32718019029
 20
2922.953342389617
 30
0.0
 10
1385.461226642583
 20
2922.880253995996
 30
0.0
 10
1300.91132103719
 20
2923.170101679388
 30
0.0
 10
1221.958230699918
 20
2922.184161940557
 30
0.0
 10
1152.188892613282
 20
2924.977548271733
 30
0.0
 10
1112.627099169817
 20
2919.168553540457
 30
0.0
 10
1075.698454591717
 20
2927.781335643614
 30
0.0
 10
1084.76330795193
 20
2890.058471141311
 30
0.0
 10
1078.669322962011
 20
2850.271622187681
 30
0.0
 10
1081.520619264473
 20
2781.15619041119
 30
0.0
 10
1080.530757206393
 20
2705.650074329947
 30
0.0
 10
1080.908442303223
 20
2628.914795448625
 30
0.0
 10
1080.506722181876
 20
2562.723201992323
 30
0.0
 10
1081.251608449358
 20
2516.789518456831
 30
0.0
 10
1080.162378867509
 20
2488.345831873754
 30
0.0
 10
1082.943487474224
 20
2470.241119294451
 30
0.0
 10
1093.165658594821
 20
2455.329860816478
 30
0.0
 10
1108.082450693608
 20
2445.104063631142
 30
0.0
 10
1126.832712315897
 20
2442.260509582986
 30
0.0
 10
1157.611946790992
 20
2443.493023676152
 30
0.0
 10
1208.288186070639
 20
2442.643936715347
 30
0.0
 10
1281.390027852116
 20
2443.040305276896
 30
0.0
 10
1365.77368745685
 20
2442.906768045065
 30
0.0
 10
1450.147164918651
 20
2442.943280979496
 30
0.0
 10
1523.273227201827
 20
2442.935147230658
 30
0.0
 10
1573.898547312515
 20
2442.936452294873
 30
0.0
 10
1598.898747875703
 20
2442.936387255994
 30
0.0
 10
1605.77380303058
 20
2442.936369370303
 30
0.0
 11
1605.77380303058
 21
2442.936369370303
 31
0.0
 11
1626.398728432056
 21
2442.936369370303
 31
0.0
 11
1680.773531763219
 21
2442.936369370303
 31
0.0
 11
1757.648253714174
 21
2442.936369370303
 31
0.0
 11
1845.772934975025
 21
2442.936369370303
 31
0.0
 11
1933.897616235875
 21
2442.936369370303
 31
0.0
 11
2010.77233818683
 21
2442.936369370303
 31
0.0
 11
2065.147141517994
 21
2442.936369370303
 31
0.0
 11
2085.772066919469
 21
2442.936369370303
 31
0.0
 11
2102.991343178149
 21
2446.360794283497
 31
0.0
 11
2117.59372490558
 21
2456.110414509191
 31
0.0
 11
2127.346101207663
 21
2470.708662122038
 31
0.0
 11
2130.773282197246
 21
2487.932072495304
 31
0.0
 11
2130.773282197246
 21
2506.623825628442
 31
0.0
 11
2130.773282197246
 21
2555.902083888533
 31
0.0
 11
2130.773282197246
 21
2625.571345566593
 31
0.0
 11
2130.773282197246
 21
2705.436108953637
 31
0.0
 11
2130.773282197246
 21
2785.300872340681
 31
0.0
 11
2130.773282197246
 21
2854.970134018741
 31
0.0
 11
2130.773282197246
 21
2904.248392278832
 31
0.0
 11
2130.773282197246
 21
2922.94014541197
 31
0.0
 11
2112.769184832134
 21
2922.94014541197
 31
0.0
 11
2064.518203893633
 21
2922.94014541197
 31
0.0
 11
1994.662306116999
 21
2922.94014541197
 31
0.0
 11
1911.843458237484
 21
2922.94014541197
 31
0.0
 11
1824.703626990342
 21
2922.94014541197
 31
0.0
 11
1741.884779110827
 21
2922.94014541197
 31
0.0
 11
1672.028881334192
 21
2922.94014541197
 31
0.0
 11
1623.777900395692
 21
2922.94014541197
 31
0.0
 11
1605.77380303058
 21
2922.94014541197
 31
0.0
 11
1587.769516634166
 21
2922.94014541197
 31
0.0
 11
1539.518029091775
 21
2922.94014541197
 31
0.0
 11
1469.661397873687
 21
2922.94014541197
 31
0.0
 11
1386.841680450181
 21
2922.94014541197
 31
0.0
 11
1299.700934291535
 21
2922.94014541197
 31
0.0
 11
1216.881216868029
 21
2922.94014541197
 31
0.0
 11
1147.024585649941
 21
2922.94014541197
 31
0.0
 11
1098.77309810755
 21
2922.94014541197
 31
0.0
 11
1080.768811711136
 21
2922.94014541197
 31
0.0
 11
1080.768811711136
 21
2904.248392278832
 31
0.0
 11
1080.768811711136
 21
2854.970134018741
 31
0.0
 11
1080.768811711136
 21
2785.300872340681
 31
0.0
 11
1080.768811711136
 21
2705.436108953637
 31
0.0
 11
1080.768811711136
 21
2625.571345566593
 31
0.0
 11
1080.768811711136
 21
2555.902083888533
 31
0.0
 11
1080.768811711136
 21
2506.623825628442
 31
0.0
 11
1080.768811711136
 21
2487.932072495304
 31
0.0
 11
1084.193925643427
 21
2470.708662122039
 31
0.0
 11
1093.948369002802
 21
2456.110414509191
 31
0.0
 11
1108.548683672941
 21
2446.360794283497
 31
0.0
 11
1125.770026988913
 21
2442.936369370303
 31
0.0
 11
1146.395189240704
 21
2442.936369370303
 31
0.0
 11
1200.770616995424
 21
2442.936369370303
 31
0.0
 11
1277.646221752097
 21
2442.936369370303
 31
0.0
 11
1365.771915009746
 21
2442.936369370303
 31
0.0
 11
1453.897608267396
 21
2442.936369370303
 31
0.0
 11
1530.77321302407
 21
2442.936369370303
 31
0.0
 11
1585.14864077879
 21
2442.936369370303
 31
0.0
 11
1605.77380303058
 21
2442.936369370303
 31
0.0
  0
SPLINE
  5
CB
330
1F
100
AcDbEntity
  8
0
  6
Continuous
 62
     7
100
AcDbSpline
210
0.0
220
0.0
230
1.0
 70
     8
 71
     3
 72
    58
 73
    54
 74
    52
 42
0.0000000001
 43
0.0000000001
 44
0.00000001
 40
0.0
 40
0.0
 40
0.0
 40
0.0
 40
10.95908576388865
 40
40.70517569444428
 40
84.54151875000025
 40
137.7713638888886
 40
195.697960069444
 40
253.6245562499998
 40
306.8544013888886
 40
350.6907444444441
 40
380.4368343750002
 40
391.3959201388889
 40
402.3949715296426
 40
433.4792471991646
 40
481.7794293933446
 40
544.426200358073
 40
618.5502423392402
 40
701.2822375827366
 40
789.7528683344522
 40
881.0928168402777
 40
972.4327653461032
 40
1060.903396097819
 40
1143.635391341315
 40
1217.759433322483
 40
1280.406204287211
 40
1328.706386481391
 40
1359.790662150913
 40
1370.789713541667
 40
1381.748799305555
 40
1411.494889236111
 40
1455.331232291667
 40
1508.561077430555
 40
1566.487673611111
 40
1624.414269791667
 40
1677.644114930556
 40
1721.480457986111
 40
1751.226547916667
 40
1762.185633680556
 40
1771.157853689367
 40
1780.128831637646
 40
1789.103632161151
 40
1798.07909282508
 40
1808.948958710171
 40
1838.753429685419
 40
1883.28481573079
 40
1938.335426826249
 40
1999.697572951761
 40
2063.163564087289
 40
2124.525710212801
 40
2179.57632130826
 40
2224.107707353631
 40
2253.912178328879
 40
2264.78204421397
 40
2264.78204421397
 40
2264.78204421397
 40
2264.78204421397
 10
2095.46794365558
 20
2496.238886731414
 30
0.0
 10
2095.467938525775
 20
2499.891910189572
 30
0.0
 10
2095.467919472216
 20
2513.460283034161
 30
0.0
 10
2095.468320853247
 20
2541.641190665192
 30
0.0
 10
2095.465650583363
 20
2583.909279770307
 30
0.0
 10
2095.478790994859
 20
2635.586681640148
 30
0.0
 10
2095.423814532652
 20
2691.892717677887
 30
0.0
 10
2095.626456734024
 20
2748.456372379459
 30
0.0
 10
2094.969440486889
 20
2799.463617590006
 30
0.0
 10
2096.770510430664
 20
2843.535446910568
 30
0.0
 10
2093.106662247805
 20
2868.052104974075
 30
0.0
 10
2098.418988856172
 20
2890.599173949444
 30
0.0
 10
2075.290186820295
 20
2885.151176165342
 30
0.0
 10
2049.105188259589
 20
2889.094014339888
 30
0.0
 10
1999.693379541294
 20
2887.025946300855
 30
0.0
 10
1938.828566435695
 20
2887.851477254608
 30
0.0
 10
1865.374333281081
 20
2887.564787930791
 30
0.0
 10
1783.689753280068
 20
2887.656021732755
 30
0.0
 10
1696.148954754133
 20
2887.628355808738
 30
0.0
 10
1605.771046953889
 20
2887.638083872336
 30
0.0
 10
1515.393139155437
 20
2887.628355808677
 30
0.0
 10
1427.852340624406
 20
2887.656021732988
 30
0.0
 10
1346.167760640198
 20
2887.564787930014
 30
0.0
 10
1272.713527432778
 20
2887.851477257017
 30
0.0
 10
1211.848714479238
 20
2887.025946294086
 30
0.0
 10
1162.43690538001
 20
2889.094014356107
 30
0.0
 10
1136.251907545565
 20
2885.151176137736
 30
0.0
 10
1113.123104506182
 20
2890.599173982394
 30
0.0
 10
1118.435435267655
 20
2868.052104756403
 30
0.0
 10
1114.771533760688
 20
2843.535449910777
 30
0.0
 10
1116.572954296101
 20
2799.463599433519
 30
0.0
 10
1115.914214297292
 20
2748.456458243969
 30
0.0
 10
1116.124067810575
 20
2691.892368370743
 30
0.0
 10
1116.04251071632
 20
2635.587936359813
 30
0.0
 10
1116.141832095225
 20
2583.905333839284
 30
0.0
 10
1115.902915085978
 20
2541.651501208713
 30
0.0
 10
1116.383904235434
 20
2513.44159217303
 30
0.0
 10
1115.714377590363
 20
2496.922885175209
 30
0.0
 10
1117.17891526138
 20
2487.20042476496
 30
0.0
 10
1122.406244970612
 20
2479.577798844376
 30
0.0
 10
1130.029369827354
 20
2474.350433015804
 30
0.0
 10
1139.723677976234
 20
2472.884856754866
 30
0.0
 10
1156.233719639322
 20
2473.552250129628
 30
0.0
 10
1184.664551803993
 20
2473.068328585433
 30
0.0
 10
1227.778912213695
 20
2473.310289875173
 30
0.0
 10
1281.432367019011
 20
2473.219827282577
 30
0.0
 10
1341.390224284222
 20
2473.248696082138
 30
0.0
 10
1403.454143536847
 20
2473.240473764016
 30
0.0
 10
1463.413599869891
 20
2473.24258937553
 30
0.0
 10
1517.06167672788
 20
2473.242102475755
 30
0.0
 10
1560.190493684446
 20
2473.242198655885
 30
0.0
 10
1588.592402165472
 20
2473.242184505412
 30
0.0
 10
1602.150514412768
 20
2473.242185165992
 30
0.0
 10
1605.77380303058
 20
2473.242185342526
 30
0.0
 11
2095.46794365558
 21
2496.238886731414
 31
0.0
 11
2095.46794365558
 21
2507.197972495303
 31
0.0
 11
2095.46794365558
 21
2536.944062425858
 31
0.0
 11
2095.467943655579
 21
2580.780405481414
 31
0.0
 11
2095.46794365558
 21
2634.010250620303
 31
0.0
 11
2095.46794365558
 21
2691.936846800858
 31
0.0
 11
2095.46794365558
 21
2749.863442981414
 31
0.0
 11
2095.46794365558
 21
2803.093288120303
 31
0.0
 11
2095.46794365558
 21
2846.929631175858
 31
0.0
 11
2095.46794365558
 21
2876.675721106414
 31
0.0
 11
2095.46794365558
 21
2887.634806870303
 31
0.0
 11
2084.468892264826
 21
2887.634806870302
 31
0.0
 11
2053.384616595304
 21
2887.634806870303
 31
0.0
 11
2005.084434401124
 21
2887.634806870303
 31
0.0
 11
1942.437663436396
 21
2887.634806870303
 31
0.0
 11
1868.313621455229
 21
2887.634806870303
 31
0.0
 11
1785.581626211732
 21
2887.634806870302
 31
0.0
 11
1697.110995460017
 21
2887.634806870302
 31
0.0
 11
1605.771046954191
 21
2887.634806870303
 31
0.0
 11
1514.431098448365
 21
2887.634806870303
 31
0.0
 11
1425.96046769665
 21
2887.634806870302
 31
0.0
 11
1343.228472453153
 21
2887.634806870303
 31
0.0
 11
1269.104430471986
 21
2887.634806870303
 31
0.0
 11
1206.457659507258
 21
2887.634806870303
 31
0.0
 11
1158.157477313077
 21
2887.634806870303
 31
0.0
 11
1127.073201643556
 21
2887.634806870303
 31
0.0
 11
1116.074150252802
 21
2887.634806870303
 31
0.0
 11
1116.074150252802
 21
2876.675721106414
 31
0.0
 11
1116.074150252802
 21
2846.929631175859
 31
0.0
 11
1116.074150252802
 21
2803.093288120303
 31
0.0
 11
1116.074150252802
 21
2749.863442981414
 31
0.0
 11
1116.074150252802
 21
2691.936846800858
 31
0.0
 11
1116.074150252802
 21
2634.010250620303
 31
0.0
 11
1116.074150252802
 21
2580.780405481414
 31
0.0
 11
1116.074150252802
 21
2536.944062425859
 31
0.0
 11
1116.074150252802
 21
2507.197972495303
 31
0.0
 11
1116.074150252802
 21
2496.238886731414
 31
0.0
 11
1117.822880721552
 21
2487.438734821692
 31
0.0
 11
1122.804488794469
 21
2479.97803603697
 31
0.0
 11
1130.26794365558
 21
2474.993671887665
 31
0.0
 11
1139.070851641691
 21
2473.242185342526
 31
0.0
 11
1149.940717526782
 21
2473.242185342526
 31
0.0
 11
1179.74518850203
 21
2473.242185342526
 31
0.0
 11
1224.276574547401
 21
2473.242185342526
 31
0.0
 11
1279.32718564286
 21
2473.242185342526
 31
0.0
 11
1340.689331768371
 21
2473.242185342526
 31
0.0
 11
1404.1553229039
 21
2473.242185342526
 31
0.0
 11
1465.517469029412
 21
2473.242185342526
 31
0.0
 11
1520.56808012487
 21
2473.242185342526
 31
0.0
 11
1565.099466170241
 21
2473.242185342526
 31
0.0
 11
1594.90393714549
 21
2473.242185342526
 31
0.0
 11
1605.77380303058
 21
2473.242185342526
 31
0.0
  0
SPLINE
  5
CC
330
1F
100
AcDbEntity
  8
0
  6
Continuous
 62
     7
100
AcDbSpline
210
0.0
220
0.0
230
1.0
 70
     8
 71
     3
 72
     9
 73
     5
 74
     3
 42
0.0000000001
 43
0.0000000001
 44
0.00000001
 40
0.0
 40
0.0
 40
0.0
 40
0.0
 40
17.60293899074362
 40
35.20736988625662
 40
35.20736988625662
 40
35.20736988625662
 40
35.20736988625662
 10
2095.46794365558
 20
2496.238886731414
 30
0.0
 10
2094.01637641169
 20
2490.023805734462
 30
0.0
 10
2091.113118898993
 20
2477.593116992781
 30
0.0
 10
2078.681701968486
 20
2474.692536863099
 30
0.0
 10
2072.465730113914
 20
2473.242185342526
 30
0.0
 11
2095.46794365558
 21
2496.238886731414
 31
0.0
 11
2088.731403942038
 21
2479.975968979678
 31
0.0
 11
2072.465730113914
 21
2473.242185342526
 31
0.0
  0
SPLINE
  5
CD
330
1F
100
AcDbEntity
  8
0
  6
Continuous
 62
     7
100
AcDbSpline
210
0.0
220
0.0
230
1.0
 70
     8
 71
     3
 72
  1010
 73
  1006
 74
  1004
 42
0.0000000001
 43
0.0000000001
 44
0.00000001
 40
0.0
 40
0.0
 40
0.0
 40
0.0
 40
0.0219137855769438
 40
0.0874217065092728
 40
0.1961736090993744
 40
0.3478193396496935
 40
0.5420087444625612
 40
0.7783916698402515
 40
1.056617962085209
 40
1.376337467499879
 40
1.737200032386478
 40
2.138855503047394
 40
2.580953725785129
 40
3.063144546901957
 40
3.585077812700038
 40
4.146403369482215
 40
4.746771063550478
 40
5.385830741207214
 40
6.063232248754869
 40
6.778625432495887
 40
7.531660138732542
 40
8.32198621376728
 40
9.14925350390226
 40
10.01311185544004
 40
10.9132111146829
 40
11.84920112793333
 40
12.82073174149361
 40
13.82745280166602
 40
14.86901415475311
 40
15.94506564705704
 40
17.05525712488027
 40
18.19923843452528
 40
19.37665942229424
 40
20.58716993448966
 40
21.83041981741391
 40
23.10605891736923
 40
24.41373708065804
 40
25.75310415358274
 40
27.12380998244572
 40
28.52550441354925
 40
29.95783729319578
 40
31.42045846768763
 40
32.91301778332726
 40
34.43516508641699
 40
35.98655022325904
 40
37.56682304015586
 40
39.17563338340995
 40
40.81263109932357
 40
42.47746603419906
 40
44.1697880343387
 40
45.88924694604522
 40
47.63549261562049
 40
49.40817488936723
 40
51.20694361358773
 40
53.03144863458426
 40
54.88133979865938
 40
56.75626695211518
 40
58.65587994125429
 40
60.57982861237893
 40
62.52776281179141
 40
64.49933238579419
 40
66.49418718068978
 40
68.51197704278026
 40
70.55235181836821
 40
72.61496135375577
 40
74.69945549524559
 40
76.80548408913991
 40
78.93269698174102
 40
81.08074401935136
 40
83.24927504827332
 40
85.43793991480916
 40
87.64638846526147
 40
89.87427054593238
 40
92.12123600312422
 40
94.38693468313959
 40
96.67101643228078
 40
98.97313109685007
 40
101.2929285231499
 40
103.6300585574826
 40
105.9841710461505
 40
108.3549158354561
 40
110.7419427717016
 40
113.1449017011895
 40
115.5634424702221
 40
117.9972149251018
 40
120.4458689121308
 40
122.9090542776117
 40
125.3864208678468
 40
127.8776185291385
 40
130.3822971077892
 40
132.900106450101
 40
135.4306964023764
 40
137.9737168109179
 40
140.5288175220277
 40
143.0956483820083
 40
145.673859237162
 40
148.2630999337912
 40
150.863020318198
 40
153.4732702366854
 40
156.0934995355551
 40
158.7233580611098
 40
161.3624956596517
 40
164.0105621774834
 40
166.6672074609071
 40
169.3320813562251
 40
172.0048337097399
 40
174.6851143677539
 40
177.3725731765695
 40
180.0668599824888
 40
182.7676246318144
 40
185.4745169708485
 40
188.1871868458934
 40
190.905284103252
 40
193.6284585892262
 40
196.3563601501183
 40
199.088638632231
 40
201.8249438818665
 40
204.564925745327
 40
207.3082340689151
 40
210.054518698933
 40
212.8034294816833
 40
215.5546162634682
 40
218.3077288905899
 40
221.0624172093511
 40
223.818331066054
 40
226.575120307001
 40
229.3324347784945
 40
232.0899243268367
 40
234.8472387983302
 40
237.6040280392773
 40
240.3599418959801
 40
243.1146302147412
 40
245.8677428418631
 40
248.618929623648
 40
251.3678404063981
 40
254.1141250364161
 40
256.8574333600042
 40
259.5974152234649
 40
262.3337204731002
 40
265.0659989552128
 40
267.793900516105
 40
270.5170750020792
 40
273.2351722594377
 40
275.9478421344827
 40
278.654734473517
 40
281.3554991228425
 40
284.0497859287619
 40
286.7372447375774
 40
289.4175253955914
 40
292.0902777491062
 40
294.7551516444244
 40
297.411796927848
 40
300.0598634456797
 40
302.6990010442218
 40
305.3288595697763
 40
307.9490888686462
 40
310.5593387871333
 40
313.1592591715403
 40
315.7484998681694
 40
318.3267107233232
 40
320.8935415833037
 40
323.4486422944136
 40
325.991662702955
 40
328.5222526552305
 40
331.0400619975423
 40
333.5447405761929
 40
336.0359382374845
 40
338.5133048277196
 40
340.9764901932005
 40
343.4251441802296
 40
345.8589166351092
 40
348.2774574041418
 40
350.6804163336297
 40
353.0674432698752
 40
355.4381880591809
 40
357.7923005478488
 40
360.1294305821815
 40
362.4492280084813
 40
364.7513426730507
 40
367.0354244221917
 40
369.3011231022071
 40
371.5480885593992
 40
373.7759706400701
 40
375.9844191905222
 40
378.1730840570581
 40
380.3416150859802
 40
382.4896621235905
 40
384.6168750161916
 40
386.7229036100858
 40
388.8073977515756
 40
390.8700072869633
 40
392.9103820625513
 40
394.9281719246417
 40
396.9230267195371
 40
398.8945962935401
 40
400.8425304929526
 40
402.7664791640772
 40
404.6660921532162
 40
406.5410193066721
 40
408.3909104707471
 40
410.2154154917437
 40
412.0141842159643
 40
413.786866489711
 40
415.5331121592865
 40
417.2525710709926
 40
418.9448930711325
 40
420.6097280060079
 40
422.2467257219215
 40
423.8555360651756
 40
425.4358088820725
 40
426.9871940189146
 40
428.5093413220043
 40
430.0019006376438
 40
431.4645218121358
 40
432.8968546917823
 40
434.2985491228859
 40
435.6692549517488
 40
437.0086220246735
 40
438.3163001879623
 40
439.5919392879175
 40
440.8351891708418
 40
442.0456996830372
 40
443.2231206708063
 40
444.3671019804512
 40
445.4772934582745
 40
446.5533449505785
 40
447.5949063036655
 40
448.6016273638379
 40
449.5731579773981
 40
450.5091479906484
 40
451.4092472498915
 40
452.2731056014292
 40
453.1003728915642
 40
453.8906989665988
 40
454.6437336728355
 40
455.3591268565765
 40
456.0365283641241
 40
456.6755880417809
 40
457.2759557358492
 40
457.8372812926313
 40
458.3592145584295
 40
458.8414053795463
 40
459.2835036022839
 40
459.6851590729448
 40
460.0460216378314
 40
460.3657411432461
 40
460.643967435491
 40
460.8803503608688
 40
461.0745397656815
 40
461.226185496232
 40
461.3349373988222
 40
461.4004453197544
 40
461.4223591053313
 40
461.8774743503579
 40
462.3287897627565
 40
462.7774352793414
 40
463.2243577102345
 40
463.6703655333568
 40
464.1161773473654
 40
464.5624724075519
 40
465.0099419091682
 40
465.4593398061545
 40
465.9115319318238
 40
466.367542033654
 40
470.259658488001
 40
474.1503491986106
 40
478.0397332130682
 40
481.927928700844
 40
485.8150530305106
 40
489.7012228473192
 40
493.5865541511041
 40
497.4711623744672
 40
501.3551624612277
 40
505.2386689450827
 40
509.1217960284523
 40
513.0046576614711
 40
516.8873676210963
 40
520.7700395902891
 40
524.6527872372407
 40
528.5357242946095
 40
532.4189646387266
 40
536.3026223687426
 40
540.1868118856803
 40
544.0716479713495
 40
547.9572458671041
 40
551.8437213523898
 40
555.7311908230596
 40
559.6197713694155
 40
563.5095808539422
 40
567.4007379886969
 40
571.2933624123161
 40
571.8646696689793
 40
572.4279642045816
 40
572.9845371851621
 40
573.5355361984528
 40
574.0819717669119
 40
574.6247269284281
 40
575.1645694691221
 40
575.7021663575399
 40
576.2380999341508
 40
576.7728854420667
 40
577.3069895311675
 40
577.8408494164864
 40
578.3748924131952
 40
578.9095555980489
 40
579.4453053566894
 40
579.9826565664276
 40
580.5221911362795
 40
581.0645755840949
 40
581.6105772813456
 40
582.1610789490842
 40
582.7170909557074
 40
583.2797609616862
 40
583.8503804908889
 40
583.8558926436665
 40
583.8614047964441
 40
583.8829521371027
 40
583.946536620887
 40
584.0505719405086
 40
584.1934717886804
 40
584.3736498581145
 40
584.5895198415229
 40
584.8394954316182
 40
585.1219903211123
 40
585.4354182027175
 40
585.7781927691464
 40
586.1487277131108
 40
586.5454367273231
 40
586.9667335044957
 40
587.4110317373406
 40
587.8767451185704
 40
588.362287340897
 40
588.8660720970329
 40
589.38651307969
 40
589.9220239815807
 40
590.4710184954174
 40
591.0319103139124
 40
591.6031131297775
 40
592.1830406357254
 40
592.7701065244684
 40
593.3627244887182
 40
593.9593082211876
 40
594.5582714145886
 40
595.1580277616334
 40
595.7569909550344
 40
596.3535746875037
 40
596.9461926517536
 40
597.5332585404965
 40
598.1131860464444
 40
598.6843888623098
 40
599.2452806808045
 40
599.7942751946414
 40
600.3297860965323
 40
600.8502270791894
 40
601.354011835325
 40
601.8395540576518
 40
602.3052674388813
 40
602.7495656717264
 40
603.1708624488989
 40
603.5675714631112
 40
603.9381064070757
 40
604.2808809735044
 40
604.5943088551098
 40
604.876803744604
 40
605.126779334699
 40
605.3426493181077
 40
605.5228273875415
 40
605.6657272357134
 40
605.7697625553353
 40
605.8333470391194
 40
605.854894379778
 40
605.8767852223333
 40
605.9422217301333
 40
606.0508498733796
 40
606.2023156222731
 40
606.3962649470151
 40
606.6323438178068
 40
606.9101982048499
 40
607.2294740783451
 40
607.5898174084941
 40
607.9908741654979
 40
608.4322903195579
 40
608.9137118408753
 40
609.4347846996514
 40
609.9951548660872
 40
610.5944683103844
 40
611.2323710027441
 40
611.9085089133673
 40
612.6225280124555
 40
613.37407427021
 40
614.162793656832
 40
614.988332142523
 40
615.8503356974837
 40
616.7484502919159
 40
617.6823218960204
 40
618.6515964799988
 40
619.6559200140524
 40
620.6949384683821
 40
621.7682978131899
 40
622.8756440186759
 40
624.0166230550424
 40
625.1908808924901
 40
626.3980635012207
 40
627.637816851435
 40
628.9097869133345
 40
630.2136196571204
 40
631.5489610529943
 40
632.9154570711568
 40
634.3127536818097
 40
635.7404968551538
 40
637.1983325613909
 40
638.6859067707219
 40
640.2028654533478
 40
641.7488545794712
 40
643.3235201192917
 40
644.9265080430112
 40
646.5574643208312
 40
648.2160349229525
 40
649.9018658195768
 40
651.6146029809052
 40
653.3538923771389
 40
655.1193799784796
 40
656.910711755128
 40
658.7275336772852
 40
660.5694917151531
 40
662.4362318389326
 40
664.327400018825
 40
666.2426422250314
 40
668.1816044277535
 40
670.1439325971926
 40
672.1292727035493
 40
674.1372707170253
 40
676.1675726078219
 40
678.2198243461401
 40
680.2936719021814
 40
682.3887612461469
 40
684.504738348238
 40
686.6412491786563
 40
688.7979397076024
 40
690.9744559052778
 40
693.1704437418835
 40
695.3855491876212
 40
697.6194182126922
 40
699.8716967872973
 40
702.1420308816388
 40
704.4300664659166
 40
706.7354495103324
 40
709.0578259850879
 40
711.3968418603841
 40
713.7521431064222
 40
716.1233756934032
 40
718.5101855915289
 40
720.912218771001
 40
723.3291212020193
 40
725.7605388547861
 40
728.2061176995023
 40
730.6655037063694
 40
733.1383428455885
 40
735.6242810873608
 40
738.1229644018883
 40
740.6340387593712
 40
743.1571501300109
 40
745.6919444840094
 40
748.238067791567
 40
750.7951660228857
 40
753.3628851481668
 40
755.9408711376111
 40
758.52876996142
 40
761.1262275897955
 40
763.7328899929374
 40
766.3484031410482
 40
768.9724130043283
 40
771.6045655529794
 40
774.2445067572029
 40
776.8918825871999
 40
779.5463390131723
 40
782.2075220053198
 40
784.875077533845
 40
787.5486515689486
 40
790.2278900808319
 40
792.9124390396963
 40
795.6019444157432
 40
798.2960521791736
 40
800.9944083001892
 40
803.6966587489907
 40
806.4024494957793
 40
809.1114265107568
 40
811.8232357641241
 40
814.5375232260826
 40
817.2539348668335
 40
819.9721166565786
 40
822.6917145655182
 40
825.412374563854
 40
828.1337426217872
 40
830.8554647095191
 40
833.5771867972511
 40
836.2985548551843
 40
839.01921485352
 40
841.7388127624596
 40
844.4569945522047
 40
847.1734061929557
 40
849.8876936549141
 40
852.5995029082815
 40
855.3084799232587
 40
858.0142706700475
 40
860.716521118849
 40
863.4148772398647
 40
866.1089850032951
 40
868.7984903793418
 40
871.4830393382064
 40
874.1622778500897
 40
876.8358518851933
 40
879.5034074137183
 40
882.1645904058661
 40
884.8190468318377
 40
887.4664226618353
 40
890.1063638660588
 40
892.73851641471
 40
895.3625262779902
 40
897.9780394261006
 40
900.5847018292427
 40
903.1821594576181
 40
905.7700582814272
 40
908.3480442708715
 40
910.9157633961523
 40
913.4728616274713
 40
916.018984935029
 40
918.5537792890273
 40
921.0768906596671
 40
923.5879650171499
 40
926.0866483316773
 40
928.5725865734498
 40
931.0454257126689
 40
933.5048117195358
 40
935.9503905642521
 40
938.3818082170188
 40
940.7987106480373
 40
943.2007438275093
 40
945.587553725635
 40
947.9587863126162
 40
950.3140875586543
 40
952.6531034339504
 40
954.9754799087057
 40
957.2808629531216
 40
959.5688985373995
 40
961.8392326317404
 40
964.0915112063461
 40
966.3253802314169
 40
968.5404856771546
 40
970.7364735137606
 40
972.9129897114359
 40
975.0696802403819
 40
977.2061910708002
 40
979.3221681728913
 40
981.4172575168568
 40
983.4911050728981
 40
985.5433568112163
 40
987.5736587020127
 40
989.5816567154888
 40
991.5669968218456
 40
993.5293249912843
 40
995.4682871940069
 40
997.3835294002134
 40
999.2746975801058
 40
1001.141437703885
 40
1002.983395741753
 40
1004.80021766391
 40
1006.591549440559
 40
1008.357037041899
 40
1010.096326438133
 40
1011.809063599462
 40
1013.494894496086
 40
1015.153465098207
 40
1016.784421376027
 40
1018.387409299747
 40
1019.962074839567
 40
1021.50806396569
 40
1023.025022648317
 40
1024.512596857648
 40
1025.970432563885
 40
1027.398175737229
 40
1028.795472347882
 40
1030.161968366044
 40
1031.497309761918
 40
1032.801142505704
 40
1034.073112567603
 40
1035.312865917818
 40
1036.520048526548
 40
1037.694306363996
 40
1038.835285400362
 40
1039.942631605849
 40
1041.015990950656
 40
1042.055009404986
 40
1043.05933293904
 40
1044.028607523018
 40
1044.962479127123
 40
1045.860593721555
 40
1046.722597276516
 40
1047.548135762206
 40
1048.336855148829
 40
1049.088401406583
 40
1049.802420505672
 40
1050.478558416295
 40
1051.116461108654
 40
1051.715774552951
 40
1052.276144719387
 40
1052.797217578163
 40
1053.278639099481
 40
1053.720055253541
 40
1054.121112010545
 40
1054.481455340693
 40
1054.800731214189
 40
1055.078585601232
 40
1055.314664472024
 40
1055.508613796766
 40
1055.660079545659
 40
1055.768707688905
 40
1055.834144196705
 40
1055.856035039261
 40
1055.877836824444
 40
1055.942870294532
 40
1056.050577621333
 40
1056.200400976654
 40
1056.391782532303
 40
1056.624164460087
 40
1056.896988931815
 40
1057.209698119294
 40
1057.561734194331
 40
1057.952539328735
 40
1058.381555694312
 40
1058.848225462872
 40
1059.351990806221
 40
1059.892293896167
 40
1060.468576904517
 40
1061.08028200308
 40
1061.726851363663
 40
1062.407727158074
 40
1063.12235155812
 40
1063.870166735609
 40
1064.650614862349
 40
1065.463138110148
 40
1066.307178650813
 40
1067.182178656151
 40
1068.087580297971
 40
1069.022825748081
 40
1069.987357178287
 40
1070.980616760397
 40
1072.00204666622
 40
1073.051089067563
 40
1074.127186136233
 40
1075.229780044039
 40
1076.358312962788
 40
1077.512227064287
 40
1078.690964520344
 40
1079.893967502768
 40
1081.120678183365
 40
1082.370538733944
 40
1083.642991326311
 40
1084.937478132275
 40
1086.253441323644
 40
1087.590323072225
 40
1088.947565549825
 40
1090.324610928252
 40
1091.720901379315
 40
1093.135879074821
 40
1094.568986186577
 40
1096.019664886391
 40
1097.487357346071
 40
1098.971505737424
 40
1100.471552232259
 40
1101.986939002382
 40
1103.517108219602
 40
1105.061502055726
 40
1106.619562682562
 40
1108.190732271917
 40
1109.7744529956
 40
1111.370167025418
 40
1112.977316533178
 40
1114.595343690688
 40
1116.223690669757
 40
1117.861799642191
 40
1119.509112779798
 40
1121.165072254386
 40
1122.829120237763
 40
1124.500698901737
 40
1126.179250418114
 40
1127.864216958703
 40
1129.555040695311
 40
1131.251163799747
 40
1132.952028443817
 40
1134.65707679933
 40
1136.365751038093
 40
1138.077493331913
 40
1139.791745852599
 40
1141.507950771958
 40
1143.225550261798
 40
1144.943986493926
 40
1146.66270164015
 40
1148.381137872279
 40
1150.098737362119
 40
1151.814942281478
 40
1153.529194802163
 40
1155.240937095984
 40
1156.949611334747
 40
1158.654659690259
 40
1160.355524334329
 40
1162.051647438765
 40
1163.742471175373
 40
1165.427437715962
 40
1167.10598923234
 40
1168.777567896313
 40
1170.44161587969
 40
1172.097575354278
 40
1173.744888491886
 40
1175.38299746432
 40
1177.011344443388
 40
1178.629371600899
 40
1180.236521108659
 40
1181.832235138476
 40
1183.415955862159
 40
1184.987125451514
 40
1186.545186078351
 40
1188.089579914475
 40
1189.619749131694
 40
1191.135135901818
 40
1192.635182396653
 40
1194.119330788006
 40
1195.587023247686
 40
1197.0377019475
 40
1198.470809059256
 40
1199.885786754761
 40
1201.282077205824
 40
1202.659122584252
 40
1204.016365061852
 40
1205.353246810433
 40
1206.669210001801
 40
1207.963696807766
 40
1209.236149400133
 40
1210.486009950711
 40
1211.712720631309
 40
1212.915723613732
 40
1214.094461069789
 40
1215.248375171288
 40
1216.376908090037
 40
1217.479501997843
 40
1218.555599066513
 40
1219.604641467856
 40
1220.626071373679
 40
1221.61933095579
 40
1222.583862385996
 40
1223.519107836105
 40
1224.424509477925
 40
1225.299509483264
 40
1226.143550023929
 40
1226.956073271727
 40
1227.736521398467
 40
1228.484336575957
 40
1229.198960976003
 40
1229.879836770414
 40
1230.526406130997
 40
1231.138111229559
 40
1231.71439423791
 40
1232.254697327856
 40
1232.758462671205
 40
1233.225132439764
 40
1233.654148805342
 40
1234.044953939746
 40
1234.396990014783
 40
1234.709699202262
 40
1234.98252367399
 40
1235.214905601774
 40
1235.406287157423
 40
1235.556110512744
 40
1235.663817839544
 40
1235.728851309633
 40
1235.750653094816
 40
1235.772041413166
 40
1235.835193903444
 40
1235.938591868487
 40
1236.080716611135
 40
1236.260049434228
 40
1236.475071640603
 40
1236.724264533101
 40
1237.006109414559
 40
1237.319087587818
 40
1237.661680355715
 40
1238.032369021091
 40
1238.429634886784
 40
1238.851959255633
 40
1239.297823430477
 40
1239.765708714156
 40
1240.254096409508
 40
1240.761467819372
 40
1241.286304246587
 40
1241.827086993993
 40
1242.382297364427
 40
1242.950416660731
 40
1243.529926185741
 40
1244.119307242298
 40
1244.71704113324
 40
1245.321609161407
 40
1245.931492629637
 40
1246.54517284077
 40
1247.161131097644
 40
1247.777848703098
 40
1248.393806959972
 40
1249.007487171105
 40
1249.617370639335
 40
1250.221938667502
 40
1250.819672558444
 40
1251.409053615001
 40
1251.988563140011
 40
1252.556682436314
 40
1253.111892806749
 40
1253.652675554155
 40
1254.17751198137
 40
1254.684883391234
 40
1255.173271086585
 40
1255.641156370264
 40
1256.087020545108
 40
1256.509344913957
 40
1256.90661077965
 40
1257.277299445026
 40
1257.619892212924
 40
1257.932870386183
 40
1258.214715267641
 40
1258.463908160139
 40
1258.678930366514
 40
1258.858263189606
 40
1259.000387932255
 40
1259.103785897298
 40
1259.166938387575
 40
1259.188326705926
 40
1259.653402463204
 40
1260.110534046983
 40
1260.561383134372
 40
1261.007370318215
 40
1261.449697011327
 40
1261.889375151824
 40
1262.327263002965
 40
1262.764105390799
 40
1263.200576902508
 40
1263.637326777884
 40
1264.075024387315
 40
1264.514404253218
 40
1264.956309520608
 40
1265.401732630098
 40
1265.851851738345
 40
1266.308061242122
 40
1266.771994691118
 40
1266.793527482129
 40
1266.856702199558
 40
1266.959383359999
 40
1267.099435480046
 40
1267.274723076293
 40
1267.483110665334
 40
1267.722462763762
 40
1267.990643888172
 40
1268.285518555158
 40
1268.604951281313
 40
1268.946806583232
 40
1269.308948977509
 40
1269.689242980737
 40
1270.08555310951
 40
1270.495743880422
 40
1270.917679810069
 40
1271.349225415042
 40
1271.788245211936
 40
1272.232603717346
 40
1272.680165447864
 40
1273.128794920086
 40
1273.576356650605
 40
1274.020715156014
 40
1274.459734952909
 40
1274.891280557882
 40
1275.313216487528
 40
1275.72340725844
 40
1276.119717387213
 40
1276.500011390441
 40
1276.862153784718
 40
1277.204009086637
 40
1277.523441812793
 40
1277.818316479778
 40
1278.086497604189
 40
1278.325849702617
 40
1278.534237291658
 40
1278.709524887904
 40
1278.849577007951
 40
1278.952258168392
 40
1279.015432885821
 40
1279.036965676833
 40
1279.057943234585
 40
1279.119641933855
 40
1279.220210813667
 40
1279.357798913041
 40
1279.530555271
 40
1279.736628926564
 40
1279.974168918757
 40
1280.241324286601
 40
1280.536244069116
 40
1280.857077305324
 40
1281.201973034249
 40
1281.56908029491
 40
1281.956548126332
 40
1282.362525567534
 40
1282.78516165754
 40
1283.22260543537
 40
1283.673005940048
 40
1284.134512210595
 40
1284.605273286032
 40
1285.083438205381
 40
1285.567156007665
 40
1286.054575731905
 40
1286.543846417123
 40
1287.033117102342
 40
1287.520536826582
 40
1288.004254628866
 40
1288.482419548215
 40
1288.953180623652
 40
1289.414686894198
 40
1289.865087398876
 40
1290.302531176707
 40
1290.725167266712
 40
1291.131144707915
 40
1291.518612539336
 40
1291.885719799998
 40
1292.230615528922
 40
1292.551448765131
 40
1292.846368547646
 40
1293.113523915489
 40
1293.351063907682
 40
1293.557137563247
 40
1293.729893921205
 40
1293.867482020579
 40
1293.968050900391
 40
1294.029749599662
 40
1294.050727157414
 40
1294.071971382076
 40
1294.134862700631
 40
1294.23813907993
 40
1294.380538486824
 40
1294.560798888167
 40
1294.777658250809
 40
1295.029854541602
 40
1295.316125727397
 40
1295.635209775048
 40
1295.985844651404
 40
1296.36676832332
 40
1296.776718757644
 40
1297.214433921231
 40
1297.678651780931
 40
1298.168110303595
 40
1298.681547456077
 40
1299.217701205227
 40
1299.775309517898
 40
1300.35311036094
 40
1300.949841701207
 40
1301.564241505549
 40
1302.195047740818
 40
1302.840998373867
 40
1303.500831371546
 40
1304.173284700708
 40
1304.857096328204
 40
1305.551004220886
 40
1306.253746345606
 40
1306.964060669216
 40
1307.680685158566
 40
1308.40235778051
 40
1309.127816501899
 40
1309.855799289584
 40
1310.585044110417
 40
1311.314288931251
 40
1312.042271718935
 40
1312.767730440324
 40
1313.489403062268
 40
1314.206027551619
 40
1314.916341875228
 40
1315.619083999948
 40
1316.31299189263
 40
1316.996803520126
 40
1317.669256849288
 40
1318.329089846968
 40
1318.975040480016
 40
1319.605846715285
 40
1320.220246519627
 40
1320.816977859894
 40
1321.394778702937
 40
1321.952387015607
 40
1322.488540764757
 40
1323.001977917239
 40
1323.491436439904
 40
1323.955654299604
 40
1324.39336946319
 40
1324.803319897515
 40
1325.18424356943
 40
1325.534878445787
 40
1325.853962493437
 40
1326.140233679233
 40
1326.392429970026
 40
1326.609289332667
 40
1326.789549734009
 40
1326.931949140904
 40
1327.035225520203
 40
1327.098116838758
 40
1327.11936106342
 40
1327.11936106342
 40
1327.11936106342
 40
1327.11936106342
 10
397.81912374006
 20
1654.212145952614
 30
0.0
 10
397.8264283344595
 20
1654.212149355782
 30
0.0
 10
397.8555689001333
 20
1654.212162932201
 30
0.0
 10
397.9209600960696
 20
1654.212193397577
 30
0.0
 10
398.0295952689705
 20
1654.21224401007
 30
0.0
 10
398.1811242651764
 20
1654.212314606544
 30
0.0
 10
398.3751969310275
 20
1654.212405023865
 30
0.0
 10
398.6114631128645
 20
1654.212515098899
 30
0.0
 10
398.8895726570273
 20
1654.212644668511
 30
0.0
 10
399.2091754098567
 20
1654.212793569567
 30
0.0
 10
399.5699212176929
 20
1654.212961638932
 30
0.0
 10
399.971459926876
 20
1654.21314871347
 30
0.0
 10
400.413441383747
 20
1654.21335463005
 30
0.0
 10
400.8955154346456
 20
1654.213579225533
 30
0.0
 10
401.4173319259127
 20
1654.213822336789
 30
0.0
 10
401.978540703888
 20
1654.214083800679
 30
0.0
 10
402.5787916149129
 20
1654.214363454074
 30
0.0
 10
403.2177345053267
 20
1654.214661133833
 30
0.0
 10
403.8950192214704
 20
1654.214976676827
 30
0.0
 10
404.6102956096842
 20
1654.215309919917
 30
0.0
 10
405.3632135163083
 20
1654.215660699971
 30
0.0
 10
406.1534227876837
 20
1654.216028853856
 30
0.0
 10
406.9805732701499
 20
1654.216414218432
 30
0.0
 10
407.8443148100476
 20
1654.21681663057
 30
0.0
 10
408.7442972537175
 20
1654.217235927134
 30
0.0
 10
409.6801704474995
 20
1654.217671944987
 30
0.0
 10
410.6515842377344
 20
1654.218124520997
 30
0.0
 10
411.6581884707622
 20
1654.21859349203
 30
0.0
 10
412.6996329929234
 20
1654.219078694949
 30
0.0
 10
413.7755676505583
 20
1654.219579966621
 30
0.0
 10
414.8856422900075
 20
1654.22009714391
 30
0.0
 10
416.0295067576111
 20
1654.220630063684
 30
0.0
 10
417.2068108997097
 20
1654.221178562806
 30
0.0
 10
418.4172045626435
 20
1654.221742478144
 30
0.0
 10
419.660337592753
 20
1654.22232164656
 30
0.0
 10
420.9358598363781
 20
1654.222915904923
 30
0.0
 10
422.24342113986
 20
1654.223525090095
 30
0.0
 10
423.5826713495384
 20
1654.224149038945
 30
0.0
 10
424.9532603117538
 20
1654.224787588336
 30
0.0
 10
426.3548378728469
 20
1654.225440575135
 30
0.0
 10
427.7870538791577
 20
1654.226107836205
 30
0.0
 10
429.2495581770267
 20
1654.226789208414
 30
0.0
 10
430.7420006127944
 20
1654.227484528627
 30
0.0
 10
432.2640310328006
 20
1654.228193633708
 30
0.0
 10
433.8152992833867
 20
1654.228916360526
 30
0.0
 10
435.395455210892
 20
1654.22965254594
 30
0.0
 10
437.0041486616574
 20
1654.230402026822
 30
0.0
 10
438.6410294820234
 20
1654.231164640034
 30
0.0
 10
440.30574751833
 20
1654.231940222443
 30
0.0
 10
441.9979526169177
 20
1654.232728610912
 30
0.0
 10
443.7172946241269
 20
1654.233529642311
 30
0.0
 10
445.4634233862981
 20
1654.234343153501
 30
0.0
 10
447.2359887497714
 20
1654.235168981349
 30
0.0
 10
449.0346405608874
 20
1654.23600696272
 30
0.0
 10
450.8590286659863
 20
1654.236856934481
 30
0.0
 10
452.7088029114087
 20
1654.237718733497
 30
0.0
 10
454.5836131434945
 20
1654.238592196632
 30
0.0
 10
456.4831092085847
 20
1654.239477160752
 30
0.0
 10
458.4069409530191
 20
1654.240373462724
 30
0.0
 10
460.3547582231386
 20
1654.241280939413
 30
0.0
 10
462.3262108652829
 20
1654.242199427681
 30
0.0
 10
464.320948725793
 20
1654.243128764399
 30
0.0
 10
466.3386216510087
 20
1654.244068786427
 30
0.0
 10
468.3788794872712
 20
1654.245019330635
 30
0.0
 10
470.4413720809199
 20
1654.245980233886
 30
0.0
 10
472.5257492782958
 20
1654.246951333046
 30
0.0
 10
474.6316609257391
 20
1654.247932464981
 30
0.0
 10
476.7587568695901
 20
1654.248923466556
 30
0.0
 10
478.9066869561892
 20
1654.249924174636
 30
0.0
 10
481.0751010318768
 20
1654.250934426086
 30
0.0
 10
483.2636489429934
 20
1654.251954057773
 30
0.0
 10
485.4719805358791
 20
1654.252982906564
 30
0.0
 10
487.6997456568742
 20
1654.254020809318
 30
0.0
 10
489.9465941523195
 20
1654.255067602907
 30
0.0
 10
492.2121758685551
 20
1654.256123124195
 30
0.0
 10
494.4961406519212
 20
1654.257187210045
 30
0.0
 10
496.7981383487587
 20
1654.258259697325
 30
0.0
 10
499.1178188054074
 20
1654.259340422899
 30
0.0
 10
501.4548318682079
 20
1654.260429223633
 30
0.0
 10
503.8088273835007
 20
1654.261525936392
 30
0.0
 10
506.1794551976258
 20
1654.262630398043
 30
0.0
 10
508.566365156924
 20
1654.26374244545
 30
0.0
 10
510.9692071077354
 20
1654.264861915478
 30
0.0
 10
513.3876308964007
 20
1654.265988644994
 30
0.0
 10
515.8212863692594
 20
1654.267122470862
 30
0.0
 10
518.269823372653
 20
1654.268263229949
 30
0.0
 10
520.7328917529211
 20
1654.269410759118
 30
0.0
 10
523.2101413564041
 20
1654.270564895237
 30
0.0
 10
525.7012220294433
 20
1654.271725475172
 30
0.0
 10
528.2057836183777
 20
1654.272892335785
 30
0.0
 10
530.7234759695484
 20
1654.274065313944
 30
0.0
 10
533.2539489292959
 20
1654.275244246514
 30
0.0
 10
535.7968523439602
 20
1654.27642897036
 30
0.0
 10
538.3518360598816
 20
1654.277619322348
 30
0.0
 10
540.9185499234012
 20
1654.278815139344
 30
0.0
 10
543.4966437808585
 20
1654.280016258212
 30
0.0
 10
546.0857674785942
 20
1654.281222515818
 30
0.0
 10
548.6855708629489
 20
1654.282433749027
 30
0.0
 10
551.2957037802624
 20
1654.283649794707
 30
0.0
 10
553.9158160768757
 20
1654.28487048972
 30
0.0
 10
556.5455575991289
 20
1654.286095670934
 30
0.0
 10
559.1845781933623
 20
1654.287325175212
 30
0.0
 10
561.8325277059161
 20
1654.288558839421
 30
0.0
 10
564.4890559831313
 20
1654.289796500428
 30
0.0
 10
567.1538128713473
 20
1654.291037995095
 30
0.0
 10
569.8264482169055
 20
1654.29228316029
 30
0.0
 10
572.5066118661457
 20
1654.293531832879
 30
0.0
 10
575.1939536654083
 20
1654.294783849724
 30
0.0
 10
577.8881234610337
 20
1654.296039047694
 30
0.0
 10
580.5887710993625
 20
1654.297297263652
 30
0.0
 10
583.2955464267345
 20
1654.298558334465
 30
0.0
 10
586.0080992894906
 20
1654.299822096999
 30
0.0
 10
588.7260795339713
 20
1654.301088388117
 30
0.0
 10
591.449137006516
 20
1654.302357044687
 30
0.0
 10
594.1769215534665
 20
1654.303627903572
 30
0.0
 10
596.9090830211618
 20
1654.30490080164
 30
0.0
 10
599.6452712559433
 20
1654.306175575755
 30
0.0
 10
602.3851361041507
 20
1654.307452062783
 30
0.0
 10
605.1283274121247
 20
1654.308730099588
 30
0.0
 10
607.8744950262054
 20
1654.310009523038
 30
0.0
 10
610.6232887927336
 20
1654.311290169996
 30
0.0
 10
613.3743585580492
 20
1654.312571877329
 30
0.0
 10
616.1273541684931
 20
1654.313854481902
 30
0.0
 10
618.8819254704047
 20
1654.31513782058
 30
0.0
 10
621.6377223101256
 20
1654.31642173023
 30
0.0
 10
624.3943945339954
 20
1654.317706047716
 30
0.0
 10
627.1515919883545
 20
1654.318990609903
 30
0.0
 10
629.9089645195437
 20
1654.320275253659
 30
0.0
 10
632.6661619739029
 20
1654.321559815845
 30
0.0
 10
635.4228341977729
 20
1654.322844133332
 30
0.0
 10
638.1786310374934
 20
1654.324128042981
 30
0.0
 10
640.9332023394053
 20
1654.325411381659
 30
0.0
 10
643.6861979498492
 20
1654.326693986232
 30
0.0
 10
646.4372677151646
 20
1654.327975693565
 30
0.0
 10
649.186061481693
 20
1654.329256340524
 30
0.0
 10
651.9322290957734
 20
1654.330535763973
 30
0.0
 10
654.675420403748
 20
1654.33181380078
 30
0.0
 10
657.4152852519546
 20
1654.333090287806
 30
0.0
 10
660.1514734867367
 20
1654.334365061922
 30
0.0
 10
662.8836349544317
 20
1654.335637959989
 30
0.0
 10
665.6114195013822
 20
1654.336908818875
 30
0.0
 10
668.3344769739269
 20
1654.338177475444
 30
0.0
 10
671.0524572184077
 20
1654.339443766563
 30
0.0
 10
673.7650100811638
 20
1654.340707529096
 30
0.0
 10
676.4717854085357
 20
1654.341968599909
 30
0.0
 10
679.1724330468646
 20
1654.343226815867
 30
0.0
 10
681.8666028424901
 20
1654.344482013837
 30
0.0
 10
684.5539446417524
 20
1654.345734030683
 30
0.0
 10
687.2341082909931
 20
1654.346982703271
 30
0.0
 10
689.9067436365508
 20
1654.348227868466
 30
0.0
 10
692.5715005247674
 20
1654.349469363134
 30
0.0
 10
695.2280288019822
 20
1654.35070702414
 30
0.0
 10
697.8759783145362
 20
1654.351940688349
 30
0.0
 10
700.5149989087695
 20
1654.353170192628
 30
0.0
 10
703.1447404310227
 20
1654.354395373841
 30
0.0
 10
705.764852727636
 20
1654.355616068855
 30
0.0
 10
708.3749856449495
 20
1654.356832114533
 30
0.0
 10
710.974789029304
 20
1654.358043347743
 30
0.0
 10
713.5639127270397
 20
1654.359249605349
 30
0.0
 10
716.1420065844973
 20
1654.360450724218
 30
0.0
 10
718.7087204480167
 20
1654.361646541212
 30
0.0
 10
721.263704163938
 20
1654.362836893201
 30
0.0
 10
723.8066075786027
 20
1654.364021617047
 30
0.0
 10
726.3370805383497
 20
1654.365200549617
 30
0.0
 10
728.8547728895205
 20
1654.366373527776
 30
0.0
 10
731.3593344784554
 20
1654.36754038839
 30
0.0
 10
733.8504151514939
 20
1654.368700968323
 30
0.0
 10
736.327664754977
 20
1654.369855104442
 30
0.0
 10
738.7907331352454
 20
1654.371002633613
 30
0.0
 10
741.2392701386387
 20
1654.372143392699
 30
0.0
 10
743.6729256114977
 20
1654.373277218568
 30
0.0
 10
746.0913494001628
 20
1654.374403948083
 30
0.0
 10
748.494191350974
 20
1654.375523418112
 30
0.0
 10
750.8811013102724
 20
1654.376635465518
 30
0.0
 10
753.2517291243975
 20
1654.377739927168
 30
0.0
 10
755.6057246396904
 20
1654.378836639928
 30
0.0
 10
757.9427377024906
 20
1654.379925440662
 30
0.0
 10
760.2624181591397
 20
1654.381006166236
 30
0.0
 10
762.5644158559769
 20
1654.382078653516
 30
0.0
 10
764.8483806393431
 20
1654.383142739366
 30
0.0
 10
767.1139623555789
 20
1654.384198260654
 30
0.0
 10
769.3608108510239
 20
1654.385245054242
 30
0.0
 10
771.5885759720193
 20
1654.386282956999
 30
0.0
 10
773.796907564905
 20
1654.387311805787
 30
0.0
 10
775.9854554760215
 20
1654.388331437475
 30
0.0
 10
778.1538695517093
 20
1654.389341688926
 30
0.0
 10
780.3017996383082
 20
1654.390342397005
 30
0.0
 10
782.4288955821594
 20
1654.39133339858
 30
0.0
 10
784.5348072296023
 20
1654.392314530514
 30
0.0
 10
786.6191844269785
 20
1654.393285629675
 30
0.0
 10
788.681677020627
 20
1654.394246532926
 30
0.0
 10
790.7219348568896
 20
1654.395197077134
 30
0.0
 10
792.7396077821052
 20
1654.396137099164
 30
0.0
 10
794.7343456426154
 20
1654.39706643588
 30
0.0
 10
796.7057982847599
 20
1654.39798492415
 30
0.0
 10
798.6536155548794
 20
1654.398892400837
 30
0.0
 10
800.5774472993137
 20
1654.399788702809
 30
0.0
 10
802.4769433644037
 20
1654.400673666929
 30
0.0
 10
804.3517535964895
 20
1654.401547130065
 30
0.0
 10
806.2015278419121
 20
1654.40240892908
 30
0.0
 10
808.0259159470108
 20
1654.403258900841
 30
0.0
 10
809.8245677581269
 20
1654.404096882213
 30
0.0
 10
811.5971331216005
 20
1654.40492271006
 30
0.0
 10
813.3432618837712
 20
1654.405736221251
 30
0.0
 10
815.0626038909809
 20
1654.406537252648
 30
0.0
 10
816.7548089895681
 20
1654.407325641119
 30
0.0
 10
818.4195270258749
 20
1654.408101223527
 30
0.0
 10
820.0564078462408
 20
1654.408863836739
 30
0.0
 10
821.6651012970062
 20
1654.40961331762
 30
0.0
 10
823.2452572245118
 20
1654.410349503037
 30
0.0
 10
824.7965254750974
 20
1654.411072229853
 30
0.0
 10
826.3185558951041
 20
1654.411781334934
 30
0.0
 10
827.8109983308716
 20
1654.412476655147
 30
0.0
 10
829.2735026287405
 20
1654.413158027355
 30
0.0
 10
830.7057186350514
 20
1654.413825288427
 30
0.0
 10
832.1072961961445
 20
1654.414478275225
 30
0.0
 10
833.4778851583598
 20
1654.415116824616
 30
0.0
 10
834.8171353680386
 20
1654.415740773466
 30
0.0
 10
836.12469667152
 20
1654.416349958639
 30
0.0
 10
837.4002189151453
 20
1654.416944217
 30
0.0
 10
838.6433519452546
 20
1654.417523385418
 30
0.0
 10
839.853745608189
 20
1654.418087300755
 30
0.0
 10
841.0310497502869
 20
1654.418635799877
 30
0.0
 10
842.174914217891
 20
1654.41916871965
 30
0.0
 10
843.28498885734
 20
1654.419685896941
 30
0.0
 10
844.3609235149748
 20
1654.420187168612
 30
0.0
 10
845.4023680371359
 20
1654.420672371532
 30
0.0
 10
846.408972270164
 20
1654.421141342563
 30
0.0
 10
847.3803860603986
 20
1654.421593918573
 30
0.0
 10
848.3162592541808
 20
1654.422029936428
 30
0.0
 10
849.2162416978506
 20
1654.42244923299
 30
0.0
 10
850.0799832377485
 20
1654.422851645129
 30
0.0
 10
850.9071337202148
 20
1654.423237009706
 30
0.0
 10
851.6973429915897
 20
1654.42360516359
 30
0.0
 10
852.4502608982143
 20
1654.423955943642
 30
0.0
 10
853.165537286427
 20
1654.424289186741
 30
0.0
 10
853.8428220025744
 20
1654.42460472971
 30
0.0
 10
854.4817648929761
 20
1654.424902409548
 30
0.0
 10
855.0820158040414
 20
1654.42518206268
 30
0.0
 10
855.6432245818801
 20
1654.42544352745
 30
0.0
 10
856.1650410736053
 20
1654.425686635766
 30
0.0
 10
856.6471151229862
 20
1654.42591124099
 30
0.0
 10
857.0890965848284
 20
1654.426117125659
 30
0.0
 10
857.4906352779469
 20
1654.426304303323
 30
0.0
 10
857.8513811368382
 20
1654.426472044939
 30
0.0
 10
858.1709837307619
 20
1654.42662196609
 30
0.0
 10
858.4490937563976
 20
1654.426748444877
 30
0.0
 10
858.6853585307458
 20
1654.426867555328
 30
0.0
 10
858.879435109711
 20
1654.426932852281
 30
0.0
 10
859.0309540165664
 20
1654.427068217687
 30
0.0
 10
859.13961212249
 20
1654.426971610856
 30
0.0
 10
859.2049629163732
 20
1654.427261438591
 30
0.0
 10
859.386068945425
 20
1654.425674058626
 30
0.0
 10
859.6703390111453
 20
1654.587449564416
 30
0.0
 10
860.0858336686572
 20
1654.750254138639
 30
0.0
 10
860.4760396890483
 20
1654.978234257602
 30
0.0
 10
860.8443708743168
 20
1655.231567398809
 30
0.0
 10
861.1874258570169
 20
1655.518252148225
 30
0.0
 10
861.5036326047143
 20
1655.833573103549
 30
0.0
 10
861.7908557277938
 20
1656.176237333388
 30
0.0
 10
862.0473646730069
 20
1656.543964422501
 30
0.0
 10
862.2703273090082
 20
1656.9350412539
 30
0.0
 10
862.4608946604595
 20
1657.346482474862
 30
0.0
 10
862.9667195688426
 20
1658.865860684769
 30
0.0
 10
863.6970328191536
 20
1661.513398590824
 30
0.0
 10
864.7740719353699
 20
1665.252131527905
 30
0.0
 10
865.7879813386433
 20
1669.007232052686
 30
0.0
 10
866.7668520859972
 20
1672.770277565005
 30
0.0
 10
867.7030969947591
 20
1676.543097750792
 30
0.0
 10
868.5986842527593
 20
1680.324776522257
 30
0.0
 10
869.4530228039639
 20
1684.115133200962
 30
0.0
 10
870.2662070710871
 20
1687.913790133668
 30
0.0
 10
871.0381478648808
 20
1691.720422428983
 30
0.0
 10
871.7688051782342
 20
1695.534691062965
 30
0.0
 10
872.458125827357
 20
1699.356260798136
 30
0.0
 10
873.1060601563304
 20
1703.184795383213
 30
0.0
 10
873.7125575631724
 20
1707.019958838972
 30
0.0
 10
874.2775676941164
 20
1710.861415113734
 30
0.0
 10
874.8010401396923
 20
1714.708828175414
 30
0.0
 10
875.28292445617
 20
1718.561861987407
 30
0.0
 10
875.7231703836586
 20
1722.420180512622
 30
0.0
 10
876.1217269521208
 20
1726.283447721093
 30
0.0
 10
876.4785458397282
 20
1730.1513275551
 30
0.0
 10
876.7935688308562
 20
1734.02348406072
 30
0.0
 10
877.0667746372328
 20
1737.899580896019
 30
0.0
 10
877.2980041052555
 20
1741.779283166843
 30
0.0
 10
877.4876127797351
 20
1745.662250572853
 30
0.0
 10
877.6340345406177
 20
1749.548162996655
 30
0.0
 10
877.742878237727
 20
1753.436624961553
 30
0.0
 10
877.7929620988244
 20
1757.327522372902
 30
0.0
 10
877.8431730105438
 20
1760.112196699011
 30
0.0
 10
877.8056351150171
 20
1761.788327238321
 30
0.0
 10
877.7443301552638
 20
1762.349378013179
 30
0.0
 10
877.6474217415862
 20
1762.898211377393
 30
0.0
 10
877.5132593127244
 20
1763.433464350355
 30
0.0
 10
877.3440125207713
 20
1763.953782097936
 30
0.0
 10
877.1408421933321
 20
1764.457811477894
 30
0.0
 10
876.9051730007457
 20
1764.944201900965
 30
0.0
 10
876.638356492175
 20
1765.411604182341
 30
0.0
 10
876.3417602062571
 20
1765.858669923884
 30
0.0
 10
876.016744007702
 20
1766.284050807207
 30
0.0
 10
875.6646665569538
 20
1766.686397990326
 30
0.0
 10
875.2868838855567
 20
1767.064361566606
 30
0.0
 10
874.8847501777843
 20
1767.416590095529
 30
0.0
 10
874.4596180528056
 20
1767.741730200797
 30
0.0
 10
874.0128390592347
 20
1768.038426229225
 30
0.0
 10
873.5457642248758
 20
1768.305320009517
 30
0.0
 10
873.0597445951704
 20
1768.541050615153
 30
0.0
 10
872.5561321945146
 20
1768.744254590246
 30
0.0
 10
872.0362796931445
 20
1768.913565055947
 30
0.0
 10
871.501545159013
 20
1769.047615831282
 30
0.0
 10
870.9532775939977
 20
1769.145027560255
 30
0.0
 10
870.3928749927253
 20
1769.204463094015
 30
0.0
 10
870.0131349415751
 20
1769.217728618343
 30
0.0
 10
869.8192539500602
 20
1769.217701349701
 30
0.0
 10
869.8083967310196
 20
1769.217701695457
 30
0.0
 10
869.7781820763198
 20
1769.217701279553
 30
0.0
 10
869.7151263577247
 20
1769.217701651093
 30
0.0
 10
869.6116198093785
 20
1769.217701443786
 30
0.0
 10
869.4692487293629
 20
1769.217701533179
 30
0.0
 10
869.2895994293813
 20
1769.217701499245
 30
0.0
 10
869.0742582149435
 20
1769.217701511179
 30
0.0
 10
868.8248113939861
 20
1769.217701507191
 30
0.0
 10
868.5428452735744
 20
1769.217701508475
 30
0.0
 10
868.2299461610692
 20
1769.217701508073
 30
0.0
 10
867.8877003637351
 20
1769.217701508196
 30
0.0
 10
867.5176941888669
 20
1769.21770150816
 30
0.0
 10
867.1215139437503
 20
1769.21770150817
 30
0.0
 10
866.7007459356739
 20
1769.217701508168
 30
0.0
 10
866.2569764719243
 20
1769.217701508167
 30
0.0
 10
865.7917918597912
 20
1769.217701508168
 30
0.0
 10
865.3067784065601
 20
1769.217701508168
 30
0.0
 10
864.8035224195204
 20
1769.217701508168
 30
0.0
 10
864.2836102059589
 20
1769.217701508168
 30
0.0
 10
863.7486280731644
 20
1769.217701508168
 30
0.0
 10
863.2001623284233
 20
1769.217701508168
 30
0.0
 10
862.6397992790247
 20
1769.217701508168
 30
0.0
 10
862.0691252322549
 20
1769.217701508168
 30
0.0
 10
861.4897264954033
 20
1769.217701508168
 30
0.0
 10
860.9031893757563
 20
1769.217701508168
 30
0.0
 10
860.3111001806021
 20
1769.217701508167
 30
0.0
 10
859.7150452172289
 20
1769.217701508168
 30
0.0
 10
859.1166107929236
 20
1769.217701508168
 30
0.0
 10
858.5173832149751
 20
1769.217701508168
 30
0.0
 10
857.9189487906696
 20
1769.217701508168
 30
0.0
 10
857.3228938272965
 20
1769.217701508168
 30
0.0
 10
856.7308046321422
 20
1769.217701508168
 30
0.0
 10
856.1442675124956
 20
1769.217701508168
 30
0.0
 10
855.5648687756436
 20
1769.217701508168
 30
0.0
 10
854.9941947288739
 20
1769.217701508168
 30
0.0
 10
854.4338316794754
 20
1769.217701508169
 30
0.0
 10
853.885365934734
 20
1769.217701508168
 30
0.0
 10
853.3503838019396
 20
1769.217701508168
 30
0.0
 10
852.8304715883779
 20
1769.217701508168
 30
0.0
 10
852.3272156013381
 20
1769.217701508168
 30
0.0
 10
851.8422021481078
 20
1769.217701508168
 30
0.0
 10
851.3770175359737
 20
1769.217701508168
 30
0.0
 10
850.9332480722248
 20
1769.217701508165
 30
0.0
 10
850.5124800641481
 20
1769.21770150818
 30
0.0
 10
850.1162998190315
 20
1769.217701508124
 30
0.0
 10
849.7462936441634
 20
1769.217701508315
 30
0.0
 10
849.4040478468303
 20
1769.217701507683
 30
0.0
 10
849.0911487343208
 20
1769.217701509743
 30
0.0
 10
848.8091826139234
 20
1769.21770150317
 30
0.0
 10
848.5597357929214
 20
1769.217701523573
 30
0.0
 10
848.3443945786163
 20
1769.217701462517
 30
0.0
 10
848.1647452782582
 20
1769.217701636136
 30
0.0
 10
848.022374199235
 20
1769.217701178747
 30
0.0
 10
847.9188676485863
 20
1769.217702239469
 30
0.0
 10
847.8558119341186
 20
1769.217700338423
 30
0.0
 10
847.8201377114941
 20
1769.21770285098
 30
0.0
 10
847.7838461491068
 20
1769.217691811044
 30
0.0
 10
847.7185276527762
 20
1769.217678612196
 30
0.0
 10
847.6100175225336
 20
1769.217652221218
 30
0.0
 10
847.4586697876141
 20
1769.217617497485
 30
0.0
 10
847.2648384780767
 20
1769.217572192236
 30
0.0
 10
847.0288776236005
 20
1769.217517345707
 30
0.0
 10
846.7511412540148
 20
1769.217452682938
 30
0.0
 10
846.431983399095
 20
1769.217378411687
 30
0.0
 10
846.0717580886355
 20
1769.217294572208
 30
0.0
 10
845.6708193524229
 20
1769.217201260624
 30
0.0
 10
845.2295212202475
 20
1769.217098554965
 30
0.0
 10
844.7482177218981
 20
1769.216986538988
 30
0.0
 10
844.2272628871638
 20
1769.216865294669
 30
0.0
 10
843.667010745834
 20
1769.216734904531
 30
0.0
 10
843.0678153276972
 20
1769.216595450929
 30
0.0
 10
842.430030662544
 20
1769.216447016272
 30
0.0
 10
841.7540107801618
 20
1769.216289682949
 30
0.0
 10
841.0401097103409
 20
1769.216123533357
 30
0.0
 10
840.2886814828704
 20
1769.215948649894
 30
0.0
 10
839.500080127538
 20
1769.215765114948
 30
0.0
 10
838.6746596741353
 20
1769.215573010922
 30
0.0
 10
837.8127741524492
 20
1769.215372420204
 30
0.0
 10
836.9147775922705
 20
1769.215163425195
 30
0.0
 10
835.9810240233871
 20
1769.214946108285
 30
0.0
 10
835.0118674755893
 20
1769.214720551873
 30
0.0
 10
834.0076619786651
 20
1769.214486838352
 30
0.0
 10
832.9687615624047
 20
1769.214245050118
 30
0.0
 10
831.8955202565965
 20
1769.213995269563
 30
0.0
 10
830.7882920910295
 20
1769.213737579087
 30
0.0
 10
829.6474310954941
 20
1769.213472061082
 30
0.0
 10
828.4732912997778
 20
1769.213198797943
 30
0.0
 10
827.2662267336709
 20
1769.212917872066
 30
0.0
 10
826.0265914269622
 20
1769.212629365845
 30
0.0
 10
824.7547394094408
 20
1769.212333361676
 30
0.0
 10
823.4510247108958
 20
1769.212029941955
 30
0.0
 10
822.1158013611168
 20
1769.211719189074
 30
0.0
 10
820.7494233898922
 20
1769.211401185431
 30
0.0
 10
819.3522448270118
 20
1769.211076013418
 30
0.0
 10
817.9246197022644
 20
1769.210743755435
 30
0.0
 10
816.4669020454393
 20
1769.210404493871
 30
0.0
 10
814.9794458863258
 20
1769.210058311125
 30
0.0
 10
813.4626052547126
 20
1769.209705289591
 30
0.0
 10
811.9167341803886
 20
1769.209345511663
 30
0.0
 10
810.3421866931442
 20
1769.208979059739
 30
0.0
 10
808.7393168227674
 20
1769.208606016211
 30
0.0
 10
807.1084785990481
 20
1769.208226463475
 30
0.0
 10
805.4500260517749
 20
1769.207840483926
 30
0.0
 10
803.7643132107373
 20
1769.20744815996
 30
0.0
 10
802.0516941057242
 20
1769.20704957397
 30
0.0
 10
800.3125227665246
 20
1769.206644808353
 30
0.0
 10
798.5471532229283
 20
1769.206233945504
 30
0.0
 10
796.7559395047235
 20
1769.205817067816
 30
0.0
 10
794.9392356417003
 20
1769.205394257686
 30
0.0
 10
793.0973956636476
 20
1769.204965597509
 30
0.0
 10
791.2307736003543
 20
1769.204531169678
 30
0.0
 10
789.3397234816094
 20
1769.20409105659
 30
0.0
 10
787.4245993372026
 20
1769.203645340641
 30
0.0
 10
785.4857551969228
 20
1769.203194104222
 30
0.0
 10
783.5235450905584
 20
1769.202737429731
 30
0.0
 10
781.5383230479001
 20
1769.202275399566
 30
0.0
 10
779.5304430987359
 20
1769.201808096115
 30
0.0
 10
777.5002592728549
 20
1769.201335601778
 30
0.0
 10
775.4481256000474
 20
1769.200857998949
 30
0.0
 10
773.374396110101
 20
1769.200375370022
 30
0.0
 10
771.2794248328061
 20
1769.199887797393
 30
0.0
 10
769.163565797951
 20
1769.199395363458
 30
0.0
 10
767.027173035325
 20
1769.198898150609
 30
0.0
 10
764.870600574718
 20
1769.198396241244
 30
0.0
 10
762.6942024459181
 20
1769.197889717756
 30
0.0
 10
760.4983326787155
 20
1769.197378662543
 30
0.0
 10
758.2833453028986
 20
1769.196863157996
 30
0.0
 10
756.0495943482567
 20
1769.196343286514
 30
0.0
 10
753.797433844579
 20
1769.195819130489
 30
0.0
 10
751.5272178216542
 20
1769.195290772316
 30
0.0
 10
749.2393003092724
 20
1769.194758294394
 30
0.0
 10
746.934035337222
 20
1769.194221779113
 30
0.0
 10
744.6117769352927
 20
1769.19368130887
 30
0.0
 10
742.2728791332734
 20
1769.193136966062
 30
0.0
 10
739.9176959609529
 20
1769.19258883308
 30
0.0
 10
737.5465814481208
 20
1769.192036992323
 30
0.0
 10
735.1598896245663
 20
1769.191481526185
 30
0.0
 10
732.7579745200776
 20
1769.190922517059
 30
0.0
 10
730.3411901644454
 20
1769.190360047342
 30
0.0
 10
727.9098905874577
 20
1769.189794199428
 30
0.0
 10
725.4644298189041
 20
1769.189225055714
 30
0.0
 10
723.0051618885736
 20
1769.188652698592
 30
0.0
 10
720.5324408262554
 20
1769.188077210459
 30
0.0
 10
718.0466206617388
 20
1769.18749867371
 30
0.0
 10
715.5480554248125
 20
1769.18691717074
 30
0.0
 10
713.0370991452662
 20
1769.186332783944
 30
0.0
 10
710.5141058528885
 20
1769.185745595715
 30
0.0
 10
707.979429577469
 20
1769.185155688451
 30
0.0
 10
705.4334243487972
 20
1769.184563144546
 30
0.0
 10
702.8764441966612
 20
1769.183968046395
 30
0.0
 10
700.3088431508509
 20
1769.183370476391
 30
0.0
 10
697.7309752411552
 20
1769.182770516933
 30
0.0
 10
695.143194497363
 20
1769.182168250413
 30
0.0
 10
692.5458549492641
 20
1769.181563759228
 30
0.0
 10
689.9393106266468
 20
1769.180957125771
 30
0.0
 10
687.3239155593016
 20
1769.180348432438
 30
0.0
 10
684.7000237770162
 20
1769.179737761625
 30
0.0
 10
682.0679893095806
 20
1769.179125195726
 30
0.0
 10
679.428166186784
 20
1769.178510817136
 30
0.0
 10
676.7809084384144
 20
1769.177894708249
 30
0.0
 10
674.1265700942624
 20
1769.177276951464
 30
0.0
 10
671.465505184116
 20
1769.176657629171
 30
0.0
 10
668.7980677377657
 20
1769.176036823768
 30
0.0
 10
666.1246117849995
 20
1769.17541461765
 30
0.0
 10
663.4454913556069
 20
1769.174791093211
 30
0.0
 10
660.7610604793771
 20
1769.174166332846
 30
0.0
 10
658.071673186099
 20
1769.173540418951
 30
0.0
 10
655.377683505562
 20
1769.17291343392
 30
0.0
 10
652.6794454675552
 20
1769.172285460149
 30
0.0
 10
649.9773131018676
 20
1769.171656580032
 30
0.0
 10
647.271640438289
 20
1769.171026875967
 30
0.0
 10
644.5627815066077
 20
1769.170396430343
 30
0.0
 10
641.8510903366133
 20
1769.169765325562
 30
0.0
 10
639.1369209580948
 20
1769.169133644014
 30
0.0
 10
636.4206274008415
 20
1769.168501468096
 30
0.0
 10
633.7025636946421
 20
1769.167868880203
 30
0.0
 10
630.9830838692863
 20
1769.167235962729
 30
0.0
 10
628.2625419545633
 20
1769.166602798071
 30
0.0
 10
625.5412919802617
 20
1769.165969468622
 30
0.0
 10
622.8196879761711
 20
1769.165336056779
 30
0.0
 10
620.0980839720806
 20
1769.164702644936
 30
0.0
 10
617.3768339977792
 20
1769.164069315487
 30
0.0
 10
614.6562920830561
 20
1769.163436150828
 30
0.0
 10
611.9368122577002
 20
1769.162803233356
 30
0.0
 10
609.2187485515008
 20
1769.162170645461
 30
0.0
 10
606.5024549942475
 20
1769.161538469545
 30
0.0
 10
603.7882856157291
 20
1769.160906787997
 30
0.0
 10
601.0765944457346
 20
1769.160275683214
 30
0.0
 10
598.3677355140535
 20
1769.159645237592
 30
0.0
 10
595.6620628504749
 20
1769.159015533525
 30
0.0
 10
592.9599304847872
 20
1769.158386653409
 30
0.0
 10
590.2616924467802
 20
1769.157758679638
 30
0.0
 10
587.5677027662432
 20
1769.157131694607
 30
0.0
 10
584.8783154729654
 20
1769.156505780713
 30
0.0
 10
582.1938845967355
 20
1769.155881020348
 30
0.0
 10
579.5147641673428
 20
1769.155257495908
 30
0.0
 10
576.841308214577
 20
1769.15463528979
 30
0.0
 10
574.1738707682262
 20
1769.154014484388
 30
0.0
 10
571.5128058580801
 20
1769.153395162094
 30
0.0
 10
568.8584675139283
 20
1769.152777405309
 30
0.0
 10
566.2112097655586
 20
1769.152161296422
 30
0.0
 10
563.5713866427616
 20
1769.151546917832
 30
0.0
 10
560.9393521753261
 20
1769.150934351933
 30
0.0
 10
558.3154603930407
 20
1769.15032368112
 30
0.0
 10
555.7000653256953
 20
1769.149714987787
 30
0.0
 10
553.0935210030784
 20
1769.149108354331
 30
0.0
 10
550.4961814549791
 20
1769.148503863145
 30
0.0
 10
547.9084007111871
 20
1769.147901596626
 30
0.0
 10
545.3305328014915
 20
1769.147301637167
 30
0.0
 10
542.7629317556809
 20
1769.146704067164
 30
0.0
 10
540.2059516035454
 20
1769.146108969013
 30
0.0
 10
537.659946374873
 20
1769.145516425107
 30
0.0
 10
535.1252700994537
 20
1769.144926517843
 30
0.0
 10
532.6022768070764
 20
1769.144339329615
 30
0.0
 10
530.0913205275298
 20
1769.143754942818
 30
0.0
 10
527.5927552906037
 20
1769.143173439848
 30
0.0
 10
525.1069351260867
 20
1769.142594903099
 30
0.0
 10
522.6342140637688
 20
1769.142019414967
 30
0.0
 10
520.1749461334381
 20
1769.141447057844
 30
0.0
 10
517.7294853648846
 20
1769.14087791413
 30
0.0
 10
515.298185787897
 20
1769.140312066216
 30
0.0
 10
512.8814014322644
 20
1769.139749596499
 30
0.0
 10
510.4794863277763
 20
1769.139190587373
 30
0.0
 10
508.0927945042212
 20
1769.138635121234
 30
0.0
 10
505.7216799913892
 20
1769.138083280478
 30
0.0
 10
503.3664968190688
 20
1769.137535147497
 30
0.0
 10
501.0275990170496
 20
1769.136990804689
 30
0.0
 10
498.7053406151201
 20
1769.136450334446
 30
0.0
 10
496.4000756430701
 20
1769.135913819165
 30
0.0
 10
494.1121581306881
 20
1769.135381341242
 30
0.0
 10
491.8419421077635
 20
1769.134852983069
 30
0.0
 10
489.5897816040858
 20
1769.134328827045
 30
0.0
 10
487.3560306494438
 20
1769.133808955561
 30
0.0
 10
485.1410432736267
 20
1769.133293451015
 30
0.0
 10
482.945173506424
 20
1769.132782395801
 30
0.0
 10
480.7687753776244
 20
1769.132275872314
 30
0.0
 10
478.6122029170173
 20
1769.131773962949
 30
0.0
 10
476.4758101543911
 20
1769.1312767501
 30
0.0
 10
474.3599511195363
 20
1769.130784316164
 30
0.0
 10
472.2649798422409
 20
1769.130296743535
 30
0.0
 10
470.1912503522951
 20
1769.12981411461
 30
0.0
 10
468.139116679487
 20
1769.129336511779
 30
0.0
 10
466.1089328536065
 20
1769.128864017443
 30
0.0
 10
464.1010529044423
 20
1769.128396713993
 30
0.0
 10
462.1158308617838
 20
1769.127934683826
 30
0.0
 10
460.1536207554199
 20
1769.127478009336
 30
0.0
 10
458.2147766151396
 20
1769.127026772918
 30
0.0
 10
456.2996524707326
 20
1769.126581056967
 30
0.0
 10
454.408602351988
 20
1769.126140943879
 30
0.0
 10
452.5419802886947
 20
1769.12570651605
 30
0.0
 10
450.7001403106417
 20
1769.125277855871
 30
0.0
 10
448.8834364476187
 20
1769.124855045742
 30
0.0
 10
447.0922227294141
 20
1769.124438168054
 30
0.0
 10
445.3268531858176
 20
1769.124027305205
 30
0.0
 10
443.587681846618
 20
1769.123622539587
 30
0.0
 10
441.875062741605
 20
1769.123223953599
 30
0.0
 10
440.1893499005672
 20
1769.122831629631
 30
0.0
 10
438.5308973532942
 20
1769.122445650084
 30
0.0
 10
436.9000591295747
 20
1769.122066097347
 30
0.0
 10
435.297189259198
 20
1769.121693053819
 30
0.0
 10
433.7226417719537
 20
1769.121326601895
 30
0.0
 10
432.17677069763
 20
1769.120966823967
 30
0.0
 10
430.6599300660168
 20
1769.120613802433
 30
0.0
 10
429.1724739069031
 20
1769.120267619687
 30
0.0
 10
427.7147562500779
 20
1769.119928358124
 30
0.0
 10
426.2871311253304
 20
1769.119596100139
 30
0.0
 10
424.8899525624502
 20
1769.119270928127
 30
0.0
 10
423.5235745912254
 20
1769.118952924483
 30
0.0
 10
422.1883512414465
 20
1769.118642171604
 30
0.0
 10
420.8846365429013
 20
1769.118338751881
 30
0.0
 10
419.61278452538
 20
1769.118042747712
 30
0.0
 10
418.3731492186716
 20
1769.117754241492
 30
0.0
 10
417.1660846525642
 20
1769.117473315614
 30
0.0
 10
415.9919448568487
 20
1769.117200052477
 30
0.0
 10
414.8510838613127
 20
1769.116934534471
 30
0.0
 10
413.7438556957459
 20
1769.116676843994
 30
0.0
 10
412.6706143899376
 20
1769.11642706344
 30
0.0
 10
411.6317139736772
 20
1769.116185275207
 30
0.0
 10
410.627508476753
 20
1769.115951561684
 30
0.0
 10
409.6583519289549
 20
1769.115726005272
 30
0.0
 10
408.7245983600719
 20
1769.115508688363
 30
0.0
 10
407.8266017998924
 20
1769.115299693353
 30
0.0
 10
406.9647162782084
 20
1769.115099102636
 30
0.0
 10
406.1392958247999
 20
1769.114906998613
 30
0.0
 10
405.350694469486
 20
1769.114723463652
 30
0.0
 10
404.5992662419532
 20
1769.114548580248
 30
0.0
 10
403.8853651723467
 20
1769.114382430443
 30
0.0
 10
403.2093452892268
 20
1769.114225097858
 30
0.0
 10
402.5715606265974
 20
1769.114076660676
 30
0.0
 10
401.9723651998825
 20
1769.113937215653
 30
0.0
 10
401.4121130874973
 20
1769.11380679657
 30
0.0
 10
400.891158155907
 20
1769.113685649108
 30
0.0
 10
400.4098549785479
 20
1769.113573312139
 30
0.0
 10
399.9685557946435
 20
1769.113471658211
 30
0.0
 10
399.5676204576039
 20
1769.113374947449
 30
0.0
 10
399.2073843432185
 20
1769.113301911912
 30
0.0
 10
398.8882601173656
 20
1769.113194011546
 30
0.0
 10
398.6104218463776
 20
1769.113231250326
 30
0.0
 10
398.3747589020239
 20
1769.112878493245
 30
0.0
 10
398.1800992807396
 20
1769.113661500934
 30
0.0
 10
398.0308873645577
 20
1769.111490955396
 30
0.0
 10
397.9175222176966
 20
1769.116319588006
 30
0.0
 10
397.8607574863769
 20
1769.107752611868
 30
0.0
 10
397.8132793999788
 20
1769.11884327124
 30
0.0
 10
397.8242972875408
 20
1769.071585915015
 30
0.0
 10
397.8158414034273
 20
1769.015192304023
 30
0.0
 10
397.8206276991906
 20
1768.902885737997
 30
0.0
 10
397.818528793391
 20
1768.755346742775
 30
0.0
 10
397.8193400543718
 20
1768.563340057663
 30
0.0
 10
397.81904929057
 20
1768.331434768747
 30
0.0
 10
397.8191483935513
 20
1768.058697159832
 30
0.0
 10
397.8191158066954
 20
1767.746206494356
 30
0.0
 10
397.8191262371552
 20
1767.394345934017
 30
0.0
 10
397.8191229677815
 20
1767.003730010956
 30
0.0
 10
397.8191239755042
 20
1766.574898580622
 30
0.0
 10
397.8191236691298
 20
1766.108415061096
 30
0.0
 10
397.8191237612148
 20
1765.604835568415
 30
0.0
 10
397.8191237338046
 20
1765.064718448603
 30
0.0
 10
397.819123741896
 20
1764.488621374894
 30
0.0
 10
397.8191237395245
 20
1763.877102221432
 30
0.0
 10
397.8191237402153
 20
1763.230718802891
 30
0.0
 10
397.819123740015
 20
1762.550028951409
 30
0.0
 10
397.8191237400731
 20
1761.835590494037
 30
0.0
 10
397.8191237400562
 20
1761.087961259295
 30
0.0
 10
397.8191237400611
 20
1760.307699075281
 30
0.0
 10
397.8191237400598
 20
1759.495361770215
 30
0.0
 10
397.81912374006
 20
1758.65150717228
 30
0.0
 10
397.81912374006
 20
1757.776693109672
 30
0.0
 10
397.81912374006
 20
1756.871477410583
 30
0.0
 10
397.8191237400602
 20
1755.936417903205
 30
0.0
 10
397.8191237400599
 20
1754.972072415729
 30
0.0
 10
397.8191237400599
 20
1753.978998776349
 30
0.0
 10
397.8191237400599
 20
1752.957754813257
 30
0.0
 10
397.8191237400601
 20
1751.908898354645
 30
0.0
 10
397.8191237400599
 20
1750.832987228705
 30
0.0
 10
397.8191237400601
 20
1749.730579263631
 30
0.0
 10
397.81912374006
 20
1748.602232287612
 30
0.0
 10
397.8191237400599
 20
1747.448504128844
 30
0.0
 10
397.8191237400601
 20
1746.269952615517
 30
0.0
 10
397.8191237400598
 20
1745.067135575825
 30
0.0
 10
397.8191237400601
 20
1743.840610837958
 30
0.0
 10
397.8191237400599
 20
1742.590936230111
 30
0.0
 10
397.8191237400599
 20
1741.318669580474
 30
0.0
 10
397.8191237400599
 20
1740.024368717241
 30
0.0
 10
397.81912374006
 20
1738.708591468603
 30
0.0
 10
397.8191237400599
 20
1737.371895662753
 30
0.0
 10
397.8191237400601
 20
1736.014839127884
 30
0.0
 10
397.81912374006
 20
1734.637979692187
 30
0.0
 10
397.8191237400599
 20
1733.241875183855
 30
0.0
 10
397.81912374006
 20
1731.82708343108
 30
0.0
 10
397.81912374006
 20
1730.394162262055
 30
0.0
 10
397.8191237400599
 20
1728.943669504971
 30
0.0
 10
397.8191237400599
 20
1727.476162988022
 30
0.0
 10
397.8191237400599
 20
1725.9922005394
 30
0.0
 10
397.81912374006
 20
1724.492339987295
 30
0.0
 10
397.81912374006
 20
1722.977139159903
 30
0.0
 10
397.81912374006
 20
1721.447155885414
 30
0.0
 10
397.81912374006
 20
1719.902947992022
 30
0.0
 10
397.81912374006
 20
1718.345073307915
 30
0.0
 10
397.8191237400599
 20
1716.774089661291
 30
0.0
 10
397.8191237400599
 20
1715.190554880339
 30
0.0
 10
397.8191237400599
 20
1713.595026793252
 30
0.0
 10
397.8191237400599
 20
1711.988063228223
 30
0.0
 10
397.8191237400599
 20
1710.370222013443
 30
0.0
 10
397.8191237400601
 20
1708.742060977106
 30
0.0
 10
397.8191237400599
 20
1707.104137947402
 30
0.0
 10
397.8191237400599
 20
1705.457010752525
 30
0.0
 10
397.81912374006
 20
1703.801237220668
 30
0.0
 10
397.8191237400599
 20
1702.137375180022
 30
0.0
 10
397.8191237400601
 20
1700.46598245878
 30
0.0
 10
397.81912374006
 20
1698.787616885133
 30
0.0
 10
397.81912374006
 20
1697.102836287274
 30
0.0
 10
397.81912374006
 20
1695.412198493397
 30
0.0
 10
397.8191237400599
 20
1693.716261331692
 30
0.0
 10
397.8191237400601
 20
1692.015582630353
 30
0.0
 10
397.81912374006
 20
1690.310720217571
 30
0.0
 10
397.8191237400601
 20
1688.602231921539
 30
0.0
 10
397.81912374006
 20
1686.89067557045
 30
0.0
 10
397.81912374006
 20
1685.176608992494
 30
0.0
 10
397.81912374006
 20
1683.460590015866
 30
0.0
 10
397.81912374006
 20
1681.743176468757
 30
0.0
 10
397.81912374006
 20
1680.02492617936
 30
0.0
 10
397.8191237400598
 20
1678.306396975866
 30
0.0
 10
397.8191237400602
 20
1676.588146686469
 30
0.0
 10
397.8191237400599
 20
1674.870733139359
 30
0.0
 10
397.81912374006
 20
1673.154714162731
 30
0.0
 10
397.8191237400599
 20
1671.440647584775
 30
0.0
 10
397.81912374006
 20
1669.729091233686
 30
0.0
 10
397.81912374006
 20
1668.020602937654
 30
0.0
 10
397.8191237400599
 20
1666.315740524872
 30
0.0
 10
397.81912374006
 20
1664.615061823533
 30
0.0
 10
397.8191237400599
 20
1662.919124661828
 30
0.0
 10
397.8191237400599
 20
1661.22848686795
 30
0.0
 10
397.8191237400601
 20
1659.543706270093
 30
0.0
 10
397.8191237400598
 20
1657.865340696445
 30
0.0
 10
397.8191237400602
 20
1656.193947975204
 30
0.0
 10
397.8191237400599
 20
1654.530085934557
 30
0.0
 10
397.8191237400599
 20
1652.874312402699
 30
0.0
 10
397.8191237400598
 20
1651.227185207823
 30
0.0
 10
397.8191237400602
 20
1649.58926217812
 30
0.0
 10
397.81912374006
 20
1647.961101141782
 30
0.0
 10
397.8191237400599
 20
1646.343259927003
 30
0.0
 10
397.81912374006
 20
1644.736296361973
 30
0.0
 10
397.8191237400599
 20
1643.140768274886
 30
0.0
 10
397.81912374006
 20
1641.557233493934
 30
0.0
 10
397.8191237400599
 20
1639.986249847309
 30
0.0
 10
397.8191237400602
 20
1638.428375163205
 30
0.0
 10
397.8191237400598
 20
1636.88416726981
 30
0.0
 10
397.8191237400602
 20
1635.354183995322
 30
0.0
 10
397.8191237400599
 20
1633.838983167929
 30
0.0
 10
397.81912374006
 20
1632.339122615825
 30
0.0
 10
397.8191237400599
 20
1630.855160167203
 30
0.0
 10
397.81912374006
 20
1629.387653650254
 30
0.0
 10
397.81912374006
 20
1627.93716089317
 30
0.0
 10
397.8191237400598
 20
1626.504239724145
 30
0.0
 10
397.8191237400602
 20
1625.089447971371
 30
0.0
 10
397.8191237400599
 20
1623.693343463038
 30
0.0
 10
397.8191237400603
 20
1622.316484027342
 30
0.0
 10
397.8191237400598
 20
1620.959427492471
 30
0.0
 10
397.8191237400602
 20
1619.622731686622
 30
0.0
 10
397.81912374006
 20
1618.306954437984
 30
0.0
 10
397.8191237400599
 20
1617.012653574751
 30
0.0
 10
397.8191237400599
 20
1615.740386925114
 30
0.0
 10
397.8191237400602
 20
1614.490712317267
 30
0.0
 10
397.8191237400599
 20
1613.2641875794
 30
0.0
 10
397.81912374006
 20
1612.061370539708
 30
0.0
 10
397.8191237400599
 20
1610.882819026381
 30
0.0
 10
397.8191237400599
 20
1609.729090867613
 30
0.0
 10
397.81912374006
 20
1608.600743891594
 30
0.0
 10
397.81912374006
 20
1607.498335926519
 30
0.0
 10
397.81912374006
 20
1606.42242480058
 30
0.0
 10
397.81912374006
 20
1605.373568341968
 30
0.0
 10
397.81912374006
 20
1604.352324378875
 30
0.0
 10
397.81912374006
 20
1603.359250739496
 30
0.0
 10
397.81912374006
 20
1602.39490525202
 30
0.0
 10
397.8191237400601
 20
1601.459845744642
 30
0.0
 10
397.8191237400599
 20
1600.554630045553
 30
0.0
 10
397.8191237400601
 20
1599.679815982945
 30
0.0
 10
397.8191237400598
 20
1598.835961385011
 30
0.0
 10
397.8191237400611
 20
1598.023624079944
 30
0.0
 10
397.8191237400562
 20
1597.24336189593
 30
0.0
 10
397.8191237400731
 20
1596.495732661188
 30
0.0
 10
397.8191237400147
 20
1595.781294203815
 30
0.0
 10
397.8191237402169
 20
1595.100604352336
 30
0.0
 10
397.8191237395182
 20
1594.454220933786
 30
0.0
 10
397.8191237419179
 20
1593.842701780353
 30
0.0
 10
397.8191237337298
 20
1593.266604706546
 30
0.0
 10
397.8191237614684
 20
1592.726487587069
 30
0.0
 10
397.8191236682794
 20
1592.222908093262
 30
0.0
 10
397.8191239783274
 20
1591.756424577481
 30
0.0
 10
397.8191229585217
 20
1591.327593134829
 30
0.0
 10
397.8191262670964
 20
1590.93697725173
 30
0.0
 10
397.819115711571
 20
1590.585116563899
 30
0.0
 10
397.8191486891569
 20
1590.272626296736
 30
0.0
 10
397.8190483978892
 20
1589.999887476472
 30
0.0
 10
397.819342648071
 20
1589.7679857416
 30
0.0
 10
397.8185216597311
 20
1589.575969140341
 30
0.0
 10
397.8206457322909
 20
1589.428455800311
 30
0.0
 10
397.8158020468351
 20
1589.316090730786
 30
0.0
 10
397.8243593205438
 20
1589.259800477137
 30
0.0
 10
397.8132608583741
 20
1589.212627490427
 30
0.0
 10
397.8594174407245
 20
1589.223336541507
 30
0.0
 10
397.9139612830412
 20
1589.215234125933
 30
0.0
 10
398.0213774991889
 20
1589.219758609424
 30
0.0
 10
398.1610431854801
 20
1589.217805785454
 30
0.0
 10
398.3406118055048
 20
1589.218547814774
 30
0.0
 10
398.5548665478953
 20
1589.218286583176
 30
0.0
 10
398.8036406030369
 20
1589.218373978207
 30
0.0
 10
399.0849510637537
 20
1589.218345789852
 30
0.0
 10
399.3974318492387
 20
1589.218354634466
 30
0.0
 10
399.7395156688753
 20
1589.218351918591
 30
0.0
 10
400.1096989214102
 20
1589.218352738138
 30
0.0
 10
400.5064583109448
 20
1589.218352494365
 30
0.0
 10
400.9282765190406
 20
1589.218352566
 30
0.0
 10
401.3736344406663
 20
1589.218352545168
 30
0.0
 10
401.8410134979611
 20
1589.218352551171
 30
0.0
 10
402.3288949592096
 20
1589.218352549455
 30
0.0
 10
402.8357601371738
 20
1589.218352549942
 30
0.0
 10
403.3600903318648
 20
1589.218352549805
 30
0.0
 10
403.9003668469217
 20
1589.218352549844
 30
0.0
 10
404.4550709849586
 20
1589.218352549832
 30
0.0
 10
405.0226840488781
 20
1589.218352549836
 30
0.0
 10
405.6016873415007
 20
1589.218352549835
 30
0.0
 10
406.1905621656709
 20
1589.218352549835
 30
0.0
 10
406.7877898242263
 20
1589.218352549835
 30
0.0
 10
407.3918516200058
 20
1589.218352549835
 30
0.0
 10
408.001228855849
 20
1589.218352549834
 30
0.0
 10
408.6144028345947
 20
1589.218352549835
 30
0.0
 10
409.2298548590816
 20
1589.218352549835
 30
0.0
 10
409.8460662321492
 20
1589.218352549835
 30
0.0
 10
410.4615182566362
 20
1589.218352549834
 30
0.0
 10
411.0746922353819
 20
1589.218352549835
 30
0.0
 10
411.684069471225
 20
1589.218352549835
 30
0.0
 10
412.2881312670046
 20
1589.218352549835
 30
0.0
 10
412.8853589255601
 20
1589.218352549835
 30
0.0
 10
413.4742337497298
 20
1589.218352549835
 30
0.0
 10
414.0532370423534
 20
1589.218352549835
 30
0.0
 10
414.6208501062697
 20
1589.218352549835
 30
0.0
 10
415.1755542443175
 20
1589.218352549835
 30
0.0
 10
415.7158307593361
 20
1589.218352549834
 30
0.0
 10
416.2401609541643
 20
1589.218352549835
 30
0.0
 10
416.7470261316413
 20
1589.218352549834
 30
0.0
 10
417.2349075946059
 20
1589.218352549838
 30
0.0
 10
417.7022866458975
 20
1589.218352549823
 30
0.0
 10
418.1476445883555
 20
1589.218352549876
 30
0.0
 10
418.5694627248153
 20
1589.218352549696
 30
0.0
 10
418.9662223581295
 20
1589.218352550306
 30
0.0
 10
419.3364047910902
 20
1589.218352548255
 30
0.0
 10
419.6784913266945
 20
1589.218352555053
 30
0.0
 10
419.9909632672611
 20
1589.218352532912
 30
0.0
 10
420.2723019173044
 20
1589.218352603478
 30
0.0
 10
420.5209885744021
 20
1589.218352384698
 30
0.0
 10
420.7355045573955
 20
1589.218353038652
 30
0.0
 10
420.9143311225224
 20
1589.218351181091
 30
0.0
 10
421.0559497000992
 20
1589.218356069697
 30
0.0
 10
421.1588412767932
 20
1589.218344743324
 30
0.0
 10
421.2214878139798
 20
1589.218365026518
 30
0.0
 10
421.4046914280548
 20
1589.218226470501
 30
0.0
 10
421.7194166212486
 20
1589.23226487757
 30
0.0
 10
422.1734046619091
 20
1589.2950477755
 30
0.0
 10
422.6136320192621
 20
1589.397281968248
 30
0.0
 10
423.0381328528526
 20
1589.537274434099
 30
0.0
 10
423.4450095560425
 20
1589.71311478201
 30
0.0
 10
423.8323546598879
 20
1589.922958292995
 30
0.0
 10
424.1982678385599
 20
1590.164952790874
 30
0.0
 10
424.5408479621397
 20
1590.437258198353
 30
0.0
 10
424.8581920971142
 20
1590.738040689967
 30
0.0
 10
425.1483930888934
 20
1591.065472885251
 30
0.0
 10
425.409538008378
 20
1591.417732013066
 30
0.0
 10
425.6397067190683
 20
1591.79299770111
 30
0.0
 10
425.8369714507223
 20
1592.189451005896
 30
0.0
 10
425.9993950768051
 20
1592.605266567666
 30
0.0
 10
426.125037466435
 20
1593.038629345839
 30
0.0
 10
426.2119354562947
 20
1593.487657347093
 30
0.0
 10
426.2431873339522
 20
1593.80051127961
 30
0.0
 10
426.252656642556
 20
1593.983144617373
 30
0.0
 10
426.2559625589736
 20
1594.045520216211
 30
0.0
 10
426.2613124697161
 20
1594.147348969733
 30
0.0
 10
426.2686443961088
 20
1594.286496289052
 30
0.0
 10
426.2778221055522
 20
1594.460830625289
 30
0.0
 10
426.2887428633256
 20
1594.668219058137
 30
0.0
 10
426.3012909275579
 20
1594.906529199813
 30
0.0
 10
426.3153551805772
 20
1595.173628473213
 30
0.0
 10
426.330822953441
 20
1595.467384364748
 30
0.0
 10
426.3475820766033
 20
1595.785664340377
 30
0.0
 10
426.3655202246417
 20
1596.126335872447
 30
0.0
 10
426.3845251196247
 20
1596.487266431354
 30
0.0
 10
426.4044844694325
 20
1596.866323488081
 30
0.0
 10
426.4252859861163
 20
1597.261374513438
 30
0.0
 10
426.4468173805166
 20
1597.670286978284
 30
0.0
 10
426.4689663638216
 20
1598.090928353463
 30
0.0
 10
426.4916206471215
 20
1598.521166109825
 30
0.0
 10
426.5146679415333
 20
1598.95886771822
 30
0.0
 10
426.5379959581659
 20
1599.401900649491
 30
0.0
 10
426.5614924081324
 20
1599.848132374492
 30
0.0
 10
426.5850450025429
 20
1600.295430364068
 30
0.0
 10
426.6085414525093
 20
1600.741662089068
 30
0.0
 10
426.6318694691423
 20
1601.184695020341
 30
0.0
 10
426.6549167635538
 20
1601.622396628734
 30
0.0
 10
426.6775710468546
 20
1602.052634385097
 30
0.0
 10
426.6997200301559
 20
1602.473275760276
 30
0.0
 10
426.7212514245699
 20
1602.882188225121
 30
0.0
 10
426.7420529412051
 20
1603.27723925048
 30
0.0
 10
426.7620122911816
 20
1603.656296307201
 30
0.0
 10
426.7810171855811
 20
1604.017226866132
 30
0.0
 10
426.798955335616
 20
1604.357898398119
 30
0.0
 10
426.8157144520542
 20
1604.676178374026
 30
0.0
 10
426.8311822471518
 20
1604.969934264642
 30
0.0
 10
426.845246428281
 20
1605.237033541012
 30
0.0
 10
426.8577947184609
 20
1605.475343673356
 30
0.0
 10
426.8687147921046
 20
1605.682732134457
 30
0.0
 10
426.8778944685186
 20
1605.857066389466
 30
0.0
 10
426.8852211594436
 20
1605.996213924987
 30
0.0
 10
426.8905833262451
 20
1606.098042172389
 30
0.0
 10
426.8938671036096
 20
1606.160418685468
 30
0.0
 10
426.8957203830107
 20
1606.195598258842
 30
0.0
 10
426.8975432248924
 20
1606.230286747084
 30
0.0
 10
426.9007507182554
 20
1606.291284186033
 30
0.0
 10
426.9059979389233
 20
1606.391098250954
 30
0.0
 10
426.9131892152433
 20
1606.527880454367
 30
0.0
 10
426.9222266508092
 20
1606.699782425838
 30
0.0
 10
426.9330133563741
 20
1606.904955741948
 30
0.0
 10
426.9454520499976
 20
1607.141551999936
 30
0.0
 10
426.9594455899849
 20
1607.407722789665
 30
0.0
 10
426.9748967873603
 20
1607.701619703483
 30
0.0
 10
426.99170846845
 20
1608.021394332935
 30
0.0
 10
427.0097834547767
 20
1608.365198269816
 30
0.0
 10
427.0290245693359
 20
1608.731183105847
 30
0.0
 10
427.04933463468
 20
1609.11750043277
 30
0.0
 10
427.0706164734925
 20
1609.522301842321
 30
0.0
 10
427.0927729084185
 20
1609.943738926237
 30
0.0
 10
427.1157067621144
 20
1610.379963276254
 30
0.0
 10
427.1393208572333
 20
1610.829126484111
 30
0.0
 10
427.1635180164294
 20
1611.289380141545
 30
0.0
 10
427.1882010623561
 20
1611.758875840294
 30
0.0
 10
427.2132728176677
 20
1612.235765172092
 30
0.0
 10
427.2386361050177
 20
1612.71819972868
 30
0.0
 10
427.26419374706
 20
1613.204331101793
 30
0.0
 10
427.2898485664487
 20
1613.692310883169
 30
0.0
 10
427.3155033858369
 20
1614.180290664545
 30
0.0
 10
427.3410610278793
 20
1614.666422037658
 30
0.0
 10
427.3664243152294
 20
1615.148856594246
 30
0.0
 10
427.3914960705409
 20
1615.625745926045
 30
0.0
 10
427.4161791164678
 20
1616.095241624793
 30
0.0
 10
427.4403762756639
 20
1616.555495282227
 30
0.0
 10
427.4639903707827
 20
1617.004658490084
 30
0.0
 10
427.4869242244783
 20
1617.440882840102
 30
0.0
 10
427.5090806594056
 20
1617.862319924017
 30
0.0
 10
427.5303624982135
 20
1618.267121333568
 30
0.0
 10
427.550672563573
 20
1618.653438660489
 30
0.0
 10
427.5699136780791
 20
1619.019423496524
 30
0.0
 10
427.5879886645868
 20
1619.363227433396
 30
0.0
 10
427.6048003450712
 20
1619.683002062879
 30
0.0
 10
427.6202515444359
 20
1619.976898976593
 30
0.0
 10
427.634245078028
 20
1620.243069766657
 30
0.0
 10
427.6466837916414
 20
1620.479666023596
 30
0.0
 10
427.6574704369907
 20
1620.68483934287
 30
0.0
 10
427.6665080448546
 20
1620.856741305289
 30
0.0
 10
427.6736988646143
 20
1620.993523532686
 30
0.0
 10
427.6789471497445
 20
1621.093337541688
 30
0.0
 10
427.6821527267927
 20
1621.154335081308
 30
0.0
 10
427.68397306138
 20
1621.188927379845
 30
0.0
 10
427.6858052077365
 20
1621.223917145441
 30
0.0
 10
427.6890762497555
 20
1621.286302089452
 30
0.0
 10
427.6944589879337
 20
1621.389016847353
 30
0.0
 10
427.7018904914016
 20
1621.530800951851
 30
0.0
 10
427.7113031999887
 20
1621.710394178656
 30
0.0
 10
427.7226316681429
 20
1621.926536192482
 30
0.0
 10
427.7358096171285
 20
1622.17796670177
 30
0.0
 10
427.7507710692013
 20
1622.46342539917
 30
0.0
 10
427.7674499438932
 20
1622.781651982718
 30
0.0
 10
427.7857801944156
 20
1623.131386148687
 30
0.0
 10
427.805695763262
 20
1623.511367593907
 30
0.0
 10
427.8271305962594
 20
1623.920336015039
 30
0.0
 10
427.8500186382162
 20
1624.357031108791
 30
0.0
 10
427.8742938342481
 20
1624.820192571862
 30
0.0
 10
427.8998901293787
 20
1625.30856010095
 30
0.0
 10
427.926741468659
 20
1625.820873392755
 30
0.0
 10
427.954781797132
 20
1626.355872143975
 30
0.0
 10
427.9839450598435
 20
1626.91229605131
 30
0.0
 10
428.0141652018374
 20
1627.48888481146
 30
0.0
 10
428.0453761681594
 20
1628.084378121122
 30
0.0
 10
428.0775119038538
 20
1628.697515676997
 30
0.0
 10
428.1105063539652
 20
1629.327037175782
 30
0.0
 10
428.1442934635392
 20
1629.971682314179
 30
0.0
 10
428.1788071776199
 20
1630.630190788885
 30
0.0
 10
428.2139814412522
 20
1631.301302296599
 30
0.0
 10
428.2497501994814
 20
1631.983756534022
 30
0.0
 10
428.286047397352
 20
1632.676293197852
 30
0.0
 10
428.322806979909
 20
1633.377651984787
 30
0.0
 10
428.3599628921966
 20
1634.086572591528
 30
0.0
 10
428.3974490792605
 20
1634.801794714773
 30
0.0
 10
428.435199486145
 20
1635.522058051222
 30
0.0
 10
428.473148057895
 20
1636.246102297574
 30
0.0
 10
428.5112287395554
 20
1636.972667150526
 30
0.0
 10
428.5493754761709
 20
1637.700492306781
 30
0.0
 10
428.5875222127863
 20
1638.428317463034
 30
0.0
 10
428.625602894447
 20
1639.154882315987
 30
0.0
 10
428.6635514661967
 20
1639.878926562339
 30
0.0
 10
428.7013018730815
 20
1640.599189898788
 30
0.0
 10
428.738788060145
 20
1641.314412022033
 30
0.0
 10
428.7759439724328
 20
1642.023332628774
 30
0.0
 10
428.8127035549899
 20
1642.72469141571
 30
0.0
 10
428.8490007528604
 20
1643.417228079539
 30
0.0
 10
428.8847695110893
 20
1644.099682316961
 30
0.0
 10
428.9199437747219
 20
1644.770793824677
 30
0.0
 10
428.9544574888027
 20
1645.429302299382
 30
0.0
 10
428.9882445983765
 20
1646.073947437779
 30
0.0
 10
429.0212390484882
 20
1646.703468936565
 30
0.0
 10
429.0533747841824
 20
1647.316606492439
 30
0.0
 10
429.0845857505042
 20
1647.912099802102
 30
0.0
 10
429.1148058924986
 20
1648.488688562251
 30
0.0
 10
429.1439691552096
 20
1649.045112469586
 30
0.0
 10
429.1720094836829
 20
1649.580111220807
 30
0.0
 10
429.1988608229628
 20
1650.092424512611
 30
0.0
 10
429.2244571180948
 20
1650.5807920417
 30
0.0
 10
429.2487323141226
 20
1651.04395350477
 30
0.0
 10
429.2716203560921
 20
1651.480648598522
 30
0.0
 10
429.2930551890474
 20
1651.889617019656
 30
0.0
 10
429.3129707580337
 20
1652.269598464869
 30
0.0
 10
429.3313010080958
 20
1652.619332630861
 30
0.0
 10
429.3479798842783
 20
1652.937559214332
 30
0.0
 10
429.3629413316261
 20
1653.223017911979
 30
0.0
 10
429.3761192951844
 20
1653.474448420503
 30
0.0
 10
429.3874477199976
 20
1653.690590436603
 30
0.0
 10
429.3968605511101
 20
1653.870183656977
 30
0.0
 10
429.4042917335682
 20
1654.011967778326
 30
0.0
 10
429.4096752124146
 20
1654.114682497346
 30
0.0
 10
429.4129449326966
 20
1654.177067510741
 30
0.0
 10
429.4144128205891
 20
1654.205074250759
 30
0.0
 10
429.4147834622821
 20
1654.212145952614
 30
0.0
 11
397.81912374006
 21
1654.212145952614
 31
0.0
 11
397.8410375232587
 21
1654.212156162118
 31
0.0
 11
397.9065454370815
 21
1654.212186681872
 31
0.0
 11
398.0152973278689
 21
1654.212237348743
 31
0.0
 11
398.1669430419613
 21
1654.212307999595
 31
0.0
 11
398.3611324256991
 21
1654.212398471294
 31
0.0
 11
398.5975153254224
 21
1654.212508600707
 31
0.0
 11
398.8757415874719
 21
1654.212638224697
 31
0.0
 11
399.1954610581878
 21
1654.212787180131
 31
0.0
 11
399.5563235839105
 21
1654.212955303873
 31
0.0
 11
399.9579790109802
 21
1654.21314243279
 31
0.0
 11
400.4000771857376
 21
1654.213348403747
 31
0.0
 11
400.8822679545229
 21
1654.21357305361
 31
0.0
 11
401.4042011636763
 21
1654.213816219243
 31
0.0
 11
401.9655266595386
 21
1654.214077737513
 31
0.0
 11
402.5658942884497
 21
1654.214357445284
 31
0.0
 11
403.2049538967502
 21
1654.214655179422
 31
0.0
 11
403.8823553307803
 21
1654.214970776793
 31
0.0
 11
404.5977484368807
 21
1654.215304074262
 31
0.0
 11
405.3507830613915
 21
1654.215654908695
 31
0.0
 11
406.1411090506532
 21
1654.216023116957
 31
0.0
 11
406.968376251006
 21
1654.216408535913
 31
0.0
 11
407.8322345087904
 21
1654.216811002429
 31
0.0
 11
408.7323336703466
 21
1654.21723035337
 31
0.0
 11
409.6683235820153
 21
1654.217666425602
 31
0.0
 11
410.6398540901367
 21
1654.21811905599
 31
0.0
 11
411.646575041051
 21
1654.218588081401
 31
0.0
 11
412.6881362810988
 21
1654.219073338698
 31
0.0
 11
413.7641876566203
 21
1654.219574664748
 31
0.0
 11
414.874379013956
 21
1654.220091896416
 31
0.0
 11
416.0183601994462
 21
1654.220624870568
 31
0.0
 11
417.1957810594312
 21
1654.221173424068
 31
0.0
 11
418.4062914402516
 21
1654.221737393784
 31
0.0
 11
419.6495411882476
 21
1654.222316616578
 31
0.0
 11
420.9251801497595
 21
1654.222910929319
 31
0.0
 11
422.2328581711277
 21
1654.22352016887
 31
0.0
 11
423.5722250986927
 21
1654.224144172098
 31
0.0
 11
424.9429307787948
 21
1654.224782775867
 31
0.0
 11
426.3446250577743
 21
1654.225435817044
 31
0.0
 11
427.7769577819717
 21
1654.226103132493
 31
0.0
 11
429.2395787977272
 21
1654.22678455908
 31
0.0
 11
430.7321379513813
 21
1654.227479933671
 31
0.0
 11
432.2542850892745
 21
1654.22818909313
 31
0.0
 11
433.8056700577467
 21
1654.228911874325
 31
0.0
 11
435.3859427031387
 21
1654.229648114118
 31
0.0
 11
436.9947528717907
 21
1654.230397649378
 31
0.0
 11
438.6317504100431
 21
1654.231160316969
 31
0.0
 11
440.2965851642363
 21
1654.231935953755
 31
0.0
 11
441.9889069807105
 21
1654.232724396604
 31
0.0
 11
443.7083657058064
 21
1654.23352548238
 31
0.0
 11
445.454611185864
 21
1654.234339047948
 31
0.0
 11
447.2272932672239
 21
1654.235164930174
 31
0.0
 11
449.0260617962264
 21
1654.236002965924
 31
0.0
 11
450.8505666192119
 21
1654.236852992063
 31
0.0
 11
452.7004575825208
 21
1654.237714845457
 31
0.0
 11
454.5753845324932
 21
1654.23858836297
 31
0.0
 11
456.4749973154699
 21
1654.239473381469
 31
0.0
 11
458.3989457777909
 21
1654.240369737819
 31
0.0
 11
460.3468797657967
 21
1654.241277268885
 31
0.0
 11
462.3184491258277
 21
1654.242195811532
 31
0.0
 11
464.3133037042243
 21
1654.243125202627
 31
0.0
 11
466.3310933473268
 21
1654.244065279035
 31
0.0
 11
468.3714679014756
 21
1654.24501587762
 31
0.0
 11
470.4340772130109
 21
1654.24597683525
 31
0.0
 11
472.5185711282733
 21
1654.246947988788
 31
0.0
 11
474.6245994936032
 21
1654.247929175101
 31
0.0
 11
476.7518121553407
 21
1654.248920231054
 31
0.0
 11
478.8998589598264
 21
1654.249920993512
 31
0.0
 11
481.0683897534005
 21
1654.250931299341
 31
0.0
 11
483.2570543824035
 21
1654.251950985406
 31
0.0
 11
485.4655026931758
 21
1654.252979888574
 31
0.0
 11
487.6933845320577
 21
1654.254017845708
 31
0.0
 11
489.9403497453894
 21
1654.255064693675
 31
0.0
 11
492.2060481795115
 21
1654.25612026934
 31
0.0
 11
494.4901296807643
 21
1654.257184409569
 31
0.0
 11
496.7922440954882
 21
1654.258256951227
 31
0.0
 11
499.1120412700235
 21
1654.259337731179
 31
0.0
 11
501.4491710507106
 21
1654.260426586291
 31
0.0
 11
503.8032832838898
 21
1654.261523353429
 31
0.0
 11
506.1740278159016
 21
1654.262627869457
 31
0.0
 11
508.5610544930863
 21
1654.263739971242
 31
0.0
 11
510.9640131617842
 21
1654.264859495649
 31
0.0
 11
513.3825536683359
 21
1654.265986279543
 31
0.0
 11
515.8163258590814
 21
1654.26712015979
 31
0.0
 11
518.2649795803613
 21
1654.268260973254
 31
0.0
 11
520.728164678516
 21
1654.269408556802
 31
0.0
 11
523.2055309998858
 21
1654.2705627473
 31
0.0
 11
525.6967283908111
 21
1654.271723381612
 31
0.0
 11
528.2014066976324
 21
1654.272890296603
 31
0.0
 11
530.7192157666897
 21
1654.274063329141
 31
0.0
 11
533.2498054443236
 21
1654.275242316089
 31
0.0
 11
535.7928255768744
 21
1654.276427094313
 31
0.0
 11
538.3479260106826
 21
1654.277617500679
 31
0.0
 11
540.9147565920885
 21
1654.278813372053
 31
0.0
 11
543.4929671674323
 21
1654.280014545299
 31
0.0
 11
546.0822075830547
 21
1654.281220857283
 31
0.0
 11
548.6821276852957
 21
1654.282432144871
 31
0.0
 11
551.292377320496
 21
1654.283648244928
 31
0.0
 11
553.9126063349958
 21
1654.28486899432
 31
0.0
 11
556.5424645751355
 21
1654.286094229912
 31
0.0
 11
559.1816018872553
 21
1654.287323788568
 31
0.0
 11
561.8296681176959
 21
1654.288557507156
 31
0.0
 11
564.4863131127974
 21
1654.289795222541
 31
0.0
 11
567.1511867189001
 21
1654.291036771586
 31
0.0
 11
569.8239387823447
 21
1654.292281991159
 31
0.0
 11
572.5042191494715
 21
1654.293530718126
 31
0.0
 11
575.1916776666208
 21
1654.29478278935
 31
0.0
 11
577.8859641801328
 21
1654.296038041697
 31
0.0
 11
580.5867285363479
 21
1654.297296312034
 31
0.0
 11
583.2936205816067
 21
1654.298557437225
 31
0.0
 11
586.0062901622491
 21
1654.299821254137
 31
0.0
 11
588.7243871246162
 21
1654.301087599633
 31
0.0
 11
591.4475613150479
 21
1654.302356310581
 31
0.0
 11
594.1754625798845
 21
1654.303627223845
 31
0.0
 11
596.9077407654667
 21
1654.304900176291
 31
0.0
 11
599.6440457181346
 21
1654.306175004784
 31
0.0
 11
602.3840272842285
 21
1654.30745154619
 31
0.0
 11
605.1273353100891
 21
1654.308729637374
 31
0.0
 11
607.8736196420564
 21
1654.310009115201
 31
0.0
 11
610.622530126471
 21
1654.311289816538
 31
0.0
 11
613.3737166096734
 21
1654.312571578249
 31
0.0
 11
616.1268289380034
 21
1654.3138542372
 31
0.0
 11
618.881516957802
 21
1654.315137630257
 31
0.0
 11
621.6374305154092
 21
1654.316421594285
 31
0.0
 11
624.3942194571656
 21
1654.317705966148
 31
0.0
 11
627.1515336294114
 21
1654.318990582714
 31
0.0
 11
629.9090228784869
 21
1654.320275280847
 31
0.0
 11
632.6663370507328
 21
1654.321559897413
 31
0.0
 11
635.4231259924892
 21
1654.322844269277
 31
0.0
 11
638.1790395500964
 21
1654.324128233305
 31
0.0
 11
640.9337275698948
 21
1654.325411626361
 31
0.0
 11
643.6868398982251
 21
1654.326694285312
 31
0.0
 11
646.4380263814273
 21
1654.327976047024
 31
0.0
 11
649.1869368658419
 21
1654.32925674836
 31
0.0
 11
651.9332211978093
 21
1654.330536226188
 31
0.0
 11
654.6765292236697
 21
1654.331814317372
 31
0.0
 11
657.4165107897638
 21
1654.333090858777
 31
0.0
 11
660.1528157424316
 21
1654.33436568727
 31
0.0
 11
662.8850939280137
 21
1654.335638639716
 31
0.0
 11
665.6129951928504
 21
1654.33690955298
 31
0.0
 11
668.336169383282
 21
1654.338178263928
 31
0.0
 11
671.054266345649
 21
1654.339444609425
 31
0.0
 11
673.7669359262916
 21
1654.340708426336
 31
0.0
 11
676.4738279715505
 21
1654.341969551527
 31
0.0
 11
679.1745923277656
 21
1654.343227821864
 31
0.0
 11
681.8688788412776
 21
1654.344483074211
 31
0.0
 11
684.5563373584268
 21
1654.345735145436
 31
0.0
 11
687.2366177255535
 21
1654.346983872402
 31
0.0
 11
689.9093697889981
 21
1654.348229091975
 31
0.0
 11
692.574243395101
 21
1654.349470641021
 31
0.0
 11
695.2308883902025
 21
1654.350708356405
 31
0.0
 11
697.8789546206431
 21
1654.351942074993
 31
0.0
 11
700.518091932763
 21
1654.35317163365
 31
0.0
 11
703.1479501729026
 21
1654.354396869241
 31
0.0
 11
705.7681791874024
 21
1654.355617618633
 31
0.0
 11
708.3784288226026
 21
1654.35683371869
 31
0.0
 11
710.9783489248437
 21
1654.358045006278
 31
0.0
 11
713.5675893404659
 21
1654.359251318262
 31
0.0
 11
716.1457999158099
 21
1654.360452491508
 31
0.0
 11
718.7126304972157
 21
1654.361648362882
 31
0.0
 11
721.267730931024
 21
1654.362838769248
 31
0.0
 11
723.8107510635747
 21
1654.364023547473
 31
0.0
 11
726.3413407412087
 21
1654.365202534421
 31
0.0
 11
728.859149810266
 21
1654.366375566958
 31
0.0
 11
731.3638281170871
 21
1654.36754248195
 31
0.0
 11
733.8550255080124
 21
1654.368703116262
 31
0.0
 11
736.3323918293822
 21
1654.369857306759
 31
0.0
 11
738.7955769275369
 21
1654.371004890307
 31
0.0
 11
741.2442306488168
 21
1654.372145703772
 31
0.0
 11
743.6780028395624
 21
1654.373279584019
 31
0.0
 11
746.096543346114
 21
1654.374406367912
 31
0.0
 11
748.4995020148119
 21
1654.375525892319
 31
0.0
 11
750.8865286919966
 21
1654.376637994104
 31
0.0
 11
753.2572732240085
 21
1654.377742510132
 31
0.0
 11
755.6113854571877
 21
1654.37883927727
 31
0.0
 11
757.9485152378747
 21
1654.379928132382
 31
0.0
 11
760.2683124124101
 21
1654.381008912334
 31
0.0
 11
762.570426827134
 21
1654.382081453992
 31
0.0
 11
764.8545083283867
 21
1654.383145594221
 31
0.0
 11
767.1202067625088
 21
1654.384201169886
 31
0.0
 11
769.3671719758407
 21
1654.385248017853
 31
0.0
 11
771.5950538147226
 21
1654.386285974988
 31
0.0
 11
773.8035021254947
 21
1654.387314878155
 31
0.0
 11
775.9921667544977
 21
1654.38833456422
 31
0.0
 11
778.160697548072
 21
1654.389344870049
 31
0.0
 11
780.3087443525576
 21
1654.390345632507
 31
0.0
 11
782.4359570142951
 21
1654.39133668846
 31
0.0
 11
784.5419853796249
 21
1654.392317874773
 31
0.0
 11
786.6264792948873
 21
1654.393289028311
 31
0.0
 11
788.6890886064227
 21
1654.394249985941
 31
0.0
 11
790.7294631605715
 21
1654.395200584526
 31
0.0
 11
792.747252803674
 21
1654.396140660934
 31
0.0
 11
794.7421073820705
 21
1654.397070052029
 31
0.0
 11
796.7136767421016
 21
1654.397988594677
 31
0.0
 11
798.6616107301074
 21
1654.398896125743
 31
0.0
 11
800.5855591924285
 21
1654.399792482092
 31
0.0
 11
802.485171975405
 21
1654.400677500591
 31
0.0
 11
804.3600989253775
 21
1654.401551018105
 31
0.0
 11
806.2099898886863
 21
1654.402412871498
 31
0.0
 11
808.0344947116719
 21
1654.403262897637
 31
0.0
 11
809.8332632406745
 21
1654.404100933387
 31
0.0
 11
811.6059453220344
 21
1654.404926815613
 31
0.0
 11
813.3521908020921
 21
1654.405740381182
 31
0.0
 11
815.0716495271877
 21
1654.406541466957
 31
0.0
 11
816.7639713436621
 21
1654.407329909806
 31
0.0
 11
818.4288060978552
 21
1654.408105546593
 31
0.0
 11
820.0658036361076
 21
1654.408868214183
 31
0.0
 11
821.6746138047596
 21
1654.409617749442
 31
0.0
 11
823.2548864501516
 21
1654.410353989237
 31
0.0
 11
824.806271418624
 21
1654.411076770431
 31
0.0
 11
826.328418556517
 21
1654.411785929891
 31
0.0
 11
827.8209777101711
 21
1654.412481304481
 31
0.0
 11
829.2835987259267
 21
1654.413162731069
 31
0.0
 11
830.715931450124
 21
1654.413830046518
 31
0.0
 11
832.1176257291036
 21
1654.414483087694
 31
0.0
 11
833.4883314092057
 21
1654.415121691463
 31
0.0
 11
834.8276983367706
 21
1654.415745694691
 31
0.0
 11
836.1353763581388
 21
1654.416354934242
 31
0.0
 11
837.4110153196507
 21
1654.416949246983
 31
0.0
 11
838.6542650676468
 21
1654.417528469778
 31
0.0
 11
839.8647754484671
 21
1654.418092439493
 31
0.0
 11
841.0421963084522
 21
1654.418640992994
 31
0.0
 11
842.1861774939423
 21
1654.419173967145
 31
0.0
 11
843.296368851278
 21
1654.419691198813
 31
0.0
 11
844.3724202267996
 21
1654.420192524863
 31
0.0
 11
845.4139814668473
 21
1654.420677782161
 31
0.0
 11
846.4207024177616
 21
1654.421146807571
 31
0.0
 11
847.3922329258829
 21
1654.421599437959
 31
0.0
 11
848.3282228375515
 21
1654.422035510191
 31
0.0
 11
849.228321999108
 21
1654.422454861132
 31
0.0
 11
850.0921802568923
 21
1654.422857327648
 31
0.0
 11
850.9194474572452
 21
1654.423242746605
 31
0.0
 11
851.7097734465067
 21
1654.423610954866
 31
0.0
 11
852.4628080710176
 21
1654.423961789299
 31
0.0
 11
853.1782011771179
 21
1654.424295086768
 31
0.0
 11
853.855602611148
 21
1654.424610684139
 31
0.0
 11
854.4946622194485
 21
1654.424908418277
 31
0.0
 11
855.0950298483597
 21
1654.425188126048
 31
0.0
 11
855.6563553442219
 21
1654.425449644318
 31
0.0
 11
856.1782885533754
 21
1654.425692809951
 31
0.0
 11
856.6604793221607
 21
1654.425917459814
 31
0.0
 11
857.102577496918
 21
1654.426123430771
 31
0.0
 11
857.5042329239877
 21
1654.426310559688
 31
0.0
 11
857.8650954497105
 21
1654.426478683431
 31
0.0
 11
858.1848149204263
 21
1654.426627638864
 31
0.0
 11
858.4630411824758
 21
1654.426757262854
 31
0.0
 11
858.6994240821992
 21
1654.426867392267
 31
0.0
 11
858.8936134659368
 21
1654.426957863966
 31
0.0
 11
859.0452591800294
 21
1654.427028514819
 31
0.0
 11
859.1540110708169
 21
1654.427079181689
 31
0.0
 11
859.2195189846397
 21
1654.427109701443
 31
0.0
 11
859.2414327678383
 21
1654.427119910947
 31
0.0
 11
859.6715960353272
 21
1654.575745109211
 31
0.0
 11
860.0828249959039
 21
1654.761692261519
 31
0.0
 11
860.4731317958245
 21
1654.982923817784
 31
0.0
 11
860.840528581345
 21
1655.237402227918
 31
0.0
 11
861.1830274987211
 21
1655.523089941834
 31
0.0
 11
861.4986406942089
 21
1655.837949409444
 31
0.0
 11
861.7853803140645
 21
1656.179943080661
 31
0.0
 11
862.0412585045435
 21
1656.547033405395
 31
0.0
 11
862.2642874119022
 21
1656.937182833561
 31
0.0
 11
862.4524791823963
 21
1657.348353815071
 31
0.0
 11
862.6038459622818
 21
1657.778508799836
 31
0.0
 11
863.7042265783803
 21
1661.511836135325
 31
0.0
 11
864.7637260248143
 21
1665.255488780621
 31
0.0
 11
865.7822938932375
 21
1669.009130680075
 31
0.0
 11
866.7598797753014
 21
1672.772425778037
 31
0.0
 11
867.6964332626594
 21
1676.54503801886
 31
0.0
 11
868.5919039469637
 21
1680.326631346893
 31
0.0
 11
869.4462414198679
 21
1684.11686970649
 31
0.0
 11
870.2593952730236
 21
1687.915417042002
 31
0.0
 11
871.0313150980842
 21
1691.721937297778
 31
0.0
 11
871.7619504867021
 21
1695.536094418171
 31
0.0
 11
872.4512510305302
 21
1699.357552347532
 31
0.0
 11
873.0991663212209
 21
1703.185975030212
 31
0.0
 11
873.7056459504271
 21
1707.021026410562
 31
0.0
 11
874.2706395098016
 21
1710.862370432935
 31
0.0
 11
874.794096590997
 21
1714.709671041681
 31
0.0
 11
875.2759667856658
 21
1718.562592181151
 31
0.0
 11
875.716199685461
 21
1722.420797795698
 31
0.0
 11
876.114744882035
 21
1726.283951829671
 31
0.0
 11
876.4715519670408
 21
1730.151718227422
 31
0.0
 11
876.7865705321308
 21
1734.023760933304
 31
0.0
 11
877.0597501689576
 21
1737.899743891666
 31
0.0
 11
877.2910404691747
 21
1741.779331046861
 31
0.0
 11
877.4803910244339
 21
1745.662186343239
 31
0.0
 11
877.6277514263882
 21
1749.547973725152
 31
0.0
 11
877.7330712666902
 21
1753.436357136951
 31
0.0
 11
877.7963001369928
 21
1757.327000522987
 31
0.0
 11
877.8173876289487
 21
1761.219567827613
 31
0.0
 11
877.7972952499158
 21
1761.790521659215
 31
0.0
 11
877.7379241952984
 21
1762.350678611964
 31
0.0
 11
877.6406335888197
 21
1762.898682280385
 31
0.0
 11
877.5067825542018
 21
1763.433176259003
 31
0.0
 11
877.3377302151678
 21
1763.952804142343
 31
0.0
 11
877.13483569544
 21
1764.45620952493
 31
0.0
 11
876.8994581187412
 21
1764.942036001288
 31
0.0
 11
876.6329566087941
 21
1765.408927165942
 31
0.0
 11
876.336690289321
 21
1765.855526613417
 31
0.0
 11
876.012018284045
 21
1766.280477938238
 31
0.0
 11
875.6602997166884
 21
1766.68242473493
 31
0.0
 11
875.2828937109739
 21
1767.060010598017
 31
0.0
 11
874.8811593906241
 21
1767.411879122024
 31
0.0
 11
874.456455879362
 21
1767.736673901476
 31
0.0
 11
874.0101423009098
 21
1768.033038530898
 31
0.0
 11
873.5435777789903
 21
1768.299616604815
 31
0.0
 11
873.0581214373262
 21
1768.535051717752
 31
0.0
 11
872.5551323996401
 21
1768.737987464232
 31
0.0
 11
872.0359697896546
 21
1768.907067438782
 31
0.0
 11
871.5019927310923
 21
1769.040935235925
 31
0.0
 11
870.9545603476759
 21
1769.138234450188
 31
0.0
 11
870.3950317631279
 21
1769.197608676094
 31
0.0
 11
869.8247661011714
 21
1769.217701508168
 31
0.0
 11
869.8192539483938
 21
1769.217701508168
 31
0.0
 11
869.8137417956162
 21
1769.217701508168
 31
0.0
 11
869.7921944549576
 21
1769.217701508168
 31
0.0
 11
869.7286099711733
 21
1769.217701508168
 31
0.0
 11
869.6245746515517
 21
1769.217701508168
 31
0.0
 11
869.4816748033799
 21
1769.217701508168
 31
0.0
 11
869.3014967339458
 21
1769.217701508168
 31
0.0
 11
869.0856267505374
 21
1769.217701508168
 31
0.0
 11
868.8356511604421
 21
1769.217701508168
 31
0.0
 11
868.553156270948
 21
1769.217701508168
 31
0.0
 11
868.2397283893428
 21
1769.217701508168
 31
0.0
 11
867.8969538229139
 21
1769.217701508168
 31
0.0
 11
867.5264188789495
 21
1769.217701508168
 31
0.0
 11
867.1297098647372
 21
1769.217701508168
 31
0.0
 11
866.7084130875646
 21
1769.217701508168
 31
0.0
 11
866.2641148547197
 21
1769.217701508168
 31
0.0
 11
865.7984014734899
 21
1769.217701508168
 31
0.0
 11
865.3128592511633
 21
1769.217701508168
 31
0.0
 11
864.8090744950274
 21
1769.217701508168
 31
0.0
 11
864.2886335123703
 21
1769.217701508168
 31
0.0
 11
863.7531226104796
 21
1769.217701508168
 31
0.0
 11
863.2041280966429
 21
1769.217701508168
 31
0.0
 11
862.6432362781479
 21
1769.217701508168
 31
0.0
 11
862.0720334622828
 21
1769.217701508168
 31
0.0
 11
861.4921059563349
 21
1769.217701508168
 31
0.0
 11
860.9050400675919
 21
1769.217701508168
 31
0.0
 11
860.3124221033421
 21
1769.217701508168
 31
0.0
 11
859.7158383708727
 21
1769.217701508168
 31
0.0
 11
859.1168751774717
 21
1769.217701508168
 31
0.0
 11
858.5171188304269
 21
1769.217701508168
 31
0.0
 11
857.9181556370259
 21
1769.217701508168
 31
0.0
 11
857.3215719045566
 21
1769.217701508168
 31
0.0
 11
856.7289539403067
 21
1769.217701508168
 31
0.0
 11
856.1418880515638
 21
1769.217701508168
 31
0.0
 11
855.5619605456159
 21
1769.217701508168
 31
0.0
 11
854.9907577297505
 21
1769.217701508168
 31
0.0
 11
854.4298659112558
 21
1769.217701508168
 31
0.0
 11
853.8808713974189
 21
1769.217701508168
 31
0.0
 11
853.345360495528
 21
1769.217701508168
 31
0.0
 11
852.8249195128709
 21
1769.217701508168
 31
0.0
 11
852.3211347567353
 21
1769.217701508168
 31
0.0
 11
851.8355925344085
 21
1769.217701508168
 31
0.0
 11
851.369879153179
 21
1769.217701508168
 31
0.0
 11
850.9255809203339
 21
1769.217701508168
 31
0.0
 11
850.5042841431614
 21
1769.217701508168
 31
0.0
 11
850.1075751289491
 21
1769.217701508168
 31
0.0
 11
849.7370401849846
 21
1769.217701508168
 31
0.0
 11
849.3942656185559
 21
1769.217701508168
 31
0.0
 11
849.0808377369505
 21
1769.217701508168
 31
0.0
 11
848.7983428474563
 21
1769.217701508168
 31
0.0
 11
848.5483672573613
 21
1769.217701508168
 31
0.0
 11
848.3324972739526
 21
1769.217701508168
 31
0.0
 11
848.1523192045188
 21
1769.217701508168
 31
0.0
 11
848.0094193563469
 21
1769.217701508168
 31
0.0
 11
847.905384036725
 21
1769.217701508168
 31
0.0
 11
847.8417995529409
 21
1769.217701508168
 31
0.0
 11
847.8202522122823
 21
1769.217701508168
 31
0.0
 11
847.7983613703199
 21
1769.217696413408
 31
0.0
 11
847.732924864292
 21
1769.217681184059
 31
0.0
 11
847.6242967239878
 21
1769.217655902515
 31
0.0
 11
847.4728309791964
 21
1769.217620651172
 31
0.0
 11
847.2788816597071
 21
1769.217575512424
 31
0.0
 11
847.0428027953089
 21
1769.217520568668
 31
0.0
 11
846.764948415791
 21
1769.217455902297
 31
0.0
 11
846.4456725509426
 21
1769.217381595706
 31
0.0
 11
846.0853292305527
 21
1769.217297731291
 31
0.0
 11
845.6842724844107
 21
1769.217204391447
 31
0.0
 11
845.2428563423055
 21
1769.217101658569
 31
0.0
 11
844.7614348340262
 21
1769.216989615052
 31
0.0
 11
844.2403619893622
 21
1769.216868343291
 31
0.0
 11
843.6799918381028
 21
1769.216737925681
 31
0.0
 11
843.0806784100366
 21
1769.216598444616
 31
0.0
 11
842.4427757349531
 21
1769.216449982493
 31
0.0
 11
841.7666378426416
 21
1769.216292621706
 31
0.0
 11
841.0526187628909
 21
1769.216126444649
 31
0.0
 11
840.3010725254903
 21
1769.215951533719
 31
0.0
 11
839.5123531602289
 21
1769.21576797131
 31
0.0
 11
838.6868146968959
 21
1769.215575839818
 31
0.0
 11
837.8248111652805
 21
1769.215375221636
 31
0.0
 11
836.9266965951717
 21
1769.215166199161
 31
0.0
 11
835.992825016359
 21
1769.214948854787
 31
0.0
 11
835.0235504586312
 21
1769.214723270909
 31
0.0
 11
834.0192269517775
 21
1769.214489529923
 31
0.0
 11
832.9802085255872
 21
1769.214247714223
 31
0.0
 11
831.9068492098489
 21
1769.213997906205
 31
0.0
 11
830.7995030343528
 21
1769.213740188263
 31
0.0
 11
829.6585240288872
 21
1769.213474642793
 31
0.0
 11
828.4842662232416
 21
1769.213201352189
 31
0.0
 11
827.2770836472048
 21
1769.212920398847
 31
0.0
 11
826.0373303305664
 21
1769.212631865162
 31
0.0
 11
824.7653603031154
 21
1769.212335833528
 31
0.0
 11
823.4615275946409
 21
1769.212032386341
 31
0.0
 11
822.1261862349317
 21
1769.211721605995
 31
0.0
 11
820.7596902537777
 21
1769.211403574887
 31
0.0
 11
819.3623936809673
 21
1769.21107837541
 31
0.0
 11
817.9346505462904
 21
1769.21074608996
 31
0.0
 11
816.4768148795355
 21
1769.210406800932
 31
0.0
 11
814.989240710492
 21
1769.210060590721
 31
0.0
 11
813.4722820689494
 21
1769.209707541722
 31
0.0
 11
811.9262929846957
 21
1769.20934773633
 31
0.0
 11
810.3516274875213
 21
1769.20898125694
 31
0.0
 11
808.7486396072152
 21
1769.208608185947
 31
0.0
 11
807.1176833735659
 21
1769.208228605746
 31
0.0
 11
805.4591128163631
 21
1769.207842598732
 31
0.0
 11
803.7732819653958
 21
1769.207450247301
 31
0.0
 11
802.060544850453
 21
1769.207051633846
 31
0.0
 11
800.3212555013239
 21
1769.206646840764
 31
0.0
 11
798.5557679477973
 21
1769.20623595045
 31
0.0
 11
796.7644362196631
 21
1769.205819045297
 31
0.0
 11
794.9476143467103
 21
1769.205396207702
 31
0.0
 11
793.1056563587277
 21
1769.204967520059
 31
0.0
 11
791.2389162855046
 21
1769.204533064764
 31
0.0
 11
789.3477481568302
 21
1769.204092924211
 31
0.0
 11
787.4325060024937
 21
1769.203647180796
 31
0.0
 11
785.493543852284
 21
1769.203195916913
 31
0.0
 11
783.5312157359901
 21
1769.202739214958
 31
0.0
 11
781.5458756834019
 21
1769.202277157326
 31
0.0
 11
779.5378777243079
 21
1769.201809826411
 31
0.0
 11
777.5075758884975
 21
1769.201337304609
 31
0.0
 11
775.4553242057599
 21
1769.200859674314
 31
0.0
 11
773.3814767058841
 21
1769.200377017923
 31
0.0
 11
771.2863874186593
 21
1769.199889417829
 31
0.0
 11
769.1704103738747
 21
1769.199396956428
 31
0.0
 11
767.0338996013189
 21
1769.198899716115
 31
0.0
 11
764.8772091307819
 21
1769.198397779285
 31
0.0
 11
762.7006929920526
 21
1769.197891228332
 31
0.0
 11
760.5047052149203
 21
1769.197380145654
 31
0.0
 11
758.2895998291735
 21
1769.196864613642
 31
0.0
 11
756.0557308646019
 21
1769.196344714694
 31
0.0
 11
753.8034523509946
 21
1769.195820531204
 31
0.0
 11
751.5331183181399
 21
1769.195292145567
 31
0.0
 11
749.2450827958284
 21
1769.194759640179
 31
0.0
 11
746.9396998138486
 21
1769.194223097433
 31
0.0
 11
744.6173234019894
 21
1769.193682599726
 31
0.0
 11
742.2783075900402
 21
1769.193138229452
 31
0.0
 11
739.9230064077901
 21
1769.192590069006
 31
0.0
 11
737.5517738850285
 21
1769.192038200784
 31
0.0
 11
735.1649640515442
 21
1769.19148270718
 31
0.0
 11
732.7629309371257
 21
1769.190923670589
 31
0.0
 11
730.3460285715637
 21
1769.190361173407
 31
0.0
 11
727.9146109846464
 21
1769.189795298029
 31
0.0
 11
725.4690322061631
 21
1769.189226126849
 31
0.0
 11
723.0096462659029
 21
1769.188653742262
 31
0.0
 11
720.536807193655
 21
1769.188078226665
 31
0.0
 11
718.0508690192087
 21
1769.187499662451
 31
0.0
 11
715.5521857723524
 21
1769.186918132015
 31
0.0
 11
713.0411114828763
 21
1769.186333717754
 31
0.0
 11
710.5180001805693
 21
1769.18574650206
 31
0.0
 11
707.98320589522
 21
1769.185156567331
 31
0.0
 11
705.4370826566183
 21
1769.184563995961
 31
0.0
 11
702.8799844945528
 21
1769.183968870344
 31
0.0
 11
700.3122654388126
 21
1769.183371272877
 31
0.0
 11
697.7342795191872
 21
1769.182771285953
 31
0.0
 11
695.1463807654657
 21
1769.182168991968
 31
0.0
 11
692.5489232074365
 21
1769.181564473318
 31
0.0
 11
689.9422608748901
 21
1769.180957812396
 31
0.0
 11
687.3267477976145
 21
1769.180349091598
 31
0.0
 11
684.7027380053997
 21
1769.17973839332
 31
0.0
 11
682.0705855280345
 21
1769.179125799956
 31
0.0
 11
679.4306443953078
 21
1769.178511393901
 31
0.0
 11
676.783268637009
 21
1769.17789525755
 31
0.0
 11
674.1288122829266
 21
1769.177277473299
 31
0.0
 11
671.4676293628512
 21
1769.176658123542
 31
0.0
 11
668.8000739065707
 21
1769.176037290673
 31
0.0
 11
666.1264999438748
 21
1769.17541505709
 31
0.0
 11
663.4472615045526
 21
1769.174791505186
 31
0.0
 11
660.762712618393
 21
1769.174166717356
 31
0.0
 11
658.0732073151853
 21
1769.173540775996
 31
0.0
 11
655.3790996247187
 21
1769.1729137635
 31
0.0
 11
652.6807435767819
 21
1769.172285762264
 31
0.0
 11
649.9784932011647
 21
1769.171656854683
 31
0.0
 11
647.2727025276564
 21
1769.171027123151
 31
0.0
 11
644.5637255860454
 21
1769.170396650064
 31
0.0
 11
641.8519164061213
 21
1769.169765517816
 31
0.0
 11
639.1376290176731
 21
1769.169133808804
 31
0.0
 11
636.4212174504902
 21
1769.168501605421
 31
0.0
 11
633.7030357343608
 21
1769.167868990063
 31
0.0
 11
630.9834378990754
 21
1769.167236045124
 31
0.0
 11
628.2627779744225
 21
1769.166602853001
 31
0.0
 11
625.5414099901914
 21
1769.165969496087
 31
0.0
 11
622.8196879761712
 21
1769.165336056779
 31
0.0
 11
620.0979659621509
 21
1769.164702617471
 31
0.0
 11
617.3765979779197
 21
1769.164069260557
 31
0.0
 11
614.6559380532669
 21
1769.163436068434
 31
0.0
 11
611.9363402179815
 21
1769.162803123496
 31
0.0
 11
609.2181585018521
 21
1769.162170508137
 31
0.0
 11
606.5017469346691
 21
1769.161538304755
 31
0.0
 11
603.787459546221
 21
1769.160906595741
 31
0.0
 11
601.0756503662968
 21
1769.160275463494
 31
0.0
 11
598.3666734246862
 21
1769.159644990407
 31
0.0
 11
595.6608827511776
 21
1769.159015258875
 31
0.0
 11
592.9586323755605
 21
1769.158386351294
 31
0.0
 11
590.2602763276235
 21
1769.157758350058
 31
0.0
 11
587.5661686371569
 21
1769.157131337562
 31
0.0
 11
584.8766633339493
 21
1769.156505396202
 31
0.0
 11
582.1921144477897
 21
1769.155880608372
 31
0.0
 11
579.5128760084674
 21
1769.155257056468
 31
0.0
 11
576.8393020457716
 21
1769.154634822885
 31
0.0
 11
574.1717465894913
 21
1769.154013990017
 31
0.0
 11
571.5105636694156
 21
1769.153394640259
 31
0.0
 11
568.8561073153339
 21
1769.152776856008
 31
0.0
 11
566.2087315570345
 21
1769.152160719657
 31
0.0
 11
563.5687904243079
 21
1769.151546313602
 31
0.0
 11
560.9366379469425
 21
1769.150933720238
 31
0.0
 11
558.3126281547276
 21
1769.150323021959
 31
0.0
 11
555.6971150774524
 21
1769.149714301162
 31
0.0
 11
553.0904527449059
 21
1769.14910764024
 31
0.0
 11
550.4929951868767
 21
1769.14850312159
 31
0.0
 11
547.905096433155
 21
1769.147900827605
 31
0.0
 11
545.3271105135297
 21
1769.147300840681
 31
0.0
 11
542.7593914577897
 21
1769.146703243214
 31
0.0
 11
540.202293295724
 21
1769.146108117597
 31
0.0
 11
537.6561700571222
 21
1769.145515546227
 31
0.0
 11
535.1213757717731
 21
1769.144925611498
 31
0.0
 11
532.5982644694659
 21
1769.144338395804
 31
0.0
 11
530.0871901799899
 21
1769.143753981543
 31
0.0
 11
527.5885069331337
 21
1769.143172451107
 31
0.0
 11
525.1025687586872
 21
1769.142593886893
 31
0.0
 11
522.6297296864393
 21
1769.142018371296
 31
0.0
 11
520.1703437461792
 21
1769.141445986709
 31
0.0
 11
517.7247649676959
 21
1769.140876815529
 31
0.0
 11
515.2933473807786
 21
1769.140310940151
 31
0.0
 11
512.8764450152165
 21
1769.139748442969
 31
0.0
 11
510.4744119007982
 21
1769.139189406378
 31
0.0
 11
508.0876020673138
 21
1769.138633912774
 31
0.0
 11
505.716369544552
 21
1769.138082044552
 31
0.0
 11
503.3610683623019
 21
1769.137533884106
 31
0.0
 11
501.0220525503528
 21
1769.136989513832
 31
0.0
 11
498.6996761384938
 21
1769.136449016125
 31
0.0
 11
496.3942931565139
 21
1769.135912473379
 31
0.0
 11
494.1062576342023
 21
1769.135379967991
 31
0.0
 11
491.8359236013482
 21
1769.134851582354
 31
0.0
 11
489.5836450877403
 21
1769.134327398864
 31
0.0
 11
487.3497761231687
 21
1769.133807499916
 31
0.0
 11
485.1346707374221
 21
1769.133291967905
 31
0.0
 11
482.9386829602895
 21
1769.132780885225
 31
0.0
 11
480.7621668215603
 21
1769.132274334273
 31
0.0
 11
478.6054763510234
 21
1769.131772397443
 31
0.0
 11
476.4689655784677
 21
1769.13127515713
 31
0.0
 11
474.3529885336829
 21
1769.130782695729
 31
0.0
 11
472.2578992464581
 21
1769.130295095635
 31
0.0
 11
470.1840517465823
 21
1769.129812439244
 31
0.0
 11
468.1318000638447
 21
1769.129334808949
 31
0.0
 11
466.1014982280344
 21
1769.128862287147
 31
0.0
 11
464.0935002689405
 21
1769.128394956232
 31
0.0
 11
462.1081602163521
 21
1769.1279328986
 31
0.0
 11
460.1458321000587
 21
1769.127476196645
 31
0.0
 11
458.2068699498485
 21
1769.127024932762
 31
0.0
 11
456.2916277955119
 21
1769.126579189347
 31
0.0
 11
454.4004596668376
 21
1769.126139048794
 31
0.0
 11
452.5337195936146
 21
1769.125704593499
 31
0.0
 11
450.691761605632
 21
1769.125275905856
 31
0.0
 11
448.8749397326791
 21
1769.124853068261
 31
0.0
 11
447.0836080045449
 21
1769.124436163108
 31
0.0
 11
445.3181204510184
 21
1769.124025272794
 31
0.0
 11
443.5788311018894
 21
1769.123620479712
 31
0.0
 11
441.8660939869466
 21
1769.123221866258
 31
0.0
 11
440.1802631359792
 21
1769.122829514826
 31
0.0
 11
438.5216925787763
 21
1769.122443507812
 31
0.0
 11
436.8907363451272
 21
1769.122063927611
 31
0.0
 11
435.2877484648208
 21
1769.121690856618
 31
0.0
 11
433.7130829676465
 21
1769.121324377228
 31
0.0
 11
432.1670938833934
 21
1769.120964571836
 31
0.0
 11
430.6501352418502
 21
1769.120611522837
 31
0.0
 11
429.1625610728067
 21
1769.120265312626
 31
0.0
 11
427.704725406052
 21
1769.119926023598
 31
0.0
 11
426.2769822713749
 21
1769.119593738148
 31
0.0
 11
424.8796856985648
 21
1769.119268538671
 31
0.0
 11
423.5131897174107
 21
1769.118950507563
 31
0.0
 11
422.1778483577015
 21
1769.118639727217
 31
0.0
 11
420.8740156492269
 21
1769.11833628003
 31
0.0
 11
419.6020456217759
 21
1769.118040248397
 31
0.0
 11
418.3622923051374
 21
1769.117751714711
 31
0.0
 11
417.1551097291008
 21
1769.117470761369
 31
0.0
 11
415.9808519234551
 21
1769.117197470765
 31
0.0
 11
414.8398729179896
 21
1769.116931925295
 31
0.0
 11
413.7325267424932
 21
1769.116674207353
 31
0.0
 11
412.6591674267553
 21
1769.116424399335
 31
0.0
 11
411.6201490005647
 21
1769.116182583635
 31
0.0
 11
410.615825493711
 21
1769.115948842649
 31
0.0
 11
409.6465509359832
 21
1769.115723258771
 31
0.0
 11
408.7126793571704
 21
1769.115505914397
 31
0.0
 11
407.8145647870617
 21
1769.115296891922
 31
0.0
 11
406.9525612554463
 21
1769.115096273741
 31
0.0
 11
406.1270227921135
 21
1769.114904142248
 31
0.0
 11
405.338303426852
 21
1769.114720579839
 31
0.0
 11
404.5867571894513
 21
1769.114545668909
 31
0.0
 11
403.8727381097007
 21
1769.114379491853
 31
0.0
 11
403.1966002173891
 21
1769.114222131065
 31
0.0
 11
402.5586975423056
 21
1769.114073668942
 31
0.0
 11
401.9593841142396
 21
1769.113934187878
 31
0.0
 11
401.39901396298
 21
1769.113803770267
 31
0.0
 11
400.8779411183161
 21
1769.113682498506
 31
0.0
 11
400.3965196100369
 21
1769.113570454989
 31
0.0
 11
399.9551034679316
 21
1769.11346772211
 31
0.0
 11
399.5540467217895
 21
1769.113374382267
 31
0.0
 11
399.1937034013997
 21
1769.113290517852
 31
0.0
 11
398.8744275365513
 21
1769.113216211262
 31
0.0
 11
398.5965731570335
 21
1769.11315154489
 31
0.0
 11
398.3604942926352
 21
1769.113096601133
 31
0.0
 11
398.1665449731459
 21
1769.113051462386
 31
0.0
 11
398.0150792283545
 21
1769.113016211043
 31
0.0
 11
397.9064510880504
 21
1769.112990929499
 31
0.0
 11
397.8410145820224
 21
1769.11297570015
 31
0.0
 11
397.81912374006
 21
1769.11297060539
 31
0.0
 11
397.81912374006
 21
1769.091168820207
 31
0.0
 11
397.81912374006
 21
1769.026135350119
 31
0.0
 11
397.81912374006
 21
1768.918428023318
 31
0.0
 11
397.81912374006
 21
1768.768604667997
 31
0.0
 11
397.81912374006
 21
1768.577223112348
 31
0.0
 11
397.81912374006
 21
1768.344841184564
 31
0.0
 11
397.8191237400599
 21
1768.072016712836
 31
0.0
 11
397.81912374006
 21
1767.759307525357
 31
0.0
 11
397.81912374006
 21
1767.40727145032
 31
0.0
 11
397.81912374006
 21
1767.016466315916
 31
0.0
 11
397.81912374006
 21
1766.587449950338
 31
0.0
 11
397.81912374006
 21
1766.120780181779
 31
0.0
 11
397.81912374006
 21
1765.61701483843
 31
0.0
 11
397.8191237400599
 21
1765.076711748484
 31
0.0
 11
397.81912374006
 21
1764.500428740134
 31
0.0
 11
397.8191237400599
 21
1763.888723641571
 31
0.0
 11
397.81912374006
 21
1763.242154280988
 31
0.0
 11
397.8191237400599
 21
1762.561278486577
 31
0.0
 11
397.81912374006
 21
1761.846654086531
 31
0.0
 11
397.81912374006
 21
1761.098838909041
 31
0.0
 11
397.81912374006
 21
1760.318390782301
 31
0.0
 11
397.81912374006
 21
1759.505867534503
 31
0.0
 11
397.81912374006
 21
1758.661826993838
 31
0.0
 11
397.81912374006
 21
1757.7868269885
 31
0.0
 11
397.81912374006
 21
1756.881425346679
 31
0.0
 11
397.81912374006
 21
1755.94617989657
 31
0.0
 11
397.81912374006
 21
1754.981648466364
 31
0.0
 11
397.81912374006
 21
1753.988388884253
 31
0.0
 11
397.81912374006
 21
1752.96695897843
 31
0.0
 11
397.81912374006
 21
1751.917916577088
 31
0.0
 11
397.81912374006
 21
1750.841819508417
 31
0.0
 11
397.81912374006
 21
1749.739225600612
 31
0.0
 11
397.81912374006
 21
1748.610692681863
 31
0.0
 11
397.81912374006
 21
1747.456778580364
 31
0.0
 11
397.81912374006
 21
1746.278041124306
 31
0.0
 11
397.81912374006
 21
1745.075038141883
 31
0.0
 11
397.81912374006
 21
1743.848327461286
 31
0.0
 11
397.8191237400599
 21
1742.598466910707
 31
0.0
 11
397.8191237400599
 21
1741.32601431834
 31
0.0
 11
397.8191237400599
 21
1740.031527512376
 31
0.0
 11
397.81912374006
 21
1738.715564321007
 31
0.0
 11
397.81912374006
 21
1737.378682572426
 31
0.0
 11
397.81912374006
 21
1736.021440094826
 31
0.0
 11
397.81912374006
 21
1734.644394716398
 31
0.0
 11
397.81912374006
 21
1733.248104265336
 31
0.0
 11
397.81912374006
 21
1731.83312656983
 31
0.0
 11
397.81912374006
 21
1730.400019458074
 31
0.0
 11
397.81912374006
 21
1728.94934075826
 31
0.0
 11
397.81912374006
 21
1727.48164829858
 31
0.0
 11
397.8191237400599
 21
1725.997499907227
 31
0.0
 11
397.81912374006
 21
1724.497453412392
 31
0.0
 11
397.81912374006
 21
1722.982066642269
 31
0.0
 11
397.81912374006
 21
1721.451897425049
 31
0.0
 11
397.81912374006
 21
1719.907503588925
 31
0.0
 11
397.81912374006
 21
1718.349442962089
 31
0.0
 11
397.81912374006
 21
1716.778273372733
 31
0.0
 11
397.81912374006
 21
1715.194552649051
 31
0.0
 11
397.8191237400599
 21
1713.598838619233
 31
0.0
 11
397.8191237400599
 21
1711.991689111473
 31
0.0
 11
397.8191237400599
 21
1710.373661953962
 31
0.0
 11
397.81912374006
 21
1708.745314974894
 31
0.0
 11
397.81912374006
 21
1707.10720600246
 31
0.0
 11
397.8191237400599
 21
1705.459892864853
 31
0.0
 11
397.81912374006
 21
1703.803933390264
 31
0.0
 11
397.81912374006
 21
1702.139885406887
 31
0.0
 11
397.81912374006
 21
1700.468306742914
 31
0.0
 11
397.81912374006
 21
1698.789755226537
 31
0.0
 11
397.81912374006
 21
1697.104788685948
 31
0.0
 11
397.81912374006
 21
1695.413964949339
 31
0.0
 11
397.81912374006
 21
1693.717841844904
 31
0.0
 11
397.81912374006
 21
1692.016977200834
 31
0.0
 11
397.81912374006
 21
1690.311928845321
 31
0.0
 11
397.81912374006
 21
1688.603254606558
 31
0.0
 11
397.81912374006
 21
1686.891512312738
 31
0.0
 11
397.81912374006
 21
1685.177259792052
 31
0.0
 11
397.81912374006
 21
1683.461054872693
 31
0.0
 11
397.81912374006
 21
1681.743455382853
 31
0.0
 11
397.81912374006
 21
1680.025019150725
 31
0.0
 11
397.8191237400599
 21
1678.3063040045
 31
0.0
 11
397.81912374006
 21
1676.587867772372
 31
0.0
 11
397.8191237400599
 21
1674.870268282532
 31
0.0
 11
397.8191237400599
 21
1673.154063363173
 31
0.0
 11
397.81912374006
 21
1671.439810842487
 31
0.0
 11
397.81912374006
 21
1669.728068548667
 31
0.0
 11
397.81912374006
 21
1668.019394309904
 31
0.0
 11
397.81912374006
 21
1666.314345954392
 31
0.0
 11
397.81912374006
 21
1664.613481310321
 31
0.0
 11
397.8191237400599
 21
1662.917358205886
 31
0.0
 11
397.81912374006
 21
1661.226534469277
 31
0.0
 11
397.81912374006
 21
1659.541567928688
 31
0.0
 11
397.8191237400599
 21
1657.863016412311
 31
0.0
 11
397.81912374006
 21
1656.191437748338
 31
0.0
 11
397.81912374006
 21
1654.527389764961
 31
0.0
 11
397.8191237400599
 21
1652.871430290372
 31
0.0
 11
397.8191237400599
 21
1651.224117152765
 31
0.0
 11
397.81912374006
 21
1649.586008180331
 31
0.0
 11
397.81912374006
 21
1647.957661201263
 31
0.0
 11
397.81912374006
 21
1646.339634043752
 31
0.0
 11
397.8191237400599
 21
1644.732484535992
 31
0.0
 11
397.8191237400599
 21
1643.136770506174
 31
0.0
 11
397.81912374006
 21
1641.553049782492
 31
0.0
 11
397.81912374006
 21
1639.981880193136
 31
0.0
 11
397.81912374006
 21
1638.4238195663
 31
0.0
 11
397.8191237400599
 21
1636.879425730176
 31
0.0
 11
397.81912374006
 21
1635.349256512956
 31
0.0
 11
397.81912374006
 21
1633.833869742833
 31
0.0
 11
397.81912374006
 21
1632.333823247998
 31
0.0
 11
397.8191237400599
 21
1630.849674856645
 31
0.0
 11
397.81912374006
 21
1629.381982396965
 31
0.0
 11
397.81912374006
 21
1627.931303697151
 31
0.0
 11
397.8191237400599
 21
1626.498196585395
 31
0.0
 11
397.81912374006
 21
1625.083218889889
 31
0.0
 11
397.8191237400599
 21
1623.686928438826
 31
0.0
 11
397.81912374006
 21
1622.309883060399
 31
0.0
 11
397.81912374006
 21
1620.952640582799
 31
0.0
 11
397.81912374006
 21
1619.615758834218
 31
0.0
 11
397.8191237400599
 21
1618.299795642849
 31
0.0
 11
397.8191237400599
 21
1617.005308836885
 31
0.0
 11
397.81912374006
 21
1615.732856244518
 31
0.0
 11
397.81912374006
 21
1614.482995693939
 31
0.0
 11
397.8191237400599
 21
1613.256285013342
 31
0.0
 11
397.81912374006
 21
1612.053282030919
 31
0.0
 11
397.8191237400599
 21
1610.874544574861
 31
0.0
 11
397.81912374006
 21
1609.720630473362
 31
0.0
 11
397.81912374006
 21
1608.592097554614
 31
0.0
 11
397.81912374006
 21
1607.489503646808
 31
0.0
 11
397.81912374006
 21
1606.413406578137
 31
0.0
 11
397.81912374006
 21
1605.364364176795
 31
0.0
 11
397.81912374006
 21
1604.342934270972
 31
0.0
 11
397.81912374006
 21
1603.349674688861
 31
0.0
 11
397.81912374006
 21
1602.385143258655
 31
0.0
 11
397.81912374006
 21
1601.449897808546
 31
0.0
 11
397.81912374006
 21
1600.544496166726
 31
0.0
 11
397.81912374006
 21
1599.669496161387
 31
0.0
 11
397.81912374006
 21
1598.825455620722
 31
0.0
 11
397.81912374006
 21
1598.012932372924
 31
0.0
 11
397.81912374006
 21
1597.232484246184
 31
0.0
 11
397.81912374006
 21
1596.484669068694
 31
0.0
 11
397.81912374006
 21
1595.770044668648
 31
0.0
 11
397.81912374006
 21
1595.089168874237
 31
0.0
 11
397.8191237400599
 21
1594.442599513654
 31
0.0
 11
397.81912374006
 21
1593.830894415091
 31
0.0
 11
397.81912374006
 21
1593.254611406741
 31
0.0
 11
397.81912374006
 21
1592.714308316795
 31
0.0
 11
397.81912374006
 21
1592.210542973446
 31
0.0
 11
397.81912374006
 21
1591.743873204887
 31
0.0
 11
397.81912374006
 21
1591.314856839309
 31
0.0
 11
397.8191237400599
 21
1590.924051704905
 31
0.0
 11
397.81912374006
 21
1590.572015629868
 31
0.0
 11
397.8191237400599
 21
1590.259306442389
 31
0.0
 11
397.8191237400599
 21
1589.986481970661
 31
0.0
 11
397.81912374006
 21
1589.754100042877
 31
0.0
 11
397.81912374006
 21
1589.562718487228
 31
0.0
 11
397.81912374006
 21
1589.412895131907
 31
0.0
 11
397.81912374006
 21
1589.305187805107
 31
0.0
 11
397.81912374006
 21
1589.240154335018
 31
0.0
 11
397.81912374006
 21
1589.218352549835
 31
0.0
 11
397.8405120584105
 21
1589.218352549835
 31
0.0
 11
397.9036645486879
 21
1589.218352549835
 31
0.0
 11
398.0070625137312
 21
1589.218352549835
 31
0.0
 11
398.1491872563797
 21
1589.218352549835
 31
0.0
 11
398.328520079472
 21
1589.218352549835
 31
0.0
 11
398.5435422858474
 21
1589.218352549835
 31
0.0
 11
398.7927351783448
 21
1589.218352549835
 31
0.0
 11
399.0745800598033
 21
1589.218352549835
 31
0.0
 11
399.3875582330618
 21
1589.218352549835
 31
0.0
 11
399.7301510009596
 21
1589.218352549835
 31
0.0
 11
400.1008396663355
 21
1589.218352549835
 31
0.0
 11
400.4981055320283
 21
1589.218352549835
 31
0.0
 11
400.9204299008774
 21
1589.218352549835
 31
0.0
 11
401.3662940757218
 21
1589.218352549835
 31
0.0
 11
401.8341793594003
 21
1589.218352549835
 31
0.0
 11
402.3225670547521
 21
1589.218352549835
 31
0.0
 11
402.829938464616
 21
1589.218352549835
 31
0.0
 11
403.3547748918314
 21
1589.218352549835
 31
0.0
 11
403.8955576392369
 21
1589.218352549835
 31
0.0
 11
404.4507680096717
 21
1589.218352549835
 31
0.0
 11
405.0188873059749
 21
1589.218352549835
 31
0.0
 11
405.5983968309855
 21
1589.218352549835
 31
0.0
 11
406.1877778875424
 21
1589.218352549835
 31
0.0
 11
406.7855117784847
 21
1589.218352549835
 31
0.0
 11
407.3900798066514
 21
1589.218352549835
 31
0.0
 11
407.9999632748815
 21
1589.218352549835
 31
0.0
 11
408.613643486014
 21
1589.218352549835
 31
0.0
 11
409.2296017428881
 21
1589.218352549835
 31
0.0
 11
409.8463193483427
 21
1589.218352549835
 31
0.0
 11
410.4622776052167
 21
1589.218352549835
 31
0.0
 11
411.0759578163493
 21
1589.218352549835
 31
0.0
 11
411.6858412845795
 21
1589.218352549835
 31
0.0
 11
412.2904093127461
 21
1589.218352549835
 31
0.0
 11
412.8881432036884
 21
1589.218352549835
 31
0.0
 11
413.4775242602453
 21
1589.218352549835
 31
0.0
 11
414.0570337852559
 21
1589.218352549835
 31
0.0
 11
414.6251530815591
 21
1589.218352549835
 31
0.0
 11
415.1803634519939
 21
1589.218352549835
 31
0.0
 11
415.7211461993995
 21
1589.218352549835
 31
0.0
 11
416.2459826266148
 21
1589.218352549835
 31
0.0
 11
416.7533540364788
 21
1589.218352549835
 31
0.0
 11
417.2417417318305
 21
1589.218352549835
 31
0.0
 11
417.709627015509
 21
1589.218352549835
 31
0.0
 11
418.1554911903533
 21
1589.218352549835
 31
0.0
 11
418.5778155592025
 21
1589.218352549835
 31
0.0
 11
418.9750814248955
 21
1589.218352549835
 31
0.0
 11
419.3457700902713
 21
1589.218352549835
 31
0.0
 11
419.6883628581689
 21
1589.218352549835
 31
0.0
 11
420.0013410314276
 21
1589.218352549835
 31
0.0
 11
420.283185912886
 21
1589.218352549835
 31
0.0
 11
420.5323788053835
 21
1589.218352549835
 31
0.0
 11
420.7474010117588
 21
1589.218352549835
 31
0.0
 11
420.9267338348512
 21
1589.218352549835
 31
0.0
 11
421.0688585774996
 21
1589.218352549835
 31
0.0
 11
421.1722565425429
 21
1589.218352549835
 31
0.0
 11
421.2354090328204
 21
1589.218352549835
 31
0.0
 11
421.2567973511708
 21
1589.218352549835
 31
0.0
 11
421.7213866741405
 21
1589.239618038081
 31
0.0
 11
422.1742156906952
 21
1589.302189330654
 31
0.0
 11
422.6133658620095
 21
1589.404228669314
 31
0.0
 11
423.0369186492576
 21
1589.543898295815
 31
0.0
 11
423.4429555136142
 21
1589.719360451914
 31
0.0
 11
423.8295579162535
 21
1589.928777379369
 31
0.0
 11
424.1948073183499
 21
1590.170311319934
 31
0.0
 11
424.5367851810782
 21
1590.442124515369
 31
0.0
 11
424.8535729656124
 21
1590.742379207427
 31
0.0
 11
425.1432521331273
 21
1591.069237637867
 31
0.0
 11
425.4039041447971
 21
1591.420862048444
 31
0.0
 11
425.6336104617963
 21
1591.795414680916
 31
0.0
 11
425.8304525452992
 21
1592.191057777039
 31
0.0
 11
425.9925118564805
 21
1592.605953578569
 31
0.0
 11
426.1178698565144
 21
1593.038264327262
 31
0.0
 11
426.2046080065754
 21
1593.486152264877
 31
0.0
 11
426.250807767838
 21
1593.947779633169
 31
0.0
 11
426.2519400141327
 21
1593.969282635449
 31
0.0
 11
426.2552618937576
 21
1594.032369956188
 31
0.0
 11
426.2606611178239
 21
1594.134909066234
 31
0.0
 11
426.2680253974428
 21
1594.274767436435
 31
0.0
 11
426.2772424437259
 21
1594.449812537639
 31
0.0
 11
426.2881999677843
 21
1594.657911840696
 31
0.0
 11
426.3007856807292
 21
1594.896932816454
 31
0.0
 11
426.3148872936719
 21
1595.164742935759
 31
0.0
 11
426.3303925177237
 21
1595.45920966946
 31
0.0
 11
426.3471890639959
 21
1595.778200488408
 31
0.0
 11
426.3651646435997
 21
1596.119582863448
 31
0.0
 11
426.3842069676463
 21
1596.481224265429
 31
0.0
 11
426.4042037472472
 21
1596.8609921652
 31
0.0
 11
426.4250426935137
 21
1597.25675403361
 31
0.0
 11
426.4466115175567
 21
1597.666377341505
 31
0.0
 11
426.4687979304878
 21
1598.087729559735
 31
0.0
 11
426.4914896434182
 21
1598.518678159148
 31
0.0
 11
426.5145743674591
 21
1598.957090610592
 31
0.0
 11
426.5379398137218
 21
1599.400834384916
 31
0.0
 11
426.5614736933176
 21
1599.847776952966
 31
0.0
 11
426.5850637173578
 21
1600.295785785594
 31
0.0
 11
426.6085975969536
 21
1600.742728353644
 31
0.0
 11
426.6319630432163
 21
1601.186472127968
 31
0.0
 11
426.6550477672573
 21
1601.624884579412
 31
0.0
 11
426.6777394801877
 21
1602.055833178825
 31
0.0
 11
426.6999258931187
 21
1602.477185397055
 31
0.0
 11
426.7214947171618
 21
1602.88680870495
 31
0.0
 11
426.7423336634281
 21
1603.282570573359
 31
0.0
 11
426.762330443029
 21
1603.662338473131
 31
0.0
 11
426.7813727670758
 21
1604.023979875112
 31
0.0
 11
426.7993483466796
 21
1604.365362250153
 31
0.0
 11
426.8161448929517
 21
1604.684353069099
 31
0.0
 11
426.8316501170035
 21
1604.978819802801
 31
0.0
 11
426.8457517299462
 21
1605.246629922107
 31
0.0
 11
426.8583374428912
 21
1605.485650897864
 31
0.0
 11
426.8692949669495
 21
1605.69375020092
 31
0.0
 11
426.8785120132325
 21
1605.868795302125
 31
0.0
 11
426.8858762928516
 21
1606.008653672327
 31
0.0
 11
426.8912755169179
 21
1606.111192782372
 31
0.0
 11
426.8945973965427
 21
1606.174280103111
 31
0.0
 11
426.8957296428374
 21
1606.195783105391
 31
0.0
 11
426.896830986094
 21
1606.21673173237
 31
0.0
 11
426.9000702309663
 21
1606.278345341129
 31
0.0
 11
426.9053502001081
 21
1606.378775523407
 31
0.0
 11
426.9125737161733
 21
1606.516173870941
 31
0.0
 11
426.9216436018157
 21
1606.688691975468
 31
0.0
 11
426.9324626796891
 21
1606.894481428725
 31
0.0
 11
426.9449337724474
 21
1607.131693822449
 31
0.0
 11
426.9589597027444
 21
1607.398480748378
 31
0.0
 11
426.974443293234
 21
1607.692993798249
 31
0.0
 11
426.9912873665699
 21
1608.013384563799
 31
0.0
 11
427.0093947454059
 21
1608.357804636765
 31
0.0
 11
427.028668252396
 21
1608.724405608884
 31
0.0
 11
427.049010710194
 21
1609.111339071895
 31
0.0
 11
427.0703249414537
 21
1609.516756617532
 31
0.0
 11
427.0925137688288
 21
1609.938809837536
 31
0.0
 11
427.1154800149733
 21
1610.375650323641
 31
0.0
 11
427.1391265025411
 21
1610.825429667586
 31
0.0
 11
427.1633560541858
 21
1611.286299461108
 31
0.0
 11
427.1880714925613
 21
1611.756411295943
 31
0.0
 11
427.2131756403215
 21
1612.23391676383
 31
0.0
 11
427.2385713201202
 21
1612.716967456505
 31
0.0
 11
427.2641613546113
 21
1613.203714965706
 31
0.0
 11
427.2898485664485
 21
1613.692310883169
 31
0.0
 11
427.3155357782857
 21
1614.180906800633
 31
0.0
 11
427.3411258127768
 21
1614.667654309833
 31
0.0
 11
427.3665214925755
 21
1615.150705002508
 31
0.0
 11
427.3916256403358
 21
1615.628210470395
 31
0.0
 11
427.4163410787114
 21
1616.098322305231
 31
0.0
 11
427.4405706303561
 21
1616.559192098752
 31
0.0
 11
427.4642171179237
 21
1617.008971442697
 31
0.0
 11
427.4871833640683
 21
1617.445811928803
 31
0.0
 11
427.5093721914435
 21
1617.867865148806
 31
0.0
 11
427.5306864227031
 21
1618.273282694444
 31
0.0
 11
427.551028880501
 21
1618.660216157454
 31
0.0
 11
427.5703023874911
 21
1619.026817129573
 31
0.0
 11
427.5884097663272
 21
1619.371237202539
 31
0.0
 11
427.6052538396632
 21
1619.69162796809
 31
0.0
 11
427.6207374301526
 21
1619.98614101796
 31
0.0
 11
427.6347633604496
 21
1620.252927943889
 31
0.0
 11
427.6472344532079
 21
1620.490140337613
 31
0.0
 11
427.6580535310814
 21
1620.69592979087
 31
0.0
 11
427.6671234167238
 21
1620.868447895397
 31
0.0
 11
427.674346932789
 21
1621.005846242931
 31
0.0
 11
427.6796269019308
 21
1621.106276425209
 31
0.0
 11
427.6828661468031
 21
1621.167890033969
 31
0.0
 11
427.6839674900597
 21
1621.188838660947
 31
0.0
 11
427.6850794151385
 21
1621.210053766512
 31
0.0
 11
427.6883711537383
 21
1621.272858881005
 31
0.0
 11
427.6937766509037
 21
1621.375993701127
 31
0.0
 11
427.7012298516796
 21
1621.518197923575
 31
0.0
 11
427.710664701111
 21
1621.69821124505
 31
0.0
 11
427.7220151442425
 21
1621.91477336225
 31
0.0
 11
427.735215126119
 21
1622.166623971875
 31
0.0
 11
427.7501985917853
 21
1622.452502770622
 31
0.0
 11
427.7668994862862
 21
1622.771149455193
 31
0.0
 11
427.7852517546667
 21
1623.121303722285
 31
0.0
 11
427.8051893419713
 21
1623.501705268599
 31
0.0
 11
427.8266461932452
 21
1623.911093790832
 31
0.0
 11
427.8495562535329
 21
1624.348208985685
 31
0.0
 11
427.8738534678794
 21
1624.811790549856
 31
0.0
 11
427.8994717813293
 21
1625.300578180044
 31
0.0
 11
427.9263451389278
 21
1625.81331157295
 31
0.0
 11
427.9544074857195
 21
1626.34873042527
 31
0.0
 11
427.9835927667492
 21
1626.905574433706
 31
0.0
 11
428.0138349270616
 21
1627.482583294955
 31
0.0
 11
428.0450679117019
 21
1628.078496705718
 31
0.0
 11
428.0772256657145
 21
1628.692054362693
 31
0.0
 11
428.1102421341445
 21
1629.321995962579
 31
0.0
 11
428.1440512620367
 21
1629.967061202076
 31
0.0
 11
428.1785869944359
 21
1630.625989777882
 31
0.0
 11
428.2137832763868
 21
1631.297521386697
 31
0.0
 11
428.2495740529343
 21
1631.98039572522
 31
0.0
 11
428.2858932691233
 21
1632.67335249015
 31
0.0
 11
428.3226748699985
 21
1633.375131378185
 31
0.0
 11
428.3598528006047
 21
1634.084472086027
 31
0.0
 11
428.3973610059869
 21
1634.800114310372
 31
0.0
 11
428.4351334311898
 21
1635.520797747921
 31
0.0
 11
428.4731040212581
 21
1636.245262095373
 31
0.0
 11
428.511206721237
 21
1636.972247049426
 31
0.0
 11
428.5493754761709
 21
1637.700492306781
 31
0.0
 11
428.5875442311049
 21
1638.428737564135
 31
0.0
 11
428.6256469310837
 21
1639.155722518188
 31
0.0
 11
428.663617521152
 21
1639.88018686564
 31
0.0
 11
428.7013899463549
 21
1640.600870303189
 31
0.0
 11
428.738898151737
 21
1641.316512527535
 31
0.0
 11
428.7760760823433
 21
1642.025853235376
 31
0.0
 11
428.8128576832185
 21
1642.727632123412
 31
0.0
 11
428.8491768994075
 21
1643.420588888342
 31
0.0
 11
428.884967675955
 21
1644.103463226864
 31
0.0
 11
428.9201639579059
 21
1644.774994835679
 31
0.0
 11
428.954699690305
 21
1645.433923411486
 31
0.0
 11
428.9885088181972
 21
1646.078988650982
 31
0.0
 11
429.0215252866273
 21
1646.708930250868
 31
0.0
 11
429.05368304064
 21
1647.322487907843
 31
0.0
 11
429.0849160252802
 21
1647.918401318606
 31
0.0
 11
429.1151581855927
 21
1648.495410179856
 31
0.0
 11
429.1443434666223
 21
1649.052254188291
 31
0.0
 11
429.172405813414
 21
1649.587673040612
 31
0.0
 11
429.1992791710125
 21
1650.100406433517
 31
0.0
 11
429.2248974844625
 21
1650.589194063706
 31
0.0
 11
429.2491946988089
 21
1651.052775627876
 31
0.0
 11
429.2721047590967
 21
1651.489890822729
 31
0.0
 11
429.2935616103705
 21
1651.899279344963
 31
0.0
 11
429.3134991976751
 21
1652.279680891276
 31
0.0
 11
429.3318514660556
 21
1652.629835158369
 31
0.0
 11
429.3485523605565
 21
1652.948481842939
 31
0.0
 11
429.3635358262228
 21
1653.234360641687
 31
0.0
 11
429.3767358080994
 21
1653.486211251312
 31
0.0
 11
429.3880862512309
 21
1653.702773368511
 31
0.0
 11
429.3975211006621
 21
1653.882786689986
 31
0.0
 11
429.4049743014381
 21
1654.024990912434
 31
0.0
 11
429.4103797986035
 21
1654.128125732556
 31
0.0
 11
429.4136715372033
 21
1654.190930847049
 31
0.0
 11
429.4147834622821
 21
1654.212145952614
 31
0.0
  0
SPLINE
  5
CE
330
1F
100
AcDbEntity
  8
0
  6
Continuous
 62
     7
100
AcDbSpline
210
0.0
220
0.0
230
1.0
 70
     8
 71
     3
 72
   372
 73
   368
 74
   366
 42
0.0000000001
 43
0.0000000001
 44
0.00000001
 40
0.0
 40
0.0
 40
0.0
 40
0.0
 40
2.20868102394653
 40
4.419111450996454
 40
6.631410979312458
 40
8.845697810446676
 40
11.0620890173034
 40
13.28070091105405
 40
15.50164940671498
 40
17.72505038710543
 40
19.95102006491471
 40
19.95653221769226
 40
19.96204437046982
 40
25.13205423359319
 40
30.30156677812595
 40
35.47065679520978
 40
40.63939864896094
 40
45.80786632260209
 40
50.97613346466232
 40
56.14427343523562
 40
61.31235935229173
 40
66.48046413802666
 40
71.64866056524195
 40
76.81702130374569
 40
81.9856189667627
 40
87.15452615734658
 40
92.32381551478092
 40
97.49355976096311
 40
102.6638317467585
 40
107.8347044983165
 40
113.0062512633369
 40
113.0117634161146
 40
113.017275568892
 40
113.5894247461454
 40
114.1543977783707
 40
114.7133976924193
 40
115.2674886237485
 40
115.8176053233533
 40
116.3645654667759
 40
116.9090843094679
 40
117.4517912286651
 40
117.9932477176339
 40
118.5339664402364
 40
119.0744309997649
 40
119.615116115694
 40
120.1565079280812
 40
120.699124157443
 40
121.2435338367757
 40
121.7903763035425
 40
122.3403790975682
 40
122.8943743636011
 40
123.4533133153466
 40
124.0182782939416
 40
124.5904919616872
 40
124.6110181313135
 40
124.670664765404
 40
124.7665340517756
 40
124.8957281782468
 40
125.0553493326345
 40
125.2424997027559
 40
125.4542814764288
 40
125.6877968414708
 40
125.9401479856992
 40
126.2084370969317
 40
126.4897663629854
 40
126.781237971678
 40
127.0799541108267
 40
127.3830169682494
 40
127.6875287317634
 40
127.9905915891858
 40
128.289307728335
 40
128.5807793370276
 40
128.8621086030811
 40
129.1303977143136
 40
129.3827488585419
 40
129.616264223584
 40
129.828045997257
 40
130.0151963673785
 40
130.1748175217661
 40
130.3040116482371
 40
130.3998809346092
 40
130.4595275686995
 40
130.4800537383256
 40
130.5010308931407
 40
130.5627284073016
 40
130.6632953553846
 40
130.8008808119646
 40
130.973633851616
 40
131.179703548915
 40
131.417238978436
 40
131.6843892147547
 40
131.9793033324453
 40
132.3001304060843
 40
132.6450195102462
 40
133.0121197195061
 40
133.3995801084389
 40
133.8055497516204
 40
134.2281777236254
 40
134.6656130990291
 40
135.1160049524063
 40
135.5775023583334
 40
136.0482543913841
 40
136.5264101261342
 40
137.0101186371591
 40
137.4975289990333
 40
137.9867902863326
 40
138.4760515736319
 40
138.9634619355061
 40
139.447170446531
 40
139.9253261812808
 40
140.3960782143318
 40
140.8575756202584
 40
141.3079674736361
 40
141.7454028490398
 40
142.1680308210446
 40
142.5740004642263
 40
142.9614608531596
 40
143.3285610624193
 40
143.6734501665806
 40
143.9942772402194
 40
144.2891913579107
 40
144.5563415942292
 40
144.7938770237502
 40
144.9999467210488
 40
145.1726997607008
 40
145.3102852172804
 40
145.4108521653636
 40
145.4725496795248
 40
145.4935268343396
 40
145.5144888575824
 40
145.574979267511
 40
145.6714045744281
 40
145.8001712886336
 40
145.9576859204291
 40
146.1403549801157
 40
146.3445849779949
 40
146.5667824243682
 40
146.8033538295366
 40
147.0507057038009
 40
147.3052445574623
 40
147.5633769008232
 40
147.8215092441839
 40
148.0760480978459
 40
148.32339997211
 40
148.5599713772782
 40
148.7821688236516
 40
148.9863988215304
 40
149.1690678812173
 40
149.326582513013
 40
149.4553492272185
 40
149.5517745341351
 40
149.6122649440641
 40
149.6332269673067
 40
149.9712112520251
 40
150.3028377200735
 40
150.6297055138762
 40
150.9531232331161
 40
151.2741535455936
 40
151.5936695043329
 40
151.9124188988656
 40
152.2310934475995
 40
152.5504001454158
 40
152.8711323444134
 40
153.1942380393319
 40
153.5208823793579
 40
153.8525008195323
 40
154.1908388921726
 40
154.2119406927477
 40
154.2736535057509
 40
154.3735884480979
 40
154.5093566367046
 40
154.6785691884872
 40
154.8788372203618
 40
155.1077718492443
 40
155.3629841920506
 40
155.6420853656967
 40
155.942686487099
 40
156.2623986731729
 40
156.598833040835
 40
156.9496007070009
 40
157.3123127885868
 40
157.6845804025086
 40
158.0640146656824
 40
158.4482266950242
 40
158.8348276074499
 40
159.2214285198758
 40
159.6056405492176
 40
159.9850748123913
 40
160.3573424263132
 40
160.7200545078991
 40
161.0708221740649
 40
161.407256541727
 40
161.726968727801
 40
162.0275698492031
 40
162.3066710228493
 40
162.5618833656556
 40
162.7908179945381
 40
162.9910860264125
 40
163.1602985781952
 40
163.2960667668021
 40
163.3960017091489
 40
163.4577145221521
 40
163.4788163227273
 40
163.5001986308396
 40
163.5636268221306
 40
163.6680227970315
 40
163.8123084559738
 40
163.9954056993888
 40
164.2162364277078
 40
164.4737225413621
 40
164.7667859407828
 40
165.0943485264018
 40
165.4553321986496
 40
165.8486588579582
 40
166.2732504047585
 40
166.7280287394821
 40
167.2119157625601
 40
167.7238333744241
 40
168.2627034755051
 40
168.8274479662346
 40
169.4169887470438
 40
170.030247718364
 40
170.6661467806266
 40
171.3236078342629
 40
172.0015527797044
 40
172.698903517382
 40
173.4145819477274
 40
174.1475099711715
 40
174.8966094881462
 40
175.6608023990823
 40
176.4390106044114
 40
177.2301560045646
 40
178.0331604999734
 40
178.8469459910691
 40
179.6704343782828
 40
180.5025475620462
 40
181.3422074427904
 40
182.1883359209464
 40
183.0398548969462
 40
183.8956862712205
 40
184.7547519442009
 40
185.6159738163187
 40
186.4782737880053
 40
187.3405737596916
 40
188.2017956318094
 40
189.0608613047897
 40
189.9166926790642
 40
190.7682116550637
 40
191.61434013322
 40
192.4540000139641
 40
193.2861131977273
 40
194.1096015849413
 40
194.9233870760369
 40
195.7263915714456
 40
196.5175369715989
 40
197.2957451769279
 40
198.0599380878642
 40
198.8090376048386
 40
199.5419656282829
 40
200.2576440586283
 40
200.954994796306
 40
201.6329397417474
 40
202.2904007953837
 40
202.9262998576462
 40
203.5395588289666
 40
204.1290996097757
 40
204.6938441005052
 40
205.2327142015862
 40
205.74463181345
 40
206.2285188365281
 40
206.6832971712518
 40
207.1078887180521
 40
207.5012153773606
 40
207.8621990496087
 40
208.1897616352273
 40
208.4828250346482
 40
208.7403111483025
 40
208.9611418766215
 40
209.1442391200365
 40
209.2885247789787
 40
209.3929207538798
 40
209.4563489451707
 40
209.477731253283
 40
209.4987954838867
 40
209.5603984224454
 40
209.6601554390791
 40
209.7956819039079
 40
209.9645931870523
 40
210.1645046586327
 40
210.3930316887695
 40
210.6477896475825
 40
210.9263939051926
 40
211.2264598317199
 40
211.5456027972847
 40
211.8814381720072
 40
212.2315813260079
 40
212.593647629407
 40
212.9652524523249
 40
213.3440111648818
 40
213.7275391371981
 40
214.113451739394
 40
214.49936434159
 40
214.8828923139063
 40
215.2616510264631
 40
215.633255849381
 40
215.9953221527802
 40
216.3454653067809
 40
216.6813006815034
 40
217.0004436470681
 40
217.3005095735954
 40
217.5791138312054
 40
217.8338717900185
 40
218.0623988201553
 40
218.2623102917356
 40
218.4312215748801
 40
218.5667480397091
 40
218.6665050563425
 40
218.7281079949011
 40
218.7491722255051
 40
219.0863043369596
 40
219.4173735455284
 40
219.7438657680796
 40
220.067001561968
 40
220.3877855704121
 40
220.7070662581722
 40
221.0256025418157
 40
221.3441343453799
 40
221.6634544451641
 40
221.9844789987071
 40
222.3083138254822
 40
222.6363129279793
 40
222.9701251879304
 40
223.3179191624847
 40
223.6592076323647
 40
223.9958086368099
 40
224.329177624886
 40
224.660465607416
 40
224.9905924422005
 40
225.3203299474196
 40
225.6503904572047
 40
225.9815173104399
 40
226.3145741811021
 40
226.6506299542157
 40
226.9910351147924
 40
227.3374846879062
 40
228.5749302389402
 40
229.8040768699545
 40
231.0255215297848
 40
232.2398342050049
 40
233.4475582152514
 40
234.6492106408794
 40
235.8452828787566
 40
237.0362413210267
 40
238.2225281508502
 40
239.4045622484815
 40
240.582740200554
 40
241.7574374051082
 40
243.0373433032166
 40
244.314022665173
 40
245.5878547615957
 40
246.8591878675784
 40
248.128341951187
 40
249.3956114633964
 40
250.6612682142623
 40
251.9255643214906
 40
253.1887352188965
 40
254.4510027135007
 40
254.4510027135007
 40
254.4510027135007
 40
254.4510027135007
 10
752.8127869345038
 20
1654.212145952614
 30
0.0
 10
752.127039963984
 20
1653.944120906454
 30
0.0
 10
750.7550028716859
 20
1653.407858522798
 30
0.0
 10
748.6793232705804
 20
1652.648169637231
 30
0.0
 10
746.5886491879311
 20
1651.920844925176
 30
0.0
 10
744.4892612008948
 20
1651.230080801039
 30
0.0
 10
742.3555842918731
 20
1650.572226354506
 30
0.0
 10
740.2867688865607
 20
1649.958788616141
 30
0.0
 10
737.9142473119191
 20
1649.348419928151
 30
0.0
 10
736.6182279749628
 20
1648.896327424406
 30
0.0
 10
733.0312635488517
 20
1648.313866542099
 30
0.0
 10
733.7793255984547
 20
1648.314142740195
 30
0.0
 10
735.5077432580446
 20
1648.314294038938
 30
0.0
 10
727.1629547030827
 20
1647.005828473112
 30
0.0
 10
724.1076963134196
 20
1646.148451633525
 30
0.0
 10
718.5082290604526
 20
1645.049259996634
 30
0.0
 10
713.5799024822829
 20
1644.068966076911
 30
0.0
 10
708.4616325362684
 20
1643.110978756228
 30
0.0
 10
703.3844909869814
 20
1642.201227380322
 30
0.0
 10
698.2869335197056
 20
1641.332815238375
 30
0.0
 10
693.1858167573726
 20
1640.507639755028
 30
0.0
 10
688.0769907052016
 20
1639.725245748541
 30
0.0
 10
682.9619344238711
 20
1638.985794726492
 30
0.0
 10
677.8406168394367
 20
1638.289333992386
 30
0.0
 10
672.7134183916849
 20
1637.635750973257
 30
0.0
 10
667.5805836186266
 20
1637.025686869737
 30
0.0
 10
662.4424891471379
 20
1636.456927398828
 30
0.0
 10
657.299119112085
 20
1635.937927654556
 30
0.0
 10
652.1518957162131
 20
1635.437315409589
 30
0.0
 10
646.9968805646756
 20
1635.072381054644
 30
0.0
 10
643.5641335005057
 20
1634.627585270093
 30
0.0
 10
641.8366150857252
 20
1634.62746650207
 30
0.0
 10
641.6422189701574
 20
1634.627586675339
 30
0.0
 10
641.2638135882038
 20
1634.567504988273
 30
0.0
 10
640.7065738303287
 20
1634.475534556371
 30
0.0
 10
640.1638936688812
 20
1634.336314599196
 30
0.0
 10
639.6367562411035
 20
1634.163636797597
 30
0.0
 10
639.1266502015492
 20
1633.955651376662
 30
0.0
 10
638.6349275561283
 20
1633.714636139352
 30
0.0
 10
638.1629742754759
 20
1633.441772859781
 30
0.0
 10
637.7121660685767
 20
1633.138530634425
 30
0.0
 10
637.2838810445412
 20
1632.806298631482
 30
0.0
 10
636.879497187125
 20
1632.446483951139
 30
0.0
 10
636.5003937807735
 20
1632.060485862719
 30
0.0
 10
636.1479516775567
 20
1631.649703114588
 30
0.0
 10
635.8235538167329
 20
1631.215532506984
 30
0.0
 10
635.5285854356619
 20
1630.759369928071
 30
0.0
 10
635.2644347871517
 20
1630.282610710819
 30
0.0
 10
635.0324915795579
 20
1629.786650703461
 30
0.0
 10
634.8341533934994
 20
1629.272885595724
 30
0.0
 10
634.6708013531591
 20
1628.742716939426
 30
0.0
 10
634.5438909365092
 20
1628.197533093572
 30
0.0
 10
634.4546061408626
 20
1627.63878493322
 30
0.0
 10
634.4212923066939
 20
1627.25395251127
 30
0.0
 10
634.4099930270719
 20
1627.03678519583
 30
0.0
 10
634.4069061713376
 20
1626.978185617144
 30
0.0
 10
634.401938328733
 20
1626.883412451288
 30
0.0
 10
634.3952151036259
 20
1626.755360609228
 30
0.0
 10
634.3869007100259
 20
1626.596923412518
 30
0.0
 10
634.377142184421
 20
1626.410994889844
 30
0.0
 10
634.3660931234606
 20
1626.200468799835
 30
0.0
 10
634.3539048346361
 20
1625.968238995358
 30
0.0
 10
634.3407293778018
 20
1625.717199298306
 30
0.0
 10
634.3267185759612
 20
1625.450243540323
 30
0.0
 10
634.3120243242692
 20
1625.170265550082
 30
0.0
 10
634.2967984964728
 20
1624.880159157141
 30
0.0
 10
634.2811929725323
 20
1624.582818190795
 30
0.0
 10
634.2653596306385
 20
1624.28113648042
 30
0.0
 10
634.2494503494778
 20
1623.978007855364
 30
0.0
 10
634.2336170076044
 20
1623.676326144988
 30
0.0
 10
634.2180114835855
 20
1623.378985178646
 30
0.0
 10
634.2027856560708
 20
1623.088878785691
 30
0.0
 10
634.1880914033832
 20
1622.808900795494
 30
0.0
 10
634.1740806049975
 20
1622.541945037363
 30
0.0
 10
634.1609051364221
 20
1622.290905340814
 30
0.0
 10
634.1487168865293
 20
1622.058675534667
 30
0.0
 10
634.1376677003282
 20
1621.848149450032
 30
0.0
 10
634.1279095621526
 20
1621.662220910732
 30
0.0
 10
634.1195940324305
 20
1621.503783762776
 30
0.0
 10
634.1128738863952
 20
1621.375731788585
 30
0.0
 10
634.107898718362
 20
1621.280958937083
 30
0.0
 10
634.1048252723441
 20
1621.222358782949
 30
0.0
 10
634.1030553128827
 20
1621.188688618754
 30
0.0
 10
634.1012647956111
 20
1621.154334968052
 30
0.0
 10
634.0980781375347
 20
1621.093337612171
 30
0.0
 10
634.0928684965518
 20
1620.993523501107
 30
0.0
 10
634.0857271289327
 20
1620.856741317485
 30
0.0
 10
634.0767530356014
 20
1620.684839338546
 30
0.0
 10
634.0660417114335
 20
1620.479666025045
 30
0.0
 10
634.0536900183165
 20
1620.243069766191
 30
0.0
 10
634.0397943299304
 20
1619.976898976739
 30
0.0
 10
634.024451184542
 20
1619.683002062835
 30
0.0
 10
634.0077570671519
 20
1619.36322743341
 30
0.0
 10
633.9898084794813
 20
1619.01942349652
 30
0.0
 10
633.9707019181267
 20
1618.653438660491
 30
0.0
 10
633.9505338812245
 20
1618.267121333568
 30
0.0
 10
633.9294008664558
 20
1617.862319924017
 30
0.0
 10
633.9073993716356
 20
1617.440882840103
 30
0.0
 10
633.8846258945381
 20
1617.004658490084
 30
0.0
 10
633.8611769329521
 20
1616.555495282227
 30
0.0
 10
633.8371489846594
 20
1616.095241624793
 30
0.0
 10
633.8126385474457
 20
1615.625745926045
 30
0.0
 10
633.7877421190939
 20
1615.148856594245
 30
0.0
 10
633.7625561973903
 20
1614.666422037658
 30
0.0
 10
633.7371772801172
 20
1614.180290664545
 30
0.0
 10
633.71170186506
 20
1613.692310883169
 30
0.0
 10
633.686226450003
 20
1613.204331101793
 30
0.0
 10
633.6608475327303
 20
1612.71819972868
 30
0.0
 10
633.6356616110257
 20
1612.235765172093
 30
0.0
 10
633.6107651826749
 20
1611.758875840294
 30
0.0
 10
633.5862547454606
 20
1611.289380141546
 30
0.0
 10
633.5622267971685
 20
1610.829126484111
 30
0.0
 10
633.5387778355814
 20
1610.379963276254
 30
0.0
 10
633.5160043584855
 20
1609.943738926236
 30
0.0
 10
633.4940028636622
 20
1609.522301842321
 30
0.0
 10
633.4728698489026
 20
1609.11750043277
 30
0.0
 10
633.4527018119692
 20
1608.731183105848
 30
0.0
 10
633.433595250722
 20
1608.365198269814
 30
0.0
 10
633.4156466626862
 20
1608.021394332944
 30
0.0
 10
633.3989525465183
 20
1607.701619703454
 30
0.0
 10
633.3836093971137
 20
1607.40772278976
 30
0.0
 10
633.3697137216377
 20
1607.141551999634
 30
0.0
 10
633.3573619881669
 20
1606.904955742887
 30
0.0
 10
633.3466507855567
 20
1606.699782423037
 30
0.0
 10
633.3376763444055
 20
1606.527880462267
 30
0.0
 10
633.3305358984493
 20
1606.391098230498
 30
0.0
 10
633.3253241086276
 20
1606.291284231692
 30
0.0
 10
633.3221413190306
 20
1606.230286673713
 30
0.0
 10
633.3203381254424
 20
1606.195788202587
 30
0.0
 10
633.3185672165049
 20
1606.161690963197
 30
0.0
 10
633.3154865768478
 20
1606.102478467144
 30
0.0
 10
633.3105422870116
 20
1606.007379432475
 30
0.0
 10
633.3039172993747
 20
1605.879982690866
 30
0.0
 10
633.2957999227127
 20
1605.7238767949
 30
0.0
 10
633.2863761075998
 20
1605.542650420034
 30
0.0
 10
633.275832693775
 20
1605.339892195391
 30
0.0
 10
633.2643562152247
 20
1605.119190766032
 30
0.0
 10
633.2521333047716
 20
1604.884134771862
 30
0.0
 10
633.2393505647161
 20
1604.638312854382
 30
0.0
 10
633.2261946063834
 20
1604.385313654618
 30
0.0
 10
633.2128520388018
 20
1604.128725813719
 30
0.0
 10
633.19950947044
 20
1603.872137972855
 30
0.0
 10
633.1863535143957
 20
1603.619138772989
 30
0.0
 10
633.1735707663188
 20
1603.373316855862
 30
0.0
 10
633.1613478837685
 20
1603.138260860461
 30
0.0
 10
633.149871310664
 20
1602.917559435279
 30
0.0
 10
633.1393282069845
 20
1602.714801196933
 30
0.0
 10
633.1299034155794
 20
1602.533574865204
 30
0.0
 10
633.1217889469482
 20
1602.377468840742
 30
0.0
 10
633.115155967355
 20
1602.250072452273
 30
0.0
 10
633.1102309251589
 20
1602.154972567111
 30
0.0
 10
633.1071147014518
 20
1602.095761643408
 30
0.0
 10
633.1000598658544
 20
1601.956128893894
 30
0.0
 10
633.073183537034
 20
1601.726912977969
 30
0.0
 10
632.9996046628608
 20
1601.402401429165
 30
0.0
 10
632.8923246761183
 20
1601.092467342332
 30
0.0
 10
632.7538779793747
 20
1600.799111027347
 30
0.0
 10
632.5862100744625
 20
1600.524291184939
 30
0.0
 10
632.391402434792
 20
1600.269970253096
 30
0.0
 10
632.1714818308366
 20
1600.038110028336
 30
0.0
 10
631.9284729955554
 20
1599.830679865355
 30
0.0
 10
631.6643889466859
 20
1599.649658409429
 30
0.0
 10
631.381237553177
 20
1599.497042935688
 30
0.0
 10
631.0810316126725
 20
1599.374828058556
 30
0.0
 10
630.7657746780072
 20
1599.285092360814
 30
0.0
 10
630.4375470164003
 20
1599.229665518664
 30
0.0
 10
630.206984643833
 20
1599.217245053015
 30
0.0
 10
630.0666033244601
 20
1599.217417454837
 30
0.0
 10
630.0056862663049
 20
1599.217385484632
 30
0.0
 10
629.9065479156818
 20
1599.21740310558
 30
0.0
 10
629.7715758950819
 20
1599.21739561814
 30
0.0
 10
629.6031596848543
 20
1599.217398414721
 30
0.0
 10
629.4036879310308
 20
1599.217397448214
 30
0.0
 10
629.1755496018598
 20
1599.217397765244
 30
0.0
 10
628.921133551725
 20
1599.217397665113
 30
0.0
 10
628.6428286729586
 20
1599.217397695838
 30
0.0
 10
628.3430238457625
 20
1599.217397686624
 30
0.0
 10
628.0241079540951
 20
1599.217397689335
 30
0.0
 10
627.6884698807814
 20
1599.21739768855
 30
0.0
 10
627.3384985089806
 20
1599.217397688775
 30
0.0
 10
626.9765827217552
 20
1599.217397688711
 30
0.0
 10
626.6051114021947
 20
1599.217397688729
 30
0.0
 10
626.2264734333824
 20
1599.217397688724
 30
0.0
 10
625.8430576984019
 20
1599.217397688726
 30
0.0
 10
625.4572530803374
 20
1599.217397688724
 30
0.0
 10
625.071448462273
 20
1599.217397688726
 30
0.0
 10
624.6880327272924
 20
1599.217397688725
 30
0.0
 10
624.3093947584802
 20
1599.217397688726
 30
0.0
 10
623.9379234389194
 20
1599.217397688725
 30
0.0
 10
623.5760076516949
 20
1599.217397688724
 30
0.0
 10
623.2260362798902
 20
1599.217397688725
 30
0.0
 10
622.8903982065898
 20
1599.217397688725
 30
0.0
 10
622.571482314877
 20
1599.217397688725
 30
0.0
 10
622.2716774878361
 20
1599.217397688725
 30
0.0
 10
621.9933726085515
 20
1599.217397688725
 30
0.0
 10
621.7389565601063
 20
1599.217397688725
 30
0.0
 10
621.5108182255852
 20
1599.217397688725
 30
0.0
 10
621.3113464880719
 20
1599.217397688725
 30
0.0
 10
621.1429302306509
 20
1599.217397688726
 30
0.0
 10
621.0079583364052
 20
1599.217397688724
 30
0.0
 10
620.9088196884196
 20
1599.217397688725
 30
0.0
 10
620.847903169778
 20
1599.217397688725
 30
0.0
 10
620.8131708625477
 20
1599.217397688725
 30
0.0
 10
620.7778667625548
 20
1599.217397688725
 30
0.0
 10
620.7147979377869
 20
1599.217397688725
 30
0.0
 10
620.6107613294086
 20
1599.217397688724
 30
0.0
 10
620.4668350369893
 20
1599.217397688725
 30
0.0
 10
620.284097160097
 20
1599.217397688725
 30
0.0
 10
620.0636257983014
 20
1599.217397688726
 30
0.0
 10
619.8064990511696
 20
1599.217397688724
 30
0.0
 10
619.5137950182718
 20
1599.217397688725
 30
0.0
 10
619.1865917991759
 20
1599.217397688725
 30
0.0
 10
618.8259674934509
 20
1599.217397688726
 30
0.0
 10
618.4330002006652
 20
1599.217397688725
 30
0.0
 10
618.0087680203878
 20
1599.217397688726
 30
0.0
 10
617.5543490521872
 20
1599.217397688725
 30
0.0
 10
617.0708213956319
 20
1599.217397688725
 30
0.0
 10
616.559263150291
 20
1599.217397688726
 30
0.0
 10
616.0207524157327
 20
1599.217397688725
 30
0.0
 10
615.4563672915261
 20
1599.217397688724
 30
0.0
 10
614.86718587724
 20
1599.217397688725
 30
0.0
 10
614.2542862724424
 20
1599.217397688725
 30
0.0
 10
613.618746576703
 20
1599.217397688725
 30
0.0
 10
612.9616448895894
 20
1599.217397688725
 30
0.0
 10
612.2840593106711
 20
1599.217397688725
 30
0.0
 10
611.5870679395159
 20
1599.217397688725
 30
0.0
 10
610.8717488756939
 20
1599.217397688725
 30
0.0
 10
610.1391802187721
 20
1599.217397688725
 30
0.0
 10
609.3904400683209
 20
1599.217397688726
 30
0.0
 10
608.6266065239072
 20
1599.217397688725
 30
0.0
 10
607.8487576851013
 20
1599.217397688725
 30
0.0
 10
607.0579716514709
 20
1599.217397688725
 30
0.0
 10
606.2553265225848
 20
1599.217397688724
 30
0.0
 10
605.4419003980123
 20
1599.217397688725
 30
0.0
 10
604.6187713773213
 20
1599.217397688725
 30
0.0
 10
603.787017560081
 20
1599.217397688726
 30
0.0
 10
602.9477170458597
 20
1599.217397688725
 30
0.0
 10
602.1019479342264
 20
1599.217397688725
 30
0.0
 10
601.2507883247496
 20
1599.217397688725
 30
0.0
 10
600.3953163169982
 20
1599.217397688725
 30
0.0
 10
599.5366100105407
 20
1599.217397688725
 30
0.0
 10
598.6757475049458
 20
1599.217397688726
 30
0.0
 10
597.8138068997821
 20
1599.217397688725
 30
0.0
 10
596.9518662946186
 20
1599.217397688725
 30
0.0
 10
596.0910037890238
 20
1599.217397688725
 30
0.0
 10
595.2322974825662
 20
1599.217397688725
 30
0.0
 10
594.3768254748147
 20
1599.217397688725
 30
0.0
 10
593.5256658653382
 20
1599.217397688726
 30
0.0
 10
592.6798967537046
 20
1599.217397688725
 30
0.0
 10
591.8405962394836
 20
1599.217397688725
 30
0.0
 10
591.008842422243
 20
1599.217397688725
 30
0.0
 10
590.1857134015522
 20
1599.217397688725
 30
0.0
 10
589.3722872769794
 20
1599.217397688725
 30
0.0
 10
588.5696421480936
 20
1599.217397688725
 30
0.0
 10
587.7788561144632
 20
1599.217397688724
 30
0.0
 10
587.0010072756569
 20
1599.217397688725
 30
0.0
 10
586.237173731244
 20
1599.217397688725
 30
0.0
 10
585.4884335807921
 20
1599.217397688725
 30
0.0
 10
584.7558649238708
 20
1599.217397688725
 30
0.0
 10
584.0405458600482
 20
1599.217397688725
 30
0.0
 10
583.3435544888935
 20
1599.217397688725
 30
0.0
 10
582.6659689099749
 20
1599.217397688725
 30
0.0
 10
582.0088672228617
 20
1599.217397688725
 30
0.0
 10
581.3733275271218
 20
1599.217397688725
 30
0.0
 10
580.7604279223244
 20
1599.217397688724
 30
0.0
 10
580.1712465080382
 20
1599.217397688725
 30
0.0
 10
579.6068613838316
 20
1599.217397688725
 30
0.0
 10
579.0683506492735
 20
1599.217397688726
 30
0.0
 10
578.5567924039325
 20
1599.217397688725
 30
0.0
 10
578.0732647473776
 20
1599.217397688726
 30
0.0
 10
577.6188457791766
 20
1599.217397688724
 30
0.0
 10
577.1946135988993
 20
1599.217397688726
 30
0.0
 10
576.8016463061138
 20
1599.217397688725
 30
0.0
 10
576.4410220003883
 20
1599.217397688725
 30
0.0
 10
576.1138187812927
 20
1599.217397688726
 30
0.0
 10
575.8211147483947
 20
1599.217397688725
 30
0.0
 10
575.5639880012634
 20
1599.217397688726
 30
0.0
 10
575.3435166394672
 20
1599.217397688725
 30
0.0
 10
575.1607787625751
 20
1599.217397688725
 30
0.0
 10
575.0168524701556
 20
1599.217397688725
 30
0.0
 10
574.9128158617775
 20
1599.217397688725
 30
0.0
 10
574.8497470370098
 20
1599.217397688725
 30
0.0
 10
574.8144554603405
 20
1599.217397688725
 30
0.0
 10
574.7797723012492
 20
1599.217397688725
 30
0.0
 10
574.7189642393169
 20
1599.217397688725
 30
0.0
 10
574.6200020993099
 20
1599.217397688725
 30
0.0
 10
574.4852705111076
 20
1599.217397688725
 30
0.0
 10
574.3171541045897
 20
1599.217397688725
 30
0.0
 10
574.1180375096358
 20
1599.217397688725
 30
0.0
 10
573.8903053561257
 20
1599.217397688725
 30
0.0
 10
573.6363422739389
 20
1599.217397688725
 30
0.0
 10
573.3585328929557
 20
1599.217397688725
 30
0.0
 10
573.0592618430549
 20
1599.217397688725
 30
0.0
 10
572.7409137541168
 20
1599.217397688725
 30
0.0
 10
572.4058732560206
 20
1599.217397688725
 30
0.0
 10
572.0565249786469
 20
1599.217397688725
 30
0.0
 10
571.695253551874
 20
1599.217397688724
 30
0.0
 10
571.3244436055829
 20
1599.217397688726
 30
0.0
 10
570.9464797696523
 20
1599.217397688724
 30
0.0
 10
570.5637466739627
 20
1599.217397688726
 30
0.0
 10
570.1786289483933
 20
1599.217397688724
 30
0.0
 10
569.793511222824
 20
1599.217397688726
 30
0.0
 10
569.410778127134
 20
1599.217397688723
 30
0.0
 10
569.032814291204
 20
1599.217397688729
 30
0.0
 10
568.6620043449127
 20
1599.217397688711
 30
0.0
 10
568.3007329181392
 20
1599.217397688774
 30
0.0
 10
567.9513846407688
 20
1599.217397688553
 30
0.0
 10
567.6163441426598
 20
1599.217397689326
 30
0.0
 10
567.2979960537658
 20
1599.217397686653
 30
0.0
 10
566.9987250037153
 20
1599.217397695741
 30
0.0
 10
566.7209156232316
 20
1599.217397665432
 30
0.0
 10
566.466952539417
 20
1599.217397764209
 30
0.0
 10
566.2392203910609
 20
1599.217397451467
 30
0.0
 10
566.0401037803941
 20
1599.217398404904
 30
0.0
 10
565.8719874193415
 20
1599.217395646138
 30
0.0
 10
565.7372557094127
 20
1599.217403032334
 30
0.0
 10
565.6382938558766
 20
1599.217385649653
 30
0.0
 10
565.5774852741923
 20
1599.217417187565
 30
0.0
 10
565.4375549794326
 20
1599.217247361085
 30
0.0
 10
565.2075983834176
 20
1599.229468828465
 30
0.0
 10
564.8798813227912
 20
1599.283960504291
 30
0.0
 10
564.5644856599181
 20
1599.372313454674
 30
0.0
 10
564.2636445419897
 20
1599.492859035494
 30
0.0
 10
563.9795209661395
 20
1599.643683606845
 30
0.0
 10
563.7142890907518
 20
1599.822955978109
 30
0.0
 10
563.4701272076773
 20
1600.028842125234
 30
0.0
 10
563.2492000177022
 20
1600.259521209417
 30
0.0
 10
563.0537665281505
 20
1600.513192986506
 30
0.0
 10
562.8857891990358
 20
1600.788010870075
 30
0.0
 10
562.7484213834879
 20
1601.082315369352
 30
0.0
 10
562.6403763169683
 20
1601.393717714515
 30
0.0
 10
562.577004239812
 20
1601.72459060903
 30
0.0
 10
562.5095970123839
 20
1602.0592343535
 30
0.0
 10
562.3941929400111
 20
1602.382254914302
 30
0.0
 10
562.2471865106734
 20
1602.686235960537
 30
0.0
 10
562.0679863252665
 20
1602.968694873943
 30
0.0
 10
561.8600251253348
 20
1603.227818169015
 30
0.0
 10
561.6256495150747
 20
1603.461623084
 30
0.0
 10
561.367469078931
 20
1603.668162066314
 30
0.0
 10
561.0880025495104
 20
1603.845482733894
 30
0.0
 10
560.789782871329
 20
1603.991548303202
 30
0.0
 10
560.4753212755508
 20
1604.10457005983
 30
0.0
 10
560.1471869090759
 20
1604.181727141403
 30
0.0
 10
559.8077675726881
 20
1604.224021149141
 30
0.0
 10
559.1655838055398
 20
1604.212476413823
 30
0.0
 10
558.2295555025273
 20
1604.162129805649
 30
0.0
 10
556.9995783525665
 20
1604.164093645147
 30
0.0
 10
555.7783476617738
 20
1604.197282355558
 30
0.0
 10
554.56582524191
 20
1604.270883864253
 30
0.0
 10
553.3628454616281
 20
1604.381779185792
 30
0.0
 10
552.1700108852509
 20
1604.530117246392
 30
0.0
 10
550.9879852700453
 20
1604.715178131795
 30
0.0
 10
549.817416749924
 20
1604.936475154063
 30
0.0
 10
548.6589544363848
 20
1605.193451432945
 30
0.0
 10
547.5132582344996
 20
1605.485599271924
 30
0.0
 10
546.3809434473078
 20
1605.812284960366
 30
0.0
 10
545.2284220163392
 20
1606.184425899497
 30
0.0
 10
544.0572498443883
 20
1606.603814505631
 30
0.0
 10
542.8704613728762
 20
1607.075410925383
 30
0.0
 10
541.7029005579811
 20
1607.585664574546
 30
0.0
 10
540.5554770621227
 20
1608.133923596846
 30
0.0
 10
539.4290245364709
 20
1608.719340697334
 30
0.0
 10
538.3244500249051
 20
1609.341189292101
 30
0.0
 10
537.2424429858415
 20
1609.99845674868
 30
0.0
 10
536.1844884759382
 20
1610.691153710119
 30
0.0
 10
535.1491108235673
 20
1611.415490222362
 30
0.0
 10
534.4800813258887
 20
1611.926545027202
 30
0.0
 10
534.1456862400604
 20
1612.181981022058
 30
0.0
 11
752.8127869345038
 21
1654.212145952614
 31
0.0
 11
750.7527540460344
 21
1653.41556804433
 31
0.0
 11
748.6777045109027
 21
1652.653877753216
 31
0.0
 11
746.5881373717472
 21
1651.927256549322
 31
0.0
 11
744.4845516712061
 21
1651.235885902698
 31
0.0
 11
742.3674464519178
 21
1650.579947283394
 31
0.0
 11
740.2373207565207
 21
1649.959622161461
 31
0.0
 11
738.094673627653
 21
1649.375092006949
 31
0.0
 11
735.9400041079534
 21
1648.826538289909
 31
0.0
 11
733.7738112400597
 21
1648.31414248039
 31
0.0
 11
733.7793233928372
 21
1648.31414248039
 31
0.0
 11
733.7848355456148
 21
1648.31414248039
 31
0.0
 11
728.738558918993
 21
1647.189823045174
 31
0.0
 11
723.6834866658711
 21
1646.108109375205
 31
0.0
 11
718.6199080041412
 21
1645.069041167055
 31
0.0
 11
713.5481121516963
 21
1644.072658117298
 31
0.0
 11
708.4683883264294
 21
1643.118999922509
 31
0.0
 11
703.3810257462325
 21
1642.20810627926
 31
0.0
 11
698.2863136289985
 21
1641.340016884124
 31
0.0
 11
693.1845411926203
 21
1640.514771433676
 31
0.0
 11
688.0759976549903
 21
1639.732409624489
 31
0.0
 11
682.9609722340013
 21
1638.992971153135
 31
0.0
 11
677.8397541475457
 21
1638.296495716191
 31
0.0
 11
672.7126326135166
 21
1637.643023010227
 31
0.0
 11
667.5798968498062
 21
1637.032592731818
 31
0.0
 11
662.4418360743075
 21
1636.465244577537
 31
0.0
 11
657.2987395049131
 21
1635.941018243959
 31
0.0
 11
652.1508963595156
 21
1635.459953427656
 31
0.0
 11
646.9985958560075
 21
1635.022089825201
 31
0.0
 11
641.8421272122818
 21
1634.627467133169
 31
0.0
 11
641.8366150595041
 21
1634.627467133169
 31
0.0
 11
641.8311029067266
 21
1634.627467133169
 31
0.0
 11
641.2621946958452
 21
1634.566654892432
 31
0.0
 11
640.7060713939011
 21
1634.467048666841
 31
0.0
 11
640.1641186278961
 21
1634.330051939413
 31
0.0
 11
639.6377220248326
 21
1634.157068193169
 31
0.0
 11
639.1282672117125
 21
1633.949500911131
 31
0.0
 11
638.6371398155379
 21
1633.708753576318
 31
0.0
 11
638.1657254633112
 21
1633.436229671749
 31
0.0
 11
637.7154097820342
 21
1633.133332680446
 31
0.0
 11
637.2875783987092
 21
1632.801466085428
 31
0.0
 11
636.8836169403384
 21
1632.442033369717
 31
0.0
 11
636.5049110339238
 21
1632.056438016331
 31
0.0
 11
636.1528463064676
 21
1631.646083508291
 31
0.0
 11
635.8288083849718
 21
1631.212373328617
 31
0.0
 11
635.5341828964386
 21
1630.75671096033
 31
0.0
 11
635.2703554678701
 21
1630.280499886449
 31
0.0
 11
635.0387117262685
 21
1629.785143589996
 31
0.0
 11
634.8406372986359
 21
1629.272045553989
 31
0.0
 11
634.6775178119744
 21
1628.742609261449
 31
0.0
 11
634.5507388932861
 21
1628.198238195397
 31
0.0
 11
634.4616861695732
 21
1627.640335838853
 31
0.0
 11
634.4117452678378
 21
1627.070305674836
 31
0.0
 11
634.4106694612354
 21
1627.049807716897
 31
0.0
 11
634.4075432938148
 21
1626.990243062649
 31
0.0
 11
634.402518644155
 21
1626.894505541451
 31
0.0
 11
634.3957473908349
 21
1626.765488982657
 31
0.0
 11
634.3873814124339
 21
1626.606087215623
 31
0.0
 11
634.377572587531
 21
1626.419194069707
 31
0.0
 11
634.3664727947055
 21
1626.207703374263
 31
0.0
 11
634.3542339125363
 21
1625.974508958648
 31
0.0
 11
634.341007819603
 21
1625.722504652218
 31
0.0
 11
634.326946394484
 21
1625.45458428433
 31
0.0
 11
634.3122015157591
 21
1625.173641684339
 31
0.0
 11
634.2969250620072
 21
1624.882570681601
 31
0.0
 11
634.2812689118075
 21
1624.584265105474
 31
0.0
 11
634.2653849437388
 21
1624.281618785312
 31
0.0
 11
634.2494250363809
 21
1623.977525550472
 31
0.0
 11
634.2335410683124
 21
1623.67487923031
 31
0.0
 11
634.2178849181125
 21
1623.376573654182
 31
0.0
 11
634.2026084643607
 21
1623.085502651444
 31
0.0
 11
634.1878635856357
 21
1622.804560051453
 31
0.0
 11
634.173802160517
 21
1622.536639683565
 31
0.0
 11
634.1605760675833
 21
1622.284635377135
 31
0.0
 11
634.1483371854142
 21
1622.05144096152
 31
0.0
 11
634.1372373925886
 21
1621.839950266076
 31
0.0
 11
634.1274285676857
 21
1621.65305712016
 31
0.0
 11
634.1190625892848
 21
1621.493655353126
 31
0.0
 11
634.1122913359648
 21
1621.364638794332
 31
0.0
 11
634.1072666863048
 21
1621.268901273133
 31
0.0
 11
634.1041405188842
 21
1621.209336618886
 31
0.0
 11
634.1030647122819
 21
1621.188838660947
 31
0.0
 11
634.1019710707263
 21
1621.167890033969
 31
0.0
 11
634.0987544779162
 21
1621.106276425209
 31
0.0
 11
634.0935114316354
 21
1621.005846242931
 31
0.0
 11
634.0863384296687
 21
1620.868447895397
 31
0.0
 11
634.0773319698
 21
1620.695929790871
 31
0.0
 11
634.0665885498139
 21
1620.490140337613
 31
0.0
 11
634.0542046674943
 21
1620.252927943889
 31
0.0
 11
634.040276820626
 21
1619.98614101796
 31
0.0
 11
634.0249015069933
 21
1619.69162796809
 31
0.0
 11
634.0081752243799
 21
1619.37123720254
 31
0.0
 11
633.9901944705706
 21
1619.026817129573
 31
0.0
 11
633.9710557433497
 21
1618.660216157454
 31
0.0
 11
633.9508555405015
 21
1618.273282694444
 31
0.0
 11
633.92969035981
 21
1617.867865148806
 31
0.0
 11
633.9076566990599
 21
1617.445811928803
 31
0.0
 11
633.8848510560353
 21
1617.008971442697
 31
0.0
 11
633.8613699285205
 21
1616.559192098753
 31
0.0
 11
633.8373098142999
 21
1616.098322305231
 31
0.0
 11
633.8127672111579
 21
1615.628210470395
 31
0.0
 11
633.7878386168784
 21
1615.150705002508
 31
0.0
 11
633.7626205292462
 21
1614.667654309833
 31
0.0
 11
633.7372094460453
 21
1614.180906800633
 31
0.0
 11
633.71170186506
 21
1613.692310883169
 31
0.0
 11
633.6861942840749
 21
1613.203714965706
 31
0.0
 11
633.660783200874
 21
1612.716967456505
 31
0.0
 11
633.6355651132416
 21
1612.23391676383
 31
0.0
 11
633.6106365189623
 21
1611.756411295943
 31
0.0
 11
633.5860939158201
 21
1611.286299461108
 31
0.0
 11
633.5620338015997
 21
1610.825429667586
 31
0.0
 11
633.5385526740848
 21
1610.375650323641
 31
0.0
 11
633.5157470310603
 21
1609.938809837536
 31
0.0
 11
633.4937133703102
 21
1609.516756617533
 31
0.0
 11
633.4725481896187
 21
1609.111339071894
 31
0.0
 11
633.4523479867703
 21
1608.724405608884
 31
0.0
 11
633.4332092595494
 21
1608.357804636765
 31
0.0
 11
633.4152285057402
 21
1608.013384563799
 31
0.0
 11
633.398502223127
 21
1607.692993798249
 31
0.0
 11
633.383126909494
 21
1607.398480748378
 31
0.0
 11
633.3691990626257
 21
1607.131693822449
 31
0.0
 11
633.3568151803063
 21
1606.894481428725
 31
0.0
 11
633.3460717603201
 21
1606.688691975468
 31
0.0
 11
633.3370653004514
 21
1606.516173870941
 31
0.0
 11
633.3298922984845
 21
1606.378775523407
 31
0.0
 11
633.3246492522038
 21
1606.278345341129
 31
0.0
 11
633.3214326593936
 21
1606.216731732369
 31
0.0
 11
633.3203390178381
 21
1606.195783105391
 31
0.0
 11
633.3192504633616
 21
1606.174849365458
 31
0.0
 11
633.316109206158
 21
1606.11444057308
 31
0.0
 11
633.311101855566
 21
1606.018145369388
 31
0.0
 11
633.3044150209245
 21
1605.889552395514
 31
0.0
 11
633.2962353115725
 21
1605.73225029259
 31
0.0
 11
633.2867493368485
 21
1605.549827701745
 31
0.0
 11
633.2761437060916
 21
1605.345873264113
 31
0.0
 11
633.2646050286405
 21
1605.123975620823
 31
0.0
 11
633.2523199138342
 21
1604.887723413008
 31
0.0
 11
633.2394749710112
 21
1604.640705281799
 31
0.0
 11
633.2262568095107
 21
1604.386509868328
 31
0.0
 11
633.2128520386711
 21
1604.128725813725
 31
0.0
 11
633.1994472678319
 21
1603.870941759121
 31
0.0
 11
633.1862291063313
 21
1603.61674634565
 31
0.0
 11
633.1733841635084
 21
1603.369728214441
 31
0.0
 11
633.1610990487021
 21
1603.133476006626
 31
0.0
 11
633.149560371251
 21
1602.911578363336
 31
0.0
 11
633.138954740494
 21
1602.707623925704
 31
0.0
 11
633.1294687657701
 21
1602.52520133486
 31
0.0
 11
633.1212890564179
 21
1602.367899231934
 31
0.0
 11
633.1146022217765
 21
1602.23930625806
 31
0.0
 11
633.1095948711845
 21
1602.143011054369
 31
0.0
 11
633.1064536139809
 21
1602.082602261991
 31
0.0
 11
633.1053650595044
 21
1602.061668522058
 31
0.0
 11
633.0669788614612
 21
1601.725871147863
 31
0.0
 11
632.9933381877437
 21
1601.402524328666
 31
0.0
 11
632.8864799636134
 21
1601.093616778481
 31
0.0
 11
632.7484411143312
 21
1600.801137211319
 31
0.0
 11
632.5812585651582
 21
1600.527074341194
 31
0.0
 11
632.3869692413558
 21
1600.273416882117
 31
0.0
 11
632.1676100681849
 21
1600.0421535481
 31
0.0
 11
631.9252179709071
 21
1599.835273053156
 31
0.0
 11
631.6618298747833
 21
1599.654764111298
 31
0.0
 11
631.3794827050745
 21
1599.502615436538
 31
0.0
 11
631.080213387042
 21
1599.380815742888
 31
0.0
 11
630.7660588459471
 21
1599.291353744362
 31
0.0
 11
630.439056007051
 21
1599.23621815497
 31
0.0
 11
630.1012417956148
 21
1599.217397688725
 31
0.0
 11
630.0801399950396
 21
1599.217397688725
 31
0.0
 11
630.0184271820365
 21
1599.217397688725
 31
0.0
 11
629.9184922396895
 21
1599.217397688725
 31
0.0
 11
629.7827240510827
 21
1599.217397688725
 31
0.0
 11
629.6135114993001
 21
1599.217397688725
 31
0.0
 11
629.4132434674256
 21
1599.217397688725
 31
0.0
 11
629.1843088385431
 21
1599.217397688725
 31
0.0
 11
628.9290964957368
 21
1599.217397688725
 31
0.0
 11
628.6499953220906
 21
1599.217397688725
 31
0.0
 11
628.3493942006884
 21
1599.217397688725
 31
0.0
 11
628.0296820146144
 21
1599.217397688725
 31
0.0
 11
627.6932476469524
 21
1599.217397688725
 31
0.0
 11
627.3424799807865
 21
1599.217397688725
 31
0.0
 11
626.9797678992005
 21
1599.217397688725
 31
0.0
 11
626.6075002852788
 21
1599.217397688725
 31
0.0
 11
626.2280660221049
 21
1599.217397688725
 31
0.0
 11
625.8438539927631
 21
1599.217397688725
 31
0.0
 11
625.4572530803374
 21
1599.217397688725
 31
0.0
 11
625.0706521679116
 21
1599.217397688725
 31
0.0
 11
624.6864401385698
 21
1599.217397688725
 31
0.0
 11
624.307005875396
 21
1599.217397688725
 31
0.0
 11
623.9347382614742
 21
1599.217397688725
 31
0.0
 11
623.5720261798882
 21
1599.217397688725
 31
0.0
 11
623.2212585137224
 21
1599.217397688725
 31
0.0
 11
622.8848241460604
 21
1599.217397688725
 31
0.0
 11
622.5651119599863
 21
1599.217397688725
 31
0.0
 11
622.2645108385842
 21
1599.217397688725
 31
0.0
 11
621.9854096649381
 21
1599.217397688725
 31
0.0
 11
621.7301973221317
 21
1599.217397688725
 31
0.0
 11
621.5012626932493
 21
1599.217397688725
 31
0.0
 11
621.3009946613748
 21
1599.217397688725
 31
0.0
 11
621.1317821095921
 21
1599.217397688725
 31
0.0
 11
620.9960139209852
 21
1599.217397688725
 31
0.0
 11
620.8960789786385
 21
1599.217397688725
 31
0.0
 11
620.8343661656353
 21
1599.217397688725
 31
0.0
 11
620.81326436506
 21
1599.217397688725
 31
0.0
 11
620.7918820569478
 21
1599.217397688725
 31
0.0
 11
620.7284538656568
 21
1599.217397688725
 31
0.0
 11
620.6240578907558
 21
1599.217397688725
 31
0.0
 11
620.4797722318135
 21
1599.217397688725
 31
0.0
 11
620.2966749883985
 21
1599.217397688725
 31
0.0
 11
620.0758442600795
 21
1599.217397688725
 31
0.0
 11
619.8183581464252
 21
1599.217397688725
 31
0.0
 11
619.5252947470045
 21
1599.217397688725
 31
0.0
 11
619.1977321613856
 21
1599.217397688725
 31
0.0
 11
618.8367484891378
 21
1599.217397688725
 31
0.0
 11
618.4434218298292
 21
1599.217397688725
 31
0.0
 11
618.0188302830288
 21
1599.217397688725
 31
0.0
 11
617.5640519483053
 21
1599.217397688725
 31
0.0
 11
617.0801649252272
 21
1599.217397688725
 31
0.0
 11
616.5682473133633
 21
1599.217397688725
 31
0.0
 11
616.0293772122823
 21
1599.217397688725
 31
0.0
 11
615.4646327215528
 21
1599.217397688725
 31
0.0
 11
614.8750919407436
 21
1599.217397688725
 31
0.0
 11
614.2618329694234
 21
1599.217397688725
 31
0.0
 11
613.6259339071607
 21
1599.217397688725
 31
0.0
 11
612.9684728535244
 21
1599.217397688725
 31
0.0
 11
612.2905279080829
 21
1599.217397688725
 31
0.0
 11
611.5931771704054
 21
1599.217397688725
 31
0.0
 11
610.87749874006
 21
1599.217397688725
 31
0.0
 11
610.1445707166158
 21
1599.217397688725
 31
0.0
 11
609.3954711996412
 21
1599.217397688725
 31
0.0
 11
608.6312782887051
 21
1599.217397688725
 31
0.0
 11
607.853070083376
 21
1599.217397688725
 31
0.0
 11
607.0619246832227
 21
1599.217397688725
 31
0.0
 11
606.2589201878139
 21
1599.217397688725
 31
0.0
 11
605.4451346967182
 21
1599.217397688725
 31
0.0
 11
604.6216463095045
 21
1599.217397688725
 31
0.0
 11
603.7895331257412
 21
1599.217397688725
 31
0.0
 11
602.949873244997
 21
1599.217397688725
 31
0.0
 11
602.1037447668409
 21
1599.217397688725
 31
0.0
 11
601.2522257908412
 21
1599.217397688725
 31
0.0
 11
600.3963944165669
 21
1599.217397688725
 31
0.0
 11
599.5373287435865
 21
1599.217397688725
 31
0.0
 11
598.6761068714686
 21
1599.217397688725
 31
0.0
 11
597.8138068997821
 21
1599.217397688725
 31
0.0
 11
596.9515069280958
 21
1599.217397688725
 31
0.0
 11
596.0902850559779
 21
1599.217397688725
 31
0.0
 11
595.2312193829977
 21
1599.217397688725
 31
0.0
 11
594.3753880087231
 21
1599.217397688725
 31
0.0
 11
593.5238690327236
 21
1599.217397688725
 31
0.0
 11
592.6777405545673
 21
1599.217397688725
 31
0.0
 11
591.8380806738232
 21
1599.217397688725
 31
0.0
 11
591.00596749006
 21
1599.217397688725
 31
0.0
 11
590.1824791028461
 21
1599.217397688725
 31
0.0
 11
589.3686936117505
 21
1599.217397688725
 31
0.0
 11
588.5656891163418
 21
1599.217397688725
 31
0.0
 11
587.7745437161884
 21
1599.217397688725
 31
0.0
 11
586.9963355108595
 21
1599.217397688725
 31
0.0
 11
586.2321425999231
 21
1599.217397688725
 31
0.0
 11
585.4830430829487
 21
1599.217397688725
 31
0.0
 11
584.7501150595044
 21
1599.217397688725
 31
0.0
 11
584.034436629159
 21
1599.217397688725
 31
0.0
 11
583.3370858914814
 21
1599.217397688725
 31
0.0
 11
582.65914094604
 21
1599.217397688725
 31
0.0
 11
582.0016798924037
 21
1599.217397688725
 31
0.0
 11
581.3657808301412
 21
1599.217397688725
 31
0.0
 11
580.7525218588207
 21
1599.217397688725
 31
0.0
 11
580.1629810780116
 21
1599.217397688725
 31
0.0
 11
579.5982365872821
 21
1599.217397688725
 31
0.0
 11
579.0593664862012
 21
1599.217397688725
 31
0.0
 11
578.5474488743373
 21
1599.217397688725
 31
0.0
 11
578.0635618512592
 21
1599.217397688725
 31
0.0
 11
577.6087835165356
 21
1599.217397688725
 31
0.0
 11
577.1841919697353
 21
1599.217397688725
 31
0.0
 11
576.7908653104267
 21
1599.217397688725
 31
0.0
 11
576.4298816381787
 21
1599.217397688725
 31
0.0
 11
576.10231905256
 21
1599.217397688725
 31
0.0
 11
575.8092556531392
 21
1599.217397688725
 31
0.0
 11
575.5517695394849
 21
1599.217397688725
 31
0.0
 11
575.3309388111659
 21
1599.217397688725
 31
0.0
 11
575.1478415677509
 21
1599.217397688725
 31
0.0
 11
575.0035559088086
 21
1599.217397688725
 31
0.0
 11
574.8991599339075
 21
1599.217397688725
 31
0.0
 11
574.8357317426166
 21
1599.217397688725
 31
0.0
 11
574.8143494345044
 21
1599.217397688725
 31
0.0
 11
574.7932852039006
 21
1599.217397688725
 31
0.0
 11
574.731682265342
 21
1599.217397688725
 31
0.0
 11
574.6319252487083
 21
1599.217397688725
 31
0.0
 11
574.4963987838795
 21
1599.217397688725
 31
0.0
 11
574.3274875007351
 21
1599.217397688725
 31
0.0
 11
574.1275760291546
 21
1599.217397688725
 31
0.0
 11
573.8990489990179
 21
1599.217397688725
 31
0.0
 11
573.6442910402049
 21
1599.217397688725
 31
0.0
 11
573.3656867825947
 21
1599.217397688725
 31
0.0
 11
573.0656208560674
 21
1599.217397688725
 31
0.0
 11
572.7464778905027
 21
1599.217397688725
 31
0.0
 11
572.4106425157802
 21
1599.217397688725
 31
0.0
 11
572.0604993617794
 21
1599.217397688725
 31
0.0
 11
571.6984330583804
 21
1599.217397688725
 31
0.0
 11
571.3268282354625
 21
1599.217397688725
 31
0.0
 11
570.9480695229056
 21
1599.217397688725
 31
0.0
 11
570.5645415505893
 21
1599.217397688725
 31
0.0
 11
570.1786289483933
 21
1599.217397688725
 31
0.0
 11
569.7927163461974
 21
1599.217397688725
 31
0.0
 11
569.4091883738811
 21
1599.217397688725
 31
0.0
 11
569.0304296613242
 21
1599.217397688725
 31
0.0
 11
568.6588248384063
 21
1599.217397688725
 31
0.0
 11
568.2967585350071
 21
1599.217397688725
 31
0.0
 11
567.9466153810065
 21
1599.217397688725
 31
0.0
 11
567.6107800062839
 21
1599.217397688725
 31
0.0
 11
567.2916370407193
 21
1599.217397688725
 31
0.0
 11
566.991571114192
 21
1599.217397688725
 31
0.0
 11
566.7129668565819
 21
1599.217397688725
 31
0.0
 11
566.4582088977688
 21
1599.217397688725
 31
0.0
 11
566.2296818676321
 21
1599.217397688725
 31
0.0
 11
566.0297703960517
 21
1599.217397688725
 31
0.0
 11
565.8608591129073
 21
1599.217397688725
 31
0.0
 11
565.7253326480783
 21
1599.217397688725
 31
0.0
 11
565.6255756314448
 21
1599.217397688725
 31
0.0
 11
565.5639726928863
 21
1599.217397688725
 31
0.0
 11
565.5429084622823
 21
1599.217397688725
 31
0.0
 11
565.2062832742104
 21
1599.235878579649
 31
0.0
 11
564.8796838314726
 21
1599.290096887127
 31
0.0
 11
564.5653079701341
 21
1599.378216063213
 31
0.0
 11
564.2653535262585
 21
1599.498399559963
 31
0.0
 11
563.9820183359104
 21
1599.648810829435
 31
0.0
 11
563.7175002351544
 21
1599.827613323682
 31
0.0
 11
563.4739970600544
 21
1600.032970494761
 31
0.0
 11
563.253706646675
 21
1600.263045794728
 31
0.0
 11
563.0588268310806
 21
1600.516002675639
 31
0.0
 11
562.8915554493353
 21
1600.790004589549
 31
0.0
 11
562.7540903375036
 21
1601.083214988515
 31
0.0
 11
562.6486293316498
 21
1601.393797324592
 31
0.0
 11
562.5773702678383
 21
1601.719915049836
 31
0.0
 11
562.5009854288217
 21
1602.05921728252
 31
0.0
 11
562.3880201676385
 21
1602.381268007467
 31
0.0
 11
562.2410336084732
 21
1602.684080140015
 31
0.0
 11
562.0625848755102
 21
1602.965666595504
 31
0.0
 11
561.8552330929341
 21
1603.224040289272
 31
0.0
 11
561.6215373849294
 21
1603.457214136659
 31
0.0
 11
561.3640568756805
 21
1603.663201053003
 31
0.0
 11
561.0853506893722
 21
1603.840013953644
 31
0.0
 11
560.7879779501885
 21
1603.985665753921
 31
0.0
 11
560.4744977823143
 21
1604.098169369173
 31
0.0
 11
560.147469309934
 21
1604.175537714739
 31
0.0
 11
559.8094516572321
 21
1604.215783705958
 31
0.0
 11
559.4630039483931
 21
1604.216920258169
 31
0.0
 11
558.2263231255889
 21
1604.173422737754
 31
0.0
 11
556.9971832340154
 21
1604.169352421235
 31
0.0
 11
555.7762350139313
 21
1604.204173404871
 31
0.0
 11
554.5641292055948
 21
1604.277349784919
 31
0.0
 11
553.3615165492645
 21
1604.388345657636
 31
0.0
 11
552.1690477851989
 21
1604.53662511928
 31
0.0
 11
550.9873736536565
 21
1604.72165226611
 31
0.0
 11
549.8171448948956
 21
1604.942891194383
 31
0.0
 11
548.6590122491748
 21
1605.199806000356
 31
0.0
 11
547.5136264567527
 21
1605.491860780288
 31
0.0
 11
546.3816382578876
 21
1605.818519630436
 31
0.0
 11
545.2636983928381
 21
1606.179246647057
 31
0.0
 11
544.0588299900603
 21
1606.611046647057
 31
0.0
 11
542.8723501289491
 21
1607.082401855391
 31
0.0
 11
541.7051187053379
 21
1607.592518522057
 31
0.0
 11
540.5579956150602
 21
1608.140602897058
 31
0.0
 11
539.431840753949
 21
1608.725861230391
 31
0.0
 11
538.327514017838
 21
1609.347499772058
 31
0.0
 11
537.2458753025603
 21
1610.004724772058
 31
0.0
 11
536.1877845039492
 21
1610.696742480391
 31
0.0
 11
535.1541015178382
 21
1611.422759147058
 31
0.0
 11
534.1456862400604
 21
1612.181981022058
 31
0.0
  0
SPLINE
  5
CF
330
1F
100
AcDbEntity
  8
0
  6
Continuous
 62
     7
100
AcDbSpline
210
0.0
220
0.0
230
1.0
 70
     8
 71
     3
 72
    82
 73
    78
 74
    76
 42
0.0000000001
 43
0.0000000001
 44
0.00000001
 40
0.0
 40
0.0
 40
0.0
 40
0.0
 40
0.8922797309028852
 40
2.855295138889289
 40
4.818310546875637
 40
5.710590277778522
 40
6.555826043106587
 40
7.414157462127658
 40
8.427875183422533
 40
11.28042970148509
 40
15.68892304758149
 40
21.37045725297849
 40
28.04213434894258
 40
35.42105636674038
 40
43.22432533763837
 40
51.16904329290305
 40
58.97231226380119
 40
66.35123428159889
 40
73.02291137756308
 40
78.70444558296008
 40
83.11293892905658
 40
85.96549344711887
 40
86.97921116841386
 40
87.95157797194757
 40
90.5575210054179
 40
94.33030420312876
 40
98.80319149938384
 40
103.509446828487
 40
107.9823341247423
 40
111.7551173224531
 40
114.3610603559235
 40
115.3334271594572
 40
116.1973937192653
 40
118.3573101187855
 40
121.1652014381618
 40
123.9730927575382
 40
126.1330091570584
 40
126.9969757168665
 40
127.8995089404077
 40
130.3492419757335
 40
133.959374869898
 40
138.3431076699548
 40
143.1136404229577
 40
147.8841731759607
 40
152.2679059760175
 40
155.878038870182
 40
158.3277719055078
 40
159.2303051290488
 40
160.2629006966471
 40
163.2018265428884
 40
167.8087913829424
 40
173.8455039319784
 40
181.0736729051665
 40
189.2550070176761
 40
198.1512149846768
 40
207.5240055213382
 40
217.1350873428299
 40
226.7461691643217
 40
236.1189597009831
 40
245.015167667984
 40
253.1965017804934
 40
260.4246707536814
 40
266.4613833027176
 40
271.0683481427717
 40
274.007273989013
 40
275.0398695566112
 40
275.9560960783102
 40
278.4683300894207
 40
282.221903258962
 40
286.8621472559543
 40
292.0343937494169
 40
297.3839744083696
 40
302.5562209018324
 40
307.1964648988244
 40
310.9500380683659
 40
313.4622720794763
 40
314.3784986011755
 40
314.3784986011755
 40
314.3784986011755
 40
314.3784986011755
 10
421.2567973511708
 20
1589.218352549835
 30
0.0
 10
421.5542248591536
 20
1589.218394419698
 30
0.0
 10
422.5059928846986
 20
1589.218528403259
 30
0.0
 10
424.1120531639792
 20
1589.216583966834
 30
0.0
 10
425.7183064985657
 20
1589.22332166514
 30
0.0
 10
426.9515376017375
 20
1589.210765487652
 30
0.0
 10
427.8175998910457
 20
1589.245843146336
 30
0.0
 10
428.7125492168202
 20
1589.395774822487
 30
0.0
 10
430.2475656693945
 20
1589.746988665491
 30
0.0
 10
432.9468518189958
 20
1590.315552412351
 30
0.0
 10
437.1620852424335
 20
1591.233770831449
 30
0.0
 10
442.6240003672831
 20
1592.410716733109
 30
0.0
 10
449.0528381393028
 20
1593.800585613729
 30
0.0
 10
456.1732736048844
 20
1595.338506034969
 30
0.0
 10
463.7083948371755
 20
1596.966430652383
 30
0.0
 10
471.3818023939942
 20
1598.624108398877
 30
0.0
 10
478.9169430944201
 20
1600.251949308165
 30
0.0
 10
486.0373073143117
 20
1601.790176068103
 30
0.0
 10
492.4663733261108
 20
1603.179063574602
 30
0.0
 10
497.9276238696652
 20
1604.358867010064
 30
0.0
 10
502.1445367147081
 20
1605.269864335155
 30
0.0
 10
504.8405998918647
 20
1605.852286059629
 30
0.0
 10
506.4171069183484
 20
1606.19288327398
 30
0.0
 10
507.9132848337758
 20
1606.516024439906
 30
0.0
 10
510.3084146356858
 20
1607.033362485661
 30
0.0
 10
513.8440877466906
 20
1607.797027409072
 30
0.0
 10
518.0640820287428
 20
1608.708510741978
 30
0.0
 10
522.5121874983597
 20
1609.669247775338
 30
0.0
 10
526.7321752659476
 20
1610.580761221567
 30
0.0
 10
530.2678682013512
 20
1611.34433450605
 30
0.0
 10
532.6629565654588
 20
1611.861864099396
 30
0.0
 10
534.1104019562627
 20
1612.174192169991
 30
0.0
 10
535.4122355263955
 20
1612.456460494913
 30
0.0
 10
537.3121210377324
 20
1612.867895015907
 30
0.0
 10
539.8452528392944
 20
1613.416700341555
 30
0.0
 10
542.3783811681747
 20
1613.965521743835
 30
0.0
 10
544.2782732909634
 20
1614.376925657398
 30
0.0
 10
545.5573471401987
 20
1614.65430986436
 30
0.0
 10
546.9311768802412
 20
1614.950573558135
 30
0.0
 10
549.1996674853459
 20
1615.440534153319
 30
0.0
 10
552.6024967811891
 20
1616.175043212815
 30
0.0
 10
556.7614738238317
 20
1617.072945476321
 30
0.0
 10
561.2985512688262
 20
1618.052421671414
 30
0.0
 10
565.8356261134552
 20
1619.031909886487
 30
0.0
 10
569.9946099205621
 20
1619.929780881805
 30
0.0
 10
573.3974210097126
 20
1620.664374100258
 30
0.0
 10
575.6659486012218
 20
1621.154163728793
 30
0.0
 10
577.0946696961134
 20
1621.46253178669
 30
0.0
 10
578.6826923298551
 20
1621.805730130348
 30
0.0
 10
581.4777080684585
 20
1622.40955215635
 30
0.0
 10
585.9031200157122
 20
1623.365740932029
 30
0.0
 10
591.7260432635726
 20
1624.623824833006
 30
0.0
 10
598.7135464877854
 20
1626.133547152223
 30
0.0
 10
606.632718357193
 20
1627.844558610151
 30
0.0
 10
615.2506402057975
 20
1629.706543889209
 30
0.0
 10
624.3343958084882
 20
1631.669176369953
 30
0.0
 10
633.6510681845142
 20
1633.682132931736
 30
0.0
 10
642.9677405604831
 20
1635.695089493781
 30
0.0
 10
652.0514961633379
 20
1637.657721973767
 30
0.0
 10
660.6694180113884
 20
1639.519707255392
 30
0.0
 10
668.5885898826089
 20
1641.23071870492
 30
0.0
 10
675.5760931012325
 20
1642.740441050039
 30
0.0
 10
681.3990163649205
 20
1643.998524877662
 30
0.0
 10
685.8244282730695
 20
1644.954713834581
 30
0.0
 10
688.6194440854383
 20
1645.558535518697
 30
0.0
 10
690.2119280531838
 20
1645.902698510935
 30
0.0
 10
691.6654765109852
 20
1646.216420551775
 30
0.0
 10
694.0055674952552
 20
1646.721657087355
 30
0.0
 10
697.5590600697481
 20
1647.488770517954
 30
0.0
 10
701.9792497028014
 20
1648.443023898873
 30
0.0
 10
706.9194644505207
 20
1649.509529396083
 30
0.0
 10
712.0330192442787
 20
1650.613459946266
 30
0.0
 10
716.9732334146529
 20
1651.679968116725
 30
0.0
 10
721.3934249894194
 20
1652.634212507037
 30
0.0
 10
724.9469123443623
 20
1653.401350105429
 30
0.0
 10
727.2870137715552
 20
1653.906538287721
 30
0.0
 10
728.4040992266712
 20
1654.147698077705
 30
0.0
 10
728.702630684504
 20
1654.212145952614
 30
0.0
 11
421.2567973511708
 21
1589.218352549835
 31
0.0
 11
422.1490770820737
 21
1589.218352549835
 31
0.0
 11
424.1120924900601
 21
1589.218352549835
 31
0.0
 11
426.0751078980464
 21
1589.218352549835
 31
0.0
 11
426.9673876289493
 21
1589.218352549835
 31
0.0
 11
427.8114360230466
 21
1589.263138791154
 31
0.0
 11
428.659618531727
 21
1589.394741438724
 31
0.0
 11
429.6504782153689
 21
1589.608799154773
 31
0.0
 11
432.4387112786406
 21
1590.211147611564
 31
0.0
 11
436.7477987400603
 21
1591.142049772057
 31
0.0
 11
442.3012216181467
 21
1592.341768599218
 31
0.0
 11
448.8224609314182
 21
1593.750567056008
 31
0.0
 11
456.0349976983933
 21
1595.308708105391
 31
0.0
 11
463.6623129375909
 21
1596.956454710329
 31
0.0
 11
471.427887667529
 21
1598.634069833786
 31
0.0
 11
479.0552029067266
 21
1600.281816438724
 31
0.0
 11
486.2677396737017
 21
1601.839957488107
 31
0.0
 11
492.7889789869733
 21
1603.248755944897
 31
0.0
 11
498.3424018650596
 21
1604.448474772058
 31
0.0
 11
502.6514893264794
 21
1605.379376932552
 31
0.0
 11
505.4397223897508
 21
1605.981725389342
 31
0.0
 11
506.4305820733929
 21
1606.195783105391
 31
0.0
 11
507.3810314618246
 21
1606.40107109979
 31
0.0
 11
509.9282358228214
 21
1606.951242924778
 31
0.0
 11
513.6159794499363
 21
1607.747760343046
 31
0.0
 11
517.988046636722
 21
1608.69208511728
 31
0.0
 11
522.5882216767312
 21
1609.685679010169
 31
0.0
 11
526.960288863517
 21
1610.630003784404
 31
0.0
 11
530.6480324906319
 21
1611.426521202671
 31
0.0
 11
533.1952368516288
 21
1611.976693027659
 31
0.0
 11
534.1456862400604
 21
1612.181981022058
 31
0.0
 11
534.9900663840933
 21
1612.364902832758
 31
0.0
 11
537.1010167441755
 21
1612.822207359507
 31
0.0
 11
539.8452522122824
 21
1613.41670324428
 31
0.0
 11
542.5894876803893
 21
1614.011199129054
 31
0.0
 11
544.7004380404715
 21
1614.468503655804
 31
0.0
 11
545.5448181845044
 21
1614.651425466503
 31
0.0
 11
546.4270272122822
 21
1614.841881369281
 31
0.0
 11
548.8215945733932
 21
1615.358833105392
 31
0.0
 11
552.3504306845044
 21
1616.120656716503
 31
0.0
 11
556.6354459622821
 21
1617.045728244281
 31
0.0
 11
561.2985508233932
 21
1618.052423730392
 31
0.0
 11
565.9616556845043
 21
1619.059119216503
 31
0.0
 11
570.246670962282
 21
1619.984190744281
 31
0.0
 11
573.7755070733931
 21
1620.746014355392
 31
0.0
 11
576.1700744345042
 21
1621.262966091503
 31
0.0
 11
577.0522834622819
 21
1621.453421994281
 31
0.0
 11
578.0615896370266
 21
1621.671492285348
 31
0.0
 11
580.934230288223
 21
1622.292153882999
 31
0.0
 11
585.437288606315
 21
1623.26508287391
 31
0.0
 11
591.3378477817455
 21
1624.539955344761
 31
0.0
 11
598.4029910049585
 21
1626.066447382226
 31
0.0
 11
606.3998014663974
 21
1627.794235072984
 31
0.0
 11
615.0953623565057
 21
1629.672994503711
 31
0.0
 11
624.256756865727
 21
1631.652401761084
 31
0.0
 11
633.6510681845045
 21
1633.68213293178
 31
0.0
 11
643.0453795032822
 21
1635.711864102477
 31
0.0
 11
652.2067740125035
 21
1637.69127135985
 31
0.0
 11
660.902334902612
 21
1639.570030790576
 31
0.0
 11
668.8991453640507
 21
1641.297818481334
 31
0.0
 11
675.9642885872637
 21
1642.8243105188
 31
0.0
 11
681.8648477626944
 21
1644.09918298965
 31
0.0
 11
686.3679060807863
 21
1645.072111980563
 31
0.0
 11
689.2405467319827
 21
1645.692773578214
 31
0.0
 11
690.2498529067274
 21
1645.91084386928
 31
0.0
 11
691.1454472802143
 21
1646.104187494061
 31
0.0
 11
693.6011092720332
 21
1646.634323239428
 31
0.0
 11
697.2701571892214
 21
1647.426408411917
 31
0.0
 11
701.8059093388165
 21
1648.405600318066
 31
0.0
 11
706.8616840278555
 21
1649.497056264409
 31
0.0
 11
712.0907995633758
 21
1650.625933557485
 31
0.0
 11
717.1465742524149
 21
1651.717389503829
 31
0.0
 11
721.6823264020098
 21
1652.696581409977
 31
0.0
 11
725.3513743191982
 21
1653.488666582466
 31
0.0
 11
727.8070363110171
 21
1654.018802327833
 31
0.0
 11
728.702630684504
 21
1654.212145952614
 31
0.0
  0
SPLINE
  5
D0
330
1F
100
AcDbEntity
  8
0
  6
Continuous
 62
     7
100
AcDbSpline
210
0.0
220
0.0
230
1.0
 70
    11
 71
     3
 72
   105
 73
   101
 74
    99
 42
0.0000000001
 43
0.0000000001
 44
0.00000001
 40
0.0
 40
0.0
 40
0.0
 40
0.0
 40
3.624933604600756
 40
13.99974357638871
 40
30.37444365234387
 40
51.9990475694442
 40
78.12356906467016
 40
107.9980218750002
 40
140.8724197374131
 40
175.9967763888892
 40
212.6211055664066
 40
249.9954210069445
 40
287.3697364474831
 40
323.9940656250003
 40
359.1184222764759
 40
391.9928201388891
 40
421.8672729492189
 40
447.9917944444446
 40
469.6163983615454
 40
485.9910984375001
 40
496.3659084092885
 40
499.9908420138891
 40
502.9124751413676
 40
505.8395396134984
 40
541.327787805727
 40
576.7457348790284
 40
612.2379916884594
 40
615.3572821260708
 40
618.4790846325643
 40
621.6014601801363
 40
624.7254810491418
 40
628.4724619844717
 40
639.196579833864
 40
656.1225971624231
 40
678.475276535253
 40
705.4793805174575
 40
736.3596716741413
 40
770.3409125704084
 40
806.647865771364
 40
844.5052938421102
 40
883.1379593477523
 40
921.7706248533946
 40
959.6280529241408
 40
995.9350061250962
 40
1029.916247021363
 40
1060.796538178047
 40
1087.800642160252
 40
1110.153321533082
 40
1127.079338861641
 40
1137.803456711033
 40
1141.550437646363
 40
1145.297178803047
 40
1156.020610389418
 40
1172.945544579957
 40
1195.296793549141
 40
1222.29916947145
 40
1253.177484521363
 40
1287.156550873359
 40
1323.461180701919
 40
1361.31618618152
 40
1399.946379486641
 40
1438.576572791762
 40
1476.431578271363
 40
1512.736208099922
 40
1546.715274451919
 40
1577.593589501832
 40
1604.595965424141
 40
1626.947214393325
 40
1643.872148583864
 40
1654.595580170235
 40
1658.342321326919
 40
1661.463639057526
 40
1664.583722722262
 40
1667.706673562055
 40
1670.825561031512
 40
1706.317896275115
 40
1741.736077209495
 40
1777.223554477608
 40
1780.149318283999
 40
1783.072927724063
 40
1786.697581586911
 40
1797.071590918508
 40
1813.445027333438
 40
1835.067962446285
 40
1861.190467871633
 40
1891.062615224064
 40
1923.934476118161
 40
1959.056122168508
 40
1995.677624989688
 40
2033.049056196286
 40
2070.420487402884
 40
2107.041990224063
 40
2142.163636274411
 40
2175.035497168507
 40
2204.907644520938
 40
2231.030149946286
 40
2252.653085059133
 40
2269.026521474063
 40
2279.40053080566
 40
2283.025184668508
 40
2283.025184668508
 40
2283.025184668508
 40
2283.025184668508
 10
1605.77380303058
 20
1654.199081158478
 30
0.0
 10
1604.565491829046
 20
1654.199081158479
 30
0.0
 10
1599.898910636917
 20
1654.199081158482
 30
0.0
 10
1589.774096086146
 20
1654.199081158428
 30
0.0
 10
1573.649391431118
 20
1654.199081158818
 30
0.0
 10
1552.274782935472
 20
1654.199081156631
 30
0.0
 10
1526.400256859045
 20
1654.199081167405
 30
0.0
 10
1496.775799479762
 20
1654.199081118437
 30
0.0
 10
1464.151396995253
 20
1654.199081328669
 30
0.0
 10
1429.277035941882
 20
1654.199080464878
 30
0.0
 10
1392.902701483741
 20
1654.199083887066
 30
0.0
 10
1355.778384155699
 20
1654.199070759383
 30
0.0
 10
1318.654054120843
 20
1654.199119608915
 30
0.0
 10
1282.279756513364
 20
1654.198943292782
 30
0.0
 10
1247.405268976332
 20
1654.199559350376
 30
0.0
 10
1214.781291907176
 20
1654.197484606205
 30
0.0
 10
1185.155464418813
 20
1654.204167235336
 30
0.0
 10
1159.285102042613
 20
1654.183858886201
 30
0.0
 10
1137.898848823069
 20
1654.240655778855
 30
0.0
 10
1121.802613358755
 20
1654.101797902905
 30
0.0
 10
1111.624535432911
 20
1654.361588889664
 30
0.0
 10
1106.053782856042
 20
1654.021597764745
 30
0.0
 10
1102.749509082988
 20
1654.735644600894
 30
0.0
 10
1095.08049050203
 20
1666.923201670165
 30
0.0
 10
1089.940488258557
 20
1690.989951067008
 30
0.0
 10
1082.791024524557
 20
1725.684180279602
 30
0.0
 10
1079.579248445883
 20
1750.332376236735
 30
0.0
 10
1081.312568212887
 20
1764.342667379466
 30
0.0
 10
1083.153893164734
 20
1766.996054438241
 30
0.0
 10
1085.800972329599
 20
1768.813861306374
 30
0.0
 10
1089.164274855692
 20
1769.321880378187
 30
0.0
 10
1095.014500837689
 20
1769.087992652414
 30
0.0
 10
1105.491458756927
 20
1769.265652312345
 30
0.0
 10
1122.15304913781
 20
1769.170693502081
 30
0.0
 10
1144.249776124498
 20
1769.209534405531
 30
0.0
 10
1170.994587995592
 20
1769.195646416398
 30
0.0
 10
1201.61675612438
 20
1769.200216373322
 30
0.0
 10
1235.339494677189
 20
1769.198797546793
 30
0.0
 10
1271.388062083672
 20
1769.199218841558
 30
0.0
 10
1308.987070039189
 20
1769.199098266689
 30
0.0
 10
1347.361325182395
 20
1769.199131672741
 30
0.0
 10
1385.735577641128
 20
1769.199122695295
 30
0.0
 10
1423.334593381803
 20
1769.19912503558
 30
0.0
 10
1459.383134067046
 20
1769.19912444487
 30
0.0
 10
1493.105962494121
 20
1769.199124588639
 30
0.0
 10
1523.727841170384
 20
1769.199124555151
 30
0.0
 10
1550.473532674757
 20
1769.199124562518
 30
0.0
 10
1572.567799569194
 20
1769.199124561023
 30
0.0
 10
1589.235404419471
 20
1769.199124561291
 30
0.0
 10
1599.701109790562
 20
1769.199124561253
 30
0.0
 10
1605.773723104365
 20
1769.199124561257
 30
0.0
 10
1611.846107663826
 20
1769.199124561253
 30
0.0
 10
1622.311143308356
 20
1769.19912456129
 30
0.0
 10
1638.97768155707
 20
1769.199124561023
 30
0.0
 10
1661.070534584318
 20
1769.19912456252
 30
0.0
 10
1687.814514565262
 20
1769.199124555147
 30
0.0
 10
1718.434433671181
 20
1769.199124588656
 30
0.0
 10
1752.155104090581
 20
1769.199124444793
 30
0.0
 10
1788.20133793932
 20
1769.199125035894
 30
0.0
 10
1825.79794762755
 20
1769.199122694056
 30
0.0
 10
1864.169744413622
 20
1769.199131677463
 30
0.0
 10
1902.54154392476
 20
1769.199098249225
 30
0.0
 10
1940.138145710107
 20
1769.199218904176
 30
0.0
 10
1976.184406684155
 20
1769.198797329603
 30
0.0
 10
2009.904985870248
 20
1769.200217098461
 30
0.0
 10
2040.525198805668
 20
1769.195644106347
 30
0.0
 10
2067.268285851904
 20
1769.209541319353
 30
0.0
 10
2089.363636171831
 20
1769.170674619251
 30
0.0
 10
2106.024069003007
 20
1769.265696497551
 30
0.0
 10
2116.500527351735
 20
1769.087918842819
 30
0.0
 10
2122.349321737318
 20
1769.321928608944
 30
0.0
 10
2125.711335866411
 20
1768.814039443345
 30
0.0
 10
2128.354944538854
 20
1766.994407818896
 30
0.0
 10
2130.199480082225
 20
1764.343686236793
 30
0.0
 10
2131.918652397535
 20
1750.328894762626
 30
0.0
 10
2128.721096697454
 20
1725.686057104022
 30
0.0
 10
2121.566066009701
 20
1690.988052454845
 30
0.0
 10
2116.422648006494
 20
1666.928458220428
 30
0.0
 10
2108.761147337644
 20
1654.734530634718
 30
0.0
 10
2105.455756003846
 20
1654.022035906373
 30
0.0
 10
2099.885144969496
 20
1654.361147318173
 30
0.0
 10
2089.70751901419
 20
1654.102062244249
 30
0.0
 10
2073.61270396992
 20
1654.240542810894
 30
0.0
 10
2052.22802825191
 20
1654.183900248673
 30
0.0
 10
2026.359688401081
 20
1654.204153415275
 30
0.0
 10
1996.736138605482
 20
1654.197488944411
 30
0.0
 10
1964.114681842581
 20
1654.199558051017
 30
0.0
 10
1929.242884833072
 20
1654.198943667395
 30
0.0
 10
1892.871394512938
 20
1654.199119504436
 30
0.0
 10
1855.749929357554
 20
1654.19907078764
 30
0.0
 10
1818.628476987563
 20
1654.199083879652
 30
0.0
 10
1782.256949588885
 20
1654.199080466763
 30
0.0
 10
1747.385279845204
 20
1654.199081328206
 30
0.0
 10
1714.763395036209
 20
1654.199081118546
 30
0.0
 10
1685.141223822353
 20
1654.199081167381
 30
0.0
 10
1659.268694523255
 20
1654.199081156637
 30
0.0
 10
1637.89573553933
 20
1654.199081158817
 30
0.0
 10
1621.772275252792
 20
1654.199081158428
 30
0.0
 10
1611.648242049678
 20
1654.199081158482
 30
0.0
 10
1606.982020984862
 20
1654.199081158479
 30
0.0
 10
1605.77380303058
 20
1654.199081158478
 30
0.0
 11
1605.77380303058
 21
1654.199081158478
 31
0.0
 11
1602.148869425979
 21
1654.199081158478
 31
0.0
 11
1591.774059454191
 21
1654.199081158478
 31
0.0
 11
1575.399359378236
 21
1654.199081158478
 31
0.0
 11
1553.774755461136
 21
1654.199081158478
 31
0.0
 11
1527.65023396591
 21
1654.199081158478
 31
0.0
 11
1497.77578115558
 21
1654.199081158478
 31
0.0
 11
1464.901383293167
 21
1654.199081158478
 31
0.0
 11
1429.777026641691
 21
1654.199081158478
 31
0.0
 11
1393.152697464173
 21
1654.199081158478
 31
0.0
 11
1355.778382023636
 21
1654.199081158478
 31
0.0
 11
1318.404066583097
 21
1654.199081158478
 31
0.0
 11
1281.77973740558
 21
1654.199081158478
 31
0.0
 11
1246.655380754104
 21
1654.199081158478
 31
0.0
 11
1213.780982891691
 21
1654.199081158478
 31
0.0
 11
1183.906530081361
 21
1654.199081158478
 31
0.0
 11
1157.782008586135
 21
1654.199081158478
 31
0.0
 11
1136.157404669035
 21
1654.199081158478
 31
0.0
 11
1119.78270459308
 21
1654.199081158478
 31
0.0
 11
1109.407894621292
 21
1654.199081158478
 31
0.0
 11
1105.782961016691
 21
1654.199081158478
 31
0.0
 11
1102.989677596552
 21
1655.055531896325
 31
0.0
 11
1101.14724053058
 21
1657.329983936255
 31
0.0
 11
1089.97859823377
 21
1691.014953715062
 31
0.0
 11
1083.217228313502
 21
1725.781530361152
 31
0.0
 11
1080.945200600025
 21
1761.2009908807
 31
0.0
 11
1081.554293481969
 21
1764.260235672366
 31
0.0
 11
1083.28786553058
 21
1766.8564596307
 31
0.0
 11
1085.884778508011
 21
1768.590031679311
 31
0.0
 11
1088.948846433359
 21
1769.199124561256
 31
0.0
 11
1092.695827368689
 21
1769.199124561256
 31
0.0
 11
1103.419945218081
 21
1769.199124561256
 31
0.0
 11
1120.34596254664
 21
1769.199124561256
 31
0.0
 11
1142.69864191947
 21
1769.199124561256
 31
0.0
 11
1169.702745901675
 21
1769.199124561256
 31
0.0
 11
1200.583037058359
 21
1769.199124561256
 31
0.0
 11
1234.564277954626
 21
1769.199124561256
 31
0.0
 11
1270.871231155581
 21
1769.199124561256
 31
0.0
 11
1308.728659226327
 21
1769.199124561256
 31
0.0
 11
1347.36132473197
 21
1769.199124561256
 31
0.0
 11
1385.993990237612
 21
1769.199124561256
 31
0.0
 11
1423.851418308358
 21
1769.199124561256
 31
0.0
 11
1460.158371509313
 21
1769.199124561256
 31
0.0
 11
1494.139612405581
 21
1769.199124561256
 31
0.0
 11
1525.019903562264
 21
1769.199124561256
 31
0.0
 11
1552.024007544469
 21
1769.199124561256
 31
0.0
 11
1574.376686917299
 21
1769.199124561256
 31
0.0
 11
1591.302704245858
 21
1769.199124561256
 31
0.0
 11
1602.02682209525
 21
1769.199124561256
 31
0.0
 11
1605.77380303058
 21
1769.199124561256
 31
0.0
 11
1609.520544187264
 21
1769.199124561256
 31
0.0
 11
1620.243975773635
 21
1769.199124561256
 31
0.0
 11
1637.168909964174
 21
1769.199124561256
 31
0.0
 11
1659.520158933358
 21
1769.199124561256
 31
0.0
 11
1686.522534855667
 21
1769.199124561256
 31
0.0
 11
1717.40084990558
 21
1769.199124561256
 31
0.0
 11
1751.379916257577
 21
1769.199124561256
 31
0.0
 11
1787.684546086136
 21
1769.199124561256
 31
0.0
 11
1825.539551565737
 21
1769.199124561256
 31
0.0
 11
1864.169744870858
 21
1769.199124561256
 31
0.0
 11
1902.79993817598
 21
1769.199124561256
 31
0.0
 11
1940.65494365558
 21
1769.199124561256
 31
0.0
 11
1976.95957348414
 21
1769.199124561256
 31
0.0
 11
2010.938639836136
 21
1769.199124561256
 31
0.0
 11
2041.816954886049
 21
1769.199124561256
 31
0.0
 11
2068.819330808358
 21
1769.199124561256
 31
0.0
 11
2091.170579777542
 21
1769.199124561256
 31
0.0
 11
2108.095513968081
 21
1769.199124561256
 31
0.0
 11
2118.818945554452
 21
1769.199124561256
 31
0.0
 11
2122.565686711136
 21
1769.199124561256
 31
0.0
 11
2125.626998560094
 21
1768.590031679311
 31
0.0
 11
2128.221155461136
 21
1766.8564596307
 31
0.0
 11
2129.956794567038
 21
1764.260235672366
 31
0.0
 11
2130.563820391691
 21
1761.2009908807
 31
0.0
 11
2128.290567755375
 21
1725.781530361152
 31
0.0
 11
2121.527972912268
 21
1691.014953715062
 31
0.0
 11
2110.361780461136
 21
1657.329983936255
 31
0.0
 11
2108.521410452456
 21
1655.055531896325
 31
0.0
 11
2105.726059975025
 21
1654.199081158478
 31
0.0
 11
2102.101406112178
 21
1654.199081158478
 31
0.0
 11
2091.72739678058
 21
1654.199081158478
 31
0.0
 11
2075.35396036565
 21
1654.199081158478
 31
0.0
 11
2053.731025252803
 21
1654.199081158478
 31
0.0
 11
2027.608519827455
 21
1654.199081158478
 31
0.0
 11
1997.736372475024
 21
1654.199081158478
 31
0.0
 11
1964.864511580928
 21
1654.199081158478
 31
0.0
 11
1929.74286553058
 21
1654.199081158478
 31
0.0
 11
1893.1213627094
 21
1654.199081158478
 31
0.0
 11
1855.749931502803
 21
1654.199081158478
 31
0.0
 11
1818.378500296205
 21
1654.199081158478
 31
0.0
 11
1781.756997475025
 21
1654.199081158478
 31
0.0
 11
1746.635351424677
 21
1654.199081158478
 31
0.0
 11
1713.763490530581
 21
1654.199081158478
 31
0.0
 11
1683.89134317815
 21
1654.199081158478
 31
0.0
 11
1657.768837752802
 21
1654.199081158478
 31
0.0
 11
1636.145902639955
 21
1654.199081158478
 31
0.0
 11
1619.772466225024
 21
1654.199081158478
 31
0.0
 11
1609.398456893427
 21
1654.199081158478
 31
0.0
 11
1605.77380303058
 21
1654.199081158478
 31
0.0
  0
SPLINE
  5
D1
330
1F
100
AcDbEntity
  8
0
  6
Continuous
 62
     7
100
AcDbSpline
210
0.0
220
0.0
230
1.0
 70
     8
 71
     3
 72
    51
 73
    47
 74
    45
 42
0.0000000001
 43
0.0000000001
 44
0.00000001
 40
0.0
 40
0.0
 40
0.0
 40
0.0
 40
13.25686698841825
 40
26.51550609426106
 40
77.18572371574305
 40
127.8377141364173
 40
133.5035949255473
 40
139.1834809228538
 40
140.8255705712572
 40
142.4676602196605
 40
144.8144205375002
 40
149.977293236747
 40
155.1401659359941
 40
157.4869262538337
 40
159.5871957081295
 40
161.6874651624256
 40
163.9095538874592
 40
166.1327755186639
 40
168.5217833633141
 40
174.4943029749394
 40
182.2585784700524
 40
190.0228539651652
 40
195.9953735767905
 40
198.3843814214408
 40
200.7746141889303
 40
206.750196107655
 40
214.5184526019968
 40
222.2867090963388
 40
228.2622910150632
 40
230.6525237825528
 40
232.8725448107397
 40
235.0914621082721
 40
237.1892762246599
 40
239.2870903410475
 40
241.6346657191857
 40
246.7993315510888
 40
251.963997382992
 40
254.3115727611299
 40
255.9536624095333
 40
257.5957520579366
 40
263.2734183004093
 40
268.9493142700802
 40
319.6430976738576
 40
370.3424415602422
 40
383.5864078661956
 40
396.8367269087618
 40
396.8367269087618
 40
396.8367269087618
 40
396.8367269087618
 10
1436.297153725026
 20
1654.199081158478
 30
0.0
 10
1440.478483403857
 20
1652.758464343696
 30
0.0
 10
1448.84170170257
 20
1649.877038139056
 30
0.0
 10
1473.824039072708
 20
1643.779879429482
 30
0.0
 10
1511.535572341279
 20
1635.208168710286
 30
0.0
 10
1546.750672799752
 20
1636.718028871958
 30
0.0
 10
1567.633879841256
 20
1630.422924782904
 30
0.0
 10
1569.370265734452
 20
1625.84395058311
 30
0.0
 10
1569.416966514996
 20
1622.878389687303
 30
0.0
 10
1569.531737012605
 20
1621.001002214165
 30
0.0
 10
1569.684257236529
 20
1617.956048577629
 30
0.0
 10
1569.907542658605
 20
1613.737212086402
 30
0.0
 10
1570.137888940833
 20
1609.517941664912
 30
0.0
 10
1570.287822956326
 20
1606.321171027662
 30
0.0
 10
1570.450408814425
 20
1604.136128767673
 30
0.0
 10
1570.383203876964
 20
1602.019218125057
 30
0.0
 10
1571.206926804865
 20
1599.757374849198
 30
0.0
 10
1573.603552893973
 20
1599.048198697182
 30
0.0
 10
1577.086031123703
 20
1599.322076936503
 30
0.0
 10
1582.490357620405
 20
1599.148198234006
 30
0.0
 10
1589.645185118859
 20
1599.221186547339
 30
0.0
 10
1596.815603166846
 20
1599.200831553133
 30
0.0
 10
1602.190247655785
 20
1599.204664147684
 30
0.0
 10
1605.774211156464
 20
1599.204238151438
 30
0.0
 10
1609.359197119738
 20
1599.204664843873
 30
0.0
 10
1614.73658223308
 20
1599.200823239226
 30
0.0
 10
1621.910757160299
 20
1599.221226769828
 30
0.0
 10
1629.068964984463
 20
1599.148064222182
 30
0.0
 10
1634.476749005543
 20
1599.322358035742
 30
0.0
 10
1637.958503798452
 20
1599.047938466502
 30
0.0
 10
1640.355979056203
 20
1599.75707396732
 30
0.0
 10
1641.166059302463
 20
1602.020416440421
 30
0.0
 10
1641.108774622143
 20
1604.133146934495
 30
0.0
 10
1641.278111937654
 20
1606.316715598542
 30
0.0
 10
1641.42386714689
 20
1609.513657258618
 30
0.0
 10
1641.654205342076
 20
1613.734448630885
 30
0.0
 10
1641.875707758101
 20
1617.954842297698
 30
0.0
 10
1642.026732069032
 20
1621.000728058689
 30
0.0
 10
1642.14164774259
 20
1622.878416851701
 30
0.0
 10
1642.188717376184
 20
1625.842993948554
 30
0.0
 10
1643.919382166398
 20
1630.428148037433
 30
0.0
 10
1664.838149893739
 20
1636.701889611323
 30
0.0
 10
1700.0594297342
 20
1635.217616423017
 30
0.0
 10
1737.799233571
 20
1643.770558711605
 30
0.0
 10
1762.781342401661
 20
1649.878594726831
 30
0.0
 10
1771.137511706078
 20
1652.758688820562
 30
0.0
 10
1775.31659816947
 20
1654.199081158478
 30
0.0
 11
1436.297153725026
 21
1654.199081158478
 31
0.0
 11
1448.895867917734
 21
1650.073923823408
 31
0.0
 11
1461.730226641691
 21
1646.746650602922
 31
0.0
 11
1511.542173256275
 21
1637.460051210561
 31
0.0
 11
1561.908091225025
 21
1632.084324214033
 31
0.0
 11
1567.054374862178
 21
1629.714098519589
 31
0.0
 11
1569.343985322247
 21
1624.516138450144
 31
0.0
 11
1569.429423690303
 21
1622.876272998755
 31
0.0
 11
1569.514862058358
 21
1621.236407547367
 31
0.0
 11
1569.638024221986
 21
1618.89288134294
 31
0.0
 11
1569.908980981969
 21
1613.7371236932
 31
0.0
 11
1570.179937741952
 21
1608.58136604346
 31
0.0
 11
1570.30309990558
 21
1606.237839839033
 31
0.0
 11
1570.413342961136
 21
1604.140465707089
 31
0.0
 11
1570.523586016692
 21
1602.043091575144
 31
0.0
 11
1571.45651787433
 21
1600.026332677575
 31
0.0
 11
1573.522197127803
 21
1599.204332894589
 31
0.0
 11
1575.911204972453
 21
1599.204332894589
 31
0.0
 11
1581.883724584079
 21
1599.204332894589
 31
0.0
 11
1589.648000079192
 21
1599.204332894589
 31
0.0
 11
1597.412275574304
 21
1599.204332894589
 31
0.0
 11
1603.38479518593
 21
1599.204332894589
 31
0.0
 11
1605.77380303058
 21
1599.204332894589
 31
0.0
 11
1608.16403579807
 21
1599.204332894589
 31
0.0
 11
1614.139617716794
 21
1599.204332894589
 31
0.0
 11
1621.907874211136
 21
1599.204332894589
 31
0.0
 11
1629.676130705478
 21
1599.204332894589
 31
0.0
 11
1635.651712624202
 21
1599.204332894589
 31
0.0
 11
1638.041945391692
 21
1599.204332894589
 31
0.0
 11
1640.104179549678
 21
1600.026332677575
 31
0.0
 11
1641.029532197247
 21
1602.043091575144
 31
0.0
 11
1641.14528740558
 21
1604.1377096307
 31
0.0
 11
1641.261042613914
 21
1606.232327686255
 31
0.0
 11
1641.383343503671
 21
1608.576715164554
 31
0.0
 11
1641.652405461136
 21
1613.734367616811
 31
0.0
 11
1641.921467418601
 21
1618.892020069068
 31
0.0
 11
1642.043768308358
 21
1621.236407547367
 31
0.0
 11
1642.129206676414
 21
1622.876272998755
 31
0.0
 11
1642.214645044469
 21
1624.516138450144
 31
0.0
 11
1644.498743351761
 21
1629.714098519589
 31
0.0
 11
1649.656051294469
 21
1632.084324214033
 31
0.0
 11
1700.06399942815
 21
1637.460051210561
 31
0.0
 11
1749.905573863913
 21
1646.746650602922
 31
0.0
 11
1762.724774167733
 21
1650.073923823408
 31
0.0
 11
1775.31659816947
 21
1654.199081158478
 31
0.0
  0
SPLINE
  5
D2
330
1F
100
AcDbEntity
  8
0
  6
Continuous
 62
     7
100
AcDbSpline
210
0.0
220
0.0
230
1.0
 70
     8
 71
     3
 72
    31
 73
    27
 74
    25
 42
0.0000000001
 43
0.0000000001
 44
0.00000001
 40
0.0
 40
0.0
 40
0.0
 40
0.0
 40
20.75644354112246
 40
41.49317919836634
 40
52.18513880070098
 40
62.88503351936078
 40
70.65368616592451
 40
78.42503992197491
 40
84.94868645225773
 40
91.47488769858889
 40
98.48565701282497
 40
113.9093495041443
 40
129.3330419954639
 40
136.3438113096997
 40
146.7000274648171
 40
157.0517813371742
 40
161.1106070416114
 40
165.1694327460485
 40
169.6563376705245
 40
177.9891611016948
 40
182.4760660261709
 40
186.3624254484585
 40
193.5799500898505
 40
197.4663095121383
 40
212.3138077759816
 40
227.1602761564319
 40
227.1602761564319
 40
227.1602761564319
 40
227.1602761564319
 10
1462.512952336136
 20
1646.564749561255
 30
0.0
 10
1456.802679612134
 20
1642.651393219238
 30
0.0
 10
1445.387555969245
 20
1634.828396199317
 30
0.0
 10
1432.085865324288
 20
1623.576037266314
 30
0.0
 10
1421.84810688199
 20
1613.957158595107
 30
0.0
 10
1415.095092175824
 20
1606.972173241576
 30
0.0
 10
1409.101750165994
 20
1600.573828077128
 30
0.0
 10
1404.637093662098
 20
1594.776710226298
 30
0.0
 10
1399.241804070234
 20
1590.059104089074
 30
0.0
 10
1392.415629040156
 20
1588.955324831635
 30
0.0
 10
1382.812387978807
 20
1589.366523113135
 30
0.0
 10
1370.172055112755
 20
1589.086768458349
 30
0.0
 10
1357.53817225239
 20
1589.361776149649
 30
0.0
 10
1346.654248017616
 20
1588.910027160511
 30
0.0
 10
1337.201453599071
 20
1590.914585304003
 30
0.0
 10
1331.317497727502
 20
1597.324269430398
 30
0.0
 10
1328.413089817376
 20
1602.728701810566
 30
0.0
 10
1326.278201556113
 20
1606.352572217574
 30
0.0
 10
1323.476838858343
 20
1611.230018298163
 30
0.0
 10
1320.587496007462
 20
1616.223842707533
 30
0.0
 10
1317.80278552343
 20
1621.04632372636
 30
0.0
 10
1315.207257875503
 20
1625.548089405046
 30
0.0
 10
1312.687661028403
 20
1629.866699526639
 30
0.0
 10
1308.449889976644
 20
1637.393631173753
 30
0.0
 10
1301.585724943839
 20
1646.572025481868
 30
0.0
 10
1292.997642991901
 20
1651.656788051646
 30
0.0
 10
1288.703750947247
 20
1654.199081158478
 30
0.0
 11
1462.512952336136
 21
1646.564749561255
 31
0.0
 11
1445.592021346553
 21
1634.54343337202
 31
0.0
 11
1429.688082544469
 21
1621.236407547367
 31
0.0
 11
1421.911123994122
 21
1613.899043181047
 31
0.0
 11
1414.435955808358
 21
1606.243351991811
 31
0.0
 11
1409.203544784053
 21
1600.501066835561
 31
0.0
 11
1404.144766572248
 21
1594.601685325144
 31
0.0
 11
1398.977812362178
 21
1590.6191549432
 31
0.0
 11
1392.607830808358
 21
1589.199775602922
 31
0.0
 11
1385.597061494122
 21
1589.199775602922
 31
0.0
 11
1370.173369002803
 21
1589.199775602922
 31
0.0
 11
1354.749676511483
 21
1589.199775602922
 31
0.0
 11
1347.738907197247
 21
1589.199775602922
 31
0.0
 11
1337.735727943775
 21
1591.880748910214
 31
0.0
 11
1330.419723169469
 21
1599.204332894589
 31
0.0
 11
1328.388494870858
 21
1602.718330290422
 31
0.0
 11
1326.357266572247
 21
1606.232327686255
 31
0.0
 11
1324.113616237885
 21
1610.117987086975
 31
0.0
 11
1319.946837045498
 21
1617.334211688313
 31
0.0
 11
1317.703186711136
 21
1621.219871089033
 31
0.0
 11
1315.759642472453
 21
1624.585346590576
 31
0.0
 11
1312.150203172042
 21
1630.835515379157
 31
0.0
 11
1310.206658933359
 21
1634.2009908807
 31
0.0
 11
1300.955888534053
 21
1645.81440776438
 31
0.0
 11
1288.703750947247
 21
1654.199081158478
 31
0.0
  0
SPLINE
  5
D3
330
1F
100
AcDbEntity
  8
0
  6
PHANTOM
 62
     5
100
AcDbSpline
210
0.0
220
0.0
230
1.0
 70
    11
 71
     3
 72
    19
 73
    15
 74
    13
 42
0.0000000001
 43
0.0000000001
 44
0.00000001
 40
0.0
 40
0.0
 40
0.0
 40
0.0
 40
5.002278645833712
 40
10.0045572916672
 40
17.64445898790387
 40
25.29302660617238
 40
32.94796244785795
 40
40.58733568300005
 40
45.58961432883353
 40
50.59189297466725
 40
58.24335874831549
 40
65.90171752267239
 40
73.55371092228249
 40
81.20570432189155
 40
81.20570432189155
 40
81.20570432189155
 40
81.20570432189155
 10
1460.941988794469
 20
1729.2029440057
 30
0.0
 10
1462.61167367835
 20
1729.179531395131
 30
0.0
 10
1465.951043446112
 20
1729.132706173993
 30
0.0
 10
1471.792694943772
 20
1729.54562084372
 30
0.0
 10
1478.788323284894
 20
1727.14031210915
 30
0.0
 10
1481.991575753196
 20
1719.199440389603
 30
0.0
 10
1478.790013644877
 20
1711.272281883833
 30
0.0
 10
1471.795279735665
 20
1708.823017875238
 30
0.0
 10
1465.944335084612
 20
1709.348393438091
 30
0.0
 10
1460.088902884691
 20
1708.821943334828
 30
0.0
 10
1453.090798996555
 20
1711.281418505365
 30
0.0
 10
1449.864422844701
 20
1719.152335998043
 30
0.0
 10
1453.108185104077
 20
1727.319432678185
 30
0.0
 10
1458.330720897672
 20
1728.575106896529
 30
0.0
 10
1460.941988794469
 20
1729.2029440057
 30
0.0
 11
1460.941988794469
 21
1729.2029440057
 31
0.0
 11
1465.944267440303
 21
1729.2029440057
 31
0.0
 11
1470.946546086136
 21
1729.2029440057
 31
0.0
 11
1478.002101641692
 21
1726.272545785214
 31
0.0
 11
1480.923542613914
 21
1719.203898866811
 31
0.0
 11
1478.002101641692
 21
1712.128361757436
 31
0.0
 11
1470.946546086136
 21
1709.199341575144
 31
0.0
 11
1465.944267440303
 21
1709.199341575144
 31
0.0
 11
1460.941988794469
 21
1709.199341575144
 31
0.0
 11
1453.873341876067
 21
1712.128361757436
 31
0.0
 11
1450.942943655581
 21
1719.203898866811
 31
0.0
 11
1453.873341876067
 21
1726.272545785214
 31
0.0
 11
1460.941988794469
 21
1729.2029440057
 31
0.0
  0
SPLINE
  5
D4
330
1F
100
AcDbEntity
  8
0
  6
Continuous
 62
     7
100
AcDbSpline
210
0.0
220
0.0
230
1.0
 70
     8
 71
     3
 72
   288
 73
   284
 74
   282
 42
0.0000000001
 43
0.0000000001
 44
0.00000001
 40
0.0
 40
0.0
 40
0.0
 40
0.0
 40
3.4612338174814
 40
6.9208363119154
 40
10.37896100186369
 40
13.83576057847252
 40
17.29138705847904
 40
20.74599193781549
 40
24.19972634569527
 40
27.6527411990931
 40
31.10518735751151
 40
34.55721577793242
 40
38.00897766985617
 40
41.46062465032077
 40
45.03114229032892
 40
48.60156862998725
 40
52.17221550785006
 40
55.74341640808019
 40
59.31552669224937
 40
62.88892380986924
 40
66.76978114458275
 40
70.6508369707892
 40
74.53330160219866
 40
78.41836712675965
 40
78.42387927953766
 40
78.42939143231567
 40
79.21177432779022
 40
79.99027664752261
 40
80.76553115197909
 40
81.53811835075119
 40
82.30857393058636
 40
83.07739663981111
 40
83.84505653299262
 40
84.6120034861394
 40
85.37867589865751
 40
86.14550950287998
 40
86.91294620470103
 40
87.68144287932495
 40
88.45148004436071
 40
89.22357032852888
 40
89.9982666485889
 40
90.77617000031202
 40
91.55793676237084
 40
91.57931763961727
 40
91.64273241170639
 40
91.74708928916147
 40
91.89129648250577
 40
92.07426220226324
 40
92.29489465895716
 40
92.55210206311125
 40
92.84479262524923
 40
93.17187455589505
 40
93.53225606557106
 40
93.92484536480191
 40
94.34855066411086
 40
94.80228017402095
 40
95.28494210505727
 40
95.79544466774172
 40
96.33269607259894
 40
96.89560453015196
 40
97.48307825092428
 40
98.09402544543985
 40
98.72735432422218
 40
99.38197309779497
 40
100.0567899766813
 40
100.7507131714053
 40
101.4626508924902
 40
102.1915113504594
 40
102.9362027558374
 40
103.6956333191465
 40
104.4687112509111
 40
105.2543447616544
 40
106.0514420619008
 40
106.8589113621728
 40
107.6756608729945
 40
108.5005988048892
 40
109.3326333683805
 40
110.1706727739922
 40
111.0136252322481
 40
111.8603989536716
 40
112.7099021487858
 40
113.5610430281146
 40
114.4127298021819
 40
115.2638706815107
 40
116.113373876625
 40
116.9601475980484
 40
117.8031000563041
 40
118.6411394619162
 40
119.4731740254076
 40
120.2981119573023
 40
121.1148614681237
 40
121.922330768396
 40
122.7194280686417
 40
123.5050615793854
 40
124.2781395111501
 40
125.0375700744593
 40
125.7822614798369
 40
126.5111219378063
 40
127.2230596588913
 40
127.916982853615
 40
128.5917997325016
 40
129.2464185060741
 40
129.8797473848564
 40
130.490694579372
 40
131.078168300145
 40
131.6410767576976
 40
132.1783281625548
 40
132.6888307252393
 40
133.1714926562749
 40
133.6252221661857
 40
134.0489274654946
 40
134.4415167647252
 40
134.8018982744019
 40
135.1289802050471
 40
135.4216707671853
 40
135.6788781713394
 40
135.8995106280335
 40
136.082476347791
 40
136.2266835411353
 40
136.3310404185899
 40
136.394455190679
 40
136.4158360679257
 40
137.3431738431133
 40
138.2651406302581
 40
139.1824402276386
 40
140.0957241551193
 40
141.0055958467615
 40
141.9126152700129
 40
142.8173039126057
 40
143.7201500797484
 40
144.6216144466248
 40
145.5221358141299
 40
146.4221370188006
 40
147.3220309506598
 40
148.2222266349552
 40
149.1231353352755
 40
150.0251766362067
 40
150.9287844634549
 40
151.8344129982667
 40
152.7425424411408
 40
153.6536845773768
 40
154.5683880943238
 40
155.4872435974372
 40
156.4108882699707
 40
157.3400101196351
 40
157.3648148402934
 40
157.4370483674844
 40
157.5534397490344
 40
157.7107180327679
 40
157.9056122665105
 40
158.1348514980878
 40
158.395164775324
 40
158.6832811460459
 40
158.9959296580775
 40
159.3298393592451
 40
159.6817392973736
 40
160.0483585202879
 40
160.426426075814
 40
160.8126710117765
 40
161.2038223760015
 40
161.5966092163137
 40
161.9877605805381
 40
162.3740055165009
 40
162.752073072027
 40
163.1186922949412
 40
163.4705922330693
 40
163.804501934237
 40
164.1171504462689
 40
164.4052668169905
 40
164.6655800942274
 40
164.894819325804
 40
165.0897135595466
 40
165.2469918432805
 40
165.3633832248301
 40
165.4356167520216
 40
165.4604214726797
 40
165.4846226931151
 40
165.5558027532199
 40
165.6718262511906
 40
165.8305577852236
 40
166.0298619535164
 40
166.2676033542658
 40
166.5416465856683
 40
166.8498562459214
 40
167.1900969332215
 40
167.5602332457652
 40
167.9581297817499
 40
168.3816511393721
 40
168.8286619168292
 40
169.2970267123177
 40
169.784610124034
 40
170.2892767501752
 40
170.808891188939
 40
171.3413180385211
 40
171.8844218971195
 40
172.4360673629299
 40
172.99411903415
 40
173.5564415089761
 40
174.1208993856057
 40
174.685357262235
 40
175.2476797370615
 40
175.8057314082813
 40
176.3573768740922
 40
176.90048073269
 40
177.4329075822725
 40
177.952522021036
 40
178.4571886471775
 40
178.9447720588939
 40
179.4131368543822
 40
179.8601476318388
 40
180.2836689894612
 40
180.6815655254459
 40
181.0517018379904
 40
181.3919425252899
 40
181.7001521855427
 40
181.9741954169456
 40
182.2119368176946
 40
182.4112409859875
 40
182.5699725200208
 40
182.6859960179913
 40
182.7571760780961
 40
182.7813772985315
 40
182.8064238339383
 40
182.8799475346482
 40
182.9995245423968
 40
183.1627309989184
 40
183.3671430459478
 40
183.6103368252201
 40
183.8898884784699
 40
184.2033741474324
 40
184.5483699738417
 40
184.9224520994328
 40
185.3231966659414
 40
185.7481798151015
 40
186.1949776886483
 40
186.6611664283163
 40
187.1443221758406
 40
187.6420210729558
 40
188.1518392613967
 40
188.6713528828988
 40
189.1981380791962
 40
189.7297709920236
 40
190.2638277631165
 40
190.7978845342094
 40
191.3295174470372
 40
191.8563026433342
 40
192.375816264836
 40
192.8856344532772
 40
193.3833333503923
 40
193.8664890979168
 40
194.3326778375848
 40
194.7794757111313
 40
195.2044588602914
 40
195.6052034267996
 40
195.9792855523915
 40
196.3242813788007
 40
196.6377670477632
 40
196.9173187010128
 40
197.1605124802849
 40
197.3649245273145
 40
197.5281309838361
 40
197.6477079915842
 40
197.7212316922947
 40
197.7462782277015
 40
199.3242602925008
 40
200.8988742096295
 40
202.4705839519783
 40
204.039835092283
 40
205.6070568606862
 40
207.1726642642241
 40
208.7370602585333
 40
210.300637962375
 40
211.8637829058589
 40
213.4268753035077
 40
214.9902923435239
 40
216.5544104847903
 40
218.1196077532489
 40
219.6862660293588
 40
221.2547733183175
 40
222.8255259946716
 40
224.3989310128165
 40
225.9754080747246
 40
227.5553917460428
 40
227.5553917460428
 40
227.5553917460428
 40
227.5553917460428
 10
1749.100799558358
 20
1646.564749561255
 30
0.0
 10
1750.064625256573
 20
1645.930553127267
 30
0.0
 10
1751.991822389823
 20
1644.662459164048
 30
0.0
 10
1754.849911546071
 20
1642.712694883756
 30
0.0
 10
1757.682684580314
 20
1640.729034187844
 30
0.0
 10
1760.487531906122
 20
1638.708293063686
 30
0.0
 10
1763.264715623212
 20
1636.65168810475
 30
0.0
 10
1766.013728767742
 20
1634.559257407036
 30
0.0
 10
1768.734270561012
 20
1632.431354924827
 30
0.0
 10
1771.425984147947
 20
1630.268249063112
 30
0.0
 10
1774.088530872572
 20
1628.070234687359
 30
0.0
 10
1776.721555327427
 20
1625.837586323706
 30
0.0
 10
1779.324750896486
 20
1623.570633378791
 30
0.0
 10
1781.927158525228
 20
1621.243098705402
 30
0.0
 10
1784.527665545471
 20
1618.854568086772
 30
0.0
 10
1787.124763339038
 20
1616.404126526744
 30
0.0
 10
1789.688591661309
 20
1613.918686311876
 30
0.0
 10
1792.217937431828
 20
1611.396898079825
 30
0.0
 10
1794.714560381332
 20
1608.843217770522
 30
0.0
 10
1797.238957918682
 20
1606.165999669473
 30
0.0
 10
1799.822204227952
 20
1603.431639000877
 30
0.0
 10
1802.338438516648
 20
1600.383637774825
 30
0.0
 10
1805.160059594997
 20
1598.037351199988
 30
0.0
 10
1806.148221563955
 20
1594.601660930202
 30
0.0
 10
1807.446935172862
 20
1594.601681962525
 30
0.0
 10
1807.711850533082
 20
1594.602654261584
 30
0.0
 10
1807.919518749449
 20
1593.918018955812
 30
0.0
 10
1808.517647968647
 20
1593.476314426682
 30
0.0
 10
1809.072501331007
 20
1592.918387921302
 30
0.0
 10
1809.670120594858
 20
1592.431511770824
 30
0.0
 10
1810.2857960729
 20
1591.966651382448
 30
0.0
 10
1810.924326015111
 20
1591.537730302296
 30
0.0
 10
1811.58263964951
 20
1591.141881108668
 30
0.0
 10
1812.259767884316
 20
1590.780719769882
 30
0.0
 10
1812.95418071867
 20
1590.454664970812
 30
0.0
 10
1813.664498710454
 20
1590.16445647542
 30
0.0
 10
1814.38930252649
 20
1589.910749244418
 30
0.0
 10
1815.127183539421
 20
1589.694221371777
 30
0.0
 10
1815.876730840283
 20
1589.515548183115
 30
0.0
 10
1816.636531624551
 20
1589.375397993872
 30
0.0
 10
1817.405181699995
 20
1589.274475166779
 30
0.0
 10
1818.181241824025
 20
1589.213351068132
 30
0.0
 10
1818.708362447709
 20
1589.199703775712
 30
0.0
 10
1818.997216006233
 20
1589.199779976329
 30
0.0
 10
1819.060266902611
 20
1589.199772849641
 30
0.0
 10
1819.16425981984
 20
1589.199776853268
 30
0.0
 10
1819.308103096574
 20
1589.199775112957
 30
0.0
 10
1819.490704881446
 20
1589.199775779324
 30
0.0
 10
1819.71097341011
 20
1589.199775542822
 30
0.0
 10
1819.967816883833
 20
1589.199775622618
 30
0.0
 10
1820.260143516343
 20
1589.199775596651
 30
0.0
 10
1820.5868615171
 20
1589.199775604875
 30
0.0
 10
1820.94687909697
 20
1589.199775602325
 30
0.0
 10
1821.33910446637
 20
1589.199775603103
 30
0.0
 10
1821.762445835855
 20
1589.199775602868
 30
0.0
 10
1822.215811415939
 20
1589.199775602938
 30
0.0
 10
1822.69810941715
 20
1589.199775602917
 30
0.0
 10
1823.208248050009
 20
1589.199775602924
 30
0.0
 10
1823.745135525041
 20
1589.199775602921
 30
0.0
 10
1824.307680052769
 20
1589.199775602923
 30
0.0
 10
1824.894789843715
 20
1589.199775602921
 30
0.0
 10
1825.505373108406
 20
1589.199775602923
 30
0.0
 10
1826.138338057363
 20
1589.199775602921
 30
0.0
 10
1826.79259290111
 20
1589.199775602923
 30
0.0
 10
1827.467045850171
 20
1589.199775602922
 30
0.0
 10
1828.160605115069
 20
1589.199775602922
 30
0.0
 10
1828.872178906328
 20
1589.199775602922
 30
0.0
 10
1829.600675434473
 20
1589.199775602922
 30
0.0
 10
1830.345002910024
 20
1589.199775602922
 30
0.0
 10
1831.104069543508
 20
1589.199775602921
 30
0.0
 10
1831.876783545447
 20
1589.199775602923
 30
0.0
 10
1832.662053126366
 20
1589.199775602922
 30
0.0
 10
1833.458786496786
 20
1589.199775602922
 30
0.0
 10
1834.265891867233
 20
1589.199775602923
 30
0.0
 10
1835.082277448228
 20
1589.199775602921
 30
0.0
 10
1835.906851450298
 20
1589.199775602923
 30
0.0
 10
1836.738522083964
 20
1589.199775602922
 30
0.0
 10
1837.57619755975
 20
1589.199775602922
 30
0.0
 10
1838.41878608818
 20
1589.199775602922
 30
0.0
 10
1839.265195879779
 20
1589.199775602922
 30
0.0
 10
1840.114335145068
 20
1589.199775602922
 30
0.0
 10
1840.96511209457
 20
1589.199775602922
 30
0.0
 10
1841.816434938813
 20
1589.199775602922
 30
0.0
 10
1842.667211888315
 20
1589.199775602922
 30
0.0
 10
1843.516351153605
 20
1589.199775602922
 30
0.0
 10
1844.362760945203
 20
1589.199775602922
 30
0.0
 10
1845.205349473633
 20
1589.199775602922
 30
0.0
 10
1846.04302494942
 20
1589.199775602922
 30
0.0
 10
1846.874695583085
 20
1589.199775602922
 30
0.0
 10
1847.699269585155
 20
1589.199775602922
 30
0.0
 10
1848.515655166151
 20
1589.199775602922
 30
0.0
 10
1849.322760536597
 20
1589.199775602922
 30
0.0
 10
1850.119493907018
 20
1589.199775602922
 30
0.0
 10
1850.904763487936
 20
1589.199775602922
 30
0.0
 10
1851.677477489875
 20
1589.199775602922
 30
0.0
 10
1852.436544123359
 20
1589.199775602923
 30
0.0
 10
1853.180871598911
 20
1589.199775602922
 30
0.0
 10
1853.909368127055
 20
1589.199775602923
 30
0.0
 10
1854.620941918314
 20
1589.199775602922
 30
0.0
 10
1855.314501183213
 20
1589.199775602921
 30
0.0
 10
1855.988954132273
 20
1589.199775602923
 30
0.0
 10
1856.643208976021
 20
1589.199775602921
 30
0.0
 10
1857.276173924978
 20
1589.199775602923
 30
0.0
 10
1857.886757189668
 20
1589.199775602922
 30
0.0
 10
1858.473866980615
 20
1589.199775602923
 30
0.0
 10
1859.036411508342
 20
1589.199775602921
 30
0.0
 10
1859.573298983374
 20
1589.199775602923
 30
0.0
 10
1860.083437616233
 20
1589.199775602919
 30
0.0
 10
1860.565735617444
 20
1589.199775602934
 30
0.0
 10
1861.019101197528
 20
1589.199775602881
 30
0.0
 10
1861.442442567013
 20
1589.199775603057
 30
0.0
 10
1861.834667936414
 20
1589.199775602475
 30
0.0
 10
1862.194685516278
 20
1589.199775604384
 30
0.0
 10
1862.521403517056
 20
1589.199775598225
 30
0.0
 10
1862.813730149501
 20
1589.199775617675
 30
0.0
 10
1863.070573623425
 20
1589.199775557904
 30
0.0
 10
1863.290842151491
 20
1589.199775735058
 30
0.0
 10
1863.473443938051
 20
1589.199775235907
 30
0.0
 10
1863.617287210374
 20
1589.199776539512
 30
0.0
 10
1863.721280137749
 20
1589.199773540537
 30
0.0
 10
1863.784331016068
 20
1589.199778878888
 30
0.0
 10
1864.121708373951
 20
1589.199712211125
 30
0.0
 10
1864.745366841697
 20
1589.214022263339
 30
0.0
 10
1865.665652131921
 20
1589.278175706528
 30
0.0
 10
1866.577360114062
 20
1589.384129375353
 30
0.0
 10
1867.479242527991
 20
1589.531264158713
 30
0.0
 10
1868.370083781085
 20
1589.718842605795
 30
0.0
 10
1869.248660129663
 20
1589.946159275808
 30
0.0
 10
1870.113750427084
 20
1590.212500790931
 30
0.0
 10
1870.964133143264
 20
1590.51715651949
 30
0.0
 10
1871.798587041764
 20
1590.859415750573
 30
0.0
 10
1872.615890883882
 20
1591.238568453322
 30
0.0
 10
1873.414823395985
 20
1591.65390506378
 30
0.0
 10
1874.19416317311
 20
1592.104716516129
 30
0.0
 10
1874.952688600245
 20
1592.590294198808
 30
0.0
 10
1875.689177795425
 20
1593.109929905498
 30
0.0
 10
1876.402408480129
 20
1593.662915823846
 30
0.0
 10
1877.091158154928
 20
1594.248544322655
 30
0.0
 10
1877.754203164148
 20
1594.866108455457
 30
0.0
 10
1878.390321958593
 20
1595.51489973857
 30
0.0
 10
1878.99828266852
 20
1596.194216103717
 30
0.0
 10
1879.576889578796
 20
1596.903331648637
 30
0.0
 10
1880.124808531376
 20
1597.641609773402
 30
0.0
 10
1880.641223146852
 20
1598.408077473407
 30
0.0
 10
1880.965908320539
 20
1598.943413052926
 30
0.0
 10
1881.137201229767
 20
1599.239485381017
 30
0.0
 10
1881.172846244971
 20
1599.301054830381
 30
0.0
 10
1881.230604046806
 20
1599.400846436995
 30
0.0
 10
1881.308848592582
 20
1599.536022159224
 30
0.0
 10
1881.405935364079
 20
1599.70375443089
 30
0.0
 10
1881.520228088776
 20
1599.901211010586
 30
0.0
 10
1881.650087333131
 20
1600.125561449172
 30
0.0
 10
1881.793874771378
 20
1600.373974669406
 30
0.0
 10
1881.949951711927
 20
1600.643619801469
 30
0.0
 10
1882.116679578961
 20
1600.931665909898
 30
0.0
 10
1882.292419761188
 20
1601.235282079344
 30
0.0
 10
1882.475533657912
 20
1601.55163738845
 30
0.0
 10
1882.66438266534
 20
1601.877900917619
 30
0.0
 10
1882.857328180563
 20
1602.211241746744
 30
0.0
 10
1883.052731600428
 20
1602.548828955865
 30
0.0
 10
1883.248954321844
 20
1602.88783162498
 30
0.0
 10
1883.444357741717
 20
1603.225418834097
 30
0.0
 10
1883.637303256909
 20
1603.558759663239
 30
0.0
 10
1883.826152264448
 20
1603.885023192344
 30
0.0
 10
1884.009266160775
 20
1604.201378501678
 30
0.0
 10
1884.185006344392
 20
1604.504994670326
 30
0.0
 10
1884.351734206644
 20
1604.793040781502
 30
0.0
 10
1884.507811163334
 20
1605.062685904292
 30
0.0
 10
1884.651598548381
 20
1605.311099155092
 30
0.0
 10
1884.78145796294
 20
1605.535449495887
 30
0.0
 10
1884.895750163737
 20
1605.732906376584
 30
0.0
 10
1884.992838464569
 20
1605.900637769595
 30
0.0
 10
1885.071078882673
 20
1606.035815863311
 30
0.0
 10
1885.128846468775
 20
1606.135601848528
 30
0.0
 10
1885.164473626651
 20
1606.197181557543
 30
0.0
 10
1885.184735414171
 20
1606.232148466223
 30
0.0
 10
1885.204735600426
 20
1606.266860969765
 30
0.0
 10
1885.239955752192
 20
1606.327896330004
 30
0.0
 10
1885.297562312376
 20
1606.427787636925
 30
0.0
 10
1885.376516680739
 20
1606.564668764475
 30
0.0
 10
1885.475738424525
 20
1606.736697757517
 30
0.0
 10
1885.594166048793
 20
1606.942021718609
 30
0.0
 10
1885.730730674729
 20
1607.178792016721
 30
0.0
 10
1885.884366060554
 20
1607.44515849714
 30
0.0
 10
1886.054005075485
 20
1607.739271518824
 30
0.0
 10
1886.238580876444
 20
1608.059281274491
 30
0.0
 10
1886.437026530048
 20
1608.403338009039
 30
0.0
 10
1886.648275130593
 20
1608.769591951374
 30
0.0
 10
1886.87125976405
 20
1609.156193335212
 30
0.0
 10
1887.104913518856
 20
1609.56129239284
 30
0.0
 10
1887.348169482725
 20
1609.98303935697
 30
0.0
 10
1887.599960743583
 20
1610.419584460184
 30
0.0
 10
1887.859220389295
 20
1610.869077935108
 30
0.0
 10
1888.12488150774
 20
1611.329670014348
 30
0.0
 10
1888.395877186796
 20
1611.799510930521
 30
0.0
 10
1888.671140514342
 20
1612.276750916242
 30
0.0
 10
1888.949604578255
 20
1612.75954020412
 30
0.0
 10
1889.230202466412
 20
1613.246029026772
 30
0.0
 10
1889.511867266692
 20
1613.734367616811
 30
0.0
 10
1889.793532066971
 20
1614.22270620685
 30
0.0
 10
1890.074129955129
 20
1614.709195029501
 30
0.0
 10
1890.35259401904
 20
1615.191984317382
 30
0.0
 10
1890.627857346588
 20
1615.669224303101
 30
0.0
 10
1890.898853025643
 20
1616.139065219275
 30
0.0
 10
1891.164514144089
 20
1616.599657298515
 30
0.0
 10
1891.4237737898
 20
1617.049150773437
 30
0.0
 10
1891.675565050657
 20
1617.485695876654
 30
0.0
 10
1891.918821014535
 20
1617.907442840778
 30
0.0
 10
1892.152474769308
 20
1618.312541898425
 30
0.0
 10
1892.375459402875
 20
1618.699143282199
 30
0.0
 10
1892.586708003043
 20
1619.065397224751
 30
0.0
 10
1892.785153657926
 20
1619.409453958562
 30
0.0
 10
1892.969729454611
 20
1619.729463716696
 30
0.0
 10
1893.139368483587
 20
1620.023576730269
 30
0.0
 10
1893.293003824264
 20
1620.289943236767
 30
0.0
 10
1893.429568591323
 20
1620.526713453357
 30
0.0
 10
1893.54799579048
 20
1620.732037660025
 30
0.0
 10
1893.64721875066
 20
1620.904065950384
 30
0.0
 10
1893.726169895787
 20
1621.040948939924
 30
0.0
 10
1893.783783970887
 20
1621.14083590565
 30
0.0
 10
1893.818990593809
 20
1621.201879081192
 30
0.0
 10
1893.839049035416
 20
1621.236651019649
 30
0.0
 10
1893.859487070494
 20
1621.27210585988
 30
0.0
 10
1893.895807788434
 20
1621.335100982129
 30
0.0
 10
1893.955128177887
 20
1621.437995004516
 30
0.0
 10
1894.036241299154
 20
1621.57868592665
 30
0.0
 10
1894.137934752762
 20
1621.755074896556
 30
0.0
 10
1894.258998604186
 20
1621.965061640835
 30
0.0
 10
1894.398221960891
 20
1622.206546438521
 30
0.0
 10
1894.554394271276
 20
1622.477429372058
 30
0.0
 10
1894.726304869238
 20
1622.77561058991
 30
0.0
 10
1894.912743125578
 20
1623.098990219261
 30
0.0
 10
1895.112498399569
 20
1623.445468393947
 30
0.0
 10
1895.324360053995
 20
1623.812945245774
 30
0.0
 10
1895.547117450592
 20
1624.199320907157
 30
0.0
 10
1895.779559951405
 20
1624.602495510329
 30
0.0
 10
1896.020476918389
 20
1625.020369187579
 30
0.0
 10
1896.268657713525
 20
1625.450842071176
 30
0.0
 10
1896.522891698786
 20
1625.891814293399
 30
0.0
 10
1896.781968236147
 20
1626.34118598652
 30
0.0
 10
1897.044676687583
 20
1626.796857282817
 30
0.0
 10
1897.309806415069
 20
1627.256728314563
 30
0.0
 10
1897.576146780581
 20
1627.718699214033
 30
0.0
 10
1897.842487146092
 20
1628.180670113504
 30
0.0
 10
1898.107616873579
 20
1628.640541145251
 30
0.0
 10
1898.370325325013
 20
1629.096212441546
 30
0.0
 10
1898.629401862376
 20
1629.545584134668
 30
0.0
 10
1898.883635847636
 20
1629.986556356891
 30
0.0
 10
1899.131816642772
 20
1630.417029240488
 30
0.0
 10
1899.372733609756
 20
1630.834902917738
 30
0.0
 10
1899.60517611057
 20
1631.238077520909
 30
0.0
 10
1899.827933507162
 20
1631.624453182296
 30
0.0
 10
1900.03979516161
 20
1631.991930034111
 30
0.0
 10
1900.239550435523
 20
1632.338408208839
 30
0.0
 10
1900.425988692123
 20
1632.661787838047
 30
0.0
 10
1900.59789928923
 20
1632.959969056373
 30
0.0
 10
1900.754071602373
 20
1633.230851988375
 30
0.0
 10
1900.893294950417
 20
1633.472336790881
 30
0.0
 10
1901.014358828042
 20
1633.682323520582
 30
0.0
 10
1901.116052206397
 20
1633.858712532356
 30
0.0
 10
1901.197165527766
 20
1633.999403343165
 30
0.0
 10
1901.256485449205
 20
1634.102297625925
 30
0.0
 10
1901.292807011923
 20
1634.165292278193
 30
0.0
 10
1901.571891188354
 20
1634.649467774605
 30
0.0
 10
1902.114776098306
 20
1635.55921567261
 30
0.0
 10
1902.965064414382
 20
1636.885006672276
 30
0.0
 10
1903.855052597089
 20
1638.180954955764
 30
0.0
 10
1904.784115586401
 20
1639.446126640331
 30
0.0
 10
1905.751332293811
 20
1640.679788489745
 30
0.0
 10
1906.755860921774
 20
1641.881153631908
 30
0.0
 10
1907.796838640166
 20
1643.049449502755
 30
0.0
 10
1908.873408399783
 20
1644.183899670182
 30
0.0
 10
1909.984711770866
 20
1645.283728635556
 30
0.0
 10
1911.129890771693
 20
1646.348160691014
 30
0.0
 10
1912.308087654062
 20
1647.376419616254
 30
0.0
 10
1913.518443874101
 20
1648.367730961931
 30
0.0
 10
1914.760104360292
 20
1649.321313147543
 30
0.0
 10
1916.032201381349
 20
1650.236410763735
 30
0.0
 10
1917.33391481458
 20
1651.112170038031
 30
0.0
 10
1918.664246725886
 20
1651.948104444787
 30
0.0
 10
1920.022864474215
 20
1652.742353087934
 30
0.0
 10
1921.406945826496
 20
1653.498197637682
 30
0.0
 10
1922.349837115046
 20
1653.96528035269
 30
0.0
 10
1922.821806502802
 20
1654.199081158478
 30
0.0
 11
1749.100799558358
 21
1646.564749561255
 31
0.0
 11
1751.986928301848
 21
1644.654147453206
 31
0.0
 11
1754.846300137062
 21
1642.706625405198
 31
0.0
 11
1757.678570554451
 21
1640.722470508521
 31
0.0
 11
1760.483395044469
 21
1638.701969854465
 31
0.0
 11
1763.260429097565
 21
1636.645410534321
 31
0.0
 11
1766.009328204191
 21
1634.55307963938
 31
0.0
 11
1768.729747854799
 21
1632.425264260932
 31
0.0
 11
1771.421343539839
 21
1630.262251490268
 31
0.0
 11
1774.083770749764
 21
1628.064328418677
 31
0.0
 11
1776.716684975024
 21
1625.831782137451
 31
0.0
 11
1779.319741706072
 21
1623.56489973788
 31
0.0
 11
1781.892596433358
 21
1621.263968311255
 31
0.0
 11
1784.52225057752
 21
1618.848701183233
 31
0.0
 11
1787.119138035725
 21
1616.39837063893
 31
0.0
 11
1789.682646346552
 21
1613.912823562991
 31
0.0
 11
1792.212163048584
 21
1611.391906840062
 31
0.0
 11
1794.7070756804
 21
1608.835467354787
 31
0.0
 11
1797.16677178058
 21
1606.243351991811
 31
0.0
 11
1799.799255368905
 21
1603.391846457957
 31
0.0
 11
1802.388847518428
 21
1600.501066835561
 31
0.0
 11
1804.936064993471
 21
1597.571013124624
 31
0.0
 11
1807.441424558358
 21
1594.601685325144
 31
0.0
 11
1807.446936711136
 21
1594.601685325144
 31
0.0
 11
1807.452448863914
 21
1594.601685325144
 31
0.0
 11
1807.968448295693
 21
1594.013580248194
 31
0.0
 11
1808.51164385679
 21
1593.455902523846
 31
0.0
 11
1809.080621887016
 21
1592.929325323618
 31
0.0
 11
1809.673968726184
 21
1592.434521819027
 31
0.0
 11
1810.290270714107
 21
1591.972165181591
 31
0.0
 11
1810.928114190598
 21
1591.542928582828
 31
0.0
 11
1811.586085495469
 21
1591.147485194256
 31
0.0
 11
1812.262770968534
 21
1590.786508187392
 31
0.0
 11
1812.956756949605
 21
1590.460670733754
 31
0.0
 11
1813.666629778494
 21
1590.17064600486
 31
0.0
 11
1814.390975795015
 21
1589.917107172228
 31
0.0
 11
1815.12838133898
 21
1589.700727407375
 31
0.0
 11
1815.877432750202
 21
1589.52217988182
 31
0.0
 11
1816.636716368494
 21
1589.382137767078
 31
0.0
 11
1817.404818533668
 21
1589.28127423467
 31
0.0
 11
1818.180325585537
 21
1589.220262456112
 31
0.0
 11
1818.961823863914
 21
1589.199775602922
 31
0.0
 11
1818.983204741161
 21
1589.199775602922
 31
0.0
 11
1819.04661951325
 21
1589.199775602922
 31
0.0
 11
1819.150976390705
 21
1589.199775602922
 31
0.0
 11
1819.295183584049
 21
1589.199775602922
 31
0.0
 11
1819.478149303807
 21
1589.199775602922
 31
0.0
 11
1819.6987817605
 21
1589.199775602922
 31
0.0
 11
1819.955989164655
 21
1589.199775602922
 31
0.0
 11
1820.248679726793
 21
1589.199775602922
 31
0.0
 11
1820.575761657438
 21
1589.199775602922
 31
0.0
 11
1820.936143167114
 21
1589.199775602922
 31
0.0
 11
1821.328732466345
 21
1589.199775602922
 31
0.0
 11
1821.752437765654
 21
1589.199775602922
 31
0.0
 11
1822.206167275564
 21
1589.199775602922
 31
0.0
 11
1822.688829206601
 21
1589.199775602922
 31
0.0
 11
1823.199331769285
 21
1589.199775602922
 31
0.0
 11
1823.736583174142
 21
1589.199775602922
 31
0.0
 11
1824.299491631695
 21
1589.199775602922
 31
0.0
 11
1824.886965352468
 21
1589.199775602922
 31
0.0
 11
1825.497912546983
 21
1589.199775602922
 31
0.0
 11
1826.131241425765
 21
1589.199775602922
 31
0.0
 11
1826.785860199338
 21
1589.199775602922
 31
0.0
 11
1827.460677078225
 21
1589.199775602922
 31
0.0
 11
1828.154600272949
 21
1589.199775602922
 31
0.0
 11
1828.866537994034
 21
1589.199775602922
 31
0.0
 11
1829.595398452003
 21
1589.199775602922
 31
0.0
 11
1830.340089857381
 21
1589.199775602922
 31
0.0
 11
1831.09952042069
 21
1589.199775602922
 31
0.0
 11
1831.872598352454
 21
1589.199775602922
 31
0.0
 11
1832.658231863198
 21
1589.199775602922
 31
0.0
 11
1833.455329163444
 21
1589.199775602922
 31
0.0
 11
1834.262798463716
 21
1589.199775602922
 31
0.0
 11
1835.079547974538
 21
1589.199775602922
 31
0.0
 11
1835.904485906433
 21
1589.199775602922
 31
0.0
 11
1836.736520469924
 21
1589.199775602922
 31
0.0
 11
1837.574559875535
 21
1589.199775602922
 31
0.0
 11
1838.417512333791
 21
1589.199775602922
 31
0.0
 11
1839.264286055215
 21
1589.199775602922
 31
0.0
 11
1840.113789250329
 21
1589.199775602922
 31
0.0
 11
1840.964930129658
 21
1589.199775602922
 31
0.0
 11
1841.816616903725
 21
1589.199775602922
 31
0.0
 11
1842.667757783054
 21
1589.199775602922
 31
0.0
 11
1843.517260978168
 21
1589.199775602922
 31
0.0
 11
1844.364034699592
 21
1589.199775602922
 31
0.0
 11
1845.206987157847
 21
1589.199775602922
 31
0.0
 11
1846.04502656346
 21
1589.199775602922
 31
0.0
 11
1846.877061126951
 21
1589.199775602922
 31
0.0
 11
1847.701999058846
 21
1589.199775602922
 31
0.0
 11
1848.518748569667
 21
1589.199775602922
 31
0.0
 11
1849.326217869939
 21
1589.199775602922
 31
0.0
 11
1850.123315170185
 21
1589.199775602922
 31
0.0
 11
1850.908948680929
 21
1589.199775602922
 31
0.0
 11
1851.682026612693
 21
1589.199775602922
 31
0.0
 11
1852.441457176003
 21
1589.199775602922
 31
0.0
 11
1853.18614858138
 21
1589.199775602922
 31
0.0
 11
1853.91500903935
 21
1589.199775602922
 31
0.0
 11
1854.626946760435
 21
1589.199775602922
 31
0.0
 11
1855.320869955158
 21
1589.199775602922
 31
0.0
 11
1855.995686834045
 21
1589.199775602922
 31
0.0
 11
1856.650305607617
 21
1589.199775602922
 31
0.0
 11
1857.2836344864
 21
1589.199775602922
 31
0.0
 11
1857.894581680915
 21
1589.199775602922
 31
0.0
 11
1858.482055401688
 21
1589.199775602922
 31
0.0
 11
1859.044963859241
 21
1589.199775602922
 31
0.0
 11
1859.582215264098
 21
1589.199775602922
 31
0.0
 11
1860.092717826783
 21
1589.199775602922
 31
0.0
 11
1860.575379757818
 21
1589.199775602922
 31
0.0
 11
1861.029109267729
 21
1589.199775602922
 31
0.0
 11
1861.452814567038
 21
1589.199775602922
 31
0.0
 11
1861.845403866269
 21
1589.199775602922
 31
0.0
 11
1862.205785375945
 21
1589.199775602922
 31
0.0
 11
1862.53286730659
 21
1589.199775602922
 31
0.0
 11
1862.825557868729
 21
1589.199775602922
 31
0.0
 11
1863.082765272883
 21
1589.199775602922
 31
0.0
 11
1863.303397729577
 21
1589.199775602922
 31
0.0
 11
1863.486363449334
 21
1589.199775602922
 31
0.0
 11
1863.630570642679
 21
1589.199775602922
 31
0.0
 11
1863.734927520133
 21
1589.199775602922
 31
0.0
 11
1863.798342292222
 21
1589.199775602922
 31
0.0
 11
1863.819723169469
 21
1589.199775602922
 31
0.0
 11
1864.746811361402
 21
1589.221289172328
 31
0.0
 11
1865.666549412243
 21
1589.285356905489
 31
0.0
 11
1866.577714110642
 21
1589.391269339823
 31
0.0
 11
1867.479082245248
 21
1589.538317012746
 31
0.0
 11
1868.369430604711
 21
1589.725790461676
 31
0.0
 11
1869.24753597768
 21
1589.952980224028
 31
0.0
 11
1870.112175152805
 21
1590.21917683722
 31
0.0
 11
1870.962124918736
 21
1590.523670838669
 31
0.0
 11
1871.796162064122
 21
1590.865752765791
 31
0.0
 11
1872.613063377614
 21
1591.244713156003
 31
0.0
 11
1873.41160564786
 21
1591.659842546721
 31
0.0
 11
1874.19056566351
 21
1592.110431475364
 31
0.0
 11
1874.948720213215
 21
1592.595770479347
 31
0.0
 11
1875.684846085622
 21
1593.115150096086
 31
0.0
 11
1876.397720069383
 21
1593.667860863
 31
0.0
 11
1877.086118953147
 21
1594.253193317505
 31
0.0
 11
1877.748819525562
 21
1594.870437997017
 31
0.0
 11
1878.384598575281
 21
1595.518885438954
 31
0.0
 11
1878.99223289095
 21
1596.197826180732
 31
0.0
 11
1879.570499261221
 21
1596.906550759767
 31
0.0
 11
1880.118174474742
 21
1597.644349713477
 31
0.0
 11
1880.634035320165
 21
1598.410513579279
 31
0.0
 11
1881.116858586137
 21
1599.204332894589
 31
0.0
 11
1881.129284659657
 21
1599.225800704533
 31
0.0
 11
1881.165470478151
 21
1599.28831685437
 31
0.0
 11
1881.223777438517
 21
1599.389050424107
 31
0.0
 11
1881.302566937652
 21
1599.525170493752
 31
0.0
 11
1881.400200372457
 21
1599.693846143312
 31
0.0
 11
1881.515039139828
 21
1599.892246452795
 31
0.0
 11
1881.645444636664
 21
1600.117540502207
 31
0.0
 11
1881.789778259864
 21
1600.366897371556
 31
0.0
 11
1881.946401406326
 21
1600.63748614085
 31
0.0
 11
1882.113675472948
 21
1600.926475890096
 31
0.0
 11
1882.28996185663
 21
1601.231035699302
 31
0.0
 11
1882.473621954268
 21
1601.548334648474
 31
0.0
 11
1882.663017162762
 21
1601.875541817621
 31
0.0
 11
1882.85650887901
 21
1602.209826286749
 31
0.0
 11
1883.052458499911
 21
1602.548357135866
 31
0.0
 11
1883.249227422362
 21
1602.888303444979
 31
0.0
 11
1883.445177043263
 21
1603.226834294095
 31
0.0
 11
1883.638668759511
 21
1603.561118763224
 31
0.0
 11
1883.828063968005
 21
1603.88832593237
 31
0.0
 11
1884.011724065644
 21
1604.205624881542
 31
0.0
 11
1884.188010449325
 21
1604.510184690747
 31
0.0
 11
1884.355284515947
 21
1604.799174439994
 31
0.0
 11
1884.511907662409
 21
1605.069763209288
 31
0.0
 11
1884.656241285609
 21
1605.319120078637
 31
0.0
 11
1884.786646782446
 21
1605.54441412805
 31
0.0
 11
1884.901485549816
 21
1605.742814437532
 31
0.0
 11
1884.999118984621
 21
1605.911490087092
 31
0.0
 11
1885.077908483756
 21
1606.047610156737
 31
0.0
 11
1885.136215444122
 21
1606.148343726474
 31
0.0
 11
1885.172401262616
 21
1606.210859876311
 31
0.0
 11
1885.184827336136
 21
1606.232327686255
 31
0.0
 11
1885.196919006855
 21
1606.253291716635
 31
0.0
 11
1885.232482744264
 21
1606.314950629519
 31
0.0
 11
1885.290451636241
 21
1606.41545465752
 31
0.0
 11
1885.369758770663
 21
1606.55295403325
 31
0.0
 11
1885.469337235408
 21
1606.725598989325
 31
0.0
 11
1885.588120118354
 21
1606.931539758356
 31
0.0
 11
1885.725040507379
 21
1607.168926572958
 31
0.0
 11
1885.87903149036
 21
1607.435909665744
 31
0.0
 11
1886.049026155175
 21
1607.730639269328
 31
0.0
 11
1886.233957589702
 21
1608.051265616323
 31
0.0
 11
1886.432758881819
 21
1608.395938939343
 31
0.0
 11
1886.644363119402
 21
1608.762809471001
 31
0.0
 11
1886.867703390331
 21
1609.15002744391
 31
0.0
 11
1887.101712782483
 21
1609.555743090685
 31
0.0
 11
1887.345324383734
 21
1609.978106643938
 31
0.0
 11
1887.597471281964
 21
1610.415268336283
 31
0.0
 11
1887.85708656505
 21
1610.865378400334
 31
0.0
 11
1888.123103320869
 21
1611.326587068704
 31
0.0
 11
1888.3944546373
 21
1611.797044574006
 31
0.0
 11
1888.67007360222
 21
1612.274901148855
 31
0.0
 11
1888.948893303507
 21
1612.758307025863
 31
0.0
 11
1889.229846829038
 21
1613.245412437643
 31
0.0
 11
1889.511867266692
 21
1613.734367616811
 31
0.0
 11
1889.793887704345
 21
1614.223322795978
 31
0.0
 11
1890.074841229877
 21
1614.71042820776
 31
0.0
 11
1890.353660931163
 21
1615.193834084768
 31
0.0
 11
1890.629279896083
 21
1615.671690659616
 31
0.0
 11
1890.900631212514
 21
1616.142148164918
 31
0.0
 11
1891.166647968333
 21
1616.603356833288
 31
0.0
 11
1891.426263251419
 21
1617.053466897339
 31
0.0
 11
1891.678410149649
 21
1617.490628589684
 31
0.0
 11
1891.922021750901
 21
1617.912992142937
 31
0.0
 11
1892.156031143052
 21
1618.318707789712
 31
0.0
 11
1892.379371413981
 21
1618.705925762621
 31
0.0
 11
1892.590975651564
 21
1619.072796294279
 31
0.0
 11
1892.789776943681
 21
1619.417469617299
 31
0.0
 11
1892.974708378208
 21
1619.738095964294
 31
0.0
 11
1893.144703043023
 21
1620.032825567878
 31
0.0
 11
1893.298694026004
 21
1620.299808660664
 31
0.0
 11
1893.435614415029
 21
1620.537195475266
 31
0.0
 11
1893.554397297974
 21
1620.743136244298
 31
0.0
 11
1893.65397576272
 21
1620.915781200372
 31
0.0
 11
1893.733282897142
 21
1621.053280576103
 31
0.0
 11
1893.791251789119
 21
1621.153784604103
 31
0.0
 11
1893.826815526528
 21
1621.215443516987
 31
0.0
 11
1893.838907197247
 21
1621.236407547367
 31
0.0
 11
1893.851417123506
 21
1621.258106180524
 31
0.0
 11
1893.888139810266
 21
1621.321802168178
 31
0.0
 11
1893.947864619501
 21
1621.425395642605
 31
0.0
 11
1894.029380913188
 21
1621.566786736079
 31
0.0
 11
1894.131478053301
 21
1621.743875580876
 31
0.0
 11
1894.252945401815
 21
1621.954562309272
 31
0.0
 11
1894.392572320704
 21
1622.19674705354
 31
0.0
 11
1894.549148171944
 21
1622.468329945956
 31
0.0
 11
1894.721462317509
 21
1622.767211118796
 31
0.0
 11
1894.908304119375
 21
1623.091290704333
 31
0.0
 11
1895.108462939517
 21
1623.438468834845
 31
0.0
 11
1895.32072813991
 21
1623.806645642605
 31
0.0
 11
1895.543889082528
 21
1624.193721259889
 31
0.0
 11
1895.776735129346
 21
1624.597595818972
 31
0.0
 11
1896.018055642339
 21
1625.016169452129
 31
0.0
 11
1896.266639983483
 21
1625.447342291635
 31
0.0
 11
1896.521277514752
 21
1625.889014469765
 31
0.0
 11
1896.780757598122
 21
1626.339086118795
 31
0.0
 11
1897.043869595566
 21
1626.795457371
 31
0.0
 11
1897.309402869061
 21
1627.256028358654
 31
0.0
 11
1897.576146780581
 21
1627.718699214033
 31
0.0
 11
1897.8428906921
 21
1628.181370069413
 31
0.0
 11
1898.108423965595
 21
1628.641941057067
 31
0.0
 11
1898.371535963039
 21
1629.098312309272
 31
0.0
 11
1898.631016046409
 21
1629.548383958301
 31
0.0
 11
1898.885653577678
 21
1629.990056136432
 31
0.0
 11
1899.134237918822
 21
1630.421228975938
 31
0.0
 11
1899.375558431815
 21
1630.839802609095
 31
0.0
 11
1899.608404478634
 21
1631.243677168178
 31
0.0
 11
1899.831565421251
 21
1631.630752785462
 31
0.0
 11
1900.043830621643
 21
1631.998929593222
 31
0.0
 11
1900.243989441785
 21
1632.346107723733
 31
0.0
 11
1900.430831243652
 21
1632.670187309272
 31
0.0
 11
1900.603145389217
 21
1632.969068482111
 31
0.0
 11
1900.759721240457
 21
1633.240651374527
 31
0.0
 11
1900.899348159347
 21
1633.482836118795
 31
0.0
 11
1901.02081550786
 21
1633.69352284719
 31
0.0
 11
1901.122912647973
 21
1633.870611691988
 31
0.0
 11
1901.204428941659
 21
1634.012002785462
 31
0.0
 11
1901.264153750895
 21
1634.115596259888
 31
0.0
 11
1901.300876437655
 21
1634.179292247543
 31
0.0
 11
1901.313386363914
 21
1634.2009908807
 31
0.0
 11
1902.12256782005
 21
1635.555705894226
 31
0.0
 11
1902.972484077178
 21
1636.881244027924
 31
0.0
 11
1903.862276849954
 21
1638.17682896752
 31
0.0
 11
1904.791087853036
 21
1639.441684398746
 31
0.0
 11
1905.758058801081
 21
1640.67503400733
 31
0.0
 11
1906.762331408745
 21
1641.876101479001
 31
0.0
 11
1907.803047390687
 21
1643.04411049949
 31
0.0
 11
1908.879348461563
 21
1644.178284754524
 31
0.0
 11
1909.990376336031
 21
1645.277847929832
 31
0.0
 11
1911.135272728746
 21
1646.342023711146
 31
0.0
 11
1912.313179354368
 21
1647.370035784193
 31
0.0
 11
1913.523237927552
 21
1648.361107834702
 31
0.0
 11
1914.764590162957
 21
1649.314463548403
 31
0.0
 11
1916.036377775238
 21
1650.229326611026
 31
0.0
 11
1917.337742479054
 21
1651.104920708299
 31
0.0
 11
1918.667825989061
 21
1651.940469525951
 31
0.0
 11
1920.025770019917
 21
1652.735196749713
 31
0.0
 11
1921.410716286278
 21
1653.488326065312
 31
0.0
 11
1922.821806502802
 21
1654.199081158478
 31
0.0
  0
SPLINE
  5
D5
330
1F
100
AcDbEntity
  8
0
  6
PHANTOM
 62
     5
100
AcDbSpline
210
0.0
220
0.0
230
1.0
 70
    11
 71
     3
 72
    19
 73
    15
 74
    13
 42
0.0000000001
 43
0.0000000001
 44
0.00000001
 40
0.0
 40
0.0
 40
0.0
 40
0.0
 40
4.996766493055475
 40
9.993532986110949
 40
17.64552638572073
 40
25.29751978533089
 40
32.95587855968804
 40
40.60734433333692
 40
45.60411082639239
 40
50.60087731944787
 40
58.24534174869088
 40
65.90238295153759
 40
73.55305768341582
 40
81.19805022182366
 40
81.19805022182366
 40
81.19805022182366
 40
81.19805022182366
 10
1750.68278740558
 20
1729.2029440057
 30
0.0
 10
1749.014951266106
 20
1729.179662682356
 30
0.0
 10
1745.679278987158
 20
1729.133100035668
 30
0.0
 10
1739.837117460732
 20
1729.544177085125
 30
0.0
 10
1732.838502708217
 20
1727.143877966257
 30
0.0
 10
1729.616243145005
 20
1719.199437562056
 30
0.0
 10
1732.836810916556
 20
1711.268742984127
 30
0.0
 10
1739.834533786985
 20
1708.824355239871
 30
0.0
 10
1745.685963715161
 20
1709.348010333802
 30
0.0
 10
1751.53547565923
 20
1708.821891218616
 30
0.0
 10
1758.528299329345
 20
1711.283853322278
 30
0.0
 10
1761.747046638378
 20
1719.152246701628
 30
0.0
 10
1758.510946304393
 20
1727.317277672541
 30
0.0
 10
1753.291527383852
 20
1728.574544248799
 30
0.0
 10
1750.68278740558
 20
1729.2029440057
 30
0.0
 11
1750.68278740558
 21
1729.2029440057
 31
0.0
 11
1745.686020912525
 21
1729.2029440057
 31
0.0
 11
1740.689254419469
 21
1729.2029440057
 31
0.0
 11
1733.620607501066
 21
1726.272545785214
 31
0.0
 11
1730.69020928058
 21
1719.203898866811
 31
0.0
 11
1733.620607501066
 21
1712.128361757436
 31
0.0
 11
1740.689254419469
 21
1709.199341575144
 31
0.0
 11
1745.686020912525
 21
1709.199341575144
 31
0.0
 11
1750.68278740558
 21
1709.199341575144
 31
0.0
 11
1757.743855113915
 21
1712.128361757436
 31
0.0
 11
1760.670808238915
 21
1719.203898866811
 31
0.0
 11
1757.743855113915
 21
1726.272545785214
 31
0.0
 11
1750.68278740558
 21
1729.2029440057
 31
0.0
  0
LWPOLYLINE
  5
D6
330
1F
100
AcDbEntity
  8
0
  6
Continuous
 62
     7
100
AcDbPolyline
 90
        4
 70
     0
 43
0.0
 10
1804.729445391692
 20
1597.826294700144
 10
1803.544332544469
 20
1606.243351991811
 10
1801.433178030581
 20
1621.225383241811
 10
1796.802969697248
 20
1654.199081158478
  0
LWPOLYLINE
  5
D7
330
1F
100
AcDbEntity
  8
0
  6
Continuous
 62
     7
100
AcDbPolyline
 90
        4
 70
     0
 43
0.0
 10
1406.862257891692
 20
1597.826294700144
 10
1408.047370738914
 20
1606.232327686255
 10
1410.153013100025
 20
1621.241919700144
 10
1414.783221433358
 20
1654.199081158478
  0
LWPOLYLINE
  5
D8
330
1F
100
AcDbEntity
  8
0
  6
Continuous
 62
     7
100
AcDbPolyline
 90
        3
 70
     0
 43
0.0
 10
1561.908091225025
 20
1632.0677877557
 10
1605.77380303058
 20
1632.0677877557
 10
1649.656051294469
 20
1632.0677877557
  0
MTEXT
  5
DA
330
1F
100
AcDbEntity
  8
1
 62
     7
100
AcDbMText
 10
1617.0
 20
150.0
 30
0.0
 40
30.0
 41
0.0
 71
     5
 72
     1
  1
12
  7
CONVERTER_2
 73
     1
 44
0.7202881152461
  0
MTEXT
  5
DB
330
1F
100
AcDbEntity
  8
1
 62
     7
100
AcDbMText
 10
1755.0
 20
150.0
 30
0.0
 40
30.0
 41
0.0
 71
     5
 72
     1
  1
26
  7
CONVERTER_2
 73
     1
 44
0.7202881152461
  0
MTEXT
  5
DC
330
1F
100
AcDbEntity
  8
1
 62
     7
100
AcDbMText
 10
1686.0
 20
150.0
 30
0.0
 40
30.0
 41
0.0
 71
     5
 72
     1
  1
4
  7
CONVERTER_2
 73
     1
 44
0.7202881152461
  0
MTEXT
  5
DD
330
1F
100
AcDbEntity
  8
1
 62
     7
100
AcDbMText
 10
408.0
 20
356.0000000000001
 30
0.0
 40
42.00000000000001
 41
0.0
 71
     4
 72
     1
  1
{\Fgdt;n}38水栓取付位置の肉厚は最大18です。
  7
CONVERTER_1
 73
     1
 44
0.7202881152461
  0
MTEXT
  5
DE
330
1F
100
AcDbEntity
  8
1
 62
     7
100
AcDbMText
 10
408.0
 20
408.0
 30
0.0
 40
42.00000000000001
 41
0.0
 71
     4
 72
     1
  1
容量：7,5L・オーバーフロー付・コーキング剤付属・天板取付金具付属
  7
CONVERTER_1
 73
     1
 44
0.7202881152461
  0
MTEXT
  5
DF
330
1F
100
AcDbEntity
  8
1
 62
     7
100
AcDbMText
 10
408.0
 20
460.0
 30
0.0
 40
42.00000000000001
 41
0.0
 71
     4
 72
     1
  1
シリーズ名：LAUFEN pro(LAUFEN)
  7
CONVERTER_1
 73
     1
 44
0.7202881152461
  0
MTEXT
  5
E0
330
1F
100
AcDbEntity
  8
1
 62
     7
100
AcDbMText
 10
1686.0
 20
228.0000000000001
 30
0.0
 40
60.0
 41
0.0
 71
     5
 72
     1
  1
酒光
  7
CONVERTER_1
 73
     1
 44
0.7202881152461
  0
MTEXT
  5
E1
330
1F
100
AcDbEntity
  8
1
 62
     7
100
AcDbMText
 10
1890.0
 20
228.0000000000001
 30
0.0
 40
60.0
 41
0.0
 71
     5
 72
     1
  1
板津
  7
CONVERTER_1
 73
     1
 44
0.7202881152461
  0
MTEXT
  5
E2
330
1F
100
AcDbEntity
  8
1
 62
     7
100
AcDbMText
 10
1821.0
 20
150.0
 30
0.0
 40
30.0
 41
0.0
 71
     5
 72
     1
  1
11
  7
CONVERTER_2
 73
     1
 44
0.7202881152461
  0
MTEXT
  5
E3
330
1F
100
AcDbEntity
  8
1
 62
     7
100
AcDbMText
 10
1959.0
 20
150.0
 30
0.0
 40
30.0
 41
0.0
 71
     5
 72
     1
  1
21
  7
CONVERTER_2
 73
     1
 44
0.7202881152461
  0
MTEXT
  5
E4
330
1F
100
AcDbEntity
  8
1
 62
     7
100
AcDbMText
 10
1890.0
 20
150.0
 30
0.0
 40
30.0
 41
0.0
 71
     5
 72
     1
  1
1
  7
CONVERTER_2
 73
     1
 44
0.7202881152461
  0
MTEXT
  5
E5
330
1F
100
AcDbEntity
  8
1
 62
     7
100
AcDbMText
 10
1023.0
 20
204.0
 30
0.0
 40
42.00000000000001
 41
0.0
 71
     5
 72
     1
  1
1
  7
CONVERTER_2
 73
     1
 44
0.7202881152461
  0
MTEXT
  5
E6
330
1F
100
AcDbEntity
  8
1
 62
     7
100
AcDbMText
 10
1125.0
 20
204.0
 30
0.0
 40
42.00000000000001
 41
0.0
 71
     5
 72
     1
  1
12
  7
CONVERTER_2
 73
     1
 44
0.7202881152461
  0
MTEXT
  5
E7
330
1F
100
AcDbEntity
  8
1
 62
     7
100
AcDbMText
 10
684.0
 20
171.0
 30
0.0
 40
42.00000000000001
 41
0.0
 71
     5
 72
     1
  1
SL812958-W-104
  7
CONVERTER_2
 73
     1
 44
0.7202881152461
  0
MTEXT
  5
E8
330
1F
100
AcDbEntity
  8
1
 62
     7
100
AcDbMText
 10
684.0
 20
273.0000000000002
 30
0.0
 40
42.00000000000001
 41
0.0
 71
     5
 72
     1
  1
洗面器
  7
CONVERTER_1
 73
     1
 44
0.7202881152461
  0
MTEXT
  5
E9
330
1F
100
AcDbEntity
  8
1
 62
     7
100
AcDbMText
 10
1482.0
 20
228.0000000000001
 30
0.0
 40
60.0
 41
0.0
 71
     5
 72
     1
  1
片岡
  7
CONVERTER_1
 73
     1
 44
0.7202881152461
  0
MTEXT
  5
EA
330
1F
100
AcDbEntity
  8
1
 62
     7
100
AcDbMText
 10
1278.0
 20
228.0000000000001
 30
0.0
 40
60.0
 41
0.0
 71
     5
 72
     1
  1
牧
  7
CONVERTER_1
 73
     1
 44
0.7202881152461
  0
MTEXT
  5
EB
330
1F
100
AcDbEntity
  8
1
 62
     7
100
AcDbMText
 10
1482.0
 20
150.0
 30
0.0
 40
30.0
 41
0.0
 71
     5
 72
     1
  1
4
  7
CONVERTER_2
 73
     1
 44
0.7202881152461
  0
MTEXT
  5
EC
330
1F
100
AcDbEntity
  8
1
 62
     7
100
AcDbMText
 10
1551.0
 20
150.0
 30
0.0
 40
30.0
 41
0.0
 71
     5
 72
     1
  1
26
  7
CONVERTER_2
 73
     1
 44
0.7202881152461
  0
MTEXT
  5
ED
330
1F
100
AcDbEntity
  8
1
 62
     7
100
AcDbMText
 10
1413.0
 20
150.0
 30
0.0
 40
30.0
 41
0.0
 71
     5
 72
     1
  1
12
  7
CONVERTER_2
 73
     1
 44
0.7202881152461
  0
MTEXT
  5
EE
330
1F
100
AcDbEntity
  8
1
 62
     7
100
AcDbMText
 10
1209.0
 20
150.0
 30
0.0
 40
30.0
 41
0.0
 71
     5
 72
     1
  1
12
  7
CONVERTER_2
 73
     1
 44
0.7202881152461
  0
MTEXT
  5
EF
330
1F
100
AcDbEntity
  8
1
 62
     7
100
AcDbMText
 10
1347.0
 20
150.0
 30
0.0
 40
30.0
 41
0.0
 71
     5
 72
     1
  1
2
  7
CONVERTER_2
 73
     1
 44
0.7202881152461
  0
MTEXT
  5
F0
330
1F
100
AcDbEntity
  8
1
 62
     7
100
AcDbMText
 10
1278.0
 20
150.0
 30
0.0
 40
30.0
 41
0.0
 71
     5
 72
     1
  1
5
  7
CONVERTER_2
 73
     1
 44
0.7202881152461
  0
DIMENSION
  5
FB
330
1F
100
AcDbEntity
  8
1
100
AcDbDimension
  2
*D03
 10
960.768811711136
 20
2441.891107809001
 30
0.0
 11
927.768811711136
 21
2682.938257391136
 31
0.0
  1
480
 71
     5
 42
0.0
 53
90.0
  3
ME10_DIM_0
100
AcDbAlignedDimension
 13
960.768811711136
 23
2922.94014541197
 33
0.0
 14
1080.769510757198
 24
2441.891107809001
 34
0.0
 50
90.0
100
AcDbRotatedDimension
  0
DIMENSION
  5
106
330
1F
100
AcDbEntity
  8
1
100
AcDbDimension
  2
*D14
 10
2346.773282197246
 20
2922.94014541197
 30
0.0
 11
2313.773282197246
 21
2822.938669717525
 31
0.0
  1
<>
 71
     5
 42
0.0
 53
90.0
  3
ME10_DIM_1
100
AcDbAlignedDimension
 13
2166.773282197246
 23
2722.93719402308
 33
0.0
 14
2250.773282197247
 24
2922.94014541197
 34
0.0
 50
90.0
100
AcDbRotatedDimension
  0
DIMENSION
  5
111
330
1F
100
AcDbEntity
  8
1
100
AcDbDimension
  2
*D25
 10
2250.773282197246
 20
2852.94131728697
 30
0.0
 11
2217.773282197246
 21
2787.939255655025
 31
0.0
  1
<>
 71
     5
 42
0.0
 53
90.0
  3
ME10_DIM_2
100
AcDbAlignedDimension
 13
2166.773282197246
 23
2722.93719402308
 33
0.0
 14
1640.770461016692
 24
2852.94131728697
 34
0.0
 50
90.0
100
AcDbRotatedDimension
  0
DIMENSION
  5
11C
330
1F
100
AcDbEntity
  8
1
100
AcDbDimension
  2
*D36
 10
1080.769510757198
 20
2322.936369370303
 30
0.0
 11
1605.77380303058
 21
2355.936369370303
 31
0.0
  1
1050
 71
     5
 42
0.0
 53
0.00013888888889
  3
ME10_DIM_3
100
AcDbAlignedDimension
 13
2130.778095303962
 23
2457.891107809001
 33
0.0
 14
1080.769510757198
 24
2441.891107809001
 34
0.0
100
AcDbRotatedDimension
  0
DIMENSION
  5
127
330
1F
100
AcDbEntity
  8
1
100
AcDbDimension
  2
*D47
 10
1745.677752683358
 20
1889.199124561256
 30
0.0
 11
1605.77380303058
 21
1922.199124561256
 31
0.0
  1
280
 71
     5
 42
0.0
 53
0.00013888888889
  3
ME10_DIM_4
100
AcDbAlignedDimension
 13
1465.941511363914
 23
1735.971867616811
 33
0.0
 14
1745.677752683358
 24
1735.971867616811
 34
0.0
100
AcDbRotatedDimension
  0
DIMENSION
  5
134
330
1F
100
AcDbEntity
  8
1
100
AcDbDimension
  2
*D58
 10
2250.563799868305
 20
1769.195138344991
 30
0.0
 11
2217.563799868305
 21
1867.003946981839
 31
0.0
  1
50
 71
     5
 42
0.0
 53
90.0
  3
ME10_DIM_5
100
AcDbAlignedDimension
 13
1773.668464488914
 23
1719.203898866811
 33
0.0
 14
2130.613799868305
 24
1769.195138344992
 34
0.0
 50
90.0
100
AcDbRotatedDimension
  0
DIMENSION
  5
141
330
1F
100
AcDbEntity
  8
1
100
AcDbDimension
  2
*D69
 10
2346.563799868305
 20
1654.199081158478
 30
0.0
 11
2313.563799868305
 21
1711.699102859867
 31
0.0
  1
<>
 71
     5
 42
0.0
 53
90.0
  3
ME10_DIM_6
100
AcDbAlignedDimension
 13
2130.613799868305
 23
1769.195138344992
 33
0.0
 14
2109.563924145166
 24
1654.199081158478
 34
0.0
 50
90.0
100
AcDbRotatedDimension
  0
DIMENSION
  5
14C
330
1F
100
AcDbEntity
  8
1
100
AcDbDimension
  2
*D710
 10
960.9479639052324
 20
1599.20433289459
 30
0.0
 11
927.9479639052324
 21
1684.201728727923
 31
0.0
  1
170
 71
     5
 42
0.0
 53
90.0
  3
ME10_DIM_7
100
AcDbAlignedDimension
 13
1080.897963905232
 23
1769.195138344992
 33
0.0
 14
1605.77380303058
 24
1599.204332894589
 34
0.0
 50
90.0
100
AcDbRotatedDimension
  0
INSERT
  5
154
330
1F
100
AcDbEntity
  8
1
100
AcDbBlockReference
  2
*D811
 10
0.0
 20
0.0
 30
0.0
  0
INSERT
  5
15C
330
1F
100
AcDbEntity
  8
1
100
AcDbBlockReference
  2
*D912
 10
0.0
 20
0.0
 30
0.0
  0
INSERT
  5
164
330
1F
100
AcDbEntity
  8
1
100
AcDbBlockReference
  2
*D1013
 10
0.0
 20
0.0
 30
0.0
  0
ENDSEC
  0
SECTION
  2
OBJECTS
  0
DICTIONARY
  5
C
330
0
100
AcDbDictionary
281
     1
  3
ACAD_GROUP
350
D
  3
ACAD_LAYOUT
350
1A
  3
ACAD_MLINESTYLE
350
17
  3
ACAD_PLOTSETTINGS
350
19
  3
ACAD_PLOTSTYLENAME
350
E
  3
ACAD_TABLESTYLE
350
2A
  3
AcDbVariableDictionary
350
2C
  0
DICTIONARY
  5
D
102
{ACAD_REACTORS
330
C
102
}
330
C
100
AcDbDictionary
281
     1
  0
DICTIONARY
  5
1A
102
{ACAD_REACTORS
330
C
102
}
330
C
100
AcDbDictionary
281
     1
  3
Layout1
350
1E
  3
Layout2
350
26
  3
Model
350
22
  0
DICTIONARY
  5
17
102
{ACAD_REACTORS
330
C
102
}
330
C
100
AcDbDictionary
281
     1
  3
Standard
350
18
  0
DICTIONARY
  5
19
102
{ACAD_REACTORS
330
C
102
}
330
C
100
AcDbDictionary
281
     1
  0
ACDBDICTIONARYWDFLT
  5
E
102
{ACAD_REACTORS
330
C
102
}
330
C
100
AcDbDictionary
281
     1
  3
Normal
350
F
100
AcDbDictionaryWithDefault
340
F
  0
DICTIONARY
  5
2A
102
{ACAD_REACTORS
330
C
102
}
330
C
100
AcDbDictionary
281
     1
  3
Standard
350
2B
  0
DICTIONARY
  5
2C
102
{ACAD_REACTORS
330
C
102
}
330
C
100
AcDbDictionary
281
     1
  3
CTABLESTYLE
350
2D
  0
LAYOUT
  5
1E
102
{ACAD_REACTORS
330
1A
102
}
330
1A
100
AcDbPlotSettings
  1

  2

  4

  6

 40
0.0
 41
0.0
 42
0.0
 43
0.0
 44
0.0
 45
0.0
 46
0.0
 47
0.0
 48
0.0
 49
0.0
140
0.0
141
0.0
142
1.0
143
1.0
 70
   688
 72
     0
 73
     0
 74
     5
  7

 75
    16
147
1.0
148
0.0
149
0.0
100
AcDbLayout
  1
Layout1
 70
     1
 71
     1
 10
0.0
 20
0.0
 11
12.0
 21
9.0
 12
0.0
 22
0.0
 32
0.0
 14
1.00000000000000E+20
 24
1.00000000000000E+20
 34
1.00000000000000E+20
 15
-1.00000000000000E+20
 25
-1.00000000000000E+20
 35
-1.00000000000000E+20
146
0.0
 13
0.0
 23
0.0
 33
0.0
 16
1.0
 26
0.0
 36
0.0
 17
0.0
 27
1.0
 37
0.0
 76
     0
330
1B
  0
LAYOUT
  5
26
102
{ACAD_REACTORS
330
1A
102
}
330
1A
100
AcDbPlotSettings
  1

  2

  4

  6

 40
0.0
 41
0.0
 42
0.0
 43
0.0
 44
0.0
 45
0.0
 46
0.0
 47
0.0
 48
0.0
 49
0.0
140
0.0
141
0.0
142
1.0
143
1.0
 70
   688
 72
     0
 73
     0
 74
     5
  7

 75
    16
147
1.0
148
0.0
149
0.0
100
AcDbLayout
  1
Layout2
 70
     1
 71
     2
 10
0.0
 20
0.0
 11
0.0
 21
0.0
 12
0.0
 22
0.0
 32
0.0
 14
0.0
 24
0.0
 34
0.0
 15
0.0
 25
0.0
 35
0.0
146
0.0
 13
0.0
 23
0.0
 33
0.0
 16
1.0
 26
0.0
 36
0.0
 17
0.0
 27
1.0
 37
0.0
 76
     0
330
23
  0
LAYOUT
  5
22
102
{ACAD_REACTORS
330
1A
102
}
330
1A
100
AcDbPlotSettings
  1

  2

  4

  6

 40
0.0
 41
0.0
 42
0.0
 43
0.0
 44
0.0
 45
0.0
 46
0.0
 47
0.0
 48
0.0
 49
0.0
140
0.0
141
0.0
142
1.0
143
1.0
 70
  1712
 72
     0
 73
     0
 74
     0
  7

 75
     0
147
1.0
148
0.0
149
0.0
100
AcDbLayout
  1
Model
 70
     1
 71
     0
 10
0.0
 20
0.0
 11
0.0
 21
0.0
 12
0.0
 22
0.0
 32
0.0
 14
0.0
 24
0.0
 34
0.0
 15
2520.0
 25
3564.0
 35
0.0
146
0.0
 13
0.0
 23
0.0
 33
0.0
 16
1.0
 26
0.0
 36
0.0
 17
0.0
 27
1.0
 37
0.0
 76
     0
330
1F
  0
MLINESTYLE
  5
18
102
{ACAD_REACTORS
330
17
102
}
330
17
100
AcDbMlineStyle
  2
Standard
 70
     0
  3

 62
   256
 51
90.0
 52
90.0
 71
     2
 49
0.5
 62
   256
  6
BYLAYER
 49
-0.5
 62
   256
  6
BYLAYER
  0
ACDBPLACEHOLDER
  5
F
102
{ACAD_REACTORS
330
E
102
}
330
E
  0
TABLESTYLE
  5
2B
102
{ACAD_REACTORS
330
2A
102
}
330
2A
100
AcDbTableStyle
  3
Standard
 70
     0
 71
     0
 40
0.06
 41
0.06
280
     0
281
     0
  7
Standard
140
0.18
170
     2
 62
     0
 63
     7
283
     0
274
    -2
284
     1
 64
     0
275
    -2
285
     1
 65
     0
276
    -2
286
     1
 66
     0
277
    -2
287
     1
 67
     0
278
    -2
288
     1
 68
     0
279
    -2
289
     1
 69
     0
  7
Standard
140
0.25
170
     5
 62
     0
 63
     7
283
     0
274
    -2
284
     1
 64
     0
275
    -2
285
     1
 65
     0
276
    -2
286
     1
 66
     0
277
    -2
287
     1
 67
     0
278
    -2
288
     1
 68
     0
279
    -2
289
     1
 69
     0
  7
Standard
140
0.18
170
     5
 62
     0
 63
     7
283
     0
274
    -2
284
     1
 64
     0
275
    -2
285
     1
 65
     0
276
    -2
286
     1
 66
     0
277
    -2
287
     1
 67
     0
278
    -2
288
     1
 68
     0
279
    -2
289
     1
 69
     0
  0
DICTIONARYVAR
  5
2D
102
{ACAD_REACTORS
330
2C
102
}
330
2C
100
DictionaryVariables
280
     0
  1
Standard
  0
ENDSEC
  0
EOF
