  0
SECTION
  2
HEADER
  9
$EXTMAX
 10
297
 20
210
 30
0
  9
$EXTMIN
 10
0
 20
0
 30
0
  9
$LIMMAX
 10
297
 20
210
  9
$LIMMIN
 10
0
 20
0
  9
$PLIMMAX
 10
297
 20
210
  9
$PLIMMIN
 10
0
 20
0
  9
$PEXTMAX
 10
297
 20
210
 30
0
  9
$PEXTMIN
 10
0
 20
0
 30
0
  9
$TEXTSIZE
 40
3.2
  9
$DIMSHO
 70
     0
  9
$DIMASZ
 40
1.0
  9
$DIMTAD
 70
     1
  9
$DIMTIH
 70
     0
  9
$DIMTOH
 70
     0
  9
$DIMEXE
 40
2.54
  9
$DIMEXO
 40
2.54
  9
$DIMTVP
 40
1.0
  9
$DIMSAH
 70
     1
  9
$DIMDLE
 40
0.0
  9
$DIMTXT
 40
3.200000047683716
  9
$DIMGAP
 40
1.600000023841858
  0
ENDSEC
  0
SECTION
  2
TABLES
  0
TABLE
  2
LTYPE
 70
     53
  0
LTYPE
  2
CONTINUOUS
 70
    64
  3
Solid line
 72
    65
 73
     0
 40
0.0
  0
LTYPE
  2
ACAD_ISO02W100
 70
     0
  3
ISO dash __ __ __ __ __ __ __ __ __ __ __ __ __
 72
    65
 73
     2
 40
15.0
 49
12.0
 49
-3.0
  0
LTYPE
  2
ACAD_ISO03W100
 70
     0
  3
ISO dash space __    __    __    __    __    __
 72
    65
 73
     2
 40
30.0
 49
12.0
 49
-18.0
  0
LTYPE
  2
ACAD_ISO04W100
 70
     0
  3
ISO long-dash dot ____ . ____ . ____ . ____ . _
 72
    65
 73
     4
 40
30.0
 49
24.0
 49
-3.0
 49
0.0
 49
-3.0
  0
LTYPE
  2
ACAD_ISO05W100
 70
     0
  3
ISO long-dash double-dot ____ .. ____ .. ____ .
 72
    65
 73
     6
 40
33.0
 49
24.0
 49
-3.0
 49
0.0
 49
-3.0
 49
0.0
 49
-3.0
  0
LTYPE
  2
ACAD_ISO06W100
 70
     0
  3
ISO long-dash triple-dot ____ ... ____ ... ____
 72
    65
 73
     8
 40
36.0
 49
24.0
 49
-3.0
 49
0.0
 49
-3.0
 49
0.0
 49
-3.0
 49
0.0
 49
-3.0
  0
LTYPE
  2
ACAD_ISO07W100
 70
     0
  3
ISO dot . . . . . . . . . . . . . . . . . . . .
 72
    65
 73
     2
 40
3.0
 49
0.0
 49
-3.0
  0
LTYPE
  2
ACAD_ISO08W100
 70
     0
  3
ISO long-dash short-dash ____ __ ____ __ ____ _
 72
    65
 73
     4
 40
36.0
 49
24.0
 49
-3.0
 49
6.0
 49
-3.0
  0
LTYPE
  2
ACAD_ISO09W100
 70
     0
  3
ISO long-dash double-short-dash ____ __ __ ____
 72
    65
 73
     6
 40
45.0
 49
24.0
 49
-3.0
 49
6.0
 49
-3.0
 49
6.0
 49
-3.0
  0
LTYPE
  2
ACAD_ISO10W100
 70
     0
  3
ISO dash dot __ . __ . __ . __ . __ . __ . __ .
 72
    65
 73
     4
 40
18.0
 49
12.0
 49
-3.0
 49
0.0
 49
-3.0
  0
LTYPE
  2
ACAD_ISO11W100
 70
     0
  3
ISO double-dash dot __ __ . __ __ . __ __ . __ 
 72
    65
 73
     6
 40
33.0
 49
12.0
 49
-3.0
 49
12.0
 49
-3.0
 49
0.0
 49
-3.0
  0
LTYPE
  2
ACAD_ISO12W100
 70
     0
  3
ISO dash double-dot __ . . __ . . __ . . __ . .
 72
    65
 73
     6
 40
21.0
 49
12.0
 49
-3.0
 49
0.0
 49
-3.0
 49
0.0
 49
-3.0
  0
LTYPE
  2
ACAD_ISO13W100
 70
     0
  3
ISO double-dash double-dot __ __ . . __ __ . . 
 72
    65
 73
     8
 40
36.0
 49
12.0
 49
-3.0
 49
12.0
 49
-3.0
 49
0.0
 49
-3.0
 49
0.0
 49
-3.0
  0
LTYPE
  2
ACAD_ISO14W100
 70
     0
  3
ISO dash triple-dot __ . . . __ . . . __ . . . 
 72
    65
 73
     8
 40
24.0
 49
12.0
 49
-3.0
 49
0.0
 49
-3.0
 49
0.0
 49
-3.0
 49
0.0
 49
-3.0
  0
LTYPE
  2
ACAD_ISO15W100
 70
     0
  3
ISO double-dash triple-dot __ __ . . . __ __ . 
 72
    65
 73
    10
 40
39.0
 49
12.0
 49
-3.0
 49
12.0
 49
-3.0
 49
0.0
 49
-3.0
 49
0.0
 49
-3.0
 49
0.0
 49
-3.0
  0
LTYPE
  2
BORDER
 70
    64
  3
Border __ __ . __ __ . __ __ . __ __ . __ __ .
 72
    65
 73
     6
 40
3.5
 49
1.0
 49
-0.5
 49
1.0
 49
-0.5
 49
0.0
 49
-0.5
  0
LTYPE
  2
BORDER2
 70
    64
  3
Border (.5x) __.__.__.__.__.__.__.__.__.__.__.
 72
    65
 73
     6
 40
1.75
 49
0.5
 49
-0.25
 49
0.5
 49
-0.25
 49
0.0
 49
-0.25
  0
LTYPE
  2
BORDERX2
 70
    64
  3
Border (2x) ____  ____  .  ____  ____  .  ___
 72
    65
 73
     6
 40
7.0
 49
2.0
 49
-1.0
 49
2.0
 49
-1.0
 49
0.0
 49
-1.0
  0
LTYPE
  2
CENTER
 70
    64
  3
Center ____ _ ____ _ ____ _ ____ _ ____ _ ____
 72
    65
 73
     4
 40
12.0
 49
7.5
 49
-1.5
 49
1.5
 49
-1.5
  0
LTYPE
  2
CENTER2
 70
    64
  3
Center (.5x) ___ _ ___ _ ___ _ ___ _ ___ _ ___
 72
    65
 73
     4
 40
6.0
 49
3.75
 49
-0.75
 49
0.75
 49
-0.75
  0
LTYPE
  2
CENTERX2
 70
    64
  3
Center (2x) ________  __  ________  __  _____
 72
    65
 73
     4
 40
24.0
 49
15.0
 49
-3.0
 49
3.0
 49
-3.0
  0
LTYPE
  2
DASHDOT
 70
    64
  3
Dash dot __ . __ . __ . __ . __ . __ . __ . __
 72
    65
 73
     4
 40
6.0
 49
3.0
 49
-1.5
 49
0.0
 49
-1.5
  0
LTYPE
  2
DASHDOT2
 70
    64
  3
Dash dot (.5x) _._._._._._._._._._._._._._._.
 72
    65
 73
     4
 40
3.0
 49
1.5
 49
-0.75
 49
0.0
 49
-0.75
  0
LTYPE
  2
DASHDOTX2
 70
    64
  3
Dash dot (2x) ____  .  ____  .  ____  .  ___
 72
    65
 73
     4
 40
12.0
 49
6.0
 49
-3.0
 49
0.0
 49
-3.0
  0
LTYPE
  2
DASHED
 70
    64
  3
Dashed __ __ __ __ __ __ __ __ __ __ __ __ __ _
 72
    65
 73
     2
 40
4.5
 49
3.0
 49
-1.5
  0
LTYPE
  2
DASHED2
 70
    64
  3
Dashed (.5x) _ _ _ _ _ _ _ _ _ _ _ _ _ _ _ _ _
 72
    65
 73
     2
 40
2.25
 49
1.5
 49
-0.75
  0
LTYPE
  2
DASHEDX2
 70
    64
  3
Dashed (2x) ____  ____  ____  ____  ____  ___
 72
    65
 73
     2
 40
9.0
 49
6.0
 49
-3.0
  0
LTYPE
  2
DIVIDE
 70
    64
  3
Divide ____ . . ____ . . ____ . . ____ . . ____
 72
    65
 73
     6
 40
7.5
 49
3.0
 49
-1.5
 49
0.0
 49
-1.5
 49
0.0
 49
-1.5
  0
LTYPE
  2
DIVIDE2
 70
    64
  3
Divide (.5x) __..__..__..__..__..__..__..__.._
 72
    65
 73
     6
 40
3.75
 49
1.5
 49
-0.75
 49
0.0
 49
-0.75
 49
0.0
 49
-0.75
  0
LTYPE
  2
DIVIDEX2
 70
    64
  3
Divide (2x) ________  .  .  ________  .  .  _
 72
    65
 73
     6
 40
15.0
 49
6.0
 49
-3.0
 49
0.0
 49
-3.0
 49
0.0
 49
-3.0
  0
LTYPE
  2
DOT
 70
    64
  3
Dot . . . . . . . . . . . . . . . . . . . . . .
 72
    65
 73
     2
 40
1.5
 49
0.0
 49
-1.5
  0
LTYPE
  2
DOT2
 70
    64
  3
Dot (.5x) .....................................
 72
    65
 73
     2
 40
0.75
 49
0.0
 49
-0.75
  0
LTYPE
  2
DOTX2
 70
    64
  3
Dot (2x) .  .  .  .  .  .  .  .  .  .  .  .  . 
 72
    65
 73
     2
 40
3.0
 49
0.0
 49
-3.0
  0
LTYPE
  2
HIDDEN
 70
    64
  3
Hidden __ __ __ __ __ __ __ __ __ __ __ __ __ _
 72
    65
 73
     2
 40
4.5
 49
3.0
 49
-1.5
  0
LTYPE
  2
HIDDEN2
 70
    64
  3
Hidden (.5x) _ _ _ _ _ _ _ _ _ _ _ _ _ _ _ _ _
 72
    65
 73
     2
 40
2.25
 49
1.5
 49
-0.75
  0
LTYPE
  2
HIDDENX2
 70
    64
  3
Hidden (2x) ____ ____ ____ ____ ____ ____ ____
 72
    65
 73
     2
 40
9.0
 49
6.0
 49
-3.0
  0
LTYPE
  2
PHANTOM
 70
    64
  3
Phantom ______  __  __  ______  __  __  ______
 72
    65
 73
     6
 40
15.0
 49
7.5
 49
-1.5
 49
1.5
 49
-1.5
 49
1.5
 49
-1.5
  0
LTYPE
  2
PHANTOM2
 70
    64
  3
Phantom (.5x) ___ _ _ ___ _ _ ___ _ _ ___ _ _
 72
    65
 73
     6
 40
7.5
 49
3.75
 49
-0.75
 49
0.75
 49
-0.75
 49
0.75
 49
-0.75
  0
LTYPE
  2
PHANTOMX2
 70
    64
  3
Phantom (2x) ____________    ____    ____   _
 72
    65
 73
     6
 40
30.0
 49
15.0
 49
-3.0
 49
3.0
 49
-3.0
 49
3.0
 49
-3.0
  0
LTYPE
  2
JIS_02_0_7
 70
     0
  3
HIDDEN0.75 _ _ _ _ _ _ _ _ _ _ _ _ _ _ _ _ _
 72
    65
 73
     2
 40
1.3500000000000001
 49
0.75
 49
-0.6
  0
LTYPE
  2
JIS_02_1_0
 70
     0
  3
HIDDEN01 _ _ _ _ _ _ _ _ _ _ _ _ _ _ _ _ _
 72
    65
 73
     2
 40
2.0
 49
1.0
 49
-1.0
  0
LTYPE
  2
JIS_02_1_2
 70
     0
  3
HIDDEN01.25  _ _ _ _ _ _ _ _ _ _ _ _ _ _ _ _ _
 72
    65
 73
     2
 40
2.5
 49
1.25
 49
-1.25
  0
LTYPE
  2
JIS_02_2_0
 70
     0
  3
HIDDEN02 __ __ __ __ __ __ __ __ __ __ __
 72
    65
 73
     2
 40
3.0
 49
2.0
 49
-1.0
  0
LTYPE
  2
JIS_02_4_0
 70
     0
  3
HIDDEN04 ____ ____ ____ ____ ____ ____ ____
 72
    65
 73
     2
 40
5.5
 49
4.0
 49
-1.5
  0
LTYPE
  2
JIS_08_11
 70
     0
  3
1SASEN11 ___ _ ___ _ ___ _ ___ _ ___ _ ___
 72
    65
 73
     4
 40
12.800000000000001
 49
11.0
 49
-0.6
 49
0.6
 49
-0.6
  0
LTYPE
  2
JIS_08_15
 70
     0
  3
1SASEN15 ____ _ ____ _ ____ _ ____ _ ____
 72
    65
 73
     4
 40
17.25
 49
15.0
 49
-0.75
 49
0.75
 49
-0.75
  0
LTYPE
  2
JIS_08_25
 70
     0
  3
1SASEN25 ________  __  ________  __  _____
 72
    65
 73
     4
 40
28.0
 49
25.0
 49
-1.125
 49
0.75
 49
-1.125
  0
LTYPE
  2
JIS_08_37
 70
     0
  3
1SASEN37 ________  __  ________  __  _____
 72
    65
 73
     4
 40
40.499999999999993
 49
37.5
 49
-1.125
 49
0.75
 49
-1.125
  0
LTYPE
  2
JIS_08_50
 70
     0
  3
1SASEN50 _______________  __  ____________
 72
    65
 73
     4
 40
53.0
 49
50.0
 49
-1.125
 49
0.75
 49
-1.125
  0
LTYPE
  2
JIS_09_08
 70
     0
  3
2SASEN8 __ _ _ __ _ _ __ _ _ __ _ _ __ _ _
 72
    65
 73
     6
 40
10.75
 49
8.0
 49
-0.55
 49
0.55
 49
-0.55
 49
0.55
 49
-0.55
  0
LTYPE
  2
JIS_09_15
 70
     0
  3
2SASEN15 ___ _ _ ___ _ _ ___ _ _ ___ _ _ ___
 72
    65
 73
     6
 40
18.899999999999999
 49
15.0
 49
-0.9
 49
0.6
 49
-0.9
 49
0.6
 49
-0.9
  0
LTYPE
  2
JIS_09_29
 70
     0
  3
2SASEN29 ______  __  __  ______  __  __  ___
 72
    65
 73
     6
 40
34.0
 49
29.0
 49
-1.1999999999999991
 49
0.7
 49
-1.1999999999999991
 49
0.7
 49
-1.1999999999999991
  0
LTYPE
  2
JIS_09_50
 70
     0
  3
2SASEN50 ____________  __  __  _____________
 72
    65
 73
     6
 40
55.0
 49
50.0
 49
-1.1999999999999991
 49
0.7
 49
-1.1999999999999991
 49
0.7
 49
-1.1999999999999991
  0
ENDTAB
  0
TABLE
  2
LAYER
 70
     4
  0
LAYER
  2
0
 70
     0
 62
     7
  6
CONTINUOUS
  0
LAYER
  2
1
 70
     0
 62
     7
  6
CONTINUOUS
  0
LAYER
  2
2
 70
     0
 62
     7
  6
CONTINUOUS
  0
LAYER
  2
DEFPOINTS
 70
     0
 62
     7
  6
CONTINUOUS
  0
ENDTAB
  0
TABLE
  2
STYLE
 70
     1
  0
STYLE
  2
STANDARD
 70
     0
 40
0.0
 41
1.0
 50
0.0
 71
     0
 42
0.2
  3
txt
  4
BIGFONT
  0
ENDTAB
  0
TABLE
  2
DIMSTYLE
 70
     1
  0
DIMSTYLE
  2
DIMSTYLE
 70
     0
  3

  4

  5
_OPEN30
  6
_OPEN30
  7
_OPEN30
 40
1
 41
1
 42
1.5
 43
0.38
 44
2.54
 45
0
 46
0
 47
0
 48
0
140
3.200000047683716
141
0.09
142
0
143
25.4
144
1
145
0
146
1
147
1.600000023841858
 71
     0
 72
     0
 73
     0
 74
     0
 75
     0
 76
     0
 78
     0
170
     0
171
     2
 77
     0
172
     0
173
     1
174
     0
175
     0
176
     0
177
     0
178
     0
  0
ENDTAB
  0
ENDSEC
  0
SECTION
  2
BLOCKS
  0
BLOCK
  8
0
  2
_OPEN30
 70
    64
 10
0
 20
0
  3
_OPEN30
  0
LINE
  8
0
  6
BYBLOCK
 62
     0
 10
0
 20
0
 11
-2.999999954944514
 21
-0.9999999849815249
  0
LINE
  8
0
  6
BYBLOCK
 62
     0
 10
0
 20
0
 11
-2.999999954944526
 21
0.9999999849814883
  0
LINE
  8
0
  6
BYBLOCK
 62
     0
 10
0
 20
0
 11
-2.99999995494452
 21
0
  0
ENDBLK
  8
0
  0
BLOCK
  8
0
  2
*D1
 70
    65
 10
0
 20
0
  0
LINE
  8
0
  6
CONTINUOUS
 62
     7
 10
173.0099542971
 20
170.2611178608555
 11
173.0099542971
 21
50.26111777074452
  0
INSERT
  8
0
  6
CONTINUOUS
 62
     7
  2
_OPEN30
 10
173.0099542971
 20
173.2611178158
 50
90.00000000000019
  0
INSERT
  8
0
  6
CONTINUOUS
 62
     7
  2
_OPEN30
 10
173.0099542971
 20
47.2611178158
 50
270.0000000000005
  0
LINE
  8
0
  6
CONTINUOUS
 62
     7
 10
145.2599542745723
 20
173.2611178158
 11
174.5099542971
 21
173.2611178158
  0
LINE
  8
0
  6
CONTINUOUS
 62
     7
 10
145.2599542745723
 20
47.2611178158
 11
174.5099542971
 21
47.2611178158
  0
TEXT
  8
0
  6
CONTINUOUS
 62
     7
 10
172.2823501463279
 20
106.3111369608119
 40
2.910416603088379
 41
1.163303518854092
  1
126
 50
90.00000000000003
  0
POINT
  8
DEFPOINTS
  6
CONTINUOUS
 62
     7
 10
143.7599542971
 20
173.2611178158
  0
POINT
  8
DEFPOINTS
  6
CONTINUOUS
 62
     7
 10
143.7599542971
 20
47.2611178158
  0
POINT
  8
DEFPOINTS
  6
CONTINUOUS
 62
     7
 10
173.0099542971
 20
47.2611178158
  0
ENDBLK
  8
0
  0
BLOCK
  8
0
  2
*D2
 70
    65
 10
0
 20
0
  0
LINE
  8
0
  6
CONTINUOUS
 62
     7
 10
167.0099542971
 20
157.7611178608555
 11
167.0099542971
 21
62.76111777074452
  0
INSERT
  8
0
  6
CONTINUOUS
 62
     7
  2
_OPEN30
 10
167.0099542971
 20
160.7611178158
 50
90.00000000000019
  0
INSERT
  8
0
  6
CONTINUOUS
 62
     7
  2
_OPEN30
 10
167.0099542971
 20
59.7611178158
 50
270.0000000000005
  0
LINE
  8
0
  6
CONTINUOUS
 62
     7
 10
111.1099542745723
 20
160.7611178158
 11
168.5099542971
 21
160.7611178158
  0
LINE
  8
0
  6
CONTINUOUS
 62
     7
 10
111.1099542745723
 20
59.7611178158
 11
168.5099542971
 21
59.7611178158
  0
TEXT
  8
0
  6
CONTINUOUS
 62
     7
 10
166.2823501463279
 20
106.3111369608119
 40
2.910416603088379
 41
1.395964222624911
  1
101
 50
90.00000000000003
  0
POINT
  8
DEFPOINTS
  6
CONTINUOUS
 62
     7
 10
109.6099542971
 20
160.7611178158
  0
POINT
  8
DEFPOINTS
  6
CONTINUOUS
 62
     7
 10
109.6099542971
 20
59.7611178158
  0
POINT
  8
DEFPOINTS
  6
CONTINUOUS
 62
     7
 10
167.0099542971
 20
59.7611178158
  0
ENDBLK
  8
0
  0
BLOCK
  8
0
  2
*D3
 70
    65
 10
0
 20
0
  0
LINE
  8
0
  6
CONTINUOUS
 62
     7
 10
161.0099542971
 20
124.6611177707445
 11
161.0099542971
 21
141.8611178608555
  0
INSERT
  8
0
  6
CONTINUOUS
 62
     7
  2
_OPEN30
 10
161.0099542971
 20
121.6611178158
 50
270.0000000000005
  0
INSERT
  8
0
  6
CONTINUOUS
 62
     7
  2
_OPEN30
 10
161.0099542971
 20
144.8611178158
 50
90.00000000000019
  0
LINE
  8
0
  6
CONTINUOUS
 62
     7
 10
120.7599542745723
 20
121.6611178158
 11
162.5099542971
 21
121.6611178158
  0
LINE
  8
0
  6
CONTINUOUS
 62
     7
 10
120.7599542745723
 20
144.8611178158
 11
162.5099542971
 21
144.8611178158
  0
TEXT
  8
0
  6
CONTINUOUS
 62
     7
 10
160.2823501463279
 20
128.7290536640361
 40
2.910416603088379
 41
1.238124945455562
  1
23.2
 50
90.00000000000003
  0
POINT
  8
DEFPOINTS
  6
CONTINUOUS
 62
     7
 10
119.2599542971
 20
121.6611178158
  0
POINT
  8
DEFPOINTS
  6
CONTINUOUS
 62
     7
 10
119.2599542971
 20
144.8611178158
  0
POINT
  8
DEFPOINTS
  6
CONTINUOUS
 62
     7
 10
161.0099542971
 20
144.8611178158
  0
ENDBLK
  8
0
  0
BLOCK
  8
0
  2
*D4
 70
    65
 10
0
 20
0
  0
LINE
  8
0
  6
CONTINUOUS
 62
     7
 10
161.0099542971
 20
78.66111777074451
 11
161.0099542971
 21
95.86111786085549
  0
INSERT
  8
0
  6
CONTINUOUS
 62
     7
  2
_OPEN30
 10
161.0099542971
 20
75.6611178158
 50
270.0000000000005
  0
INSERT
  8
0
  6
CONTINUOUS
 62
     7
  2
_OPEN30
 10
161.0099542971
 20
98.8611178158
 50
90.00000000000019
  0
LINE
  8
0
  6
CONTINUOUS
 62
     7
 10
120.7599542745723
 20
75.6611178158
 11
162.5099542971
 21
75.6611178158
  0
LINE
  8
0
  6
CONTINUOUS
 62
     7
 10
120.7599542745723
 20
98.8611178158
 11
162.5099542971
 21
98.8611178158
  0
TEXT
  8
0
  6
CONTINUOUS
 62
     7
 10
160.2823501463279
 20
82.72905366403609
 40
2.910416603088379
 41
1.238124945455562
  1
23.2
 50
90.00000000000003
  0
POINT
  8
DEFPOINTS
  6
CONTINUOUS
 62
     7
 10
119.2599542971
 20
75.6611178158
  0
POINT
  8
DEFPOINTS
  6
CONTINUOUS
 62
     7
 10
119.2599542971
 20
98.8611178158
  0
POINT
  8
DEFPOINTS
  6
CONTINUOUS
 62
     7
 10
161.0099542971
 20
98.8611178158
  0
ENDBLK
  8
0
  0
BLOCK
  8
0
  2
*D5
 70
    65
 10
0
 20
0
  0
LINE
  8
0
  6
CONTINUOUS
 62
     7
 10
161.0099542971
 20
118.6611178608555
 11
161.0099542971
 21
101.8611177707445
  0
INSERT
  8
0
  6
CONTINUOUS
 62
     7
  2
_OPEN30
 10
161.0099542971
 20
121.6611178158
 50
90.00000000000019
  0
INSERT
  8
0
  6
CONTINUOUS
 62
     7
  2
_OPEN30
 10
161.0099542971
 20
98.8611178158
 50
270.0000000000005
  0
LINE
  8
0
  6
CONTINUOUS
 62
     7
 10
120.7599542745723
 20
121.6611178158
 11
162.5099542971
 21
121.6611178158
  0
LINE
  8
0
  6
CONTINUOUS
 62
     7
 10
120.7599542745723
 20
98.8611178158
 11
162.5099542971
 21
98.8611178158
  0
TEXT
  8
0
  6
CONTINUOUS
 62
     7
 10
160.2823501463279
 20
105.7290536640361
 40
2.910416603088379
 41
1.238124945455562
  1
22.8
 50
90.00000000000003
  0
POINT
  8
DEFPOINTS
  6
CONTINUOUS
 62
     7
 10
119.2599542971
 20
121.6611178158
  0
POINT
  8
DEFPOINTS
  6
CONTINUOUS
 62
     7
 10
119.2599542971
 20
98.8611178158
  0
POINT
  8
DEFPOINTS
  6
CONTINUOUS
 62
     7
 10
161.0099542971
 20
98.8611178158
  0
ENDBLK
  8
0
  0
BLOCK
  8
0
  2
*D6
 70
    65
 10
0
 20
0
  0
LINE
  8
0
  6
CONTINUOUS
 62
     7
 10
93.75995425204451
 20
31.2611178158
 11
116.2599543421555
 21
31.26111781579998
  0
INSERT
  8
0
  6
CONTINUOUS
 62
     7
  2
_OPEN30
 10
90.7599542971
 20
31.2611178158
 50
180.0000000000004
  0
INSERT
  8
0
  6
CONTINUOUS
 62
     7
  2
_OPEN30
 10
119.2599542971
 20
31.2611178158
  0
LINE
  8
0
  6
CONTINUOUS
 62
     7
 10
90.75995429710001
 20
74.16111783832774
 11
90.7599542971
 21
29.7611178158
  0
LINE
  8
0
  6
CONTINUOUS
 62
     7
 10
119.2599542971
 20
74.16111783832774
 11
119.2599542971
 21
29.7611178158
  0
TEXT
  8
0
  6
CONTINUOUS
 62
     7
 10
100.4778901453361
 20
31.98872196657209
 40
2.910416603088379
 41
1.238124945455562
  1
28.5
  0
POINT
  8
DEFPOINTS
  6
CONTINUOUS
 62
     7
 10
90.7599542971
 20
75.6611178158
  0
POINT
  8
DEFPOINTS
  6
CONTINUOUS
 62
     7
 10
119.2599542971
 20
75.6611178158
  0
POINT
  8
DEFPOINTS
  6
CONTINUOUS
 62
     7
 10
119.2599542971
 20
31.2611178158
  0
ENDBLK
  8
0
  0
BLOCK
  8
0
  2
*D7
 70
    65
 10
0
 20
0
  0
LINE
  8
0
  6
CONTINUOUS
 62
     7
 10
68.00995425204451
 20
25.2611178158
 11
142.0099543421555
 21
25.26111781579998
  0
INSERT
  8
0
  6
CONTINUOUS
 62
     7
  2
_OPEN30
 10
65.0099542971
 20
25.2611178158
 50
180.0000000000004
  0
INSERT
  8
0
  6
CONTINUOUS
 62
     7
  2
_OPEN30
 10
145.0099542971
 20
25.2611178158
  0
LINE
  8
0
  6
CONTINUOUS
 62
     7
 10
65.00995429710001
 20
47.01111783832774
 11
65.0099542971
 21
23.7611178158
  0
LINE
  8
0
  6
CONTINUOUS
 62
     7
 10
145.0099542971
 20
47.01111783832774
 11
145.0099542971
 21
23.7611178158
  0
TEXT
  8
0
  6
CONTINUOUS
 62
     7
 10
102.5151816840514
 20
25.98872196657209
 40
2.910416603088379
 41
1.10209816175512
  1
80
  0
POINT
  8
DEFPOINTS
  6
CONTINUOUS
 62
     7
 10
65.0099542971
 20
48.5111178158
  0
POINT
  8
DEFPOINTS
  6
CONTINUOUS
 62
     7
 10
145.0099542971
 20
48.5111178158
  0
POINT
  8
DEFPOINTS
  6
CONTINUOUS
 62
     7
 10
145.0099542971
 20
25.2611178158
  0
ENDBLK
  8
0
  0
BLOCK
  8
0
  2
*D8
 70
    65
 10
0
 20
0
  0
LINE
  8
0
  6
CONTINUOUS
 62
     7
 10
213.6627784076
 20
25.2611178158
 11
200.5859224977756
 21
25.2611178158
  0
LINE
  8
0
  6
CONTINUOUS
 62
     7
 10
213.6627784076
 20
25.2611178158
 11
220.1627784076
 21
25.2611178158
  0
INSERT
  8
0
  6
CONTINUOUS
 62
     7
  2
_OPEN30
 10
213.6627784076
 20
25.2611178158
 50
3.562221243239139e-013
  0
LINE
  8
0
  6
CONTINUOUS
 62
     7
 10
210.6627784526555
 20
25.26111781579998
 11
207.3127785029674
 21
25.26111781579996
  0
INSERT
  8
0
  6
CONTINUOUS
 62
     7
  2
_OPEN30
 10
220.1627784076
 20
25.2611178158
 50
180
  0
LINE
  8
0
  6
CONTINUOUS
 62
     7
 10
223.1627783625445
 20
25.2611178158
 11
226.5127783122326
 21
25.2611178158
  0
LINE
  8
0
  6
CONTINUOUS
 62
     7
 10
213.6627784076
 20
47.01111783832774
 11
213.6627784076
 21
23.7611178158
  0
LINE
  8
0
  6
CONTINUOUS
 62
     7
 10
220.1627784076
 20
45.76111783832774
 11
220.1627784076
 21
23.7611178158
  0
TEXT
  8
0
  6
CONTINUOUS
 62
     7
 10
200.5859224977756
 20
25.98872196657209
 40
2.910416603088379
 41
1.357187438663108
  1
6.5
  0
POINT
  8
DEFPOINTS
  6
CONTINUOUS
 62
     7
 10
213.6627784076
 20
48.5111178158
  0
POINT
  8
DEFPOINTS
  6
CONTINUOUS
 62
     7
 10
220.1627784076
 20
47.2611178158
  0
POINT
  8
DEFPOINTS
  6
CONTINUOUS
 62
     7
 10
220.1627784076
 20
25.2611178158
  0
ENDBLK
  8
0
  0
BLOCK
  8
0
  2
KOZU0001
 70
    64
 10
0
 20
0
  0
ENDBLK
  8
0
  0
BLOCK
  8
0
  2
KOZU0002
 70
    64
 10
0
 20
0
  0
ENDBLK
  8
0
  0
BLOCK
  8
0
  2
KOZU0003
 70
    64
 10
0
 20
0
  0
ENDBLK
  8
0
  0
BLOCK
  8
0
  2
KOZU0004
 70
    64
 10
0
 20
0
  0
LINE
  8
0
  6
CONTINUOUS
 62
     7
 10
-1
 20
0.267949
 11
0
 21
0
  0
LINE
  8
0
  6
CONTINUOUS
 62
     7
 10
0
 20
0
 11
-1
 21
-0.267949
  0
LINE
  8
0
  6
CONTINUOUS
 62
     7
 10
0
 20
0
 11
-1
 21
0
  0
ENDBLK
  8
0
  0
BLOCK
  8
0
  2
KOZU0005
 70
    64
 10
0
 20
0
  0
LINE
  8
0
  6
CONTINUOUS
 62
     7
 10
0
 20
0
 11
1
 21
0
  0
LINE
  8
0
  6
CONTINUOUS
 62
     7
 10
0
 20
0
 11
0
 21
1
  0
LINE
  8
0
  6
CONTINUOUS
 62
     7
 10
0
 20
0
 11
-1
 21
0
  0
LINE
  8
0
  6
CONTINUOUS
 62
     7
 10
0
 20
0
 11
0
 21
-1
  0
LINE
  8
0
  6
CONTINUOUS
 62
     7
 10
2
 20
0
 11
4.6
 21
0
  0
LINE
  8
0
  6
CONTINUOUS
 62
     7
 10
0
 20
2
 11
0
 21
20.3340417254
  0
LINE
  8
0
  6
CONTINUOUS
 62
     7
 10
-2
 20
0
 11
-4.6
 21
0
  0
LINE
  8
0
  6
CONTINUOUS
 62
     7
 10
0
 20
-101
 11
1
 21
-101
  0
LINE
  8
0
  6
CONTINUOUS
 62
     7
 10
0
 20
-101
 11
0
 21
-100
  0
LINE
  8
0
  6
CONTINUOUS
 62
     7
 10
0
 20
-101
 11
-1
 21
-101
  0
LINE
  8
0
  6
CONTINUOUS
 62
     7
 10
0
 20
-101
 11
0
 21
-102
  0
LINE
  8
0
  6
CONTINUOUS
 62
     7
 10
2
 20
-101
 11
4.6
 21
-101
  0
LINE
  8
0
  6
CONTINUOUS
 62
     7
 10
-2
 20
-101
 11
-4.6
 21
-101
  0
LINE
  8
0
  6
CONTINUOUS
 62
     7
 10
0
 20
-103
 11
0
 21
-120.7859373805
  0
LINE
  8
0
  6
CENTER
 62
     7
 10
0
 20
-2
 11
0
 21
-99
  0
ENDBLK
  8
0
  0
ENDSEC
  0
SECTION
  2
ENTITIES
  0
LINE
  8
0
  6
CONTINUOUS
 62
     7
 10
90.7599542896
 20
121.6611180081
 11
119.2599543045
 21
121.6611180081
  0
LINE
  8
0
  6
CONTINUOUS
 62
     7
 10
119.2599543045
 20
121.6611180081
 11
119.2599543045
 21
144.8611186443
  0
LINE
  8
0
  6
CONTINUOUS
 62
     7
 10
119.2599543045
 20
144.8611186443
 11
90.7599542896
 21
144.8611186443
  0
LINE
  8
0
  6
CONTINUOUS
 62
     7
 10
90.7599542896
 20
144.8611186443
 11
90.7599542896
 21
121.6611180081
  0
LINE
  8
0
  6
CONTINUOUS
 62
     7
 10
90.7599542896
 20
75.66111698730001
 11
119.2599543045
 21
75.66111698730001
  0
LINE
  8
0
  6
CONTINUOUS
 62
     7
 10
119.2599543045
 20
75.66111698730001
 11
119.2599543045
 21
98.8611176236
  0
LINE
  8
0
  6
CONTINUOUS
 62
     7
 10
119.2599543045
 20
98.8611176236
 11
90.7599542896
 21
98.8611176236
  0
LINE
  8
0
  6
CONTINUOUS
 62
     7
 10
90.7599542896
 20
98.8611176236
 11
90.7599542896
 21
75.66111698730001
  0
LINE
  8
0
  6
CONTINUOUS
 62
     7
 10
145.009953403
 20
172.0111162959
 11
145.009953403
 21
48.5111193358
  0
LINE
  8
0
  6
CONTINUOUS
 62
     7
 10
66.259953999
 20
173.2611188291
 11
143.7599545951
 21
173.2611188291
  0
LINE
  8
0
  6
CONTINUOUS
 62
     7
 10
65.00995519110001
 20
48.5111193358
 11
65.00995519110001
 21
172.0111162959
  0
LINE
  8
0
  6
CONTINUOUS
 62
     7
 10
143.7599545951
 20
47.2611168026
 11
66.259953999
 21
47.2611168026
  0
LINE
  8
0
  6
CONTINUOUS
 62
     7
 10
105.0099542971
 20
58.3177411555
 11
106.2599542691
 21
59.0394304691
  0
LINE
  8
0
  6
CONTINUOUS
 62
     7
 10
106.2599542691
 20
59.0394304691
 11
106.2599542691
 21
60.4828053712
  0
LINE
  8
0
  6
CONTINUOUS
 62
     7
 10
106.2599542691
 20
60.48280537120002
 11
105.0099542971
 21
61.20449468480001
  0
LINE
  8
0
  6
CONTINUOUS
 62
     7
 10
105.0099542971
 20
61.20449468480002
 11
103.759954325
 21
60.48280537120002
  0
LINE
  8
0
  6
CONTINUOUS
 62
     7
 10
103.759954325
 20
60.4828053712
 11
103.759954325
 21
59.0394304691
  0
LINE
  8
0
  6
CONTINUOUS
 62
     7
 10
103.759954325
 20
59.03943046910003
 11
105.0099542971
 21
58.31774115550002
  0
LINE
  8
0
  6
CONTINUOUS
 62
     7
 10
105.0099542971
 20
159.3177409469
 11
106.2599542691
 21
160.0394302605
  0
LINE
  8
0
  6
CONTINUOUS
 62
     7
 10
106.2599542691
 20
160.0394302605
 11
106.2599542691
 21
161.4828051625
  0
LINE
  8
0
  6
CONTINUOUS
 62
     7
 10
105.0099542971
 20
162.2044944762
 11
103.759954325
 21
161.4828051625
  0
LINE
  8
0
  6
CONTINUOUS
 62
     7
 10
103.759954325
 20
161.4828051625
 11
103.759954325
 21
160.0394302605
  0
LINE
  8
0
  6
CONTINUOUS
 62
     7
 10
103.759954325
 20
160.0394302605
 11
105.0099542971
 21
159.3177409469
  0
LINE
  8
0
  6
CONTINUOUS
 62
     7
 10
106.2599542691
 20
161.4828051625
 11
105.0099542971
 21
162.2044944762
  0
LINE
  8
0
  6
CENTER
 62
     7
 10
150.772202642
 20
110.2611178158
 11
58.5551865927
 21
110.2611178158
  0
LINE
  8
0
  6
CENTER
 62
     7
 10
121.2599542971
 20
87.26111781580001
 11
88.7599542971
 21
87.26111781580001
  0
LINE
  8
0
  6
CENTER
 62
     7
 10
121.2599542971
 20
133.2611178158
 11
88.7599542971
 21
133.2611178158
  0
LINE
  8
0
  6
CONTINUOUS
 62
     7
 10
214.6627784374
 20
173.2611188291
 11
220.1627784076
 21
173.2611188291
  0
LINE
  8
0
  6
CONTINUOUS
 62
     7
 10
220.1627784076
 20
173.2611188291
 11
220.1627784076
 21
172.0111162959
  0
LINE
  8
0
  6
CONTINUOUS
 62
     7
 10
220.1627784076
 20
47.2611168026
 11
214.6627784374
 21
47.2611168026
  0
LINE
  8
0
  6
CONTINUOUS
 62
     7
 10
220.1627784076
 20
48.5111193358
 11
220.1627784076
 21
47.2611168026
  0
LINE
  8
0
  6
CONTINUOUS
 62
     7
 10
220.1627784076
 20
48.5111193358
 11
220.1627784076
 21
172.0111162959
  0
LINE
  8
0
  6
CONTINUOUS
 62
     7
 10
213.6627782735
 20
172.2611168026
 11
213.6627782735
 21
172.0111162959
  0
LINE
  8
0
  6
CONTINUOUS
 62
     7
 10
213.6627782735
 20
48.5111193358
 11
213.6627782735
 21
172.0111162959
  0
LINE
  8
0
  6
CONTINUOUS
 62
     7
 10
213.6627782735
 20
48.5111193358
 11
213.6627782735
 21
48.2611188291
  0
LINE
  8
0
  6
CENTER
 62
     7
 10
224.2804934747
 20
110.2611178158
 11
209.5471816846
 21
110.2611178158
  0
LINE
  8
0
  6
CONTINUOUS
 62
     7
 10
145.009953403
 20
195.9273367353
 11
145.009953403
 21
190.4273367651
  0
LINE
  8
0
  6
CONTINUOUS
 62
     7
 10
143.7599545951
 20
195.9273367353
 11
145.009953403
 21
195.9273367353
  0
LINE
  8
0
  6
CONTINUOUS
 62
     7
 10
143.7599545951
 20
195.9273367353
 11
66.259953999
 21
195.9273367353
  0
LINE
  8
0
  6
CONTINUOUS
 62
     7
 10
65.00995519110001
 20
190.4273367651
 11
65.00995519110001
 21
195.9273367353
  0
LINE
  8
0
  6
CONTINUOUS
 62
     7
 10
65.00995519110001
 20
195.9273367353
 11
66.259953999
 21
195.9273367353
  0
LINE
  8
0
  6
CONTINUOUS
 62
     7
 10
143.7599545951
 20
189.4273366012
 11
66.259953999
 21
189.4273366012
  0
LINE
  8
0
  6
CONTINUOUS
 62
     7
 10
66.0099534924
 20
189.4273366012
 11
66.259953999
 21
189.4273366012
  0
LINE
  8
0
  6
CONTINUOUS
 62
     7
 10
143.7599545951
 20
189.4273366012
 11
144.0099551017
 21
189.4273366012
  0
LINE
  8
0
  6
CENTER
 62
     7
 10
105.0099542971
 20
199.8893076125
 11
105.0099542971
 21
185.2983744913
  0
LINE
  8
0
  6
CENTER
 62
     7
 10
105.00995429705
 20
38.40888915850124
 11
105.00995429705
 21
181.2187701529032
  0
LINE
  8
0
  6
CENTER
 62
     7
 10
99.7599542971
 20
160.7611178158
 11
110.2599542971
 21
160.7611178158
  0
LINE
  8
0
  6
CENTER
 62
     7
 10
99.7599542971
 20
59.7611178158
 11
110.2599542971
 21
59.7611178158
  0
LINE
  8
0
  6
CONTINUOUS
 62
     7
 10
254.9393054163
 20
21.3598707695
 11
254.9393054163
 21
17.0184295493
  0
LINE
  8
0
  6
CONTINUOUS
 62
     7
 10
254.9393054163
 20
21.3598707695
 11
256.2256583739
 21
21.3598707695
  0
LINE
  8
0
  6
CONTINUOUS
 62
     7
 10
256.2256583739
 20
21.3598707695
 11
256.2256583739
 21
17.8224001594
  0
LINE
  8
0
  6
CONTINUOUS
 62
     7
 10
256.2256583739
 20
17.8224001594
 11
257.110026073
 21
17.8224001594
  0
LINE
  8
0
  6
CONTINUOUS
 62
     7
 10
257.110026073
 20
21.3598707695
 11
257.110026073
 21
17.8224001594
  0
LINE
  8
0
  6
CONTINUOUS
 62
     7
 10
257.110026073
 20
21.3598707695
 11
258.2355848993
 21
21.3598707695
  0
LINE
  8
0
  6
CONTINUOUS
 62
     7
 10
258.2355848993
 20
21.3598707695
 11
258.2355848993
 21
18.4655764986
  0
LINE
  8
0
  6
CONTINUOUS
 62
     7
 10
258.2355848993
 20
18.4655764986
 11
259.1199524587
 21
18.4655764986
  0
LINE
  8
0
  6
CONTINUOUS
 62
     7
 10
259.1199524587
 20
21.3598707695
 11
259.1199524587
 21
18.4655764986
  0
LINE
  8
0
  6
CONTINUOUS
 62
     7
 10
259.1199524587
 20
21.3598707695
 11
260.4063054163
 21
21.3598707695
  0
LINE
  8
0
  6
CONTINUOUS
 62
     7
 10
260.4063054163
 20
21.3598707695
 11
260.4063054163
 21
17.8224001594
  0
LINE
  8
0
  6
CONTINUOUS
 62
     7
 10
260.4063054163
 20
17.8224001594
 11
258.2355848993
 21
17.8224001594
  0
LINE
  8
0
  6
CONTINUOUS
 62
     7
 10
258.2355848993
 20
17.8224001594
 11
258.2355848993
 21
17.0184295493
  0
LINE
  8
0
  6
CONTINUOUS
 62
     7
 10
254.9393054163
 20
17.0184295493
 11
258.2355848993
 21
17.0184295493
  0
LINE
  8
0
  6
CONTINUOUS
 62
     7
 10
206.97525
 20
6.372375
 11
206.97525
 21
21.992375
  0
POLYLINE
  8
0
  6
CONTINUOUS
 62
     7
 66
     1
 10
0
 20
0
 40
0.300000011920929
 41
0.300000011920929
  0
VERTEX
  8
0
  6
CONTINUOUS
 62
     7
 10
15.27525
 20
6.372375
  0
VERTEX
  8
0
  6
CONTINUOUS
 62
     7
 10
290.40025
 20
6.372375
  0
SEQEND
  8
0
  6
CONTINUOUS
 62
     7
  0
POLYLINE
  8
0
  6
CONTINUOUS
 62
     7
 66
     1
 10
0
 20
0
 40
0.300000011920929
 41
0.300000011920929
  0
VERTEX
  8
0
  6
CONTINUOUS
 62
     7
 10
15.27525
 20
203.042375
  0
VERTEX
  8
0
  6
CONTINUOUS
 62
     7
 10
15.27525
 20
6.372375
  0
SEQEND
  8
0
  6
CONTINUOUS
 62
     7
  0
POLYLINE
  8
0
  6
CONTINUOUS
 62
     7
 66
     1
 10
0
 20
0
 40
0.300000011920929
 41
0.300000011920929
  0
VERTEX
  8
0
  6
CONTINUOUS
 62
     7
 10
15.27525
 20
21.992375
  0
VERTEX
  8
0
  6
CONTINUOUS
 62
     7
 10
98.34524999999999
 20
21.992375
  0
SEQEND
  8
0
  6
CONTINUOUS
 62
     7
  0
POLYLINE
  8
0
  6
CONTINUOUS
 62
     7
 66
     1
 10
0
 20
0
 40
0.300000011920929
 41
0.300000011920929
  0
VERTEX
  8
0
  6
CONTINUOUS
 62
     7
 10
290.40025
 20
203.042375
  0
VERTEX
  8
0
  6
CONTINUOUS
 62
     7
 10
290.40025
 20
6.372375
  0
SEQEND
  8
0
  6
CONTINUOUS
 62
     7
  0
POLYLINE
  8
0
  6
CONTINUOUS
 62
     7
 66
     1
 10
0
 20
0
 40
0.300000011920929
 41
0.300000011920929
  0
VERTEX
  8
0
  6
CONTINUOUS
 62
     7
 10
98.34524999999999
 20
21.992375
  0
VERTEX
  8
0
  6
CONTINUOUS
 62
     7
 10
290.40025
 20
21.992375
  0
SEQEND
  8
0
  6
CONTINUOUS
 62
     7
  0
POLYLINE
  8
0
  6
CONTINUOUS
 62
     7
 66
     1
 10
0
 20
0
 40
0.300000011920929
 41
0.300000011920929
  0
VERTEX
  8
0
  6
CONTINUOUS
 62
     7
 10
15.27525
 20
203.042375
  0
VERTEX
  8
0
  6
CONTINUOUS
 62
     7
 10
290.40025
 20
203.042375
  0
SEQEND
  8
0
  6
CONTINUOUS
 62
     7
  0
LINE
  8
0
  6
CONTINUOUS
 62
     7
 10
19.18025
 20
14.182375
 11
98.34524999999999
 21
14.182375
  0
LINE
  8
0
  6
CONTINUOUS
 62
     7
 10
35.51025
 20
21.992375
 11
35.51025
 21
6.372375
  0
LINE
  8
0
  6
CONTINUOUS
 62
     7
 10
19.18025
 20
18.087375
 11
98.34524999999999
 21
18.087375
  0
LINE
  8
0
  6
CONTINUOUS
 62
     7
 10
24.86025
 20
21.992375
 11
24.86025
 21
6.372375
  0
LINE
  8
0
  6
CONTINUOUS
 62
     7
 10
19.18025
 20
21.992375
 11
19.18025
 21
6.372375
  0
LINE
  8
0
  6
CONTINUOUS
 62
     7
 10
19.18025
 20
10.277375
 11
98.34524999999999
 21
10.277375
  0
LINE
  8
0
  6
CONTINUOUS
 62
     7
 10
144.49525
 20
21.992375
 11
144.49525
 21
6.372375
  0
LINE
  8
0
  6
CONTINUOUS
 62
     7
 10
140.94525
 20
21.992375
 11
140.94525
 21
6.372375
  0
LINE
  8
0
  6
CONTINUOUS
 62
     7
 10
101.89525
 20
21.992375
 11
101.89525
 21
6.372375
  0
LINE
  8
0
  6
CONTINUOUS
 62
     7
 10
98.34524999999999
 20
21.992375
 11
98.34524999999999
 21
14.182375
  0
LINE
  8
0
  6
CONTINUOUS
 62
     7
 10
42.61025
 20
21.992375
 11
42.61025
 21
6.372375
  0
LINE
  8
0
  6
CONTINUOUS
 62
     7
 10
164.37525
 20
21.992375
 11
164.37525
 21
14.182375
  0
LINE
  8
0
  6
CONTINUOUS
 62
     7
 10
167.92525
 20
21.992375
 11
167.92525
 21
14.182375
  0
LINE
  8
0
  6
CONTINUOUS
 62
     7
 10
178.57525
 20
21.992375
 11
178.57525
 21
14.182375
  0
LINE
  8
0
  6
CONTINUOUS
 62
     7
 10
182.12525
 20
21.992375
 11
182.12525
 21
14.182375
  0
LINE
  8
0
  6
CONTINUOUS
 62
     7
 10
210.52525
 20
21.992375
 11
210.52525
 21
14.182375
  0
LINE
  8
0
  6
CONTINUOUS
 62
     7
 10
221.17525
 20
21.992375
 11
221.17525
 21
6.372375
  0
LINE
  8
0
  6
CONTINUOUS
 62
     7
 10
231.82525
 20
21.992375
 11
231.82525
 21
6.372375
  0
LINE
  8
0
  6
CONTINUOUS
 62
     7
 10
242.47525
 20
21.992375
 11
242.47525
 21
6.372375
  0
LINE
  8
0
  6
CONTINUOUS
 62
     7
 10
253.12525
 20
21.992375
 11
253.12525
 21
6.372375
  0
LINE
  8
0
  6
CONTINUOUS
 62
     7
 10
253.12525
 20
14.182375
 11
290.40025
 21
14.182375
  0
LINE
  8
0
  6
CONTINUOUS
 62
     7
 10
256.67525
 20
14.182375
 11
256.67525
 21
6.372375
  0
LINE
  8
0
  6
CONTINUOUS
 62
     7
 10
221.17525
 20
18.442375
 11
253.12525
 21
18.442375
  0
LINE
  8
0
  6
CONTINUOUS
 62
     7
 10
98.34524999999999
 20
14.182375
 11
221.17525
 21
14.182375
  0
LINE
  8
0
  6
CONTINUOUS
 62
     7
 10
98.34524999999999
 20
14.182375
 11
98.34524999999999
 21
6.372375
  0
LINE
  8
0
  6
CONTINUOUS
 62
     7
 10
21.8298292042
 20
13.8078799214
 11
19.9435077931
 21
10.7346674469
  0
LINE
  8
0
  6
CONTINUOUS
 62
     7
 10
19.9435077931
 20
10.7346674469
 11
23.7462507043
 21
10.7346674469
  0
LINE
  8
0
  6
CONTINUOUS
 62
     7
 10
23.7462507043
 20
10.7346674469
 11
21.8298292042
 21
13.8078799214
  0
LINE
  8
0
  6
CONTINUOUS
 62
     7
 10
21.7708059363
 20
17.7808237228
 11
19.8844845252
 21
14.7076112483
  0
LINE
  8
0
  6
CONTINUOUS
 62
     7
 10
19.8844845252
 20
14.7076112483
 11
23.6872274364
 21
14.7076112483
  0
LINE
  8
0
  6
CONTINUOUS
 62
     7
 10
23.6872274364
 20
14.7076112483
 11
21.7708059363
 21
17.7808237228
  0
LINE
  8
0
  6
CONTINUOUS
 62
     7
 10
21.8888328788
 20
21.5992068096
 11
20.0025114678
 21
18.5259943352
  0
LINE
  8
0
  6
CONTINUOUS
 62
     7
 10
20.0025114678
 20
18.5259943352
 11
23.8052543789
 21
18.5259943352
  0
LINE
  8
0
  6
CONTINUOUS
 62
     7
 10
23.80525437890002
 20
18.52599433520001
 11
21.88883287880002
 21
21.59920680960001
  0
LINE
  8
0
  6
CONTINUOUS
 62
     7
 10
87.69525
 20
21.992375
 11
87.69525
 21
6.372375
  0
LINE
  8
0
  6
PHANTOM
 62
     7
 10
169.1482073159
 20
6.372375
 11
206.97525
 21
6.372375
  0
CIRCLE
  8
0
  6
CONTINUOUS
 62
     7
 10
105.0099542971
 20
59.7611178158
 40
3.600000000000009
  0
CIRCLE
  8
0
  6
CONTINUOUS
 62
     7
 10
105.0099542971
 20
160.7611178158
 40
3.600000000000009
  0
ARC
  8
0
  6
CONTINUOUS
 62
     7
 10
66.2599542971
 20
48.5111178158
 40
1.25
 50
180.0000000000004
 51
270.0000000000005
  0
ARC
  8
0
  6
CONTINUOUS
 62
     7
 10
143.7599542971
 20
48.5111178158
 40
1.25
 50
270.0000000000005
 51
360
  0
ARC
  8
0
  6
CONTINUOUS
 62
     7
 10
143.7599542971
 20
172.0111178158
 40
1.250000000000028
 50
0
 51
90.00000000000019
  0
ARC
  8
0
  6
CONTINUOUS
 62
     7
 10
66.2599542971
 20
172.0111178158
 40
1.25
 50
90.00000000000019
 51
180.0000000000004
  0
CIRCLE
  8
0
  6
CONTINUOUS
 62
     7
 10
105.0099542971
 20
59.7611178158
 40
3.5
  0
CIRCLE
  8
0
  6
CONTINUOUS
 62
     7
 10
105.0099542971
 20
160.7611178158
 40
3.5
  0
ARC
  8
0
  6
CONTINUOUS
 62
     7
 10
214.6627784076
 20
172.2611178158
 40
1
 50
90.00000000000019
 51
180.0000000000004
  0
ARC
  8
0
  6
CONTINUOUS
 62
     7
 10
214.6627784076
 20
48.2611178158
 40
1
 50
180.0000000000004
 51
270.0000000000005
  0
ARC
  8
0
  6
CONTINUOUS
 62
     7
 10
66.0099542971
 20
190.4273367353
 40
1
 50
180.0000000000004
 51
270.0000000000005
  0
ARC
  8
0
  6
CONTINUOUS
 62
     7
 10
144.0099542971
 20
190.4273367353
 40
1
 50
270.0000000000005
 51
360
  0
TEXT
  8
0
  6
CONTINUOUS
 62
     7
 10
102.9627572472559
 20
8.918973698273955
 40
2.484999895095825
 41
1.00000007538386
  1
13S
  0
TEXT
  8
0
  6
CONTINUOUS
 62
     7
 10
102.9481462645432
 20
16.72744230927396
 40
2.484999895095825
 41
1.00000001612489
  1
承認図
  0
TEXT
  8
0
  6
CONTINUOUS
 62
     7
 10
262.7201508318
 20
8.107823336599999
 40
3
 41
1
  1
11526C
  0
TEXT
  8
0
  6
CONTINUOUS
 62
     7
 10
213.2920724929699
 20
16.51890252717396
 40
2.484999895095825
 41
1.000000027773001
  1
1/1
  0
TEXT
  8
0
  6
CONTINUOUS
 62
     7
 10
254.9344766333866
 20
14.60289915583954
 40
1.587499976158142
 41
1.000000014079838
  1
WEST
  0
TEXT
  8
0
  6
CONTINUOUS
 62
     7
 10
245.1814549998792
 20
19.33927391297907
 40
1.799999952316284
 41
1.000000007791457
  1
承　認
  0
TEXT
  8
0
  6
CONTINUOUS
 62
     7
 10
221.7690138853698
 20
7.047764227762116
 40
2.200000047683716
 41
0.3966621527706232
  1
′０８．１０．２０
  0
TEXT
  8
0
  6
CONTINUOUS
 62
     7
 10
90.43628520501594
 20
7.515594149539536
 40
1.774999976158142
 41
1.000000020599546
  1
通知書
  0
TEXT
  8
0
  6
CONTINUOUS
 62
     7
 10
257.3559623514285
 20
8.1078232783
 40
3
 41
0.9999999940395354
  1
No.
  0
TEXT
  8
0
  6
CONTINUOUS
 62
     7
 10
234.5104219724792
 20
19.29407223757907
 40
1.799999952316284
 41
1.000000007791457
  1
照　査
  0
TEXT
  8
0
  6
CONTINUOUS
 62
     7
 10
221.7857981960095
 20
19.28941045237907
 40
1.799999952316284
 41
1.000000007791457
  1
製図・設計
  0
TEXT
  8
0
  6
CONTINUOUS
 62
     7
 10
209.7472443057926
 20
9.163846772366167
 40
2.116666555404663
 41
1.000000035538415
  1
第三角法
  0
TEXT
  8
0
  6
CONTINUOUS
 62
     7
 10
99.34071384314699
 20
18.68609655887396
 40
2.484999895095825
 41
1.00000001612489
  1
名
  0
TEXT
  8
0
  6
CONTINUOUS
 62
     7
 10
16.53891924584699
 20
9.118747376173957
 40
2.484999895095825
 41
1.00000001612489
  1
訂
  0
TEXT
  8
0
  6
CONTINUOUS
 62
     7
 10
16.53891924584699
 20
16.98609414287396
 40
2.484999895095825
 41
1.00000001612489
  1
改
  0
TEXT
  8
0
  6
CONTINUOUS
 62
     7
 10
99.354110987147
 20
14.96731762087396
 40
2.484999895095825
 41
1.00000001612489
  1
称
  0
TEXT
  8
0
  6
CONTINUOUS
 62
     7
 10
99.34071384314699
 20
10.87609655887396
 40
2.484999895095825
 41
1.00000001612489
  1
品
  0
TEXT
  8
0
  6
CONTINUOUS
 62
     7
 10
99.354110987147
 20
7.157317620873958
 40
2.484999895095825
 41
1.00000001612489
  1
名
  0
TEXT
  8
0
  6
CONTINUOUS
 62
     7
 10
141.930792294447
 20
18.68609655887396
 40
2.484999895095825
 41
1.00000001612489
  1
材
  0
TEXT
  8
0
  6
CONTINUOUS
 62
     7
 10
141.928397223647
 20
14.96731762087396
 40
2.484999895095825
 41
1.00000001612489
  1
質
  0
TEXT
  8
0
  6
CONTINUOUS
 62
     7
 10
141.930792294447
 20
10.87609655887396
 40
2.484999895095825
 41
1.00000001612489
  1
工
  0
TEXT
  8
0
  6
CONTINUOUS
 62
     7
 10
141.928397223647
 20
7.157317620873958
 40
2.484999895095825
 41
1.00000001612489
  1
番
  0
TEXT
  8
0
  6
CONTINUOUS
 62
     7
 10
165.389056183947
 20
18.68609655887396
 40
2.484999895095825
 41
1.00000001612489
  1
個
  0
TEXT
  8
0
  6
CONTINUOUS
 62
     7
 10
165.402453327947
 20
14.96731762087396
 40
2.484999895095825
 41
1.00000001612489
  1
数
  0
TEXT
  8
0
  6
CONTINUOUS
 62
     7
 10
179.563012279947
 20
18.68609655887396
 40
2.484999895095825
 41
1.00000001612489
  1
備
  0
TEXT
  8
0
  6
CONTINUOUS
 62
     7
 10
179.576409423947
 20
14.96731762087396
 40
2.484999895095825
 41
1.00000001612489
  1
考
  0
TEXT
  8
0
  6
CONTINUOUS
 62
     7
 10
207.957463793647
 20
18.68609655887396
 40
2.484999895095825
 41
1.00000001612489
  1
尺
  0
TEXT
  8
0
  6
CONTINUOUS
 62
     7
 10
207.959618747247
 20
14.96731762087396
 40
2.484999895095825
 41
1.00000001612489
  1
度
  0
TEXT
  8
0
  6
CONTINUOUS
 62
     7
 10
58.51157516869036
 20
7.513469007639535
 40
1.774999976158142
 41
0.999999999435629
  1
変　更　内　容
  0
TEXT
  8
0
  6
CONTINUOUS
 62
     7
 10
36.49623778951593
 20
7.518357210039535
 40
1.774999976158142
 41
1.000000020599546
  1
担当者
  0
TEXT
  8
0
  6
CONTINUOUS
 62
     7
 10
28.63128369801959
 20
7.537792503939536
 40
1.774999976158142
 41
0.9999999994356288
  1
日付
  0
TEXT
  8
0
  6
CONTINUOUS
 62
     7
 10
20.46184836461959
 20
7.542907761239536
 40
1.774999976158142
 41
0.9999999994356288
  1
記号
  0
TEXT
  8
0
  6
CONTINUOUS
 62
     7
 10
301.7895250874756
 20
5.903379631245236
 40
5.291666507720947
 41
1.000000013516644
  1
A4
  0
TEXT
  8
0
  6
CONTINUOUS
 62
     7
 10
254.1623180678787
 20
10.8202974109
 40
2.5
 41
1.00000000801407
  1
図
  0
TEXT
  8
0
  6
CONTINUOUS
 62
     7
 10
254.1623180678787
 20
7.1401055327
 40
2.5
 41
1.00000000801407
  1
番
  0
TEXT
  8
0
  6
CONTINUOUS
 62
     7
 10
287.8961995152244
 20
3.332214998931512
 40
1.852083325386047
 41
0.9999999742540116
  1
A4
  0
DIMENSION
  8
0
  6
CONTINUOUS
 62
     7
  2
*D1
 70
     0
 10
173.0099542971
 20
47.2611178158
 11
173.0099542971
 21
110.2611178158
  3
DIMSTYLE
 13
143.7599542971
 23
173.2611178158
 14
143.7599542971
 24
47.2611178158
 50
90
1001
ACAD
1000
DSTYLE
1002
{
1070
    77
1070
     1
1070
   172
1070
     1
1070
   147
1040
0
1002
}
  0
DIMENSION
  8
0
  6
CONTINUOUS
 62
     7
  2
*D2
 70
     0
 10
167.0099542971
 20
59.7611178158
 11
167.0099542971
 21
110.2611178158
  3
DIMSTYLE
 13
109.6099542971
 23
160.7611178158
 14
109.6099542971
 24
59.7611178158
 50
90
1001
ACAD
1000
DSTYLE
1002
{
1070
    77
1070
     1
1070
   172
1070
     1
1070
   147
1040
0
1002
}
  0
DIMENSION
  8
0
  6
CONTINUOUS
 62
     7
  2
*D3
 70
     0
 10
161.0099542971
 20
144.8611178158
 11
161.0099542971
 21
133.2611178158
  3
DIMSTYLE
 13
119.2599542971
 23
121.6611178158
 14
119.2599542971
 24
144.8611178158
 50
90
1001
ACAD
1000
DSTYLE
1002
{
1070
    77
1070
     1
1070
   172
1070
     1
1070
   147
1040
0
1002
}
  0
DIMENSION
  8
0
  6
CONTINUOUS
 62
     7
  2
*D4
 70
     0
 10
161.0099542971
 20
98.8611178158
 11
161.0099542971
 21
87.26111781580001
  3
DIMSTYLE
 13
119.2599542971
 23
75.6611178158
 14
119.2599542971
 24
98.8611178158
 50
90
1001
ACAD
1000
DSTYLE
1002
{
1070
    77
1070
     1
1070
   172
1070
     1
1070
   147
1040
0
1002
}
  0
DIMENSION
  8
0
  6
CONTINUOUS
 62
     7
  2
*D5
 70
     0
 10
161.0099542971
 20
98.8611178158
 11
161.0099542971
 21
110.2611178158
  3
DIMSTYLE
 13
119.2599542971
 23
121.6611178158
 14
119.2599542971
 24
98.8611178158
 50
90
1001
ACAD
1000
DSTYLE
1002
{
1070
    77
1070
     1
1070
   172
1070
     1
1070
   147
1040
0
1002
}
  0
DIMENSION
  8
0
  6
CONTINUOUS
 62
     7
  2
*D6
 70
     0
 10
119.2599542971
 20
31.2611178158
 11
105.0099542971
 21
31.2611178158
  3
DIMSTYLE
 13
90.7599542971
 23
75.6611178158
 14
119.2599542971
 24
75.6611178158
 50
0
1001
ACAD
1000
DSTYLE
1002
{
1070
    77
1070
     1
1070
   172
1070
     1
1070
   147
1040
0
1002
}
  0
DIMENSION
  8
0
  6
CONTINUOUS
 62
     7
  2
*D7
 70
     0
 10
145.0099542971
 20
25.2611178158
 11
105.0099542971
 21
25.2611178158
  3
DIMSTYLE
 13
65.0099542971
 23
48.5111178158
 14
145.0099542971
 24
48.5111178158
 50
0
1001
ACAD
1000
DSTYLE
1002
{
1070
    77
1070
     1
1070
   172
1070
     1
1070
   147
1040
0
1002
}
  0
DIMENSION
  8
0
  6
CONTINUOUS
 62
     7
  2
*D8
 70
     0
 10
220.1627784076
 20
25.2611178158
 11
203.6627784076
 21
25.2611178158
  3
DIMSTYLE
 13
213.6627784076
 23
48.5111178158
 14
220.1627784076
 24
47.2611178158
 50
0
1001
ACAD
1000
DSTYLE
1002
{
1070
    77
1070
     1
1070
   172
1070
     1
1070
   147
1040
0
1002
}
  0
ENDSEC
  0
EOF
