  0
SECTION
  2
HEADER
  9
$EXTMAX
 10
420
 20
297
 30
0
  9
$EXTMIN
 10
0
 20
0
 30
0
  9
$LIMMAX
 10
420
 20
297
  9
$LIMMIN
 10
0
 20
0
  9
$PLIMMAX
 10
420
 20
297
  9
$PLIMMIN
 10
0
 20
0
  9
$PEXTMAX
 10
420
 20
297
 30
0
  9
$PEXTMIN
 10
0
 20
0
 30
0
  9
$TEXTSIZE
 40
3.2
  9
$DIMSHO
 70
     0
  9
$DIMASZ
 40
1.0
  9
$DIMTAD
 70
     1
  9
$DIMTIH
 70
     0
  9
$DIMTOH
 70
     0
  9
$DIMEXE
 40
2.54
  9
$DIMEXO
 40
2.54
  9
$DIMTVP
 40
1.0
  9
$DIMSAH
 70
     1
  9
$DIMDLE
 40
0.0
  9
$DIMTXT
 40
3.200000047683716
  9
$DIMGAP
 40
1.600000023841858
  0
ENDSEC
  0
SECTION
  2
TABLES
  0
TABLE
  2
LTYPE
 70
     53
  0
LTYPE
  2
CONTINUOUS
 70
    64
  3
Solid line
 72
    65
 73
     0
 40
0.0
  0
LTYPE
  2
ACAD_ISO02W100
 70
     0
  3
ISO dash __ __ __ __ __ __ __ __ __ __ __ __ __
 72
    65
 73
     2
 40
15.0
 49
12.0
 49
-3.0
  0
LTYPE
  2
ACAD_ISO03W100
 70
     0
  3
ISO dash space __    __    __    __    __    __
 72
    65
 73
     2
 40
30.0
 49
12.0
 49
-18.0
  0
LTYPE
  2
ACAD_ISO04W100
 70
     0
  3
ISO long-dash dot ____ . ____ . ____ . ____ . _
 72
    65
 73
     4
 40
30.0
 49
24.0
 49
-3.0
 49
0.0
 49
-3.0
  0
LTYPE
  2
ACAD_ISO05W100
 70
     0
  3
ISO long-dash double-dot ____ .. ____ .. ____ .
 72
    65
 73
     6
 40
33.0
 49
24.0
 49
-3.0
 49
0.0
 49
-3.0
 49
0.0
 49
-3.0
  0
LTYPE
  2
ACAD_ISO06W100
 70
     0
  3
ISO long-dash triple-dot ____ ... ____ ... ____
 72
    65
 73
     8
 40
36.0
 49
24.0
 49
-3.0
 49
0.0
 49
-3.0
 49
0.0
 49
-3.0
 49
0.0
 49
-3.0
  0
LTYPE
  2
ACAD_ISO07W100
 70
     0
  3
ISO dot . . . . . . . . . . . . . . . . . . . .
 72
    65
 73
     2
 40
3.0
 49
0.0
 49
-3.0
  0
LTYPE
  2
ACAD_ISO08W100
 70
     0
  3
ISO long-dash short-dash ____ __ ____ __ ____ _
 72
    65
 73
     4
 40
36.0
 49
24.0
 49
-3.0
 49
6.0
 49
-3.0
  0
LTYPE
  2
ACAD_ISO09W100
 70
     0
  3
ISO long-dash double-short-dash ____ __ __ ____
 72
    65
 73
     6
 40
45.0
 49
24.0
 49
-3.0
 49
6.0
 49
-3.0
 49
6.0
 49
-3.0
  0
LTYPE
  2
ACAD_ISO10W100
 70
     0
  3
ISO dash dot __ . __ . __ . __ . __ . __ . __ .
 72
    65
 73
     4
 40
18.0
 49
12.0
 49
-3.0
 49
0.0
 49
-3.0
  0
LTYPE
  2
ACAD_ISO11W100
 70
     0
  3
ISO double-dash dot __ __ . __ __ . __ __ . __ 
 72
    65
 73
     6
 40
33.0
 49
12.0
 49
-3.0
 49
12.0
 49
-3.0
 49
0.0
 49
-3.0
  0
LTYPE
  2
ACAD_ISO12W100
 70
     0
  3
ISO dash double-dot __ . . __ . . __ . . __ . .
 72
    65
 73
     6
 40
21.0
 49
12.0
 49
-3.0
 49
0.0
 49
-3.0
 49
0.0
 49
-3.0
  0
LTYPE
  2
ACAD_ISO13W100
 70
     0
  3
ISO double-dash double-dot __ __ . . __ __ . . 
 72
    65
 73
     8
 40
36.0
 49
12.0
 49
-3.0
 49
12.0
 49
-3.0
 49
0.0
 49
-3.0
 49
0.0
 49
-3.0
  0
LTYPE
  2
ACAD_ISO14W100
 70
     0
  3
ISO dash triple-dot __ . . . __ . . . __ . . . 
 72
    65
 73
     8
 40
24.0
 49
12.0
 49
-3.0
 49
0.0
 49
-3.0
 49
0.0
 49
-3.0
 49
0.0
 49
-3.0
  0
LTYPE
  2
ACAD_ISO15W100
 70
     0
  3
ISO double-dash triple-dot __ __ . . . __ __ . 
 72
    65
 73
    10
 40
39.0
 49
12.0
 49
-3.0
 49
12.0
 49
-3.0
 49
0.0
 49
-3.0
 49
0.0
 49
-3.0
 49
0.0
 49
-3.0
  0
LTYPE
  2
BORDER
 70
    64
  3
Border __ __ . __ __ . __ __ . __ __ . __ __ .
 72
    65
 73
     6
 40
3.5
 49
1.0
 49
-0.5
 49
1.0
 49
-0.5
 49
0.0
 49
-0.5
  0
LTYPE
  2
BORDER2
 70
    64
  3
Border (.5x) __.__.__.__.__.__.__.__.__.__.__.
 72
    65
 73
     6
 40
1.75
 49
0.5
 49
-0.25
 49
0.5
 49
-0.25
 49
0.0
 49
-0.25
  0
LTYPE
  2
BORDERX2
 70
    64
  3
Border (2x) ____  ____  .  ____  ____  .  ___
 72
    65
 73
     6
 40
7.0
 49
2.0
 49
-1.0
 49
2.0
 49
-1.0
 49
0.0
 49
-1.0
  0
LTYPE
  2
CENTER
 70
    64
  3
Center ____ _ ____ _ ____ _ ____ _ ____ _ ____
 72
    65
 73
     4
 40
12.0
 49
7.5
 49
-1.5
 49
1.5
 49
-1.5
  0
LTYPE
  2
CENTER2
 70
    64
  3
Center (.5x) ___ _ ___ _ ___ _ ___ _ ___ _ ___
 72
    65
 73
     4
 40
6.0
 49
3.75
 49
-0.75
 49
0.75
 49
-0.75
  0
LTYPE
  2
CENTERX2
 70
    64
  3
Center (2x) ________  __  ________  __  _____
 72
    65
 73
     4
 40
24.0
 49
15.0
 49
-3.0
 49
3.0
 49
-3.0
  0
LTYPE
  2
DASHDOT
 70
    64
  3
Dash dot __ . __ . __ . __ . __ . __ . __ . __
 72
    65
 73
     4
 40
6.0
 49
3.0
 49
-1.5
 49
0.0
 49
-1.5
  0
LTYPE
  2
DASHDOT2
 70
    64
  3
Dash dot (.5x) _._._._._._._._._._._._._._._.
 72
    65
 73
     4
 40
3.0
 49
1.5
 49
-0.75
 49
0.0
 49
-0.75
  0
LTYPE
  2
DASHDOTX2
 70
    64
  3
Dash dot (2x) ____  .  ____  .  ____  .  ___
 72
    65
 73
     4
 40
12.0
 49
6.0
 49
-3.0
 49
0.0
 49
-3.0
  0
LTYPE
  2
DASHED
 70
    64
  3
Dashed __ __ __ __ __ __ __ __ __ __ __ __ __ _
 72
    65
 73
     2
 40
4.5
 49
3.0
 49
-1.5
  0
LTYPE
  2
DASHED2
 70
    64
  3
Dashed (.5x) _ _ _ _ _ _ _ _ _ _ _ _ _ _ _ _ _
 72
    65
 73
     2
 40
2.25
 49
1.5
 49
-0.75
  0
LTYPE
  2
DASHEDX2
 70
    64
  3
Dashed (2x) ____  ____  ____  ____  ____  ___
 72
    65
 73
     2
 40
9.0
 49
6.0
 49
-3.0
  0
LTYPE
  2
DIVIDE
 70
    64
  3
Divide ____ . . ____ . . ____ . . ____ . . ____
 72
    65
 73
     6
 40
7.5
 49
3.0
 49
-1.5
 49
0.0
 49
-1.5
 49
0.0
 49
-1.5
  0
LTYPE
  2
DIVIDE2
 70
    64
  3
Divide (.5x) __..__..__..__..__..__..__..__.._
 72
    65
 73
     6
 40
3.75
 49
1.5
 49
-0.75
 49
0.0
 49
-0.75
 49
0.0
 49
-0.75
  0
LTYPE
  2
DIVIDEX2
 70
    64
  3
Divide (2x) ________  .  .  ________  .  .  _
 72
    65
 73
     6
 40
15.0
 49
6.0
 49
-3.0
 49
0.0
 49
-3.0
 49
0.0
 49
-3.0
  0
LTYPE
  2
DOT
 70
    64
  3
Dot . . . . . . . . . . . . . . . . . . . . . .
 72
    65
 73
     2
 40
1.5
 49
0.0
 49
-1.5
  0
LTYPE
  2
DOT2
 70
    64
  3
Dot (.5x) .....................................
 72
    65
 73
     2
 40
0.75
 49
0.0
 49
-0.75
  0
LTYPE
  2
DOTX2
 70
    64
  3
Dot (2x) .  .  .  .  .  .  .  .  .  .  .  .  . 
 72
    65
 73
     2
 40
3.0
 49
0.0
 49
-3.0
  0
LTYPE
  2
HIDDEN
 70
    64
  3
Hidden __ __ __ __ __ __ __ __ __ __ __ __ __ _
 72
    65
 73
     2
 40
4.5
 49
3.0
 49
-1.5
  0
LTYPE
  2
HIDDEN2
 70
    64
  3
Hidden (.5x) _ _ _ _ _ _ _ _ _ _ _ _ _ _ _ _ _
 72
    65
 73
     2
 40
2.25
 49
1.5
 49
-0.75
  0
LTYPE
  2
HIDDENX2
 70
    64
  3
Hidden (2x) ____ ____ ____ ____ ____ ____ ____
 72
    65
 73
     2
 40
9.0
 49
6.0
 49
-3.0
  0
LTYPE
  2
PHANTOM
 70
    64
  3
Phantom ______  __  __  ______  __  __  ______
 72
    65
 73
     6
 40
15.0
 49
7.5
 49
-1.5
 49
1.5
 49
-1.5
 49
1.5
 49
-1.5
  0
LTYPE
  2
PHANTOM2
 70
    64
  3
Phantom (.5x) ___ _ _ ___ _ _ ___ _ _ ___ _ _
 72
    65
 73
     6
 40
7.5
 49
3.75
 49
-0.75
 49
0.75
 49
-0.75
 49
0.75
 49
-0.75
  0
LTYPE
  2
PHANTOMX2
 70
    64
  3
Phantom (2x) ____________    ____    ____   _
 72
    65
 73
     6
 40
30.0
 49
15.0
 49
-3.0
 49
3.0
 49
-3.0
 49
3.0
 49
-3.0
  0
LTYPE
  2
JIS_02_0_7
 70
     0
  3
HIDDEN0.75 _ _ _ _ _ _ _ _ _ _ _ _ _ _ _ _ _
 72
    65
 73
     2
 40
1.3500000000000001
 49
0.75
 49
-0.6
  0
LTYPE
  2
JIS_02_1_0
 70
     0
  3
HIDDEN01 _ _ _ _ _ _ _ _ _ _ _ _ _ _ _ _ _
 72
    65
 73
     2
 40
2.0
 49
1.0
 49
-1.0
  0
LTYPE
  2
JIS_02_1_2
 70
     0
  3
HIDDEN01.25  _ _ _ _ _ _ _ _ _ _ _ _ _ _ _ _ _
 72
    65
 73
     2
 40
2.5
 49
1.25
 49
-1.25
  0
LTYPE
  2
JIS_02_2_0
 70
     0
  3
HIDDEN02 __ __ __ __ __ __ __ __ __ __ __
 72
    65
 73
     2
 40
3.0
 49
2.0
 49
-1.0
  0
LTYPE
  2
JIS_02_4_0
 70
     0
  3
HIDDEN04 ____ ____ ____ ____ ____ ____ ____
 72
    65
 73
     2
 40
5.5
 49
4.0
 49
-1.5
  0
LTYPE
  2
JIS_08_11
 70
     0
  3
1SASEN11 ___ _ ___ _ ___ _ ___ _ ___ _ ___
 72
    65
 73
     4
 40
12.800000000000001
 49
11.0
 49
-0.6
 49
0.6
 49
-0.6
  0
LTYPE
  2
JIS_08_15
 70
     0
  3
1SASEN15 ____ _ ____ _ ____ _ ____ _ ____
 72
    65
 73
     4
 40
17.25
 49
15.0
 49
-0.75
 49
0.75
 49
-0.75
  0
LTYPE
  2
JIS_08_25
 70
     0
  3
1SASEN25 ________  __  ________  __  _____
 72
    65
 73
     4
 40
28.0
 49
25.0
 49
-1.125
 49
0.75
 49
-1.125
  0
LTYPE
  2
JIS_08_37
 70
     0
  3
1SASEN37 ________  __  ________  __  _____
 72
    65
 73
     4
 40
40.499999999999993
 49
37.5
 49
-1.125
 49
0.75
 49
-1.125
  0
LTYPE
  2
JIS_08_50
 70
     0
  3
1SASEN50 _______________  __  ____________
 72
    65
 73
     4
 40
53.0
 49
50.0
 49
-1.125
 49
0.75
 49
-1.125
  0
LTYPE
  2
JIS_09_08
 70
     0
  3
2SASEN8 __ _ _ __ _ _ __ _ _ __ _ _ __ _ _
 72
    65
 73
     6
 40
10.75
 49
8.0
 49
-0.55
 49
0.55
 49
-0.55
 49
0.55
 49
-0.55
  0
LTYPE
  2
JIS_09_15
 70
     0
  3
2SASEN15 ___ _ _ ___ _ _ ___ _ _ ___ _ _ ___
 72
    65
 73
     6
 40
18.899999999999999
 49
15.0
 49
-0.9
 49
0.6
 49
-0.9
 49
0.6
 49
-0.9
  0
LTYPE
  2
JIS_09_29
 70
     0
  3
2SASEN29 ______  __  __  ______  __  __  ___
 72
    65
 73
     6
 40
34.0
 49
29.0
 49
-1.1999999999999991
 49
0.7
 49
-1.1999999999999991
 49
0.7
 49
-1.1999999999999991
  0
LTYPE
  2
JIS_09_50
 70
     0
  3
2SASEN50 ____________  __  __  _____________
 72
    65
 73
     6
 40
55.0
 49
50.0
 49
-1.1999999999999991
 49
0.7
 49
-1.1999999999999991
 49
0.7
 49
-1.1999999999999991
  0
ENDTAB
  0
TABLE
  2
LAYER
 70
     4
  0
LAYER
  2
0
 70
     0
 62
     7
  6
CONTINUOUS
  0
LAYER
  2
1
 70
     0
 62
     7
  6
CONTINUOUS
  0
LAYER
  2
2
 70
     0
 62
     7
  6
CONTINUOUS
  0
LAYER
  2
DEFPOINTS
 70
     0
 62
     7
  6
CONTINUOUS
  0
ENDTAB
  0
TABLE
  2
STYLE
 70
     1
  0
STYLE
  2
STANDARD
 70
     0
 40
0.0
 41
1.0
 50
0.0
 71
     0
 42
0.2
  3
txt
  4
BIGFONT
  0
ENDTAB
  0
TABLE
  2
DIMSTYLE
 70
     1
  0
DIMSTYLE
  2
DIMSTYLE
 70
     0
  3

  4

  5
_OPEN30
  6
_OPEN30
  7
_OPEN30
 40
1
 41
1
 42
1.5
 43
0.38
 44
2.54
 45
0
 46
0
 47
0
 48
0
140
3.200000047683716
141
0.09
142
0
143
25.4
144
1
145
0
146
1
147
1.600000023841858
 71
     0
 72
     0
 73
     0
 74
     0
 75
     0
 76
     0
 78
     0
170
     0
171
     2
 77
     0
172
     0
173
     1
174
     0
175
     0
176
     0
177
     0
178
     0
  0
ENDTAB
  0
ENDSEC
  0
SECTION
  2
BLOCKS
  0
BLOCK
  8
0
  2
_OPEN30
 70
    64
 10
0
 20
0
  3
_OPEN30
  0
LINE
  8
0
  6
BYBLOCK
 62
     0
 10
0
 20
0
 11
-2.999999954944514
 21
-0.9999999849815249
  0
LINE
  8
0
  6
BYBLOCK
 62
     0
 10
0
 20
0
 11
-2.999999954944526
 21
0.9999999849814883
  0
LINE
  8
0
  6
BYBLOCK
 62
     0
 10
0
 20
0
 11
-2.99999995494452
 21
0
  0
ENDBLK
  8
0
  0
BLOCK
  8
0
  2
*D1
 70
    65
 10
0
 20
0
  0
LINE
  8
0
  6
CONTINUOUS
 62
     7
 10
113.8752678091445
 20
36.7377479218
 11
147.8752678992555
 21
36.73774792179998
  0
INSERT
  8
0
  6
CONTINUOUS
 62
     7
  2
_OPEN30
 10
110.8752678542
 20
36.7377479218
 50
180.0000000000004
  0
INSERT
  8
0
  6
CONTINUOUS
 62
     7
  2
_OPEN30
 10
150.8752678542
 20
36.7377479218
  0
LINE
  8
0
  6
CONTINUOUS
 62
     7
 10
110.8752678542
 20
78.65003585532774
 11
110.8752678542
 21
35.2377479218
  0
LINE
  8
0
  6
CONTINUOUS
 62
     7
 10
150.8752678542
 20
78.65003585532774
 11
150.8752678542
 21
35.2377479218
  0
TEXT
  8
0
  6
CONTINUOUS
 62
     7
 10
128.3804952411514
 20
37.4653520725721
 40
2.910416603088379
 41
1.10209816175512
  1
40
  0
POINT
  8
DEFPOINTS
  6
CONTINUOUS
 62
     7
 10
110.8752678542
 20
80.1500358328
  0
POINT
  8
DEFPOINTS
  6
CONTINUOUS
 62
     7
 10
150.8752678542
 20
80.1500358328
  0
POINT
  8
DEFPOINTS
  6
CONTINUOUS
 62
     7
 10
150.8752678542
 20
36.7377479218
  0
ENDBLK
  8
0
  0
BLOCK
  8
0
  2
*D2
 70
    65
 10
0
 20
0
  0
LINE
  8
0
  6
CONTINUOUS
 62
     7
 10
126.1252678542
 20
159.4683244661
 11
135.6252678542
 21
159.4683244661
  0
INSERT
  8
0
  6
CONTINUOUS
 62
     7
  2
_OPEN30
 10
126.1252678542
 20
159.4683244661
 50
3.562221243239139e-013
  0
LINE
  8
0
  6
CONTINUOUS
 62
     7
 10
123.1252678992555
 20
159.4683244661
 11
119.7752679495674
 21
159.4683244661
  0
INSERT
  8
0
  6
CONTINUOUS
 62
     7
  2
_OPEN30
 10
135.6252678542
 20
159.4683244661
 50
180
  0
LINE
  8
0
  6
CONTINUOUS
 62
     7
 10
138.6252678091445
 20
159.4683244661
 11
141.9752677588326
 21
159.4683244661
  0
LINE
  8
0
  6
CONTINUOUS
 62
     7
 10
126.1252678542
 20
151.2996948561723
 11
126.1252678542
 21
160.9683244661
  0
LINE
  8
0
  6
CONTINUOUS
 62
     7
 10
135.6252678542
 20
151.2996948561723
 11
135.6252678542
 21
160.9683244661
  0
TEXT
  8
0
  6
CONTINUOUS
 62
     7
 10
127.7984119443756
 20
160.1959286168721
 40
2.910416603088379
 41
1.357187438663108
  1
9.5
  0
POINT
  8
DEFPOINTS
  6
CONTINUOUS
 62
     7
 10
126.1252678542
 20
149.7996948787
  0
POINT
  8
DEFPOINTS
  6
CONTINUOUS
 62
     7
 10
135.6252678542
 20
149.7996948787
  0
POINT
  8
DEFPOINTS
  6
CONTINUOUS
 62
     7
 10
135.6252678542
 20
159.4683244661
  0
ENDBLK
  8
0
  0
BLOCK
  8
0
  2
*D3
 70
    65
 10
0
 20
0
  0
LINE
  8
0
  6
CONTINUOUS
 62
     7
 10
299.5717562151
 20
48.22147815922061
 11
305.6590598177755
 21
48.22147815922061
  0
LINE
  8
0
  6
CONTINUOUS
 62
     7
 10
299.5717562151
 20
48.22147815922061
 11
296.5717562151
 21
48.22147815922061
  0
INSERT
  8
0
  6
CONTINUOUS
 62
     7
  2
_OPEN30
 10
299.5717562151
 20
48.22147815922061
 50
180
  0
LINE
  8
0
  6
CONTINUOUS
 62
     7
 10
302.5717561700445
 20
48.22147815922061
 11
305.9217561197326
 21
48.22147815922061
  0
INSERT
  8
0
  6
CONTINUOUS
 62
     7
  2
_OPEN30
 10
296.5717562151
 20
48.22147815922061
 50
3.562221243239139e-013
  0
LINE
  8
0
  6
CONTINUOUS
 62
     7
 10
293.5717562601554
 20
48.22147815922059
 11
290.2217563104674
 21
48.22147815922057
  0
LINE
  8
0
  6
CONTINUOUS
 62
     7
 10
299.5717562151
 20
61.15003585532774
 11
299.5717562151
 21
46.72147815922061
  0
LINE
  8
0
  6
CONTINUOUS
 62
     7
 10
296.5717562151
 20
59.65003585532774
 11
296.5717562151
 21
46.72147815922061
  0
TEXT
  8
0
  6
CONTINUOUS
 62
     7
 10
303.5799310755575
 20
48.9490823099927
 40
2.910416603088379
 41
1
  1
3
  0
POINT
  8
DEFPOINTS
  6
CONTINUOUS
 62
     7
 10
299.5717562151
 20
62.6500358328
  0
POINT
  8
DEFPOINTS
  6
CONTINUOUS
 62
     7
 10
296.5717562151
 20
61.1500358328
  0
POINT
  8
DEFPOINTS
  6
CONTINUOUS
 62
     7
 10
296.5717562151
 20
48.22147815922061
  0
ENDBLK
  8
0
  0
BLOCK
  8
0
  2
*D4
 70
    65
 10
0
 20
0
  0
LINE
  8
0
  6
CONTINUOUS
 62
     7
 10
296.5717562601554
 20
42.1118072803851
 11
290.0717561700445
 21
42.11180728038512
  0
INSERT
  8
0
  6
CONTINUOUS
 62
     7
  2
_OPEN30
 10
299.5717562151
 20
42.11180728038512
  0
INSERT
  8
0
  6
CONTINUOUS
 62
     7
  2
_OPEN30
 10
287.0717562151
 20
42.11180728038512
 50
180.0000000000004
  0
LINE
  8
0
  6
CONTINUOUS
 62
     7
 10
299.5717562151
 20
61.15003585532774
 11
299.5717562151
 21
40.61180728038512
  0
LINE
  8
0
  6
CONTINUOUS
 62
     7
 10
287.0717562151
 20
59.65003585532774
 11
287.0717562151
 21
40.61180728038512
  0
TEXT
  8
0
  6
CONTINUOUS
 62
     7
 10
288.7896920633361
 20
42.83941143115722
 40
2.910416603088379
 41
1.392890563637508
  1
12.5
  0
POINT
  8
DEFPOINTS
  6
CONTINUOUS
 62
     7
 10
299.5717562151
 20
62.6500358328
  0
POINT
  8
DEFPOINTS
  6
CONTINUOUS
 62
     7
 10
287.0717562151
 20
61.1500358328
  0
POINT
  8
DEFPOINTS
  6
CONTINUOUS
 62
     7
 10
287.0717562151
 20
42.11180728038512
  0
ENDBLK
  8
0
  0
BLOCK
  8
0
  2
*D5
 70
    65
 10
0
 20
0
  0
LINE
  8
0
  6
CONTINUOUS
 62
     7
 10
335.0497708952
 20
60.1500358328
 11
335.0497708952
 21
47.07317992297563
  0
LINE
  8
0
  6
CONTINUOUS
 62
     7
 10
335.0497708952
 20
62.6500358328
 11
335.0497708952
 21
60.1500358328
  0
INSERT
  8
0
  6
CONTINUOUS
 62
     7
  2
_OPEN30
 10
335.0497708952
 20
62.6500358328
 50
270.0000000000002
  0
LINE
  8
0
  6
CONTINUOUS
 62
     7
 10
335.0497708952
 20
65.65003578774451
 11
335.0497708952
 21
69.00003573743257
  0
INSERT
  8
0
  6
CONTINUOUS
 62
     7
  2
_OPEN30
 10
335.0497708952
 20
60.1500358328
 50
90.00000000000051
  0
LINE
  8
0
  6
CONTINUOUS
 62
     7
 10
335.0497708952
 20
57.15003587785548
 11
335.0497708952001
 21
53.80003592816743
  0
LINE
  8
0
  6
CONTINUOUS
 62
     7
 10
301.0717561925723
 20
62.6500358328
 11
336.5497708952
 21
62.6500358328
  0
LINE
  8
0
  6
CONTINUOUS
 62
     7
 10
297.0717561925723
 20
60.1500358328
 11
336.5497708952
 21
60.1500358328
  0
TEXT
  8
0
  6
CONTINUOUS
 62
     7
 10
334.3221667444279
 20
47.07317992297563
 40
2.910416603088379
 41
1.357187438663108
  1
2.5
 50
90.00000000000003
  0
POINT
  8
DEFPOINTS
  6
CONTINUOUS
 62
     7
 10
299.5717562151
 20
62.6500358328
  0
POINT
  8
DEFPOINTS
  6
CONTINUOUS
 62
     7
 10
295.5717562151
 20
60.1500358328
  0
POINT
  8
DEFPOINTS
  6
CONTINUOUS
 62
     7
 10
335.0497708952
 20
60.1500358328
  0
ENDBLK
  8
0
  0
BLOCK
  8
0
  2
*D6
 70
    65
 10
0
 20
0
  0
LINE
  8
0
  6
CONTINUOUS
 62
     7
 10
335.0497708952
 20
65.65003578774451
 11
335.0497708952
 21
113.6500358778555
  0
INSERT
  8
0
  6
CONTINUOUS
 62
     7
  2
_OPEN30
 10
335.0497708952
 20
62.6500358328
 50
270.0000000000005
  0
INSERT
  8
0
  6
CONTINUOUS
 62
     7
  2
_OPEN30
 10
335.0497708952
 20
116.6500358328
 50
90.00000000000019
  0
LINE
  8
0
  6
CONTINUOUS
 62
     7
 10
301.0717561925723
 20
62.6500358328
 11
336.5497708952
 21
62.6500358328
  0
LINE
  8
0
  6
CONTINUOUS
 62
     7
 10
301.0717561925723
 20
116.6500358328
 11
336.5497708952
 21
116.6500358328
  0
TEXT
  8
0
  6
CONTINUOUS
 62
     7
 10
334.3221667444279
 20
87.15526321975145
 40
2.910416603088379
 41
1.028624950971445
  1
54
 50
90.00000000000003
  0
POINT
  8
DEFPOINTS
  6
CONTINUOUS
 62
     7
 10
299.5717562151
 20
62.6500358328
  0
POINT
  8
DEFPOINTS
  6
CONTINUOUS
 62
     7
 10
299.5717562151
 20
116.6500358328
  0
POINT
  8
DEFPOINTS
  6
CONTINUOUS
 62
     7
 10
335.0497708952
 20
116.6500358328
  0
ENDBLK
  8
0
  0
BLOCK
  8
0
  2
*D7
 70
    65
 10
0
 20
0
  0
LINE
  8
0
  6
CONTINUOUS
 62
     7
 10
341.7938814348
 20
147.7996949237555
 11
341.7938814348
 21
63.15003578774452
  0
INSERT
  8
0
  6
CONTINUOUS
 62
     7
  2
_OPEN30
 10
341.7938814348
 20
150.7996948787
 50
90.00000000000019
  0
INSERT
  8
0
  6
CONTINUOUS
 62
     7
  2
_OPEN30
 10
341.7938814348
 20
60.1500358328
 50
270.0000000000005
  0
LINE
  8
0
  6
CONTINUOUS
 62
     7
 10
249.4684059739723
 20
150.7996948787
 11
343.2938814348
 21
150.7996948787
  0
LINE
  8
0
  6
CONTINUOUS
 62
     7
 10
297.0717561925723
 20
60.1500358328
 11
343.2938814348
 21
60.1500358328
  0
TEXT
  8
0
  6
CONTINUOUS
 62
     7
 10
341.0662772840279
 20
98.032384720057
 40
2.910416603088379
 41
1.33582786467607
  1
(90.6)
 50
90.00000000000003
  0
POINT
  8
DEFPOINTS
  6
CONTINUOUS
 62
     7
 10
247.9684059965
 20
150.7996948787
  0
POINT
  8
DEFPOINTS
  6
CONTINUOUS
 62
     7
 10
295.5717562151
 20
60.1500358328
  0
POINT
  8
DEFPOINTS
  6
CONTINUOUS
 62
     7
 10
341.7938814348
 20
60.1500358328
  0
ENDBLK
  8
0
  0
BLOCK
  8
0
  2
*D8
 70
    65
 10
0
 20
0
  0
LINE
  8
0
  6
CONTINUOUS
 62
     7
 10
296.5717562601554
 20
36.73774792179998
 11
246.2184059514445
 21
36.7377479218
  0
INSERT
  8
0
  6
CONTINUOUS
 62
     7
  2
_OPEN30
 10
299.5717562151
 20
36.7377479218
  0
INSERT
  8
0
  6
CONTINUOUS
 62
     7
  2
_OPEN30
 10
243.2184059965
 20
36.7377479218
 50
180.0000000000004
  0
LINE
  8
0
  6
CONTINUOUS
 62
     7
 10
299.5717562151
 20
61.15003585532774
 11
299.5717562151
 21
35.2377479218
  0
LINE
  8
0
  6
CONTINUOUS
 62
     7
 10
243.2184059965
 20
144.5496949012277
 11
243.2184059965
 21
35.23774792180001
  0
TEXT
  8
0
  6
CONTINUOUS
 62
     7
 10
263.952600470157
 20
37.4653520725721
 40
2.910416603088379
 41
1.285734319750717
  1
(56.4)
  0
POINT
  8
DEFPOINTS
  6
CONTINUOUS
 62
     7
 10
299.5717562151
 20
62.6500358328
  0
POINT
  8
DEFPOINTS
  6
CONTINUOUS
 62
     7
 10
243.2184059965
 20
146.0496948787
  0
POINT
  8
DEFPOINTS
  6
CONTINUOUS
 62
     7
 10
243.2184059965
 20
36.7377479218
  0
ENDBLK
  8
0
  0
BLOCK
  8
0
  2
*D9
 70
    65
 10
0
 20
0
  0
LINE
  8
0
  6
CONTINUOUS
 62
     7
 10
287.0717562151
 20
48.22147815922061
 11
280.1021107077102
 21
48.22147815922061
  0
LINE
  8
0
  6
CONTINUOUS
 62
     7
 10
290.0717561700445
 20
48.22147815922061
 11
293.5717562601554
 21
48.22147815922059
  0
INSERT
  8
0
  6
CONTINUOUS
 62
     7
  2
_OPEN30
 10
287.0717562151
 20
48.22147815922061
 50
180.0000000000004
  0
INSERT
  8
0
  6
CONTINUOUS
 62
     7
  2
_OPEN30
 10
296.5717562151
 20
48.22147815922061
  0
LINE
  8
0
  6
CONTINUOUS
 62
     7
 10
287.0717562151
 20
59.65003585532774
 11
287.0717562151
 21
46.72147815922061
  0
LINE
  8
0
  6
CONTINUOUS
 62
     7
 10
296.5717562151
 20
59.65003585532774
 11
296.5717562151
 21
46.72147815922061
  0
TEXT
  8
0
  6
CONTINUOUS
 62
     7
 10
280.1021107077102
 20
48.9490823099927
 40
2.910416603088379
 41
1.357187438663108
  1
9.5
  0
POINT
  8
DEFPOINTS
  6
CONTINUOUS
 62
     7
 10
287.0717562151
 20
61.1500358328
  0
POINT
  8
DEFPOINTS
  6
CONTINUOUS
 62
     7
 10
296.5717562151
 20
61.1500358328
  0
POINT
  8
DEFPOINTS
  6
CONTINUOUS
 62
     7
 10
296.5717562151
 20
48.22147815922061
  0
ENDBLK
  8
0
  0
BLOCK
  8
0
  2
*D10
 70
    65
 10
0
 20
0
  0
LINE
  8
0
  6
CONTINUOUS
 62
     7
 10
328.3056603557
 20
105.1500358778555
 11
328.3056603557
 21
83.15003578774451
  0
INSERT
  8
0
  6
CONTINUOUS
 62
     7
  2
_OPEN30
 10
328.3056603557
 20
108.1500358328
 50
90.00000000000019
  0
INSERT
  8
0
  6
CONTINUOUS
 62
     7
  2
_OPEN30
 10
328.3056603557
 20
80.1500358328
 50
270.0000000000005
  0
LINE
  8
0
  6
CONTINUOUS
 62
     7
 10
325.5195134967723
 20
108.1500358328
 11
329.8056603557
 21
108.1500358328
  0
LINE
  8
0
  6
CONTINUOUS
 62
     7
 10
325.1918305638723
 20
80.1500358328
 11
329.8056603557
 21
80.1500358328
  0
TEXT
  8
0
  6
CONTINUOUS
 62
     7
 10
327.5780562049279
 20
91.65526321975145
 40
2.910416603088379
 41
1.028624950971445
  1
28
 50
90.00000000000003
  0
POINT
  8
DEFPOINTS
  6
CONTINUOUS
 62
     7
 10
324.0195135193
 20
108.1500358328
  0
POINT
  8
DEFPOINTS
  6
CONTINUOUS
 62
     7
 10
323.6918305864
 20
80.1500358328
  0
POINT
  8
DEFPOINTS
  6
CONTINUOUS
 62
     7
 10
328.3056603557
 20
80.1500358328
  0
ENDBLK
  8
0
  0
BLOCK
  8
0
  2
*D11
 70
    65
 10
0
 20
0
  0
LINE
  8
0
  6
CONTINUOUS
 62
     7
 10
328.3056603557
 20
77.15003587785549
 11
328.3056603557
 21
71.15003578774451
  0
INSERT
  8
0
  6
CONTINUOUS
 62
     7
  2
_OPEN30
 10
328.3056603557
 20
80.1500358328
 50
90.00000000000019
  0
INSERT
  8
0
  6
CONTINUOUS
 62
     7
  2
_OPEN30
 10
328.3056603557
 20
68.1500358328
 50
270.0000000000005
  0
LINE
  8
0
  6
CONTINUOUS
 62
     7
 10
325.1918305638723
 20
80.1500358328
 11
329.8056603557
 21
80.1500358328
  0
LINE
  8
0
  6
CONTINUOUS
 62
     7
 10
325.0279890974722
 20
68.1500358328
 11
329.8056603557
 21
68.1500358328
  0
TEXT
  8
0
  6
CONTINUOUS
 62
     7
 10
327.5780562049279
 20
71.65526321975145
 40
2.910416603088379
 41
1.285781188714307
  1
12
 50
90.00000000000003
  0
POINT
  8
DEFPOINTS
  6
CONTINUOUS
 62
     7
 10
323.6918305864
 20
80.1500358328
  0
POINT
  8
DEFPOINTS
  6
CONTINUOUS
 62
     7
 10
323.52798912
 20
68.1500358328
  0
POINT
  8
DEFPOINTS
  6
CONTINUOUS
 62
     7
 10
328.3056603557
 20
68.1500358328
  0
ENDBLK
  8
0
  0
BLOCK
  8
0
  2
*D12
 70
    65
 10
0
 20
0
  0
LINE
  8
0
  6
CONTINUOUS
 62
     7
 10
140.3752678992555
 20
270.4434508436
 11
121.3752678091445
 21
270.4434508436
  0
INSERT
  8
0
  6
CONTINUOUS
 62
     7
  2
_OPEN30
 10
143.3752678542
 20
270.4434508436
  0
INSERT
  8
0
  6
CONTINUOUS
 62
     7
  2
_OPEN30
 10
118.3752678542
 20
270.4434508436
 50
180.0000000000004
  0
LINE
  8
0
  6
CONTINUOUS
 62
     7
 10
143.3752678542
 20
265.6163564027723
 11
143.3752678542
 21
271.9434508436
  0
LINE
  8
0
  6
CONTINUOUS
 62
     7
 10
118.3752678542
 20
266.4191595742723
 11
118.3752678542
 21
271.9434508436
  0
TEXT
  8
0
  6
CONTINUOUS
 62
     7
 10
128.3804952411514
 20
271.1710549943721
 40
2.910416603088379
 41
1.028624950971445
  1
25
  0
POINT
  8
DEFPOINTS
  6
CONTINUOUS
 62
     7
 10
143.3752678542
 20
264.1163564253
  0
POINT
  8
DEFPOINTS
  6
CONTINUOUS
 62
     7
 10
118.3752678542
 20
264.9191595968
  0
POINT
  8
DEFPOINTS
  6
CONTINUOUS
 62
     7
 10
118.3752678542
 20
270.4434508436
  0
ENDBLK
  8
0
  0
BLOCK
  8
0
  2
*D13
 70
    65
 10
0
 20
0
  0
LINE
  8
0
  6
CONTINUOUS
 62
     7
 10
116.3752678091445
 20
277.2817641244
 11
145.3752678992555
 21
277.2817641244
  0
INSERT
  8
0
  6
CONTINUOUS
 62
     7
  2
_OPEN30
 10
113.3752678542
 20
277.2817641244
 50
180.0000000000004
  0
INSERT
  8
0
  6
CONTINUOUS
 62
     7
  2
_OPEN30
 10
148.3752678542
 20
277.2817641244
  0
LINE
  8
0
  6
CONTINUOUS
 62
     7
 10
113.3752678542
 20
240.3817641018723
 11
113.3752678542
 21
278.7817641244
  0
LINE
  8
0
  6
CONTINUOUS
 62
     7
 10
148.3752678542
 20
240.3817641018723
 11
148.3752678542
 21
278.7817641244
  0
TEXT
  8
0
  6
CONTINUOUS
 62
     7
 10
128.3804952411514
 20
278.0093682751721
 40
2.910416603088379
 41
1.028624950971445
  1
35
  0
POINT
  8
DEFPOINTS
  6
CONTINUOUS
 62
     7
 10
113.3752678542
 20
238.8817641244
  0
POINT
  8
DEFPOINTS
  6
CONTINUOUS
 62
     7
 10
148.3752678542
 20
238.8817641244
  0
POINT
  8
DEFPOINTS
  6
CONTINUOUS
 62
     7
 10
148.3752678542
 20
277.2817641244
  0
ENDBLK
  8
0
  0
BLOCK
  8
0
  2
KOZU0001
 70
    64
 10
0
 20
0
  0
ENDBLK
  8
0
  0
BLOCK
  8
0
  2
KOZU0002
 70
    64
 10
0
 20
0
  0
ENDBLK
  8
0
  0
BLOCK
  8
0
  2
KOZU0003
 70
    64
 10
0
 20
0
  0
ENDBLK
  8
0
  0
BLOCK
  8
0
  2
KOZU0004
 70
    64
 10
0
 20
0
  0
LINE
  8
0
  6
CONTINUOUS
 62
     7
 10
-1
 20
0.267949
 11
0
 21
0
  0
LINE
  8
0
  6
CONTINUOUS
 62
     7
 10
0
 20
0
 11
-1
 21
-0.267949
  0
LINE
  8
0
  6
CONTINUOUS
 62
     7
 10
0
 20
0
 11
-1
 21
0
  0
ENDBLK
  8
0
  0
BLOCK
  8
0
  2
KOZU0005
 70
    64
 10
0
 20
0
  0
LINE
  8
0
  6
CONTINUOUS
 62
     7
 10
0
 20
0
 11
0
 21
1
  0
LINE
  8
0
  6
CONTINUOUS
 62
     7
 10
0
 20
0
 11
-1
 21
0
  0
LINE
  8
0
  6
CONTINUOUS
 62
     7
 10
0
 20
0
 11
0
 21
-1
  0
LINE
  8
0
  6
CONTINUOUS
 62
     7
 10
0
 20
0
 11
1
 21
0
  0
LINE
  8
0
  6
CONTINUOUS
 62
     7
 10
0
 20
2
 11
0
 21
75.94076968020001
  0
LINE
  8
0
  6
CONTINUOUS
 62
     7
 10
-2
 20
0
 11
-26.3540993084
 21
0
  0
LINE
  8
0
  6
CONTINUOUS
 62
     7
 10
0
 20
-2
 11
0
 21
-26.474889113
  0
LINE
  8
0
  6
CONTINUOUS
 62
     7
 10
2
 20
0
 11
27.0064372118
 21
0
  0
ENDBLK
  8
0
  0
ENDSEC
  0
SECTION
  2
ENTITIES
  0
POINT
  8
0
  6
CONTINUOUS
 62
     7
 10
110.8752678542
 20
80.1500358328
  0
POINT
  8
0
  6
CONTINUOUS
 62
     7
 10
150.8752678542
 20
80.1500358328
  0
LINE
  8
0
  6
CONTINUOUS
 62
     7
 10
134.6252677704
 20
150.7996969566
 11
127.125267938
 21
150.7996969566
  0
LINE
  8
0
  6
CONTINUOUS
 62
     7
 10
126.1252680069
 20
142.9046817765
 11
126.1252680069
 21
149.79969493
  0
LINE
  8
0
  6
CONTINUOUS
 62
     7
 10
135.6252677015
 20
149.79969493
 11
135.6252677015
 21
142.9046817765
  0
LINE
  8
0
  6
CONTINUOUS
 62
     7
 10
126.1252680069
 20
132.1457192943
 11
126.1252680069
 21
142.9046817765
  0
LINE
  8
0
  6
CONTINUOUS
 62
     7
 10
135.6252677015
 20
142.9046817765
 11
135.6252677015
 21
132.1457192943
  0
LINE
  8
0
  6
CONTINUOUS
 62
     7
 10
142.0285020231
 20
106.3997928694
 11
149.4828023224
 21
87.48213496880001
  0
LINE
  8
0
  6
CONTINUOUS
 62
     7
 10
112.267733386
 20
87.48213496880001
 11
119.7220336853
 21
106.3997928694
  0
LINE
  8
0
  6
CONTINUOUS
 62
     7
 10
293.8063735489
 20
60.1500362799
 11
295.5717560251
 21
60.1500362799
  0
LINE
  8
0
  6
CONTINUOUS
 62
     7
 10
288.0717561927
 20
60.1500362799
 11
291.3217562598
 21
60.1500362799
  0
LINE
  8
0
  6
CONTINUOUS
 62
     7
 10
316.3394275468001
 20
78.10003582280001
 11
321.9717554163001
 21
80.15003583280003
  0
LINE
  8
0
  6
CONTINUOUS
 62
     7
 10
321.9717554163
 20
80.15003583280002
 11
316.3394275468
 21
82.20003584289998
  0
LINE
  8
0
  6
CONTINUOUS
 62
     7
 10
316.3394275468
 20
82.20003584289999
 11
299.5717562151
 21
82.20003584289999
  0
LINE
  8
0
  6
CONTINUOUS
 62
     7
 10
299.5717562151
 20
78.1000358228
 11
316.3394275468
 21
78.1000358228
  0
LINE
  8
0
  6
CONTINUOUS
 62
     7
 10
316.3394275468
 20
66.10003548559999
 11
321.9717554163
 21
68.1500357285
  0
LINE
  8
0
  6
CONTINUOUS
 62
     7
 10
321.9717554163
 20
68.15003572849997
 11
316.3394275467999
 21
70.20003597139998
  0
LINE
  8
0
  6
CONTINUOUS
 62
     7
 10
316.3394275468
 20
70.2000359714
 11
299.5717562151
 21
70.2000359714
  0
LINE
  8
0
  6
CONTINUOUS
 62
     7
 10
299.5717562151
 20
66.1000354856
 11
316.3394275468
 21
66.1000354856
  0
LINE
  8
0
  6
CONTINUOUS
 62
     7
 10
316.3394275468001
 20
106.1000355229
 11
321.9717554163001
 21
108.1500366971
  0
LINE
  8
0
  6
CONTINUOUS
 62
     7
 10
321.9717554163001
 20
108.1500366971
 11
316.3394275468
 21
110.2000360087
  0
LINE
  8
0
  6
CONTINUOUS
 62
     7
 10
316.3394275468
 20
110.2000360087
 11
299.5717562151
 21
110.2000360087
  0
LINE
  8
0
  6
CONTINUOUS
 62
     7
 10
299.5717562151
 20
106.1000355229
 11
316.3394275468
 21
106.1000355229
  0
LINE
  8
0
  6
CONTINUOUS
 62
     7
 10
296.571756189
 20
62.6500357583
 11
299.5717562151
 21
62.6500357583
  0
LINE
  8
0
  6
CONTINUOUS
 62
     7
 10
299.5717562151
 20
116.6500352964
 11
294.2882319328
 21
116.6500352964
  0
LINE
  8
0
  6
CONTINUOUS
 62
     7
 10
296.571756189
 20
87.11553008190001
 11
296.571756189
 21
61.1500364438
  0
LINE
  8
0
  6
CONTINUOUS
 62
     7
 10
287.0717560288
 20
61.1500364438
 11
287.0717560288
 21
87.11553008190001
  0
LINE
  8
0
  6
CONTINUOUS
 62
     7
 10
296.571756189
 20
106.0331870511
 11
296.571756189
 21
87.11553008190001
  0
LINE
  8
0
  6
CONTINUOUS
 62
     7
 10
287.0717560288
 20
87.11553008190001
 11
287.0717560288
 21
106.0331870511
  0
LINE
  8
0
  6
CONTINUOUS
 62
     7
 10
250.555440725
 20
150.0333823905
 11
276.8085821878
 21
132.9843901739
  0
LINE
  8
0
  6
CONTINUOUS
 62
     7
 10
261.948715837
 20
131.3070484147
 11
245.3813701283
 21
142.0660108969
  0
LINE
  8
0
  6
CONTINUOUS
 62
     7
 10
316.3394275468
 20
80.1500358328
 11
316.3394275468
 21
78.1000358228
  0
LINE
  8
0
  6
CONTINUOUS
 62
     7
 10
316.3394275468
 20
82.20003584289999
 11
316.3394275468
 21
80.1500358328
  0
LINE
  8
0
  6
CONTINUOUS
 62
     7
 10
316.3394275468
 20
70.2000359714
 11
316.3394275468
 21
66.1000354856
  0
LINE
  8
0
  6
CONTINUOUS
 62
     7
 10
316.3394275468
 20
110.2000360087
 11
316.3394275468
 21
106.1000355229
  0
LINE
  8
0
  6
CONTINUOUS
 62
     7
 10
299.5717562151
 20
62.6500357583
 11
299.5717562151
 21
86.56670262
  0
LINE
  8
0
  6
CONTINUOUS
 62
     7
 10
299.5717562151
 20
86.56670262
 11
299.5717562151
 21
112.5333697245
  0
LINE
  8
0
  6
CONTINUOUS
 62
     7
 10
299.5717562151
 20
112.5333697245
 11
299.5717562151
 21
116.6500352964
  0
LINE
  8
0
  6
CENTER
 62
     7
 10
297.2717562151
 20
108.1500358328
 11
324.0195135193
 21
108.1500358328
  0
LINE
  8
0
  6
CENTER
 62
     7
 10
297.2717562151
 20
80.1500358328
 11
323.6918305864
 21
80.1500358328
  0
LINE
  8
0
  6
CENTER
 62
     7
 10
297.2717562151
 20
68.1500358328
 11
323.52798912
 21
68.1500358328
  0
LINE
  8
0
  6
CONTINUOUS
 62
     7
 10
127.125267938
 20
182.5284148858
 11
134.6252677704
 21
182.5284148858
  0
LINE
  8
0
  6
CONTINUOUS
 62
     7
 10
110.8752683012
 20
234.8817639344
 11
110.8752683012
 21
227.381764102
  0
LINE
  8
0
  6
CONTINUOUS
 62
     7
 10
150.8752674072
 20
227.381764102
 11
150.8752674072
 21
234.8817639344
  0
LINE
  8
0
  6
CONTINUOUS
 62
     7
 10
145.4252682834
 20
255.6494354562
 11
143.3752680405
 21
261.2817633257
  0
LINE
  8
0
  6
CONTINUOUS
 62
     7
 10
143.3752680405
 20
261.2817633257
 11
141.3252677976
 21
255.6494354562
  0
LINE
  8
0
  6
CONTINUOUS
 62
     7
 10
141.3252677976
 20
255.6494354562
 11
141.3252677976
 21
238.8817641244
  0
LINE
  8
0
  6
CONTINUOUS
 62
     7
 10
145.4252682834
 20
238.8817641244
 11
145.4252682834
 21
255.6494354562
  0
LINE
  8
0
  6
CONTINUOUS
 62
     7
 10
120.4252679108
 20
255.6494354562
 11
118.3752676679
 21
261.2817633257
  0
LINE
  8
0
  6
CONTINUOUS
 62
     7
 10
118.3752676679
 20
261.2817633257
 11
116.325267425
 21
255.6494354562
  0
LINE
  8
0
  6
CONTINUOUS
 62
     7
 10
116.325267425
 20
255.6494354562
 11
116.325267425
 21
238.8817641244
  0
LINE
  8
0
  6
CONTINUOUS
 62
     7
 10
120.4252679108
 20
238.8817641244
 11
120.4252679108
 21
255.6494354562
  0
LINE
  8
0
  6
CONTINUOUS
 62
     7
 10
132.9252678643
 20
255.6494354562
 11
130.8752678542
 21
261.2817633257
  0
LINE
  8
0
  6
CONTINUOUS
 62
     7
 10
130.8752678542
 20
261.2817633257001
 11
128.8252678441
 21
255.6494354562
  0
LINE
  8
0
  6
CONTINUOUS
 62
     7
 10
128.8252678441
 20
255.6494354562
 11
128.8252678441
 21
238.8817641244
  0
LINE
  8
0
  6
CONTINUOUS
 62
     7
 10
132.9252678643
 20
238.8817641244
 11
132.9252678643
 21
255.6494354562
  0
LINE
  8
0
  6
CONTINUOUS
 62
     7
 10
113.3752677797
 20
238.8817641244
 11
113.3752677797
 21
235.8817640983
  0
LINE
  8
0
  6
CONTINUOUS
 62
     7
 10
148.3752679287
 20
235.8817640983
 11
148.3752679287
 21
238.8817641244
  0
LINE
  8
0
  6
CONTINUOUS
 62
     7
 10
135.6252677015
 20
189.3208111928
 11
135.6252677015
 21
183.528413187
  0
LINE
  8
0
  6
CONTINUOUS
 62
     7
 10
126.1252680069
 20
183.528413187
 11
126.1252680069
 21
189.3208111928
  0
LINE
  8
0
  6
CONTINUOUS
 62
     7
 10
135.6252677015
 20
215.5739507929
 11
135.6252677015
 21
189.3208111928
  0
LINE
  8
0
  6
CONTINUOUS
 62
     7
 10
126.1252680069
 20
189.3208111928
 11
126.1252680069
 21
215.5739507929
  0
LINE
  8
0
  6
CONTINUOUS
 62
     7
 10
136.9129347822001
 20
219.2650336132
 11
136.9109934403001
 21
219.253628637
  0
LINE
  8
0
  6
CONTINUOUS
 62
     7
 10
121.7272438316
 20
235.8817640983
 11
120.6524109675
 21
235.8817640983
  0
LINE
  8
0
  6
CONTINUOUS
 62
     7
 10
141.0981247409
 20
235.8817640983
 11
140.0232918768
 21
235.8817640983
  0
LINE
  8
0
  6
CONTINUOUS
 62
     7
 10
113.1981097369
 20
235.8817640983
 11
120.6524109675
 21
235.8817640983
  0
LINE
  8
0
  6
CONTINUOUS
 62
     7
 10
141.0981247409
 20
235.8817640983
 11
148.5524259715
 21
235.8817640983
  0
LINE
  8
0
  6
CONTINUOUS
 62
     7
 10
120.6524109675
 20
226.3817639381
 11
113.1981097369
 21
226.3817639381
  0
LINE
  8
0
  6
CONTINUOUS
 62
     7
 10
148.5524259715
 20
226.3817639381
 11
141.0981247409
 21
226.3817639381
  0
LINE
  8
0
  6
CONTINUOUS
 62
     7
 10
148.5524259715
 20
235.8817640983
 11
149.8752672433
 21
235.8817640983
  0
LINE
  8
0
  6
CONTINUOUS
 62
     7
 10
111.8752684652
 20
235.8817640983
 11
113.1981097369
 21
235.8817640983
  0
LINE
  8
0
  6
CONTINUOUS
 62
     7
 10
113.1981097369
 20
226.3817639381
 11
111.8752684652
 21
226.3817639381
  0
LINE
  8
0
  6
CONTINUOUS
 62
     7
 10
149.8752672433
 20
226.3817639381
 11
148.5524259715
 21
226.3817639381
  0
LINE
  8
0
  6
CONTINUOUS
 62
     7
 10
113.3752677797
 20
235.8817640983
 11
112.8752686291
 21
235.8817640983
  0
LINE
  8
0
  6
CONTINUOUS
 62
     7
 10
148.8752670793
 20
235.8817640983
 11
148.3752679287
 21
235.8817640983
  0
LINE
  8
0
  6
CONTINUOUS
 62
     7
 10
141.3252677976
 20
255.6494354562
 11
145.4252682834
 21
255.6494354562
  0
LINE
  8
0
  6
CONTINUOUS
 62
     7
 10
116.325267425
 20
255.6494354562
 11
120.4252679108
 21
255.6494354562
  0
LINE
  8
0
  6
CONTINUOUS
 62
     7
 10
130.8752678542
 20
255.6494354562
 11
132.9252678643
 21
255.6494354562
  0
LINE
  8
0
  6
CONTINUOUS
 62
     7
 10
128.8252678441
 20
255.6494354562
 11
130.8752678542
 21
255.6494354562
  0
LINE
  8
0
  6
CONTINUOUS
 62
     7
 10
136.9225581384
 20
238.8817641244
 11
124.82797757
 21
238.8817641244
  0
LINE
  8
0
  6
CONTINUOUS
 62
     7
 10
124.82797757
 20
238.8817641244
 11
114.594100809
 21
238.8817641244
  0
LINE
  8
0
  6
CONTINUOUS
 62
     7
 10
147.1564348994
 20
238.8817641244
 11
136.9225581384
 21
238.8817641244
  0
LINE
  8
0
  6
CONTINUOUS
 62
     7
 10
114.594100809
 20
238.8817641244
 11
113.3752677797
 21
238.8817641244
  0
LINE
  8
0
  6
CONTINUOUS
 62
     7
 10
148.3752679287
 20
238.8817641244
 11
147.1564348994
 21
238.8817641244
  0
LINE
  8
0
  6
CENTER
 62
     7
 10
118.3752678542
 20
236.5817641244
 11
118.3752678542
 21
264.9191595968
  0
LINE
  8
0
  6
CENTER
 62
     7
 10
130.8752678542
 20
178.7293170375
 11
130.8752678542
 21
264.3571973768
  0
LINE
  8
0
  6
CENTER
 62
     7
 10
143.3752678542
 20
236.5817641244
 11
143.3752678542
 21
264.1163564253
  0
LINE
  8
0
  6
CENTER
 62
     7
 10
160.8752678542
 20
80.1500358328
 11
100.8752678542
 21
80.1500358328
  0
LINE
  8
0
  6
CENTER
 62
     7
 10
130.8752678542
 20
160.7996969566
 11
130.8752678542
 21
50.15003583279999
  0
LINE
  8
0
  6
CONTINUOUS
 62
     7
 10
30.1718109004
 20
19.8435834722
 11
27.7302342086
 21
15.8657439043
  0
LINE
  8
0
  6
CONTINUOUS
 62
     7
 10
27.7302342086
 20
15.8657439043
 11
32.6523479069
 21
15.8657439043
  0
LINE
  8
0
  6
CONTINUOUS
 62
     7
 10
32.6523479069
 20
15.8657439043
 11
30.1718109004
 21
19.8435834722
  0
LINE
  8
0
  6
CONTINUOUS
 62
     7
 10
30.21265598149999
 20
25.2324736862
 11
27.77107928969999
 21
21.2546341184
  0
LINE
  8
0
  6
CONTINUOUS
 62
     7
 10
27.7710792897
 20
21.2546341184
 11
32.6931929881
 21
21.2546341184
  0
LINE
  8
0
  6
CONTINUOUS
 62
     7
 10
32.6931929881
 20
21.25463411840001
 11
30.2126559815
 21
25.23247368620001
  0
LINE
  8
0
  6
CONTINUOUS
 62
     7
 10
30.2427566899
 20
30.78654771780001
 11
27.8011799981
 21
26.8087081499
  0
LINE
  8
0
  6
CONTINUOUS
 62
     7
 10
27.8011799981
 20
26.8087081499
 11
32.7232936965
 21
26.8087081499
  0
LINE
  8
0
  6
CONTINUOUS
 62
     7
 10
32.72329369650002
 20
26.80870814990001
 11
30.24275668990002
 21
30.78654771780002
  0
LINE
  8
0
  6
CONTINUOUS
 62
     7
 10
291
 20
9.5
 11
291
 21
31.5
  0
LINE
  8
0
  6
CONTINUOUS
 62
     7
 10
358.5550076286
 20
30.9049236191
 11
360.3667723576
 21
30.9049236191
  0
POLYLINE
  8
0
  6
CONTINUOUS
 62
     7
 66
     1
 10
0
 20
0
 40
0.300000011920929
 41
0.300000011920929
  0
VERTEX
  8
0
  6
CONTINUOUS
 62
     7
 10
21
 20
9.5
  0
VERTEX
  8
0
  6
CONTINUOUS
 62
     7
 10
408.5
 20
9.5
  0
SEQEND
  8
0
  6
CONTINUOUS
 62
     7
  0
POLYLINE
  8
0
  6
CONTINUOUS
 62
     7
 66
     1
 10
0
 20
0
 40
0.300000011920929
 41
0.300000011920929
  0
VERTEX
  8
0
  6
CONTINUOUS
 62
     7
 10
21
 20
286.5
  0
VERTEX
  8
0
  6
CONTINUOUS
 62
     7
 10
21
 20
9.5
  0
SEQEND
  8
0
  6
CONTINUOUS
 62
     7
  0
POLYLINE
  8
0
  6
CONTINUOUS
 62
     7
 66
     1
 10
0
 20
0
 40
0.300000011920929
 41
0.300000011920929
  0
VERTEX
  8
0
  6
CONTINUOUS
 62
     7
 10
21
 20
31.5
  0
VERTEX
  8
0
  6
CONTINUOUS
 62
     7
 10
138
 20
31.5
  0
SEQEND
  8
0
  6
CONTINUOUS
 62
     7
  0
POLYLINE
  8
0
  6
CONTINUOUS
 62
     7
 66
     1
 10
0
 20
0
 40
0.300000011920929
 41
0.300000011920929
  0
VERTEX
  8
0
  6
CONTINUOUS
 62
     7
 10
408.5
 20
286.5
  0
VERTEX
  8
0
  6
CONTINUOUS
 62
     7
 10
408.5
 20
9.5
  0
SEQEND
  8
0
  6
CONTINUOUS
 62
     7
  0
POLYLINE
  8
0
  6
CONTINUOUS
 62
     7
 66
     1
 10
0
 20
0
 40
0.300000011920929
 41
0.300000011920929
  0
VERTEX
  8
0
  6
CONTINUOUS
 62
     7
 10
138
 20
31.5
  0
VERTEX
  8
0
  6
CONTINUOUS
 62
     7
 10
408.5
 20
31.5
  0
SEQEND
  8
0
  6
CONTINUOUS
 62
     7
  0
POLYLINE
  8
0
  6
CONTINUOUS
 62
     7
 66
     1
 10
0
 20
0
 40
0.300000011920929
 41
0.300000011920929
  0
VERTEX
  8
0
  6
CONTINUOUS
 62
     7
 10
21
 20
286.5
  0
VERTEX
  8
0
  6
CONTINUOUS
 62
     7
 10
408.5
 20
286.5
  0
SEQEND
  8
0
  6
CONTINUOUS
 62
     7
  0
LINE
  8
0
  6
CONTINUOUS
 62
     7
 10
26.5
 20
20.5
 11
138
 21
20.5
  0
LINE
  8
0
  6
CONTINUOUS
 62
     7
 10
49.5
 20
31.5
 11
49.5
 21
9.5
  0
LINE
  8
0
  6
CONTINUOUS
 62
     7
 10
26.5
 20
26
 11
138
 21
26
  0
LINE
  8
0
  6
CONTINUOUS
 62
     7
 10
34.5
 20
31.5
 11
34.5
 21
9.5
  0
LINE
  8
0
  6
CONTINUOUS
 62
     7
 10
26.5
 20
31.5
 11
26.5
 21
9.5
  0
LINE
  8
0
  6
CONTINUOUS
 62
     7
 10
26.5
 20
15
 11
138
 21
15
  0
LINE
  8
0
  6
CONTINUOUS
 62
     7
 10
203
 20
31.5
 11
203
 21
9.5
  0
LINE
  8
0
  6
CONTINUOUS
 62
     7
 10
198
 20
31.5
 11
198
 21
9.5
  0
LINE
  8
0
  6
CONTINUOUS
 62
     7
 10
143
 20
31.5
 11
143
 21
9.5
  0
LINE
  8
0
  6
CONTINUOUS
 62
     7
 10
138
 20
31.5
 11
138
 21
20.5
  0
LINE
  8
0
  6
CONTINUOUS
 62
     7
 10
59.5
 20
31.5
 11
59.5
 21
9.5
  0
LINE
  8
0
  6
CONTINUOUS
 62
     7
 10
231
 20
31.5
 11
231
 21
20.5
  0
LINE
  8
0
  6
CONTINUOUS
 62
     7
 10
236
 20
31.5
 11
236
 21
20.5
  0
LINE
  8
0
  6
CONTINUOUS
 62
     7
 10
251
 20
31.5
 11
251
 21
20.5
  0
LINE
  8
0
  6
CONTINUOUS
 62
     7
 10
256
 20
31.5
 11
256
 21
20.5
  0
LINE
  8
0
  6
CONTINUOUS
 62
     7
 10
296
 20
31.5
 11
296
 21
20.5
  0
LINE
  8
0
  6
CONTINUOUS
 62
     7
 10
311
 20
31.5
 11
311
 21
9.5
  0
LINE
  8
0
  6
CONTINUOUS
 62
     7
 10
326
 20
31.5
 11
326
 21
9.5
  0
LINE
  8
0
  6
CONTINUOUS
 62
     7
 10
341
 20
31.5
 11
341
 21
9.5
  0
LINE
  8
0
  6
CONTINUOUS
 62
     7
 10
356
 20
31.5
 11
356
 21
9.5
  0
LINE
  8
0
  6
CONTINUOUS
 62
     7
 10
356
 20
20.5
 11
408.5
 21
20.5
  0
LINE
  8
0
  6
CONTINUOUS
 62
     7
 10
361
 20
20.5
 11
361
 21
9.5
  0
LINE
  8
0
  6
CONTINUOUS
 62
     7
 10
311
 20
26.5
 11
356
 21
26.5
  0
LINE
  8
0
  6
CONTINUOUS
 62
     7
 10
138
 20
20.5
 11
311
 21
20.5
  0
LINE
  8
0
  6
CONTINUOUS
 62
     7
 10
138
 20
20.5
 11
138
 21
9.5
  0
LINE
  8
0
  6
CONTINUOUS
 62
     7
 10
360.3667723576
 20
25.922570647
 11
361.6123606662
 21
25.922570647
  0
LINE
  8
0
  6
CONTINUOUS
 62
     7
 10
358.5550076286
 20
24.790217675
 11
363.1976547877
 21
24.790217675
  0
LINE
  8
0
  6
CONTINUOUS
 62
     7
 10
358.5550076286
 20
30.9049236191
 11
358.5550076286
 21
24.790217675
  0
LINE
  8
0
  6
CONTINUOUS
 62
     7
 10
360.3667723576
 20
30.9049236191
 11
360.3667723576
 21
25.922570647
  0
LINE
  8
0
  6
CONTINUOUS
 62
     7
 10
361.6123606662
 20
30.9049236191
 11
361.6123606662
 21
25.922570647
  0
LINE
  8
0
  6
CONTINUOUS
 62
     7
 10
363.1976547877
 20
30.9049236191
 11
363.1976547877
 21
26.8284528149
  0
LINE
  8
0
  6
CONTINUOUS
 62
     7
 10
364.4432428996
 20
30.9049236191
 11
364.4432428996
 21
26.8284528149
  0
LINE
  8
0
  6
CONTINUOUS
 62
     7
 10
366.2550076286
 20
30.9049236191
 11
366.2550076286
 21
25.922570647
  0
LINE
  8
0
  6
CONTINUOUS
 62
     7
 10
361.6123606662
 20
30.9049236191
 11
363.1976547877
 21
30.9049236191
  0
LINE
  8
0
  6
CONTINUOUS
 62
     7
 10
364.4432428996
 20
30.9049236191
 11
366.2550076286
 21
30.9049236191
  0
LINE
  8
0
  6
CONTINUOUS
 62
     7
 10
363.1976547877
 20
26.8284528149
 11
364.4432428996
 21
26.8284528149
  0
LINE
  8
0
  6
CONTINUOUS
 62
     7
 10
363.1976547877
 20
25.922570647
 11
366.2550076286
 21
25.922570647
  0
LINE
  8
0
  6
CONTINUOUS
 62
     7
 10
363.1976547877
 20
25.922570647
 11
363.1976547877
 21
24.790217675
  0
LINE
  8
0
  6
CONTINUOUS
 62
     7
 10
123
 20
31.5
 11
123
 21
9.5
  0
LINE
  8
0
  6
PHANTOM
 62
     7
 10
237.7224750929
 20
9.5
 11
291
 21
9.5
  0
ARC
  8
0
  6
CONTINUOUS
 62
     7
 10
127.1252678542
 20
149.7996948787
 40
1
 50
90.00000000000019
 51
180.0000000000004
  0
ARC
  8
0
  6
CONTINUOUS
 62
     7
 10
134.6252678542
 20
149.7996948787
 40
1
 50
0
 51
90.00000000000019
  0
ARC
  8
0
  6
CONTINUOUS
 62
     7
 10
185.6252678542
 20
132.1457201932
 40
50.00000000000001
 50
180.0000000000007
 51
192.9576814785008
  0
ARC
  8
0
  6
CONTINUOUS
 62
     7
 10
76.1252678542
 20
132.1457201932
 40
49.99999999999999
 50
347.0423185215008
 51
360
  0
ARC
  8
0
  6
CONTINUOUS
 62
     7
 10
130.8752678542
 20
80.1500358328
 40
20.00000000000001
 50
158.4936120775001
 51
21.50638792250005
  0
ARC
  8
0
  6
CONTINUOUS
 62
     7
 10
295.5717562151
 20
61.1500358328
 40
1
 50
270.0000000000005
 51
360
  0
ARC
  8
0
  6
CONTINUOUS
 62
     7
 10
288.0717562151
 20
61.1500358328
 40
1
 50
180.0000000000004
 51
270.0000000000005
  0
ARC
  8
0
  6
CONTINUOUS
 62
     7
 10
292.571718828
 20
40.1706447807
 40
20.01845376395966
 50
86.46399113349995
 51
93.57990680540003
  0
ARC
  8
0
  6
CONTINUOUS
 62
     7
 10
270.5717562151
 20
106.0331876422
 40
26
 50
0
 51
17.25513647749999
  0
ARC
  8
0
  6
CONTINUOUS
 62
     7
 10
270.5717562151
 20
106.0331876422
 40
16.50000000000002
 50
0
 51
25.07176599279994
  0
ARC
  8
0
  6
CONTINUOUS
 62
     7
 10
247.9684059965
 20
146.0496948787
 40
4.75000000000002
 50
57.00000000000007
 51
237.0000000000008
  0
ARC
  8
0
  6
CONTINUOUS
 62
     7
 10
134.6252678542
 20
183.5284139058
 40
1
 50
270.0000000000005
 51
360
  0
ARC
  8
0
  6
CONTINUOUS
 62
     7
 10
127.1252678542
 20
183.5284139058
 40
1
 50
180.0000000000004
 51
270.0000000000005
  0
ARC
  8
0
  6
CONTINUOUS
 62
     7
 10
240.6814584287
 20
203.4390249248
 40
104.968419906826
 50
171.3284193305
 51
176.4275517727001
  0
ARC
  8
0
  6
CONTINUOUS
 62
     7
 10
20.5627721351
 20
203.2789720156
 40
105.4931004109216
 50
3.602621789799994
 51
8.716055660999995
  0
ARC
  8
0
  6
CONTINUOUS
 62
     7
 10
113.3447618363
 20
218.4949964376
 40
11.51972678519929
 50
3.813802549100062
 51
34.81933269640003
  0
ARC
  8
0
  6
CONTINUOUS
 62
     7
 10
149.100278078
 20
218.2764637274
 40
12.22361800776066
 50
146.1689087618
 51
175.4157346695999
  0
ARC
  8
0
  6
CONTINUOUS
 62
     7
 10
120.332110835
 20
223.4014773382
 40
2.997448980859747
 50
34.25487607539991
 51
83.86579995320005
  0
ARC
  8
0
  6
CONTINUOUS
 62
     7
 10
141.4663017455
 20
223.3216064377
 40
3.082226181555848
 50
96.86045683919981
 51
145.0188671321998
  0
ARC
  8
0
  6
CONTINUOUS
 62
     7
 10
149.8752678542
 20
234.8817641244
 40
1
 50
0
 51
90.00000000000019
  0
ARC
  8
0
  6
CONTINUOUS
 62
     7
 10
111.8752678542
 20
234.8817641244
 40
1
 50
90.00000000000019
 51
180.0000000000004
  0
ARC
  8
0
  6
CONTINUOUS
 62
     7
 10
111.8752678542
 20
227.3817641244
 40
1
 50
180.0000000000004
 51
270.0000000000005
  0
ARC
  8
0
  6
CONTINUOUS
 62
     7
 10
149.8752678542
 20
227.3817641244
 40
1
 50
270.0000000000005
 51
360
  0
POLYLINE
  8
0
  6
CONTINUOUS
 62
     7
 66
     1
 10
0
 20
0
  0
VERTEX
  8
0
  6
CONTINUOUS
 62
     7
 10
122.6441029666554
 20
113.8154730841726
 42
-0.0008363725759376157
  0
VERTEX
  8
0
  6
CONTINUOUS
 62
     7
 10
122.8858684381939
 20
114.4492398671572
 42
0.000488248144183933
  0
VERTEX
  8
0
  6
CONTINUOUS
 62
     7
 10
123.1300507592879
 20
115.0821290760703
 42
0.005770539525004351
  0
VERTEX
  8
0
  6
CONTINUOUS
 62
     7
 10
123.3662211127312
 20
115.7179551766163
 42
0.006021359908510393
  0
VERTEX
  8
0
  6
CONTINUOUS
 62
     7
 10
123.5861988840147
 20
116.3594688791376
 42
0.004388319943207954
  0
VERTEX
  8
0
  6
CONTINUOUS
 62
     7
 10
123.7928078588425
 20
117.0055253502551
 42
0.002838567233188943
  0
VERTEX
  8
0
  6
CONTINUOUS
 62
     7
 10
123.9901269137877
 20
117.6545440911131
 42
0.002859162506516661
  0
VERTEX
  8
0
  6
CONTINUOUS
 62
     7
 10
124.1802179028273
 20
118.305701795058
 42
0.003165057844497877
  0
VERTEX
  8
0
  6
CONTINUOUS
 62
     7
 10
124.3624417688323
 20
118.9590743174161
 42
0.003863215613061374
  0
VERTEX
  8
0
  6
CONTINUOUS
 62
     7
 10
124.5356166966808
 20
119.6149147698616
 42
0.004803368608266603
  0
VERTEX
  8
0
  6
CONTINUOUS
 62
     7
 10
124.6973519164995
 20
120.273659546356
 42
-0.0003684987158596828
  0
VERTEX
  8
0
  6
CONTINUOUS
 62
     7
 10
124.8520652970862
 20
120.9341526672453
 42
0
  0
SEQEND
  8
0
  6
CONTINUOUS
 62
     7
  0
POLYLINE
  8
0
  6
CONTINUOUS
 62
     7
 66
     1
 10
0
 20
0
  0
VERTEX
  8
0
  6
CONTINUOUS
 62
     7
 10
136.8984704113197
 20
120.9341526672453
 42
-0.001357732325453914
  0
VERTEX
  8
0
  6
CONTINUOUS
 62
     7
 10
137.0880804991897
 20
120.1269833308685
 42
0.00776568282049315
  0
VERTEX
  8
0
  6
CONTINUOUS
 62
     7
 10
137.2881073230694
 20
119.3225066688975
 42
0.004160181584544027
  0
VERTEX
  8
0
  6
CONTINUOUS
 62
     7
 10
137.5081348900919
 20
118.523270291078
 42
0.0006748910498825378
  0
VERTEX
  8
0
  6
CONTINUOUS
 62
     7
 10
137.7350192991763
 20
117.7255899494059
 42
0.004964797557182454
  0
VERTEX
  8
0
  6
CONTINUOUS
 62
     7
 10
137.970528757403
 20
116.9303222912949
 42
0.009740616998053429
  0
VERTEX
  8
0
  6
CONTINUOUS
 62
     7
 10
138.2292189232959
 20
116.1426519953091
 42
0.006984775427314831
  0
VERTEX
  8
0
  6
CONTINUOUS
 62
     7
 10
138.5171018098935
 20
115.3653555461342
 42
-0.0007075527324051699
  0
VERTEX
  8
0
  6
CONTINUOUS
 62
     7
 10
138.8147994870443
 20
114.5915126590955
 42
-0.0009183381909605678
  0
VERTEX
  8
0
  6
CONTINUOUS
 62
     7
 10
139.1064327417504
 20
113.8154730841726
 42
0
  0
SEQEND
  8
0
  6
CONTINUOUS
 62
     7
  0
POLYLINE
  8
0
  6
CONTINUOUS
 62
     7
 66
     1
 10
0
 20
0
  0
VERTEX
  8
0
  6
CONTINUOUS
 62
     7
 10
139.1064327418
 20
113.8154730842
  0
VERTEX
  8
0
  6
CONTINUOUS
 62
     7
 10
139.6635461806
 20
112.4016211078
  0
VERTEX
  8
0
  6
CONTINUOUS
 62
     7
 10
140.2387617363
 20
110.9418288514
  0
VERTEX
  8
0
  6
CONTINUOUS
 62
     7
 10
140.8276761158
 20
109.4472703234
  0
VERTEX
  8
0
  6
CONTINUOUS
 62
     7
 10
141.4257826491
 20
107.9293858901
  0
VERTEX
  8
0
  6
CONTINUOUS
 62
     7
 10
142.0285020231
 20
106.3997928694
  0
SEQEND
  8
0
  6
CONTINUOUS
 62
     7
  0
POLYLINE
  8
0
  6
CONTINUOUS
 62
     7
 66
     1
 10
0
 20
0
  0
VERTEX
  8
0
  6
CONTINUOUS
 62
     7
 10
119.7220336853
 20
106.3997928694
  0
VERTEX
  8
0
  6
CONTINUOUS
 62
     7
 10
120.3247530593
 20
107.9293858901
  0
VERTEX
  8
0
  6
CONTINUOUS
 62
     7
 10
120.9228595926
 20
109.4472703234
  0
VERTEX
  8
0
  6
CONTINUOUS
 62
     7
 10
121.5117739721
 20
110.9418288514
  0
VERTEX
  8
0
  6
CONTINUOUS
 62
     7
 10
122.0869895278
 20
112.4016211078
  0
VERTEX
  8
0
  6
CONTINUOUS
 62
     7
 10
122.6441029667
 20
113.8154730842
  0
SEQEND
  8
0
  6
CONTINUOUS
 62
     7
  0
POLYLINE
  8
0
  6
CONTINUOUS
 62
     7
 66
     1
 10
0
 20
0
  0
VERTEX
  8
0
  6
CONTINUOUS
 62
     7
 10
284.7323715102223
 20
127.8386206075758
 42
0.004244891981981813
  0
VERTEX
  8
0
  6
CONTINUOUS
 62
     7
 10
285.6115438991158
 20
127.2427993881332
 42
-0.01246538641954155
  0
VERTEX
  8
0
  6
CONTINUOUS
 62
     7
 10
286.4852506091976
 20
126.6391970502105
 42
-0.01797898915662522
  0
VERTEX
  8
0
  6
CONTINUOUS
 62
     7
 10
287.3125703041343
 20
125.9751864267196
 42
-0.009068016783155965
  0
VERTEX
  8
0
  6
CONTINUOUS
 62
     7
 10
288.1036707003917
 20
125.2667023277503
 42
-0.007555678789178707
  0
VERTEX
  8
0
  6
CONTINUOUS
 62
     7
 10
288.8738056989554
 20
124.534874258079
 42
-0.01065095463703386
  0
VERTEX
  8
0
  6
CONTINUOUS
 62
     7
 10
289.6163765277416
 20
123.7758938877542
 42
-0.01114319369330924
  0
VERTEX
  8
0
  6
CONTINUOUS
 62
     7
 10
290.32416874997
 20
122.9845273214045
 42
-0.01027420450794142
  0
VERTEX
  8
0
  6
CONTINUOUS
 62
     7
 10
290.9975691548579
 20
122.1634301249835
 42
-0.009873420416502379
  0
VERTEX
  8
0
  6
CONTINUOUS
 62
     7
 10
291.6374674690698
 20
121.3160211299978
 42
-0.009686183174667302
  0
VERTEX
  8
0
  6
CONTINUOUS
 62
     7
 10
292.2437737878334
 20
120.4442087811804
 42
-0.01040594387117928
  0
VERTEX
  8
0
  6
CONTINUOUS
 62
     7
 10
292.8148998537318
 20
119.5487835708006
 42
-0.01134625099273775
  0
VERTEX
  8
0
  6
CONTINUOUS
 62
     7
 10
293.3462959627939
 20
118.6295844526036
 42
-0.009359846782125099
  0
VERTEX
  8
0
  6
CONTINUOUS
 62
     7
 10
293.8384825205466
 20
117.6890516009372
 42
-0.00735389027676163
  0
VERTEX
  8
0
  6
CONTINUOUS
 62
     7
 10
294.2998686344367
 20
116.7322588731354
 42
-0.01454070697044778
  0
VERTEX
  8
0
  6
CONTINUOUS
 62
     7
 10
294.7202241747239
 20
115.7567281316513
 42
-0.01693674458825871
  0
VERTEX
  8
0
  6
CONTINUOUS
 62
     7
 10
295.0721405573719
 20
114.7551488689255
 42
0.003968852802846369
  0
VERTEX
  8
0
  6
CONTINUOUS
 62
     7
 10
295.4015833672431
 20
113.745493505916
 42
0
  0
SEQEND
  8
0
  6
CONTINUOUS
 62
     7
  0
POLYLINE
  8
0
  6
CONTINUOUS
 62
     7
 66
     1
 10
0
 20
0
  0
VERTEX
  8
0
  6
CONTINUOUS
 62
     7
 10
285.5170890104321
 20
113.0251154944509
 42
-0.005636710249747588
  0
VERTEX
  8
0
  6
CONTINUOUS
 62
     7
 10
285.0451659495316
 20
113.9349051571993
 42
0.006945331263666876
  0
VERTEX
  8
0
  6
CONTINUOUS
 62
     7
 10
284.5855856985944
 20
114.8519502881253
 42
0.03592618149553529
  0
VERTEX
  8
0
  6
CONTINUOUS
 62
     7
 10
284.0471412220902
 20
115.7229600537867
 42
0.02389282726556841
  0
VERTEX
  8
0
  6
CONTINUOUS
 62
     7
 10
283.404631824488
 20
116.5208774944373
 42
0.007897785187174228
  0
VERTEX
  8
0
  6
CONTINUOUS
 62
     7
 10
282.7124640648349
 20
117.2770825576581
 42
0.01093264094632848
  0
VERTEX
  8
0
  6
CONTINUOUS
 62
     7
 10
281.9996227645415
 20
118.0133023829558
 42
0.02652113078078885
  0
VERTEX
  8
0
  6
CONTINUOUS
 62
     7
 10
281.2336869392515
 20
118.6943174318408
 42
0.01873310114375592
  0
VERTEX
  8
0
  6
CONTINUOUS
 62
     7
 10
280.3998464687193
 20
119.2883071747121
 42
-0.006377890753070233
  0
VERTEX
  8
0
  6
CONTINUOUS
 62
     7
 10
279.5583009135273
 20
119.8712528392881
 42
0
  0
SEQEND
  8
0
  6
CONTINUOUS
 62
     7
  0
POLYLINE
  8
0
  6
CONTINUOUS
 62
     7
 66
     1
 10
0
 20
0
  0
VERTEX
  8
0
  6
CONTINUOUS
 62
     7
 10
294.0763690855649
 20
117.1481215104669
 42
0
  0
VERTEX
  8
0
  6
CONTINUOUS
 62
     7
 10
294.0717382735289
 20
117.1574767822575
 42
0
  0
VERTEX
  8
0
  6
CONTINUOUS
 62
     7
 10
294.1011656659694
 20
117.0942850884954
 42
0
  0
VERTEX
  8
0
  6
CONTINUOUS
 62
     7
 10
294.1315630100279
 20
117.0297633148085
 42
0
  0
VERTEX
  8
0
  6
CONTINUOUS
 62
     7
 10
294.1621521119698
 20
116.9659865187169
 42
0
  0
VERTEX
  8
0
  6
CONTINUOUS
 62
     7
 10
294.1924742235173
 20
116.9025264866695
 42
-0.004675590199041298
  0
VERTEX
  8
0
  6
CONTINUOUS
 62
     7
 10
294.2211450357179
 20
116.8393739481201
 42
0
  0
VERTEX
  8
0
  6
CONTINUOUS
 62
     7
 10
294.2488207770773
 20
116.7765146261989
 42
0
  0
VERTEX
  8
0
  6
CONTINUOUS
 62
     7
 10
294.2769442243986
 20
116.7122697348778
 42
0
  0
VERTEX
  8
0
  6
CONTINUOUS
 62
     7
 10
294.3044350829271
 20
116.6500352964014
 42
0
  0
SEQEND
  8
0
  6
CONTINUOUS
 62
     7
  0
POLYLINE
  8
0
  6
CONTINUOUS
 62
     7
 66
     1
 10
0
 20
0
  0
VERTEX
  8
0
  6
CONTINUOUS
 62
     7
 10
279.5583009135
 20
119.8712528393
  0
VERTEX
  8
0
  6
CONTINUOUS
 62
     7
 10
276.661753596
 20
121.752293472
  0
VERTEX
  8
0
  6
CONTINUOUS
 62
     7
 10
273.7443055373
 20
123.6469053373
  0
VERTEX
  8
0
  6
CONTINUOUS
 62
     7
 10
270.8101011228
 20
125.5523987755
  0
VERTEX
  8
0
  6
CONTINUOUS
 62
     7
 10
267.8633070898
 20
127.466069226
  0
VERTEX
  8
0
  6
CONTINUOUS
 62
     7
 10
264.9081125271
 20
129.3851935014
  0
VERTEX
  8
0
  6
CONTINUOUS
 62
     7
 10
261.948715837
 20
131.3070484147
  0
SEQEND
  8
0
  6
CONTINUOUS
 62
     7
  0
POLYLINE
  8
0
  6
CONTINUOUS
 62
     7
 66
     1
 10
0
 20
0
  0
VERTEX
  8
0
  6
CONTINUOUS
 62
     7
 10
276.8085821878
 20
132.9843901739
  0
VERTEX
  8
0
  6
CONTINUOUS
 62
     7
 10
279.4538474988
 20
131.2665358827
  0
VERTEX
  8
0
  6
CONTINUOUS
 62
     7
 10
282.0961102259
 20
129.5506299183
  0
VERTEX
  8
0
  6
CONTINUOUS
 62
     7
 10
284.7323715102
 20
127.8386206076
  0
SEQEND
  8
0
  6
CONTINUOUS
 62
     7
  0
POLYLINE
  8
0
  6
CONTINUOUS
 62
     7
 66
     1
 10
0
 20
0
  0
VERTEX
  8
0
  6
CONTINUOUS
 62
     7
 10
135.8804261373496
 20
223.4977399998049
 42
0.001579210717005331
  0
VERTEX
  8
0
  6
CONTINUOUS
 62
     7
 10
135.8495511857133
 20
223.0040358532023
 42
0.001579210717005331
  0
VERTEX
  8
0
  6
CONTINUOUS
 62
     7
 10
135.8206623998948
 20
222.5100352291133
 42
0.001579210717005331
  0
VERTEX
  8
0
  6
CONTINUOUS
 62
     7
 10
135.7937609326233
 20
222.0157578393013
 42
0.001579210717005331
  0
VERTEX
  8
0
  6
CONTINUOUS
 62
     7
 10
135.7688478573294
 20
221.5212234065734
 42
0.001579210717005331
  0
VERTEX
  8
0
  6
CONTINUOUS
 62
     7
 10
135.745924168102
 20
221.0264516639933
 42
0.001579210717005331
  0
VERTEX
  8
0
  6
CONTINUOUS
 62
     7
 10
135.7249907796493
 20
220.5314623540939
 42
0.001579210717005331
  0
VERTEX
  8
0
  6
CONTINUOUS
 62
     7
 10
135.7060485272618
 20
220.0362752280894
 42
0.001579210717005331
  0
VERTEX
  8
0
  6
CONTINUOUS
 62
     7
 10
135.6890981667789
 20
219.5409100450875
 42
0.001579210717005331
  0
VERTEX
  8
0
  6
CONTINUOUS
 62
     7
 10
135.6741403745591
 20
219.0453865713007
 42
0.001579210717005331
  0
VERTEX
  8
0
  6
CONTINUOUS
 62
     7
 10
135.6611757474528
 20
218.5497245792577
 42
0.001579210717005331
  0
VERTEX
  8
0
  6
CONTINUOUS
 62
     7
 10
135.6502048027785
 20
218.0539438470144
 42
0.001579210717005331
  0
VERTEX
  8
0
  6
CONTINUOUS
 62
     7
 10
135.6412279783021
 20
217.5580641573646
 42
0.001579210717005331
  0
VERTEX
  8
0
  6
CONTINUOUS
 62
     7
 10
135.6342456322197
 20
217.062105297051
 42
0.001579210717005331
  0
VERTEX
  8
0
  6
CONTINUOUS
 62
     7
 10
135.629258043143
 20
216.566087055975
 42
0.001579210717005331
  0
VERTEX
  8
0
  6
CONTINUOUS
 62
     7
 10
135.6262654100882
 20
216.0700292264077
 42
0.001579210717005331
  0
VERTEX
  8
0
  6
CONTINUOUS
 62
     7
 10
135.6252678524683
 20
215.5739516021998
 42
-1
  0
SEQEND
  8
0
  6
CONTINUOUS
 62
     7
  0
POLYLINE
  8
0
  6
CONTINUOUS
 62
     7
 66
     1
 10
0
 20
0
  0
VERTEX
  8
0
  6
CONTINUOUS
 62
     7
 10
126.1252678559317
 20
215.5739516022007
 42
0.001579210717005404
  0
VERTEX
  8
0
  6
CONTINUOUS
 62
     7
 10
126.1242702983118
 20
216.0700292264085
 42
0.001579210717005404
  0
VERTEX
  8
0
  6
CONTINUOUS
 62
     7
 10
126.121277665257
 20
216.5660870559759
 42
0.001579210717005404
  0
VERTEX
  8
0
  6
CONTINUOUS
 62
     7
 10
126.1162900761803
 20
217.0621052970519
 42
0.001579210717005404
  0
VERTEX
  8
0
  6
CONTINUOUS
 62
     7
 10
126.1093077300979
 20
217.5580641573656
 42
0.001579210717005404
  0
VERTEX
  8
0
  6
CONTINUOUS
 62
     7
 10
126.1003309056215
 20
218.0539438470154
 42
0.001579210717005404
  0
VERTEX
  8
0
  6
CONTINUOUS
 62
     7
 10
126.0893599609472
 20
218.5497245792587
 42
0.001579210717005404
  0
VERTEX
  8
0
  6
CONTINUOUS
 62
     7
 10
126.0763953338409
 20
219.0453865713018
 42
0.001579210717005404
  0
VERTEX
  8
0
  6
CONTINUOUS
 62
     7
 10
126.0614375416211
 20
219.5409100450885
 42
0.001579210717005404
  0
VERTEX
  8
0
  6
CONTINUOUS
 62
     7
 10
126.0444871811382
 20
220.0362752280904
 42
0.001579210717005404
  0
VERTEX
  8
0
  6
CONTINUOUS
 62
     7
 10
126.0255449287506
 20
220.531462354095
 42
0.001579210717005404
  0
VERTEX
  8
0
  6
CONTINUOUS
 62
     7
 10
126.0046115402979
 20
221.0264516639945
 42
0.001579210717005404
  0
VERTEX
  8
0
  6
CONTINUOUS
 62
     7
 10
125.9816878510706
 20
221.5212234065746
 42
0.001579210717005404
  0
VERTEX
  8
0
  6
CONTINUOUS
 62
     7
 10
125.9567747757766
 20
222.0157578393024
 42
0.001579210717005404
  0
VERTEX
  8
0
  6
CONTINUOUS
 62
     7
 10
125.9298733085051
 20
222.5100352291144
 42
0.001579210717005404
  0
VERTEX
  8
0
  6
CONTINUOUS
 62
     7
 10
125.9009845226866
 20
223.0040358532035
 42
0.001579210717005404
  0
VERTEX
  8
0
  6
CONTINUOUS
 62
     7
 10
125.8701095710503
 20
223.4977399998061
 42
-1
  0
SEQEND
  8
0
  6
CONTINUOUS
 62
     7
  0
POLYLINE
  8
0
  6
CONTINUOUS
 62
     7
 66
     1
 10
0
 20
0
  0
VERTEX
  8
0
  6
CONTINUOUS
 62
     7
 10
135.9018181549629
 20
210.0517405892986
 42
0.001644136455192037
  0
VERTEX
  8
0
  6
CONTINUOUS
 62
     7
 10
135.8683568056391
 20
209.5379463985583
 42
0.001644136455192037
  0
VERTEX
  8
0
  6
CONTINUOUS
 62
     7
 10
135.837047478598
 20
209.0238176815155
 42
0.001644136455192037
  0
VERTEX
  8
0
  6
CONTINUOUS
 62
     7
 10
135.8078915279906
 20
208.5093766746081
 42
0.001644136455192037
  0
VERTEX
  8
0
  6
CONTINUOUS
 62
     7
 10
135.7808902148328
 20
207.9946456277805
 42
0.001644136455192037
  0
VERTEX
  8
0
  6
CONTINUOUS
 62
     7
 10
135.7560447069508
 20
207.4796468035218
 42
0.001644136455192037
  0
VERTEX
  8
0
  6
CONTINUOUS
 62
     7
 10
135.7333560789307
 20
206.9644024759022
 42
0.001644136455192037
  0
VERTEX
  8
0
  6
CONTINUOUS
 62
     7
 10
135.7128253120721
 20
206.4489349296107
 42
0.001644136455192037
  0
VERTEX
  8
0
  6
CONTINUOUS
 62
     7
 10
135.6944532943455
 20
205.9332664589902
 42
0.001644136455192037
  0
VERTEX
  8
0
  6
CONTINUOUS
 62
     7
 10
135.6782408203539
 20
205.4174193670741
 42
0.001644136455192037
  0
VERTEX
  8
0
  6
CONTINUOUS
 62
     7
 10
135.6641885912985
 20
204.9014159646209
 42
0.001644136455192037
  0
VERTEX
  8
0
  6
CONTINUOUS
 62
     7
 10
135.6522972149482
 20
204.38527856915
 42
0.001644136455192037
  0
VERTEX
  8
0
  6
CONTINUOUS
 62
     7
 10
135.6425672056137
 20
203.8690295039759
 42
0.001644136455192037
  0
VERTEX
  8
0
  6
CONTINUOUS
 62
     7
 10
135.634998984125
 20
203.3526910972429
 42
0.001644136455192037
  0
VERTEX
  8
0
  6
CONTINUOUS
 62
     7
 10
135.629592877813
 20
202.8362856809594
 42
0.001644136455192037
  0
VERTEX
  8
0
  6
CONTINUOUS
 62
     7
 10
135.6263491204958
 20
202.3198355900321
 42
0.001644136455192037
  0
VERTEX
  8
0
  6
CONTINUOUS
 62
     7
 10
135.6252678524682
 20
201.8033631612998
 42
-1
  0
SEQEND
  8
0
  6
CONTINUOUS
 62
     7
  0
POLYLINE
  8
0
  6
CONTINUOUS
 62
     7
 66
     1
 10
0
 20
0
  0
VERTEX
  8
0
  6
CONTINUOUS
 62
     7
 10
126.1252678559318
 20
201.8033631613007
 42
0.001629498375199583
  0
VERTEX
  8
0
  6
CONTINUOUS
 62
     7
 10
126.1242057555902
 20
202.3152374049399
 42
0.001629498375199583
  0
VERTEX
  8
0
  6
CONTINUOUS
 62
     7
 10
126.1210194996876
 20
202.8270899021066
 42
0.001629498375199583
  0
VERTEX
  8
0
  6
CONTINUOUS
 62
     7
 10
126.115709223589
 20
203.3388989072525
 42
0.001629498375199583
  0
VERTEX
  8
0
  6
CONTINUOUS
 62
     7
 10
126.1082751528962
 20
203.8506426766768
 42
0.001629498375199583
  0
VERTEX
  8
0
  6
CONTINUOUS
 62
     7
 10
126.0987176034384
 20
204.3622994694503
 42
0.001629498375199583
  0
VERTEX
  8
0
  6
CONTINUOUS
 62
     7
 10
126.0870369812586
 20
204.8738475483385
 42
0.001629498375199583
  0
VERTEX
  8
0
  6
CONTINUOUS
 62
     7
 10
126.0732337825965
 20
205.3852651807262
 42
0.001629498375199583
  0
VERTEX
  8
0
  6
CONTINUOUS
 62
     7
 10
126.0573085938675
 20
205.8965306395395
 42
0.001629498375199583
  0
VERTEX
  8
0
  6
CONTINUOUS
 62
     7
 10
126.0392620916375
 20
206.4076222041698
 42
0.001629498375199583
  0
VERTEX
  8
0
  6
CONTINUOUS
 62
     7
 10
126.0190950425943
 20
206.918518161396
 42
0.001629498375199583
  0
VERTEX
  8
0
  6
CONTINUOUS
 62
     7
 10
125.9968083035151
 20
207.4291968063072
 42
0.001629498375199583
  0
VERTEX
  8
0
  6
CONTINUOUS
 62
     7
 10
125.97240282123
 20
207.9396364432251
 42
0.001629498375199583
  0
VERTEX
  8
0
  6
CONTINUOUS
 62
     7
 10
125.9458796325819
 20
208.4498153866249
 42
0.001629498375199583
  0
VERTEX
  8
0
  6
CONTINUOUS
 62
     7
 10
125.9172398643823
 20
208.9597119620576
 42
0.001629498375199583
  0
VERTEX
  8
0
  6
CONTINUOUS
 62
     7
 10
125.8864847333634
 20
209.4693045070701
 42
0.001629498375199583
  0
VERTEX
  8
0
  6
CONTINUOUS
 62
     7
 10
125.8536155461268
 20
209.9785713721257
 42
-1
  0
SEQEND
  8
0
  6
CONTINUOUS
 62
     7
  0
POLYLINE
  8
0
  6
CONTINUOUS
 62
     7
 66
     1
 10
0
 20
0
  0
VERTEX
  8
0
  6
CONTINUOUS
 62
     7
 10
124.3626309481194
 20
235.0068289160549
 42
0.004065033752069493
  0
VERTEX
  8
0
  6
CONTINUOUS
 62
     7
 10
124.2013109519134
 20
235.1122521428113
 42
0.004065033752069493
  0
VERTEX
  8
0
  6
CONTINUOUS
 62
     7
 10
124.0393368538413
 20
235.2110048510752
 42
0.004065033752069493
  0
VERTEX
  8
0
  6
CONTINUOUS
 62
     7
 10
123.876751477142
 20
235.3030609322845
 42
0.004065033752069493
  0
VERTEX
  8
0
  6
CONTINUOUS
 62
     7
 10
123.7135978066663
 20
235.388396048353
 42
0.004065033752069493
  0
VERTEX
  8
0
  6
CONTINUOUS
 62
     7
 10
123.5499189775122
 20
235.4669876381052
 42
0.004065033752069493
  0
VERTEX
  8
0
  6
CONTINUOUS
 62
     7
 10
123.385758263621
 20
235.5388149232408
 42
0.004065033752069493
  0
VERTEX
  8
0
  6
CONTINUOUS
 62
     7
 10
123.2211590663363
 20
235.6038589138287
 42
0.004065033752069493
  0
VERTEX
  8
0
  6
CONTINUOUS
 62
     7
 10
123.0561649029292
 20
235.6621024133269
 42
0.004065033752069493
  0
VERTEX
  8
0
  6
CONTINUOUS
 62
     7
 10
122.8908193950933
 20
235.7135300231297
 42
0.004065033752069493
  0
VERTEX
  8
0
  6
CONTINUOUS
 62
     7
 10
122.7251662574119
 20
235.7581281466382
 42
0.004065033752069493
  0
VERTEX
  8
0
  6
CONTINUOUS
 62
     7
 10
122.5592492858004
 20
235.7958849928556
 42
0.004065033752069493
  0
VERTEX
  8
0
  6
CONTINUOUS
 62
     7
 10
122.3931123459273
 20
235.826790579504
 42
0.004065033752069493
  0
VERTEX
  8
0
  6
CONTINUOUS
 62
     7
 10
122.2267993616173
 20
235.8508367356638
 42
0.004065033752069493
  0
VERTEX
  8
0
  6
CONTINUOUS
 62
     7
 10
122.0603543032381
 20
235.8680171039342
 42
0.004065033752069493
  0
VERTEX
  8
0
  6
CONTINUOUS
 62
     7
 10
121.8938211760757
 20
235.8783271421133
 42
0.004065033752069493
  0
VERTEX
  8
0
  6
CONTINUOUS
 62
     7
 10
121.7272440086999
 20
235.8817641243999
 42
-1
  0
SEQEND
  8
0
  6
CONTINUOUS
 62
     7
  0
POLYLINE
  8
0
  6
CONTINUOUS
 62
     7
 66
     1
 10
0
 20
0
  0
VERTEX
  8
0
  6
CONTINUOUS
 62
     7
 10
137.387904638667
 20
235.0068289146448
 42
0.001176087950496999
  0
VERTEX
  8
0
  6
CONTINUOUS
 62
     7
 10
136.9438756839992
 20
234.7303586359827
 42
-0.03352449988838056
  0
VERTEX
  8
0
  6
CONTINUOUS
 62
     7
 10
136.4777806351532
 20
234.4956130400135
 42
-0.00966736366673251
  0
VERTEX
  8
0
  6
CONTINUOUS
 62
     7
 10
135.9920627888801
 20
234.3011284661852
 42
-0.007776986850818934
  0
VERTEX
  8
0
  6
CONTINUOUS
 62
     7
 10
135.5008470027122
 20
234.1210445124985
 42
-0.01101829463317051
  0
VERTEX
  8
0
  6
CONTINUOUS
 62
     7
 10
135.0035080459182
 20
233.9599087801007
 42
-0.01029783758360308
  0
VERTEX
  8
0
  6
CONTINUOUS
 62
     7
 10
134.4996155757438
 20
233.8202533708077
 42
-0.009341690246161495
  0
VERTEX
  8
0
  6
CONTINUOUS
 62
     7
 10
133.9905367608821
 20
233.7004383315872
 42
-0.008865445602536503
  0
VERTEX
  8
0
  6
CONTINUOUS
 62
     7
 10
133.4774725686673
 20
233.5992200017433
 42
-0.008453759179261593
  0
VERTEX
  8
0
  6
CONTINUOUS
 62
     7
 10
132.9612071238767
 20
233.5158184088008
 42
-0.008878093524325283
  0
VERTEX
  8
0
  6
CONTINUOUS
 62
     7
 10
132.4423456229096
 20
233.4502392074022
 42
-0.009547805320386732
  0
VERTEX
  8
0
  6
CONTINUOUS
 62
     7
 10
131.9214545522423
 20
233.4038217327415
 42
-0.009328932195749311
  0
VERTEX
  8
0
  6
CONTINUOUS
 62
     7
 10
131.3992265858353
 20
233.377368994954
 42
-0.008430932227750083
  0
VERTEX
  8
0
  6
CONTINUOUS
 62
     7
 10
130.8763426112963
 20
233.3694759340651
 42
-0.008167598890122533
  0
VERTEX
  8
0
  6
CONTINUOUS
 62
     7
 10
130.3534037660518
 20
233.3786656667855
 42
-0.009114059637174914
  0
VERTEX
  8
0
  6
CONTINUOUS
 62
     7
 10
129.8311368732339
 20
233.4059135727086
 42
-0.009620804385968186
  0
VERTEX
  8
0
  6
CONTINUOUS
 62
     7
 10
129.3103493611283
 20
233.452921557861
 42
-0.008667217619353192
  0
VERTEX
  8
0
  6
CONTINUOUS
 62
     7
 10
128.7916010541522
 20
233.5189594828376
 42
-0.008120596767982243
  0
VERTEX
  8
0
  6
CONTINUOUS
 62
     7
 10
128.2752580961034
 20
233.6021747302709
 42
-0.009132010913119552
  0
VERTEX
  8
0
  6
CONTINUOUS
 62
     7
 10
127.7621180301395
 20
233.70312500281
 42
-0.009724934509144967
  0
VERTEX
  8
0
  6
CONTINUOUS
 62
     7
 10
127.2532761140691
 20
233.8235484628337
 42
-0.009094184094775975
  0
VERTEX
  8
0
  6
CONTINUOUS
 62
     7
 10
126.7492945925133
 20
233.9630493568528
 42
-0.009662491424217353
  0
VERTEX
  8
0
  6
CONTINUOUS
 62
     7
 10
126.2506428048275
 20
234.120948846283
 42
-0.01172310632244859
  0
VERTEX
  8
0
  6
CONTINUOUS
 62
     7
 10
125.7593456140654
 20
234.2999770564108
 42
-0.0119155893700829
  0
VERTEX
  8
0
  6
CONTINUOUS
 62
     7
 10
125.2773413884835
 20
234.5022847842151
 42
-0.01817163296640285
  0
VERTEX
  8
0
  6
CONTINUOUS
 62
     7
 10
124.8065632797028
 20
234.7303209034097
 42
-0.02220229461542862
  0
VERTEX
  8
0
  6
CONTINUOUS
 62
     7
 10
124.3626310697388
 20
235.0068289146448
 42
0
  0
SEQEND
  8
0
  6
CONTINUOUS
 62
     7
  0
POLYLINE
  8
0
  6
CONTINUOUS
 62
     7
 66
     1
 10
0
 20
0
  0
VERTEX
  8
0
  6
CONTINUOUS
 62
     7
 10
140.0232916997001
 20
235.8817641244
 42
0.00406503375207007
  0
VERTEX
  8
0
  6
CONTINUOUS
 62
     7
 10
139.8567145323243
 20
235.8783271421134
 42
0.00406503375207007
  0
VERTEX
  8
0
  6
CONTINUOUS
 62
     7
 10
139.6901814051619
 20
235.8680171039342
 42
0.00406503375207007
  0
VERTEX
  8
0
  6
CONTINUOUS
 62
     7
 10
139.5237363467826
 20
235.8508367356639
 42
0.00406503375207007
  0
VERTEX
  8
0
  6
CONTINUOUS
 62
     7
 10
139.3574233624726
 20
235.826790579504
 42
0.00406503375207007
  0
VERTEX
  8
0
  6
CONTINUOUS
 62
     7
 10
139.1912864225995
 20
235.7958849928556
 42
0.00406503375207007
  0
VERTEX
  8
0
  6
CONTINUOUS
 62
     7
 10
139.0253694509879
 20
235.7581281466383
 42
0.00406503375207007
  0
VERTEX
  8
0
  6
CONTINUOUS
 62
     7
 10
138.8597163133065
 20
235.7135300231297
 42
0.00406503375207007
  0
VERTEX
  8
0
  6
CONTINUOUS
 62
     7
 10
138.6943708054706
 20
235.6621024133269
 42
0.00406503375207007
  0
VERTEX
  8
0
  6
CONTINUOUS
 62
     7
 10
138.5293766420635
 20
235.6038589138286
 42
0.00406503375207007
  0
VERTEX
  8
0
  6
CONTINUOUS
 62
     7
 10
138.3647774447788
 20
235.5388149232408
 42
0.00406503375207007
  0
VERTEX
  8
0
  6
CONTINUOUS
 62
     7
 10
138.2006167308876
 20
235.4669876381051
 42
0.00406503375207007
  0
VERTEX
  8
0
  6
CONTINUOUS
 62
     7
 10
138.0369379017335
 20
235.3883960483529
 42
0.00406503375207007
  0
VERTEX
  8
0
  6
CONTINUOUS
 62
     7
 10
137.8737842312577
 20
235.3030609322844
 42
0.00406503375207007
  0
VERTEX
  8
0
  6
CONTINUOUS
 62
     7
 10
137.7111988545584
 20
235.2110048510751
 42
0.00406503375207007
  0
VERTEX
  8
0
  6
CONTINUOUS
 62
     7
 10
137.5492247564862
 20
235.1122521428111
 42
0.00406503375207007
  0
VERTEX
  8
0
  6
CONTINUOUS
 62
     7
 10
137.3879047602803
 20
235.0068289160547
 42
-1
  0
SEQEND
  8
0
  6
CONTINUOUS
 62
     7
  0
POLYLINE
  8
0
  6
CONTINUOUS
 62
     7
 66
     1
 10
0
 20
0
  0
VERTEX
  8
0
  6
CONTINUOUS
 62
     7
 10
125.8701093702208
 20
223.4977401152873
 42
-0.00111645657750082
  0
VERTEX
  8
0
  6
CONTINUOUS
 62
     7
 10
125.8244352264996
 20
224.1460705699031
 42
0.001828495949518299
  0
VERTEX
  8
0
  6
CONTINUOUS
 62
     7
 10
125.77954229058
 20
224.7944740997829
 42
0.006322929863945659
  0
VERTEX
  8
0
  6
CONTINUOUS
 62
     7
 10
125.7232547163338
 20
225.4418930443686
 42
0.004988324667136922
  0
VERTEX
  8
0
  6
CONTINUOUS
 62
     7
 10
125.6522010755924
 20
226.0878853058849
 42
0.003575535836674461
  0
VERTEX
  8
0
  6
CONTINUOUS
 62
     7
 10
125.5701664960603
 20
226.732638829522
 42
0.004735550723314695
  0
VERTEX
  8
0
  6
CONTINUOUS
 62
     7
 10
125.4777335912472
 20
227.3759694670032
 42
0.006372805236869133
  0
VERTEX
  8
0
  6
CONTINUOUS
 62
     7
 10
125.3710349574945
 20
228.0170592901719
 42
0.007634740524198371
  0
VERTEX
  8
0
  6
CONTINUOUS
 62
     7
 10
125.2463119113681
 20
228.6549324944396
 42
0.008726204483607437
  0
VERTEX
  8
0
  6
CONTINUOUS
 62
     7
 10
125.1008019646063
 20
229.2883334638578
 42
0.01009452876265595
  0
VERTEX
  8
0
  6
CONTINUOUS
 62
     7
 10
124.9317020217782
 20
229.9156356311094
 42
0.01164933038205793
  0
VERTEX
  8
0
  6
CONTINUOUS
 62
     7
 10
124.7354307345946
 20
230.5352011920559
 42
0.0155233355284208
  0
VERTEX
  8
0
  6
CONTINUOUS
 62
     7
 10
124.5062183013873
 20
231.1438462995358
 42
0.01990389853822291
  0
VERTEX
  8
0
  6
CONTINUOUS
 62
     7
 10
124.2346119395178
 20
231.7334096236092
 42
0.01488098636383313
  0
VERTEX
  8
0
  6
CONTINUOUS
 62
     7
 10
123.9220277978076
 20
232.3021822108755
 42
0.02522413708014433
  0
VERTEX
  8
0
  6
CONTINUOUS
 62
     7
 10
123.5718729073172
 20
232.8493932470782
 42
0.05907269210838565
  0
VERTEX
  8
0
  6
CONTINUOUS
 62
     7
 10
123.1335908446593
 20
233.32681228437
 42
-0.009200453763508257
  0
VERTEX
  8
0
  6
CONTINUOUS
 62
     7
 10
122.6452049651522
 20
233.7556104772461
 42
0
  0
SEQEND
  8
0
  6
CONTINUOUS
 62
     7
  0
POLYLINE
  8
0
  6
CONTINUOUS
 62
     7
 66
     1
 10
0
 20
0
  0
VERTEX
  8
0
  6
CONTINUOUS
 62
     7
 10
139.1064327417504
 20
233.7565982074166
 42
-0.004160502005905806
  0
VERTEX
  8
0
  6
CONTINUOUS
 62
     7
 10
138.6148821722814
 20
233.3309498784734
 42
0.05487325540529676
  0
VERTEX
  8
0
  6
CONTINUOUS
 62
     7
 10
138.1860406084451
 20
232.8465222122553
 42
0.01886199191097583
  0
VERTEX
  8
0
  6
CONTINUOUS
 62
     7
 10
137.8300684707582
 20
232.3020567067707
 42
0.01870135555433313
  0
VERTEX
  8
0
  6
CONTINUOUS
 62
     7
 10
137.5128194521168
 20
231.7346286830882
 42
0.02033686340385857
  0
VERTEX
  8
0
  6
CONTINUOUS
 62
     7
 10
137.2431457761695
 20
231.1441009052232
 42
0.01466869874204529
  0
VERTEX
  8
0
  6
CONTINUOUS
 62
     7
 10
137.0151820565689
 20
230.5355599996655
 42
0.01165060812123206
  0
VERTEX
  8
0
  6
CONTINUOUS
 62
     7
 10
136.818694221519
 20
229.9159563455211
 42
0.01023426576873653
  0
VERTEX
  8
0
  6
CONTINUOUS
 62
     7
 10
136.6495541334787
 20
229.288518996068
 42
0.008854688838020644
  0
VERTEX
  8
0
  6
CONTINUOUS
 62
     7
 10
136.5044741919627
 20
228.655086258118
 42
0.007508043968085916
  0
VERTEX
  8
0
  6
CONTINUOUS
 62
     7
 10
136.3801841011887
 20
228.0171947679649
 42
0.00599167902230825
  0
VERTEX
  8
0
  6
CONTINUOUS
 62
     7
 10
136.273217501964
 20
227.3762089553701
 42
0.00437766881058179
  0
VERTEX
  8
0
  6
CONTINUOUS
 62
     7
 10
136.1795625391714
 20
226.733117323334
 42
0.004196392092874536
  0
VERTEX
  8
0
  6
CONTINUOUS
 62
     7
 10
136.0962699011734
 20
226.0885026493433
 42
0.005719995962879102
  0
VERTEX
  8
0
  6
CONTINUOUS
 62
     7
 10
136.0257810685874
 20
225.4424094578342
 42
0.006317821060315742
  0
VERTEX
  8
0
  6
CONTINUOUS
 62
     7
 10
135.9714706239456
 20
224.7948265611707
 42
0.001025026303927963
  0
VERTEX
  8
0
  6
CONTINUOUS
 62
     7
 10
135.9269018918544
 20
224.1464606964646
 42
-0.00094718367290636
  0
VERTEX
  8
0
  6
CONTINUOUS
 62
     7
 10
135.880426338185
 20
223.4977401152873
 42
0
  0
SEQEND
  8
0
  6
CONTINUOUS
 62
     7
  0
TEXT
  8
0
  6
CONTINUOUS
 62
     7
 10
144.4829525239146
 20
24.4043760262
 40
3.5
 41
0.999999990841063
  1
承認図
  0
TEXT
  8
0
  6
CONTINUOUS
 62
     7
 10
144.5035312912543
 20
13.4499156331
 40
3.5
 41
0.999999965940203
  1
15C
  0
TEXT
  8
0
  6
CONTINUOUS
 62
     7
 10
368.8137910497637
 20
12.1218643532
 40
4
 41
0.999999980131785
  1
11458XN
  0
TEXT
  8
0
  6
CONTINUOUS
 62
     7
 10
300.0339577240455
 20
24.4535170093
 40
3.5
 41
0.9999999928295166
  1
1/1
  0
TEXT
  8
0
  6
CONTINUOUS
 62
     7
 10
22.83064857048562
 20
24.8405660149
 40
3.5
 41
0.999999990841063
  1
改
  0
TEXT
  8
0
  6
CONTINUOUS
 62
     7
 10
22.79008058258562
 20
13.1991160449
 40
3.5
 41
0.999999990841063
  1
訂
  0
TEXT
  8
0
  6
CONTINUOUS
 62
     7
 10
232.3576575739856
 20
27.1265055606
 40
3.5
 41
0.999999990841063
  1
個
  0
TEXT
  8
0
  6
CONTINUOUS
 62
     7
 10
232.3785618997856
 20
21.8099230549
 40
3.5
 41
0.999999990841063
  1
数
  0
TEXT
  8
0
  6
CONTINUOUS
 62
     7
 10
252.3573601131856
 20
27.2135347901
 40
3.5
 41
0.999999990841063
  1
備
  0
TEXT
  8
0
  6
CONTINUOUS
 62
     7
 10
252.3573601131856
 20
21.89094924
 40
3.5
 41
0.999999990841063
  1
考
  0
TEXT
  8
0
  6
CONTINUOUS
 62
     7
 10
292.3664626112856
 20
27.2140371347
 40
3.5
 41
0.999999990841063
  1
尺
  0
TEXT
  8
0
  6
CONTINUOUS
 62
     7
 10
292.3664626112856
 20
21.8756764025
 40
3.5
 41
0.999999990841063
  1
度
  0
TEXT
  8
0
  6
CONTINUOUS
 62
     7
 10
294.8445745198566
 20
13.62539712628709
 40
2.910416603088379
 41
1.00000005175482
  1
第三角法
  0
TEXT
  8
0
  6
CONTINUOUS
 62
     7
 10
311.7573695106618
 20
27.8665179718
 40
2.5
 41
1.000000025187077
  1
製図・設計
  0
TEXT
  8
0
  6
CONTINUOUS
 62
     7
 10
329.6575469961812
 20
27.8767715663
 40
2.5
 41
0.9999999629349268
  1
照　査
  0
TEXT
  8
0
  6
CONTINUOUS
 62
     7
 10
361.9587497540121
 20
12.21051050407105
 40
3.43958330154419
 41
0.9999999844038723
  1
No.
  0
TEXT
  8
0
  6
CONTINUOUS
 62
     7
 10
81.62483339036361
 20
10.839849553
 40
2.5
 41
0.9999999959929653
  1
変　更　内　容
  0
TEXT
  8
0
  6
CONTINUOUS
 62
     7
 10
344.6694607342812
 20
27.8495078451
 40
2.5
 41
0.9999999629349268
  1
承　認
  0
TEXT
  8
0
  6
CONTINUOUS
 62
     7
 10
358.649968221681
 20
21.23552161395814
 40
2.381249904632568
 41
1.000000018773118
  1
WEST
  0
TEXT
  8
0
  6
CONTINUOUS
 62
     7
 10
126.6394502877812
 20
10.8615953766
 40
2.5
 41
0.9999999629349268
  1
通知書
  0
TEXT
  8
0
  6
CONTINUOUS
 62
     7
 10
39.60736549722274
 20
10.8631807449
 40
2.5
 41
1.000000044077384
  1
日付
  0
TEXT
  8
0
  6
CONTINUOUS
 62
     7
 10
50.64711552448119
 20
10.8679988301
 40
2.5
 41
0.9999999629349268
  1
担当者
  0
TEXT
  8
0
  6
CONTINUOUS
 62
     7
 10
28.09973298782274
 20
10.8496635672
 40
2.5
 41
1.000000044077384
  1
記号
  0
TEXT
  8
0
  6
CONTINUOUS
 62
     7
 10
199.3534685855856
 20
27.1265055606
 40
3.5
 41
0.999999990841063
  1
材
  0
TEXT
  8
0
  6
CONTINUOUS
 62
     7
 10
199.3493376109856
 20
21.8099230549
 40
3.5
 41
0.999999990841063
  1
質
  0
TEXT
  8
0
  6
CONTINUOUS
 62
     7
 10
139.3570394311856
 20
27.1265055606
 40
3.5
 41
0.999999990841063
  1
名
  0
TEXT
  8
0
  6
CONTINUOUS
 62
     7
 10
139.3779437570856
 20
21.8099230549
 40
3.5
 41
0.999999990841063
  1
称
  0
TEXT
  8
0
  6
CONTINUOUS
 62
     7
 10
139.3570394311856
 20
16.1265055606
 40
3.5
 41
0.999999990841063
  1
品
  0
TEXT
  8
0
  6
CONTINUOUS
 62
     7
 10
139.3779437570856
 20
11.2039464804
 40
3.5
 41
0.999999990841063
  1
名
  0
TEXT
  8
0
  6
CONTINUOUS
 62
     7
 10
199.3534685855856
 20
16.1265055606
 40
3.5
 41
0.999999990841063
  1
工
  0
TEXT
  8
0
  6
CONTINUOUS
 62
     7
 10
199.3493376109856
 20
11.2039464804
 40
3.5
 41
0.999999990841063
  1
番
  0
TEXT
  8
0
  6
CONTINUOUS
 62
     7
 10
427.9159859777699
 20
8.516097767971047
 40
7.40833330154419
 41
0.9999999742540116
  1
A3
  0
TEXT
  8
0
  6
CONTINUOUS
 62
     7
 10
357.4445664049857
 20
10.8030460666
 40
3.5
 41
0.999999990841063
  1
番
  0
TEXT
  8
0
  6
CONTINUOUS
 62
     7
 10
357.4445664049857
 20
16.1414067988
 40
3.5
 41
0.999999990841063
  1
図
  0
TEXT
  8
0
  6
CONTINUOUS
 62
     7
 10
311.5649907757455
 20
10.34277406098827
 40
3
 41
0.4363283775048482
  1
′０８．１０．２０
  0
TEXT
  8
0
  6
CONTINUOUS
 62
     7
 10
406.0292860479244
 20
6.608558424531513
 40
1.852083325386047
 41
0.9999999742540116
  1
A3
  0
DIMENSION
  8
0
  6
CONTINUOUS
 62
     7
  2
*D1
 70
     0
 10
150.8752678542
 20
36.7377479218
 11
130.8752678542
 21
36.7377479218
  3
DIMSTYLE
 13
110.8752678542
 23
80.1500358328
 14
150.8752678542
 24
80.1500358328
 50
0
1001
ACAD
1000
DSTYLE
1002
{
1070
    77
1070
     1
1070
   172
1070
     1
1070
   147
1040
0
1002
}
  0
DIMENSION
  8
0
  6
CONTINUOUS
 62
     7
  2
*D2
 70
     0
 10
135.6252678542
 20
159.4683244661
 11
130.8752678542
 21
159.4683244661
  3
DIMSTYLE
 13
126.1252678542
 23
149.7996948787
 14
135.6252678542
 24
149.7996948787
 50
0
1001
ACAD
1000
DSTYLE
1002
{
1070
    77
1070
     1
1070
   172
1070
     1
1070
   147
1040
0
1002
}
  0
DIMENSION
  8
0
  6
CONTINUOUS
 62
     7
  2
*D3
 70
     0
 10
296.5717562151
 20
48.22147815922061
 11
304.6194954466665
 21
48.22147815922061
  3
DIMSTYLE
 13
299.5717562151
 23
62.6500358328
 14
296.5717562151
 24
61.1500358328
 50
0
1001
ACAD
1000
DSTYLE
1002
{
1070
    77
1070
     1
1070
   172
1070
     1
1070
   147
1040
0
1002
}
  0
DIMENSION
  8
0
  6
CONTINUOUS
 62
     7
  2
*D4
 70
     0
 10
287.0717562151
 20
42.11180728038512
 11
293.3217562151
 21
42.11180728038512
  3
DIMSTYLE
 13
299.5717562151
 23
62.6500358328
 14
287.0717562151
 24
61.1500358328
 50
0
1001
ACAD
1000
DSTYLE
1002
{
1070
    77
1070
     1
1070
   172
1070
     1
1070
   147
1040
0
1002
}
  0
DIMENSION
  8
0
  6
CONTINUOUS
 62
     7
  2
*D5
 70
     0
 10
335.0497708952
 20
60.1500358328
 11
335.0497708952
 21
50.1500358328
  3
DIMSTYLE
 13
299.5717562151
 23
62.6500358328
 14
295.5717562151
 24
60.1500358328
 50
90
1001
ACAD
1000
DSTYLE
1002
{
1070
    77
1070
     1
1070
   172
1070
     1
1070
   147
1040
0
1002
}
  0
DIMENSION
  8
0
  6
CONTINUOUS
 62
     7
  2
*D6
 70
     0
 10
335.0497708952
 20
116.6500358328
 11
335.0497708952
 21
89.6500358328
  3
DIMSTYLE
 13
299.5717562151
 23
62.6500358328
 14
299.5717562151
 24
116.6500358328
 50
90
1001
ACAD
1000
DSTYLE
1002
{
1070
    77
1070
     1
1070
   172
1070
     1
1070
   147
1040
0
1002
}
  0
DIMENSION
  8
0
  6
CONTINUOUS
 62
     7
  2
*D7
 70
     0
 10
341.7938814348
 20
60.1500358328
 11
341.7938814348
 21
105.4748653557
  3
DIMSTYLE
 13
247.9684059965
 23
150.7996948787
 14
295.5717562151
 24
60.1500358328
 50
90
1001
ACAD
1000
DSTYLE
1002
{
1070
    77
1070
     1
1070
   172
1070
     1
1070
   147
1040
0
1002
}
  0
DIMENSION
  8
0
  6
CONTINUOUS
 62
     7
  2
*D8
 70
     0
 10
243.2184059965
 20
36.7377479218
 11
271.3950811058
 21
36.7377479218
  3
DIMSTYLE
 13
299.5717562151
 23
62.6500358328
 14
243.2184059965
 24
146.0496948787
 50
0
1001
ACAD
1000
DSTYLE
1002
{
1070
    77
1070
     1
1070
   172
1070
     1
1070
   147
1040
0
1002
}
  0
DIMENSION
  8
0
  6
CONTINUOUS
 62
     7
  2
*D9
 70
     0
 10
296.5717562151
 20
48.22147815922061
 11
283.1789666175346
 21
48.22147815922061
  3
DIMSTYLE
 13
287.0717562151
 23
61.1500358328
 14
296.5717562151
 24
61.1500358328
 50
0
1001
ACAD
1000
DSTYLE
1002
{
1070
    77
1070
     1
1070
   172
1070
     1
1070
   147
1040
0
1002
}
  0
DIMENSION
  8
0
  6
CONTINUOUS
 62
     7
  2
*D10
 70
     0
 10
328.3056603557
 20
80.1500358328
 11
328.3056603557
 21
94.1500358328
  3
DIMSTYLE
 13
324.0195135193
 23
108.1500358328
 14
323.6918305864
 24
80.1500358328
 50
90
1001
ACAD
1000
DSTYLE
1002
{
1070
    77
1070
     1
1070
   172
1070
     1
1070
   147
1040
0
1002
}
  0
DIMENSION
  8
0
  6
CONTINUOUS
 62
     7
  2
*D11
 70
     0
 10
328.3056603557
 20
68.1500358328
 11
328.3056603557
 21
74.1500358328
  3
DIMSTYLE
 13
323.6918305864
 23
80.1500358328
 14
323.52798912
 24
68.1500358328
 50
90
1001
ACAD
1000
DSTYLE
1002
{
1070
    77
1070
     1
1070
   172
1070
     1
1070
   147
1040
0
1002
}
  0
DIMENSION
  8
0
  6
CONTINUOUS
 62
     7
  2
*D12
 70
     0
 10
118.3752678542
 20
270.4434508436
 11
130.8752678542
 21
270.4434508436
  3
DIMSTYLE
 13
143.3752678542
 23
264.1163564253
 14
118.3752678542
 24
264.9191595968
 50
0
1001
ACAD
1000
DSTYLE
1002
{
1070
    77
1070
     1
1070
   172
1070
     1
1070
   147
1040
0
1002
}
  0
DIMENSION
  8
0
  6
CONTINUOUS
 62
     7
  2
*D13
 70
     0
 10
148.3752678542
 20
277.2817641244
 11
130.8752678542
 21
277.2817641244
  3
DIMSTYLE
 13
113.3752678542
 23
238.8817641244
 14
148.3752678542
 24
238.8817641244
 50
0
1001
ACAD
1000
DSTYLE
1002
{
1070
    77
1070
     1
1070
   172
1070
     1
1070
   147
1040
0
1002
}
  0
ENDSEC
  0
EOF
