  0
SECTION
  2
HEADER
  9
$EXTMAX
 10
297
 20
210
 30
0
  9
$EXTMIN
 10
0
 20
0
 30
0
  9
$LIMMAX
 10
297
 20
210
  9
$LIMMIN
 10
0
 20
0
  9
$PLIMMAX
 10
297
 20
210
  9
$PLIMMIN
 10
0
 20
0
  9
$PEXTMAX
 10
297
 20
210
 30
0
  9
$PEXTMIN
 10
0
 20
0
 30
0
  9
$TEXTSIZE
 40
3.2
  9
$DIMSHO
 70
     0
  9
$DIMASZ
 40
1.0
  9
$DIMTAD
 70
     1
  9
$DIMTIH
 70
     0
  9
$DIMTOH
 70
     0
  9
$DIMEXE
 40
2.54
  9
$DIMEXO
 40
2.54
  9
$DIMTVP
 40
1.0
  9
$DIMSAH
 70
     1
  9
$DIMDLE
 40
0.0
  9
$DIMTXT
 40
3.200000047683716
  9
$DIMGAP
 40
1.600000023841858
  0
ENDSEC
  0
SECTION
  2
TABLES
  0
TABLE
  2
LTYPE
 70
     53
  0
LTYPE
  2
CONTINUOUS
 70
    64
  3
Solid line
 72
    65
 73
     0
 40
0.0
  0
LTYPE
  2
ACAD_ISO02W100
 70
     0
  3
ISO dash __ __ __ __ __ __ __ __ __ __ __ __ __
 72
    65
 73
     2
 40
15.0
 49
12.0
 49
-3.0
  0
LTYPE
  2
ACAD_ISO03W100
 70
     0
  3
ISO dash space __    __    __    __    __    __
 72
    65
 73
     2
 40
30.0
 49
12.0
 49
-18.0
  0
LTYPE
  2
ACAD_ISO04W100
 70
     0
  3
ISO long-dash dot ____ . ____ . ____ . ____ . _
 72
    65
 73
     4
 40
30.0
 49
24.0
 49
-3.0
 49
0.0
 49
-3.0
  0
LTYPE
  2
ACAD_ISO05W100
 70
     0
  3
ISO long-dash double-dot ____ .. ____ .. ____ .
 72
    65
 73
     6
 40
33.0
 49
24.0
 49
-3.0
 49
0.0
 49
-3.0
 49
0.0
 49
-3.0
  0
LTYPE
  2
ACAD_ISO06W100
 70
     0
  3
ISO long-dash triple-dot ____ ... ____ ... ____
 72
    65
 73
     8
 40
36.0
 49
24.0
 49
-3.0
 49
0.0
 49
-3.0
 49
0.0
 49
-3.0
 49
0.0
 49
-3.0
  0
LTYPE
  2
ACAD_ISO07W100
 70
     0
  3
ISO dot . . . . . . . . . . . . . . . . . . . .
 72
    65
 73
     2
 40
3.0
 49
0.0
 49
-3.0
  0
LTYPE
  2
ACAD_ISO08W100
 70
     0
  3
ISO long-dash short-dash ____ __ ____ __ ____ _
 72
    65
 73
     4
 40
36.0
 49
24.0
 49
-3.0
 49
6.0
 49
-3.0
  0
LTYPE
  2
ACAD_ISO09W100
 70
     0
  3
ISO long-dash double-short-dash ____ __ __ ____
 72
    65
 73
     6
 40
45.0
 49
24.0
 49
-3.0
 49
6.0
 49
-3.0
 49
6.0
 49
-3.0
  0
LTYPE
  2
ACAD_ISO10W100
 70
     0
  3
ISO dash dot __ . __ . __ . __ . __ . __ . __ .
 72
    65
 73
     4
 40
18.0
 49
12.0
 49
-3.0
 49
0.0
 49
-3.0
  0
LTYPE
  2
ACAD_ISO11W100
 70
     0
  3
ISO double-dash dot __ __ . __ __ . __ __ . __ 
 72
    65
 73
     6
 40
33.0
 49
12.0
 49
-3.0
 49
12.0
 49
-3.0
 49
0.0
 49
-3.0
  0
LTYPE
  2
ACAD_ISO12W100
 70
     0
  3
ISO dash double-dot __ . . __ . . __ . . __ . .
 72
    65
 73
     6
 40
21.0
 49
12.0
 49
-3.0
 49
0.0
 49
-3.0
 49
0.0
 49
-3.0
  0
LTYPE
  2
ACAD_ISO13W100
 70
     0
  3
ISO double-dash double-dot __ __ . . __ __ . . 
 72
    65
 73
     8
 40
36.0
 49
12.0
 49
-3.0
 49
12.0
 49
-3.0
 49
0.0
 49
-3.0
 49
0.0
 49
-3.0
  0
LTYPE
  2
ACAD_ISO14W100
 70
     0
  3
ISO dash triple-dot __ . . . __ . . . __ . . . 
 72
    65
 73
     8
 40
24.0
 49
12.0
 49
-3.0
 49
0.0
 49
-3.0
 49
0.0
 49
-3.0
 49
0.0
 49
-3.0
  0
LTYPE
  2
ACAD_ISO15W100
 70
     0
  3
ISO double-dash triple-dot __ __ . . . __ __ . 
 72
    65
 73
    10
 40
39.0
 49
12.0
 49
-3.0
 49
12.0
 49
-3.0
 49
0.0
 49
-3.0
 49
0.0
 49
-3.0
 49
0.0
 49
-3.0
  0
LTYPE
  2
BORDER
 70
    64
  3
Border __ __ . __ __ . __ __ . __ __ . __ __ .
 72
    65
 73
     6
 40
3.5
 49
1.0
 49
-0.5
 49
1.0
 49
-0.5
 49
0.0
 49
-0.5
  0
LTYPE
  2
BORDER2
 70
    64
  3
Border (.5x) __.__.__.__.__.__.__.__.__.__.__.
 72
    65
 73
     6
 40
1.75
 49
0.5
 49
-0.25
 49
0.5
 49
-0.25
 49
0.0
 49
-0.25
  0
LTYPE
  2
BORDERX2
 70
    64
  3
Border (2x) ____  ____  .  ____  ____  .  ___
 72
    65
 73
     6
 40
7.0
 49
2.0
 49
-1.0
 49
2.0
 49
-1.0
 49
0.0
 49
-1.0
  0
LTYPE
  2
CENTER
 70
    64
  3
Center ____ _ ____ _ ____ _ ____ _ ____ _ ____
 72
    65
 73
     4
 40
12.0
 49
7.5
 49
-1.5
 49
1.5
 49
-1.5
  0
LTYPE
  2
CENTER2
 70
    64
  3
Center (.5x) ___ _ ___ _ ___ _ ___ _ ___ _ ___
 72
    65
 73
     4
 40
6.0
 49
3.75
 49
-0.75
 49
0.75
 49
-0.75
  0
LTYPE
  2
CENTERX2
 70
    64
  3
Center (2x) ________  __  ________  __  _____
 72
    65
 73
     4
 40
24.0
 49
15.0
 49
-3.0
 49
3.0
 49
-3.0
  0
LTYPE
  2
DASHDOT
 70
    64
  3
Dash dot __ . __ . __ . __ . __ . __ . __ . __
 72
    65
 73
     4
 40
6.0
 49
3.0
 49
-1.5
 49
0.0
 49
-1.5
  0
LTYPE
  2
DASHDOT2
 70
    64
  3
Dash dot (.5x) _._._._._._._._._._._._._._._.
 72
    65
 73
     4
 40
3.0
 49
1.5
 49
-0.75
 49
0.0
 49
-0.75
  0
LTYPE
  2
DASHDOTX2
 70
    64
  3
Dash dot (2x) ____  .  ____  .  ____  .  ___
 72
    65
 73
     4
 40
12.0
 49
6.0
 49
-3.0
 49
0.0
 49
-3.0
  0
LTYPE
  2
DASHED
 70
    64
  3
Dashed __ __ __ __ __ __ __ __ __ __ __ __ __ _
 72
    65
 73
     2
 40
4.5
 49
3.0
 49
-1.5
  0
LTYPE
  2
DASHED2
 70
    64
  3
Dashed (.5x) _ _ _ _ _ _ _ _ _ _ _ _ _ _ _ _ _
 72
    65
 73
     2
 40
2.25
 49
1.5
 49
-0.75
  0
LTYPE
  2
DASHEDX2
 70
    64
  3
Dashed (2x) ____  ____  ____  ____  ____  ___
 72
    65
 73
     2
 40
9.0
 49
6.0
 49
-3.0
  0
LTYPE
  2
DIVIDE
 70
    64
  3
Divide ____ . . ____ . . ____ . . ____ . . ____
 72
    65
 73
     6
 40
7.5
 49
3.0
 49
-1.5
 49
0.0
 49
-1.5
 49
0.0
 49
-1.5
  0
LTYPE
  2
DIVIDE2
 70
    64
  3
Divide (.5x) __..__..__..__..__..__..__..__.._
 72
    65
 73
     6
 40
3.75
 49
1.5
 49
-0.75
 49
0.0
 49
-0.75
 49
0.0
 49
-0.75
  0
LTYPE
  2
DIVIDEX2
 70
    64
  3
Divide (2x) ________  .  .  ________  .  .  _
 72
    65
 73
     6
 40
15.0
 49
6.0
 49
-3.0
 49
0.0
 49
-3.0
 49
0.0
 49
-3.0
  0
LTYPE
  2
DOT
 70
    64
  3
Dot . . . . . . . . . . . . . . . . . . . . . .
 72
    65
 73
     2
 40
1.5
 49
0.0
 49
-1.5
  0
LTYPE
  2
DOT2
 70
    64
  3
Dot (.5x) .....................................
 72
    65
 73
     2
 40
0.75
 49
0.0
 49
-0.75
  0
LTYPE
  2
DOTX2
 70
    64
  3
Dot (2x) .  .  .  .  .  .  .  .  .  .  .  .  . 
 72
    65
 73
     2
 40
3.0
 49
0.0
 49
-3.0
  0
LTYPE
  2
HIDDEN
 70
    64
  3
Hidden __ __ __ __ __ __ __ __ __ __ __ __ __ _
 72
    65
 73
     2
 40
4.5
 49
3.0
 49
-1.5
  0
LTYPE
  2
HIDDEN2
 70
    64
  3
Hidden (.5x) _ _ _ _ _ _ _ _ _ _ _ _ _ _ _ _ _
 72
    65
 73
     2
 40
2.25
 49
1.5
 49
-0.75
  0
LTYPE
  2
HIDDENX2
 70
    64
  3
Hidden (2x) ____ ____ ____ ____ ____ ____ ____
 72
    65
 73
     2
 40
9.0
 49
6.0
 49
-3.0
  0
LTYPE
  2
PHANTOM
 70
    64
  3
Phantom ______  __  __  ______  __  __  ______
 72
    65
 73
     6
 40
15.0
 49
7.5
 49
-1.5
 49
1.5
 49
-1.5
 49
1.5
 49
-1.5
  0
LTYPE
  2
PHANTOM2
 70
    64
  3
Phantom (.5x) ___ _ _ ___ _ _ ___ _ _ ___ _ _
 72
    65
 73
     6
 40
7.5
 49
3.75
 49
-0.75
 49
0.75
 49
-0.75
 49
0.75
 49
-0.75
  0
LTYPE
  2
PHANTOMX2
 70
    64
  3
Phantom (2x) ____________    ____    ____   _
 72
    65
 73
     6
 40
30.0
 49
15.0
 49
-3.0
 49
3.0
 49
-3.0
 49
3.0
 49
-3.0
  0
LTYPE
  2
JIS_02_0_7
 70
     0
  3
HIDDEN0.75 _ _ _ _ _ _ _ _ _ _ _ _ _ _ _ _ _
 72
    65
 73
     2
 40
1.3500000000000001
 49
0.75
 49
-0.6
  0
LTYPE
  2
JIS_02_1_0
 70
     0
  3
HIDDEN01 _ _ _ _ _ _ _ _ _ _ _ _ _ _ _ _ _
 72
    65
 73
     2
 40
2.0
 49
1.0
 49
-1.0
  0
LTYPE
  2
JIS_02_1_2
 70
     0
  3
HIDDEN01.25  _ _ _ _ _ _ _ _ _ _ _ _ _ _ _ _ _
 72
    65
 73
     2
 40
2.5
 49
1.25
 49
-1.25
  0
LTYPE
  2
JIS_02_2_0
 70
     0
  3
HIDDEN02 __ __ __ __ __ __ __ __ __ __ __
 72
    65
 73
     2
 40
3.0
 49
2.0
 49
-1.0
  0
LTYPE
  2
JIS_02_4_0
 70
     0
  3
HIDDEN04 ____ ____ ____ ____ ____ ____ ____
 72
    65
 73
     2
 40
5.5
 49
4.0
 49
-1.5
  0
LTYPE
  2
JIS_08_11
 70
     0
  3
1SASEN11 ___ _ ___ _ ___ _ ___ _ ___ _ ___
 72
    65
 73
     4
 40
12.800000000000001
 49
11.0
 49
-0.6
 49
0.6
 49
-0.6
  0
LTYPE
  2
JIS_08_15
 70
     0
  3
1SASEN15 ____ _ ____ _ ____ _ ____ _ ____
 72
    65
 73
     4
 40
17.25
 49
15.0
 49
-0.75
 49
0.75
 49
-0.75
  0
LTYPE
  2
JIS_08_25
 70
     0
  3
1SASEN25 ________  __  ________  __  _____
 72
    65
 73
     4
 40
28.0
 49
25.0
 49
-1.125
 49
0.75
 49
-1.125
  0
LTYPE
  2
JIS_08_37
 70
     0
  3
1SASEN37 ________  __  ________  __  _____
 72
    65
 73
     4
 40
40.499999999999993
 49
37.5
 49
-1.125
 49
0.75
 49
-1.125
  0
LTYPE
  2
JIS_08_50
 70
     0
  3
1SASEN50 _______________  __  ____________
 72
    65
 73
     4
 40
53.0
 49
50.0
 49
-1.125
 49
0.75
 49
-1.125
  0
LTYPE
  2
JIS_09_08
 70
     0
  3
2SASEN8 __ _ _ __ _ _ __ _ _ __ _ _ __ _ _
 72
    65
 73
     6
 40
10.75
 49
8.0
 49
-0.55
 49
0.55
 49
-0.55
 49
0.55
 49
-0.55
  0
LTYPE
  2
JIS_09_15
 70
     0
  3
2SASEN15 ___ _ _ ___ _ _ ___ _ _ ___ _ _ ___
 72
    65
 73
     6
 40
18.899999999999999
 49
15.0
 49
-0.9
 49
0.6
 49
-0.9
 49
0.6
 49
-0.9
  0
LTYPE
  2
JIS_09_29
 70
     0
  3
2SASEN29 ______  __  __  ______  __  __  ___
 72
    65
 73
     6
 40
34.0
 49
29.0
 49
-1.1999999999999991
 49
0.7
 49
-1.1999999999999991
 49
0.7
 49
-1.1999999999999991
  0
LTYPE
  2
JIS_09_50
 70
     0
  3
2SASEN50 ____________  __  __  _____________
 72
    65
 73
     6
 40
55.0
 49
50.0
 49
-1.1999999999999991
 49
0.7
 49
-1.1999999999999991
 49
0.7
 49
-1.1999999999999991
  0
ENDTAB
  0
TABLE
  2
LAYER
 70
     4
  0
LAYER
  2
0
 70
     0
 62
     7
  6
CONTINUOUS
  0
LAYER
  2
1
 70
     0
 62
     7
  6
CONTINUOUS
  0
LAYER
  2
2
 70
     0
 62
     7
  6
CONTINUOUS
  0
LAYER
  2
DEFPOINTS
 70
     0
 62
     7
  6
CONTINUOUS
  0
ENDTAB
  0
TABLE
  2
STYLE
 70
     1
  0
STYLE
  2
STANDARD
 70
     0
 40
0.0
 41
1.0
 50
0.0
 71
     0
 42
0.2
  3
txt
  4
BIGFONT
  0
ENDTAB
  0
TABLE
  2
DIMSTYLE
 70
     1
  0
DIMSTYLE
  2
DIMSTYLE
 70
     0
  3

  4

  5
_OPEN30
  6
_OPEN30
  7
_OPEN30
 40
1
 41
1
 42
1.5
 43
0.38
 44
2.54
 45
0
 46
0
 47
0
 48
0
140
3.200000047683716
141
0.09
142
0
143
25.4
144
1
145
0
146
1
147
1.600000023841858
 71
     0
 72
     0
 73
     0
 74
     0
 75
     0
 76
     0
 78
     0
170
     0
171
     2
 77
     0
172
     0
173
     1
174
     0
175
     0
176
     0
177
     0
178
     0
  0
ENDTAB
  0
ENDSEC
  0
SECTION
  2
BLOCKS
  0
BLOCK
  8
0
  2
_OPEN30
 70
    64
 10
0
 20
0
  3
_OPEN30
  0
LINE
  8
0
  6
BYBLOCK
 62
     0
 10
0
 20
0
 11
-2.999999954944514
 21
-0.9999999849815249
  0
LINE
  8
0
  6
BYBLOCK
 62
     0
 10
0
 20
0
 11
-2.999999954944526
 21
0.9999999849814883
  0
LINE
  8
0
  6
BYBLOCK
 62
     0
 10
0
 20
0
 11
-2.99999995494452
 21
0
  0
ENDBLK
  8
0
  0
BLOCK
  8
0
  2
*D1
 70
    65
 10
0
 20
0
  0
LINE
  8
0
  6
CONTINUOUS
 62
     7
 10
204.6973434519
 20
164.8226399157555
 11
204.6973434519
 21
44.82263982564452
  0
INSERT
  8
0
  6
CONTINUOUS
 62
     7
  2
_OPEN30
 10
204.6973434519
 20
167.8226398707
 50
90.00000000000019
  0
INSERT
  8
0
  6
CONTINUOUS
 62
     7
  2
_OPEN30
 10
204.6973434519
 20
41.8226398707
 50
270.0000000000005
  0
LINE
  8
0
  6
CONTINUOUS
 62
     7
 10
176.9473434293723
 20
167.8226398707
 11
206.1973434519
 21
167.8226398707
  0
LINE
  8
0
  6
CONTINUOUS
 62
     7
 10
176.9473434293723
 20
41.8226398707
 11
206.1973434519
 21
41.8226398707
  0
TEXT
  8
0
  6
CONTINUOUS
 62
     7
 10
203.9697393011279
 20
100.8726590157119
 40
2.910416603088379
 41
1.163303518854092
  1
126
 50
90.00000000000003
  0
POINT
  8
DEFPOINTS
  6
CONTINUOUS
 62
     7
 10
175.4473434519
 20
167.8226398707
  0
POINT
  8
DEFPOINTS
  6
CONTINUOUS
 62
     7
 10
175.4473434519
 20
41.8226398707
  0
POINT
  8
DEFPOINTS
  6
CONTINUOUS
 62
     7
 10
204.6973434519
 20
41.8226398707
  0
ENDBLK
  8
0
  0
BLOCK
  8
0
  2
*D2
 70
    65
 10
0
 20
0
  0
LINE
  8
0
  6
CONTINUOUS
 62
     7
 10
198.6973434519
 20
152.3226399157555
 11
198.6973434519
 21
57.32263982564452
  0
INSERT
  8
0
  6
CONTINUOUS
 62
     7
  2
_OPEN30
 10
198.6973434519
 20
155.3226398707
 50
90.00000000000019
  0
INSERT
  8
0
  6
CONTINUOUS
 62
     7
  2
_OPEN30
 10
198.6973434519
 20
54.3226398707
 50
270.0000000000005
  0
LINE
  8
0
  6
CONTINUOUS
 62
     7
 10
146.7973434293723
 20
155.3226398707
 11
200.1973434519
 21
155.3226398707
  0
LINE
  8
0
  6
CONTINUOUS
 62
     7
 10
146.7973434293723
 20
54.3226398707
 11
200.1973434519
 21
54.3226398707
  0
TEXT
  8
0
  6
CONTINUOUS
 62
     7
 10
197.9697393011279
 20
100.8726590157119
 40
2.910416603088379
 41
1.395964222624911
  1
101
 50
90.00000000000003
  0
POINT
  8
DEFPOINTS
  6
CONTINUOUS
 62
     7
 10
145.2973434519
 20
155.3226398707
  0
POINT
  8
DEFPOINTS
  6
CONTINUOUS
 62
     7
 10
145.2973434519
 20
54.3226398707
  0
POINT
  8
DEFPOINTS
  6
CONTINUOUS
 62
     7
 10
198.6973434519
 20
54.3226398707
  0
ENDBLK
  8
0
  0
BLOCK
  8
0
  2
*D3
 70
    65
 10
0
 20
0
  0
LINE
  8
0
  6
CONTINUOUS
 62
     7
 10
192.6973434519
 20
96.22263982564451
 11
192.6973434519
 21
113.4226399157555
  0
INSERT
  8
0
  6
CONTINUOUS
 62
     7
  2
_OPEN30
 10
192.6973434519
 20
93.22263987069999
 50
270.0000000000005
  0
INSERT
  8
0
  6
CONTINUOUS
 62
     7
  2
_OPEN30
 10
192.6973434519
 20
116.4226398707
 50
90.00000000000019
  0
LINE
  8
0
  6
CONTINUOUS
 62
     7
 10
152.4473434293723
 20
93.22263987069999
 11
194.1973434519
 21
93.22263987069999
  0
LINE
  8
0
  6
CONTINUOUS
 62
     7
 10
152.4473434293723
 20
116.4226398707
 11
194.1973434519
 21
116.4226398707
  0
TEXT
  8
0
  6
CONTINUOUS
 62
     7
 10
191.9697393011279
 20
100.2905757189361
 40
2.910416603088379
 41
1.238124945455562
  1
23.2
 50
90.00000000000003
  0
POINT
  8
DEFPOINTS
  6
CONTINUOUS
 62
     7
 10
150.9473434519
 20
93.22263987069999
  0
POINT
  8
DEFPOINTS
  6
CONTINUOUS
 62
     7
 10
150.9473434519
 20
116.4226398707
  0
POINT
  8
DEFPOINTS
  6
CONTINUOUS
 62
     7
 10
192.6973434519
 20
116.4226398707
  0
ENDBLK
  8
0
  0
BLOCK
  8
0
  2
*D4
 70
    65
 10
0
 20
0
  0
LINE
  8
0
  6
CONTINUOUS
 62
     7
 10
93.69734340684451
 20
31.8226398707
 11
133.6973434969555
 21
31.82263987069998
  0
INSERT
  8
0
  6
CONTINUOUS
 62
     7
  2
_OPEN30
 10
90.6973434519
 20
31.8226398707
 50
180.0000000000004
  0
INSERT
  8
0
  6
CONTINUOUS
 62
     7
  2
_OPEN30
 10
136.6973434519
 20
31.8226398707
  0
LINE
  8
0
  6
CONTINUOUS
 62
     7
 10
90.69734345190001
 20
45.32263888002775
 11
90.6973434519
 21
30.3226398707
  0
LINE
  8
0
  6
CONTINUOUS
 62
     7
 10
136.6973434519
 20
45.32263888002775
 11
136.6973434519
 21
30.3226398707
  0
TEXT
  8
0
  6
CONTINUOUS
 62
     7
 10
111.2025708388514
 20
32.5502440214721
 40
2.910416603088379
 41
1.028624950971445
  1
46
  0
POINT
  8
DEFPOINTS
  6
CONTINUOUS
 62
     7
 10
90.6973434519
 20
46.8226388575
  0
POINT
  8
DEFPOINTS
  6
CONTINUOUS
 62
     7
 10
136.6973434519
 20
46.8226388575
  0
POINT
  8
DEFPOINTS
  6
CONTINUOUS
 62
     7
 10
136.6973434519
 20
31.8226398707
  0
ENDBLK
  8
0
  0
BLOCK
  8
0
  2
*D5
 70
    65
 10
0
 20
0
  0
LINE
  8
0
  6
CONTINUOUS
 62
     7
 10
53.69734340684452
 20
25.8226398707
 11
173.6973434969555
 21
25.82263987069998
  0
INSERT
  8
0
  6
CONTINUOUS
 62
     7
  2
_OPEN30
 10
50.6973434519
 20
25.8226398707
 50
180.0000000000004
  0
INSERT
  8
0
  6
CONTINUOUS
 62
     7
  2
_OPEN30
 10
176.6973434519
 20
25.8226398707
  0
LINE
  8
0
  6
CONTINUOUS
 62
     7
 10
50.69734345190001
 20
41.57263989322775
 11
50.6973434519
 21
24.3226398707
  0
LINE
  8
0
  6
CONTINUOUS
 62
     7
 10
176.6973434519
 20
41.57263989322775
 11
176.6973434519
 21
24.3226398707
  0
TEXT
  8
0
  6
CONTINUOUS
 62
     7
 10
109.7473625969119
 20
26.5502440214721
 40
2.910416603088379
 41
1.163303518854092
  1
126
  0
POINT
  8
DEFPOINTS
  6
CONTINUOUS
 62
     7
 10
50.6973434519
 20
43.0726398707
  0
POINT
  8
DEFPOINTS
  6
CONTINUOUS
 62
     7
 10
176.6973434519
 20
43.0726398707
  0
POINT
  8
DEFPOINTS
  6
CONTINUOUS
 62
     7
 10
176.6973434519
 20
25.8226398707
  0
ENDBLK
  8
0
  0
BLOCK
  8
0
  2
*D6
 70
    65
 10
0
 20
0
  0
LINE
  8
0
  6
CONTINUOUS
 62
     7
 10
101.9473434969555
 20
177.8226398707
 11
79.44734340684451
 21
177.8226398707
  0
INSERT
  8
0
  6
CONTINUOUS
 62
     7
  2
_OPEN30
 10
104.9473434519
 20
177.8226398707
  0
INSERT
  8
0
  6
CONTINUOUS
 62
     7
  2
_OPEN30
 10
76.4473434519
 20
177.8226398707
 50
180.0000000000004
  0
LINE
  8
0
  6
CONTINUOUS
 62
     7
 10
104.9473434519
 20
140.9226398481723
 11
104.9473434519
 21
179.3226398707
  0
LINE
  8
0
  6
CONTINUOUS
 62
     7
 10
76.4473434519
 20
140.9226398481723
 11
76.4473434519
 21
179.3226398707
  0
TEXT
  8
0
  6
CONTINUOUS
 62
     7
 10
86.16527930013608
 20
178.5502440214721
 40
2.910416603088379
 41
1.238124945455562
  1
28.5
  0
POINT
  8
DEFPOINTS
  6
CONTINUOUS
 62
     7
 10
104.9473434519
 20
139.4226398707
  0
POINT
  8
DEFPOINTS
  6
CONTINUOUS
 62
     7
 10
76.4473434519
 20
139.4226398707
  0
POINT
  8
DEFPOINTS
  6
CONTINUOUS
 62
     7
 10
76.4473434519
 20
177.8226398707
  0
ENDBLK
  8
0
  0
BLOCK
  8
0
  2
*D7
 70
    65
 10
0
 20
0
  0
LINE
  8
0
  6
CONTINUOUS
 62
     7
 10
107.9473434068445
 20
177.8226398707
 11
119.4473434969555
 21
177.8226398707
  0
INSERT
  8
0
  6
CONTINUOUS
 62
     7
  2
_OPEN30
 10
104.9473434519
 20
177.8226398707
 50
180.0000000000004
  0
INSERT
  8
0
  6
CONTINUOUS
 62
     7
  2
_OPEN30
 10
122.4473434519
 20
177.8226398707
  0
LINE
  8
0
  6
CONTINUOUS
 62
     7
 10
104.9473434519
 20
140.9226398481723
 11
104.9473434519
 21
179.3226398707
  0
LINE
  8
0
  6
CONTINUOUS
 62
     7
 10
122.4473434519
 20
117.9226398481723
 11
122.4473434519
 21
179.3226398707
  0
TEXT
  8
0
  6
CONTINUOUS
 62
     7
 10
109.1652793001361
 20
178.5502440214721
 40
2.910416603088379
 41
1.392890563637508
  1
17.5
  0
POINT
  8
DEFPOINTS
  6
CONTINUOUS
 62
     7
 10
104.9473434519
 20
139.4226398707
  0
POINT
  8
DEFPOINTS
  6
CONTINUOUS
 62
     7
 10
122.4473434519
 20
116.4226398707
  0
POINT
  8
DEFPOINTS
  6
CONTINUOUS
 62
     7
 10
122.4473434519
 20
177.8226398707
  0
ENDBLK
  8
0
  0
BLOCK
  8
0
  2
*D8
 70
    65
 10
0
 20
0
  0
LINE
  8
0
  6
CONTINUOUS
 62
     7
 10
147.9473434969555
 20
177.8226398707
 11
125.4473434068445
 21
177.8226398707
  0
INSERT
  8
0
  6
CONTINUOUS
 62
     7
  2
_OPEN30
 10
150.9473434519
 20
177.8226398707
  0
INSERT
  8
0
  6
CONTINUOUS
 62
     7
  2
_OPEN30
 10
122.4473434519
 20
177.8226398707
 50
180.0000000000004
  0
LINE
  8
0
  6
CONTINUOUS
 62
     7
 10
150.9473434519
 20
117.9226398481723
 11
150.9473434519
 21
179.3226398707
  0
LINE
  8
0
  6
CONTINUOUS
 62
     7
 10
122.4473434519
 20
117.9226398481723
 11
122.4473434519
 21
179.3226398707
  0
TEXT
  8
0
  6
CONTINUOUS
 62
     7
 10
132.1652793001361
 20
178.5502440214721
 40
2.910416603088379
 41
1.238124945455562
  1
28.5
  0
POINT
  8
DEFPOINTS
  6
CONTINUOUS
 62
     7
 10
150.9473434519
 20
116.4226398707
  0
POINT
  8
DEFPOINTS
  6
CONTINUOUS
 62
     7
 10
122.4473434519
 20
116.4226398707
  0
POINT
  8
DEFPOINTS
  6
CONTINUOUS
 62
     7
 10
122.4473434519
 20
177.8226398707
  0
ENDBLK
  8
0
  0
BLOCK
  8
0
  2
*D9
 70
    65
 10
0
 20
0
  0
LINE
  8
0
  6
CONTINUOUS
 62
     7
 10
40.69734345190003
 20
136.4226399157555
 11
40.69734345189999
 21
119.2226398256445
  0
INSERT
  8
0
  6
CONTINUOUS
 62
     7
  2
_OPEN30
 10
40.6973434519
 20
139.4226398707
 50
90.00000000000019
  0
INSERT
  8
0
  6
CONTINUOUS
 62
     7
  2
_OPEN30
 10
40.6973434519
 20
116.2226398707
 50
270.0000000000005
  0
LINE
  8
0
  6
CONTINUOUS
 62
     7
 10
74.94734347442774
 20
139.4226398707
 11
39.1973434519
 21
139.4226398707
  0
LINE
  8
0
  6
CONTINUOUS
 62
     7
 10
74.94734347442774
 20
116.2226398707
 11
39.1973434519
 21
116.2226398707
  0
TEXT
  8
0
  6
CONTINUOUS
 62
     7
 10
39.9697393011279
 20
123.2905757189361
 40
2.910416603088379
 41
1.238124945455562
  1
23.2
 50
90.00000000000003
  0
POINT
  8
DEFPOINTS
  6
CONTINUOUS
 62
     7
 10
76.4473434519
 20
139.4226398707
  0
POINT
  8
DEFPOINTS
  6
CONTINUOUS
 62
     7
 10
76.4473434519
 20
116.2226398707
  0
POINT
  8
DEFPOINTS
  6
CONTINUOUS
 62
     7
 10
40.6973434519
 20
116.2226398707
  0
ENDBLK
  8
0
  0
BLOCK
  8
0
  2
*D10
 70
    65
 10
0
 20
0
  0
LINE
  8
0
  6
CONTINUOUS
 62
     7
 10
40.69734345189999
 20
96.42263982564451
 11
40.69734345190003
 21
113.2226399157555
  0
INSERT
  8
0
  6
CONTINUOUS
 62
     7
  2
_OPEN30
 10
40.6973434519
 20
93.4226398707
 50
270.0000000000005
  0
INSERT
  8
0
  6
CONTINUOUS
 62
     7
  2
_OPEN30
 10
40.6973434519
 20
116.2226398707
 50
90.00000000000019
  0
LINE
  8
0
  6
CONTINUOUS
 62
     7
 10
74.94734347442774
 20
93.42263987069998
 11
39.1973434519
 21
93.4226398707
  0
LINE
  8
0
  6
CONTINUOUS
 62
     7
 10
74.94734347442774
 20
116.2226398707
 11
39.1973434519
 21
116.2226398707
  0
TEXT
  8
0
  6
CONTINUOUS
 62
     7
 10
39.9697393011279
 20
100.2905757189361
 40
2.910416603088379
 41
1.238124945455562
  1
22.8
 50
90.00000000000003
  0
POINT
  8
DEFPOINTS
  6
CONTINUOUS
 62
     7
 10
76.4473434519
 20
93.4226398707
  0
POINT
  8
DEFPOINTS
  6
CONTINUOUS
 62
     7
 10
76.4473434519
 20
116.2226398707
  0
POINT
  8
DEFPOINTS
  6
CONTINUOUS
 62
     7
 10
40.6973434519
 20
116.2226398707
  0
ENDBLK
  8
0
  0
BLOCK
  8
0
  2
*D11
 70
    65
 10
0
 20
0
  0
LINE
  8
0
  6
CONTINUOUS
 62
     7
 10
40.69734345190003
 20
90.42263991575548
 11
40.69734345189999
 21
73.22263982564451
  0
INSERT
  8
0
  6
CONTINUOUS
 62
     7
  2
_OPEN30
 10
40.6973434519
 20
93.4226398707
 50
90.00000000000019
  0
INSERT
  8
0
  6
CONTINUOUS
 62
     7
  2
_OPEN30
 10
40.6973434519
 20
70.22263987069999
 50
270.0000000000005
  0
LINE
  8
0
  6
CONTINUOUS
 62
     7
 10
74.94734347442774
 20
93.42263987069998
 11
39.1973434519
 21
93.4226398707
  0
LINE
  8
0
  6
CONTINUOUS
 62
     7
 10
74.94734347442774
 20
70.22263987069998
 11
39.1973434519
 21
70.22263987069999
  0
TEXT
  8
0
  6
CONTINUOUS
 62
     7
 10
39.9697393011279
 20
77.29057571893608
 40
2.910416603088379
 41
1.238124945455562
  1
23.2
 50
90.00000000000003
  0
POINT
  8
DEFPOINTS
  6
CONTINUOUS
 62
     7
 10
76.4473434519
 20
93.4226398707
  0
POINT
  8
DEFPOINTS
  6
CONTINUOUS
 62
     7
 10
76.4473434519
 20
70.22263987069999
  0
POINT
  8
DEFPOINTS
  6
CONTINUOUS
 62
     7
 10
40.6973434519
 20
70.22263987069999
  0
ENDBLK
  8
0
  0
BLOCK
  8
0
  2
*D12
 70
    65
 10
0
 20
0
  0
LINE
  8
0
  6
CONTINUOUS
 62
     7
 10
239.4422822335
 20
25.8226398707
 11
226.3654263236757
 21
25.8226398707
  0
LINE
  8
0
  6
CONTINUOUS
 62
     7
 10
239.4422822335
 20
25.8226398707
 11
245.9422822335
 21
25.8226398707
  0
INSERT
  8
0
  6
CONTINUOUS
 62
     7
  2
_OPEN30
 10
239.4422822335
 20
25.8226398707
 50
3.562221243239139e-013
  0
LINE
  8
0
  6
CONTINUOUS
 62
     7
 10
236.4422822785555
 20
25.82263987069998
 11
233.0922823288674
 21
25.82263987069996
  0
INSERT
  8
0
  6
CONTINUOUS
 62
     7
  2
_OPEN30
 10
245.9422822335
 20
25.8226398707
 50
180
  0
LINE
  8
0
  6
CONTINUOUS
 62
     7
 10
248.9422821884445
 20
25.8226398707
 11
252.2922821381326
 21
25.8226398707
  0
LINE
  8
0
  6
CONTINUOUS
 62
     7
 10
239.4422822335
 20
41.57263989322775
 11
239.4422822335
 21
24.3226398707
  0
LINE
  8
0
  6
CONTINUOUS
 62
     7
 10
245.9422822335
 20
40.32263989322775
 11
245.9422822335
 21
24.3226398707
  0
TEXT
  8
0
  6
CONTINUOUS
 62
     7
 10
226.3654263236757
 20
26.5502440214721
 40
2.910416603088379
 41
1.357187438663108
  1
6.5
  0
POINT
  8
DEFPOINTS
  6
CONTINUOUS
 62
     7
 10
239.4422822335
 20
43.0726398707
  0
POINT
  8
DEFPOINTS
  6
CONTINUOUS
 62
     7
 10
245.9422822335
 20
41.8226398707
  0
POINT
  8
DEFPOINTS
  6
CONTINUOUS
 62
     7
 10
245.9422822335
 20
25.8226398707
  0
ENDBLK
  8
0
  0
BLOCK
  8
0
  2
KOZU0001
 70
    64
 10
0
 20
0
  0
ENDBLK
  8
0
  0
BLOCK
  8
0
  2
KOZU0002
 70
    64
 10
0
 20
0
  0
ENDBLK
  8
0
  0
BLOCK
  8
0
  2
KOZU0003
 70
    64
 10
0
 20
0
  0
ENDBLK
  8
0
  0
BLOCK
  8
0
  2
KOZU0004
 70
    64
 10
0
 20
0
  0
LINE
  8
0
  6
CONTINUOUS
 62
     7
 10
-1
 20
0.267949
 11
0
 21
0
  0
LINE
  8
0
  6
CONTINUOUS
 62
     7
 10
0
 20
0
 11
-1
 21
-0.267949
  0
LINE
  8
0
  6
CONTINUOUS
 62
     7
 10
0
 20
0
 11
-1
 21
0
  0
ENDBLK
  8
0
  0
BLOCK
  8
0
  2
KOZU0005
 70
    64
 10
0
 20
0
  0
LINE
  8
0
  6
CONTINUOUS
 62
     7
 10
0
 20
0
 11
1
 21
0
  0
LINE
  8
0
  6
CONTINUOUS
 62
     7
 10
0
 20
0
 11
0
 21
1
  0
LINE
  8
0
  6
CONTINUOUS
 62
     7
 10
0
 20
0
 11
-1
 21
0
  0
LINE
  8
0
  6
CONTINUOUS
 62
     7
 10
0
 20
0
 11
0
 21
-1
  0
LINE
  8
0
  6
CONTINUOUS
 62
     7
 10
2
 20
0
 11
4.6
 21
0
  0
LINE
  8
0
  6
CONTINUOUS
 62
     7
 10
0
 20
2
 11
0
 21
17.5930023444
  0
LINE
  8
0
  6
CONTINUOUS
 62
     7
 10
-2
 20
0
 11
-4.6
 21
0
  0
LINE
  8
0
  6
CONTINUOUS
 62
     7
 10
0
 20
-101
 11
1
 21
-101
  0
LINE
  8
0
  6
CONTINUOUS
 62
     7
 10
0
 20
-101
 11
0
 21
-100
  0
LINE
  8
0
  6
CONTINUOUS
 62
     7
 10
0
 20
-101
 11
-1
 21
-101
  0
LINE
  8
0
  6
CONTINUOUS
 62
     7
 10
0
 20
-101
 11
0
 21
-102
  0
LINE
  8
0
  6
CONTINUOUS
 62
     7
 10
2
 20
-101
 11
4.6
 21
-101
  0
LINE
  8
0
  6
CONTINUOUS
 62
     7
 10
-2
 20
-101
 11
-4.6
 21
-101
  0
LINE
  8
0
  6
CONTINUOUS
 62
     7
 10
0
 20
-103
 11
0
 21
-115.6163813235
  0
LINE
  8
0
  6
CENTER
 62
     7
 10
0
 20
-2
 11
0
 21
-99
  0
ENDBLK
  8
0
  0
BLOCK
  8
0
  2
KOZU0006
 70
    64
 10
0
 20
0
  0
LINE
  8
0
  6
CONTINUOUS
 62
     7
 10
0
 20
0
 11
1
 21
0
  0
LINE
  8
0
  6
CONTINUOUS
 62
     7
 10
0
 20
0
 11
0
 21
1
  0
LINE
  8
0
  6
CONTINUOUS
 62
     7
 10
0
 20
0
 11
-1
 21
0
  0
LINE
  8
0
  6
CONTINUOUS
 62
     7
 10
0
 20
0
 11
0
 21
-1
  0
LINE
  8
0
  6
CONTINUOUS
 62
     7
 10
2
 20
0
 11
4.6
 21
0
  0
LINE
  8
0
  6
CONTINUOUS
 62
     7
 10
0
 20
2
 11
0
 21
17.355128445
  0
LINE
  8
0
  6
CONTINUOUS
 62
     7
 10
-2
 20
0
 11
-4.6
 21
0
  0
LINE
  8
0
  6
CONTINUOUS
 62
     7
 10
0
 20
-101
 11
1
 21
-101
  0
LINE
  8
0
  6
CONTINUOUS
 62
     7
 10
0
 20
-101
 11
0
 21
-100
  0
LINE
  8
0
  6
CONTINUOUS
 62
     7
 10
0
 20
-101
 11
-1
 21
-101
  0
LINE
  8
0
  6
CONTINUOUS
 62
     7
 10
0
 20
-101
 11
0
 21
-102
  0
LINE
  8
0
  6
CONTINUOUS
 62
     7
 10
2
 20
-101
 11
4.6
 21
-101
  0
LINE
  8
0
  6
CONTINUOUS
 62
     7
 10
-2
 20
-101
 11
-4.6
 21
-101
  0
LINE
  8
0
  6
CONTINUOUS
 62
     7
 10
0
 20
-103
 11
0
 21
-115.1406335247
  0
LINE
  8
0
  6
CENTER
 62
     7
 10
0
 20
-2
 11
0
 21
-99
  0
ENDBLK
  8
0
  0
ENDSEC
  0
SECTION
  2
ENTITIES
  0
LINE
  8
0
  6
CONTINUOUS
 62
     7
 10
76.4473424684
 20
116.222640063
 11
104.9473434147
 21
116.222640063
  0
LINE
  8
0
  6
CONTINUOUS
 62
     7
 10
104.9473434147
 20
116.222640063
 11
104.9473434147
 21
139.4226406993
  0
LINE
  8
0
  6
CONTINUOUS
 62
     7
 10
104.9473434147
 20
139.4226406993
 11
76.4473424684
 21
139.4226406993
  0
LINE
  8
0
  6
CONTINUOUS
 62
     7
 10
76.4473424684
 20
139.4226406993
 11
76.4473424684
 21
116.222640063
  0
LINE
  8
0
  6
CONTINUOUS
 62
     7
 10
76.4473424684
 20
70.2226390422
 11
104.9473434147
 21
70.2226390422
  0
LINE
  8
0
  6
CONTINUOUS
 62
     7
 10
104.9473434147
 20
70.2226390422
 11
104.9473434147
 21
93.42263967850001
  0
LINE
  8
0
  6
CONTINUOUS
 62
     7
 10
104.9473434147
 20
93.42263967850001
 11
76.4473424684
 21
93.42263967850001
  0
LINE
  8
0
  6
CONTINUOUS
 62
     7
 10
76.4473424684
 20
93.42263967850001
 11
76.4473424684
 21
70.2226390422
  0
LINE
  8
0
  6
CONTINUOUS
 62
     7
 10
122.4473434892
 20
93.2226400183
 11
150.9473444354
 21
93.2226400183
  0
LINE
  8
0
  6
CONTINUOUS
 62
     7
 10
150.9473444354
 20
93.2226400183
 11
150.9473444354
 21
116.4226397232
  0
LINE
  8
0
  6
CONTINUOUS
 62
     7
 10
150.9473444354
 20
116.4226397232
 11
122.4473434892
 21
116.4226397232
  0
LINE
  8
0
  6
CONTINUOUS
 62
     7
 10
122.4473434892
 20
116.4226397232
 11
122.4473434892
 21
93.2226400183
  0
LINE
  8
0
  6
CONTINUOUS
 62
     7
 10
50.6973424386
 20
43.0726413907
 11
50.6973424386
 21
166.5726383508
  0
LINE
  8
0
  6
CONTINUOUS
 62
     7
 10
176.6973444652
 20
166.5726383508
 11
176.6973444652
 21
43.0726413907
  0
LINE
  8
0
  6
CONTINUOUS
 62
     7
 10
51.9473449718
 20
167.822640884
 11
175.447341932
 21
167.822640884
  0
LINE
  8
0
  6
CONTINUOUS
 62
     7
 10
175.447341932
 20
41.8226388575
 11
51.9473449718
 21
41.8226388575
  0
LINE
  8
0
  6
CONTINUOUS
 62
     7
 10
136.6973434966
 20
52.87926321040001
 11
137.9473441672
 21
53.60095252400001
  0
LINE
  8
0
  6
CONTINUOUS
 62
     7
 10
137.9473441672
 20
53.600952524
 11
137.9473441672
 21
55.0443274261
  0
LINE
  8
0
  6
CONTINUOUS
 62
     7
 10
137.9473441672
 20
55.04432742609999
 11
136.6973434966
 21
55.7660167397
  0
LINE
  8
0
  6
CONTINUOUS
 62
     7
 10
136.6973434966
 20
55.76601673970001
 11
135.4473428261
 21
55.0443274261
  0
LINE
  8
0
  6
CONTINUOUS
 62
     7
 10
135.4473428261
 20
55.0443274261
 11
135.4473428261
 21
53.600952524
  0
LINE
  8
0
  6
CONTINUOUS
 62
     7
 10
135.4473428261
 20
53.60095252400001
 11
136.6973434966
 21
52.87926321040001
  0
LINE
  8
0
  6
CONTINUOUS
 62
     7
 10
136.6973434966
 20
153.8792630018
 11
137.9473441672
 21
154.6009523154
  0
LINE
  8
0
  6
CONTINUOUS
 62
     7
 10
137.9473441672
 20
154.6009523154
 11
137.9473441672
 21
156.0443272174
  0
LINE
  8
0
  6
CONTINUOUS
 62
     7
 10
137.9473441672
 20
156.0443272174
 11
136.6973434966
 21
156.7660165311
  0
LINE
  8
0
  6
CONTINUOUS
 62
     7
 10
136.6973434966
 20
156.7660165311
 11
135.4473428261
 21
156.0443272174
  0
LINE
  8
0
  6
CONTINUOUS
 62
     7
 10
135.4473428261
 20
156.0443272174
 11
135.4473428261
 21
154.6009523154
  0
LINE
  8
0
  6
CONTINUOUS
 62
     7
 10
135.4473428261
 20
154.6009523154
 11
136.6973434966
 21
153.8792630018
  0
LINE
  8
0
  6
CONTINUOUS
 62
     7
 10
90.6973434072
 20
153.8792630018
 11
91.9473440778
 21
154.6009523154
  0
LINE
  8
0
  6
CONTINUOUS
 62
     7
 10
91.9473440778
 20
154.6009523154
 11
91.9473440778
 21
156.0443272174
  0
LINE
  8
0
  6
CONTINUOUS
 62
     7
 10
91.9473440778
 20
156.0443272174
 11
90.6973434072
 21
156.7660165311
  0
LINE
  8
0
  6
CONTINUOUS
 62
     7
 10
89.44734273669999
 20
156.0443272174
 11
89.44734273669999
 21
154.6009523154
  0
LINE
  8
0
  6
CONTINUOUS
 62
     7
 10
90.69734340720001
 20
156.7660165311
 11
89.44734273669999
 21
156.0443272174
  0
LINE
  8
0
  6
CONTINUOUS
 62
     7
 10
89.44734273669999
 20
154.6009523154
 11
90.69734340719998
 21
153.8792630018
  0
LINE
  8
0
  6
CONTINUOUS
 62
     7
 10
90.6973434072
 20
52.8792632104
 11
91.94734407780001
 21
53.60095252400001
  0
LINE
  8
0
  6
CONTINUOUS
 62
     7
 10
91.9473440778
 20
53.600952524
 11
91.9473440778
 21
55.0443274261
  0
LINE
  8
0
  6
CONTINUOUS
 62
     7
 10
91.94734407780001
 20
55.04432742609998
 11
90.69734340720001
 21
55.76601673969999
  0
LINE
  8
0
  6
CONTINUOUS
 62
     7
 10
90.6973434072
 20
55.76601673969999
 11
89.44734273669998
 21
55.04432742609998
  0
LINE
  8
0
  6
CONTINUOUS
 62
     7
 10
89.44734273669999
 20
55.0443274261
 11
89.44734273669999
 21
53.600952524
  0
LINE
  8
0
  6
CONTINUOUS
 62
     7
 10
89.44734273669997
 20
53.60095252399999
 11
90.69734340719998
 21
52.87926321039998
  0
LINE
  8
0
  6
CENTER
 62
     7
 10
183.5868357628
 20
104.8226398707
 11
44.3882155803
 21
104.8226398707
  0
LINE
  8
0
  6
CENTER
 62
     7
 10
113.6973434519
 20
35.1630164814
 11
113.6973434519
 21
173.8427877531
  0
LINE
  8
0
  6
CENTER
 62
     7
 10
74.4473434519
 20
127.8226398707
 11
106.9473434519
 21
127.8226398707
  0
LINE
  8
0
  6
CENTER
 62
     7
 10
74.4473434519
 20
81.8226398707
 11
106.9473434519
 21
81.8226398707
  0
LINE
  8
0
  6
CONTINUOUS
 62
     7
 10
245.9422822335
 20
43.0726413907
 11
245.9422822335
 21
166.5726383508
  0
LINE
  8
0
  6
CONTINUOUS
 62
     7
 10
240.4422822633
 20
167.822640884
 11
245.9422822335
 21
167.822640884
  0
LINE
  8
0
  6
CONTINUOUS
 62
     7
 10
245.9422822335
 20
167.822640884
 11
245.9422822335
 21
166.5726383508
  0
LINE
  8
0
  6
CONTINUOUS
 62
     7
 10
245.9422822335
 20
41.8226388575
 11
240.4422822633
 21
41.8226388575
  0
LINE
  8
0
  6
CONTINUOUS
 62
     7
 10
245.9422822335
 20
43.0726413907
 11
245.9422822335
 21
41.8226388575
  0
LINE
  8
0
  6
CONTINUOUS
 62
     7
 10
239.4422820994
 20
43.0726413907
 11
239.4422820994
 21
42.822640884
  0
LINE
  8
0
  6
CONTINUOUS
 62
     7
 10
239.4422820994
 20
43.0726413907
 11
239.4422820994
 21
166.5726383508
  0
LINE
  8
0
  6
CONTINUOUS
 62
     7
 10
239.4422820994
 20
166.8226388575
 11
239.4422820994
 21
166.5726383508
  0
LINE
  8
0
  6
CENTER
 62
     7
 10
250.0101502625
 20
104.8226398707
 11
235.404265369
 21
104.8226398707
  0
LINE
  8
0
  6
CONTINUOUS
 62
     7
 10
50.6973424386
 20
188.8082242984
 11
50.6973424386
 21
194.3082242686
  0
LINE
  8
0
  6
CONTINUOUS
 62
     7
 10
50.6973424386
 20
194.3082242686
 11
51.9473449718
 21
194.3082242686
  0
LINE
  8
0
  6
CONTINUOUS
 62
     7
 10
176.6973444652
 20
194.3082242686
 11
176.6973444652
 21
188.8082242984
  0
LINE
  8
0
  6
CONTINUOUS
 62
     7
 10
175.447341932
 20
194.3082242686
 11
176.6973444652
 21
194.3082242686
  0
LINE
  8
0
  6
CONTINUOUS
 62
     7
 10
175.447341932
 20
194.3082242686
 11
51.9473449718
 21
194.3082242686
  0
LINE
  8
0
  6
CONTINUOUS
 62
     7
 10
175.447341932
 20
187.8082241345
 11
51.9473449718
 21
187.8082241345
  0
LINE
  8
0
  6
CONTINUOUS
 62
     7
 10
175.447341932
 20
187.8082241345
 11
175.6973424386
 21
187.8082241345
  0
LINE
  8
0
  6
CONTINUOUS
 62
     7
 10
51.6973444652
 20
187.8082241345
 11
51.9473449718
 21
187.8082241345
  0
LINE
  8
0
  6
CENTER
 62
     7
 10
113.6973434519
 20
198.2098819813
 11
113.6973434519
 21
184.0605560509
  0
LINE
  8
0
  6
CENTER
 62
     7
 10
90.6973434519
 20
162.822640884
 11
90.6973434519
 21
46.8226388575
  0
LINE
  8
0
  6
CENTER
 62
     7
 10
136.6973434519
 20
162.822640884
 11
136.6973434519
 21
46.8226388575
  0
LINE
  8
0
  6
CENTER
 62
     7
 10
82.0973434519
 20
155.3226398707
 11
99.29734345189999
 21
155.3226398707
  0
LINE
  8
0
  6
CENTER
 62
     7
 10
82.0973434519
 20
54.3226398707
 11
99.29734345189999
 21
54.3226398707
  0
LINE
  8
0
  6
CENTER
 62
     7
 10
128.0973434519
 20
155.3226398707
 11
145.2973434519
 21
155.3226398707
  0
LINE
  8
0
  6
CENTER
 62
     7
 10
128.0973434519
 20
54.3226398707
 11
145.2973434519
 21
54.3226398707
  0
LINE
  8
0
  6
CONTINUOUS
 62
     7
 10
254.9393054163
 20
21.3598707695
 11
254.9393054163
 21
17.0184295493
  0
LINE
  8
0
  6
CONTINUOUS
 62
     7
 10
254.9393054163
 20
21.3598707695
 11
256.2256583739
 21
21.3598707695
  0
LINE
  8
0
  6
CONTINUOUS
 62
     7
 10
256.2256583739
 20
21.3598707695
 11
256.2256583739
 21
17.8224001594
  0
LINE
  8
0
  6
CONTINUOUS
 62
     7
 10
256.2256583739
 20
17.8224001594
 11
257.110026073
 21
17.8224001594
  0
LINE
  8
0
  6
CONTINUOUS
 62
     7
 10
257.110026073
 20
21.3598707695
 11
257.110026073
 21
17.8224001594
  0
LINE
  8
0
  6
CONTINUOUS
 62
     7
 10
257.110026073
 20
21.3598707695
 11
258.2355848993
 21
21.3598707695
  0
LINE
  8
0
  6
CONTINUOUS
 62
     7
 10
258.2355848993
 20
21.3598707695
 11
258.2355848993
 21
18.4655764986
  0
LINE
  8
0
  6
CONTINUOUS
 62
     7
 10
258.2355848993
 20
18.4655764986
 11
259.1199524587
 21
18.4655764986
  0
LINE
  8
0
  6
CONTINUOUS
 62
     7
 10
259.1199524587
 20
21.3598707695
 11
259.1199524587
 21
18.4655764986
  0
LINE
  8
0
  6
CONTINUOUS
 62
     7
 10
259.1199524587
 20
21.3598707695
 11
260.4063054163
 21
21.3598707695
  0
LINE
  8
0
  6
CONTINUOUS
 62
     7
 10
260.4063054163
 20
21.3598707695
 11
260.4063054163
 21
17.8224001594
  0
LINE
  8
0
  6
CONTINUOUS
 62
     7
 10
260.4063054163
 20
17.8224001594
 11
258.2355848993
 21
17.8224001594
  0
LINE
  8
0
  6
CONTINUOUS
 62
     7
 10
258.2355848993
 20
17.8224001594
 11
258.2355848993
 21
17.0184295493
  0
LINE
  8
0
  6
CONTINUOUS
 62
     7
 10
254.9393054163
 20
17.0184295493
 11
258.2355848993
 21
17.0184295493
  0
LINE
  8
0
  6
CONTINUOUS
 62
     7
 10
206.97525
 20
6.372375
 11
206.97525
 21
21.992375
  0
POLYLINE
  8
0
  6
CONTINUOUS
 62
     7
 66
     1
 10
0
 20
0
 40
0.300000011920929
 41
0.300000011920929
  0
VERTEX
  8
0
  6
CONTINUOUS
 62
     7
 10
15.27525
 20
6.372375
  0
VERTEX
  8
0
  6
CONTINUOUS
 62
     7
 10
290.40025
 20
6.372375
  0
SEQEND
  8
0
  6
CONTINUOUS
 62
     7
  0
POLYLINE
  8
0
  6
CONTINUOUS
 62
     7
 66
     1
 10
0
 20
0
 40
0.300000011920929
 41
0.300000011920929
  0
VERTEX
  8
0
  6
CONTINUOUS
 62
     7
 10
15.27525
 20
203.042375
  0
VERTEX
  8
0
  6
CONTINUOUS
 62
     7
 10
15.27525
 20
6.372375
  0
SEQEND
  8
0
  6
CONTINUOUS
 62
     7
  0
POLYLINE
  8
0
  6
CONTINUOUS
 62
     7
 66
     1
 10
0
 20
0
 40
0.300000011920929
 41
0.300000011920929
  0
VERTEX
  8
0
  6
CONTINUOUS
 62
     7
 10
15.27525
 20
21.992375
  0
VERTEX
  8
0
  6
CONTINUOUS
 62
     7
 10
98.34524999999999
 20
21.992375
  0
SEQEND
  8
0
  6
CONTINUOUS
 62
     7
  0
POLYLINE
  8
0
  6
CONTINUOUS
 62
     7
 66
     1
 10
0
 20
0
 40
0.300000011920929
 41
0.300000011920929
  0
VERTEX
  8
0
  6
CONTINUOUS
 62
     7
 10
290.40025
 20
203.042375
  0
VERTEX
  8
0
  6
CONTINUOUS
 62
     7
 10
290.40025
 20
6.372375
  0
SEQEND
  8
0
  6
CONTINUOUS
 62
     7
  0
POLYLINE
  8
0
  6
CONTINUOUS
 62
     7
 66
     1
 10
0
 20
0
 40
0.300000011920929
 41
0.300000011920929
  0
VERTEX
  8
0
  6
CONTINUOUS
 62
     7
 10
98.34524999999999
 20
21.992375
  0
VERTEX
  8
0
  6
CONTINUOUS
 62
     7
 10
290.40025
 20
21.992375
  0
SEQEND
  8
0
  6
CONTINUOUS
 62
     7
  0
POLYLINE
  8
0
  6
CONTINUOUS
 62
     7
 66
     1
 10
0
 20
0
 40
0.300000011920929
 41
0.300000011920929
  0
VERTEX
  8
0
  6
CONTINUOUS
 62
     7
 10
15.27525
 20
203.042375
  0
VERTEX
  8
0
  6
CONTINUOUS
 62
     7
 10
290.40025
 20
203.042375
  0
SEQEND
  8
0
  6
CONTINUOUS
 62
     7
  0
LINE
  8
0
  6
CONTINUOUS
 62
     7
 10
19.18025
 20
14.182375
 11
98.34524999999999
 21
14.182375
  0
LINE
  8
0
  6
CONTINUOUS
 62
     7
 10
35.51025
 20
21.992375
 11
35.51025
 21
6.372375
  0
LINE
  8
0
  6
CONTINUOUS
 62
     7
 10
19.18025
 20
18.087375
 11
98.34524999999999
 21
18.087375
  0
LINE
  8
0
  6
CONTINUOUS
 62
     7
 10
24.86025
 20
21.992375
 11
24.86025
 21
6.372375
  0
LINE
  8
0
  6
CONTINUOUS
 62
     7
 10
19.18025
 20
21.992375
 11
19.18025
 21
6.372375
  0
LINE
  8
0
  6
CONTINUOUS
 62
     7
 10
19.18025
 20
10.277375
 11
98.34524999999999
 21
10.277375
  0
LINE
  8
0
  6
CONTINUOUS
 62
     7
 10
144.49525
 20
21.992375
 11
144.49525
 21
6.372375
  0
LINE
  8
0
  6
CONTINUOUS
 62
     7
 10
140.94525
 20
21.992375
 11
140.94525
 21
6.372375
  0
LINE
  8
0
  6
CONTINUOUS
 62
     7
 10
101.89525
 20
21.992375
 11
101.89525
 21
6.372375
  0
LINE
  8
0
  6
CONTINUOUS
 62
     7
 10
98.34524999999999
 20
21.992375
 11
98.34524999999999
 21
14.182375
  0
LINE
  8
0
  6
CONTINUOUS
 62
     7
 10
42.61025
 20
21.992375
 11
42.61025
 21
6.372375
  0
LINE
  8
0
  6
CONTINUOUS
 62
     7
 10
164.37525
 20
21.992375
 11
164.37525
 21
14.182375
  0
LINE
  8
0
  6
CONTINUOUS
 62
     7
 10
167.92525
 20
21.992375
 11
167.92525
 21
14.182375
  0
LINE
  8
0
  6
CONTINUOUS
 62
     7
 10
178.57525
 20
21.992375
 11
178.57525
 21
14.182375
  0
LINE
  8
0
  6
CONTINUOUS
 62
     7
 10
182.12525
 20
21.992375
 11
182.12525
 21
14.182375
  0
LINE
  8
0
  6
CONTINUOUS
 62
     7
 10
210.52525
 20
21.992375
 11
210.52525
 21
14.182375
  0
LINE
  8
0
  6
CONTINUOUS
 62
     7
 10
221.17525
 20
21.992375
 11
221.17525
 21
6.372375
  0
LINE
  8
0
  6
CONTINUOUS
 62
     7
 10
231.82525
 20
21.992375
 11
231.82525
 21
6.372375
  0
LINE
  8
0
  6
CONTINUOUS
 62
     7
 10
242.47525
 20
21.992375
 11
242.47525
 21
6.372375
  0
LINE
  8
0
  6
CONTINUOUS
 62
     7
 10
253.12525
 20
21.992375
 11
253.12525
 21
6.372375
  0
LINE
  8
0
  6
CONTINUOUS
 62
     7
 10
253.12525
 20
14.182375
 11
290.40025
 21
14.182375
  0
LINE
  8
0
  6
CONTINUOUS
 62
     7
 10
256.67525
 20
14.182375
 11
256.67525
 21
6.372375
  0
LINE
  8
0
  6
CONTINUOUS
 62
     7
 10
221.17525
 20
18.442375
 11
253.12525
 21
18.442375
  0
LINE
  8
0
  6
CONTINUOUS
 62
     7
 10
98.34524999999999
 20
14.182375
 11
221.17525
 21
14.182375
  0
LINE
  8
0
  6
CONTINUOUS
 62
     7
 10
98.34524999999999
 20
14.182375
 11
98.34524999999999
 21
6.372375
  0
LINE
  8
0
  6
CONTINUOUS
 62
     7
 10
21.8298292042
 20
13.8078799214
 11
19.9435077931
 21
10.7346674469
  0
LINE
  8
0
  6
CONTINUOUS
 62
     7
 10
19.9435077931
 20
10.7346674469
 11
23.7462507043
 21
10.7346674469
  0
LINE
  8
0
  6
CONTINUOUS
 62
     7
 10
23.7462507043
 20
10.7346674469
 11
21.8298292042
 21
13.8078799214
  0
LINE
  8
0
  6
CONTINUOUS
 62
     7
 10
21.7708059363
 20
17.7808237228
 11
19.8844845252
 21
14.7076112483
  0
LINE
  8
0
  6
CONTINUOUS
 62
     7
 10
19.8844845252
 20
14.7076112483
 11
23.6872274364
 21
14.7076112483
  0
LINE
  8
0
  6
CONTINUOUS
 62
     7
 10
23.6872274364
 20
14.7076112483
 11
21.7708059363
 21
17.7808237228
  0
LINE
  8
0
  6
CONTINUOUS
 62
     7
 10
21.8888328788
 20
21.5992068096
 11
20.0025114678
 21
18.5259943352
  0
LINE
  8
0
  6
CONTINUOUS
 62
     7
 10
20.0025114678
 20
18.5259943352
 11
23.8052543789
 21
18.5259943352
  0
LINE
  8
0
  6
CONTINUOUS
 62
     7
 10
23.80525437890002
 20
18.52599433520001
 11
21.88883287880002
 21
21.59920680960001
  0
LINE
  8
0
  6
CONTINUOUS
 62
     7
 10
87.69525
 20
21.992375
 11
87.69525
 21
6.372375
  0
LINE
  8
0
  6
PHANTOM
 62
     7
 10
169.1482073159
 20
6.372375
 11
206.97525
 21
6.372375
  0
CIRCLE
  8
0
  6
CONTINUOUS
 62
     7
 10
136.6973434519
 20
54.3226398707
 40
3.600000000000023
  0
CIRCLE
  8
0
  6
CONTINUOUS
 62
     7
 10
136.6973434519
 20
155.3226398707
 40
3.599999999999994
  0
CIRCLE
  8
0
  6
CONTINUOUS
 62
     7
 10
90.6973434519
 20
54.3226398707
 40
3.599999999999994
  0
CIRCLE
  8
0
  6
CONTINUOUS
 62
     7
 10
90.6973434519
 20
155.3226398707
 40
3.599999999999994
  0
ARC
  8
0
  6
CONTINUOUS
 62
     7
 10
51.9473434519
 20
43.0726398707
 40
1.250000000000007
 50
180.0000000000004
 51
270.0000000000005
  0
ARC
  8
0
  6
CONTINUOUS
 62
     7
 10
175.4473434519
 20
43.0726398707
 40
1.250000000000007
 50
270.0000000000005
 51
360
  0
ARC
  8
0
  6
CONTINUOUS
 62
     7
 10
51.9473434519
 20
166.5726398707
 40
1.25
 50
90.00000000000019
 51
180.0000000000004
  0
ARC
  8
0
  6
CONTINUOUS
 62
     7
 10
175.4473434519
 20
166.5726398707
 40
1.25
 50
0
 51
90.00000000000019
  0
CIRCLE
  8
0
  6
CONTINUOUS
 62
     7
 10
136.6973434519
 20
54.3226398707
 40
3.499999999999993
  0
CIRCLE
  8
0
  6
CONTINUOUS
 62
     7
 10
136.6973434519
 20
155.3226398707
 40
3.499999999999972
  0
CIRCLE
  8
0
  6
CONTINUOUS
 62
     7
 10
90.6973434519
 20
155.3226398707
 40
3.5
  0
CIRCLE
  8
0
  6
CONTINUOUS
 62
     7
 10
90.6973434519
 20
54.3226398707
 40
3.499999999999993
  0
ARC
  8
0
  6
CONTINUOUS
 62
     7
 10
240.4422822335
 20
42.8226398707
 40
1.000000000000007
 50
180.0000000000004
 51
270.0000000000005
  0
ARC
  8
0
  6
CONTINUOUS
 62
     7
 10
240.4422822335
 20
166.8226398707
 40
1
 50
90.00000000000019
 51
180.0000000000004
  0
ARC
  8
0
  6
CONTINUOUS
 62
     7
 10
175.6973434519
 20
188.8082242686
 40
1
 50
270.0000000000005
 51
360
  0
ARC
  8
0
  6
CONTINUOUS
 62
     7
 10
51.6973434519
 20
188.8082242686
 40
1
 50
180.0000000000004
 51
270.0000000000005
  0
TEXT
  8
0
  6
CONTINUOUS
 62
     7
 10
102.9627572472559
 20
8.918973698273955
 40
2.484999895095825
 41
1.00000007538386
  1
15S
  0
TEXT
  8
0
  6
CONTINUOUS
 62
     7
 10
102.9481462645432
 20
16.72744230927396
 40
2.484999895095825
 41
1.00000001612489
  1
承認図
  0
TEXT
  8
0
  6
CONTINUOUS
 62
     7
 10
262.7201508318
 20
8.107823336599999
 40
3
 41
1
  1
11526F
  0
TEXT
  8
0
  6
CONTINUOUS
 62
     7
 10
213.2920724929699
 20
17.01890252717396
 40
2.484999895095825
 41
1.000000027773001
  1
1/1
  0
TEXT
  8
0
  6
CONTINUOUS
 62
     7
 10
254.9344766333866
 20
14.60289915583954
 40
1.587499976158142
 41
1.000000014079838
  1
WEST
  0
TEXT
  8
0
  6
CONTINUOUS
 62
     7
 10
245.1814549998792
 20
19.33927391297907
 40
1.799999952316284
 41
1.000000007791457
  1
承　認
  0
TEXT
  8
0
  6
CONTINUOUS
 62
     7
 10
221.7690138853698
 20
7.047764227762116
 40
2.200000047683716
 41
0.3966621527706232
  1
′０８．１０．２０
  0
TEXT
  8
0
  6
CONTINUOUS
 62
     7
 10
90.43628520501594
 20
7.515594149539536
 40
1.774999976158142
 41
1.000000020599546
  1
通知書
  0
TEXT
  8
0
  6
CONTINUOUS
 62
     7
 10
257.3559623514285
 20
8.1078232783
 40
3
 41
0.9999999940395354
  1
No.
  0
TEXT
  8
0
  6
CONTINUOUS
 62
     7
 10
234.5104219724792
 20
19.29407223757907
 40
1.799999952316284
 41
1.000000007791457
  1
照　査
  0
TEXT
  8
0
  6
CONTINUOUS
 62
     7
 10
221.7857981960095
 20
19.28941045237907
 40
1.799999952316284
 41
1.000000007791457
  1
製図・設計
  0
TEXT
  8
0
  6
CONTINUOUS
 62
     7
 10
209.7472443057926
 20
9.163846772366167
 40
2.116666555404663
 41
1.000000035538415
  1
第三角法
  0
TEXT
  8
0
  6
CONTINUOUS
 62
     7
 10
99.34071384314699
 20
18.68609655887396
 40
2.484999895095825
 41
1.00000001612489
  1
名
  0
TEXT
  8
0
  6
CONTINUOUS
 62
     7
 10
16.53891924584699
 20
9.118747376173957
 40
2.484999895095825
 41
1.00000001612489
  1
訂
  0
TEXT
  8
0
  6
CONTINUOUS
 62
     7
 10
16.53891924584699
 20
16.98609414287396
 40
2.484999895095825
 41
1.00000001612489
  1
改
  0
TEXT
  8
0
  6
CONTINUOUS
 62
     7
 10
99.354110987147
 20
14.96731762087396
 40
2.484999895095825
 41
1.00000001612489
  1
称
  0
TEXT
  8
0
  6
CONTINUOUS
 62
     7
 10
99.34071384314699
 20
10.87609655887396
 40
2.484999895095825
 41
1.00000001612489
  1
品
  0
TEXT
  8
0
  6
CONTINUOUS
 62
     7
 10
99.354110987147
 20
7.157317620873958
 40
2.484999895095825
 41
1.00000001612489
  1
名
  0
TEXT
  8
0
  6
CONTINUOUS
 62
     7
 10
141.930792294447
 20
18.68609655887396
 40
2.484999895095825
 41
1.00000001612489
  1
材
  0
TEXT
  8
0
  6
CONTINUOUS
 62
     7
 10
141.928397223647
 20
14.96731762087396
 40
2.484999895095825
 41
1.00000001612489
  1
質
  0
TEXT
  8
0
  6
CONTINUOUS
 62
     7
 10
141.930792294447
 20
10.87609655887396
 40
2.484999895095825
 41
1.00000001612489
  1
工
  0
TEXT
  8
0
  6
CONTINUOUS
 62
     7
 10
141.928397223647
 20
7.157317620873958
 40
2.484999895095825
 41
1.00000001612489
  1
番
  0
TEXT
  8
0
  6
CONTINUOUS
 62
     7
 10
165.389056183947
 20
18.68609655887396
 40
2.484999895095825
 41
1.00000001612489
  1
個
  0
TEXT
  8
0
  6
CONTINUOUS
 62
     7
 10
165.402453327947
 20
14.96731762087396
 40
2.484999895095825
 41
1.00000001612489
  1
数
  0
TEXT
  8
0
  6
CONTINUOUS
 62
     7
 10
179.563012279947
 20
18.68609655887396
 40
2.484999895095825
 41
1.00000001612489
  1
備
  0
TEXT
  8
0
  6
CONTINUOUS
 62
     7
 10
179.576409423947
 20
14.96731762087396
 40
2.484999895095825
 41
1.00000001612489
  1
考
  0
TEXT
  8
0
  6
CONTINUOUS
 62
     7
 10
207.957463793647
 20
18.68609655887396
 40
2.484999895095825
 41
1.00000001612489
  1
尺
  0
TEXT
  8
0
  6
CONTINUOUS
 62
     7
 10
207.959618747247
 20
14.96731762087396
 40
2.484999895095825
 41
1.00000001612489
  1
度
  0
TEXT
  8
0
  6
CONTINUOUS
 62
     7
 10
58.51157516869036
 20
7.513469007639535
 40
1.774999976158142
 41
0.999999999435629
  1
変　更　内　容
  0
TEXT
  8
0
  6
CONTINUOUS
 62
     7
 10
36.49623778951593
 20
7.518357210039535
 40
1.774999976158142
 41
1.000000020599546
  1
担当者
  0
TEXT
  8
0
  6
CONTINUOUS
 62
     7
 10
28.63128369801959
 20
7.537792503939536
 40
1.774999976158142
 41
0.9999999994356288
  1
日付
  0
TEXT
  8
0
  6
CONTINUOUS
 62
     7
 10
20.46184836461959
 20
7.542907761239536
 40
1.774999976158142
 41
0.9999999994356288
  1
記号
  0
TEXT
  8
0
  6
CONTINUOUS
 62
     7
 10
301.7895250874756
 20
5.903379631245236
 40
5.291666507720947
 41
1.000000013516644
  1
A4
  0
TEXT
  8
0
  6
CONTINUOUS
 62
     7
 10
254.1623180678787
 20
10.8202974109
 40
2.5
 41
1.00000000801407
  1
図
  0
TEXT
  8
0
  6
CONTINUOUS
 62
     7
 10
254.1623180678787
 20
7.1401055327
 40
2.5
 41
1.00000000801407
  1
番
  0
TEXT
  8
0
  6
CONTINUOUS
 62
     7
 10
287.8961995152244
 20
3.332214998931512
 40
1.852083325386047
 41
0.9999999742540116
  1
A4
  0
DIMENSION
  8
0
  6
CONTINUOUS
 62
     7
  2
*D1
 70
     0
 10
204.6973434519
 20
41.8226398707
 11
204.6973434519
 21
104.8226398707
  3
DIMSTYLE
 13
175.4473434519
 23
167.8226398707
 14
175.4473434519
 24
41.8226398707
 50
90
1001
ACAD
1000
DSTYLE
1002
{
1070
    77
1070
     1
1070
   172
1070
     1
1070
   147
1040
0
1002
}
  0
DIMENSION
  8
0
  6
CONTINUOUS
 62
     7
  2
*D2
 70
     0
 10
198.6973434519
 20
54.3226398707
 11
198.6973434519
 21
104.8226398707
  3
DIMSTYLE
 13
145.2973434519
 23
155.3226398707
 14
145.2973434519
 24
54.3226398707
 50
90
1001
ACAD
1000
DSTYLE
1002
{
1070
    77
1070
     1
1070
   172
1070
     1
1070
   147
1040
0
1002
}
  0
DIMENSION
  8
0
  6
CONTINUOUS
 62
     7
  2
*D3
 70
     0
 10
192.6973434519
 20
116.4226398707
 11
192.6973434519
 21
104.8226398707
  3
DIMSTYLE
 13
150.9473434519
 23
93.22263987069999
 14
150.9473434519
 24
116.4226398707
 50
90
1001
ACAD
1000
DSTYLE
1002
{
1070
    77
1070
     1
1070
   172
1070
     1
1070
   147
1040
0
1002
}
  0
DIMENSION
  8
0
  6
CONTINUOUS
 62
     7
  2
*D4
 70
     0
 10
136.6973434519
 20
31.8226398707
 11
113.6973434519
 21
31.8226398707
  3
DIMSTYLE
 13
90.6973434519
 23
46.8226388575
 14
136.6973434519
 24
46.8226388575
 50
0
1001
ACAD
1000
DSTYLE
1002
{
1070
    77
1070
     1
1070
   172
1070
     1
1070
   147
1040
0
1002
}
  0
DIMENSION
  8
0
  6
CONTINUOUS
 62
     7
  2
*D5
 70
     0
 10
176.6973434519
 20
25.8226398707
 11
113.6973434519
 21
25.8226398707
  3
DIMSTYLE
 13
50.6973434519
 23
43.0726398707
 14
176.6973434519
 24
43.0726398707
 50
0
1001
ACAD
1000
DSTYLE
1002
{
1070
    77
1070
     1
1070
   172
1070
     1
1070
   147
1040
0
1002
}
  0
DIMENSION
  8
0
  6
CONTINUOUS
 62
     7
  2
*D6
 70
     0
 10
76.4473434519
 20
177.8226398707
 11
90.6973434519
 21
177.8226398707
  3
DIMSTYLE
 13
104.9473434519
 23
139.4226398707
 14
76.4473434519
 24
139.4226398707
 50
0
1001
ACAD
1000
DSTYLE
1002
{
1070
    77
1070
     1
1070
   172
1070
     1
1070
   147
1040
0
1002
}
  0
DIMENSION
  8
0
  6
CONTINUOUS
 62
     7
  2
*D7
 70
     0
 10
122.4473434519
 20
177.8226398707
 11
113.6973434519
 21
177.8226398707
  3
DIMSTYLE
 13
104.9473434519
 23
139.4226398707
 14
122.4473434519
 24
116.4226398707
 50
0
1001
ACAD
1000
DSTYLE
1002
{
1070
    77
1070
     1
1070
   172
1070
     1
1070
   147
1040
0
1002
}
  0
DIMENSION
  8
0
  6
CONTINUOUS
 62
     7
  2
*D8
 70
     0
 10
122.4473434519
 20
177.8226398707
 11
136.6973434519
 21
177.8226398707
  3
DIMSTYLE
 13
150.9473434519
 23
116.4226398707
 14
122.4473434519
 24
116.4226398707
 50
0
1001
ACAD
1000
DSTYLE
1002
{
1070
    77
1070
     1
1070
   172
1070
     1
1070
   147
1040
0
1002
}
  0
DIMENSION
  8
0
  6
CONTINUOUS
 62
     7
  2
*D9
 70
     0
 10
40.6973434519
 20
116.2226398707
 11
40.6973434519
 21
127.8226398707
  3
DIMSTYLE
 13
76.4473434519
 23
139.4226398707
 14
76.4473434519
 24
116.2226398707
 50
90
1001
ACAD
1000
DSTYLE
1002
{
1070
    77
1070
     1
1070
   172
1070
     1
1070
   147
1040
0
1002
}
  0
DIMENSION
  8
0
  6
CONTINUOUS
 62
     7
  2
*D10
 70
     0
 10
40.6973434519
 20
116.2226398707
 11
40.6973434519
 21
104.8226398707
  3
DIMSTYLE
 13
76.4473434519
 23
93.4226398707
 14
76.4473434519
 24
116.2226398707
 50
90
1001
ACAD
1000
DSTYLE
1002
{
1070
    77
1070
     1
1070
   172
1070
     1
1070
   147
1040
0
1002
}
  0
DIMENSION
  8
0
  6
CONTINUOUS
 62
     7
  2
*D11
 70
     0
 10
40.6973434519
 20
70.22263987069999
 11
40.6973434519
 21
81.8226398707
  3
DIMSTYLE
 13
76.4473434519
 23
93.4226398707
 14
76.4473434519
 24
70.22263987069999
 50
90
1001
ACAD
1000
DSTYLE
1002
{
1070
    77
1070
     1
1070
   172
1070
     1
1070
   147
1040
0
1002
}
  0
DIMENSION
  8
0
  6
CONTINUOUS
 62
     7
  2
*D12
 70
     0
 10
245.9422822335
 20
25.8226398707
 11
229.4422822335
 21
25.8226398707
  3
DIMSTYLE
 13
239.4422822335
 23
43.0726398707
 14
245.9422822335
 24
41.8226398707
 50
0
1001
ACAD
1000
DSTYLE
1002
{
1070
    77
1070
     1
1070
   172
1070
     1
1070
   147
1040
0
1002
}
  0
ENDSEC
  0
EOF
