  0
SECTION
  2
HEADER
  9
$EXTMAX
 10
297
 20
210
 30
0
  9
$EXTMIN
 10
0
 20
0
 30
0
  9
$LIMMAX
 10
297
 20
210
  9
$LIMMIN
 10
0
 20
0
  9
$PLIMMAX
 10
297
 20
210
  9
$PLIMMIN
 10
0
 20
0
  9
$PEXTMAX
 10
297
 20
210
 30
0
  9
$PEXTMIN
 10
0
 20
0
 30
0
  9
$TEXTSIZE
 40
3.2
  9
$DIMSHO
 70
     0
  9
$DIMASZ
 40
1.0
  9
$DIMTAD
 70
     1
  9
$DIMTIH
 70
     0
  9
$DIMTOH
 70
     0
  9
$DIMEXE
 40
2.54
  9
$DIMEXO
 40
2.54
  9
$DIMTVP
 40
1.0
  9
$DIMSAH
 70
     1
  9
$DIMDLE
 40
0.0
  9
$DIMTXT
 40
3.200000047683716
  9
$DIMGAP
 40
1.600000023841858
  0
ENDSEC
  0
SECTION
  2
TABLES
  0
TABLE
  2
LTYPE
 70
     53
  0
LTYPE
  2
CONTINUOUS
 70
    64
  3
Solid line
 72
    65
 73
     0
 40
0.0
  0
LTYPE
  2
ACAD_ISO02W100
 70
     0
  3
ISO dash __ __ __ __ __ __ __ __ __ __ __ __ __
 72
    65
 73
     2
 40
15.0
 49
12.0
 49
-3.0
  0
LTYPE
  2
ACAD_ISO03W100
 70
     0
  3
ISO dash space __    __    __    __    __    __
 72
    65
 73
     2
 40
30.0
 49
12.0
 49
-18.0
  0
LTYPE
  2
ACAD_ISO04W100
 70
     0
  3
ISO long-dash dot ____ . ____ . ____ . ____ . _
 72
    65
 73
     4
 40
30.0
 49
24.0
 49
-3.0
 49
0.0
 49
-3.0
  0
LTYPE
  2
ACAD_ISO05W100
 70
     0
  3
ISO long-dash double-dot ____ .. ____ .. ____ .
 72
    65
 73
     6
 40
33.0
 49
24.0
 49
-3.0
 49
0.0
 49
-3.0
 49
0.0
 49
-3.0
  0
LTYPE
  2
ACAD_ISO06W100
 70
     0
  3
ISO long-dash triple-dot ____ ... ____ ... ____
 72
    65
 73
     8
 40
36.0
 49
24.0
 49
-3.0
 49
0.0
 49
-3.0
 49
0.0
 49
-3.0
 49
0.0
 49
-3.0
  0
LTYPE
  2
ACAD_ISO07W100
 70
     0
  3
ISO dot . . . . . . . . . . . . . . . . . . . .
 72
    65
 73
     2
 40
3.0
 49
0.0
 49
-3.0
  0
LTYPE
  2
ACAD_ISO08W100
 70
     0
  3
ISO long-dash short-dash ____ __ ____ __ ____ _
 72
    65
 73
     4
 40
36.0
 49
24.0
 49
-3.0
 49
6.0
 49
-3.0
  0
LTYPE
  2
ACAD_ISO09W100
 70
     0
  3
ISO long-dash double-short-dash ____ __ __ ____
 72
    65
 73
     6
 40
45.0
 49
24.0
 49
-3.0
 49
6.0
 49
-3.0
 49
6.0
 49
-3.0
  0
LTYPE
  2
ACAD_ISO10W100
 70
     0
  3
ISO dash dot __ . __ . __ . __ . __ . __ . __ .
 72
    65
 73
     4
 40
18.0
 49
12.0
 49
-3.0
 49
0.0
 49
-3.0
  0
LTYPE
  2
ACAD_ISO11W100
 70
     0
  3
ISO double-dash dot __ __ . __ __ . __ __ . __ 
 72
    65
 73
     6
 40
33.0
 49
12.0
 49
-3.0
 49
12.0
 49
-3.0
 49
0.0
 49
-3.0
  0
LTYPE
  2
ACAD_ISO12W100
 70
     0
  3
ISO dash double-dot __ . . __ . . __ . . __ . .
 72
    65
 73
     6
 40
21.0
 49
12.0
 49
-3.0
 49
0.0
 49
-3.0
 49
0.0
 49
-3.0
  0
LTYPE
  2
ACAD_ISO13W100
 70
     0
  3
ISO double-dash double-dot __ __ . . __ __ . . 
 72
    65
 73
     8
 40
36.0
 49
12.0
 49
-3.0
 49
12.0
 49
-3.0
 49
0.0
 49
-3.0
 49
0.0
 49
-3.0
  0
LTYPE
  2
ACAD_ISO14W100
 70
     0
  3
ISO dash triple-dot __ . . . __ . . . __ . . . 
 72
    65
 73
     8
 40
24.0
 49
12.0
 49
-3.0
 49
0.0
 49
-3.0
 49
0.0
 49
-3.0
 49
0.0
 49
-3.0
  0
LTYPE
  2
ACAD_ISO15W100
 70
     0
  3
ISO double-dash triple-dot __ __ . . . __ __ . 
 72
    65
 73
    10
 40
39.0
 49
12.0
 49
-3.0
 49
12.0
 49
-3.0
 49
0.0
 49
-3.0
 49
0.0
 49
-3.0
 49
0.0
 49
-3.0
  0
LTYPE
  2
BORDER
 70
    64
  3
Border __ __ . __ __ . __ __ . __ __ . __ __ .
 72
    65
 73
     6
 40
3.5
 49
1.0
 49
-0.5
 49
1.0
 49
-0.5
 49
0.0
 49
-0.5
  0
LTYPE
  2
BORDER2
 70
    64
  3
Border (.5x) __.__.__.__.__.__.__.__.__.__.__.
 72
    65
 73
     6
 40
1.75
 49
0.5
 49
-0.25
 49
0.5
 49
-0.25
 49
0.0
 49
-0.25
  0
LTYPE
  2
BORDERX2
 70
    64
  3
Border (2x) ____  ____  .  ____  ____  .  ___
 72
    65
 73
     6
 40
7.0
 49
2.0
 49
-1.0
 49
2.0
 49
-1.0
 49
0.0
 49
-1.0
  0
LTYPE
  2
CENTER
 70
    64
  3
Center ____ _ ____ _ ____ _ ____ _ ____ _ ____
 72
    65
 73
     4
 40
12.0
 49
7.5
 49
-1.5
 49
1.5
 49
-1.5
  0
LTYPE
  2
CENTER2
 70
    64
  3
Center (.5x) ___ _ ___ _ ___ _ ___ _ ___ _ ___
 72
    65
 73
     4
 40
6.0
 49
3.75
 49
-0.75
 49
0.75
 49
-0.75
  0
LTYPE
  2
CENTERX2
 70
    64
  3
Center (2x) ________  __  ________  __  _____
 72
    65
 73
     4
 40
24.0
 49
15.0
 49
-3.0
 49
3.0
 49
-3.0
  0
LTYPE
  2
DASHDOT
 70
    64
  3
Dash dot __ . __ . __ . __ . __ . __ . __ . __
 72
    65
 73
     4
 40
6.0
 49
3.0
 49
-1.5
 49
0.0
 49
-1.5
  0
LTYPE
  2
DASHDOT2
 70
    64
  3
Dash dot (.5x) _._._._._._._._._._._._._._._.
 72
    65
 73
     4
 40
3.0
 49
1.5
 49
-0.75
 49
0.0
 49
-0.75
  0
LTYPE
  2
DASHDOTX2
 70
    64
  3
Dash dot (2x) ____  .  ____  .  ____  .  ___
 72
    65
 73
     4
 40
12.0
 49
6.0
 49
-3.0
 49
0.0
 49
-3.0
  0
LTYPE
  2
DASHED
 70
    64
  3
Dashed __ __ __ __ __ __ __ __ __ __ __ __ __ _
 72
    65
 73
     2
 40
4.5
 49
3.0
 49
-1.5
  0
LTYPE
  2
DASHED2
 70
    64
  3
Dashed (.5x) _ _ _ _ _ _ _ _ _ _ _ _ _ _ _ _ _
 72
    65
 73
     2
 40
2.25
 49
1.5
 49
-0.75
  0
LTYPE
  2
DASHEDX2
 70
    64
  3
Dashed (2x) ____  ____  ____  ____  ____  ___
 72
    65
 73
     2
 40
9.0
 49
6.0
 49
-3.0
  0
LTYPE
  2
DIVIDE
 70
    64
  3
Divide ____ . . ____ . . ____ . . ____ . . ____
 72
    65
 73
     6
 40
7.5
 49
3.0
 49
-1.5
 49
0.0
 49
-1.5
 49
0.0
 49
-1.5
  0
LTYPE
  2
DIVIDE2
 70
    64
  3
Divide (.5x) __..__..__..__..__..__..__..__.._
 72
    65
 73
     6
 40
3.75
 49
1.5
 49
-0.75
 49
0.0
 49
-0.75
 49
0.0
 49
-0.75
  0
LTYPE
  2
DIVIDEX2
 70
    64
  3
Divide (2x) ________  .  .  ________  .  .  _
 72
    65
 73
     6
 40
15.0
 49
6.0
 49
-3.0
 49
0.0
 49
-3.0
 49
0.0
 49
-3.0
  0
LTYPE
  2
DOT
 70
    64
  3
Dot . . . . . . . . . . . . . . . . . . . . . .
 72
    65
 73
     2
 40
1.5
 49
0.0
 49
-1.5
  0
LTYPE
  2
DOT2
 70
    64
  3
Dot (.5x) .....................................
 72
    65
 73
     2
 40
0.75
 49
0.0
 49
-0.75
  0
LTYPE
  2
DOTX2
 70
    64
  3
Dot (2x) .  .  .  .  .  .  .  .  .  .  .  .  . 
 72
    65
 73
     2
 40
3.0
 49
0.0
 49
-3.0
  0
LTYPE
  2
HIDDEN
 70
    64
  3
Hidden __ __ __ __ __ __ __ __ __ __ __ __ __ _
 72
    65
 73
     2
 40
4.5
 49
3.0
 49
-1.5
  0
LTYPE
  2
HIDDEN2
 70
    64
  3
Hidden (.5x) _ _ _ _ _ _ _ _ _ _ _ _ _ _ _ _ _
 72
    65
 73
     2
 40
2.25
 49
1.5
 49
-0.75
  0
LTYPE
  2
HIDDENX2
 70
    64
  3
Hidden (2x) ____ ____ ____ ____ ____ ____ ____
 72
    65
 73
     2
 40
9.0
 49
6.0
 49
-3.0
  0
LTYPE
  2
PHANTOM
 70
    64
  3
Phantom ______  __  __  ______  __  __  ______
 72
    65
 73
     6
 40
15.0
 49
7.5
 49
-1.5
 49
1.5
 49
-1.5
 49
1.5
 49
-1.5
  0
LTYPE
  2
PHANTOM2
 70
    64
  3
Phantom (.5x) ___ _ _ ___ _ _ ___ _ _ ___ _ _
 72
    65
 73
     6
 40
7.5
 49
3.75
 49
-0.75
 49
0.75
 49
-0.75
 49
0.75
 49
-0.75
  0
LTYPE
  2
PHANTOMX2
 70
    64
  3
Phantom (2x) ____________    ____    ____   _
 72
    65
 73
     6
 40
30.0
 49
15.0
 49
-3.0
 49
3.0
 49
-3.0
 49
3.0
 49
-3.0
  0
LTYPE
  2
JIS_02_0_7
 70
     0
  3
HIDDEN0.75 _ _ _ _ _ _ _ _ _ _ _ _ _ _ _ _ _
 72
    65
 73
     2
 40
1.3500000000000001
 49
0.75
 49
-0.6
  0
LTYPE
  2
JIS_02_1_0
 70
     0
  3
HIDDEN01 _ _ _ _ _ _ _ _ _ _ _ _ _ _ _ _ _
 72
    65
 73
     2
 40
2.0
 49
1.0
 49
-1.0
  0
LTYPE
  2
JIS_02_1_2
 70
     0
  3
HIDDEN01.25  _ _ _ _ _ _ _ _ _ _ _ _ _ _ _ _ _
 72
    65
 73
     2
 40
2.5
 49
1.25
 49
-1.25
  0
LTYPE
  2
JIS_02_2_0
 70
     0
  3
HIDDEN02 __ __ __ __ __ __ __ __ __ __ __
 72
    65
 73
     2
 40
3.0
 49
2.0
 49
-1.0
  0
LTYPE
  2
JIS_02_4_0
 70
     0
  3
HIDDEN04 ____ ____ ____ ____ ____ ____ ____
 72
    65
 73
     2
 40
5.5
 49
4.0
 49
-1.5
  0
LTYPE
  2
JIS_08_11
 70
     0
  3
1SASEN11 ___ _ ___ _ ___ _ ___ _ ___ _ ___
 72
    65
 73
     4
 40
12.800000000000001
 49
11.0
 49
-0.6
 49
0.6
 49
-0.6
  0
LTYPE
  2
JIS_08_15
 70
     0
  3
1SASEN15 ____ _ ____ _ ____ _ ____ _ ____
 72
    65
 73
     4
 40
17.25
 49
15.0
 49
-0.75
 49
0.75
 49
-0.75
  0
LTYPE
  2
JIS_08_25
 70
     0
  3
1SASEN25 ________  __  ________  __  _____
 72
    65
 73
     4
 40
28.0
 49
25.0
 49
-1.125
 49
0.75
 49
-1.125
  0
LTYPE
  2
JIS_08_37
 70
     0
  3
1SASEN37 ________  __  ________  __  _____
 72
    65
 73
     4
 40
40.499999999999993
 49
37.5
 49
-1.125
 49
0.75
 49
-1.125
  0
LTYPE
  2
JIS_08_50
 70
     0
  3
1SASEN50 _______________  __  ____________
 72
    65
 73
     4
 40
53.0
 49
50.0
 49
-1.125
 49
0.75
 49
-1.125
  0
LTYPE
  2
JIS_09_08
 70
     0
  3
2SASEN8 __ _ _ __ _ _ __ _ _ __ _ _ __ _ _
 72
    65
 73
     6
 40
10.75
 49
8.0
 49
-0.55
 49
0.55
 49
-0.55
 49
0.55
 49
-0.55
  0
LTYPE
  2
JIS_09_15
 70
     0
  3
2SASEN15 ___ _ _ ___ _ _ ___ _ _ ___ _ _ ___
 72
    65
 73
     6
 40
18.899999999999999
 49
15.0
 49
-0.9
 49
0.6
 49
-0.9
 49
0.6
 49
-0.9
  0
LTYPE
  2
JIS_09_29
 70
     0
  3
2SASEN29 ______  __  __  ______  __  __  ___
 72
    65
 73
     6
 40
34.0
 49
29.0
 49
-1.1999999999999991
 49
0.7
 49
-1.1999999999999991
 49
0.7
 49
-1.1999999999999991
  0
LTYPE
  2
JIS_09_50
 70
     0
  3
2SASEN50 ____________  __  __  _____________
 72
    65
 73
     6
 40
55.0
 49
50.0
 49
-1.1999999999999991
 49
0.7
 49
-1.1999999999999991
 49
0.7
 49
-1.1999999999999991
  0
ENDTAB
  0
TABLE
  2
LAYER
 70
     4
  0
LAYER
  2
0
 70
     0
 62
     7
  6
CONTINUOUS
  0
LAYER
  2
1
 70
     0
 62
     7
  6
CONTINUOUS
  0
LAYER
  2
2
 70
     0
 62
     7
  6
CONTINUOUS
  0
LAYER
  2
DEFPOINTS
 70
     0
 62
     7
  6
CONTINUOUS
  0
ENDTAB
  0
TABLE
  2
STYLE
 70
     1
  0
STYLE
  2
STANDARD
 70
     0
 40
0.0
 41
1.0
 50
0.0
 71
     0
 42
0.2
  3
txt
  4
BIGFONT
  0
ENDTAB
  0
TABLE
  2
DIMSTYLE
 70
     1
  0
DIMSTYLE
  2
DIMSTYLE
 70
     0
  3

  4

  5
_OPEN30
  6
_OPEN30
  7
_OPEN30
 40
1
 41
1
 42
1.5
 43
0.38
 44
2.54
 45
0
 46
0
 47
0
 48
0
140
3.200000047683716
141
0.09
142
0
143
25.4
144
1
145
0
146
1
147
1.600000023841858
 71
     0
 72
     0
 73
     0
 74
     0
 75
     0
 76
     0
 78
     0
170
     0
171
     2
 77
     0
172
     0
173
     1
174
     0
175
     0
176
     0
177
     0
178
     0
  0
ENDTAB
  0
ENDSEC
  0
SECTION
  2
BLOCKS
  0
BLOCK
  8
0
  2
_OPEN30
 70
    64
 10
0
 20
0
  3
_OPEN30
  0
LINE
  8
0
  6
BYBLOCK
 62
     0
 10
0
 20
0
 11
-2.999999954944514
 21
-0.9999999849815249
  0
LINE
  8
0
  6
BYBLOCK
 62
     0
 10
0
 20
0
 11
-2.999999954944526
 21
0.9999999849814883
  0
LINE
  8
0
  6
BYBLOCK
 62
     0
 10
0
 20
0
 11
-2.99999995494452
 21
0
  0
ENDBLK
  8
0
  0
BLOCK
  8
0
  2
*D1
 70
    65
 10
0
 20
0
  0
LINE
  8
0
  6
CONTINUOUS
 62
     7
 10
214.8074295216
 20
170.3076578645555
 11
214.8074295216
 21
50.30765777444452
  0
INSERT
  8
0
  6
CONTINUOUS
 62
     7
  2
_OPEN30
 10
214.8074295216
 20
173.3076578195
 50
90.00000000000019
  0
INSERT
  8
0
  6
CONTINUOUS
 62
     7
  2
_OPEN30
 10
214.8074295216
 20
47.3076578195
 50
270.0000000000005
  0
LINE
  8
0
  6
CONTINUOUS
 62
     7
 10
187.0574294990723
 20
173.3076578195
 11
216.3074295216
 21
173.3076578195
  0
LINE
  8
0
  6
CONTINUOUS
 62
     7
 10
187.0574294990723
 20
47.3076578195
 11
216.3074295216
 21
47.3076578195
  0
TEXT
  8
0
  6
CONTINUOUS
 62
     7
 10
214.0798253708279
 20
106.3576769645119
 40
2.910416603088379
 41
1.163303518854092
  1
126
 50
90.00000000000003
  0
POINT
  8
DEFPOINTS
  6
CONTINUOUS
 62
     7
 10
185.5574295216
 20
173.3076578195
  0
POINT
  8
DEFPOINTS
  6
CONTINUOUS
 62
     7
 10
185.5574295216
 20
47.3076578195
  0
POINT
  8
DEFPOINTS
  6
CONTINUOUS
 62
     7
 10
214.8074295216
 20
47.3076578195
  0
ENDBLK
  8
0
  0
BLOCK
  8
0
  2
*D2
 70
    65
 10
0
 20
0
  0
LINE
  8
0
  6
CONTINUOUS
 62
     7
 10
208.8074295216
 20
157.8076578645555
 11
208.8074295216
 21
62.80765777444452
  0
INSERT
  8
0
  6
CONTINUOUS
 62
     7
  2
_OPEN30
 10
208.8074295216
 20
160.8076578195
 50
90.00000000000019
  0
INSERT
  8
0
  6
CONTINUOUS
 62
     7
  2
_OPEN30
 10
208.8074295216
 20
59.8076578195
 50
270.0000000000005
  0
LINE
  8
0
  6
CONTINUOUS
 62
     7
 10
156.9074294990723
 20
160.8076578195
 11
210.3074295216
 21
160.8076578195
  0
LINE
  8
0
  6
CONTINUOUS
 62
     7
 10
156.9074294990723
 20
59.8076578195
 11
210.3074295216
 21
59.8076578195
  0
TEXT
  8
0
  6
CONTINUOUS
 62
     7
 10
208.0798253708279
 20
106.3576769645119
 40
2.910416603088379
 41
1.395964222624911
  1
101
 50
90.00000000000003
  0
POINT
  8
DEFPOINTS
  6
CONTINUOUS
 62
     7
 10
155.4074295216
 20
160.8076578195
  0
POINT
  8
DEFPOINTS
  6
CONTINUOUS
 62
     7
 10
155.4074295216
 20
59.8076578195
  0
POINT
  8
DEFPOINTS
  6
CONTINUOUS
 62
     7
 10
208.8074295216
 20
59.8076578195
  0
ENDBLK
  8
0
  0
BLOCK
  8
0
  2
*D3
 70
    65
 10
0
 20
0
  0
LINE
  8
0
  6
CONTINUOUS
 62
     7
 10
183.8074295666555
 20
25.30765781949998
 11
63.80742947654452
 21
25.3076578195
  0
INSERT
  8
0
  6
CONTINUOUS
 62
     7
  2
_OPEN30
 10
186.8074295216
 20
25.3076578195
  0
INSERT
  8
0
  6
CONTINUOUS
 62
     7
  2
_OPEN30
 10
60.8074295216
 20
25.3076578195
 50
180.0000000000004
  0
LINE
  8
0
  6
CONTINUOUS
 62
     7
 10
186.8074295216
 20
47.05765784202774
 11
186.8074295216
 21
23.8076578195
  0
LINE
  8
0
  6
CONTINUOUS
 62
     7
 10
60.80742952160001
 20
47.05765784202774
 11
60.8074295216
 21
23.8076578195
  0
TEXT
  8
0
  6
CONTINUOUS
 62
     7
 10
119.8574486666119
 20
26.0352619702721
 40
2.910416603088379
 41
1.163303518854092
  1
126
  0
POINT
  8
DEFPOINTS
  6
CONTINUOUS
 62
     7
 10
186.8074295216
 20
48.5576578195
  0
POINT
  8
DEFPOINTS
  6
CONTINUOUS
 62
     7
 10
60.8074295216
 20
48.5576578195
  0
POINT
  8
DEFPOINTS
  6
CONTINUOUS
 62
     7
 10
60.8074295216
 20
25.3076578195
  0
ENDBLK
  8
0
  0
BLOCK
  8
0
  2
*D4
 70
    65
 10
0
 20
0
  0
LINE
  8
0
  6
CONTINUOUS
 62
     7
 10
143.8074295666555
 20
31.30765781949998
 11
103.8074294765445
 21
31.3076578195
  0
INSERT
  8
0
  6
CONTINUOUS
 62
     7
  2
_OPEN30
 10
146.8074295216
 20
31.3076578195
  0
INSERT
  8
0
  6
CONTINUOUS
 62
     7
  2
_OPEN30
 10
100.8074295216
 20
31.3076578195
 50
180.0000000000004
  0
LINE
  8
0
  6
CONTINUOUS
 62
     7
 10
146.8074295216
 20
49.70765784202775
 11
146.8074295216
 21
29.8076578195
  0
LINE
  8
0
  6
CONTINUOUS
 62
     7
 10
100.8074295216
 20
49.70765784202775
 11
100.8074295216
 21
29.8076578195
  0
TEXT
  8
0
  6
CONTINUOUS
 62
     7
 10
121.3126569085515
 20
32.0352619702721
 40
2.910416603088379
 41
1.028624950971445
  1
46
  0
POINT
  8
DEFPOINTS
  6
CONTINUOUS
 62
     7
 10
146.8074295216
 20
51.20765781950001
  0
POINT
  8
DEFPOINTS
  6
CONTINUOUS
 62
     7
 10
100.8074295216
 20
51.20765781950001
  0
POINT
  8
DEFPOINTS
  6
CONTINUOUS
 62
     7
 10
100.8074295216
 20
31.3076578195
  0
ENDBLK
  8
0
  0
BLOCK
  8
0
  2
*D5
 70
    65
 10
0
 20
0
  0
LINE
  8
0
  6
CONTINUOUS
 62
     7
 10
202.8074295216
 20
141.9076578645555
 11
202.8074295216
 21
124.7076577744445
  0
INSERT
  8
0
  6
CONTINUOUS
 62
     7
  2
_OPEN30
 10
202.8074295216
 20
144.9076578195
 50
90.00000000000019
  0
INSERT
  8
0
  6
CONTINUOUS
 62
     7
  2
_OPEN30
 10
202.8074295216
 20
121.7076578195
 50
270.0000000000005
  0
LINE
  8
0
  6
CONTINUOUS
 62
     7
 10
162.5574294990723
 20
144.9076578195
 11
204.3074295216
 21
144.9076578195
  0
LINE
  8
0
  6
CONTINUOUS
 62
     7
 10
162.5574294990723
 20
121.7076578195
 11
204.3074295216
 21
121.7076578195
  0
TEXT
  8
0
  6
CONTINUOUS
 62
     7
 10
202.0798253708279
 20
128.7755936677361
 40
2.910416603088379
 41
1.238124945455562
  1
23.2
 50
90.00000000000003
  0
POINT
  8
DEFPOINTS
  6
CONTINUOUS
 62
     7
 10
161.0574295216
 20
144.9076578195
  0
POINT
  8
DEFPOINTS
  6
CONTINUOUS
 62
     7
 10
161.0574295216
 20
121.7076578195
  0
POINT
  8
DEFPOINTS
  6
CONTINUOUS
 62
     7
 10
202.8074295216
 20
121.7076578195
  0
ENDBLK
  8
0
  0
BLOCK
  8
0
  2
*D6
 70
    65
 10
0
 20
0
  0
LINE
  8
0
  6
CONTINUOUS
 62
     7
 10
202.8074295216
 20
118.7076578645555
 11
202.8074295216
 21
101.9076577744445
  0
INSERT
  8
0
  6
CONTINUOUS
 62
     7
  2
_OPEN30
 10
202.8074295216
 20
121.7076578195
 50
90.00000000000019
  0
INSERT
  8
0
  6
CONTINUOUS
 62
     7
  2
_OPEN30
 10
202.8074295216
 20
98.9076578195
 50
270.0000000000005
  0
LINE
  8
0
  6
CONTINUOUS
 62
     7
 10
162.5574294990723
 20
121.7076578195
 11
204.3074295216
 21
121.7076578195
  0
LINE
  8
0
  6
CONTINUOUS
 62
     7
 10
162.5574294990723
 20
98.9076578195
 11
204.3074295216
 21
98.9076578195
  0
TEXT
  8
0
  6
CONTINUOUS
 62
     7
 10
202.0798253708279
 20
105.7755936677361
 40
2.910416603088379
 41
1.238124945455562
  1
22.8
 50
90.00000000000003
  0
POINT
  8
DEFPOINTS
  6
CONTINUOUS
 62
     7
 10
161.0574295216
 20
121.7076578195
  0
POINT
  8
DEFPOINTS
  6
CONTINUOUS
 62
     7
 10
161.0574295216
 20
98.9076578195
  0
POINT
  8
DEFPOINTS
  6
CONTINUOUS
 62
     7
 10
202.8074295216
 20
98.9076578195
  0
ENDBLK
  8
0
  0
BLOCK
  8
0
  2
*D7
 70
    65
 10
0
 20
0
  0
LINE
  8
0
  6
CONTINUOUS
 62
     7
 10
202.8074295216
 20
95.90765786455549
 11
202.8074295216
 21
78.70765777444451
  0
INSERT
  8
0
  6
CONTINUOUS
 62
     7
  2
_OPEN30
 10
202.8074295216
 20
98.9076578195
 50
90.00000000000019
  0
INSERT
  8
0
  6
CONTINUOUS
 62
     7
  2
_OPEN30
 10
202.8074295216
 20
75.7076578195
 50
270.0000000000005
  0
LINE
  8
0
  6
CONTINUOUS
 62
     7
 10
162.5574294990723
 20
98.9076578195
 11
204.3074295216
 21
98.9076578195
  0
LINE
  8
0
  6
CONTINUOUS
 62
     7
 10
162.5574294990723
 20
75.7076578195
 11
204.3074295216
 21
75.7076578195
  0
TEXT
  8
0
  6
CONTINUOUS
 62
     7
 10
202.0798253708279
 20
82.77559366773608
 40
2.910416603088379
 41
1.238124945455562
  1
23.2
 50
90.00000000000003
  0
POINT
  8
DEFPOINTS
  6
CONTINUOUS
 62
     7
 10
161.0574295216
 20
98.9076578195
  0
POINT
  8
DEFPOINTS
  6
CONTINUOUS
 62
     7
 10
161.0574295216
 20
75.7076578195
  0
POINT
  8
DEFPOINTS
  6
CONTINUOUS
 62
     7
 10
202.8074295216
 20
75.7076578195
  0
ENDBLK
  8
0
  0
BLOCK
  8
0
  2
*D8
 70
    65
 10
0
 20
0
  0
LINE
  8
0
  6
CONTINUOUS
 62
     7
 10
135.5574294765445
 20
183.3076578195
 11
158.0574295666555
 21
183.3076578195
  0
INSERT
  8
0
  6
CONTINUOUS
 62
     7
  2
_OPEN30
 10
132.5574295216
 20
183.3076578195
 50
180.0000000000004
  0
INSERT
  8
0
  6
CONTINUOUS
 62
     7
  2
_OPEN30
 10
161.0574295216
 20
183.3076578195
  0
LINE
  8
0
  6
CONTINUOUS
 62
     7
 10
132.5574295216
 20
146.4076577969723
 11
132.5574295216
 21
184.8076578195
  0
LINE
  8
0
  6
CONTINUOUS
 62
     7
 10
161.0574295216
 20
146.4076577969723
 11
161.0574295216
 21
184.8076578195
  0
TEXT
  8
0
  6
CONTINUOUS
 62
     7
 10
142.2753653698361
 20
184.0352619702721
 40
2.910416603088379
 41
1.238124945455562
  1
28.5
  0
POINT
  8
DEFPOINTS
  6
CONTINUOUS
 62
     7
 10
132.5574295216
 20
144.9076578195
  0
POINT
  8
DEFPOINTS
  6
CONTINUOUS
 62
     7
 10
161.0574295216
 20
144.9076578195
  0
POINT
  8
DEFPOINTS
  6
CONTINUOUS
 62
     7
 10
161.0574295216
 20
183.3076578195
  0
ENDBLK
  8
0
  0
BLOCK
  8
0
  2
*D9
 70
    65
 10
0
 20
0
  0
LINE
  8
0
  6
CONTINUOUS
 62
     7
 10
118.0574294765445
 20
183.3076578195
 11
129.5574295666555
 21
183.3076578195
  0
INSERT
  8
0
  6
CONTINUOUS
 62
     7
  2
_OPEN30
 10
115.0574295216
 20
183.3076578195
 50
180.0000000000004
  0
INSERT
  8
0
  6
CONTINUOUS
 62
     7
  2
_OPEN30
 10
132.5574295216
 20
183.3076578195
  0
LINE
  8
0
  6
CONTINUOUS
 62
     7
 10
115.0574295216
 20
146.4076577969723
 11
115.0574295216
 21
184.8076578195
  0
LINE
  8
0
  6
CONTINUOUS
 62
     7
 10
132.5574295216
 20
146.4076577969723
 11
132.5574295216
 21
184.8076578195
  0
TEXT
  8
0
  6
CONTINUOUS
 62
     7
 10
119.2753653698361
 20
184.0352619702721
 40
2.910416603088379
 41
1.392890563637508
  1
17.5
  0
POINT
  8
DEFPOINTS
  6
CONTINUOUS
 62
     7
 10
115.0574295216
 20
144.9076578195
  0
POINT
  8
DEFPOINTS
  6
CONTINUOUS
 62
     7
 10
132.5574295216
 20
144.9076578195
  0
POINT
  8
DEFPOINTS
  6
CONTINUOUS
 62
     7
 10
132.5574295216
 20
183.3076578195
  0
ENDBLK
  8
0
  0
BLOCK
  8
0
  2
*D10
 70
    65
 10
0
 20
0
  0
LINE
  8
0
  6
CONTINUOUS
 62
     7
 10
112.0574295666555
 20
183.3076578195
 11
89.55742947654451
 21
183.3076578195
  0
INSERT
  8
0
  6
CONTINUOUS
 62
     7
  2
_OPEN30
 10
115.0574295216
 20
183.3076578195
  0
INSERT
  8
0
  6
CONTINUOUS
 62
     7
  2
_OPEN30
 10
86.5574295216
 20
183.3076578195
 50
180.0000000000004
  0
LINE
  8
0
  6
CONTINUOUS
 62
     7
 10
115.0574295216
 20
146.4076577969723
 11
115.0574295216
 21
184.8076578195
  0
LINE
  8
0
  6
CONTINUOUS
 62
     7
 10
86.5574295216
 20
146.4076577969723
 11
86.5574295216
 21
184.8076578195
  0
TEXT
  8
0
  6
CONTINUOUS
 62
     7
 10
96.27536536983608
 20
184.0352619702721
 40
2.910416603088379
 41
1.238124945455562
  1
28.5
  0
POINT
  8
DEFPOINTS
  6
CONTINUOUS
 62
     7
 10
115.0574295216
 20
144.9076578195
  0
POINT
  8
DEFPOINTS
  6
CONTINUOUS
 62
     7
 10
86.5574295216
 20
144.9076578195
  0
POINT
  8
DEFPOINTS
  6
CONTINUOUS
 62
     7
 10
86.5574295216
 20
183.3076578195
  0
ENDBLK
  8
0
  0
BLOCK
  8
0
  2
*D11
 70
    65
 10
0
 20
0
  0
LINE
  8
0
  6
CONTINUOUS
 62
     7
 10
245.2728394305
 20
25.3076578195
 11
232.1959835206756
 21
25.3076578195
  0
LINE
  8
0
  6
CONTINUOUS
 62
     7
 10
251.7728394305
 20
25.3076578195
 11
245.2728394305
 21
25.3076578195
  0
INSERT
  8
0
  6
CONTINUOUS
 62
     7
  2
_OPEN30
 10
251.7728394305
 20
25.3076578195
 50
180
  0
LINE
  8
0
  6
CONTINUOUS
 62
     7
 10
254.7728393854445
 20
25.3076578195
 11
258.1228393351325
 21
25.3076578195
  0
INSERT
  8
0
  6
CONTINUOUS
 62
     7
  2
_OPEN30
 10
245.2728394305
 20
25.3076578195
 50
3.562221243239139e-013
  0
LINE
  8
0
  6
CONTINUOUS
 62
     7
 10
242.2728394755555
 20
25.30765781949998
 11
238.9228395258674
 21
25.30765781949996
  0
LINE
  8
0
  6
CONTINUOUS
 62
     7
 10
251.7728394305
 20
45.80765784202774
 11
251.7728394305
 21
23.8076578195
  0
LINE
  8
0
  6
CONTINUOUS
 62
     7
 10
245.2728394305
 20
47.05765784202774
 11
245.2728394305
 21
23.8076578195
  0
TEXT
  8
0
  6
CONTINUOUS
 62
     7
 10
232.1959835206756
 20
26.0352619702721
 40
2.910416603088379
 41
1.357187438663108
  1
6.5
  0
POINT
  8
DEFPOINTS
  6
CONTINUOUS
 62
     7
 10
251.7728394305
 20
47.3076578195
  0
POINT
  8
DEFPOINTS
  6
CONTINUOUS
 62
     7
 10
245.2728394305
 20
48.5576578195
  0
POINT
  8
DEFPOINTS
  6
CONTINUOUS
 62
     7
 10
245.2728394305
 20
25.3076578195
  0
ENDBLK
  8
0
  0
BLOCK
  8
0
  2
KOZU0001
 70
    64
 10
0
 20
0
  0
ENDBLK
  8
0
  0
BLOCK
  8
0
  2
KOZU0002
 70
    64
 10
0
 20
0
  0
ENDBLK
  8
0
  0
BLOCK
  8
0
  2
KOZU0003
 70
    64
 10
0
 20
0
  0
ENDBLK
  8
0
  0
BLOCK
  8
0
  2
KOZU0004
 70
    64
 10
0
 20
0
  0
LINE
  8
0
  6
CONTINUOUS
 62
     7
 10
-1
 20
0.267949
 11
0
 21
0
  0
LINE
  8
0
  6
CONTINUOUS
 62
     7
 10
0
 20
0
 11
-1
 21
-0.267949
  0
LINE
  8
0
  6
CONTINUOUS
 62
     7
 10
0
 20
0
 11
-1
 21
0
  0
ENDBLK
  8
0
  0
BLOCK
  8
0
  2
KOZU0005
 70
    64
 10
0
 20
0
  0
LINE
  8
0
  6
CONTINUOUS
 62
     7
 10
0
 20
0
 11
1
 21
0
  0
LINE
  8
0
  6
CONTINUOUS
 62
     7
 10
0
 20
0
 11
0
 21
1
  0
LINE
  8
0
  6
CONTINUOUS
 62
     7
 10
0
 20
0
 11
-1
 21
0
  0
LINE
  8
0
  6
CONTINUOUS
 62
     7
 10
0
 20
0
 11
0
 21
-1
  0
LINE
  8
0
  6
CONTINUOUS
 62
     7
 10
2
 20
0
 11
4.6
 21
0
  0
LINE
  8
0
  6
CONTINUOUS
 62
     7
 10
0
 20
2
 11
0
 21
17.1044921581
  0
LINE
  8
0
  6
CONTINUOUS
 62
     7
 10
-2
 20
0
 11
-4.6
 21
0
  0
LINE
  8
0
  6
CONTINUOUS
 62
     7
 10
0
 20
-101
 11
1
 21
-101
  0
LINE
  8
0
  6
CONTINUOUS
 62
     7
 10
0
 20
-101
 11
0
 21
-100
  0
LINE
  8
0
  6
CONTINUOUS
 62
     7
 10
0
 20
-101
 11
-1
 21
-101
  0
LINE
  8
0
  6
CONTINUOUS
 62
     7
 10
0
 20
-101
 11
0
 21
-102
  0
LINE
  8
0
  6
CONTINUOUS
 62
     7
 10
2
 20
-101
 11
4.6
 21
-101
  0
LINE
  8
0
  6
CONTINUOUS
 62
     7
 10
-2
 20
-101
 11
-4.6
 21
-101
  0
LINE
  8
0
  6
CONTINUOUS
 62
     7
 10
0
 20
-103
 11
0
 21
-116.8041658646
  0
LINE
  8
0
  6
CENTER
 62
     7
 10
0
 20
-2
 11
0
 21
-99
  0
ENDBLK
  8
0
  0
BLOCK
  8
0
  2
KOZU0006
 70
    64
 10
0
 20
0
  0
LINE
  8
0
  6
CONTINUOUS
 62
     7
 10
0
 20
0
 11
1
 21
0
  0
LINE
  8
0
  6
CONTINUOUS
 62
     7
 10
0
 20
0
 11
0
 21
1
  0
LINE
  8
0
  6
CONTINUOUS
 62
     7
 10
0
 20
0
 11
-1
 21
0
  0
LINE
  8
0
  6
CONTINUOUS
 62
     7
 10
0
 20
0
 11
0
 21
-1
  0
LINE
  8
0
  6
CONTINUOUS
 62
     7
 10
2
 20
0
 11
4.6
 21
0
  0
LINE
  8
0
  6
CONTINUOUS
 62
     7
 10
0
 20
2
 11
0
 21
16.9078568306
  0
LINE
  8
0
  6
CONTINUOUS
 62
     7
 10
-2
 20
0
 11
-4.6
 21
0
  0
LINE
  8
0
  6
CONTINUOUS
 62
     7
 10
0
 20
-101
 11
1
 21
-101
  0
LINE
  8
0
  6
CONTINUOUS
 62
     7
 10
0
 20
-101
 11
0
 21
-100
  0
LINE
  8
0
  6
CONTINUOUS
 62
     7
 10
0
 20
-101
 11
-1
 21
-101
  0
LINE
  8
0
  6
CONTINUOUS
 62
     7
 10
0
 20
-101
 11
0
 21
-102
  0
LINE
  8
0
  6
CONTINUOUS
 62
     7
 10
2
 20
-101
 11
4.6
 21
-101
  0
LINE
  8
0
  6
CONTINUOUS
 62
     7
 10
-2
 20
-101
 11
-4.6
 21
-101
  0
LINE
  8
0
  6
CONTINUOUS
 62
     7
 10
0
 20
-103
 11
0
 21
-116.0176245546
  0
LINE
  8
0
  6
CENTER
 62
     7
 10
0
 20
-2
 11
0
 21
-99
  0
ENDBLK
  8
0
  0
ENDSEC
  0
SECTION
  2
ENTITIES
  0
LINE
  8
0
  6
CONTINUOUS
 62
     7
 10
146.8074295663
 20
58.3642811591
 11
148.0574302369
 21
59.08597047280001
  0
LINE
  8
0
  6
CONTINUOUS
 62
     7
 10
148.0574302369
 20
59.0859704728
 11
148.0574302369
 21
60.5293453748
  0
LINE
  8
0
  6
CONTINUOUS
 62
     7
 10
145.5574288958
 20
60.5293453748
 11
145.5574288958
 21
59.0859704728
  0
LINE
  8
0
  6
CONTINUOUS
 62
     7
 10
148.0574302369
 20
60.52934537480002
 11
146.8074295663
 21
61.25103468850001
  0
LINE
  8
0
  6
CONTINUOUS
 62
     7
 10
146.8074295663
 20
61.2510346885
 11
145.5574288958
 21
60.5293453748
  0
LINE
  8
0
  6
CONTINUOUS
 62
     7
 10
145.5574288958
 20
59.08597047279999
 11
146.8074295663
 21
58.3642811591
  0
LINE
  8
0
  6
CONTINUOUS
 62
     7
 10
100.8074294769
 20
58.36428115910002
 11
102.0574301475
 21
59.08597047280001
  0
LINE
  8
0
  6
CONTINUOUS
 62
     7
 10
102.0574301475
 20
59.0859704728
 11
102.0574301475
 21
60.5293453748
  0
LINE
  8
0
  6
CONTINUOUS
 62
     7
 10
102.0574301475
 20
60.52934537480002
 11
100.8074294769
 21
61.25103468850001
  0
LINE
  8
0
  6
CONTINUOUS
 62
     7
 10
100.8074294769
 20
61.25103468850001
 11
99.5574288064
 21
60.5293453748
  0
LINE
  8
0
  6
CONTINUOUS
 62
     7
 10
99.5574288064
 20
60.5293453748
 11
99.5574288064
 21
59.0859704728
  0
LINE
  8
0
  6
CONTINUOUS
 62
     7
 10
99.5574288064
 20
59.0859704728
 11
100.8074294769
 21
58.3642811591
  0
LINE
  8
0
  6
CONTINUOUS
 62
     7
 10
148.0574302369
 20
160.0859702642
 11
148.0574302369
 21
161.5293451662
  0
LINE
  8
0
  6
CONTINUOUS
 62
     7
 10
148.0574302369
 20
161.5293451662
 11
146.8074295663
 21
162.2510344798
  0
LINE
  8
0
  6
CONTINUOUS
 62
     7
 10
146.8074295663
 20
162.2510344798
 11
145.5574288958
 21
161.5293451662
  0
LINE
  8
0
  6
CONTINUOUS
 62
     7
 10
146.8074295663
 20
159.3642809505
 11
148.0574302369
 21
160.0859702642
  0
LINE
  8
0
  6
CONTINUOUS
 62
     7
 10
145.5574288958
 20
160.0859702642
 11
146.8074295663
 21
159.3642809505
  0
LINE
  8
0
  6
CONTINUOUS
 62
     7
 10
145.5574288958
 20
161.5293451662
 11
145.5574288958
 21
160.0859702642
  0
LINE
  8
0
  6
CONTINUOUS
 62
     7
 10
100.8074294769
 20
159.3642809505
 11
102.0574301475
 21
160.0859702642
  0
LINE
  8
0
  6
CONTINUOUS
 62
     7
 10
102.0574301475
 20
160.0859702642
 11
102.0574301475
 21
161.5293451662
  0
LINE
  8
0
  6
CONTINUOUS
 62
     7
 10
102.0574301475
 20
161.5293451662
 11
100.8074294769
 21
162.2510344798
  0
LINE
  8
0
  6
CONTINUOUS
 62
     7
 10
100.8074294769
 20
162.2510344798
 11
99.5574288064
 21
161.5293451662
  0
LINE
  8
0
  6
CONTINUOUS
 62
     7
 10
99.5574288064
 20
161.5293451662
 11
99.5574288064
 21
160.0859702642
  0
LINE
  8
0
  6
CONTINUOUS
 62
     7
 10
99.5574288064
 20
160.0859702642
 11
100.8074294769
 21
159.3642809505
  0
LINE
  8
0
  6
CONTINUOUS
 62
     7
 10
62.0574310415
 20
173.3076588328
 11
185.5574280017
 21
173.3076588328
  0
LINE
  8
0
  6
CONTINUOUS
 62
     7
 10
186.8074305349
 20
172.0576562996
 11
186.8074305349
 21
48.5576593394
  0
LINE
  8
0
  6
CONTINUOUS
 62
     7
 10
115.0574294844
 20
121.7076580117
 11
115.0574294844
 21
144.907658648
  0
LINE
  8
0
  6
CONTINUOUS
 62
     7
 10
115.0574294844
 20
98.9076576273
 11
86.5574285381
 21
98.9076576273
  0
LINE
  8
0
  6
CONTINUOUS
 62
     7
 10
161.0574305051
 20
144.907658648
 11
161.0574305051
 21
121.7076580117
  0
LINE
  8
0
  6
CONTINUOUS
 62
     7
 10
132.5574295589
 20
98.9076576273
 11
161.0574305051
 21
98.9076576273
  0
LINE
  8
0
  6
CONTINUOUS
 62
     7
 10
132.5574295589
 20
144.907658648
 11
161.0574305051
 21
144.907658648
  0
LINE
  8
0
  6
CONTINUOUS
 62
     7
 10
132.5574295589
 20
121.7076580117
 11
132.5574295589
 21
144.907658648
  0
LINE
  8
0
  6
CONTINUOUS
 62
     7
 10
161.0574305051
 20
121.7076580117
 11
132.5574295589
 21
121.7076580117
  0
LINE
  8
0
  6
CONTINUOUS
 62
     7
 10
86.5574285381
 20
75.70765699099999
 11
115.0574294844
 21
75.70765699099999
  0
LINE
  8
0
  6
CONTINUOUS
 62
     7
 10
115.0574294844
 20
75.70765699099999
 11
115.0574294844
 21
98.9076576273
  0
LINE
  8
0
  6
CONTINUOUS
 62
     7
 10
86.5574285381
 20
98.9076576273
 11
86.5574285381
 21
75.70765699099999
  0
LINE
  8
0
  6
CONTINUOUS
 62
     7
 10
86.5574285381
 20
121.7076580117
 11
115.0574294844
 21
121.7076580117
  0
LINE
  8
0
  6
CONTINUOUS
 62
     7
 10
115.0574294844
 20
144.907658648
 11
86.5574285381
 21
144.907658648
  0
LINE
  8
0
  6
CONTINUOUS
 62
     7
 10
86.5574285381
 20
144.907658648
 11
86.5574285381
 21
121.7076580117
  0
LINE
  8
0
  6
CONTINUOUS
 62
     7
 10
132.5574295589
 20
75.70765699099999
 11
132.5574295589
 21
98.9076576273
  0
LINE
  8
0
  6
CONTINUOUS
 62
     7
 10
161.0574305051
 20
75.70765699099999
 11
132.5574295589
 21
75.70765699099999
  0
LINE
  8
0
  6
CONTINUOUS
 62
     7
 10
161.0574305051
 20
98.9076576273
 11
161.0574305051
 21
75.70765699099999
  0
LINE
  8
0
  6
CONTINUOUS
 62
     7
 10
185.5574280017
 20
47.3076568062
 11
62.0574310415
 21
47.3076568062
  0
LINE
  8
0
  6
CONTINUOUS
 62
     7
 10
60.8074285083
 20
48.5576593394
 11
60.8074285083
 21
172.0576562996
  0
LINE
  8
0
  6
CENTER
 62
     7
 10
193.9584392517
 20
110.3076578195
 11
54.0351431779
 21
110.3076578195
  0
LINE
  8
0
  6
CENTER
 62
     7
 10
123.8074295216
 20
39.4808794226
 11
123.8074295216
 21
180.86167989
  0
LINE
  8
0
  6
CONTINUOUS
 62
     7
 10
246.2728394603
 20
173.3076588328
 11
251.7728394305
 21
173.3076588328
  0
LINE
  8
0
  6
CONTINUOUS
 62
     7
 10
251.7728394305
 20
173.3076588328
 11
251.7728394305
 21
172.0576562996
  0
LINE
  8
0
  6
CONTINUOUS
 62
     7
 10
251.7728394305
 20
48.5576593394
 11
251.7728394305
 21
172.0576562996
  0
LINE
  8
0
  6
CONTINUOUS
 62
     7
 10
251.7728394305
 20
47.3076568062
 11
246.2728394603
 21
47.3076568062
  0
LINE
  8
0
  6
CONTINUOUS
 62
     7
 10
251.7728394305
 20
48.5576593394
 11
251.7728394305
 21
47.3076568062
  0
LINE
  8
0
  6
CONTINUOUS
 62
     7
 10
245.2728392963
 20
48.5576593394
 11
245.2728392963
 21
48.3076588328
  0
LINE
  8
0
  6
CONTINUOUS
 62
     7
 10
245.2728392963
 20
172.3076568062
 11
245.2728392963
 21
172.0576562996
  0
LINE
  8
0
  6
CONTINUOUS
 62
     7
 10
245.2728392963
 20
48.5576593394
 11
245.2728392963
 21
172.0576562996
  0
LINE
  8
0
  6
CENTER
 62
     7
 10
255.7812736002
 20
110.3076578195
 11
241.3177366906
 21
110.3076578195
  0
LINE
  8
0
  6
CONTINUOUS
 62
     7
 10
186.8074305349
 20
198.9940959243
 11
186.8074305349
 21
193.4940959541
  0
LINE
  8
0
  6
CONTINUOUS
 62
     7
 10
185.5574280017
 20
198.9940959243
 11
186.8074305349
 21
198.9940959243
  0
LINE
  8
0
  6
CONTINUOUS
 62
     7
 10
185.5574280017
 20
198.9940959243
 11
62.0574310415
 21
198.9940959243
  0
LINE
  8
0
  6
CONTINUOUS
 62
     7
 10
60.8074285083
 20
193.4940959541
 11
60.8074285083
 21
198.9940959243
  0
LINE
  8
0
  6
CONTINUOUS
 62
     7
 10
60.8074285083
 20
198.9940959243
 11
62.0574310415
 21
198.9940959243
  0
LINE
  8
0
  6
CONTINUOUS
 62
     7
 10
61.8074305349
 20
192.4940957902
 11
62.0574310415
 21
192.4940957902
  0
LINE
  8
0
  6
CONTINUOUS
 62
     7
 10
185.5574280017
 20
192.4940957902
 11
185.8074285083
 21
192.4940957902
  0
LINE
  8
0
  6
CONTINUOUS
 62
     7
 10
185.5574280017
 20
192.4940957902
 11
62.0574310415
 21
192.4940957902
  0
LINE
  8
0
  6
CENTER
 62
     7
 10
123.8074295216
 20
202.8270828131
 11
123.8074295216
 21
188.7330854853
  0
LINE
  8
0
  6
CENTER
 62
     7
 10
100.8074295216
 20
169.4076578195
 11
100.8074295216
 21
51.20765781950001
  0
LINE
  8
0
  6
CENTER
 62
     7
 10
92.20742952160001
 20
160.8076578195
 11
109.4074295216
 21
160.8076578195
  0
LINE
  8
0
  6
CENTER
 62
     7
 10
92.20742952160001
 20
59.8076578195
 11
109.4074295216
 21
59.8076578195
  0
LINE
  8
0
  6
CENTER
 62
     7
 10
146.8074295216
 20
169.4076578195
 11
146.8074295216
 21
51.20765781950001
  0
LINE
  8
0
  6
CENTER
 62
     7
 10
155.4074295216
 20
160.8076578195
 11
138.2074295216
 21
160.8076578195
  0
LINE
  8
0
  6
CENTER
 62
     7
 10
155.4074295216
 20
59.8076578195
 11
138.2074295216
 21
59.8076578195
  0
LINE
  8
0
  6
CONTINUOUS
 62
     7
 10
254.9393054163
 20
21.3598707695
 11
254.9393054163
 21
17.0184295493
  0
LINE
  8
0
  6
CONTINUOUS
 62
     7
 10
254.9393054163
 20
21.3598707695
 11
256.2256583739
 21
21.3598707695
  0
LINE
  8
0
  6
CONTINUOUS
 62
     7
 10
256.2256583739
 20
21.3598707695
 11
256.2256583739
 21
17.8224001594
  0
LINE
  8
0
  6
CONTINUOUS
 62
     7
 10
256.2256583739
 20
17.8224001594
 11
257.110026073
 21
17.8224001594
  0
LINE
  8
0
  6
CONTINUOUS
 62
     7
 10
257.110026073
 20
21.3598707695
 11
257.110026073
 21
17.8224001594
  0
LINE
  8
0
  6
CONTINUOUS
 62
     7
 10
257.110026073
 20
21.3598707695
 11
258.2355848993
 21
21.3598707695
  0
LINE
  8
0
  6
CONTINUOUS
 62
     7
 10
258.2355848993
 20
21.3598707695
 11
258.2355848993
 21
18.4655764986
  0
LINE
  8
0
  6
CONTINUOUS
 62
     7
 10
258.2355848993
 20
18.4655764986
 11
259.1199524587
 21
18.4655764986
  0
LINE
  8
0
  6
CONTINUOUS
 62
     7
 10
259.1199524587
 20
21.3598707695
 11
259.1199524587
 21
18.4655764986
  0
LINE
  8
0
  6
CONTINUOUS
 62
     7
 10
259.1199524587
 20
21.3598707695
 11
260.4063054163
 21
21.3598707695
  0
LINE
  8
0
  6
CONTINUOUS
 62
     7
 10
260.4063054163
 20
21.3598707695
 11
260.4063054163
 21
17.8224001594
  0
LINE
  8
0
  6
CONTINUOUS
 62
     7
 10
260.4063054163
 20
17.8224001594
 11
258.2355848993
 21
17.8224001594
  0
LINE
  8
0
  6
CONTINUOUS
 62
     7
 10
258.2355848993
 20
17.8224001594
 11
258.2355848993
 21
17.0184295493
  0
LINE
  8
0
  6
CONTINUOUS
 62
     7
 10
254.9393054163
 20
17.0184295493
 11
258.2355848993
 21
17.0184295493
  0
LINE
  8
0
  6
CONTINUOUS
 62
     7
 10
206.97525
 20
6.372375
 11
206.97525
 21
21.992375
  0
POLYLINE
  8
0
  6
CONTINUOUS
 62
     7
 66
     1
 10
0
 20
0
 40
0.300000011920929
 41
0.300000011920929
  0
VERTEX
  8
0
  6
CONTINUOUS
 62
     7
 10
15.27525
 20
6.372375
  0
VERTEX
  8
0
  6
CONTINUOUS
 62
     7
 10
290.40025
 20
6.372375
  0
SEQEND
  8
0
  6
CONTINUOUS
 62
     7
  0
POLYLINE
  8
0
  6
CONTINUOUS
 62
     7
 66
     1
 10
0
 20
0
 40
0.300000011920929
 41
0.300000011920929
  0
VERTEX
  8
0
  6
CONTINUOUS
 62
     7
 10
15.27525
 20
203.042375
  0
VERTEX
  8
0
  6
CONTINUOUS
 62
     7
 10
15.27525
 20
6.372375
  0
SEQEND
  8
0
  6
CONTINUOUS
 62
     7
  0
POLYLINE
  8
0
  6
CONTINUOUS
 62
     7
 66
     1
 10
0
 20
0
 40
0.300000011920929
 41
0.300000011920929
  0
VERTEX
  8
0
  6
CONTINUOUS
 62
     7
 10
15.27525
 20
21.992375
  0
VERTEX
  8
0
  6
CONTINUOUS
 62
     7
 10
98.34524999999999
 20
21.992375
  0
SEQEND
  8
0
  6
CONTINUOUS
 62
     7
  0
POLYLINE
  8
0
  6
CONTINUOUS
 62
     7
 66
     1
 10
0
 20
0
 40
0.300000011920929
 41
0.300000011920929
  0
VERTEX
  8
0
  6
CONTINUOUS
 62
     7
 10
290.40025
 20
203.042375
  0
VERTEX
  8
0
  6
CONTINUOUS
 62
     7
 10
290.40025
 20
6.372375
  0
SEQEND
  8
0
  6
CONTINUOUS
 62
     7
  0
POLYLINE
  8
0
  6
CONTINUOUS
 62
     7
 66
     1
 10
0
 20
0
 40
0.300000011920929
 41
0.300000011920929
  0
VERTEX
  8
0
  6
CONTINUOUS
 62
     7
 10
98.34524999999999
 20
21.992375
  0
VERTEX
  8
0
  6
CONTINUOUS
 62
     7
 10
290.40025
 20
21.992375
  0
SEQEND
  8
0
  6
CONTINUOUS
 62
     7
  0
POLYLINE
  8
0
  6
CONTINUOUS
 62
     7
 66
     1
 10
0
 20
0
 40
0.300000011920929
 41
0.300000011920929
  0
VERTEX
  8
0
  6
CONTINUOUS
 62
     7
 10
15.27525
 20
203.042375
  0
VERTEX
  8
0
  6
CONTINUOUS
 62
     7
 10
290.40025
 20
203.042375
  0
SEQEND
  8
0
  6
CONTINUOUS
 62
     7
  0
LINE
  8
0
  6
CONTINUOUS
 62
     7
 10
19.18025
 20
14.182375
 11
98.34524999999999
 21
14.182375
  0
LINE
  8
0
  6
CONTINUOUS
 62
     7
 10
35.51025
 20
21.992375
 11
35.51025
 21
6.372375
  0
LINE
  8
0
  6
CONTINUOUS
 62
     7
 10
19.18025
 20
18.087375
 11
98.34524999999999
 21
18.087375
  0
LINE
  8
0
  6
CONTINUOUS
 62
     7
 10
24.86025
 20
21.992375
 11
24.86025
 21
6.372375
  0
LINE
  8
0
  6
CONTINUOUS
 62
     7
 10
19.18025
 20
21.992375
 11
19.18025
 21
6.372375
  0
LINE
  8
0
  6
CONTINUOUS
 62
     7
 10
19.18025
 20
10.277375
 11
98.34524999999999
 21
10.277375
  0
LINE
  8
0
  6
CONTINUOUS
 62
     7
 10
144.49525
 20
21.992375
 11
144.49525
 21
6.372375
  0
LINE
  8
0
  6
CONTINUOUS
 62
     7
 10
140.94525
 20
21.992375
 11
140.94525
 21
6.372375
  0
LINE
  8
0
  6
CONTINUOUS
 62
     7
 10
101.89525
 20
21.992375
 11
101.89525
 21
6.372375
  0
LINE
  8
0
  6
CONTINUOUS
 62
     7
 10
98.34524999999999
 20
21.992375
 11
98.34524999999999
 21
14.182375
  0
LINE
  8
0
  6
CONTINUOUS
 62
     7
 10
42.61025
 20
21.992375
 11
42.61025
 21
6.372375
  0
LINE
  8
0
  6
CONTINUOUS
 62
     7
 10
164.37525
 20
21.992375
 11
164.37525
 21
14.182375
  0
LINE
  8
0
  6
CONTINUOUS
 62
     7
 10
167.92525
 20
21.992375
 11
167.92525
 21
14.182375
  0
LINE
  8
0
  6
CONTINUOUS
 62
     7
 10
178.57525
 20
21.992375
 11
178.57525
 21
14.182375
  0
LINE
  8
0
  6
CONTINUOUS
 62
     7
 10
182.12525
 20
21.992375
 11
182.12525
 21
14.182375
  0
LINE
  8
0
  6
CONTINUOUS
 62
     7
 10
210.52525
 20
21.992375
 11
210.52525
 21
14.182375
  0
LINE
  8
0
  6
CONTINUOUS
 62
     7
 10
221.17525
 20
21.992375
 11
221.17525
 21
6.372375
  0
LINE
  8
0
  6
CONTINUOUS
 62
     7
 10
231.82525
 20
21.992375
 11
231.82525
 21
6.372375
  0
LINE
  8
0
  6
CONTINUOUS
 62
     7
 10
242.47525
 20
21.992375
 11
242.47525
 21
6.372375
  0
LINE
  8
0
  6
CONTINUOUS
 62
     7
 10
253.12525
 20
21.992375
 11
253.12525
 21
6.372375
  0
LINE
  8
0
  6
CONTINUOUS
 62
     7
 10
253.12525
 20
14.182375
 11
290.40025
 21
14.182375
  0
LINE
  8
0
  6
CONTINUOUS
 62
     7
 10
256.67525
 20
14.182375
 11
256.67525
 21
6.372375
  0
LINE
  8
0
  6
CONTINUOUS
 62
     7
 10
221.17525
 20
18.442375
 11
253.12525
 21
18.442375
  0
LINE
  8
0
  6
CONTINUOUS
 62
     7
 10
98.34524999999999
 20
14.182375
 11
221.17525
 21
14.182375
  0
LINE
  8
0
  6
CONTINUOUS
 62
     7
 10
98.34524999999999
 20
14.182375
 11
98.34524999999999
 21
6.372375
  0
LINE
  8
0
  6
CONTINUOUS
 62
     7
 10
21.8298292042
 20
13.8078799214
 11
19.9435077931
 21
10.7346674469
  0
LINE
  8
0
  6
CONTINUOUS
 62
     7
 10
19.9435077931
 20
10.7346674469
 11
23.7462507043
 21
10.7346674469
  0
LINE
  8
0
  6
CONTINUOUS
 62
     7
 10
23.7462507043
 20
10.7346674469
 11
21.8298292042
 21
13.8078799214
  0
LINE
  8
0
  6
CONTINUOUS
 62
     7
 10
21.7708059363
 20
17.7808237228
 11
19.8844845252
 21
14.7076112483
  0
LINE
  8
0
  6
CONTINUOUS
 62
     7
 10
19.8844845252
 20
14.7076112483
 11
23.6872274364
 21
14.7076112483
  0
LINE
  8
0
  6
CONTINUOUS
 62
     7
 10
23.6872274364
 20
14.7076112483
 11
21.7708059363
 21
17.7808237228
  0
LINE
  8
0
  6
CONTINUOUS
 62
     7
 10
21.8888328788
 20
21.5992068096
 11
20.0025114678
 21
18.5259943352
  0
LINE
  8
0
  6
CONTINUOUS
 62
     7
 10
20.0025114678
 20
18.5259943352
 11
23.8052543789
 21
18.5259943352
  0
LINE
  8
0
  6
CONTINUOUS
 62
     7
 10
23.80525437890002
 20
18.52599433520001
 11
21.88883287880002
 21
21.59920680960001
  0
LINE
  8
0
  6
CONTINUOUS
 62
     7
 10
87.69525
 20
21.992375
 11
87.69525
 21
6.372375
  0
LINE
  8
0
  6
PHANTOM
 62
     7
 10
169.1482073159
 20
6.372375
 11
206.97525
 21
6.372375
  0
CIRCLE
  8
0
  6
CONTINUOUS
 62
     7
 10
146.8074295216
 20
59.8076578195
 40
3.5
  0
CIRCLE
  8
0
  6
CONTINUOUS
 62
     7
 10
100.8074295216
 20
59.8076578195
 40
3.5
  0
CIRCLE
  8
0
  6
CONTINUOUS
 62
     7
 10
146.8074295216
 20
160.8076578195
 40
3.499999999999972
  0
CIRCLE
  8
0
  6
CONTINUOUS
 62
     7
 10
100.8074295216
 20
160.8076578195
 40
3.5
  0
ARC
  8
0
  6
CONTINUOUS
 62
     7
 10
185.5574295216
 20
172.0576578195
 40
1.25
 50
0
 51
90.00000000000019
  0
ARC
  8
0
  6
CONTINUOUS
 62
     7
 10
62.0574295216
 20
48.5576578195
 40
1.25
 50
180.0000000000004
 51
270.0000000000005
  0
CIRCLE
  8
0
  6
CONTINUOUS
 62
     7
 10
100.8074295216
 20
160.8076578195
 40
3.599999999999994
  0
CIRCLE
  8
0
  6
CONTINUOUS
 62
     7
 10
100.8074295216
 20
59.8076578195
 40
3.599999999999994
  0
CIRCLE
  8
0
  6
CONTINUOUS
 62
     7
 10
146.8074295216
 20
160.8076578195
 40
3.599999999999994
  0
CIRCLE
  8
0
  6
CONTINUOUS
 62
     7
 10
146.8074295216
 20
59.8076578195
 40
3.600000000000023
  0
ARC
  8
0
  6
CONTINUOUS
 62
     7
 10
185.5574295216
 20
48.5576578195
 40
1.25
 50
270.0000000000005
 51
360
  0
ARC
  8
0
  6
CONTINUOUS
 62
     7
 10
62.0574295216
 20
172.0576578195
 40
1.25
 50
90.00000000000019
 51
180.0000000000004
  0
ARC
  8
0
  6
CONTINUOUS
 62
     7
 10
246.2728394305
 20
48.3076578195
 40
1
 50
180.0000000000004
 51
270.0000000000005
  0
ARC
  8
0
  6
CONTINUOUS
 62
     7
 10
246.2728394305
 20
172.3076578195
 40
1
 50
90.00000000000019
 51
180.0000000000004
  0
ARC
  8
0
  6
CONTINUOUS
 62
     7
 10
61.8074295216
 20
193.4940959243
 40
1
 50
180.0000000000004
 51
270.0000000000005
  0
ARC
  8
0
  6
CONTINUOUS
 62
     7
 10
185.8074295216
 20
193.4940959243
 40
1
 50
270.0000000000005
 51
360
  0
TEXT
  8
0
  6
CONTINUOUS
 62
     7
 10
102.9627572472559
 20
8.918973698273955
 40
2.484999895095825
 41
1.00000007538386
  1
16S
  0
TEXT
  8
0
  6
CONTINUOUS
 62
     7
 10
102.9481462645432
 20
16.72744230927396
 40
2.484999895095825
 41
1.00000001612489
  1
承認図
  0
TEXT
  8
0
  6
CONTINUOUS
 62
     7
 10
262.7201508318
 20
8.107823336599999
 40
3
 41
1
  1
11526G
  0
TEXT
  8
0
  6
CONTINUOUS
 62
     7
 10
213.2920724929699
 20
17.01890252717396
 40
2.484999895095825
 41
1.000000027773001
  1
1/1
  0
TEXT
  8
0
  6
CONTINUOUS
 62
     7
 10
254.9344766333866
 20
14.60289915583954
 40
1.587499976158142
 41
1.000000014079838
  1
WEST
  0
TEXT
  8
0
  6
CONTINUOUS
 62
     7
 10
245.1814549998792
 20
19.33927391297907
 40
1.799999952316284
 41
1.000000007791457
  1
承　認
  0
TEXT
  8
0
  6
CONTINUOUS
 62
     7
 10
221.7690138853698
 20
7.047764227762116
 40
2.200000047683716
 41
0.3966621527706232
  1
′０８．１０．２０
  0
TEXT
  8
0
  6
CONTINUOUS
 62
     7
 10
90.43628520501594
 20
7.515594149539536
 40
1.774999976158142
 41
1.000000020599546
  1
通知書
  0
TEXT
  8
0
  6
CONTINUOUS
 62
     7
 10
257.3559623514285
 20
8.1078232783
 40
3
 41
0.9999999940395354
  1
No.
  0
TEXT
  8
0
  6
CONTINUOUS
 62
     7
 10
234.5104219724792
 20
19.29407223757907
 40
1.799999952316284
 41
1.000000007791457
  1
照　査
  0
TEXT
  8
0
  6
CONTINUOUS
 62
     7
 10
221.7857981960095
 20
19.28941045237907
 40
1.799999952316284
 41
1.000000007791457
  1
製図・設計
  0
TEXT
  8
0
  6
CONTINUOUS
 62
     7
 10
209.7472443057926
 20
9.163846772366167
 40
2.116666555404663
 41
1.000000035538415
  1
第三角法
  0
TEXT
  8
0
  6
CONTINUOUS
 62
     7
 10
99.34071384314699
 20
18.68609655887396
 40
2.484999895095825
 41
1.00000001612489
  1
名
  0
TEXT
  8
0
  6
CONTINUOUS
 62
     7
 10
16.53891924584699
 20
9.118747376173957
 40
2.484999895095825
 41
1.00000001612489
  1
訂
  0
TEXT
  8
0
  6
CONTINUOUS
 62
     7
 10
16.53891924584699
 20
16.98609414287396
 40
2.484999895095825
 41
1.00000001612489
  1
改
  0
TEXT
  8
0
  6
CONTINUOUS
 62
     7
 10
99.354110987147
 20
14.96731762087396
 40
2.484999895095825
 41
1.00000001612489
  1
称
  0
TEXT
  8
0
  6
CONTINUOUS
 62
     7
 10
99.34071384314699
 20
10.87609655887396
 40
2.484999895095825
 41
1.00000001612489
  1
品
  0
TEXT
  8
0
  6
CONTINUOUS
 62
     7
 10
99.354110987147
 20
7.157317620873958
 40
2.484999895095825
 41
1.00000001612489
  1
名
  0
TEXT
  8
0
  6
CONTINUOUS
 62
     7
 10
141.930792294447
 20
18.68609655887396
 40
2.484999895095825
 41
1.00000001612489
  1
材
  0
TEXT
  8
0
  6
CONTINUOUS
 62
     7
 10
141.928397223647
 20
14.96731762087396
 40
2.484999895095825
 41
1.00000001612489
  1
質
  0
TEXT
  8
0
  6
CONTINUOUS
 62
     7
 10
141.930792294447
 20
10.87609655887396
 40
2.484999895095825
 41
1.00000001612489
  1
工
  0
TEXT
  8
0
  6
CONTINUOUS
 62
     7
 10
141.928397223647
 20
7.157317620873958
 40
2.484999895095825
 41
1.00000001612489
  1
番
  0
TEXT
  8
0
  6
CONTINUOUS
 62
     7
 10
165.389056183947
 20
18.68609655887396
 40
2.484999895095825
 41
1.00000001612489
  1
個
  0
TEXT
  8
0
  6
CONTINUOUS
 62
     7
 10
165.402453327947
 20
14.96731762087396
 40
2.484999895095825
 41
1.00000001612489
  1
数
  0
TEXT
  8
0
  6
CONTINUOUS
 62
     7
 10
179.563012279947
 20
18.68609655887396
 40
2.484999895095825
 41
1.00000001612489
  1
備
  0
TEXT
  8
0
  6
CONTINUOUS
 62
     7
 10
179.576409423947
 20
14.96731762087396
 40
2.484999895095825
 41
1.00000001612489
  1
考
  0
TEXT
  8
0
  6
CONTINUOUS
 62
     7
 10
207.957463793647
 20
18.68609655887396
 40
2.484999895095825
 41
1.00000001612489
  1
尺
  0
TEXT
  8
0
  6
CONTINUOUS
 62
     7
 10
207.959618747247
 20
14.96731762087396
 40
2.484999895095825
 41
1.00000001612489
  1
度
  0
TEXT
  8
0
  6
CONTINUOUS
 62
     7
 10
58.51157516869036
 20
7.513469007639535
 40
1.774999976158142
 41
0.999999999435629
  1
変　更　内　容
  0
TEXT
  8
0
  6
CONTINUOUS
 62
     7
 10
36.49623778951593
 20
7.518357210039535
 40
1.774999976158142
 41
1.000000020599546
  1
担当者
  0
TEXT
  8
0
  6
CONTINUOUS
 62
     7
 10
28.63128369801959
 20
7.537792503939536
 40
1.774999976158142
 41
0.9999999994356288
  1
日付
  0
TEXT
  8
0
  6
CONTINUOUS
 62
     7
 10
20.46184836461959
 20
7.542907761239536
 40
1.774999976158142
 41
0.9999999994356288
  1
記号
  0
TEXT
  8
0
  6
CONTINUOUS
 62
     7
 10
301.7895250874756
 20
5.903379631245236
 40
5.291666507720947
 41
1.000000013516644
  1
A4
  0
TEXT
  8
0
  6
CONTINUOUS
 62
     7
 10
254.1623180678787
 20
10.8202974109
 40
2.5
 41
1.00000000801407
  1
図
  0
TEXT
  8
0
  6
CONTINUOUS
 62
     7
 10
254.1623180678787
 20
7.1401055327
 40
2.5
 41
1.00000000801407
  1
番
  0
TEXT
  8
0
  6
CONTINUOUS
 62
     7
 10
287.8961995152244
 20
3.332214998931512
 40
1.852083325386047
 41
0.9999999742540116
  1
A4
  0
DIMENSION
  8
0
  6
CONTINUOUS
 62
     7
  2
*D1
 70
     0
 10
214.8074295216
 20
47.3076578195
 11
214.8074295216
 21
110.3076578195
  3
DIMSTYLE
 13
185.5574295216
 23
173.3076578195
 14
185.5574295216
 24
47.3076578195
 50
90
1001
ACAD
1000
DSTYLE
1002
{
1070
    77
1070
     1
1070
   172
1070
     1
1070
   147
1040
0
1002
}
  0
DIMENSION
  8
0
  6
CONTINUOUS
 62
     7
  2
*D2
 70
     0
 10
208.8074295216
 20
59.8076578195
 11
208.8074295216
 21
110.3076578195
  3
DIMSTYLE
 13
155.4074295216
 23
160.8076578195
 14
155.4074295216
 24
59.8076578195
 50
90
1001
ACAD
1000
DSTYLE
1002
{
1070
    77
1070
     1
1070
   172
1070
     1
1070
   147
1040
0
1002
}
  0
DIMENSION
  8
0
  6
CONTINUOUS
 62
     7
  2
*D3
 70
     0
 10
60.8074295216
 20
25.3076578195
 11
123.8074295216
 21
25.3076578195
  3
DIMSTYLE
 13
186.8074295216
 23
48.5576578195
 14
60.8074295216
 24
48.5576578195
 50
0
1001
ACAD
1000
DSTYLE
1002
{
1070
    77
1070
     1
1070
   172
1070
     1
1070
   147
1040
0
1002
}
  0
DIMENSION
  8
0
  6
CONTINUOUS
 62
     7
  2
*D4
 70
     0
 10
100.8074295216
 20
31.3076578195
 11
123.8074295216
 21
31.3076578195
  3
DIMSTYLE
 13
146.8074295216
 23
51.20765781950001
 14
100.8074295216
 24
51.20765781950001
 50
0
1001
ACAD
1000
DSTYLE
1002
{
1070
    77
1070
     1
1070
   172
1070
     1
1070
   147
1040
0
1002
}
  0
DIMENSION
  8
0
  6
CONTINUOUS
 62
     7
  2
*D5
 70
     0
 10
202.8074295216
 20
121.7076578195
 11
202.8074295216
 21
133.3076578195
  3
DIMSTYLE
 13
161.0574295216
 23
144.9076578195
 14
161.0574295216
 24
121.7076578195
 50
90
1001
ACAD
1000
DSTYLE
1002
{
1070
    77
1070
     1
1070
   172
1070
     1
1070
   147
1040
0
1002
}
  0
DIMENSION
  8
0
  6
CONTINUOUS
 62
     7
  2
*D6
 70
     0
 10
202.8074295216
 20
98.9076578195
 11
202.8074295216
 21
110.3076578195
  3
DIMSTYLE
 13
161.0574295216
 23
121.7076578195
 14
161.0574295216
 24
98.9076578195
 50
90
1001
ACAD
1000
DSTYLE
1002
{
1070
    77
1070
     1
1070
   172
1070
     1
1070
   147
1040
0
1002
}
  0
DIMENSION
  8
0
  6
CONTINUOUS
 62
     7
  2
*D7
 70
     0
 10
202.8074295216
 20
75.7076578195
 11
202.8074295216
 21
87.30765781949999
  3
DIMSTYLE
 13
161.0574295216
 23
98.9076578195
 14
161.0574295216
 24
75.7076578195
 50
90
1001
ACAD
1000
DSTYLE
1002
{
1070
    77
1070
     1
1070
   172
1070
     1
1070
   147
1040
0
1002
}
  0
DIMENSION
  8
0
  6
CONTINUOUS
 62
     7
  2
*D8
 70
     0
 10
161.0574295216
 20
183.3076578195
 11
146.8074295216
 21
183.3076578195
  3
DIMSTYLE
 13
132.5574295216
 23
144.9076578195
 14
161.0574295216
 24
144.9076578195
 50
0
1001
ACAD
1000
DSTYLE
1002
{
1070
    77
1070
     1
1070
   172
1070
     1
1070
   147
1040
0
1002
}
  0
DIMENSION
  8
0
  6
CONTINUOUS
 62
     7
  2
*D9
 70
     0
 10
132.5574295216
 20
183.3076578195
 11
123.8074295216
 21
183.3076578195
  3
DIMSTYLE
 13
115.0574295216
 23
144.9076578195
 14
132.5574295216
 24
144.9076578195
 50
0
1001
ACAD
1000
DSTYLE
1002
{
1070
    77
1070
     1
1070
   172
1070
     1
1070
   147
1040
0
1002
}
  0
DIMENSION
  8
0
  6
CONTINUOUS
 62
     7
  2
*D10
 70
     0
 10
86.5574295216
 20
183.3076578195
 11
100.8074295216
 21
183.3076578195
  3
DIMSTYLE
 13
115.0574295216
 23
144.9076578195
 14
86.5574295216
 24
144.9076578195
 50
0
1001
ACAD
1000
DSTYLE
1002
{
1070
    77
1070
     1
1070
   172
1070
     1
1070
   147
1040
0
1002
}
  0
DIMENSION
  8
0
  6
CONTINUOUS
 62
     7
  2
*D11
 70
     0
 10
245.2728394305
 20
25.3076578195
 11
235.2728394305
 21
25.3076578195
  3
DIMSTYLE
 13
251.7728394305
 23
47.3076578195
 14
245.2728394305
 24
48.5576578195
 50
0
1001
ACAD
1000
DSTYLE
1002
{
1070
    77
1070
     1
1070
   172
1070
     1
1070
   147
1040
0
1002
}
  0
ENDSEC
  0
EOF
