  0
SECTION
  2
HEADER
  9
$EXTMAX
 10
594
 20
420
 30
0
  9
$EXTMIN
 10
0
 20
0
 30
0
  9
$LIMMAX
 10
594
 20
420
  9
$LIMMIN
 10
0
 20
0
  9
$PLIMMAX
 10
594
 20
420
  9
$PLIMMIN
 10
0
 20
0
  9
$PEXTMAX
 10
594
 20
420
 30
0
  9
$PEXTMIN
 10
0
 20
0
 30
0
  9
$TEXTSIZE
 40
3.2
  9
$DIMSHO
 70
     0
  9
$DIMASZ
 40
1.0
  9
$DIMTAD
 70
     1
  9
$DIMTIH
 70
     0
  9
$DIMTOH
 70
     0
  9
$DIMEXE
 40
2.54
  9
$DIMEXO
 40
2.54
  9
$DIMTVP
 40
1.0
  9
$DIMSAH
 70
     1
  9
$DIMDLE
 40
0.0
  9
$DIMTXT
 40
3.200000047683716
  9
$DIMGAP
 40
1.600000023841858
  0
ENDSEC
  0
SECTION
  2
TABLES
  0
TABLE
  2
LTYPE
 70
     53
  0
LTYPE
  2
CONTINUOUS
 70
    64
  3
Solid line
 72
    65
 73
     0
 40
0.0
  0
LTYPE
  2
ACAD_ISO02W100
 70
     0
  3
ISO dash __ __ __ __ __ __ __ __ __ __ __ __ __
 72
    65
 73
     2
 40
15.0
 49
12.0
 49
-3.0
  0
LTYPE
  2
ACAD_ISO03W100
 70
     0
  3
ISO dash space __    __    __    __    __    __
 72
    65
 73
     2
 40
30.0
 49
12.0
 49
-18.0
  0
LTYPE
  2
ACAD_ISO04W100
 70
     0
  3
ISO long-dash dot ____ . ____ . ____ . ____ . _
 72
    65
 73
     4
 40
30.0
 49
24.0
 49
-3.0
 49
0.0
 49
-3.0
  0
LTYPE
  2
ACAD_ISO05W100
 70
     0
  3
ISO long-dash double-dot ____ .. ____ .. ____ .
 72
    65
 73
     6
 40
33.0
 49
24.0
 49
-3.0
 49
0.0
 49
-3.0
 49
0.0
 49
-3.0
  0
LTYPE
  2
ACAD_ISO06W100
 70
     0
  3
ISO long-dash triple-dot ____ ... ____ ... ____
 72
    65
 73
     8
 40
36.0
 49
24.0
 49
-3.0
 49
0.0
 49
-3.0
 49
0.0
 49
-3.0
 49
0.0
 49
-3.0
  0
LTYPE
  2
ACAD_ISO07W100
 70
     0
  3
ISO dot . . . . . . . . . . . . . . . . . . . .
 72
    65
 73
     2
 40
3.0
 49
0.0
 49
-3.0
  0
LTYPE
  2
ACAD_ISO08W100
 70
     0
  3
ISO long-dash short-dash ____ __ ____ __ ____ _
 72
    65
 73
     4
 40
36.0
 49
24.0
 49
-3.0
 49
6.0
 49
-3.0
  0
LTYPE
  2
ACAD_ISO09W100
 70
     0
  3
ISO long-dash double-short-dash ____ __ __ ____
 72
    65
 73
     6
 40
45.0
 49
24.0
 49
-3.0
 49
6.0
 49
-3.0
 49
6.0
 49
-3.0
  0
LTYPE
  2
ACAD_ISO10W100
 70
     0
  3
ISO dash dot __ . __ . __ . __ . __ . __ . __ .
 72
    65
 73
     4
 40
18.0
 49
12.0
 49
-3.0
 49
0.0
 49
-3.0
  0
LTYPE
  2
ACAD_ISO11W100
 70
     0
  3
ISO double-dash dot __ __ . __ __ . __ __ . __ 
 72
    65
 73
     6
 40
33.0
 49
12.0
 49
-3.0
 49
12.0
 49
-3.0
 49
0.0
 49
-3.0
  0
LTYPE
  2
ACAD_ISO12W100
 70
     0
  3
ISO dash double-dot __ . . __ . . __ . . __ . .
 72
    65
 73
     6
 40
21.0
 49
12.0
 49
-3.0
 49
0.0
 49
-3.0
 49
0.0
 49
-3.0
  0
LTYPE
  2
ACAD_ISO13W100
 70
     0
  3
ISO double-dash double-dot __ __ . . __ __ . . 
 72
    65
 73
     8
 40
36.0
 49
12.0
 49
-3.0
 49
12.0
 49
-3.0
 49
0.0
 49
-3.0
 49
0.0
 49
-3.0
  0
LTYPE
  2
ACAD_ISO14W100
 70
     0
  3
ISO dash triple-dot __ . . . __ . . . __ . . . 
 72
    65
 73
     8
 40
24.0
 49
12.0
 49
-3.0
 49
0.0
 49
-3.0
 49
0.0
 49
-3.0
 49
0.0
 49
-3.0
  0
LTYPE
  2
ACAD_ISO15W100
 70
     0
  3
ISO double-dash triple-dot __ __ . . . __ __ . 
 72
    65
 73
    10
 40
39.0
 49
12.0
 49
-3.0
 49
12.0
 49
-3.0
 49
0.0
 49
-3.0
 49
0.0
 49
-3.0
 49
0.0
 49
-3.0
  0
LTYPE
  2
BORDER
 70
    64
  3
Border __ __ . __ __ . __ __ . __ __ . __ __ .
 72
    65
 73
     6
 40
3.5
 49
1.0
 49
-0.5
 49
1.0
 49
-0.5
 49
0.0
 49
-0.5
  0
LTYPE
  2
BORDER2
 70
    64
  3
Border (.5x) __.__.__.__.__.__.__.__.__.__.__.
 72
    65
 73
     6
 40
1.75
 49
0.5
 49
-0.25
 49
0.5
 49
-0.25
 49
0.0
 49
-0.25
  0
LTYPE
  2
BORDERX2
 70
    64
  3
Border (2x) ____  ____  .  ____  ____  .  ___
 72
    65
 73
     6
 40
7.0
 49
2.0
 49
-1.0
 49
2.0
 49
-1.0
 49
0.0
 49
-1.0
  0
LTYPE
  2
CENTER
 70
    64
  3
Center ____ _ ____ _ ____ _ ____ _ ____ _ ____
 72
    65
 73
     4
 40
12.0
 49
7.5
 49
-1.5
 49
1.5
 49
-1.5
  0
LTYPE
  2
CENTER2
 70
    64
  3
Center (.5x) ___ _ ___ _ ___ _ ___ _ ___ _ ___
 72
    65
 73
     4
 40
6.0
 49
3.75
 49
-0.75
 49
0.75
 49
-0.75
  0
LTYPE
  2
CENTERX2
 70
    64
  3
Center (2x) ________  __  ________  __  _____
 72
    65
 73
     4
 40
24.0
 49
15.0
 49
-3.0
 49
3.0
 49
-3.0
  0
LTYPE
  2
DASHDOT
 70
    64
  3
Dash dot __ . __ . __ . __ . __ . __ . __ . __
 72
    65
 73
     4
 40
6.0
 49
3.0
 49
-1.5
 49
0.0
 49
-1.5
  0
LTYPE
  2
DASHDOT2
 70
    64
  3
Dash dot (.5x) _._._._._._._._._._._._._._._.
 72
    65
 73
     4
 40
3.0
 49
1.5
 49
-0.75
 49
0.0
 49
-0.75
  0
LTYPE
  2
DASHDOTX2
 70
    64
  3
Dash dot (2x) ____  .  ____  .  ____  .  ___
 72
    65
 73
     4
 40
12.0
 49
6.0
 49
-3.0
 49
0.0
 49
-3.0
  0
LTYPE
  2
DASHED
 70
    64
  3
Dashed __ __ __ __ __ __ __ __ __ __ __ __ __ _
 72
    65
 73
     2
 40
4.5
 49
3.0
 49
-1.5
  0
LTYPE
  2
DASHED2
 70
    64
  3
Dashed (.5x) _ _ _ _ _ _ _ _ _ _ _ _ _ _ _ _ _
 72
    65
 73
     2
 40
2.25
 49
1.5
 49
-0.75
  0
LTYPE
  2
DASHEDX2
 70
    64
  3
Dashed (2x) ____  ____  ____  ____  ____  ___
 72
    65
 73
     2
 40
9.0
 49
6.0
 49
-3.0
  0
LTYPE
  2
DIVIDE
 70
    64
  3
Divide ____ . . ____ . . ____ . . ____ . . ____
 72
    65
 73
     6
 40
7.5
 49
3.0
 49
-1.5
 49
0.0
 49
-1.5
 49
0.0
 49
-1.5
  0
LTYPE
  2
DIVIDE2
 70
    64
  3
Divide (.5x) __..__..__..__..__..__..__..__.._
 72
    65
 73
     6
 40
3.75
 49
1.5
 49
-0.75
 49
0.0
 49
-0.75
 49
0.0
 49
-0.75
  0
LTYPE
  2
DIVIDEX2
 70
    64
  3
Divide (2x) ________  .  .  ________  .  .  _
 72
    65
 73
     6
 40
15.0
 49
6.0
 49
-3.0
 49
0.0
 49
-3.0
 49
0.0
 49
-3.0
  0
LTYPE
  2
DOT
 70
    64
  3
Dot . . . . . . . . . . . . . . . . . . . . . .
 72
    65
 73
     2
 40
1.5
 49
0.0
 49
-1.5
  0
LTYPE
  2
DOT2
 70
    64
  3
Dot (.5x) .....................................
 72
    65
 73
     2
 40
0.75
 49
0.0
 49
-0.75
  0
LTYPE
  2
DOTX2
 70
    64
  3
Dot (2x) .  .  .  .  .  .  .  .  .  .  .  .  . 
 72
    65
 73
     2
 40
3.0
 49
0.0
 49
-3.0
  0
LTYPE
  2
HIDDEN
 70
    64
  3
Hidden __ __ __ __ __ __ __ __ __ __ __ __ __ _
 72
    65
 73
     2
 40
4.5
 49
3.0
 49
-1.5
  0
LTYPE
  2
HIDDEN2
 70
    64
  3
Hidden (.5x) _ _ _ _ _ _ _ _ _ _ _ _ _ _ _ _ _
 72
    65
 73
     2
 40
2.25
 49
1.5
 49
-0.75
  0
LTYPE
  2
HIDDENX2
 70
    64
  3
Hidden (2x) ____ ____ ____ ____ ____ ____ ____
 72
    65
 73
     2
 40
9.0
 49
6.0
 49
-3.0
  0
LTYPE
  2
PHANTOM
 70
    64
  3
Phantom ______  __  __  ______  __  __  ______
 72
    65
 73
     6
 40
15.0
 49
7.5
 49
-1.5
 49
1.5
 49
-1.5
 49
1.5
 49
-1.5
  0
LTYPE
  2
PHANTOM2
 70
    64
  3
Phantom (.5x) ___ _ _ ___ _ _ ___ _ _ ___ _ _
 72
    65
 73
     6
 40
7.5
 49
3.75
 49
-0.75
 49
0.75
 49
-0.75
 49
0.75
 49
-0.75
  0
LTYPE
  2
PHANTOMX2
 70
    64
  3
Phantom (2x) ____________    ____    ____   _
 72
    65
 73
     6
 40
30.0
 49
15.0
 49
-3.0
 49
3.0
 49
-3.0
 49
3.0
 49
-3.0
  0
LTYPE
  2
JIS_02_0_7
 70
     0
  3
HIDDEN0.75 _ _ _ _ _ _ _ _ _ _ _ _ _ _ _ _ _
 72
    65
 73
     2
 40
1.3500000000000001
 49
0.75
 49
-0.6
  0
LTYPE
  2
JIS_02_1_0
 70
     0
  3
HIDDEN01 _ _ _ _ _ _ _ _ _ _ _ _ _ _ _ _ _
 72
    65
 73
     2
 40
2.0
 49
1.0
 49
-1.0
  0
LTYPE
  2
JIS_02_1_2
 70
     0
  3
HIDDEN01.25  _ _ _ _ _ _ _ _ _ _ _ _ _ _ _ _ _
 72
    65
 73
     2
 40
2.5
 49
1.25
 49
-1.25
  0
LTYPE
  2
JIS_02_2_0
 70
     0
  3
HIDDEN02 __ __ __ __ __ __ __ __ __ __ __
 72
    65
 73
     2
 40
3.0
 49
2.0
 49
-1.0
  0
LTYPE
  2
JIS_02_4_0
 70
     0
  3
HIDDEN04 ____ ____ ____ ____ ____ ____ ____
 72
    65
 73
     2
 40
5.5
 49
4.0
 49
-1.5
  0
LTYPE
  2
JIS_08_11
 70
     0
  3
1SASEN11 ___ _ ___ _ ___ _ ___ _ ___ _ ___
 72
    65
 73
     4
 40
12.800000000000001
 49
11.0
 49
-0.6
 49
0.6
 49
-0.6
  0
LTYPE
  2
JIS_08_15
 70
     0
  3
1SASEN15 ____ _ ____ _ ____ _ ____ _ ____
 72
    65
 73
     4
 40
17.25
 49
15.0
 49
-0.75
 49
0.75
 49
-0.75
  0
LTYPE
  2
JIS_08_25
 70
     0
  3
1SASEN25 ________  __  ________  __  _____
 72
    65
 73
     4
 40
28.0
 49
25.0
 49
-1.125
 49
0.75
 49
-1.125
  0
LTYPE
  2
JIS_08_37
 70
     0
  3
1SASEN37 ________  __  ________  __  _____
 72
    65
 73
     4
 40
40.499999999999993
 49
37.5
 49
-1.125
 49
0.75
 49
-1.125
  0
LTYPE
  2
JIS_08_50
 70
     0
  3
1SASEN50 _______________  __  ____________
 72
    65
 73
     4
 40
53.0
 49
50.0
 49
-1.125
 49
0.75
 49
-1.125
  0
LTYPE
  2
JIS_09_08
 70
     0
  3
2SASEN8 __ _ _ __ _ _ __ _ _ __ _ _ __ _ _
 72
    65
 73
     6
 40
10.75
 49
8.0
 49
-0.55
 49
0.55
 49
-0.55
 49
0.55
 49
-0.55
  0
LTYPE
  2
JIS_09_15
 70
     0
  3
2SASEN15 ___ _ _ ___ _ _ ___ _ _ ___ _ _ ___
 72
    65
 73
     6
 40
18.899999999999999
 49
15.0
 49
-0.9
 49
0.6
 49
-0.9
 49
0.6
 49
-0.9
  0
LTYPE
  2
JIS_09_29
 70
     0
  3
2SASEN29 ______  __  __  ______  __  __  ___
 72
    65
 73
     6
 40
34.0
 49
29.0
 49
-1.1999999999999991
 49
0.7
 49
-1.1999999999999991
 49
0.7
 49
-1.1999999999999991
  0
LTYPE
  2
JIS_09_50
 70
     0
  3
2SASEN50 ____________  __  __  _____________
 72
    65
 73
     6
 40
55.0
 49
50.0
 49
-1.1999999999999991
 49
0.7
 49
-1.1999999999999991
 49
0.7
 49
-1.1999999999999991
  0
ENDTAB
  0
TABLE
  2
LAYER
 70
     4
  0
LAYER
  2
0
 70
     0
 62
     7
  6
CONTINUOUS
  0
LAYER
  2
1
 70
     0
 62
     7
  6
CONTINUOUS
  0
LAYER
  2
2
 70
     0
 62
     7
  6
CONTINUOUS
  0
LAYER
  2
DEFPOINTS
 70
     0
 62
     7
  6
CONTINUOUS
  0
ENDTAB
  0
TABLE
  2
STYLE
 70
     1
  0
STYLE
  2
STANDARD
 70
     0
 40
0.0
 41
1.0
 50
0.0
 71
     0
 42
0.2
  3
txt
  4
BIGFONT
  0
ENDTAB
  0
TABLE
  2
DIMSTYLE
 70
     1
  0
DIMSTYLE
  2
DIMSTYLE
 70
     0
  3

  4

  5
_OPEN30
  6
_OPEN30
  7
_OPEN30
 40
1
 41
1
 42
1.5
 43
0.38
 44
2.54
 45
0
 46
0
 47
0
 48
0
140
3.200000047683716
141
0.09
142
0
143
25.4
144
1
145
0
146
1
147
1.600000023841858
 71
     0
 72
     0
 73
     0
 74
     0
 75
     0
 76
     0
 78
     0
170
     0
171
     2
 77
     0
172
     0
173
     1
174
     0
175
     0
176
     0
177
     0
178
     0
  0
ENDTAB
  0
ENDSEC
  0
SECTION
  2
BLOCKS
  0
BLOCK
  8
0
  2
_DOT
 70
    64
 10
0
 20
0
  3
_DOT
  0
POLYLINE
  8
0
  6
BYBLOCK
 62
     0
 66
     1
 10
0
 20
0
 70
     1
 40
0.5
 41
0.5
  0
VERTEX
  8
0
  6
BYBLOCK
 62
     0
 10
-0.25
 20
0
 42
1
  0
VERTEX
  8
0
  6
BYBLOCK
 62
     0
 10
0.25
 20
0
 42
1
  0
SEQEND
  8
0
  6
BYBLOCK
 62
     0
  0
LINE
  8
0
  6
BYBLOCK
 62
     0
 10
-0.5
 20
0
 11
-2.99999995494452
 21
0
  0
ENDBLK
  8
0
  0
BLOCK
  8
0
  2
_OPEN30
 70
    64
 10
0
 20
0
  3
_OPEN30
  0
LINE
  8
0
  6
BYBLOCK
 62
     0
 10
0
 20
0
 11
-2.999999954944514
 21
-0.9999999849815249
  0
LINE
  8
0
  6
BYBLOCK
 62
     0
 10
0
 20
0
 11
-2.999999954944526
 21
0.9999999849814883
  0
LINE
  8
0
  6
BYBLOCK
 62
     0
 10
0
 20
0
 11
-2.99999995494452
 21
0
  0
ENDBLK
  8
0
  0
BLOCK
  8
0
  2
*D1
 70
    65
 10
0
 20
0
  0
LINE
  8
0
  6
CONTINUOUS
 62
     7
 10
45.65059171760003
 20
127.3679558924555
 11
45.65059171759999
 21
107.3679558023445
  0
INSERT
  8
0
  6
CONTINUOUS
 62
     7
  2
_OPEN30
 10
45.6505917176
 20
130.3679558474
 50
90.00000000000019
  0
INSERT
  8
0
  6
CONTINUOUS
 62
     7
  2
_OPEN30
 10
45.6505917176
 20
104.3679558474
 50
270.0000000000005
  0
LINE
  8
0
  6
CONTINUOUS
 62
     7
 10
70.65059174012774
 20
130.3679558474
 11
44.1505917176
 21
130.3679558474
  0
LINE
  8
0
  6
CONTINUOUS
 62
     7
 10
70.65059174012774
 20
104.3679558474
 11
44.1505917176
 21
104.3679558474
  0
TEXT
  8
0
  6
CONTINUOUS
 62
     7
 10
44.92298756682791
 20
116.328391476291
 40
2.910416603088379
 41
0.9004726377041218
  1
%%C
 50
90.00000000000003
  0
POINT
  8
DEFPOINTS
  6
CONTINUOUS
 62
     7
 10
72.15059171759999
 20
130.3679558474
  0
POINT
  8
DEFPOINTS
  6
CONTINUOUS
 62
     7
 10
72.15059171759999
 20
104.3679558474
  0
POINT
  8
DEFPOINTS
  6
CONTINUOUS
 62
     7
 10
45.6505917176
 20
104.3679558474
  0
ENDBLK
  8
0
  0
BLOCK
  8
0
  2
*D2
 70
    65
 10
0
 20
0
  0
LINE
  8
0
  6
CONTINUOUS
 62
     7
 10
71.15059171759999
 20
84.0320001506
 11
76.15059171759999
 21
84.0320001506
  0
INSERT
  8
0
  6
CONTINUOUS
 62
     7
  2
_OPEN30
 10
71.15059171759999
 20
84.0320001506
 50
3.562221243239139e-013
  0
LINE
  8
0
  6
CONTINUOUS
 62
     7
 10
68.15059176265548
 20
84.03200015059998
 11
64.80059181296743
 21
84.03200015059996
  0
INSERT
  8
0
  6
CONTINUOUS
 62
     7
  2
_OPEN30
 10
76.15059171759999
 20
84.0320001506
 50
180
  0
LINE
  8
0
  6
CONTINUOUS
 62
     7
 10
79.15059167254451
 20
84.0320001506
 11
82.50059162223256
 21
84.0320001506
  0
LINE
  8
0
  6
CONTINUOUS
 62
     7
 10
71.15059171760001
 20
103.8679558699277
 11
71.15059171759999
 21
82.5320001506
  0
LINE
  8
0
  6
CONTINUOUS
 62
     7
 10
76.15059171760001
 20
103.8679558699277
 11
76.15059171759999
 21
82.5320001506
  0
TEXT
  8
0
  6
CONTINUOUS
 62
     7
 10
72.61102734649099
 20
84.75960430137209
 40
2.910416603088379
 41
1
  1
5
  0
POINT
  8
DEFPOINTS
  6
CONTINUOUS
 62
     7
 10
71.15059171759999
 20
105.3679558474
  0
POINT
  8
DEFPOINTS
  6
CONTINUOUS
 62
     7
 10
76.15059171759999
 20
105.3679558474
  0
POINT
  8
DEFPOINTS
  6
CONTINUOUS
 62
     7
 10
76.15059171759999
 20
84.0320001506
  0
ENDBLK
  8
0
  0
BLOCK
  8
0
  2
*D3
 70
    65
 10
0
 20
0
  0
LINE
  8
0
  6
CONTINUOUS
 62
     7
 10
79.15059167254451
 20
84.0320001506
 11
198.1505917626555
 21
84.03200015059998
  0
INSERT
  8
0
  6
CONTINUOUS
 62
     7
  2
_OPEN30
 10
76.15059171759999
 20
84.0320001506
 50
180.0000000000004
  0
INSERT
  8
0
  6
CONTINUOUS
 62
     7
  2
_OPEN30
 10
201.1505917176
 20
84.0320001506
  0
LINE
  8
0
  6
CONTINUOUS
 62
     7
 10
76.15059171760001
 20
103.8679558699277
 11
76.15059171759999
 21
82.5320001506
  0
LINE
  8
0
  6
CONTINUOUS
 62
     7
 10
201.1505917176
 20
107.6179558699277
 11
201.1505917176
 21
82.5320001506
  0
TEXT
  8
0
  6
CONTINUOUS
 62
     7
 10
134.7006108626119
 20
84.75960430137209
 40
2.910416603088379
 41
1.163303518854092
  1
125
  0
POINT
  8
DEFPOINTS
  6
CONTINUOUS
 62
     7
 10
76.15059171759999
 20
105.3679558474
  0
POINT
  8
DEFPOINTS
  6
CONTINUOUS
 62
     7
 10
201.1505917176
 20
109.1179558474
  0
POINT
  8
DEFPOINTS
  6
CONTINUOUS
 62
     7
 10
201.1505917176
 20
84.0320001506
  0
ENDBLK
  8
0
  0
BLOCK
  8
0
  2
*D4
 70
    65
 10
0
 20
0
  0
LINE
  8
0
  6
CONTINUOUS
 62
     7
 10
204.1505916725445
 20
84.0320001506
 11
228.1505917626555
 21
84.03200015059998
  0
INSERT
  8
0
  6
CONTINUOUS
 62
     7
  2
_OPEN30
 10
201.1505917176
 20
84.0320001506
 50
180.0000000000004
  0
INSERT
  8
0
  6
CONTINUOUS
 62
     7
  2
_OPEN30
 10
231.1505917176
 20
84.0320001506
  0
LINE
  8
0
  6
CONTINUOUS
 62
     7
 10
201.1505917176
 20
107.6179558699277
 11
201.1505917176
 21
82.5320001506
  0
LINE
  8
0
  6
CONTINUOUS
 62
     7
 10
231.1505917176
 20
107.6179558699277
 11
231.1505917176
 21
82.5320001506
  0
TEXT
  8
0
  6
CONTINUOUS
 62
     7
 10
213.6558191045515
 20
84.75960430137209
 40
2.910416603088379
 41
1.10209816175512
  1
30
  0
POINT
  8
DEFPOINTS
  6
CONTINUOUS
 62
     7
 10
201.1505917176
 20
109.1179558474
  0
POINT
  8
DEFPOINTS
  6
CONTINUOUS
 62
     7
 10
231.1505917176
 20
109.1179558474
  0
POINT
  8
DEFPOINTS
  6
CONTINUOUS
 62
     7
 10
231.1505917176
 20
84.0320001506
  0
ENDBLK
  8
0
  0
BLOCK
  8
0
  2
*D5
 70
    65
 10
0
 20
0
  0
LINE
  8
0
  6
CONTINUOUS
 62
     7
 10
181.1505916725445
 20
210.3862458106
 11
251.1505917626555
 21
210.3862458106
  0
INSERT
  8
0
  6
CONTINUOUS
 62
     7
  2
_OPEN30
 10
178.1505917176
 20
210.3862458106
 50
180.0000000000004
  0
INSERT
  8
0
  6
CONTINUOUS
 62
     7
  2
_OPEN30
 10
254.1505917176
 20
210.3862458106
  0
LINE
  8
0
  6
CONTINUOUS
 62
     7
 10
178.1505917176
 20
164.4862457880723
 11
178.1505917176
 21
211.8862458106
  0
LINE
  8
0
  6
CONTINUOUS
 62
     7
 10
254.1505917176
 20
164.4862457880723
 11
254.1505917176
 21
211.8862458106
  0
TEXT
  8
0
  6
CONTINUOUS
 62
     7
 10
213.6558191045515
 20
211.1138499613721
 40
2.910416603088379
 41
1.028624950971445
  1
76
  0
POINT
  8
DEFPOINTS
  6
CONTINUOUS
 62
     7
 10
178.1505917176
 20
162.9862458106
  0
POINT
  8
DEFPOINTS
  6
CONTINUOUS
 62
     7
 10
254.1505917176
 20
162.9862458106
  0
POINT
  8
DEFPOINTS
  6
CONTINUOUS
 62
     7
 10
254.1505917176
 20
210.3862458106
  0
ENDBLK
  8
0
  0
BLOCK
  8
0
  2
*D6
 70
    65
 10
0
 20
0
  0
LINE
  8
0
  6
CONTINUOUS
 62
     7
 10
45.65059171759999
 20
160.8862457655445
 11
45.65059171760003
 21
197.3862458556555
  0
INSERT
  8
0
  6
CONTINUOUS
 62
     7
  2
_OPEN30
 10
45.6505917176
 20
157.8862458106
 50
270.0000000000005
  0
INSERT
  8
0
  6
CONTINUOUS
 62
     7
  2
_OPEN30
 10
45.6505917176
 20
200.3862458106
 50
90.00000000000019
  0
LINE
  8
0
  6
CONTINUOUS
 62
     7
 10
171.5505917401277
 20
157.8862458106
 11
44.15059171760001
 21
157.8862458106
  0
LINE
  8
0
  6
CONTINUOUS
 62
     7
 10
60.65059174012774
 20
200.3862458106
 11
44.1505917176
 21
200.3862458106
  0
TEXT
  8
0
  6
CONTINUOUS
 62
     7
 10
44.92298756682791
 20
174.6041816588361
 40
2.910416603088379
 41
1.238124945455562
  1
42.5
 50
90.00000000000003
  0
POINT
  8
DEFPOINTS
  6
CONTINUOUS
 62
     7
 10
173.0505917176
 20
157.8862458106
  0
POINT
  8
DEFPOINTS
  6
CONTINUOUS
 62
     7
 10
62.1505917176
 20
200.3862458106
  0
POINT
  8
DEFPOINTS
  6
CONTINUOUS
 62
     7
 10
45.6505917176
 20
200.3862458106
  0
ENDBLK
  8
0
  0
BLOCK
  8
0
  2
*D7
 70
    65
 10
0
 20
0
  0
LINE
  8
0
  6
CONTINUOUS
 62
     7
 10
51.15059171760003
 20
121.3679558924555
 11
51.15059171759999
 21
113.3679558023445
  0
INSERT
  8
0
  6
CONTINUOUS
 62
     7
  2
_OPEN30
 10
51.1505917176
 20
124.3679558474
 50
90.00000000000019
  0
INSERT
  8
0
  6
CONTINUOUS
 62
     7
  2
_OPEN30
 10
51.1505917176
 20
110.3679558474
 50
270.0000000000005
  0
LINE
  8
0
  6
CONTINUOUS
 62
     7
 10
74.65059174012774
 20
124.3679558474
 11
49.6505917176
 21
124.3679558474
  0
LINE
  8
0
  6
CONTINUOUS
 62
     7
 10
74.65059174012774
 20
110.3679558474
 11
49.6505917176
 21
110.3679558474
  0
TEXT
  8
0
  6
CONTINUOUS
 62
     7
 10
50.42298756682791
 20
116.328391476291
 40
2.910416603088379
 41
0.9004726377041218
  1
%%C
 50
90.00000000000003
  0
POINT
  8
DEFPOINTS
  6
CONTINUOUS
 62
     7
 10
76.15059171759999
 20
124.3679558474
  0
POINT
  8
DEFPOINTS
  6
CONTINUOUS
 62
     7
 10
76.15059171759999
 20
110.3679558474
  0
POINT
  8
DEFPOINTS
  6
CONTINUOUS
 62
     7
 10
51.1505917176
 20
110.3679558474
  0
ENDBLK
  8
0
  0
BLOCK
  8
0
  2
*D8
 70
    65
 10
0
 20
0
  0
LINE
  8
0
  6
CONTINUOUS
 62
     7
 10
171.1505916725445
 20
216.3862458106
 11
261.1505917626554
 21
216.3862458106
  0
INSERT
  8
0
  6
CONTINUOUS
 62
     7
  2
_OPEN30
 10
168.1505917176
 20
216.3862458106
 50
180.0000000000004
  0
INSERT
  8
0
  6
CONTINUOUS
 62
     7
  2
_OPEN30
 10
264.1505917176
 20
216.3862458106
  0
LINE
  8
0
  6
CONTINUOUS
 62
     7
 10
168.1505917176
 20
194.8862457880723
 11
168.1505917176
 21
217.8862458106
  0
LINE
  8
0
  6
CONTINUOUS
 62
     7
 10
264.1505917176
 20
194.8862457880723
 11
264.1505917176
 21
217.8862458106
  0
TEXT
  8
0
  6
CONTINUOUS
 62
     7
 10
213.6558191045515
 20
217.1138499613721
 40
2.910416603088379
 41
1.028624950971445
  1
96
  0
POINT
  8
DEFPOINTS
  6
CONTINUOUS
 62
     7
 10
168.1505917176
 20
193.3862458106
  0
POINT
  8
DEFPOINTS
  6
CONTINUOUS
 62
     7
 10
264.1505917176
 20
193.3862458106
  0
POINT
  8
DEFPOINTS
  6
CONTINUOUS
 62
     7
 10
264.1505917176
 20
216.3862458106
  0
ENDBLK
  8
0
  0
BLOCK
  8
0
  2
*D9
 70
    65
 10
0
 20
0
  0
LINE
  8
0
  6
CONTINUOUS
 62
     7
 10
64.15059167254452
 20
222.3862458106
 11
368.1505917626554
 21
222.3862458106
  0
INSERT
  8
0
  6
CONTINUOUS
 62
     7
  2
_OPEN30
 10
61.1505917176
 20
222.3862458106
 50
180.0000000000004
  0
INSERT
  8
0
  6
CONTINUOUS
 62
     7
  2
_OPEN30
 10
371.1505917176
 20
222.3862458106
  0
LINE
  8
0
  6
CONTINUOUS
 62
     7
 10
61.15059171759999
 20
200.8862457880723
 11
61.1505917176
 21
223.8862458106
  0
LINE
  8
0
  6
CONTINUOUS
 62
     7
 10
371.1505917176
 20
200.8862457880723
 11
371.1505917176
 21
223.8862458106
  0
TEXT
  8
0
  6
CONTINUOUS
 62
     7
 10
212.2006108626119
 20
223.1138499613721
 40
2.910416603088379
 41
1.221468694796796
  1
310
  0
POINT
  8
DEFPOINTS
  6
CONTINUOUS
 62
     7
 10
61.1505917176
 20
199.3862458106
  0
POINT
  8
DEFPOINTS
  6
CONTINUOUS
 62
     7
 10
371.1505917176
 20
199.3862458106
  0
POINT
  8
DEFPOINTS
  6
CONTINUOUS
 62
     7
 10
371.1505917176
 20
222.3862458106
  0
ENDBLK
  8
0
  0
BLOCK
  8
0
  2
*D10
 70
    65
 10
0
 20
0
  0
LINE
  8
0
  6
CONTINUOUS
 62
     7
 10
387.1505917176
 20
111.1179558023445
 11
387.1505917176
 21
197.3862458556555
  0
INSERT
  8
0
  6
CONTINUOUS
 62
     7
  2
_OPEN30
 10
387.1505917176
 20
108.1179558474
 50
270.0000000000005
  0
INSERT
  8
0
  6
CONTINUOUS
 62
     7
  2
_OPEN30
 10
387.1505917176
 20
200.3862458106
 50
90.00000000000019
  0
LINE
  8
0
  6
CONTINUOUS
 62
     7
 10
231.6505916950723
 20
108.1179558474
 11
388.6505917176
 21
108.1179558474
  0
LINE
  8
0
  6
CONTINUOUS
 62
     7
 10
371.6505916950723
 20
200.3862458106
 11
388.6505917176
 21
200.3862458106
  0
TEXT
  8
0
  6
CONTINUOUS
 62
     7
 10
386.4229875668279
 20
149.7200366772361
 40
2.910416603088379
 41
1.238124945455562
  1
92.3
 50
90.00000000000003
  0
POINT
  8
DEFPOINTS
  6
CONTINUOUS
 62
     7
 10
230.1505917176
 20
108.1179558474
  0
POINT
  8
DEFPOINTS
  6
CONTINUOUS
 62
     7
 10
370.1505917176
 20
200.3862458106
  0
POINT
  8
DEFPOINTS
  6
CONTINUOUS
 62
     7
 10
387.1505917176
 20
200.3862458106
  0
ENDBLK
  8
0
  0
BLOCK
  8
0
  2
*D11
 70
    65
 10
0
 20
0
  0
LINE
  8
0
  6
CONTINUOUS
 62
     7
 10
234.1505916725445
 20
84.0320001506
 11
353.1505917626554
 21
84.03200015059998
  0
INSERT
  8
0
  6
CONTINUOUS
 62
     7
  2
_OPEN30
 10
231.1505917176
 20
84.0320001506
 50
180.0000000000004
  0
INSERT
  8
0
  6
CONTINUOUS
 62
     7
  2
_OPEN30
 10
356.1505917176
 20
84.0320001506
  0
LINE
  8
0
  6
CONTINUOUS
 62
     7
 10
231.1505917176
 20
107.6179558699277
 11
231.1505917176
 21
82.5320001506
  0
LINE
  8
0
  6
CONTINUOUS
 62
     7
 10
356.1505917176
 20
103.8679558699277
 11
356.1505917176
 21
82.5320001506
  0
TEXT
  8
0
  6
CONTINUOUS
 62
     7
 10
289.7006108626119
 20
84.75960430137209
 40
2.910416603088379
 41
1.163303518854092
  1
125
  0
POINT
  8
DEFPOINTS
  6
CONTINUOUS
 62
     7
 10
231.1505917176
 20
109.1179558474
  0
POINT
  8
DEFPOINTS
  6
CONTINUOUS
 62
     7
 10
356.1505917176
 20
105.3679558474
  0
POINT
  8
DEFPOINTS
  6
CONTINUOUS
 62
     7
 10
356.1505917176
 20
84.0320001506
  0
ENDBLK
  8
0
  0
BLOCK
  8
0
  2
*D12
 70
    65
 10
0
 20
0
  0
LINE
  8
0
  6
CONTINUOUS
 62
     7
 10
356.1505917176
 20
84.0320001506
 11
361.1505917176
 21
84.0320001506
  0
INSERT
  8
0
  6
CONTINUOUS
 62
     7
  2
_OPEN30
 10
356.1505917176
 20
84.0320001506
 50
3.562221243239139e-013
  0
LINE
  8
0
  6
CONTINUOUS
 62
     7
 10
353.1505917626554
 20
84.03200015059998
 11
349.8005918129674
 21
84.03200015059996
  0
INSERT
  8
0
  6
CONTINUOUS
 62
     7
  2
_OPEN30
 10
361.1505917176
 20
84.0320001506
 50
180
  0
LINE
  8
0
  6
CONTINUOUS
 62
     7
 10
364.1505916725445
 20
84.0320001506
 11
367.5005916222326
 21
84.0320001506
  0
LINE
  8
0
  6
CONTINUOUS
 62
     7
 10
356.1505917176
 20
103.8679558699277
 11
356.1505917176
 21
82.5320001506
  0
LINE
  8
0
  6
CONTINUOUS
 62
     7
 10
361.1505917176
 20
103.8679558699277
 11
361.1505917176
 21
82.5320001506
  0
TEXT
  8
0
  6
CONTINUOUS
 62
     7
 10
357.611027346491
 20
84.75960430137209
 40
2.910416603088379
 41
1
  1
5
  0
POINT
  8
DEFPOINTS
  6
CONTINUOUS
 62
     7
 10
356.1505917176
 20
105.3679558474
  0
POINT
  8
DEFPOINTS
  6
CONTINUOUS
 62
     7
 10
361.1505917176
 20
105.3679558474
  0
POINT
  8
DEFPOINTS
  6
CONTINUOUS
 62
     7
 10
361.1505917176
 20
84.0320001506
  0
ENDBLK
  8
0
  0
BLOCK
  8
0
  2
*D13
 70
    65
 10
0
 20
0
  0
LINE
  8
0
  6
CONTINUOUS
 62
     7
 10
358.1505917626554
 20
78.03200015059998
 11
74.15059167254451
 21
78.0320001506
  0
INSERT
  8
0
  6
CONTINUOUS
 62
     7
  2
_OPEN30
 10
361.1505917176
 20
78.0320001506
  0
INSERT
  8
0
  6
CONTINUOUS
 62
     7
  2
_OPEN30
 10
71.15059171759999
 20
78.0320001506
 50
180.0000000000004
  0
LINE
  8
0
  6
CONTINUOUS
 62
     7
 10
361.1505917176
 20
103.8679558699277
 11
361.1505917176
 21
76.5320001506
  0
LINE
  8
0
  6
CONTINUOUS
 62
     7
 10
71.15059171760001
 20
103.8679558699277
 11
71.15059171759999
 21
76.5320001506
  0
TEXT
  8
0
  6
CONTINUOUS
 62
     7
 10
212.2006108626119
 20
78.75960430137209
 40
2.910416603088379
 41
1.062146691127649
  1
290
  0
POINT
  8
DEFPOINTS
  6
CONTINUOUS
 62
     7
 10
361.1505917176
 20
105.3679558474
  0
POINT
  8
DEFPOINTS
  6
CONTINUOUS
 62
     7
 10
71.15059171759999
 20
105.3679558474
  0
POINT
  8
DEFPOINTS
  6
CONTINUOUS
 62
     7
 10
71.15059171759999
 20
78.0320001506
  0
ENDBLK
  8
0
  0
BLOCK
  8
0
  2
*D14
 70
    65
 10
0
 20
0
  0
LINE
  8
0
  6
CONTINUOUS
 62
     7
 10
45.65059171759999
 20
135.8862457655445
 11
45.65059171760003
 21
154.8862458556555
  0
INSERT
  8
0
  6
CONTINUOUS
 62
     7
  2
_OPEN30
 10
45.6505917176
 20
132.8862458106
 50
270.0000000000005
  0
INSERT
  8
0
  6
CONTINUOUS
 62
     7
  2
_OPEN30
 10
45.6505917176
 20
157.8862458106
 50
90.00000000000019
  0
LINE
  8
0
  6
CONTINUOUS
 62
     7
 10
171.5505917401277
 20
132.8862458106
 11
44.15059171760001
 21
132.8862458106
  0
LINE
  8
0
  6
CONTINUOUS
 62
     7
 10
171.5505917401277
 20
157.8862458106
 11
44.15059171760001
 21
157.8862458106
  0
TEXT
  8
0
  6
CONTINUOUS
 62
     7
 10
44.92298756682791
 20
142.8914731975515
 40
2.910416603088379
 41
1.028624950971445
  1
25
 50
90.00000000000003
  0
POINT
  8
DEFPOINTS
  6
CONTINUOUS
 62
     7
 10
173.0505917176
 20
132.8862458106
  0
POINT
  8
DEFPOINTS
  6
CONTINUOUS
 62
     7
 10
173.0505917176
 20
157.8862458106
  0
POINT
  8
DEFPOINTS
  6
CONTINUOUS
 62
     7
 10
45.6505917176
 20
157.8862458106
  0
ENDBLK
  8
0
  0
BLOCK
  8
0
  2
*D15
 70
    65
 10
0
 20
0
  0
LINE
  8
0
  6
CONTINUOUS
 62
     7
 10
465.2996831011445
 20
80.69549013779999
 11
535.3032545287555
 21
80.69549013779998
  0
INSERT
  8
0
  6
CONTINUOUS
 62
     7
  2
_OPEN30
 10
462.2996831462
 20
80.69549013779999
 50
180.0000000000004
  0
INSERT
  8
0
  6
CONTINUOUS
 62
     7
  2
_OPEN30
 10
538.3032544837
 20
80.69549013779999
  0
LINE
  8
0
  6
CONTINUOUS
 62
     7
 10
462.2996831462
 20
95.86795586992774
 11
462.2996831462
 21
79.19549013779999
  0
LINE
  8
0
  6
CONTINUOUS
 62
     7
 10
538.3032544837
 20
116.3862458331278
 11
538.3032544837
 21
79.19549013779999
  0
TEXT
  8
0
  6
CONTINUOUS
 62
     7
 10
497.8066962018514
 20
81.42309428857209
 40
2.910416603088379
 41
1.028624950971445
  1
76
  0
POINT
  8
DEFPOINTS
  6
CONTINUOUS
 62
     7
 10
462.2996831462
 20
97.3679558474
  0
POINT
  8
DEFPOINTS
  6
CONTINUOUS
 62
     7
 10
538.3032544837
 20
117.8862458106
  0
POINT
  8
DEFPOINTS
  6
CONTINUOUS
 62
     7
 10
538.3032544837
 20
80.69549013779999
  0
ENDBLK
  8
0
  0
BLOCK
  8
0
  2
*D16
 70
    65
 10
0
 20
0
  0
LINE
  8
0
  6
CONTINUOUS
 62
     7
 10
412.3032544837
 20
193.3862458106
 11
412.3032544837
 21
200.3862458106
  0
INSERT
  8
0
  6
CONTINUOUS
 62
     7
  2
_DOT
 10
412.3032544837
 20
193.3862458106
 50
270.0000000000005
  0
INSERT
  8
0
  6
CONTINUOUS
 62
     7
  2
_OPEN30
 10
412.3032544837
 20
200.3862458106
 50
270.0000000000002
  0
LINE
  8
0
  6
CONTINUOUS
 62
     7
 10
412.3032544837
 20
203.3862457655445
 11
412.3032544837
 21
206.7362457152326
  0
LINE
  8
0
  6
CONTINUOUS
 62
     7
 10
427.8032545062277
 20
193.3862458106
 11
410.8032544837
 21
193.3862458106
  0
LINE
  8
0
  6
CONTINUOUS
 62
     7
 10
427.8032545062277
 20
200.3862458106
 11
410.8032544837
 21
200.3862458106
  0
TEXT
  8
0
  6
CONTINUOUS
 62
     7
 10
411.5756503329279
 20
195.846681439491
 40
2.910416603088379
 41
1
  1
7
 50
90.00000000000003
  0
POINT
  8
DEFPOINTS
  6
CONTINUOUS
 62
     7
 10
429.3032544837
 20
193.3862458106
  0
POINT
  8
DEFPOINTS
  6
CONTINUOUS
 62
     7
 10
429.3032544837
 20
200.3862458106
  0
POINT
  8
DEFPOINTS
  6
CONTINUOUS
 62
     7
 10
412.3032544837
 20
200.3862458106
  0
ENDBLK
  8
0
  0
BLOCK
  8
0
  2
*D17
 70
    65
 10
0
 20
0
  0
LINE
  8
0
  6
CONTINUOUS
 62
     7
 10
526.3032544386446
 20
216.3862458106
 11
535.3032545287555
 21
216.3862458106
  0
INSERT
  8
0
  6
CONTINUOUS
 62
     7
  2
_OPEN30
 10
523.3032544837
 20
216.3862458106
 50
180.0000000000004
  0
INSERT
  8
0
  6
CONTINUOUS
 62
     7
  2
_OPEN30
 10
538.3032544837
 20
216.3862458106
  0
LINE
  8
0
  6
CONTINUOUS
 62
     7
 10
523.3032544837
 20
200.8862457880723
 11
523.3032544837
 21
217.8862458106
  0
LINE
  8
0
  6
CONTINUOUS
 62
     7
 10
538.3032544837
 20
174.3862457880723
 11
538.3032544837
 21
217.8862458106
  0
TEXT
  8
0
  6
CONTINUOUS
 62
     7
 10
528.3084818706515
 20
217.1138499613721
 40
2.910416603088379
 41
1.285781188714307
  1
15
  0
POINT
  8
DEFPOINTS
  6
CONTINUOUS
 62
     7
 10
523.3032544837
 20
199.3862458106
  0
POINT
  8
DEFPOINTS
  6
CONTINUOUS
 62
     7
 10
538.3032544837
 20
172.8862458106
  0
POINT
  8
DEFPOINTS
  6
CONTINUOUS
 62
     7
 10
538.3032544837
 20
216.3862458106
  0
ENDBLK
  8
0
  0
BLOCK
  8
0
  2
*D18
 70
    65
 10
0
 20
0
  0
LINE
  8
0
  6
CONTINUOUS
 62
     7
 10
431.3032544386446
 20
216.3862458106
 11
520.3032545287555
 21
216.3862458106
  0
INSERT
  8
0
  6
CONTINUOUS
 62
     7
  2
_OPEN30
 10
428.3032544837
 20
216.3862458106
 50
180.0000000000004
  0
INSERT
  8
0
  6
CONTINUOUS
 62
     7
  2
_OPEN30
 10
523.3032544837
 20
216.3862458106
  0
LINE
  8
0
  6
CONTINUOUS
 62
     7
 10
428.3032544837
 20
200.8862457880723
 11
428.3032544837
 21
217.8862458106
  0
LINE
  8
0
  6
CONTINUOUS
 62
     7
 10
523.3032544837
 20
200.8862457880723
 11
523.3032544837
 21
217.8862458106
  0
TEXT
  8
0
  6
CONTINUOUS
 62
     7
 10
473.3084818706515
 20
217.1138499613721
 40
2.910416603088379
 41
1.028624950971445
  1
95
  0
POINT
  8
DEFPOINTS
  6
CONTINUOUS
 62
     7
 10
428.3032544837
 20
199.3862458106
  0
POINT
  8
DEFPOINTS
  6
CONTINUOUS
 62
     7
 10
523.3032544837
 20
199.3862458106
  0
POINT
  8
DEFPOINTS
  6
CONTINUOUS
 62
     7
 10
523.3032544837
 20
216.3862458106
  0
ENDBLK
  8
0
  0
BLOCK
  8
0
  2
*D19
 70
    65
 10
0
 20
0
  0
LINE
  8
0
  6
CONTINUOUS
 62
     7
 10
568.6032544837
 20
197.3862458556555
 11
568.6032544837
 21
175.8862457655445
  0
INSERT
  8
0
  6
CONTINUOUS
 62
     7
  2
_OPEN30
 10
568.6032544837
 20
200.3862458106
 50
90.00000000000019
  0
INSERT
  8
0
  6
CONTINUOUS
 62
     7
  2
_OPEN30
 10
568.6032544837
 20
172.8862458106
 50
270.0000000000005
  0
LINE
  8
0
  6
CONTINUOUS
 62
     7
 10
523.8032544611723
 20
200.3862458106
 11
570.1032544837
 21
200.3862458106
  0
LINE
  8
0
  6
CONTINUOUS
 62
     7
 10
539.8032544611723
 20
172.8862458106
 11
570.1032544837
 21
172.8862458106
  0
TEXT
  8
0
  6
CONTINUOUS
 62
     7
 10
567.8756503329279
 20
182.1041816588361
 40
2.910416603088379
 41
1.238124945455562
  1
27.5
 50
90.00000000000003
  0
POINT
  8
DEFPOINTS
  6
CONTINUOUS
 62
     7
 10
522.3032544837
 20
200.3862458106
  0
POINT
  8
DEFPOINTS
  6
CONTINUOUS
 62
     7
 10
538.3032544837
 20
172.8862458106
  0
POINT
  8
DEFPOINTS
  6
CONTINUOUS
 62
     7
 10
568.6032544837
 20
172.8862458106
  0
ENDBLK
  8
0
  0
BLOCK
  8
0
  2
*D20
 70
    65
 10
0
 20
0
  0
LINE
  8
0
  6
CONTINUOUS
 62
     7
 10
568.6032544837
 20
120.8862457655445
 11
568.6032544837
 21
169.8862458556555
  0
INSERT
  8
0
  6
CONTINUOUS
 62
     7
  2
_OPEN30
 10
568.6032544837
 20
117.8862458106
 50
270.0000000000005
  0
INSERT
  8
0
  6
CONTINUOUS
 62
     7
  2
_OPEN30
 10
568.6032544837
 20
172.8862458106
 50
90.00000000000019
  0
LINE
  8
0
  6
CONTINUOUS
 62
     7
 10
539.8032544611723
 20
117.8862458106
 11
570.1032544837
 21
117.8862458106
  0
LINE
  8
0
  6
CONTINUOUS
 62
     7
 10
539.8032544611723
 20
172.8862458106
 11
570.1032544837
 21
172.8862458106
  0
TEXT
  8
0
  6
CONTINUOUS
 62
     7
 10
567.8756503329279
 20
142.8914731975515
 40
2.910416603088379
 41
1.028624950971445
  1
55
 50
90.00000000000003
  0
POINT
  8
DEFPOINTS
  6
CONTINUOUS
 62
     7
 10
538.3032544837
 20
117.8862458106
  0
POINT
  8
DEFPOINTS
  6
CONTINUOUS
 62
     7
 10
538.3032544837
 20
172.8862458106
  0
POINT
  8
DEFPOINTS
  6
CONTINUOUS
 62
     7
 10
568.6032544837
 20
172.8862458106
  0
ENDBLK
  8
0
  0
BLOCK
  8
0
  2
*D21
 70
    65
 10
0
 20
0
  0
LINE
  8
0
  6
CONTINUOUS
 62
     7
 10
412.3032544837
 20
187.3862458106
 11
412.3032544837
 21
193.3862458106
  0
INSERT
  8
0
  6
CONTINUOUS
 62
     7
  2
_OPEN30
 10
412.3032544837
 20
187.3862458106
 50
90.00000000000051
  0
LINE
  8
0
  6
CONTINUOUS
 62
     7
 10
412.3032544837
 20
184.3862458556555
 11
412.3032544837001
 21
181.0362459059674
  0
INSERT
  8
0
  6
CONTINUOUS
 62
     7
  2
_DOT
 10
412.3032544837
 20
193.3862458106
 50
90.00000000000019
  0
LINE
  8
0
  6
CONTINUOUS
 62
     7
 10
477.8032545062277
 20
187.3862458106
 11
410.8032544837
 21
187.3862458106
  0
LINE
  8
0
  6
CONTINUOUS
 62
     7
 10
427.8032545062277
 20
193.3862458106
 11
410.8032544837
 21
193.3862458106
  0
TEXT
  8
0
  6
CONTINUOUS
 62
     7
 10
411.5756503329279
 20
189.346681439491
 40
2.910416603088379
 41
1
  1
6
 50
90.00000000000003
  0
POINT
  8
DEFPOINTS
  6
CONTINUOUS
 62
     7
 10
479.3032544837
 20
187.3862458106
  0
POINT
  8
DEFPOINTS
  6
CONTINUOUS
 62
     7
 10
429.3032544837
 20
193.3862458106
  0
POINT
  8
DEFPOINTS
  6
CONTINUOUS
 62
     7
 10
412.3032544837
 20
193.3862458106
  0
ENDBLK
  8
0
  0
BLOCK
  8
0
  2
*D22
 70
    65
 10
0
 20
0
  0
LINE
  8
0
  6
CONTINUOUS
 62
     7
 10
504.0783768054502
 20
163.3892901937501
 11
499.966538398609
 21
167.5011286005912
  0
LINE
  8
0
  6
CONTINUOUS
 62
     7
 10
508.32101749255
 20
159.1466495066501
 11
504.07837680545
 21
163.38929019375
  0
INSERT
  8
0
  6
CONTINUOUS
 62
     7
  2
_OPEN30
 10
508.32101749255
 20
159.1466495066501
 50
135.0000000000008
  0
LINE
  8
0
  6
CONTINUOUS
 62
     7
 10
510.4423378042507
 20
157.0253291949495
 11
512.8111454856497
 21
154.6565215135505
  0
INSERT
  8
0
  6
CONTINUOUS
 62
     7
  2
_OPEN30
 10
504.07837680545
 20
163.38929019375
 50
315
  0
LINE
  8
0
  6
CONTINUOUS
 62
     7
 10
501.9570564937494
 20
165.5106105054506
 11
499.5882488123504
 21
167.8794181868497
  0
LINE
  8
0
  6
CONTINUOUS
 62
     7
 10
500.5064129367502
 20
151.3320449508502
 11
509.3816776643298
 21
160.2073096784298
  0
LINE
  8
0
  6
CONTINUOUS
 62
     7
 10
496.2637722496501
 20
155.5746856379503
 11
505.1390369772298
 21
164.4499503655299
  0
TEXT
  8
0
  6
CONTINUOUS
 62
     7
 10
500.4810322276394
 20
168.0156224296215
 40
2.910416603088379
 41
1
  1
6
 50
-44.9999999999999
  0
POINT
  8
DEFPOINTS
  6
CONTINUOUS
 62
     7
 10
499.4457527808999
 20
150.2713847949999
  0
POINT
  8
DEFPOINTS
  6
CONTINUOUS
 62
     7
 10
495.2031120937998
 20
154.5140254821
  0
POINT
  8
DEFPOINTS
  6
CONTINUOUS
 62
     7
 10
504.07837680545
 20
163.38929019375
  0
ENDBLK
  8
0
  0
BLOCK
  8
0
  2
*D23
 70
    65
 10
0
 20
0
  0
LINE
  8
0
  6
CONTINUOUS
 62
     7
 10
493.69597932925
 20
165.02770799775
 11
487.2789112197949
 21
171.4447761072051
  0
LINE
  8
0
  6
CONTINUOUS
 62
     7
 10
495.8172996409506
 20
162.9063876860494
 11
507.8381149847994
 21
150.8855723422006
  0
INSERT
  8
0
  6
CONTINUOUS
 62
     7
  2
_OPEN30
 10
493.69597932925
 20
165.02770799775
 50
135.0000000000001
  0
INSERT
  8
0
  6
CONTINUOUS
 62
     7
  2
_OPEN30
 10
509.9594352965
 20
148.7642520305
 50
315.0000000000007
  0
LINE
  8
0
  6
CONTINUOUS
 62
     7
 10
510.7364976734497
 20
182.0682263419497
 11
492.6353191574702
 21
163.9670478259702
  0
LINE
  8
0
  6
CONTINUOUS
 62
     7
 10
526.9999536406498
 20
165.8047703746497
 11
508.8987751247202
 21
147.7035918587201
  0
TEXT
  8
0
  6
CONTINUOUS
 62
     7
 10
487.7934050488253
 20
171.9592699362355
 40
2.910416603088379
 41
1.028624950971445
  1
23
 50
-44.9999999999999
  0
POINT
  8
DEFPOINTS
  6
CONTINUOUS
 62
     7
 10
511.7971578293
 20
183.1288864978
  0
POINT
  8
DEFPOINTS
  6
CONTINUOUS
 62
     7
 10
528.0606137965001
 20
166.8654305305
  0
POINT
  8
DEFPOINTS
  6
CONTINUOUS
 62
     7
 10
509.9594352965
 20
148.7642520305
  0
ENDBLK
  8
0
  0
BLOCK
  8
0
  2
*D24
 70
    65
 10
0
 20
0
  0
LINE
  8
0
  6
CONTINUOUS
 62
     7
 10
535.3032545287555
 20
210.3862458106
 11
481.3032544386446
 21
210.3862458106
  0
INSERT
  8
0
  6
CONTINUOUS
 62
     7
  2
_OPEN30
 10
538.3032544837
 20
210.3862458106
  0
INSERT
  8
0
  6
CONTINUOUS
 62
     7
  2
_OPEN30
 10
478.3032544837
 20
210.3862458106
 50
180.0000000000004
  0
LINE
  8
0
  6
CONTINUOUS
 62
     7
 10
538.3032544837
 20
174.3862457880723
 11
538.3032544837
 21
211.8862458106
  0
LINE
  8
0
  6
CONTINUOUS
 62
     7
 10
478.3032544837
 20
194.8862457880723
 11
478.3032544837
 21
211.8862458106
  0
TEXT
  8
0
  6
CONTINUOUS
 62
     7
 10
505.8084818706515
 20
211.1138499613721
 40
2.910416603088379
 41
1.10209816175512
  1
60
  0
POINT
  8
DEFPOINTS
  6
CONTINUOUS
 62
     7
 10
538.3032544837
 20
172.8862458106
  0
POINT
  8
DEFPOINTS
  6
CONTINUOUS
 62
     7
 10
478.3032544837
 20
193.3862458106
  0
POINT
  8
DEFPOINTS
  6
CONTINUOUS
 62
     7
 10
478.3032544837
 20
210.3862458106
  0
ENDBLK
  8
0
  0
BLOCK
  8
0
  2
*D25
 70
    65
 10
0
 20
0
  0
LINE
  8
0
  6
CONTINUOUS
 62
     7
 10
431.3032544386446
 20
222.3862458106
 11
535.3032545287555
 21
222.3862458106
  0
INSERT
  8
0
  6
CONTINUOUS
 62
     7
  2
_OPEN30
 10
428.3032544837
 20
222.3862458106
 50
180.0000000000004
  0
INSERT
  8
0
  6
CONTINUOUS
 62
     7
  2
_OPEN30
 10
538.3032544837
 20
222.3862458106
  0
LINE
  8
0
  6
CONTINUOUS
 62
     7
 10
428.3032544837
 20
200.8862457880723
 11
428.3032544837
 21
223.8862458106
  0
LINE
  8
0
  6
CONTINUOUS
 62
     7
 10
538.3032544837
 20
174.3862457880723
 11
538.3032544837
 21
223.8862458106
  0
TEXT
  8
0
  6
CONTINUOUS
 62
     7
 10
479.3532736287119
 20
223.1138499613721
 40
2.910416603088379
 41
1.437021993878584
  1
110
  0
POINT
  8
DEFPOINTS
  6
CONTINUOUS
 62
     7
 10
428.3032544837
 20
199.3862458106
  0
POINT
  8
DEFPOINTS
  6
CONTINUOUS
 62
     7
 10
538.3032544837
 20
172.8862458106
  0
POINT
  8
DEFPOINTS
  6
CONTINUOUS
 62
     7
 10
538.3032544837
 20
222.3862458106
  0
ENDBLK
  8
0
  0
BLOCK
  8
0
  2
*D26
 70
    65
 10
0
 20
0
  0
LINE
  8
0
  6
CONTINUOUS
 62
     7
 10
406.3032544837
 20
120.3679558023445
 11
406.3032544837
 21
197.3862458556555
  0
INSERT
  8
0
  6
CONTINUOUS
 62
     7
  2
_OPEN30
 10
406.3032544837
 20
117.3679558474
 50
270.0000000000005
  0
INSERT
  8
0
  6
CONTINUOUS
 62
     7
  2
_OPEN30
 10
406.3032544837
 20
200.3862458106
 50
90.00000000000019
  0
LINE
  8
0
  6
CONTINUOUS
 62
     7
 10
439.4386120651278
 20
117.3679558474
 11
404.8032544837
 21
117.3679558474
  0
LINE
  8
0
  6
CONTINUOUS
 62
     7
 10
427.8032545062277
 20
200.3862458106
 11
404.8032544837
 21
200.3862458106
  0
TEXT
  8
0
  6
CONTINUOUS
 62
     7
 10
405.5756503329279
 20
156.3823282159515
 40
2.910416603088379
 41
1.028624950971445
  1
83
 50
90.00000000000003
  0
POINT
  8
DEFPOINTS
  6
CONTINUOUS
 62
     7
 10
440.9386120426
 20
117.3679558474
  0
POINT
  8
DEFPOINTS
  6
CONTINUOUS
 62
     7
 10
429.3032544837
 20
200.3862458106
  0
POINT
  8
DEFPOINTS
  6
CONTINUOUS
 62
     7
 10
406.3032544837
 20
200.3862458106
  0
ENDBLK
  8
0
  0
BLOCK
  8
0
  2
*D27
 70
    65
 10
0
 20
0
  0
LINE
  8
0
  6
CONTINUOUS
 62
     7
 10
562.6032544837
 20
190.8862457655445
 11
562.6032544837
 21
197.3862458556555
  0
INSERT
  8
0
  6
CONTINUOUS
 62
     7
  2
_OPEN30
 10
562.6032544837
 20
187.8862458106
 50
270.0000000000005
  0
INSERT
  8
0
  6
CONTINUOUS
 62
     7
  2
_OPEN30
 10
562.6032544837
 20
200.3862458106
 50
90.00000000000019
  0
LINE
  8
0
  6
CONTINUOUS
 62
     7
 10
524.8032544611723
 20
187.8862458106
 11
564.1032544837
 21
187.8862458106
  0
LINE
  8
0
  6
CONTINUOUS
 62
     7
 10
523.8032544611723
 20
200.3862458106
 11
564.1032544837
 21
200.3862458106
  0
TEXT
  8
0
  6
CONTINUOUS
 62
     7
 10
561.8756503329279
 20
189.6041816588361
 40
2.910416603088379
 41
1.392890563637508
  1
12.5
 50
90.00000000000003
  0
POINT
  8
DEFPOINTS
  6
CONTINUOUS
 62
     7
 10
523.3032544837
 20
187.8862458106
  0
POINT
  8
DEFPOINTS
  6
CONTINUOUS
 62
     7
 10
522.3032544837
 20
200.3862458106
  0
POINT
  8
DEFPOINTS
  6
CONTINUOUS
 62
     7
 10
562.6032544837
 20
200.3862458106
  0
ENDBLK
  8
0
  0
BLOCK
  8
0
  2
*D28
 70
    65
 10
0
 20
0
  0
LINE
  8
0
  6
CONTINUOUS
 62
     7
 10
532.3032544837
 20
86.69549013779999
 11
538.3032544837
 21
86.69549013779999
  0
INSERT
  8
0
  6
CONTINUOUS
 62
     7
  2
_OPEN30
 10
532.3032544837
 20
86.69549013779999
 50
3.562221243239139e-013
  0
LINE
  8
0
  6
CONTINUOUS
 62
     7
 10
529.3032545287555
 20
86.69549013779998
 11
525.9532545790675
 21
86.69549013779995
  0
INSERT
  8
0
  6
CONTINUOUS
 62
     7
  2
_OPEN30
 10
538.3032544837
 20
86.69549013779999
 50
180
  0
LINE
  8
0
  6
CONTINUOUS
 62
     7
 10
541.3032544386446
 20
86.69549013779999
 11
544.6532543883326
 21
86.69549013779999
  0
LINE
  8
0
  6
CONTINUOUS
 62
     7
 10
532.3032544837
 20
117.3862458331278
 11
532.3032544837
 21
85.19549013779999
  0
LINE
  8
0
  6
CONTINUOUS
 62
     7
 10
538.3032544837
 20
116.3862458331278
 11
538.3032544837
 21
85.19549013779999
  0
TEXT
  8
0
  6
CONTINUOUS
 62
     7
 10
534.263690112591
 20
87.42309428857209
 40
2.910416603088379
 41
1
  1
6
  0
POINT
  8
DEFPOINTS
  6
CONTINUOUS
 62
     7
 10
532.3032544837
 20
118.8862458106
  0
POINT
  8
DEFPOINTS
  6
CONTINUOUS
 62
     7
 10
538.3032544837
 20
117.8862458106
  0
POINT
  8
DEFPOINTS
  6
CONTINUOUS
 62
     7
 10
538.3032544837
 20
86.69549013779999
  0
ENDBLK
  8
0
  0
BLOCK
  8
0
  2
KOZU0001
 70
    64
 10
0
 20
0
  0
ENDBLK
  8
0
  0
BLOCK
  8
0
  2
KOZU0002
 70
    64
 10
0
 20
0
  0
ENDBLK
  8
0
  0
BLOCK
  8
0
  2
KOZU0003
 70
    64
 10
0
 20
0
  0
ENDBLK
  8
0
  0
BLOCK
  8
0
  2
KOZU0004
 70
    64
 10
0
 20
0
  0
TEXT
  8
0
  6
CONTINUOUS
 62
     7
 10
3.655751523723438e-008
 20
-0.6818181817999998
 40
5
 41
1.00000000801407
  1
個
  0
TEXT
  8
0
  6
CONTINUOUS
 62
     7
 10
3.655751523723438e-008
 20
-6.5012627264
 40
5
 41
1.00000000801407
  1
数
  0
ENDBLK
  8
0
  0
BLOCK
  8
0
  2
KOZU0005
 70
    64
 10
0
 20
0
  0
TEXT
  8
0
  6
CONTINUOUS
 62
     7
 10
4.715389678722204e-008
 20
-0.4329545574209284
 40
3.174999952316284
 41
1.000000041016894
  1
通知
  0
TEXT
  8
0
  6
CONTINUOUS
 62
     7
 10
8.46666654281054
 20
-0.4329545574209284
 40
3.174999952316284
 41
1.000000041016894
  1
書
  0
ENDBLK
  8
0
  0
BLOCK
  8
0
  2
KOZU0006
 70
    64
 10
0
 20
0
  0
LINE
  8
0
  6
CONTINUOUS
 62
     7
 10
-1
 20
0.267949
 11
0
 21
0
  0
LINE
  8
0
  6
CONTINUOUS
 62
     7
 10
0
 20
0
 11
-1
 21
-0.267949
  0
LINE
  8
0
  6
CONTINUOUS
 62
     7
 10
0
 20
0
 11
-1
 21
0
  0
ENDBLK
  8
0
  0
BLOCK
  8
0
  2
KOZU0007
 70
    64
 10
0
 20
0
  0
LINE
  8
0
  6
CONTINUOUS
 62
     7
 10
0
 20
0
 11
0
 21
1
  0
LINE
  8
0
  6
CONTINUOUS
 62
     7
 10
0
 20
0
 11
-1
 21
0
  0
LINE
  8
0
  6
CONTINUOUS
 62
     7
 10
0
 20
0
 11
0
 21
-1
  0
LINE
  8
0
  6
CONTINUOUS
 62
     7
 10
0
 20
0
 11
1
 21
0
  0
LINE
  8
0
  6
CONTINUOUS
 62
     7
 10
0
 20
2
 11
0
 21
5.1
  0
LINE
  8
0
  6
CONTINUOUS
 62
     7
 10
-2
 20
0
 11
-5.1
 21
0
  0
LINE
  8
0
  6
CONTINUOUS
 62
     7
 10
0
 20
-2
 11
0
 21
-5.1
  0
LINE
  8
0
  6
CONTINUOUS
 62
     7
 10
2
 20
0
 11
5.1
 21
0
  0
ENDBLK
  8
0
  0
BLOCK
  8
0
  2
KOZU0008
 70
    64
 10
0
 20
0
  0
LINE
  8
0
  6
CONTINUOUS
 62
     7
 10
0
 20
0
 11
0
 21
1
  0
LINE
  8
0
  6
CONTINUOUS
 62
     7
 10
0
 20
0
 11
-1
 21
0
  0
LINE
  8
0
  6
CONTINUOUS
 62
     7
 10
0
 20
0
 11
0
 21
-1
  0
LINE
  8
0
  6
CONTINUOUS
 62
     7
 10
0
 20
0
 11
1
 21
0
  0
LINE
  8
0
  6
CONTINUOUS
 62
     7
 10
0
 20
2
 11
0
 21
5.1
  0
LINE
  8
0
  6
CONTINUOUS
 62
     7
 10
-2
 20
0
 11
-5.1
 21
0
  0
LINE
  8
0
  6
CONTINUOUS
 62
     7
 10
0
 20
-2
 11
0
 21
-5.1
  0
LINE
  8
0
  6
CONTINUOUS
 62
     7
 10
2
 20
0
 11
5.1
 21
0
  0
ENDBLK
  8
0
  0
BLOCK
  8
0
  2
KOZU0009
 70
    64
 10
0
 20
0
  0
LINE
  8
0
  6
CONTINUOUS
 62
     7
 10
0
 20
0
 11
0
 21
1
  0
LINE
  8
0
  6
CONTINUOUS
 62
     7
 10
0
 20
0
 11
-1
 21
0
  0
LINE
  8
0
  6
CONTINUOUS
 62
     7
 10
0
 20
0
 11
0
 21
-1
  0
LINE
  8
0
  6
CONTINUOUS
 62
     7
 10
0
 20
0
 11
1
 21
0
  0
LINE
  8
0
  6
CONTINUOUS
 62
     7
 10
0
 20
2
 11
0
 21
5.1
  0
LINE
  8
0
  6
CONTINUOUS
 62
     7
 10
-2
 20
0
 11
-5.1
 21
0
  0
LINE
  8
0
  6
CONTINUOUS
 62
     7
 10
0
 20
-2
 11
0
 21
-5.1
  0
LINE
  8
0
  6
CONTINUOUS
 62
     7
 10
2
 20
0
 11
5.1
 21
0
  0
ENDBLK
  8
0
  0
BLOCK
  8
0
  2
KOZU0010
 70
    64
 10
0
 20
0
  0
LINE
  8
0
  6
CONTINUOUS
 62
     7
 10
0
 20
0
 11
0
 21
1
  0
LINE
  8
0
  6
CONTINUOUS
 62
     7
 10
0
 20
0
 11
-1
 21
0
  0
LINE
  8
0
  6
CONTINUOUS
 62
     7
 10
0
 20
0
 11
0
 21
-1
  0
LINE
  8
0
  6
CONTINUOUS
 62
     7
 10
0
 20
0
 11
1
 21
0
  0
LINE
  8
0
  6
CONTINUOUS
 62
     7
 10
0
 20
2
 11
0
 21
5.1
  0
LINE
  8
0
  6
CONTINUOUS
 62
     7
 10
-2
 20
0
 11
-5.1
 21
0
  0
LINE
  8
0
  6
CONTINUOUS
 62
     7
 10
0
 20
-2
 11
0
 21
-5.1
  0
LINE
  8
0
  6
CONTINUOUS
 62
     7
 10
2
 20
0
 11
5.1
 21
0
  0
ENDBLK
  8
0
  0
BLOCK
  8
0
  2
KOZU0011
 70
    64
 10
0
 20
0
  0
LINE
  8
0
  6
CONTINUOUS
 62
     7
 10
0
 20
0
 11
-1
 21
0
  0
CIRCLE
  8
0
  6
CONTINUOUS
 62
     7
 10
0
 20
0
 40
0.5
  0
ENDBLK
  8
0
  0
BLOCK
  8
0
  2
KOZU0012
 70
    64
 10
0
 20
0
  0
LINE
  8
0
  6
CONTINUOUS
 62
     7
 10
0
 20
0
 11
0
 21
1
  0
LINE
  8
0
  6
CONTINUOUS
 62
     7
 10
0
 20
0
 11
-1
 21
0
  0
LINE
  8
0
  6
CONTINUOUS
 62
     7
 10
0
 20
0
 11
0
 21
-1
  0
LINE
  8
0
  6
CONTINUOUS
 62
     7
 10
0
 20
0
 11
1
 21
0
  0
LINE
  8
0
  6
CONTINUOUS
 62
     7
 10
0
 20
2
 11
0
 21
25.5061146072
  0
LINE
  8
0
  6
CONTINUOUS
 62
     7
 10
-2
 20
0
 11
-21.3610711036
 21
0
  0
LINE
  8
0
  6
CONTINUOUS
 62
     7
 10
0
 20
-2
 11
0
 21
-22.7543647013
  0
LINE
  8
0
  6
CONTINUOUS
 62
     7
 10
2
 20
0
 11
21.0879368745
 21
0
  0
ENDBLK
  8
0
  0
ENDSEC
  0
SECTION
  2
ENTITIES
  0
LINE
  8
0
  6
CONTINUOUS
 62
     7
 10
253.1505921944
 20
179.3105095264
 11
253.1505921944
 21
179.1337333259
  0
LINE
  8
0
  6
CONTINUOUS
 62
     7
 10
259.1505931779
 20
179.1337333259
 11
259.1505931779
 21
179.3105095264
  0
LINE
  8
0
  6
CONTINUOUS
 62
     7
 10
173.1505902573
 20
179.3105095264
 11
173.1505902573
 21
179.1337333259
  0
LINE
  8
0
  6
CONTINUOUS
 62
     7
 10
179.1505912408
 20
179.1337333259
 11
179.1505912408
 21
179.3105095264
  0
LINE
  8
0
  6
CONTINUOUS
 62
     7
 10
250.1505935653
 20
187.3862459895
 11
250.1505935653
 21
187.1862463292
  0
LINE
  8
0
  6
CONTINUOUS
 62
     7
 10
258.1505911514
 20
187.1862463292
 11
258.1505911514
 21
187.3862459895
  0
LINE
  8
0
  6
CONTINUOUS
 62
     7
 10
174.1505922838
 20
187.3862459895
 11
174.1505922838
 21
187.1862463292
  0
LINE
  8
0
  6
CONTINUOUS
 62
     7
 10
182.1505898699
 20
187.1862463292
 11
182.1505898699
 21
187.3862459895
  0
LINE
  8
0
  6
CONTINUOUS
 62
     7
 10
72.1505979165
 20
104.3679542478
 11
75.150589095
 21
104.3679542478
  0
LINE
  8
0
  6
CONTINUOUS
 62
     7
 10
75.150589095
 20
130.3679566469
 11
72.1505979165
 21
130.3679566469
  0
LINE
  8
0
  6
CONTINUOUS
 62
     7
 10
360.1505855187
 20
130.3679566469
 11
357.1505943402
 21
130.3679566469
  0
LINE
  8
0
  6
CONTINUOUS
 62
     7
 10
357.1505943402
 20
104.3679542478
 11
360.1505855187
 21
104.3679542478
  0
LINE
  8
0
  6
CONTINUOUS
 62
     7
 10
201.1505920529
 20
124.3679575261
 11
76.1505911215
 21
124.3679575261
  0
LINE
  8
0
  6
CONTINUOUS
 62
     7
 10
76.1505911215
 20
110.3679552313
 11
201.1505920529
 21
110.3679552313
  0
LINE
  8
0
  6
CONTINUOUS
 62
     7
 10
231.1505913823
 20
110.3679552313
 11
356.1505923136
 21
110.3679552313
  0
LINE
  8
0
  6
CONTINUOUS
 62
     7
 10
356.1505923136
 20
124.3679575261
 11
231.1505913823
 21
124.3679575261
  0
LINE
  8
0
  6
CONTINUOUS
 62
     7
 10
202.1505912855
 20
108.1179543969
 11
230.1505921497
 21
108.1179543969
  0
LINE
  8
0
  6
CONTINUOUS
 62
     7
 10
233.1505926415
 20
166.2189835321
 11
259.1505931779
 21
166.2189835321
  0
LINE
  8
0
  6
CONTINUOUS
 62
     7
 10
173.1505902573
 20
166.2189835321
 11
199.1505907937
 21
166.2189835321
  0
LINE
  8
0
  6
CONTINUOUS
 62
     7
 10
169.1505933269
 20
166.5725368645
 11
171.0442626938
 21
166.5725368645
  0
LINE
  8
0
  6
CONTINUOUS
 62
     7
 10
261.2177381381
 20
166.5725368645
 11
263.1505901083
 21
166.5725368645
  0
LINE
  8
0
  6
CONTINUOUS
 62
     7
 10
255.4005930289
 20
132.1645579871
 11
255.4005930289
 21
133.6079328891
  0
LINE
  8
0
  6
CONTINUOUS
 62
     7
 10
255.4005930289
 20
133.6079328891
 11
254.1505904957
 21
134.3296222028
  0
LINE
  8
0
  6
CONTINUOUS
 62
     7
 10
254.1505904957
 20
134.3296222028
 11
252.9005916878
 21
133.6079328891
  0
LINE
  8
0
  6
CONTINUOUS
 62
     7
 10
252.9005916878
 20
133.6079328891
 11
252.9005916878
 21
132.1645579871
  0
LINE
  8
0
  6
CONTINUOUS
 62
     7
 10
252.9005916878
 20
132.1645579871
 11
254.1505904957
 21
131.4428705361
  0
LINE
  8
0
  6
CONTINUOUS
 62
     7
 10
254.1505904957
 20
131.4428705361
 11
255.4005930289
 21
132.1645579871
  0
LINE
  8
0
  6
CONTINUOUS
 62
     7
 10
179.4005917474
 20
157.1645579522
 11
179.4005917474
 21
158.6079336691
  0
LINE
  8
0
  6
CONTINUOUS
 62
     7
 10
179.4005917474
 20
158.6079336691001
 11
178.1505929395
 21
159.3296215276001
  0
LINE
  8
0
  6
CONTINUOUS
 62
     7
 10
178.1505929395
 20
159.3296215276
 11
176.9005904063
 21
158.6079336691
  0
LINE
  8
0
  6
CONTINUOUS
 62
     7
 10
176.9005904063
 20
158.6079336691
 11
176.9005904063
 21
157.1645579522
  0
LINE
  8
0
  6
CONTINUOUS
 62
     7
 10
176.9005904063001
 20
157.1645579522
 11
178.1505929395
 21
156.4428700937
  0
LINE
  8
0
  6
CONTINUOUS
 62
     7
 10
178.1505929395
 20
156.4428700937
 11
179.4005917474
 21
157.1645579522
  0
LINE
  8
0
  6
CONTINUOUS
 62
     7
 10
255.4005930289
 20
157.1645579522
 11
255.4005930289
 21
158.6079336691
  0
LINE
  8
0
  6
CONTINUOUS
 62
     7
 10
255.4005930289
 20
158.6079336691
 11
254.1505904957
 21
159.3296215276
  0
LINE
  8
0
  6
CONTINUOUS
 62
     7
 10
254.1505904957
 20
159.3296215276
 11
252.9005916878
 21
158.6079336691
  0
LINE
  8
0
  6
CONTINUOUS
 62
     7
 10
252.9005916878
 20
158.6079336691
 11
252.9005916878
 21
157.1645579522
  0
LINE
  8
0
  6
CONTINUOUS
 62
     7
 10
252.9005916878
 20
157.1645579522
 11
254.1505904957
 21
156.4428700937
  0
LINE
  8
0
  6
CONTINUOUS
 62
     7
 10
254.1505904957
 20
156.4428700937
 11
255.4005930289
 21
157.1645579522
  0
LINE
  8
0
  6
CONTINUOUS
 62
     7
 10
179.4005917474
 20
133.6079328891
 11
178.1505929395
 21
134.3296222028
  0
LINE
  8
0
  6
CONTINUOUS
 62
     7
 10
176.9005904063
 20
133.6079328891
 11
176.9005904063
 21
132.1645579871
  0
LINE
  8
0
  6
CONTINUOUS
 62
     7
 10
178.1505929395
 20
134.3296222028
 11
176.9005904063
 21
133.6079328891
  0
LINE
  8
0
  6
CONTINUOUS
 62
     7
 10
179.4005917474
 20
132.1645579871
 11
179.4005917474
 21
133.6079328891
  0
LINE
  8
0
  6
CONTINUOUS
 62
     7
 10
178.1505929395
 20
131.4428705361
 11
179.4005917474
 21
132.1645579871
  0
LINE
  8
0
  6
CONTINUOUS
 62
     7
 10
176.9005904063
 20
132.1645579871
 11
178.1505929395
 21
131.4428705361
  0
LINE
  8
0
  6
CONTINUOUS
 62
     7
 10
256.5711872741
 20
177.8961751249
 11
256.5838309094
 21
178.4083857771
  0
LINE
  8
0
  6
CONTINUOUS
 62
     7
 10
256.5838309093999
 20
178.4083857771
 11
256.7722747191
 21
178.6941378948
  0
LINE
  8
0
  6
CONTINUOUS
 62
     7
 10
256.7722747191
 20
178.6941378948
 11
257.1763867601
 21
178.8273859408
  0
LINE
  8
0
  6
CONTINUOUS
 62
     7
 10
257.1763867601
 20
178.8273859408
 11
257.9007620081
 21
178.8363266375
  0
LINE
  8
0
  6
CONTINUOUS
 62
     7
 10
257.9007620081001
 20
179.4311400142
 11
257.1763867601
 21
179.4400807109
  0
LINE
  8
0
  6
CONTINUOUS
 62
     7
 10
257.1763867601
 20
179.4400807109
 11
256.7722747191
 21
179.5733287569
  0
LINE
  8
0
  6
CONTINUOUS
 62
     7
 10
256.7722747191
 20
179.5733287569
 11
256.5838309094
 21
179.8590790119
  0
LINE
  8
0
  6
CONTINUOUS
 62
     7
 10
256.5838309094
 20
179.8590790119
 11
256.5711872741001
 21
180.3712915268
  0
LINE
  8
0
  6
CONTINUOUS
 62
     7
 10
255.7299943730001
 20
180.3712915268
 11
255.7173507377001
 21
179.8590790119
  0
LINE
  8
0
  6
CONTINUOUS
 62
     7
 10
255.7173507377
 20
179.8590790119
 11
255.5289106532
 21
179.5733287569
  0
LINE
  8
0
  6
CONTINUOUS
 62
     7
 10
255.5289106532
 20
179.5733287569
 11
255.1247948869
 21
179.4400807109
  0
LINE
  8
0
  6
CONTINUOUS
 62
     7
 10
255.1247948869
 20
179.4400807109001
 11
254.4004196390001
 21
179.4311400142001
  0
LINE
  8
0
  6
CONTINUOUS
 62
     7
 10
254.4004196390001
 20
178.8363266375001
 11
255.1247948869001
 21
178.8273859408001
  0
LINE
  8
0
  6
CONTINUOUS
 62
     7
 10
255.1247948869001
 20
178.8273859408
 11
255.5289106532
 21
178.6941378948
  0
LINE
  8
0
  6
CONTINUOUS
 62
     7
 10
255.5289106532
 20
178.6941378948
 11
255.7173507377
 21
178.4083857771
  0
LINE
  8
0
  6
CONTINUOUS
 62
     7
 10
255.7173507377
 20
178.4083857771
 11
255.729994373
 21
177.8961751249
  0
LINE
  8
0
  6
CONTINUOUS
 62
     7
 10
256.5838309094
 20
179.8590790119
 11
256.5274039372
 21
180.3749590751
  0
LINE
  8
0
  6
CONTINUOUS
 62
     7
 10
255.7173507377
 20
179.8590790119
 11
255.7737814351
 21
180.3749590751
  0
LINE
  8
0
  6
CONTINUOUS
 62
     7
 10
257.9007620081
 20
178.8363266375
 11
257.5373785659
 21
179.4356252637
  0
LINE
  8
0
  6
CONTINUOUS
 62
     7
 10
254.4004196390001
 20
178.8363266375001
 11
254.7638030811
 21
179.4356252637001
  0
LINE
  8
0
  6
CONTINUOUS
 62
     7
 10
256.7722747190999
 20
178.6941378948
 11
256.67501484
 21
179.7208074119
  0
LINE
  8
0
  6
CONTINUOUS
 62
     7
 10
257.1763867601
 20
178.8273859408
 11
257.1164766415
 21
179.4598340627
  0
LINE
  8
0
  6
CONTINUOUS
 62
     7
 10
255.1247948869001
 20
178.8273859408001
 11
255.1847087308001
 21
179.4598340627001
  0
LINE
  8
0
  6
CONTINUOUS
 62
     7
 10
255.5289106532
 20
178.6941378948
 11
255.626166807
 21
179.7208074119
  0
LINE
  8
0
  6
CONTINUOUS
 62
     7
 10
255.8266172274
 20
179.5618157473
 11
255.820016013
 21
179.4921435055
  0
LINE
  8
0
  6
CONTINUOUS
 62
     7
 10
255.7173507377
 20
178.4083857771
 11
255.820016013
 21
179.4921435055
  0
LINE
  8
0
  6
CONTINUOUS
 62
     7
 10
256.5838309094
 20
178.4083857771
 11
256.481165634
 21
179.4921435055
  0
LINE
  8
0
  6
CONTINUOUS
 62
     7
 10
256.4745681449
 20
179.5618157473
 11
256.4811656339999
 21
179.4921435055
  0
LINE
  8
0
  6
CONTINUOUS
 62
     7
 10
255.729994373
 20
177.8961751249
 11
255.8230558499
 21
179.369091579
  0
LINE
  8
0
  6
CONTINUOUS
 62
     7
 10
256.5711872741001
 20
177.8961751249
 11
256.4781295224001
 21
179.369091579
  0
LINE
  8
0
  6
CONTINUOUS
 62
     7
 10
176.5711890622
 20
177.8961751249
 11
176.5838326975
 21
178.4083857771
  0
LINE
  8
0
  6
CONTINUOUS
 62
     7
 10
176.5838326975
 20
178.4083857771
 11
176.772272782
 21
178.6941378948
  0
LINE
  8
0
  6
CONTINUOUS
 62
     7
 10
176.772272782
 20
178.6941378948
 11
177.1763885482
 21
178.8273859408
  0
LINE
  8
0
  6
CONTINUOUS
 62
     7
 10
177.1763885482
 20
178.8273859408
 11
177.9007637962
 21
178.8363266375
  0
LINE
  8
0
  6
CONTINUOUS
 62
     7
 10
177.9007637962
 20
179.4311400142
 11
177.1763885482
 21
179.4400807109
  0
LINE
  8
0
  6
CONTINUOUS
 62
     7
 10
177.1763885482
 20
179.4400807109
 11
176.772272782
 21
179.5733287569
  0
LINE
  8
0
  6
CONTINUOUS
 62
     7
 10
176.772272782
 20
179.5733287569
 11
176.5838326975
 21
179.8590790119
  0
LINE
  8
0
  6
CONTINUOUS
 62
     7
 10
176.5838326975
 20
179.8590790119
 11
176.5711890622
 21
180.3712915268
  0
LINE
  8
0
  6
CONTINUOUS
 62
     7
 10
175.7299961611001
 20
180.3712915268
 11
175.7173525258001
 21
179.8590790119001
  0
LINE
  8
0
  6
CONTINUOUS
 62
     7
 10
175.7173525258
 20
179.8590790119
 11
175.5289087161
 21
179.5733287569
  0
LINE
  8
0
  6
CONTINUOUS
 62
     7
 10
175.5289087161
 20
179.5733287569
 11
175.1247966751
 21
179.4400807109
  0
LINE
  8
0
  6
CONTINUOUS
 62
     7
 10
175.1247966751
 20
179.4400807109
 11
174.4004214271001
 21
179.4311400142
  0
LINE
  8
0
  6
CONTINUOUS
 62
     7
 10
174.4004214271
 20
178.8363266375
 11
175.1247966751
 21
178.8273859408
  0
LINE
  8
0
  6
CONTINUOUS
 62
     7
 10
175.1247966751
 20
178.8273859408
 11
175.5289087161
 21
178.6941378948
  0
LINE
  8
0
  6
CONTINUOUS
 62
     7
 10
175.5289087161
 20
178.6941378948
 11
175.7173525258
 21
178.4083857771
  0
LINE
  8
0
  6
CONTINUOUS
 62
     7
 10
175.7173525258
 20
178.4083857771
 11
175.7299961611
 21
177.8961751249
  0
LINE
  8
0
  6
CONTINUOUS
 62
     7
 10
176.5838326975
 20
179.8590790119
 11
176.5274020001
 21
180.3749590751
  0
LINE
  8
0
  6
CONTINUOUS
 62
     7
 10
175.7173525258
 20
179.8590790119
 11
175.773779498
 21
180.3749590751
  0
LINE
  8
0
  6
CONTINUOUS
 62
     7
 10
177.9007637962
 20
178.8363266375001
 11
177.537380354
 21
179.4356252637
  0
LINE
  8
0
  6
CONTINUOUS
 62
     7
 10
174.4004214271
 20
178.8363266375
 11
174.7638048693
 21
179.4356252637
  0
LINE
  8
0
  6
CONTINUOUS
 62
     7
 10
177.1763885482
 20
178.8273859408001
 11
177.1164747044
 21
179.4598340627001
  0
LINE
  8
0
  6
CONTINUOUS
 62
     7
 10
176.772272782
 20
178.6941378948
 11
176.6750166281
 21
179.7208074119
  0
LINE
  8
0
  6
CONTINUOUS
 62
     7
 10
175.1247966751
 20
178.8273859408
 11
175.1847067937
 21
179.4598340627
  0
LINE
  8
0
  6
CONTINUOUS
 62
     7
 10
175.5289087161
 20
178.6941378948
 11
175.6261685952
 21
179.7208074119
  0
LINE
  8
0
  6
CONTINUOUS
 62
     7
 10
175.8266152903
 20
179.5618157473
 11
175.8200178012
 21
179.4921435055
  0
LINE
  8
0
  6
CONTINUOUS
 62
     7
 10
175.7173525258
 20
178.4083857771
 11
175.8200178012
 21
179.4921435055
  0
LINE
  8
0
  6
CONTINUOUS
 62
     7
 10
176.5838326975
 20
178.4083857771
 11
176.4811674222
 21
179.4921435055
  0
LINE
  8
0
  6
CONTINUOUS
 62
     7
 10
176.4745662078
 20
179.5618157473
 11
176.4811674222
 21
179.4921435055
  0
LINE
  8
0
  6
CONTINUOUS
 62
     7
 10
176.5711890622
 20
177.8961751249
 11
176.4781275853
 21
179.369091579
  0
LINE
  8
0
  6
CONTINUOUS
 62
     7
 10
175.7299961611
 20
177.8961751249
 11
175.8230539128
 21
179.369091579
  0
LINE
  8
0
  6
CONTINUOUS
 62
     7
 10
251.9628169104
 20
187.1862463292
 11
258.1505911514
 21
187.1862463292
  0
LINE
  8
0
  6
CONTINUOUS
 62
     7
 10
250.1505935653
 20
187.1862463292
 11
251.9628169104
 21
187.1862463292
  0
LINE
  8
0
  6
CONTINUOUS
 62
     7
 10
175.9628156289
 20
187.1862463292
 11
182.1505898699
 21
187.1862463292
  0
LINE
  8
0
  6
CONTINUOUS
 62
     7
 10
174.1505922838
 20
187.1862463292
 11
175.9628156289
 21
187.1862463292
  0
LINE
  8
0
  6
CONTINUOUS
 62
     7
 10
76.1505911215
 20
105.3679562744
 11
76.1505911215
 21
129.367956483
  0
LINE
  8
0
  6
CONTINUOUS
 62
     7
 10
71.1505958899
 20
129.367956483
 11
71.1505958899
 21
105.3679562744
  0
LINE
  8
0
  6
CONTINUOUS
 62
     7
 10
361.1505875453
 20
129.367956483
 11
361.1505875453
 21
105.3679562744
  0
LINE
  8
0
  6
CONTINUOUS
 62
     7
 10
356.1505923136
 20
112.1917456027
 11
356.1505923136
 21
129.367956483
  0
LINE
  8
0
  6
CONTINUOUS
 62
     7
 10
356.1505923136
 20
105.3679562744
 11
356.1505923136
 21
112.1917456027
  0
LINE
  8
0
  6
CONTINUOUS
 62
     7
 10
231.1505913823
 20
124.1202666994
 11
231.1505913823
 21
109.1179564234
  0
LINE
  8
0
  6
CONTINUOUS
 62
     7
 10
201.1505920529
 20
109.1179564234
 11
201.1505920529
 21
124.1202666994
  0
LINE
  8
0
  6
CONTINUOUS
 62
     7
 10
201.1505920529
 20
124.1202666994
 11
201.1505920529
 21
136.992265993
  0
LINE
  8
0
  6
CONTINUOUS
 62
     7
 10
231.1505913823
 20
136.992265993
 11
231.1505913823
 21
124.1202666994
  0
LINE
  8
0
  6
CONTINUOUS
 62
     7
 10
201.1505920529
 20
136.992265993
 11
201.1505920529
 21
153.8069188234
  0
LINE
  8
0
  6
CONTINUOUS
 62
     7
 10
231.1505913823
 20
153.8069188234
 11
231.1505913823
 21
136.992265993
  0
LINE
  8
0
  6
CONTINUOUS
 62
     7
 10
201.1505920529
 20
153.8069188234
 11
201.1505920529
 21
167.9260903608
  0
LINE
  8
0
  6
CONTINUOUS
 62
     7
 10
231.1505913823
 20
167.9260903608
 11
231.1505913823
 21
153.8069188234
  0
LINE
  8
0
  6
CONTINUOUS
 62
     7
 10
263.1505901083
 20
176.4113712695
 11
169.1505933269
 21
176.4113712695
  0
LINE
  8
0
  6
CONTINUOUS
 62
     7
 10
168.1505913004
 20
170.0474112865
 11
168.1505913004
 21
172.8758379456
  0
LINE
  8
0
  6
CONTINUOUS
 62
     7
 10
264.1505921348
 20
172.8758379456
 11
264.1505921348
 21
170.0474112865
  0
LINE
  8
0
  6
CONTINUOUS
 62
     7
 10
168.1505913004
 20
182.4217788514
 11
168.1505913004
 21
185.9573140379
  0
LINE
  8
0
  6
CONTINUOUS
 62
     7
 10
169.1505933269
 20
186.6644207027
 11
263.1505901083
 21
186.6644207027
  0
LINE
  8
0
  6
CONTINUOUS
 62
     7
 10
168.1505913004
 20
176.4113712695
 11
169.1505933269
 21
176.4113712695
  0
LINE
  8
0
  6
CONTINUOUS
 62
     7
 10
168.1505913004
 20
176.4113712695
 11
168.1505913004
 21
182.4217788514
  0
LINE
  8
0
  6
CONTINUOUS
 62
     7
 10
264.1505921348
 20
176.4113712695
 11
263.1505901083
 21
176.4113712695
  0
LINE
  8
0
  6
CONTINUOUS
 62
     7
 10
264.1505921348
 20
182.4217788514
 11
264.1505921348
 21
176.4113712695
  0
LINE
  8
0
  6
CONTINUOUS
 62
     7
 10
264.1505921348
 20
185.9573140379
 11
264.1505921348
 21
182.4217788514
  0
LINE
  8
0
  6
CONTINUOUS
 62
     7
 10
168.1505913004
 20
172.8758379456
 11
168.1505913004
 21
176.4113712695
  0
LINE
  8
0
  6
CONTINUOUS
 62
     7
 10
264.1505921348
 20
176.4113712695
 11
264.1505921348
 21
172.8758379456
  0
LINE
  8
0
  6
CONTINUOUS
 62
     7
 10
168.1505913004
 20
167.5725370284
 11
168.1505913004
 21
173.5829446104
  0
LINE
  8
0
  6
CONTINUOUS
 62
     7
 10
264.1505921348
 20
173.5829446104
 11
264.1505921348
 21
167.5725370284
  0
LINE
  8
0
  6
CONTINUOUS
 62
     7
 10
61.1505905255
 20
194.3862452742
 11
61.1505905255
 21
199.3862442311
  0
LINE
  8
0
  6
CONTINUOUS
 62
     7
 10
370.1505908831
 20
193.3862469729
 11
366.1505976781
 21
193.3862469729
  0
LINE
  8
0
  6
CONTINUOUS
 62
     7
 10
366.1505976781
 20
200.3862462577
 11
370.1505908831
 21
200.3862462577
  0
LINE
  8
0
  6
CONTINUOUS
 62
     7
 10
366.1505976781
 20
193.3862469729
 11
66.1505857571
 21
193.3862469729
  0
LINE
  8
0
  6
CONTINUOUS
 62
     7
 10
66.1505857571
 20
200.3862462577
 11
366.1505976781
 21
200.3862462577
  0
LINE
  8
0
  6
CONTINUOUS
 62
     7
 10
62.1505925521
 20
200.3862462577
 11
66.1505857571
 21
200.3862462577
  0
LINE
  8
0
  6
CONTINUOUS
 62
     7
 10
371.1505929097
 20
199.3862442311
 11
371.1505929097
 21
194.3862452742
  0
LINE
  8
0
  6
CONTINUOUS
 62
     7
 10
66.1505857571
 20
193.3862469729
 11
62.1505925521
 21
193.3862469729
  0
LINE
  8
0
  6
CONTINUOUS
 62
     7
 10
264.1505921348
 20
193.3862469729
 11
264.1505921348
 21
188.3862461534
  0
LINE
  8
0
  6
CONTINUOUS
 62
     7
 10
263.1505901083
 20
187.3862459895
 11
169.1505933269
 21
187.3862459895
  0
LINE
  8
0
  6
CONTINUOUS
 62
     7
 10
168.1505913004
 20
188.3862461534
 11
168.1505913004
 21
193.3862469729
  0
LINE
  8
0
  6
CONTINUOUS
 62
     7
 10
264.1505921348
 20
188.3862461534
 11
264.1505921348
 21
185.9573140379
  0
LINE
  8
0
  6
CONTINUOUS
 62
     7
 10
168.1505913004
 20
185.9573140379
 11
168.1505913004
 21
188.3862461534
  0
LINE
  8
0
  6
CONTINUOUS
 62
     7
 10
264.1505921348
 20
167.5725370284
 11
264.1505921348
 21
124.3679575261
  0
LINE
  8
0
  6
CONTINUOUS
 62
     7
 10
168.1505913004
 20
124.3679575261
 11
168.1505913004
 21
167.5725370284
  0
LINE
  8
0
  6
CENTER
 62
     7
 10
54.0987019408
 20
117.3679558474
 11
378.4266199203
 21
117.3679558474
  0
LINE
  8
0
  6
CENTER
 62
     7
 10
216.1505917176
 20
208.3054245569
 11
216.1505917176
 21
91.8764442633
  0
LINE
  8
0
  6
CONTINUOUS
 62
     7
 10
180.1505932673
 20
380.9322515762
 11
178.1505929395
 21
386.4272065720001
  0
LINE
  8
0
  6
CONTINUOUS
 62
     7
 10
178.1505929395
 20
386.427206572
 11
176.1505926117
 21
380.9322515762
  0
LINE
  8
0
  6
CONTINUOUS
 62
     7
 10
176.1505926117
 20
380.9322515762
 11
176.1505926117
 21
372.1272066495
  0
LINE
  8
0
  6
CONTINUOUS
 62
     7
 10
180.1505932673
 20
372.1272066495
 11
180.1505932673
 21
380.9322515762
  0
LINE
  8
0
  6
CONTINUOUS
 62
     7
 10
256.1505908235
 20
380.9322515762
 11
254.1505904957
 21
386.4272065720001
  0
LINE
  8
0
  6
CONTINUOUS
 62
     7
 10
254.1505904957
 20
386.427206572
 11
252.1505901679
 21
380.9322515762
  0
LINE
  8
0
  6
CONTINUOUS
 62
     7
 10
252.1505901679
 20
380.9322515762
 11
252.1505901679
 21
372.1272066495
  0
LINE
  8
0
  6
CONTINUOUS
 62
     7
 10
256.1505908235
 20
372.1272066495
 11
256.1505908235
 21
380.9322515762
  0
LINE
  8
0
  6
CONTINUOUS
 62
     7
 10
178.1505929395
 20
380.9322515762
 11
180.1505932673
 21
380.9322515762
  0
LINE
  8
0
  6
CONTINUOUS
 62
     7
 10
176.1505926117
 20
380.9322515762
 11
178.1505929395
 21
380.9322515762
  0
LINE
  8
0
  6
CONTINUOUS
 62
     7
 10
254.1505904957
 20
380.9322515762
 11
256.1505908235
 21
380.9322515762
  0
LINE
  8
0
  6
CONTINUOUS
 62
     7
 10
252.1505901679
 20
380.9322515762
 11
254.1505904957
 21
380.9322515762
  0
LINE
  8
0
  6
CONTINUOUS
 62
     7
 10
66.1505857571
 20
357.1272069848
 11
366.1505976781
 21
357.1272069848
  0
LINE
  8
0
  6
CONTINUOUS
 62
     7
 10
61.1505905255
 20
267.1272099278
 11
61.1505905255
 21
352.1272070965
  0
LINE
  8
0
  6
CONTINUOUS
 62
     7
 10
371.1505929097
 20
352.1272070965
 11
371.1505929097
 21
267.1272099278
  0
LINE
  8
0
  6
CONTINUOUS
 62
     7
 10
366.1505976781
 20
262.1272072455
 11
66.1505857571
 21
262.1272072455
  0
LINE
  8
0
  6
CONTINUOUS
 62
     7
 10
264.1505921348
 20
372.1272066495
 11
168.1505913004
 21
372.1272066495
  0
LINE
  8
0
  6
CONTINUOUS
 62
     7
 10
264.1505921348
 20
372.1272066495
 11
264.1505921348
 21
357.1272069848
  0
LINE
  8
0
  6
CONTINUOUS
 62
     7
 10
168.1505913004
 20
372.1272066495
 11
168.1505913004
 21
357.1272069848
  0
LINE
  8
0
  6
CENTER
 62
     7
 10
254.1505917176
 20
388.4272066495
 11
254.1505917176
 21
364.4272066495
  0
LINE
  8
0
  6
CENTER
 62
     7
 10
178.1505917176
 20
388.4272066495
 11
178.1505917176
 21
364.4272066495
  0
LINE
  8
0
  6
CENTER
 62
     7
 10
379.4039363574
 20
309.6272066495
 11
52.9284258633
 21
309.6272066495
  0
LINE
  8
0
  6
CENTER
 62
     7
 10
216.1505917176
 20
394.393500813
 11
216.1505917176
 21
254.2721739506
  0
LINE
  8
0
  6
CONTINUOUS
 62
     7
 10
547.1082994104
 20
130.8862451103
 11
552.6032544062
 21
132.8862454381
  0
LINE
  8
0
  6
CONTINUOUS
 62
     7
 10
552.6032544062
 20
132.8862454381
 11
547.1082994104
 21
134.8862457659
  0
LINE
  8
0
  6
CONTINUOUS
 62
     7
 10
547.1082994104
 20
134.8862457659
 11
538.3032544837
 21
134.8862457659
  0
LINE
  8
0
  6
CONTINUOUS
 62
     7
 10
538.3032544837
 20
130.8862451103
 11
547.1082994104
 21
130.8862451103
  0
LINE
  8
0
  6
CONTINUOUS
 62
     7
 10
547.1082994104002
 20
155.8862457156
 11
552.6032544062
 21
157.8862458106
  0
LINE
  8
0
  6
CONTINUOUS
 62
     7
 10
552.6032544062
 20
157.8862458106
 11
547.1082994104
 21
159.8862459056
  0
LINE
  8
0
  6
CONTINUOUS
 62
     7
 10
547.1082994104
 20
159.8862459056
 11
538.3032544837
 21
159.8862459056
  0
LINE
  8
0
  6
CONTINUOUS
 62
     7
 10
538.3032544837
 20
155.8862457156
 11
547.1082994104
 21
155.8862457156
  0
LINE
  8
0
  6
CONTINUOUS
 62
     7
 10
522.0502059296001
 20
171.461624616
 11
521.9441394642001
 21
171.3555581507
  0
LINE
  8
0
  6
CONTINUOUS
 62
     7
 10
526.1867803842001
 20
167.112918162
 11
526.2928468496
 21
167.2189836961
  0
LINE
  8
0
  6
CONTINUOUS
 62
     7
 10
512.1507107601
 20
181.3611197856
 11
512.0446442947
 21
181.2550533202
  0
LINE
  8
0
  6
CONTINUOUS
 62
     7
 10
516.287286146
 20
177.0124133315
 11
516.3933526114
 21
177.1184779343
  0
LINE
  8
0
  6
CONTINUOUS
 62
     7
 10
506.3032529637
 20
187.3862459895
 11
506.3032529637
 21
187.1862463292
  0
LINE
  8
0
  6
CONTINUOUS
 62
     7
 10
514.303254275
 20
187.1862463292
 11
514.303254275
 21
187.3862459895
  0
LINE
  8
0
  6
CONTINUOUS
 62
     7
 10
484.303253083
 20
187.3862459895
 11
484.303253083
 21
187.1862463292
  0
LINE
  8
0
  6
CONTINUOUS
 62
     7
 10
492.3032543943
 20
187.1862463292
 11
492.3032543943
 21
187.3862459895
  0
LINE
  8
0
  6
CONTINUOUS
 62
     7
 10
547.1082994104
 20
134.8862457659
 11
547.1082994104
 21
130.8862451103
  0
LINE
  8
0
  6
CONTINUOUS
 62
     7
 10
547.1082994104
 20
159.8862459056
 11
547.1082994104
 21
155.8862457156
  0
LINE
  8
0
  6
CONTINUOUS
 62
     7
 10
506.3032529637
 20
187.1862463292
 11
514.303254275
 21
187.1862463292
  0
LINE
  8
0
  6
CONTINUOUS
 62
     7
 10
484.303253083
 20
187.1862463292
 11
492.3032543943
 21
187.1862463292
  0
LINE
  8
0
  6
CONTINUOUS
 62
     7
 10
531.5961477667001
 20
170.4009646189
 11
528.0606135115002
 21
166.8654303637
  0
LINE
  8
0
  6
CONTINUOUS
 62
     7
 10
516.0397983477001
 20
185.9573140379
 11
530.889041102
 21
171.1080712837
  0
LINE
  8
0
  6
CONTINUOUS
 62
     7
 10
526.646400182
 20
166.8654303637
 11
521.3430992648
 21
172.1687312808
  0
LINE
  8
0
  6
CONTINUOUS
 62
     7
 10
521.3430992648
 20
172.1687312808
 11
521.3430992648
 21
173.5829446104
  0
LINE
  8
0
  6
CONTINUOUS
 62
     7
 10
521.3430992648
 20
172.1687312808
 11
518.5146726057001
 21
169.3403046217
  0
LINE
  8
0
  6
CONTINUOUS
 62
     7
 10
514.2720307544001
 20
173.5829446104001
 11
517.1004592762001
 21
176.4113712695001
  0
LINE
  8
0
  6
CONTINUOUS
 62
     7
 10
518.5146726057
 20
176.4113712695
 11
517.1004592762
 21
176.4113712695
  0
LINE
  8
0
  6
CONTINUOUS
 62
     7
 10
514.2720307544001
 20
166.5118770313
 11
511.4436040953001
 21
169.3403046217
  0
LINE
  8
0
  6
CONTINUOUS
 62
     7
 10
517.1004592762
 20
176.4113712695
 11
511.7971583589999
 21
181.7146721866
  0
LINE
  8
0
  6
CONTINUOUS
 62
     7
 10
511.797158359
 20
183.1288873788
 11
515.3326916828999
 21
186.6644207027
  0
LINE
  8
0
  6
CONTINUOUS
 62
     7
 10
513.5649240896
 20
164.3905565713
 11
499.4457534835
 21
150.2713845682
  0
LINE
  8
0
  6
CONTINUOUS
 62
     7
 10
495.2031134948
 20
154.5140254882
 11
509.322284101
 21
168.6331970256
  0
LINE
  8
0
  6
CONTINUOUS
 62
     7
 10
482.7424533054
 20
130.3894459840001
 11
475.1187323913
 21
119.5294424530001
  0
LINE
  8
0
  6
CONTINUOUS
 62
     7
 10
464.4611685857
 20
130.1870025333
 11
475.3211721167
 21
137.8107271727001
  0
LINE
  8
0
  6
CONTINUOUS
 62
     7
 10
523.3032548189
 20
199.3862442311
 11
523.3032548189
 21
194.3862452742
  0
LINE
  8
0
  6
CONTINUOUS
 62
     7
 10
522.3032537237
 20
193.3862469729
 11
518.3032549307
 21
193.3862469729
  0
LINE
  8
0
  6
CONTINUOUS
 62
     7
 10
518.3032549307
 20
200.3862462577
 11
522.3032537237
 21
200.3862462577
  0
LINE
  8
0
  6
CONTINUOUS
 62
     7
 10
518.3032549307
 20
193.3862469729
 11
433.3032577619
 21
193.3862469729
  0
LINE
  8
0
  6
CONTINUOUS
 62
     7
 10
433.3032577619
 20
200.3862462577
 11
518.3032549307
 21
200.3862462577
  0
LINE
  8
0
  6
CONTINUOUS
 62
     7
 10
433.3032577619
 20
193.3862469729
 11
429.3032571063
 21
193.3862469729
  0
LINE
  8
0
  6
CONTINUOUS
 62
     7
 10
428.3032550797
 20
194.3862452742
 11
428.3032550797
 21
199.3862442311
  0
LINE
  8
0
  6
CONTINUOUS
 62
     7
 10
429.3032571063
 20
200.3862462577
 11
433.3032577619
 21
200.3862462577
  0
LINE
  8
0
  6
CONTINUOUS
 62
     7
 10
538.3032544837
 20
117.8862467047
 11
533.3032545954
 21
117.8862467047
  0
LINE
  8
0
  6
CONTINUOUS
 62
     7
 10
538.3032544837
 20
122.8862456616
 11
538.3032544837
 21
117.8862467047
  0
LINE
  8
0
  6
CONTINUOUS
 62
     7
 10
523.3032548189
 20
193.3862469729
 11
522.3032537237
 21
193.3862469729
  0
LINE
  8
0
  6
CONTINUOUS
 62
     7
 10
523.3032548189
 20
187.8862451401
 11
523.3032548189
 21
193.3862469729
  0
LINE
  8
0
  6
CONTINUOUS
 62
     7
 10
538.3032544837
 20
122.8862456616
 11
538.3032544837
 21
172.8862454754
  0
LINE
  8
0
  6
CONTINUOUS
 62
     7
 10
538.3032544837001
 20
172.8862454754
 11
523.3032548189001
 21
187.8862451401
  0
LINE
  8
0
  6
CONTINUOUS
 62
     7
 10
532.3032544315
 20
169.6938579541
 11
531.5961477667001
 21
170.4009646189
  0
LINE
  8
0
  6
CONTINUOUS
 62
     7
 10
515.3326916829
 20
186.6644207027
 11
514.6108663962
 21
187.3862459895
  0
LINE
  8
0
  6
CONTINUOUS
 62
     7
 10
532.3032544315
 20
122.8862456616
 11
532.3032544315
 21
169.6938579541
  0
LINE
  8
0
  6
CONTINUOUS
 62
     7
 10
532.3032544315
 20
118.886245006
 11
532.3032544315
 21
122.8862456616
  0
LINE
  8
0
  6
CONTINUOUS
 62
     7
 10
514.6108663962
 20
187.3862459895
 11
479.303254126
 21
187.3862459895
  0
LINE
  8
0
  6
CONTINUOUS
 62
     7
 10
478.3032558248
 20
188.3862461534
 11
478.3032558248
 21
193.3862469729
  0
LINE
  8
0
  6
CENTER
 62
     7
 10
524.1715265000001
 20
179.2397992012
 11
448.3035150865001
 21
103.3717877877
  0
LINE
  8
0
  6
CENTER
 62
     7
 10
532.9032544837
 20
157.8862458106
 11
558.2819464219
 21
157.8862458106
  0
LINE
  8
0
  6
CENTER
 62
     7
 10
532.9032544837
 20
132.8862458106
 11
558.4542579224
 21
132.8862458106
  0
LINE
  8
0
  6
CENTER
 62
     7
 10
183.4005917176
 20
157.8862458106
 11
172.9005917176
 21
157.8862458106
  0
LINE
  8
0
  6
CENTER
 62
     7
 10
178.1505917176
 20
163.1362458106
 11
178.1505917176
 21
152.6362458106
  0
LINE
  8
0
  6
CENTER
 62
     7
 10
183.4005917176
 20
132.8862458106
 11
172.9005917176
 21
132.8862458106
  0
LINE
  8
0
  6
CENTER
 62
     7
 10
178.1505917176
 20
138.1362458106
 11
178.1505917176
 21
127.6362458106
  0
LINE
  8
0
  6
CENTER
 62
     7
 10
259.4005917176
 20
132.8862458106
 11
248.9005917176
 21
132.8862458106
  0
LINE
  8
0
  6
CENTER
 62
     7
 10
254.1505917176
 20
138.1362458106
 11
254.1505917176
 21
127.6362458106
  0
LINE
  8
0
  6
CENTER
 62
     7
 10
259.4005917176
 20
157.8862458106
 11
248.9005917176
 21
157.8862458106
  0
LINE
  8
0
  6
CENTER
 62
     7
 10
254.1505917176
 20
163.1362458106
 11
254.1505917176
 21
152.6362458106
  0
LINE
  8
0
  6
CENTER
 62
     7
 10
482.2996831462
 20
117.3679558474
 11
442.2996831462
 21
117.3679558474
  0
LINE
  8
0
  6
CENTER
 62
     7
 10
462.2996831462
 20
137.3679558474
 11
462.2996831462
 21
97.3679558474
  0
LINE
  8
0
  6
CONTINUOUS
 62
     7
 10
514.4056697985
 20
42.7197415391
 11
512.154552146
 21
42.7197415391
  0
LINE
  8
0
  6
CONTINUOUS
 62
     7
 10
514.4056697985
 20
42.7197415391
 11
514.4056697985
 21
36.9311529971
  0
LINE
  8
0
  6
CONTINUOUS
 62
     7
 10
516.1744049174
 20
36.9311529971
 11
514.4056697985
 21
36.9311529971
  0
LINE
  8
0
  6
CONTINUOUS
 62
     7
 10
516.1744049174
 20
42.7197415391
 11
516.1744049174
 21
36.9311529971
  0
LINE
  8
0
  6
CONTINUOUS
 62
     7
 10
518.7471108326
 20
42.7197415391
 11
516.1744049174
 21
42.7197415391
  0
LINE
  8
0
  6
CONTINUOUS
 62
     7
 10
518.7471108326
 20
42.7197415391
 11
518.7471108326
 21
35.6448003188
  0
LINE
  8
0
  6
CONTINUOUS
 62
     7
 10
514.4056697985
 20
35.6448003188
 11
518.7471108326
 21
35.6448003188
  0
LINE
  8
0
  6
CONTINUOUS
 62
     7
 10
514.4056697985
 20
35.6448003188
 11
514.4056697985
 21
34.0368590985
  0
LINE
  8
0
  6
CONTINUOUS
 62
     7
 10
507.8131108326
 20
34.0368590985
 11
514.4056697985
 21
34.0368590985
  0
LINE
  8
0
  6
CONTINUOUS
 62
     7
 10
507.8131108326
 20
42.7197415391
 11
507.8131108326
 21
34.0368590985
  0
LINE
  8
0
  6
CONTINUOUS
 62
     7
 10
512.154552146
 20
42.7197415391
 11
512.154552146
 21
35.6448003188
  0
LINE
  8
0
  6
CONTINUOUS
 62
     7
 10
510.3858167478
 20
42.7197415391
 11
510.3858167478
 21
35.6448003188
  0
LINE
  8
0
  6
CONTINUOUS
 62
     7
 10
512.154552146
 20
35.6448003188
 11
510.3858167478
 21
35.6448003188
  0
LINE
  8
0
  6
CONTINUOUS
 62
     7
 10
510.3858167478
 20
42.7197415391
 11
507.8131108326
 21
42.7197415391
  0
LINE
  8
0
  6
CONTINUOUS
 62
     7
 10
411.885
 20
12.74475
 11
411.885
 21
43.98475
  0
POLYLINE
  8
0
  6
CONTINUOUS
 62
     7
 66
     1
 10
0
 20
0
 40
0.300000011920929
 41
0.300000011920929
  0
VERTEX
  8
0
  6
CONTINUOUS
 62
     7
 10
28.485
 20
12.74475
  0
VERTEX
  8
0
  6
CONTINUOUS
 62
     7
 10
578.735
 20
12.74475
  0
SEQEND
  8
0
  6
CONTINUOUS
 62
     7
  0
POLYLINE
  8
0
  6
CONTINUOUS
 62
     7
 66
     1
 10
0
 20
0
 40
0.300000011920929
 41
0.300000011920929
  0
VERTEX
  8
0
  6
CONTINUOUS
 62
     7
 10
28.485
 20
406.08475
  0
VERTEX
  8
0
  6
CONTINUOUS
 62
     7
 10
28.485
 20
12.74475
  0
SEQEND
  8
0
  6
CONTINUOUS
 62
     7
  0
POLYLINE
  8
0
  6
CONTINUOUS
 62
     7
 66
     1
 10
0
 20
0
 40
0.300000011920929
 41
0.300000011920929
  0
VERTEX
  8
0
  6
CONTINUOUS
 62
     7
 10
28.485
 20
43.98475
  0
VERTEX
  8
0
  6
CONTINUOUS
 62
     7
 10
194.625
 20
43.98475
  0
SEQEND
  8
0
  6
CONTINUOUS
 62
     7
  0
POLYLINE
  8
0
  6
CONTINUOUS
 62
     7
 66
     1
 10
0
 20
0
 40
0.300000011920929
 41
0.300000011920929
  0
VERTEX
  8
0
  6
CONTINUOUS
 62
     7
 10
578.735
 20
406.08475
  0
VERTEX
  8
0
  6
CONTINUOUS
 62
     7
 10
578.735
 20
12.74475
  0
SEQEND
  8
0
  6
CONTINUOUS
 62
     7
  0
POLYLINE
  8
0
  6
CONTINUOUS
 62
     7
 66
     1
 10
0
 20
0
 40
0.300000011920929
 41
0.300000011920929
  0
VERTEX
  8
0
  6
CONTINUOUS
 62
     7
 10
194.625
 20
43.98475
  0
VERTEX
  8
0
  6
CONTINUOUS
 62
     7
 10
578.735
 20
43.98475
  0
SEQEND
  8
0
  6
CONTINUOUS
 62
     7
  0
POLYLINE
  8
0
  6
CONTINUOUS
 62
     7
 66
     1
 10
0
 20
0
 40
0.300000011920929
 41
0.300000011920929
  0
VERTEX
  8
0
  6
CONTINUOUS
 62
     7
 10
28.485
 20
406.08475
  0
VERTEX
  8
0
  6
CONTINUOUS
 62
     7
 10
578.735
 20
406.08475
  0
SEQEND
  8
0
  6
CONTINUOUS
 62
     7
  0
LINE
  8
0
  6
CONTINUOUS
 62
     7
 10
36.295
 20
28.36475
 11
194.625
 21
28.36475
  0
LINE
  8
0
  6
CONTINUOUS
 62
     7
 10
68.955
 20
43.98475
 11
68.955
 21
12.74475
  0
LINE
  8
0
  6
CONTINUOUS
 62
     7
 10
36.295
 20
36.17475
 11
194.625
 21
36.17475
  0
LINE
  8
0
  6
CONTINUOUS
 62
     7
 10
47.655
 20
43.98475
 11
47.655
 21
12.74475
  0
LINE
  8
0
  6
CONTINUOUS
 62
     7
 10
36.295
 20
43.98475
 11
36.295
 21
12.74475
  0
LINE
  8
0
  6
CONTINUOUS
 62
     7
 10
36.295
 20
20.55475
 11
194.625
 21
20.55475
  0
LINE
  8
0
  6
CONTINUOUS
 62
     7
 10
286.925
 20
43.98475
 11
286.925
 21
12.74475
  0
LINE
  8
0
  6
CONTINUOUS
 62
     7
 10
279.825
 20
43.98475
 11
279.825
 21
12.74475
  0
LINE
  8
0
  6
CONTINUOUS
 62
     7
 10
201.725
 20
43.98475
 11
201.725
 21
12.74475
  0
LINE
  8
0
  6
CONTINUOUS
 62
     7
 10
194.625
 20
43.98475
 11
194.625
 21
28.36475
  0
LINE
  8
0
  6
CONTINUOUS
 62
     7
 10
83.155
 20
43.98475
 11
83.155
 21
12.74475
  0
LINE
  8
0
  6
CONTINUOUS
 62
     7
 10
326.685
 20
43.98475
 11
326.685
 21
28.36475
  0
LINE
  8
0
  6
CONTINUOUS
 62
     7
 10
333.785
 20
43.98475
 11
333.785
 21
28.36475
  0
LINE
  8
0
  6
CONTINUOUS
 62
     7
 10
355.085
 20
43.98475
 11
355.085
 21
28.36475
  0
LINE
  8
0
  6
CONTINUOUS
 62
     7
 10
362.185
 20
43.98475
 11
362.185
 21
28.36475
  0
LINE
  8
0
  6
CONTINUOUS
 62
     7
 10
418.985
 20
43.98475
 11
418.985
 21
28.36475
  0
LINE
  8
0
  6
CONTINUOUS
 62
     7
 10
440.285
 20
43.98475
 11
440.285
 21
12.74475
  0
LINE
  8
0
  6
CONTINUOUS
 62
     7
 10
461.585
 20
43.98475
 11
461.585
 21
12.74475
  0
LINE
  8
0
  6
CONTINUOUS
 62
     7
 10
482.885
 20
43.98475
 11
482.885
 21
12.74475
  0
LINE
  8
0
  6
CONTINUOUS
 62
     7
 10
504.185
 20
43.98475
 11
504.185
 21
12.74475
  0
LINE
  8
0
  6
CONTINUOUS
 62
     7
 10
504.185
 20
28.36475
 11
578.735
 21
28.36475
  0
LINE
  8
0
  6
CONTINUOUS
 62
     7
 10
511.285
 20
28.36475
 11
511.285
 21
12.74475
  0
LINE
  8
0
  6
CONTINUOUS
 62
     7
 10
440.285
 20
36.88475
 11
504.185
 21
36.88475
  0
LINE
  8
0
  6
CONTINUOUS
 62
     7
 10
194.625
 20
28.36475
 11
440.285
 21
28.36475
  0
LINE
  8
0
  6
CONTINUOUS
 62
     7
 10
194.625
 20
28.36475
 11
194.625
 21
12.74475
  0
LINE
  8
0
  6
CONTINUOUS
 62
     7
 10
41.38732658920002
 20
27.11155764820001
 11
38.33732658920002
 21
21.8288026851
  0
LINE
  8
0
  6
CONTINUOUS
 62
     7
 10
38.3373265892
 20
21.8288026851
 11
44.4373265892
 21
21.8288026851
  0
LINE
  8
0
  6
CONTINUOUS
 62
     7
 10
44.43732658920001
 20
21.82880268510001
 11
41.38732658920002
 21
27.11155764820001
  0
LINE
  8
0
  6
CONTINUOUS
 62
     7
 10
41.3440309427
 20
34.5208790554
 11
38.2940309427
 21
29.23812409230001
  0
LINE
  8
0
  6
CONTINUOUS
 62
     7
 10
38.2940309427
 20
29.2381240923
 11
44.3940309427
 21
29.2381240923
  0
LINE
  8
0
  6
CONTINUOUS
 62
     7
 10
44.39403094270001
 20
29.23812409230002
 11
41.34403094270002
 21
34.52087905540002
  0
LINE
  8
0
  6
CONTINUOUS
 62
     7
 10
41.18344903370001
 20
42.881404091
 11
38.13344903370002
 21
37.5986491279
  0
LINE
  8
0
  6
CONTINUOUS
 62
     7
 10
38.1334490337
 20
37.5986491279
 11
44.2334490337
 21
37.5986491279
  0
LINE
  8
0
  6
CONTINUOUS
 62
     7
 10
44.23344903370003
 20
37.59864912790002
 11
41.18344903370003
 21
42.88140409100002
  0
LINE
  8
0
  6
CONTINUOUS
 62
     7
 10
173.325
 20
43.98475
 11
173.325
 21
12.74475
  0
ARC
  8
0
  6
CONTINUOUS
 62
     7
 10
75.15059171759999
 20
105.3679558474
 40
1
 50
270.0000000000005
 51
360
  0
ARC
  8
0
  6
CONTINUOUS
 62
     7
 10
75.15059171759999
 20
129.3679558474
 40
1
 50
0
 51
90.00000000000019
  0
ARC
  8
0
  6
CONTINUOUS
 62
     7
 10
72.15059171759999
 20
129.3679558474
 40
1
 50
90.00000000000019
 51
180.0000000000004
  0
ARC
  8
0
  6
CONTINUOUS
 62
     7
 10
72.15059171759999
 20
105.3679558474
 40
1
 50
180.0000000000004
 51
270.0000000000005
  0
ARC
  8
0
  6
CONTINUOUS
 62
     7
 10
360.1505917176
 20
105.3679558474
 40
1
 50
270.0000000000005
 51
360
  0
ARC
  8
0
  6
CONTINUOUS
 62
     7
 10
360.1505917176
 20
129.3679558474
 40
1
 50
0
 51
90.00000000000019
  0
ARC
  8
0
  6
CONTINUOUS
 62
     7
 10
357.1505917176
 20
129.3679558474
 40
1
 50
90.00000000000019
 51
180.0000000000004
  0
ARC
  8
0
  6
CONTINUOUS
 62
     7
 10
357.1505917176
 20
105.3679558474
 40
1
 50
180.0000000000004
 51
270.0000000000005
  0
ARC
  8
0
  6
CONTINUOUS
 62
     7
 10
230.1505917176
 20
109.1179558474
 40
1
 50
270.0000000000005
 51
360
  0
ARC
  8
0
  6
CONTINUOUS
 62
     7
 10
202.1505917176
 20
109.1179558474
 40
1
 50
180.0000000000004
 51
270.0000000000005
  0
ARC
  8
0
  6
CONTINUOUS
 62
     7
 10
169.1505917176
 20
167.5725373117
 40
1
 50
180.0000000000004
 51
270.0000000000005
  0
ARC
  8
0
  6
CONTINUOUS
 62
     7
 10
263.1505917176
 20
167.5725373117
 40
1
 50
270.0000000000005
 51
360
  0
CIRCLE
  8
0
  6
CONTINUOUS
 62
     7
 10
254.1505917176
 20
132.8862458106
 40
4
  0
ARC
  8
0
  6
CONTINUOUS
 62
     7
 10
254.1505917176
 20
132.8862458106
 40
1.250000000000004
 50
119.9999999999999
 51
180.0000000000004
  0
ARC
  8
0
  6
CONTINUOUS
 62
     7
 10
254.1505917176
 20
132.8862458106
 40
1.250000000000057
 50
60.00000000000029
 51
119.9999999999997
  0
ARC
  8
0
  6
CONTINUOUS
 62
     7
 10
254.1505917176
 20
132.8862458106
 40
1.250000000000028
 50
299.9999999999999
 51
360
  0
ARC
  8
0
  6
CONTINUOUS
 62
     7
 10
254.1505917176
 20
132.8862458106
 40
1.250000000000008
 50
240.0000000000008
 51
300.0000000000006
  0
ARC
  8
0
  6
CONTINUOUS
 62
     7
 10
254.1505917176
 20
132.8862458106
 40
1.24999999999998
 50
180.0000000000004
 51
240.0000000000002
  0
ARC
  8
0
  6
CONTINUOUS
 62
     7
 10
254.1505917176
 20
132.8862458106
 40
1.250000000000057
 50
0
 51
60.00000000000029
  0
CIRCLE
  8
0
  6
CONTINUOUS
 62
     7
 10
178.1505917176
 20
157.8862458106
 40
4.000000000000028
  0
ARC
  8
0
  6
CONTINUOUS
 62
     7
 10
178.1505917176
 20
157.8862458106
 40
1.250000000000004
 50
60.00000000000011
 51
119.9999999999999
  0
ARC
  8
0
  6
CONTINUOUS
 62
     7
 10
178.1505917176
 20
157.8862458106
 40
1.250000000000004
 50
240.0000000000008
 51
300.0000000000006
  0
ARC
  8
0
  6
CONTINUOUS
 62
     7
 10
178.1505917176
 20
157.8862458106
 40
1.250000000000004
 50
180.0000000000004
 51
240.0000000000008
  0
ARC
  8
0
  6
CONTINUOUS
 62
     7
 10
178.1505917176
 20
157.8862458106
 40
1.250000000000004
 50
119.9999999999999
 51
180.0000000000004
  0
ARC
  8
0
  6
CONTINUOUS
 62
     7
 10
178.1505917176
 20
157.8862458106
 40
1.250000000000004
 50
0
 51
60.00000000000011
  0
ARC
  8
0
  6
CONTINUOUS
 62
     7
 10
178.1505917176
 20
157.8862458106
 40
1.250000000000004
 50
300.0000000000006
 51
360
  0
CIRCLE
  8
0
  6
CONTINUOUS
 62
     7
 10
254.1505917176
 20
157.8862458106
 40
4.000000000000028
  0
ARC
  8
0
  6
CONTINUOUS
 62
     7
 10
254.1505917176
 20
157.8862458106
 40
1.250000000000004
 50
119.9999999999999
 51
180.0000000000004
  0
ARC
  8
0
  6
CONTINUOUS
 62
     7
 10
254.1505917176
 20
157.8862458106
 40
1.250000000000032
 50
0
 51
59.99999999999964
  0
ARC
  8
0
  6
CONTINUOUS
 62
     7
 10
254.1505917176
 20
157.8862458106
 40
1.250000000000004
 50
180.0000000000004
 51
240.0000000000008
  0
ARC
  8
0
  6
CONTINUOUS
 62
     7
 10
254.1505917176
 20
157.8862458106
 40
1.250000000000032
 50
59.99999999999964
 51
120.0000000000004
  0
ARC
  8
0
  6
CONTINUOUS
 62
     7
 10
254.1505917176
 20
157.8862458106
 40
1.250000000000032
 50
240.0000000000003
 51
300.0000000000011
  0
ARC
  8
0
  6
CONTINUOUS
 62
     7
 10
254.1505917176
 20
157.8862458106
 40
1.250000000000032
 50
300.0000000000011
 51
360
  0
CIRCLE
  8
0
  6
CONTINUOUS
 62
     7
 10
178.1505917176
 20
132.8862458106
 40
4
  0
ARC
  8
0
  6
CONTINUOUS
 62
     7
 10
178.1505917176
 20
132.8862458106
 40
1.250000000000004
 50
119.9999999999999
 51
180.0000000000004
  0
ARC
  8
0
  6
CONTINUOUS
 62
     7
 10
178.1505917176
 20
132.8862458106
 40
1.250000000000004
 50
60.00000000000011
 51
119.9999999999999
  0
ARC
  8
0
  6
CONTINUOUS
 62
     7
 10
178.1505917176
 20
132.8862458106
 40
1.250000000000004
 50
240.0000000000008
 51
300.0000000000006
  0
ARC
  8
0
  6
CONTINUOUS
 62
     7
 10
178.1505917176
 20
132.8862458106
 40
1.250000000000004
 50
180.0000000000004
 51
240.0000000000008
  0
ARC
  8
0
  6
CONTINUOUS
 62
     7
 10
178.1505917176
 20
132.8862458106
 40
1.250000000000004
 50
0
 51
60.00000000000011
  0
ARC
  8
0
  6
CONTINUOUS
 62
     7
 10
178.1505917176
 20
132.8862458106
 40
1.250000000000004
 50
300.0000000000006
 51
360
  0
ARC
  8
0
  6
CONTINUOUS
 62
     7
 10
255.764307804
 20
178.7961372949
 40
2.663848359111721
 50
81.66217718950014
 51
168.8666179679999
  0
ARC
  8
0
  6
CONTINUOUS
 62
     7
 10
175.7643154871
 20
178.7961243682
 40
2.663860294338976
 50
81.66234295779967
 51
168.8663851209001
  0
ARC
  8
0
  6
CONTINUOUS
 62
     7
 10
169.0255940735
 20
185.7805336335
 40
0.8926820063472183
 50
81.95061276290087
 51
168.5780482371003
  0
ARC
  8
0
  6
CONTINUOUS
 62
     7
 10
257.2651684068
 20
179.3666553055
 40
1.989471229369723
 50
305.5984456418013
 51
356.3441442604009
  0
ARC
  8
0
  6
CONTINUOUS
 62
     7
 10
177.2652135315
 20
179.366634149
 40
1.989426632055364
 50
305.597698233601
 51
356.3446727487008
  0
ARC
  8
0
  6
CONTINUOUS
 62
     7
 10
263.2755893617
 20
185.7805336335
 40
0.8926820063472183
 50
11.4219517628997
 51
98.04938723710119
  0
ARC
  8
0
  6
CONTINUOUS
 62
     7
 10
370.1505917176
 20
194.3862458106
 40
1
 50
270.0000000000005
 51
360
  0
ARC
  8
0
  6
CONTINUOUS
 62
     7
 10
370.1505917176
 20
199.3862458106
 40
1
 50
0
 51
90.00000000000019
  0
ARC
  8
0
  6
CONTINUOUS
 62
     7
 10
62.1505917176
 20
199.3862458106
 40
1
 50
90.00000000000019
 51
180.0000000000004
  0
ARC
  8
0
  6
CONTINUOUS
 62
     7
 10
62.1505917176
 20
194.3862458106
 40
1
 50
180.0000000000004
 51
270.0000000000005
  0
ARC
  8
0
  6
CONTINUOUS
 62
     7
 10
169.1505917176
 20
188.3862458106
 40
1
 50
180.0000000000004
 51
270.0000000000005
  0
ARC
  8
0
  6
CONTINUOUS
 62
     7
 10
263.1505917176
 20
188.3862458106
 40
1
 50
270.0000000000005
 51
360
  0
CIRCLE
  8
0
  6
CONTINUOUS
 62
     7
 10
254.1505917176
 20
132.8862458106
 40
4.100000000000023
  0
CIRCLE
  8
0
  6
CONTINUOUS
 62
     7
 10
178.1505917176
 20
132.8862458106
 40
4.099999999999994
  0
CIRCLE
  8
0
  6
CONTINUOUS
 62
     7
 10
178.1505917176
 20
157.8862458106
 40
4.099999999999994
  0
CIRCLE
  8
0
  6
CONTINUOUS
 62
     7
 10
254.1505917176
 20
157.8862458106
 40
4.100000000000023
  0
ARC
  8
0
  6
CONTINUOUS
 62
     7
 10
66.15059171759999
 20
352.1272066495
 40
5.000000000000007
 50
90.00000000000019
 51
180.0000000000004
  0
ARC
  8
0
  6
CONTINUOUS
 62
     7
 10
366.1505917176
 20
352.1272066495
 40
5
 50
0
 51
90.00000000000019
  0
ARC
  8
0
  6
CONTINUOUS
 62
     7
 10
66.15059171759999
 20
267.1272066495
 40
5.000000000000007
 50
180.0000000000004
 51
270.0000000000005
  0
ARC
  8
0
  6
CONTINUOUS
 62
     7
 10
366.1505917176
 20
267.1272066495
 40
5
 50
270.0000000000005
 51
360
  0
CIRCLE
  8
0
  6
CONTINUOUS
 62
     7
 10
462.2996831462
 20
117.3679558474
 40
13
  0
ARC
  8
0
  6
CONTINUOUS
 62
     7
 10
527.3535070154001
 20
167.5725373117
 40
1.000000000000109
 50
224.9999999999984
 51
315.000000000003
  0
ARC
  8
0
  6
CONTINUOUS
 62
     7
 10
514.9791383446
 20
167.2189839211
 40
1.000000000000008
 50
225.0000000000007
 51
315.0000000000007
  0
ARC
  8
0
  6
CONTINUOUS
 62
     7
 10
512.1507112198
 20
170.0474110458
 40
1.000000000000008
 50
135
 51
225.0000000000007
  0
ARC
  8
0
  6
CONTINUOUS
 62
     7
 10
512.5042646104
 20
182.4217797166
 40
1.000000000000068
 50
135.0000000000011
 51
224.9999999999996
  0
ARC
  8
0
  6
CONTINUOUS
 62
     7
 10
605.5117699589
 20
44.205367617
 40
149.9999999999999
 50
135
 51
144.9311389683
  0
ARC
  8
0
  6
CONTINUOUS
 62
     7
 10
389.1370949158
 20
260.5800426601
 40
150.0000000000001
 50
305.0688610317007
 51
315.0000000000007
  0
ARC
  8
0
  6
CONTINUOUS
 62
     7
 10
522.3032544837
 20
194.3862458106
 40
1
 50
270.0000000000005
 51
360
  0
ARC
  8
0
  6
CONTINUOUS
 62
     7
 10
522.3032544837
 20
199.3862458106
 40
1
 50
0
 51
90.00000000000019
  0
ARC
  8
0
  6
CONTINUOUS
 62
     7
 10
429.3032544837
 20
194.3862458106
 40
1
 50
180.0000000000004
 51
270.0000000000005
  0
ARC
  8
0
  6
CONTINUOUS
 62
     7
 10
429.3032544837
 20
199.3862458106
 40
1
 50
90.00000000000019
 51
180.0000000000004
  0
ARC
  8
0
  6
CONTINUOUS
 62
     7
 10
533.3032544837
 20
118.8862458106
 40
1
 50
180.0000000000004
 51
270.0000000000005
  0
ARC
  8
0
  6
CONTINUOUS
 62
     7
 10
479.3032544837
 20
188.3862458106
 40
1
 50
180.0000000000004
 51
270.0000000000005
  0
POLYLINE
  8
0
  6
CONTINUOUS
 62
     7
 66
     1
 10
0
 20
0
  0
VERTEX
  8
0
  6
CONTINUOUS
 62
     7
 10
231.1505913823
 20
165.0976637017
  0
VERTEX
  8
0
  6
CONTINUOUS
 62
     7
 10
231.165245743
 20
165.219122601
  0
VERTEX
  8
0
  6
CONTINUOUS
 62
     7
 10
231.3259687363
 20
165.5244650889
  0
VERTEX
  8
0
  6
CONTINUOUS
 62
     7
 10
231.6796794622
 20
165.8301982668
  0
VERTEX
  8
0
  6
CONTINUOUS
 62
     7
 10
232.2633886799
 20
166.0918142286
  0
VERTEX
  8
0
  6
CONTINUOUS
 62
     7
 10
232.9635178759
 20
166.2135772046
  0
VERTEX
  8
0
  6
CONTINUOUS
 62
     7
 10
233.1505926415
 20
166.2189835321
  0
SEQEND
  8
0
  6
CONTINUOUS
 62
     7
  0
POLYLINE
  8
0
  6
CONTINUOUS
 62
     7
 66
     1
 10
0
 20
0
  0
VERTEX
  8
0
  6
CONTINUOUS
 62
     7
 10
199.1505907937
 20
166.2189835321
  0
VERTEX
  8
0
  6
CONTINUOUS
 62
     7
 10
199.5331091895
 20
166.1962378409
  0
VERTEX
  8
0
  6
CONTINUOUS
 62
     7
 10
200.2047678544
 20
166.0355185729
  0
VERTEX
  8
0
  6
CONTINUOUS
 62
     7
 10
200.7273543715
 20
165.7573995751
  0
VERTEX
  8
0
  6
CONTINUOUS
 62
     7
 10
201.0324733421
 20
165.4470018681
  0
VERTEX
  8
0
  6
CONTINUOUS
 62
     7
 10
201.1456383481
 20
165.1681308274
  0
VERTEX
  8
0
  6
CONTINUOUS
 62
     7
 10
201.1505920529
 20
165.0976637017
  0
SEQEND
  8
0
  6
CONTINUOUS
 62
     7
  0
POLYLINE
  8
0
  6
CONTINUOUS
 62
     7
 66
     1
 10
0
 20
0
  0
VERTEX
  8
0
  6
CONTINUOUS
 62
     7
 10
259.1505931779
 20
166.2189835321
  0
VERTEX
  8
0
  6
CONTINUOUS
 62
     7
 10
259.8360242411
 20
166.2544464331
  0
VERTEX
  8
0
  6
CONTINUOUS
 62
     7
 10
261.0590295955
 20
166.5037819755
  0
VERTEX
  8
0
  6
CONTINUOUS
 62
     7
 10
262.1740276083
 20
166.9868142914
  0
VERTEX
  8
0
  6
CONTINUOUS
 62
     7
 10
263.1055513486
 20
167.6892904204
  0
VERTEX
  8
0
  6
CONTINUOUS
 62
     7
 10
263.7732686564
 20
168.574329057
  0
VERTEX
  8
0
  6
CONTINUOUS
 62
     7
 10
264.0924813315
 20
169.4588424277
  0
VERTEX
  8
0
  6
CONTINUOUS
 62
     7
 10
264.1505921348
 20
170.0474112865
  0
SEQEND
  8
0
  6
CONTINUOUS
 62
     7
  0
POLYLINE
  8
0
  6
CONTINUOUS
 62
     7
 66
     1
 10
0
 20
0
  0
VERTEX
  8
0
  6
CONTINUOUS
 62
     7
 10
168.1505913004
 20
170.0474112865
  0
VERTEX
  8
0
  6
CONTINUOUS
 62
     7
 10
168.2141112252
 20
169.4322513055
  0
VERTEX
  8
0
  6
CONTINUOUS
 62
     7
 10
168.5565510853
 20
168.5219393682
  0
VERTEX
  8
0
  6
CONTINUOUS
 62
     7
 10
169.1644774839
 20
167.7203928691
  0
VERTEX
  8
0
  6
CONTINUOUS
 62
     7
 10
170.0149649843
 20
167.0533256244
  0
VERTEX
  8
0
  6
CONTINUOUS
 62
     7
 10
171.0721800193
 20
166.5594983485
  0
VERTEX
  8
0
  6
CONTINUOUS
 62
     7
 10
172.2707325681
 20
166.2776084256
  0
VERTEX
  8
0
  6
CONTINUOUS
 62
     7
 10
173.1505902573
 20
166.2189835321
  0
SEQEND
  8
0
  6
CONTINUOUS
 62
     7
  0
POLYLINE
  8
0
  6
CONTINUOUS
 62
     7
 66
     1
 10
0
 20
0
  0
VERTEX
  8
0
  6
CONTINUOUS
 62
     7
 10
255.729994373
 20
177.8961751249
  0
VERTEX
  8
0
  6
CONTINUOUS
 62
     7
 10
256.1505908235
 20
177.8609413293
  0
VERTEX
  8
0
  6
CONTINUOUS
 62
     7
 10
256.5711872741
 20
177.8961751249
  0
SEQEND
  8
0
  6
CONTINUOUS
 62
     7
  0
POLYLINE
  8
0
  6
CONTINUOUS
 62
     7
 66
     1
 10
0
 20
0
  0
VERTEX
  8
0
  6
CONTINUOUS
 62
     7
 10
257.9007620081
 20
178.8363266375
  0
VERTEX
  8
0
  6
CONTINUOUS
 62
     7
 10
257.9505914911
 20
179.1337333259
  0
VERTEX
  8
0
  6
CONTINUOUS
 62
     7
 10
257.9007620081
 20
179.4311400142
  0
SEQEND
  8
0
  6
CONTINUOUS
 62
     7
  0
POLYLINE
  8
0
  6
CONTINUOUS
 62
     7
 66
     1
 10
0
 20
0
  0
VERTEX
  8
0
  6
CONTINUOUS
 62
     7
 10
256.5711872741
 20
180.3712915268
  0
VERTEX
  8
0
  6
CONTINUOUS
 62
     7
 10
256.1505908235
 20
180.4065253225
  0
VERTEX
  8
0
  6
CONTINUOUS
 62
     7
 10
255.729994373
 20
180.3712915268
  0
SEQEND
  8
0
  6
CONTINUOUS
 62
     7
  0
POLYLINE
  8
0
  6
CONTINUOUS
 62
     7
 66
     1
 10
0
 20
0
  0
VERTEX
  8
0
  6
CONTINUOUS
 62
     7
 10
254.400419639
 20
179.4311400142
  0
VERTEX
  8
0
  6
CONTINUOUS
 62
     7
 10
254.350590156
 20
179.1337333259
  0
VERTEX
  8
0
  6
CONTINUOUS
 62
     7
 10
254.400419639
 20
178.8363266375
  0
SEQEND
  8
0
  6
CONTINUOUS
 62
     7
  0
POLYLINE
  8
0
  6
CONTINUOUS
 62
     7
 66
     1
 10
0
 20
0
  0
VERTEX
  8
0
  6
CONTINUOUS
 62
     7
 10
256.1505908235
 20
181.2550533202
  0
VERTEX
  8
0
  6
CONTINUOUS
 62
     7
 10
257.1766512557
 20
181.127123126
  0
VERTEX
  8
0
  6
CONTINUOUS
 62
     7
 10
258.0789538189
 20
180.7587589708
  0
VERTEX
  8
0
  6
CONTINUOUS
 62
     7
 10
258.7486678823
 20
180.1943942543
  0
VERTEX
  8
0
  6
CONTINUOUS
 62
     7
 10
259.1050142511
 20
179.5020974811
  0
VERTEX
  8
0
  6
CONTINUOUS
 62
     7
 10
259.1050142511
 20
178.7653691706
  0
VERTEX
  8
0
  6
CONTINUOUS
 62
     7
 10
258.7486678823
 20
178.0730723974
  0
VERTEX
  8
0
  6
CONTINUOUS
 62
     7
 10
258.0789538189
 20
177.508707681
  0
VERTEX
  8
0
  6
CONTINUOUS
 62
     7
 10
257.1766512557
 20
177.1403435257
  0
VERTEX
  8
0
  6
CONTINUOUS
 62
     7
 10
256.1505908235
 20
177.0124133315
  0
VERTEX
  8
0
  6
CONTINUOUS
 62
     7
 10
255.1245303913
 20
177.1403435257
  0
VERTEX
  8
0
  6
CONTINUOUS
 62
     7
 10
254.2222278281
 20
177.508707681
  0
VERTEX
  8
0
  6
CONTINUOUS
 62
     7
 10
253.5525137647
 20
178.0730723974
  0
VERTEX
  8
0
  6
CONTINUOUS
 62
     7
 10
253.1961673959
 20
178.7653691706
  0
VERTEX
  8
0
  6
CONTINUOUS
 62
     7
 10
253.1961673959
 20
179.5020974811
  0
VERTEX
  8
0
  6
CONTINUOUS
 62
     7
 10
253.5525137647
 20
180.1943942543
  0
VERTEX
  8
0
  6
CONTINUOUS
 62
     7
 10
254.2222278281
 20
180.7587589708
  0
VERTEX
  8
0
  6
CONTINUOUS
 62
     7
 10
255.1245303913
 20
181.127123126
  0
VERTEX
  8
0
  6
CONTINUOUS
 62
     7
 10
256.1505908235
 20
181.2550533202
  0
SEQEND
  8
0
  6
CONTINUOUS
 62
     7
  0
POLYLINE
  8
0
  6
CONTINUOUS
 62
     7
 66
     1
 10
0
 20
0
  0
VERTEX
  8
0
  6
CONTINUOUS
 62
     7
 10
256.1505908235
 20
181.4318295207
  0
VERTEX
  8
0
  6
CONTINUOUS
 62
     7
 10
257.1766512557
 20
181.3038993266
  0
VERTEX
  8
0
  6
CONTINUOUS
 62
     7
 10
258.0789538189
 20
180.9355351713
  0
VERTEX
  8
0
  6
CONTINUOUS
 62
     7
 10
258.7486678823
 20
180.3711704549
  0
VERTEX
  8
0
  6
CONTINUOUS
 62
     7
 10
259.1050142511
 20
179.6788736817
  0
VERTEX
  8
0
  6
CONTINUOUS
 62
     7
 10
259.1505931779
 20
179.3105095264
  0
SEQEND
  8
0
  6
CONTINUOUS
 62
     7
  0
POLYLINE
  8
0
  6
CONTINUOUS
 62
     7
 66
     1
 10
0
 20
0
  0
VERTEX
  8
0
  6
CONTINUOUS
 62
     7
 10
256.4745681449111
 20
179.5618157472769
 42
0
  0
VERTEX
  8
0
  6
CONTINUOUS
 62
     7
 10
256.5369891091521
 20
179.698635415391
 42
0
  0
VERTEX
  8
0
  6
CONTINUOUS
 62
     7
 10
256.5994100733931
 20
179.8354550835052
 42
0
  0
SEQEND
  8
0
  6
CONTINUOUS
 62
     7
  0
POLYLINE
  8
0
  6
CONTINUOUS
 62
     7
 66
     1
 10
0
 20
0
  0
VERTEX
  8
0
  6
CONTINUOUS
 62
     7
 10
256.4781295224364
 20
179.3690915789762
 42
0
  0
VERTEX
  8
0
  6
CONTINUOUS
 62
     7
 10
256.4763488336737
 20
179.4654536631265
 42
0
  0
VERTEX
  8
0
  6
CONTINUOUS
 62
     7
 10
256.4745681449111
 20
179.5618157472769
 42
0
  0
SEQEND
  8
0
  6
CONTINUOUS
 62
     7
  0
POLYLINE
  8
0
  6
CONTINUOUS
 62
     7
 66
     1
 10
0
 20
0
  0
VERTEX
  8
0
  6
CONTINUOUS
 62
     7
 10
255.8230558499
 20
179.369091579
  0
VERTEX
  8
0
  6
CONTINUOUS
 62
     7
 10
256.1505908235
 20
179.3352584925
  0
VERTEX
  8
0
  6
CONTINUOUS
 62
     7
 10
256.4781295224
 20
179.369091579
  0
SEQEND
  8
0
  6
CONTINUOUS
 62
     7
  0
POLYLINE
  8
0
  6
CONTINUOUS
 62
     7
 66
     1
 10
0
 20
0
  0
VERTEX
  8
0
  6
CONTINUOUS
 62
     7
 10
255.8230558499034
 20
179.3690915789762
 42
0
  0
VERTEX
  8
0
  6
CONTINUOUS
 62
     7
 10
255.824836538666
 20
179.4654536631265
 42
0
  0
VERTEX
  8
0
  6
CONTINUOUS
 62
     7
 10
255.8266172274287
 20
179.5618157472769
 42
0
  0
SEQEND
  8
0
  6
CONTINUOUS
 62
     7
  0
POLYLINE
  8
0
  6
CONTINUOUS
 62
     7
 66
     1
 10
0
 20
0
  0
VERTEX
  8
0
  6
CONTINUOUS
 62
     7
 10
255.8266172274287
 20
179.5618157472769
 42
0
  0
VERTEX
  8
0
  6
CONTINUOUS
 62
     7
 10
255.7641944005426
 20
179.698635415391
 42
0
  0
VERTEX
  8
0
  6
CONTINUOUS
 62
     7
 10
255.7017715736564
 20
179.8354550835052
 42
0
  0
SEQEND
  8
0
  6
CONTINUOUS
 62
     7
  0
POLYLINE
  8
0
  6
CONTINUOUS
 62
     7
 66
     1
 10
0
 20
0
  0
VERTEX
  8
0
  6
CONTINUOUS
 62
     7
 10
175.7299961611
 20
177.8961751249
  0
VERTEX
  8
0
  6
CONTINUOUS
 62
     7
 10
176.1505926117
 20
177.8609413293
  0
VERTEX
  8
0
  6
CONTINUOUS
 62
     7
 10
176.5711890622
 20
177.8961751249
  0
SEQEND
  8
0
  6
CONTINUOUS
 62
     7
  0
POLYLINE
  8
0
  6
CONTINUOUS
 62
     7
 66
     1
 10
0
 20
0
  0
VERTEX
  8
0
  6
CONTINUOUS
 62
     7
 10
177.9007637962
 20
178.8363266375
  0
VERTEX
  8
0
  6
CONTINUOUS
 62
     7
 10
177.9505932792
 20
179.1337333259
  0
VERTEX
  8
0
  6
CONTINUOUS
 62
     7
 10
177.9007637962
 20
179.4311400142
  0
SEQEND
  8
0
  6
CONTINUOUS
 62
     7
  0
POLYLINE
  8
0
  6
CONTINUOUS
 62
     7
 66
     1
 10
0
 20
0
  0
VERTEX
  8
0
  6
CONTINUOUS
 62
     7
 10
176.5711890622
 20
180.3712915268
  0
VERTEX
  8
0
  6
CONTINUOUS
 62
     7
 10
176.1505926117
 20
180.4065253225
  0
VERTEX
  8
0
  6
CONTINUOUS
 62
     7
 10
175.7299961611
 20
180.3712915268
  0
SEQEND
  8
0
  6
CONTINUOUS
 62
     7
  0
POLYLINE
  8
0
  6
CONTINUOUS
 62
     7
 66
     1
 10
0
 20
0
  0
VERTEX
  8
0
  6
CONTINUOUS
 62
     7
 10
174.4004214271
 20
179.4311400142
  0
VERTEX
  8
0
  6
CONTINUOUS
 62
     7
 10
174.3505919441
 20
179.1337333259
  0
VERTEX
  8
0
  6
CONTINUOUS
 62
     7
 10
174.4004214271
 20
178.8363266375
  0
SEQEND
  8
0
  6
CONTINUOUS
 62
     7
  0
POLYLINE
  8
0
  6
CONTINUOUS
 62
     7
 66
     1
 10
0
 20
0
  0
VERTEX
  8
0
  6
CONTINUOUS
 62
     7
 10
176.1505926117
 20
181.2550533202
  0
VERTEX
  8
0
  6
CONTINUOUS
 62
     7
 10
177.1766530439
 20
181.127123126
  0
VERTEX
  8
0
  6
CONTINUOUS
 62
     7
 10
178.0789556071
 20
180.7587589708
  0
VERTEX
  8
0
  6
CONTINUOUS
 62
     7
 10
178.7486696705
 20
180.1943942543
  0
VERTEX
  8
0
  6
CONTINUOUS
 62
     7
 10
179.1050160392
 20
179.5020974811
  0
VERTEX
  8
0
  6
CONTINUOUS
 62
     7
 10
179.1050160392
 20
178.7653691706
  0
VERTEX
  8
0
  6
CONTINUOUS
 62
     7
 10
178.7486696705
 20
178.0730723974
  0
VERTEX
  8
0
  6
CONTINUOUS
 62
     7
 10
178.0789556071
 20
177.508707681
  0
VERTEX
  8
0
  6
CONTINUOUS
 62
     7
 10
177.1766530439
 20
177.1403435257
  0
VERTEX
  8
0
  6
CONTINUOUS
 62
     7
 10
176.1505926117
 20
177.0124133315
  0
VERTEX
  8
0
  6
CONTINUOUS
 62
     7
 10
175.1245321795
 20
177.1403435257
  0
VERTEX
  8
0
  6
CONTINUOUS
 62
     7
 10
174.2222296163
 20
177.508707681
  0
VERTEX
  8
0
  6
CONTINUOUS
 62
     7
 10
173.5525155529
 20
178.0730723974
  0
VERTEX
  8
0
  6
CONTINUOUS
 62
     7
 10
173.1961691841
 20
178.7653691706
  0
VERTEX
  8
0
  6
CONTINUOUS
 62
     7
 10
173.1961691841
 20
179.5020974811
  0
VERTEX
  8
0
  6
CONTINUOUS
 62
     7
 10
173.5525155529
 20
180.1943942543
  0
VERTEX
  8
0
  6
CONTINUOUS
 62
     7
 10
174.2222296163
 20
180.7587589708
  0
VERTEX
  8
0
  6
CONTINUOUS
 62
     7
 10
175.1245321795
 20
181.127123126
  0
VERTEX
  8
0
  6
CONTINUOUS
 62
     7
 10
176.1505926117
 20
181.2550533202
  0
SEQEND
  8
0
  6
CONTINUOUS
 62
     7
  0
POLYLINE
  8
0
  6
CONTINUOUS
 62
     7
 66
     1
 10
0
 20
0
  0
VERTEX
  8
0
  6
CONTINUOUS
 62
     7
 10
176.1505926117
 20
181.4318295207
  0
VERTEX
  8
0
  6
CONTINUOUS
 62
     7
 10
177.1766530439
 20
181.3038993266
  0
VERTEX
  8
0
  6
CONTINUOUS
 62
     7
 10
178.0789556071
 20
180.9355351713
  0
VERTEX
  8
0
  6
CONTINUOUS
 62
     7
 10
178.7486696705
 20
180.3711704549
  0
VERTEX
  8
0
  6
CONTINUOUS
 62
     7
 10
179.1050160392
 20
179.6788736817
  0
VERTEX
  8
0
  6
CONTINUOUS
 62
     7
 10
179.1505912408
 20
179.3105095264
  0
SEQEND
  8
0
  6
CONTINUOUS
 62
     7
  0
POLYLINE
  8
0
  6
CONTINUOUS
 62
     7
 66
     1
 10
0
 20
0
  0
VERTEX
  8
0
  6
CONTINUOUS
 62
     7
 10
176.4745662077601
 20
179.5618157472769
 42
0
  0
VERTEX
  8
0
  6
CONTINUOUS
 62
     7
 10
176.5369890346463
 20
179.698635415391
 42
0
  0
VERTEX
  8
0
  6
CONTINUOUS
 62
     7
 10
176.5994118615325
 20
179.8354550835052
 42
0
  0
SEQEND
  8
0
  6
CONTINUOUS
 62
     7
  0
POLYLINE
  8
0
  6
CONTINUOUS
 62
     7
 66
     1
 10
0
 20
0
  0
VERTEX
  8
0
  6
CONTINUOUS
 62
     7
 10
176.4781275852855
 20
179.3690915789762
 42
0
  0
VERTEX
  8
0
  6
CONTINUOUS
 62
     7
 10
176.4763468965228
 20
179.4654536631265
 42
0
  0
VERTEX
  8
0
  6
CONTINUOUS
 62
     7
 10
176.4745662077601
 20
179.5618157472769
 42
0
  0
SEQEND
  8
0
  6
CONTINUOUS
 62
     7
  0
POLYLINE
  8
0
  6
CONTINUOUS
 62
     7
 66
     1
 10
0
 20
0
  0
VERTEX
  8
0
  6
CONTINUOUS
 62
     7
 10
175.8230539128
 20
179.369091579
  0
VERTEX
  8
0
  6
CONTINUOUS
 62
     7
 10
176.1505926117
 20
179.3352584925
  0
VERTEX
  8
0
  6
CONTINUOUS
 62
     7
 10
176.4781275853
 20
179.369091579
  0
SEQEND
  8
0
  6
CONTINUOUS
 62
     7
  0
POLYLINE
  8
0
  6
CONTINUOUS
 62
     7
 66
     1
 10
0
 20
0
  0
VERTEX
  8
0
  6
CONTINUOUS
 62
     7
 10
175.8230539127524
 20
179.3690915789762
 42
0
  0
VERTEX
  8
0
  6
CONTINUOUS
 62
     7
 10
175.8248346015151
 20
179.4654536631265
 42
0
  0
VERTEX
  8
0
  6
CONTINUOUS
 62
     7
 10
175.8266152902778
 20
179.5618157472769
 42
0
  0
SEQEND
  8
0
  6
CONTINUOUS
 62
     7
  0
POLYLINE
  8
0
  6
CONTINUOUS
 62
     7
 66
     1
 10
0
 20
0
  0
VERTEX
  8
0
  6
CONTINUOUS
 62
     7
 10
175.8266152902778
 20
179.5618157472769
 42
0
  0
VERTEX
  8
0
  6
CONTINUOUS
 62
     7
 10
175.7641943260367
 20
179.698635415391
 42
0
  0
VERTEX
  8
0
  6
CONTINUOUS
 62
     7
 10
175.7017733617957
 20
179.8354550835052
 42
0
  0
SEQEND
  8
0
  6
CONTINUOUS
 62
     7
  0
POLYLINE
  8
0
  6
CONTINUOUS
 62
     7
 66
     1
 10
0
 20
0
  0
VERTEX
  8
0
  6
CONTINUOUS
 62
     7
 10
259.2505911454
 20
179.2397997912
  0
VERTEX
  8
0
  6
CONTINUOUS
 62
     7
 10
259.0636374518
 20
179.9895181891
  0
VERTEX
  8
0
  6
CONTINUOUS
 62
     7
 10
258.5253292783
 20
180.6488088902
  0
VERTEX
  8
0
  6
CONTINUOUS
 62
     7
 10
257.7005909845
 20
181.1381537106
  0
VERTEX
  8
0
  6
CONTINUOUS
 62
     7
 10
256.6889027222
 20
181.3985291507
  0
VERTEX
  8
0
  6
CONTINUOUS
 62
     7
 10
255.6122826501
 20
181.3985291507
  0
VERTEX
  8
0
  6
CONTINUOUS
 62
     7
 10
254.6005906626
 20
181.1381537106
  0
VERTEX
  8
0
  6
CONTINUOUS
 62
     7
 10
253.7758523687
 20
180.6488088902
  0
VERTEX
  8
0
  6
CONTINUOUS
 62
     7
 10
253.2375441953
 20
179.9895181891
  0
VERTEX
  8
0
  6
CONTINUOUS
 62
     7
 10
253.0505905017
 20
179.2397997912
  0
VERTEX
  8
0
  6
CONTINUOUS
 62
     7
 10
253.2375441953
 20
178.4900795307
  0
VERTEX
  8
0
  6
CONTINUOUS
 62
     7
 10
253.7758523687
 20
177.8307888296
  0
VERTEX
  8
0
  6
CONTINUOUS
 62
     7
 10
253.8779439493
 20
177.7489833173
  0
SEQEND
  8
0
  6
CONTINUOUS
 62
     7
  0
POLYLINE
  8
0
  6
CONTINUOUS
 62
     7
 66
     1
 10
0
 20
0
  0
VERTEX
  8
0
  6
CONTINUOUS
 62
     7
 10
179.2505929335
 20
179.2397997912
  0
VERTEX
  8
0
  6
CONTINUOUS
 62
     7
 10
179.0636392399
 20
179.9895181891
  0
VERTEX
  8
0
  6
CONTINUOUS
 62
     7
 10
178.5253310665
 20
180.6488088902
  0
VERTEX
  8
0
  6
CONTINUOUS
 62
     7
 10
177.7005927726
 20
181.1381537106
  0
VERTEX
  8
0
  6
CONTINUOUS
 62
     7
 10
176.6889007851
 20
181.3985291507
  0
VERTEX
  8
0
  6
CONTINUOUS
 62
     7
 10
175.612280713
 20
181.3985291507
  0
VERTEX
  8
0
  6
CONTINUOUS
 62
     7
 10
174.6005924507
 20
181.1381537106
  0
VERTEX
  8
0
  6
CONTINUOUS
 62
     7
 10
173.7758541568
 20
180.6488088902
  0
VERTEX
  8
0
  6
CONTINUOUS
 62
     7
 10
173.2375459834
 20
179.9895181891
  0
VERTEX
  8
0
  6
CONTINUOUS
 62
     7
 10
173.0505922898
 20
179.2397997912
  0
VERTEX
  8
0
  6
CONTINUOUS
 62
     7
 10
173.2375459834
 20
178.4900795307
  0
VERTEX
  8
0
  6
CONTINUOUS
 62
     7
 10
173.7758541568
 20
177.8307888296
  0
VERTEX
  8
0
  6
CONTINUOUS
 62
     7
 10
173.8779420122
 20
177.7489833173
  0
SEQEND
  8
0
  6
CONTINUOUS
 62
     7
  0
POLYLINE
  8
0
  6
CONTINUOUS
 62
     7
 66
     1
 10
0
 20
0
  0
VERTEX
  8
0
  6
CONTINUOUS
 62
     7
 10
521.9441394642
 20
171.3555581507
  0
VERTEX
  8
0
  6
CONTINUOUS
 62
     7
 10
522.072071521
 20
171.2276270252
  0
VERTEX
  8
0
  6
CONTINUOUS
 62
     7
 10
522.4404356763
 20
170.8592638012
  0
VERTEX
  8
0
  6
CONTINUOUS
 62
     7
 10
523.0048003927
 20
170.2948981535
  0
VERTEX
  8
0
  6
CONTINUOUS
 62
     7
 10
523.6970971659
 20
169.6026013803
  0
VERTEX
  8
0
  6
CONTINUOUS
 62
     7
 10
524.4338236138
 20
168.8658749324
  0
VERTEX
  8
0
  6
CONTINUOUS
 62
     7
 10
525.126120387
 20
168.1735781592
  0
VERTEX
  8
0
  6
CONTINUOUS
 62
     7
 10
525.6904860348
 20
167.6092125114
  0
VERTEX
  8
0
  6
CONTINUOUS
 62
     7
 10
526.0588492587
 20
167.2408492875
  0
VERTEX
  8
0
  6
CONTINUOUS
 62
     7
 10
526.1867803842
 20
167.112918162
  0
SEQEND
  8
0
  6
CONTINUOUS
 62
     7
  0
POLYLINE
  8
0
  6
CONTINUOUS
 62
     7
 66
     1
 10
0
 20
0
  0
VERTEX
  8
0
  6
CONTINUOUS
 62
     7
 10
512.0446442947
 20
181.2550533202
  0
VERTEX
  8
0
  6
CONTINUOUS
 62
     7
 10
512.1725763515
 20
181.127123126
  0
VERTEX
  8
0
  6
CONTINUOUS
 62
     7
 10
512.5409405068
 20
180.7587589708
  0
VERTEX
  8
0
  6
CONTINUOUS
 62
     7
 10
513.1053052232001
 20
180.1943942543
  0
VERTEX
  8
0
  6
CONTINUOUS
 62
     7
 10
513.7976019964
 20
179.5020974811
  0
VERTEX
  8
0
  6
CONTINUOUS
 62
     7
 10
514.5343284442999
 20
178.7653691706
  0
VERTEX
  8
0
  6
CONTINUOUS
 62
     7
 10
515.2266252175
 20
178.0730723974
  0
VERTEX
  8
0
  6
CONTINUOUS
 62
     7
 10
515.7909917966
 20
177.508707681
  0
VERTEX
  8
0
  6
CONTINUOUS
 62
     7
 10
516.1593540892
 20
177.1403435257
  0
VERTEX
  8
0
  6
CONTINUOUS
 62
     7
 10
516.287286146
 20
177.0124133315
  0
SEQEND
  8
0
  6
CONTINUOUS
 62
     7
  0
POLYLINE
  8
0
  6
CONTINUOUS
 62
     7
 66
     1
 10
0
 20
0
  0
VERTEX
  8
0
  6
CONTINUOUS
 62
     7
 10
530.889041102
 20
171.1080712837
  0
VERTEX
  8
0
  6
CONTINUOUS
 62
     7
 10
531.0269904644
 20
170.9701219213
  0
VERTEX
  8
0
  6
CONTINUOUS
 62
     7
 10
531.1596387387
 20
170.8374727156
  0
VERTEX
  8
0
  6
CONTINUOUS
 62
     7
 10
531.2818883307
 20
170.7152235892
  0
VERTEX
  8
0
  6
CONTINUOUS
 62
     7
 10
531.3890407182
 20
170.6080712017
  0
VERTEX
  8
0
  6
CONTINUOUS
 62
     7
 10
531.4769785241
 20
170.5201338616
  0
VERTEX
  8
0
  6
CONTINUOUS
 62
     7
 10
531.5423224442
 20
170.4547894758
  0
VERTEX
  8
0
  6
CONTINUOUS
 62
     7
 10
531.5825607017
 20
170.4145516839
  0
VERTEX
  8
0
  6
CONTINUOUS
 62
     7
 10
531.5961477667
 20
170.4009646189
  0
SEQEND
  8
0
  6
CONTINUOUS
 62
     7
  0
POLYLINE
  8
0
  6
CONTINUOUS
 62
     7
 66
     1
 10
0
 20
0
  0
VERTEX
  8
0
  6
CONTINUOUS
 62
     7
 10
518.5146726057
 20
169.3403046217
  0
VERTEX
  8
0
  6
CONTINUOUS
 62
     7
 10
517.9628732935
 20
168.7885053095
  0
VERTEX
  8
0
  6
CONTINUOUS
 62
     7
 10
517.4322801963
 20
168.2579122123
  0
VERTEX
  8
0
  6
CONTINUOUS
 62
     7
 10
516.9432818279
 20
167.7689147752
  0
VERTEX
  8
0
  6
CONTINUOUS
 62
     7
 10
516.5146722779
 20
167.3403042939
  0
VERTEX
  8
0
  6
CONTINUOUS
 62
     7
 10
516.1629210547
 20
166.9885530707
  0
VERTEX
  8
0
  6
CONTINUOUS
 62
     7
 10
515.9015472368
 20
166.7271783214
  0
VERTEX
  8
0
  6
CONTINUOUS
 62
     7
 10
515.7405923441
 20
166.5662243601
  0
VERTEX
  8
0
  6
CONTINUOUS
 62
     7
 10
515.6862459466
 20
166.5118770313
  0
SEQEND
  8
0
  6
CONTINUOUS
 62
     7
  0
POLYLINE
  8
0
  6
CONTINUOUS
 62
     7
 66
     1
 10
0
 20
0
  0
VERTEX
  8
0
  6
CONTINUOUS
 62
     7
 10
515.3326916829
 20
186.6644207027
  0
VERTEX
  8
0
  6
CONTINUOUS
 62
     7
 10
515.3462778166
 20
186.6508327063
  0
VERTEX
  8
0
  6
CONTINUOUS
 62
     7
 10
515.3865165398
 20
186.6105958458
  0
VERTEX
  8
0
  6
CONTINUOUS
 62
     7
 10
515.4518599943
 20
186.5452505287
  0
VERTEX
  8
0
  6
CONTINUOUS
 62
     7
 10
515.539799197
 20
186.4573131886
  0
VERTEX
  8
0
  6
CONTINUOUS
 62
     7
 10
515.6469515845
 20
186.3501608011
  0
VERTEX
  8
0
  6
CONTINUOUS
 62
     7
 10
515.7692007110001
 20
186.2279116746
  0
VERTEX
  8
0
  6
CONTINUOUS
 62
     7
 10
515.9018489853
 20
186.0952634003
  0
VERTEX
  8
0
  6
CONTINUOUS
 62
     7
 10
516.0397983477
 20
185.9573140379
  0
SEQEND
  8
0
  6
CONTINUOUS
 62
     7
  0
POLYLINE
  8
0
  6
CONTINUOUS
 62
     7
 66
     1
 10
0
 20
0
  0
VERTEX
  8
0
  6
CONTINUOUS
 62
     7
 10
511.4436040953
 20
170.7545179513
  0
VERTEX
  8
0
  6
CONTINUOUS
 62
     7
 10
511.4979523555
 20
170.8088652801
  0
VERTEX
  8
0
  6
CONTINUOUS
 62
     7
 10
511.6589053855
 20
170.9698192414
  0
VERTEX
  8
0
  6
CONTINUOUS
 62
     7
 10
511.920281066
 20
171.2311939907
  0
VERTEX
  8
0
  6
CONTINUOUS
 62
     7
 10
512.2720322892
 20
171.5829452139
  0
VERTEX
  8
0
  6
CONTINUOUS
 62
     7
 10
512.7006418392
 20
172.0115547639
  0
VERTEX
  8
0
  6
CONTINUOUS
 62
     7
 10
513.1896402076
 20
172.5005531323
  0
VERTEX
  8
0
  6
CONTINUOUS
 62
     7
 10
513.7202333048
 20
173.0311462295
  0
VERTEX
  8
0
  6
CONTINUOUS
 62
     7
 10
514.2720307544
 20
173.5829446104
  0
SEQEND
  8
0
  6
CONTINUOUS
 62
     7
  0
POLYLINE
  8
0
  6
CONTINUOUS
 62
     7
 66
     1
 10
0
 20
0
  0
VERTEX
  8
0
  6
CONTINUOUS
 62
     7
 10
515.6862459466
 20
166.5118770313
  0
VERTEX
  8
0
  6
CONTINUOUS
 62
     7
 10
515.6454838202
 20
166.4711167675
  0
VERTEX
  8
0
  6
CONTINUOUS
 62
     7
 10
515.5247695133
 20
166.3504015293
  0
VERTEX
  8
0
  6
CONTINUOUS
 62
     7
 10
515.3287372872001
 20
166.1543702346
  0
VERTEX
  8
0
  6
CONTINUOUS
 62
     7
 10
515.0649252668
 20
165.8905563515
  0
VERTEX
  8
0
  6
CONTINUOUS
 62
     7
 10
514.7434681043
 20
165.569099189
  0
VERTEX
  8
0
  6
CONTINUOUS
 62
     7
 10
514.3767188624
 20
165.2023508784
  0
VERTEX
  8
0
  6
CONTINUOUS
 62
     7
 10
513.9787740395
 20
164.8044060555
  0
VERTEX
  8
0
  6
CONTINUOUS
 62
     7
 10
513.5649240896
 20
164.3905565713
  0
SEQEND
  8
0
  6
CONTINUOUS
 62
     7
  0
POLYLINE
  8
0
  6
CONTINUOUS
 62
     7
 66
     1
 10
0
 20
0
  0
VERTEX
  8
0
  6
CONTINUOUS
 62
     7
 10
509.322284101
 20
168.6331970256
  0
VERTEX
  8
0
  6
CONTINUOUS
 62
     7
 10
509.7361340508
 20
169.0470469754
  0
VERTEX
  8
0
  6
CONTINUOUS
 62
     7
 10
510.1340788737
 20
169.4449917984
  0
VERTEX
  8
0
  6
CONTINUOUS
 62
     7
 10
510.500826253
 20
169.811740109
  0
VERTEX
  8
0
  6
CONTINUOUS
 62
     7
 10
510.8222834155
 20
170.1331972715
  0
VERTEX
  8
0
  6
CONTINUOUS
 62
     7
 10
511.0860972986
 20
170.3970111545
  0
VERTEX
  8
0
  6
CONTINUOUS
 62
     7
 10
511.282127662
 20
170.593041518
  0
VERTEX
  8
0
  6
CONTINUOUS
 62
     7
 10
511.4028438315
 20
170.7137576875
  0
VERTEX
  8
0
  6
CONTINUOUS
 62
     7
 10
511.4436040953
 20
170.7545179513
  0
SEQEND
  8
0
  6
CONTINUOUS
 62
     7
  0
POLYLINE
  8
0
  6
CONTINUOUS
 62
     7
 66
     1
 10
0
 20
0
  0
VERTEX
  8
0
  6
CONTINUOUS
 62
     7
 10
533.3032545954
 20
170.1080711197
  0
VERTEX
  8
0
  6
CONTINUOUS
 62
     7
 10
533.1081639365
 20
170.0272621226
  0
VERTEX
  8
0
  6
CONTINUOUS
 62
     7
 10
532.9205708899
 20
169.9495581549
  0
VERTEX
  8
0
  6
CONTINUOUS
 62
     7
 10
532.7476843581
 20
169.8779468995
  0
VERTEX
  8
0
  6
CONTINUOUS
 62
     7
 10
532.5961479306
 20
169.8151776206
  0
VERTEX
  8
0
  6
CONTINUOUS
 62
     7
 10
532.471784702
 20
169.7636652377
  0
VERTEX
  8
0
  6
CONTINUOUS
 62
     7
 10
532.3793751508
 20
169.7253878799
  0
VERTEX
  8
0
  6
CONTINUOUS
 62
     7
 10
532.3224690132
 20
169.7018170368
  0
VERTEX
  8
0
  6
CONTINUOUS
 62
     7
 10
532.3032544315
 20
169.6938579541
  0
SEQEND
  8
0
  6
CONTINUOUS
 62
     7
  0
POLYLINE
  8
0
  6
CONTINUOUS
 62
     7
 66
     1
 10
0
 20
0
  0
VERTEX
  8
0
  6
CONTINUOUS
 62
     7
 10
515.0250795618
 20
188.3862461534
  0
VERTEX
  8
0
  6
CONTINUOUS
 62
     7
 10
514.9442705646
 20
188.1911545631
  0
VERTEX
  8
0
  6
CONTINUOUS
 62
     7
 10
514.8665665969
 20
188.0035619822
  0
VERTEX
  8
0
  6
CONTINUOUS
 62
     7
 10
514.7949553415
 20
187.8306749847
  0
VERTEX
  8
0
  6
CONTINUOUS
 62
     7
 10
514.7321860627
 20
187.6791394886
  0
VERTEX
  8
0
  6
CONTINUOUS
 62
     7
 10
514.6806746111
 20
187.5547762599
  0
VERTEX
  8
0
  6
CONTINUOUS
 62
     7
 10
514.6423972532
 20
187.4623667088
  0
VERTEX
  8
0
  6
CONTINUOUS
 62
     7
 10
514.6188254789
 20
187.4054610368
  0
VERTEX
  8
0
  6
CONTINUOUS
 62
     7
 10
514.6108663962
 20
187.3862459895
  0
SEQEND
  8
0
  6
CONTINUOUS
 62
     7
  0
TEXT
  8
0
  6
CONTINUOUS
 62
     7
 10
521.0439524058163
 20
16.71765468251628
 40
4.762499809265137
 41
1.000000030036988
  1
11548Q
  0
TEXT
  8
0
  6
CONTINUOUS
 62
     7
 10
203.8600144347654
 20
17.87314429024792
 40
4.96999979019165
 41
1.000000041975104
  1
35M
  0
TEXT
  8
0
  6
CONTINUOUS
 62
     7
 10
203.8307925290864
 20
33.55020666374792
 40
4.96999979019165
 41
1.00000001612489
  1
承認図
  0
TEXT
  8
0
  6
CONTINUOUS
 62
     7
 10
425.119713716569
 20
34.47621215851629
 40
4.762499809265137
 41
1.000000005269647
  1
1/1
  0
TEXT
  8
0
  6
CONTINUOUS
 62
     7
 10
42.26392506680291
 20
113.4881602559338
 40
2.910416603088379
 41
1.000000028671669
  1
26
 50
90.00000000000003
  0
TEXT
  8
0
  6
CONTINUOUS
 62
     7
 10
47.76392506680291
 20
113.4881602528451
 40
2.910416603088379
 41
1.000000040959528
  1
14
 50
90.00000000000003
  0
TEXT
  8
0
  6
CONTINUOUS
 62
     7
 10
507.9479548554732
 20
29.29249926477907
 40
3.174999952316284
 41
1.000000014079838
  1
WEST
  0
TEXT
  8
0
  6
CONTINUOUS
 62
     7
 10
488.5383241848146
 20
38.6902975556
 40
3.5
 41
0.999999990841063
  1
承　認
  0
TEXT
  8
0
  6
CONTINUOUS
 62
     7
 10
114.9868478385117
 20
15.08712518467907
 40
3.174999952316284
 41
1.000000041016894
  1
変　更　内　容
  0
TEXT
  8
0
  6
CONTINUOUS
 62
     7
 10
512.6464247343279
 20
16.71765474071628
 40
4.762499809265137
 41
1.000000077595551
  1
No.
  0
TEXT
  8
0
  6
CONTINUOUS
 62
     7
 10
506.1792863946575
 20
14.4848408109
 40
5
 41
1.00000000801407
  1
番
  0
TEXT
  8
0
  6
CONTINUOUS
 62
     7
 10
506.1809172983575
 20
21.4870816712
 40
5
 41
1.00000000801407
  1
図
  0
TEXT
  8
0
  6
CONTINUOUS
 62
     7
 10
467.2109099641147
 20
38.7050987196
 40
3.5
 41
0.999999990841063
  1
照　査
  0
TEXT
  8
0
  6
CONTINUOUS
 62
     7
 10
441.7864149466474
 20
38.7088460131
 40
3.5
 41
0.9999999785746296
  1
製図・設計
  0
TEXT
  8
0
  6
CONTINUOUS
 62
     7
 10
416.8440157056188
 20
18.62017725808733
 40
4.233333110809326
 41
1.000000035538415
  1
第三角法
  0
TEXT
  8
0
  6
CONTINUOUS
 62
     7
 10
413.6427239015575
 20
30.1084875064
 40
5
 41
1.00000000801407
  1
度
  0
TEXT
  8
0
  6
CONTINUOUS
 62
     7
 10
413.6366684395575
 20
37.3602711782
 40
5
 41
1.00000000801407
  1
尺
  0
TEXT
  8
0
  6
CONTINUOUS
 62
     7
 10
356.8570670176575
 20
30.1084875064
 40
5
 41
1.00000000801407
  1
考
  0
TEXT
  8
0
  6
CONTINUOUS
 62
     7
 10
356.8663808386576
 20
37.4159288501
 40
5
 41
1.00000000801407
  1
備
  0
TEXT
  8
0
  6
CONTINUOUS
 62
     7
 10
196.3818565930575
 20
14.8055984999
 40
5
 41
1.00000000801407
  1
名
  0
TEXT
  8
0
  6
CONTINUOUS
 62
     7
 10
196.3698432032575
 20
22.0337255625
 40
5
 41
1.00000000801407
  1
品
  0
TEXT
  8
0
  6
CONTINUOUS
 62
     7
 10
196.4501024408575
 20
29.9625173242
 40
5
 41
1.00000000801407
  1
称
  0
TEXT
  8
0
  6
CONTINUOUS
 62
     7
 10
196.4501024408575
 20
37.5069117018
 40
5
 41
1.00000000801407
  1
名
  0
TEXT
  8
0
  6
CONTINUOUS
 62
     7
 10
31.09285328455752
 20
18.2984875064
 40
5
 41
1.00000000801407
  1
訂
  0
TEXT
  8
0
  6
CONTINUOUS
 62
     7
 10
31.11683245355752
 20
34.4737908869
 40
5
 41
1.00000000801407
  1
改
  0
TEXT
  8
0
  6
CONTINUOUS
 62
     7
 10
281.5592910400575
 20
14.7260836151
 40
5
 41
1.00000000801407
  1
番
  0
TEXT
  8
0
  6
CONTINUOUS
 62
     7
 10
281.6501024408576
 20
29.9625173242
 40
5
 41
1.00000000801407
  1
質
  0
TEXT
  8
0
  6
CONTINUOUS
 62
     7
 10
281.5592910400575
 20
21.8925709191
 40
5
 41
1.00000000801407
  1
工
  0
TEXT
  8
0
  6
CONTINUOUS
 62
     7
 10
281.6501024408576
 20
37.5069117018
 40
5
 41
1.00000000801407
  1
材
  0
TEXT
  8
0
  6
CONTINUOUS
 62
     7
 10
71.22874469222455
 20
15.08624936847907
 40
3.174999952316284
 41
0.9999999936897087
  1
担当者
  0
TEXT
  8
0
  6
CONTINUOUS
 62
     7
 10
55.61994209625389
 20
15.23656872117907
 40
3.174999952316284
 41
1.000000041016894
  1
日付
  0
TEXT
  8
0
  6
CONTINUOUS
 62
     7
 10
39.26291329915389
 20
15.03981597737907
 40
3.174999952316284
 41
1.000000041016894
  1
記号
  0
TEXT
  8
0
  6
CONTINUOUS
 62
     7
 10
602.233131524382
 20
14.2644914099
 40
7.9375
 41
0.9999999879852054
  1
A2
  0
TEXT
  8
0
  6
CONTINUOUS
 62
     7
 10
575.1964095910016
 20
8.306744644950118
 40
2.645833253860474
 41
1.000000013516644
  1
A2
  0
TEXT
  8
0
  6
CONTINUOUS
 62
     7
 10
176.1819999933243
 20
14.95474997615814
 40
3.200000047683716
 41
0.8489270562463692
  1
通　知　書
  0
TEXT
  8
0
  6
CONTINUOUS
 62
     7
 10
328.0433062754747
 20
37.64335135460195
 40
5
 41
0.9004726530123157
  1
個
  0
TEXT
  8
0
  6
CONTINUOUS
 62
     7
 10
328.0433062754747
 20
30.14335135460195
 40
5
 41
0.9004726530123157
  1
数
  0
TEXT
  8
0
  6
CONTINUOUS
 62
     7
 10
441.1031852710568
 20
14.00993834358816
 40
4.300000190734863
 41
0.4363283775048482
  1
′０８．１０．２０
  0
DIMENSION
  8
0
  6
CONTINUOUS
 62
     7
  2
*D1
 70
     0
 10
45.6505917176
 20
104.3679558474
 11
45.6505917176
 21
117.3679558474
  3
DIMSTYLE
 13
72.15059171759999
 23
130.3679558474
 14
72.15059171759999
 24
104.3679558474
 50
90
1001
ACAD
1000
DSTYLE
1002
{
1070
    77
1070
     1
1070
   172
1070
     1
1070
   147
1040
0
1002
}
  0
DIMENSION
  8
0
  6
CONTINUOUS
 62
     7
  2
*D2
 70
     0
 10
76.15059171759999
 20
84.0320001506
 11
73.65059171759999
 21
84.0320001506
  3
DIMSTYLE
 13
71.15059171759999
 23
105.3679558474
 14
76.15059171759999
 24
105.3679558474
 50
0
1001
ACAD
1000
DSTYLE
1002
{
1070
    77
1070
     1
1070
   172
1070
     1
1070
   147
1040
0
1002
}
  0
DIMENSION
  8
0
  6
CONTINUOUS
 62
     7
  2
*D3
 70
     0
 10
201.1505917176
 20
84.0320001506
 11
138.6505917176
 21
84.0320001506
  3
DIMSTYLE
 13
76.15059171759999
 23
105.3679558474
 14
201.1505917176
 24
109.1179558474
 50
0
1001
ACAD
1000
DSTYLE
1002
{
1070
    77
1070
     1
1070
   172
1070
     1
1070
   147
1040
0
1002
}
  0
DIMENSION
  8
0
  6
CONTINUOUS
 62
     7
  2
*D4
 70
     0
 10
231.1505917176
 20
84.0320001506
 11
216.1505917176
 21
84.0320001506
  3
DIMSTYLE
 13
201.1505917176
 23
109.1179558474
 14
231.1505917176
 24
109.1179558474
 50
0
1001
ACAD
1000
DSTYLE
1002
{
1070
    77
1070
     1
1070
   172
1070
     1
1070
   147
1040
0
1002
}
  0
DIMENSION
  8
0
  6
CONTINUOUS
 62
     7
  2
*D5
 70
     0
 10
254.1505917176
 20
210.3862458106
 11
216.1505917176
 21
210.3862458106
  3
DIMSTYLE
 13
178.1505917176
 23
162.9862458106
 14
254.1505917176
 24
162.9862458106
 50
0
1001
ACAD
1000
DSTYLE
1002
{
1070
    77
1070
     1
1070
   172
1070
     1
1070
   147
1040
0
1002
}
  0
DIMENSION
  8
0
  6
CONTINUOUS
 62
     7
  2
*D6
 70
     0
 10
45.6505917176
 20
200.3862458106
 11
45.6505917176
 21
179.1362458106
  3
DIMSTYLE
 13
173.0505917176
 23
157.8862458106
 14
62.1505917176
 24
200.3862458106
 50
90
1001
ACAD
1000
DSTYLE
1002
{
1070
    77
1070
     1
1070
   172
1070
     1
1070
   147
1040
0
1002
}
  0
DIMENSION
  8
0
  6
CONTINUOUS
 62
     7
  2
*D7
 70
     0
 10
51.1505917176
 20
110.3679558474
 11
51.1505917176
 21
117.3679558474
  3
DIMSTYLE
 13
76.15059171759999
 23
124.3679558474
 14
76.15059171759999
 24
110.3679558474
 50
90
1001
ACAD
1000
DSTYLE
1002
{
1070
    77
1070
     1
1070
   172
1070
     1
1070
   147
1040
0
1002
}
  0
DIMENSION
  8
0
  6
CONTINUOUS
 62
     7
  2
*D8
 70
     0
 10
264.1505917176
 20
216.3862458106
 11
216.1505917176
 21
216.3862458106
  3
DIMSTYLE
 13
168.1505917176
 23
193.3862458106
 14
264.1505917176
 24
193.3862458106
 50
0
1001
ACAD
1000
DSTYLE
1002
{
1070
    77
1070
     1
1070
   172
1070
     1
1070
   147
1040
0
1002
}
  0
DIMENSION
  8
0
  6
CONTINUOUS
 62
     7
  2
*D9
 70
     0
 10
371.1505917176
 20
222.3862458106
 11
216.1505917176
 21
222.3862458106
  3
DIMSTYLE
 13
61.1505917176
 23
199.3862458106
 14
371.1505917176
 24
199.3862458106
 50
0
1001
ACAD
1000
DSTYLE
1002
{
1070
    77
1070
     1
1070
   172
1070
     1
1070
   147
1040
0
1002
}
  0
DIMENSION
  8
0
  6
CONTINUOUS
 62
     7
  2
*D10
 70
     0
 10
387.1505917176
 20
200.3862458106
 11
387.1505917176
 21
154.252100829
  3
DIMSTYLE
 13
230.1505917176
 23
108.1179558474
 14
370.1505917176
 24
200.3862458106
 50
90
1001
ACAD
1000
DSTYLE
1002
{
1070
    77
1070
     1
1070
   172
1070
     1
1070
   147
1040
0
1002
}
  0
DIMENSION
  8
0
  6
CONTINUOUS
 62
     7
  2
*D11
 70
     0
 10
356.1505917176
 20
84.0320001506
 11
293.6505917176
 21
84.0320001506
  3
DIMSTYLE
 13
231.1505917176
 23
109.1179558474
 14
356.1505917176
 24
105.3679558474
 50
0
1001
ACAD
1000
DSTYLE
1002
{
1070
    77
1070
     1
1070
   172
1070
     1
1070
   147
1040
0
1002
}
  0
DIMENSION
  8
0
  6
CONTINUOUS
 62
     7
  2
*D12
 70
     0
 10
361.1505917176
 20
84.0320001506
 11
358.6505917176
 21
84.0320001506
  3
DIMSTYLE
 13
356.1505917176
 23
105.3679558474
 14
361.1505917176
 24
105.3679558474
 50
0
1001
ACAD
1000
DSTYLE
1002
{
1070
    77
1070
     1
1070
   172
1070
     1
1070
   147
1040
0
1002
}
  0
DIMENSION
  8
0
  6
CONTINUOUS
 62
     7
  2
*D13
 70
     0
 10
71.15059171759999
 20
78.0320001506
 11
216.1505917176
 21
78.0320001506
  3
DIMSTYLE
 13
361.1505917176
 23
105.3679558474
 14
71.15059171759999
 24
105.3679558474
 50
0
1001
ACAD
1000
DSTYLE
1002
{
1070
    77
1070
     1
1070
   172
1070
     1
1070
   147
1040
0
1002
}
  0
DIMENSION
  8
0
  6
CONTINUOUS
 62
     7
  2
*D14
 70
     0
 10
45.6505917176
 20
157.8862458106
 11
45.6505917176
 21
145.3862458106
  3
DIMSTYLE
 13
173.0505917176
 23
132.8862458106
 14
173.0505917176
 24
157.8862458106
 50
90
1001
ACAD
1000
DSTYLE
1002
{
1070
    77
1070
     1
1070
   172
1070
     1
1070
   147
1040
0
1002
}
  0
DIMENSION
  8
0
  6
CONTINUOUS
 62
     7
  2
*D15
 70
     0
 10
538.3032544837
 20
80.69549013779999
 11
500.3014688149
 21
80.69549013779999
  3
DIMSTYLE
 13
462.2996831462
 23
97.3679558474
 14
538.3032544837
 24
117.8862458106
 50
0
1001
ACAD
1000
DSTYLE
1002
{
1070
    77
1070
     1
1070
   172
1070
     1
1070
   147
1040
0
1002
}
  0
DIMENSION
  8
0
  6
CONTINUOUS
 62
     7
  2
*D16
 70
     0
 10
412.3032544837
 20
200.3862458106
 11
412.3032544837
 21
196.8862458106
  3
DIMSTYLE
 13
429.3032544837
 23
193.3862458106
 14
429.3032544837
 24
200.3862458106
 50
90
1001
ACAD
1000
DSTYLE
1002
{
1070
     6
1000
_DOT
1070
    77
1070
     1
1070
   172
1070
     1
1070
   147
1040
0
1002
}
  0
DIMENSION
  8
0
  6
CONTINUOUS
 62
     7
  2
*D17
 70
     0
 10
538.3032544837
 20
216.3862458106
 11
530.8032544837
 21
216.3862458106
  3
DIMSTYLE
 13
523.3032544837
 23
199.3862458106
 14
538.3032544837
 24
172.8862458106
 50
0
1001
ACAD
1000
DSTYLE
1002
{
1070
    77
1070
     1
1070
   172
1070
     1
1070
   147
1040
0
1002
}
  0
DIMENSION
  8
0
  6
CONTINUOUS
 62
     7
  2
*D18
 70
     0
 10
523.3032544837
 20
216.3862458106
 11
475.8032544837
 21
216.3862458106
  3
DIMSTYLE
 13
428.3032544837
 23
199.3862458106
 14
523.3032544837
 24
199.3862458106
 50
0
1001
ACAD
1000
DSTYLE
1002
{
1070
    77
1070
     1
1070
   172
1070
     1
1070
   147
1040
0
1002
}
  0
DIMENSION
  8
0
  6
CONTINUOUS
 62
     7
  2
*D19
 70
     0
 10
568.6032544837
 20
172.8862458106
 11
568.6032544837
 21
186.6362458106
  3
DIMSTYLE
 13
522.3032544837
 23
200.3862458106
 14
538.3032544837
 24
172.8862458106
 50
90
1001
ACAD
1000
DSTYLE
1002
{
1070
    77
1070
     1
1070
   172
1070
     1
1070
   147
1040
0
1002
}
  0
DIMENSION
  8
0
  6
CONTINUOUS
 62
     7
  2
*D20
 70
     0
 10
568.6032544837
 20
172.8862458106
 11
568.6032544837
 21
145.3862458106
  3
DIMSTYLE
 13
538.3032544837
 23
117.8862458106
 14
538.3032544837
 24
172.8862458106
 50
90
1001
ACAD
1000
DSTYLE
1002
{
1070
    77
1070
     1
1070
   172
1070
     1
1070
   147
1040
0
1002
}
  0
DIMENSION
  8
0
  6
CONTINUOUS
 62
     7
  2
*D21
 70
     0
 10
412.3032544837
 20
193.3862458106
 11
412.3032544837
 21
190.3862458106
  3
DIMSTYLE
 13
479.3032544837
 23
187.3862458106
 14
429.3032544837
 24
193.3862458106
 50
90
1001
ACAD
1000
DSTYLE
1002
{
1070
     7
1000
_DOT
1070
    77
1070
     1
1070
   172
1070
     1
1070
   147
1040
0
1002
}
  0
DIMENSION
  8
0
  6
CONTINUOUS
 62
     7
  2
*D22
 70
     0
 10
504.07837680545
 20
163.38929019375
 11
500.7016214149001
 21
166.7660455843
 52
-90.00000000000046
  3
DIMSTYLE
 13
499.4457527808999
 23
150.2713847949999
 14
495.2031120937998
 24
154.5140254821
 50
135
1001
ACAD
1000
DSTYLE
1002
{
1070
    77
1070
     1
1070
   172
1070
     1
1070
   147
1040
0
1002
}
  0
DIMENSION
  8
0
  6
CONTINUOUS
 62
     7
  2
*D23
 70
     0
 10
509.9594352965
 20
148.7642520305
 11
489.042981852
 21
169.680705475
  3
DIMSTYLE
 13
511.7971578293
 23
183.1288864978
 14
528.0606137965001
 24
166.8654305305
 50
315
1001
ACAD
1000
DSTYLE
1002
{
1070
    77
1070
     1
1070
   172
1070
     1
1070
   147
1040
0
1002
}
  0
DIMENSION
  8
0
  6
CONTINUOUS
 62
     7
  2
*D24
 70
     0
 10
478.3032544837
 20
210.3862458106
 11
508.3032544837
 21
210.3862458106
  3
DIMSTYLE
 13
538.3032544837
 23
172.8862458106
 14
478.3032544837
 24
193.3862458106
 50
0
1001
ACAD
1000
DSTYLE
1002
{
1070
    77
1070
     1
1070
   172
1070
     1
1070
   147
1040
0
1002
}
  0
DIMENSION
  8
0
  6
CONTINUOUS
 62
     7
  2
*D25
 70
     0
 10
538.3032544837
 20
222.3862458106
 11
483.3032544837
 21
222.3862458106
  3
DIMSTYLE
 13
428.3032544837
 23
199.3862458106
 14
538.3032544837
 24
172.8862458106
 50
0
1001
ACAD
1000
DSTYLE
1002
{
1070
    77
1070
     1
1070
   172
1070
     1
1070
   147
1040
0
1002
}
  0
DIMENSION
  8
0
  6
CONTINUOUS
 62
     7
  2
*D26
 70
     0
 10
406.3032544837
 20
200.3862458106
 11
406.3032544837
 21
158.877100829
  3
DIMSTYLE
 13
440.9386120426
 23
117.3679558474
 14
429.3032544837
 24
200.3862458106
 50
90
1001
ACAD
1000
DSTYLE
1002
{
1070
    77
1070
     1
1070
   172
1070
     1
1070
   147
1040
0
1002
}
  0
DIMENSION
  8
0
  6
CONTINUOUS
 62
     7
  2
*D27
 70
     0
 10
562.6032544837
 20
200.3862458106
 11
562.6032544837
 21
194.1362458106
  3
DIMSTYLE
 13
523.3032544837
 23
187.8862458106
 14
522.3032544837
 24
200.3862458106
 50
90
1001
ACAD
1000
DSTYLE
1002
{
1070
    77
1070
     1
1070
   172
1070
     1
1070
   147
1040
0
1002
}
  0
DIMENSION
  8
0
  6
CONTINUOUS
 62
     7
  2
*D28
 70
     0
 10
538.3032544837
 20
86.69549013779999
 11
535.3032544837
 21
86.69549013779999
  3
DIMSTYLE
 13
532.3032544837
 23
118.8862458106
 14
538.3032544837
 24
117.8862458106
 50
0
1001
ACAD
1000
DSTYLE
1002
{
1070
    77
1070
     1
1070
   172
1070
     1
1070
   147
1040
0
1002
}
  0
ENDSEC
  0
EOF
