  0
SECTION
  2
HEADER
  9
$ACADVER
  1
AC1015
  9
$ACADMAINTVER
 70
     6
  9
$DWGCODEPAGE
  3
ANSI_932
  9
$INSBASE
 10
0.0
 20
0.0
 30
0.0
  9
$EXTMIN
 10
-105.0
 20
-148.5
 30
0.0
  9
$EXTMAX
 10
105.0
 20
148.5
 30
0.0
  9
$LIMMIN
 10
-105.0
 20
-148.5
  9
$LIMMAX
 10
105.0
 20
148.5
  9
$ORTHOMODE
 70
     0
  9
$REGENMODE
 70
     1
  9
$FILLMODE
 70
     1
  9
$QTEXTMODE
 70
     0
  9
$MIRRTEXT
 70
     1
  9
$LTSCALE
 40
1.0
  9
$ATTMODE
 70
     1
  9
$TEXTSIZE
 40
2.5
  9
$TRACEWID
 40
0.05
  9
$TEXTSTYLE
  7
MX_NOTE_STANDARD
  9
$CLAYER
  8
DEFPOINTS
  9
$CELTYPE
  6
CONTINUOUS
  9
$CECOLOR
 62
   256
  9
$CELTSCALE
 40
1.0
  9
$DISPSILH
 70
     0
  9
$DIMSCALE
 40
1.0
  9
$DIMASZ
 40
2.5
  9
$DIMEXO
 40
1.5
  9
$DIMDLI
 40
3.75
  9
$DIMRND
 40
0.0
  9
$DIMDLE
 40
0.0
  9
$DIMEXE
 40
1.5
  9
$DIMTP
 40
0.0
  9
$DIMTM
 40
0.0
  9
$DIMTXT
 40
2.5
  9
$DIMCEN
 40
2.5
  9
$DIMTSZ
 40
0.0
  9
$DIMTOL
 70
     0
  9
$DIMLIM
 70
     0
  9
$DIMTIH
 70
     0
  9
$DIMTOH
 70
     0
  9
$DIMSE1
 70
     0
  9
$DIMSE2
 70
     0
  9
$DIMTAD
 70
     1
  9
$DIMZIN
 70
     8
  9
$DIMBLK
  1

  9
$DIMASO
 70
     1
  9
$DIMSHO
 70
     1
  9
$DIMPOST
  1

  9
$DIMAPOST
  1

  9
$DIMALT
 70
     0
  9
$DIMALTD
 70
     4
  9
$DIMALTF
 40
0.03937
  9
$DIMLFAC
 40
1.0
  9
$DIMTOFL
 70
     1
  9
$DIMTVP
 40
0.0
  9
$DIMTIX
 70
     0
  9
$DIMSOXD
 70
     0
  9
$DIMSAH
 70
     1
  9
$DIMBLK1
  1
_OPEN30
  9
$DIMBLK2
  1
_OPEN30
  9
$DIMSTYLE
  2
MXDIMSTYLE
  9
$DIMCLRD
 70
     0
  9
$DIMCLRE
 70
     0
  9
$DIMCLRT
 70
     0
  9
$DIMTFAC
 40
1.0
  9
$DIMGAP
 40
1.0
  9
$DIMJUST
 70
     0
  9
$DIMSD1
 70
     0
  9
$DIMSD2
 70
     0
  9
$DIMTOLJ
 70
     0
  9
$DIMTZIN
 70
     0
  9
$DIMALTZ
 70
     0
  9
$DIMALTTZ
 70
     0
  9
$DIMUPT
 70
     0
  9
$DIMDEC
 70
     2
  9
$DIMTDEC
 70
     2
  9
$DIMALTU
 70
     2
  9
$DIMALTTD
 70
     4
  9
$DIMTXSTY
  7
MX_NOTE_STANDARD
  9
$DIMAUNIT
 70
     0
  9
$DIMADEC
 70
     0
  9
$DIMALTRND
 40
0.0
  9
$DIMAZIN
 70
     0
  9
$DIMDSEP
 70
    46
  9
$DIMATFIT
 70
     3
  9
$DIMFRAC
 70
     0
  9
$DIMLDRBLK
  1
_OPEN30
  9
$DIMLUNIT
 70
     2
  9
$DIMLWD
 70
    -2
  9
$DIMLWE
 70
    -2
  9
$DIMTMOVE
 70
     0
  9
$LUNITS
 70
     2
  9
$LUPREC
 70
     4
  9
$SKETCHINC
 40
0.1
  9
$FILLETRAD
 40
0.0
  9
$AUNITS
 70
     0
  9
$AUPREC
 70
     0
  9
$MENU
  1
acad
  9
$ELEVATION
 40
0.0
  9
$PELEVATION
 40
0.0
  9
$THICKNESS
 40
0.0
  9
$LIMCHECK
 70
     0
  9
$CHAMFERA
 40
0.0
  9
$CHAMFERB
 40
0.0
  9
$CHAMFERC
 40
0.0
  9
$CHAMFERD
 40
0.0
  9
$SKPOLY
 70
     0
  9
$TDCREATE
 40
2459144.755995370
  9
$TDUCREATE
 40
0.000000000
  9
$TDUPDATE
 40
2459144.755995370
  9
$TDUUPDATE
 40
0.000000000
  9
$TDINDWG
 40
0.0000000000
  9
$TDUSRTIMER
 40
0.0000000000
  9
$USRTIMER
 70
     1
  9
$ANGBASE
 50
0.0
  9
$ANGDIR
 70
     0
  9
$PDMODE
 70
     0
  9
$PDSIZE
 40
0.0
  9
$PLINEWID
 40
0.0
  9
$SPLFRAME
 70
     0
  9
$SPLINETYPE
 70
     6
  9
$SPLINESEGS
 70
     8
  9
$HANDSEED
  5
10E
  9
$SURFTAB1
 70
     6
  9
$SURFTAB2
 70
     6
  9
$SURFTYPE
 70
     6
  9
$SURFU
 70
     6
  9
$SURFV
 70
     6
  9
$UCSBASE
  2

  9
$UCSNAME
  2

  9
$UCSORG
 10
0.0
 20
0.0
 30
0.0
  9
$UCSXDIR
 10
1.0
 20
0.0
 30
0.0
  9
$UCSYDIR
 10
0.0
 20
1.0
 30
0.0
  9
$UCSORTHOREF
  2

  9
$UCSORTHOVIEW
 70
     0
  9
$UCSORGTOP
 10
0.0
 20
0.0
 30
0.0
  9
$UCSORGBOTTOM
 10
0.0
 20
0.0
 30
0.0
  9
$UCSORGLEFT
 10
0.0
 20
0.0
 30
0.0
  9
$UCSORGRIGHT
 10
0.0
 20
0.0
 30
0.0
  9
$UCSORGFRONT
 10
0.0
 20
0.0
 30
0.0
  9
$UCSORGBACK
 10
0.0
 20
0.0
 30
0.0
  9
$PUCSBASE
  2

  9
$PUCSNAME
  2

  9
$PUCSORG
 10
0.0
 20
0.0
 30
0.0
  9
$PUCSXDIR
 10
1.0
 20
0.0
 30
0.0
  9
$PUCSYDIR
 10
0.0
 20
1.0
 30
0.0
  9
$PUCSORTHOREF
  2

  9
$PUCSORTHOVIEW
 70
     0
  9
$PUCSORGTOP
 10
0.0
 20
0.0
 30
0.0
  9
$PUCSORGBOTTOM
 10
0.0
 20
0.0
 30
0.0
  9
$PUCSORGLEFT
 10
0.0
 20
0.0
 30
0.0
  9
$PUCSORGRIGHT
 10
0.0
 20
0.0
 30
0.0
  9
$PUCSORGFRONT
 10
0.0
 20
0.0
 30
0.0
  9
$PUCSORGBACK
 10
0.0
 20
0.0
 30
0.0
  9
$USERI1
 70
     0
  9
$USERI2
 70
     0
  9
$USERI3
 70
     0
  9
$USERI4
 70
     0
  9
$USERI5
 70
     0
  9
$USERR1
 40
0.0
  9
$USERR2
 40
0.0
  9
$USERR3
 40
0.0
  9
$USERR4
 40
0.0
  9
$USERR5
 40
0.0
  9
$WORLDVIEW
 70
     1
  9
$SHADEDGE
 70
     3
  9
$SHADEDIF
 70
    70
  9
$TILEMODE
 70
     1
  9
$MAXACTVP
 70
    16
  9
$PINSBASE
 10
0.0
 20
0.0
 30
0.0
  9
$PLIMCHECK
 70
     0
  9
$PEXTMIN
 10
1.000000E+20
 20
1.000000E+20
 30
1.000000E+20
  9
$PEXTMAX
 10
-1.000000E+20
 20
-1.000000E+20
 30
-1.000000E+20
  9
$PLIMMIN
 10
0.0
 20
0.0
  9
$PLIMMAX
 10
12.0
 20
9.0
  9
$UNITMODE
 70
     0
  9
$VISRETAIN
 70
     0
  9
$PLINEGEN
 70
     1
  9
$PSLTSCALE
 70
     0
  9
$TREEDEPTH
 70
  3020
  9
$CMLSTYLE
  2
Standard
  9
$CMLJUST
 70
     0
  9
$CMLSCALE
 40
1.0
  9
$PROXYGRAPHICS
 70
     0
  9
$MEASUREMENT
 70
     1
  9
$CELWEIGHT
370
     0
  9
$ENDCAPS
280
     0
  9
$JOINSTYLE
280
     0
  9
$LWDISPLAY
290
     0
  9
$INSUNITS
 70
     0
  9
$HYPERLINKBASE
  1

  9
$STYLESHEET
  1

  9
$XEDIT
290
     1
  9
$CEPSNTYPE
380
     0
  9
$PSTYLEMODE
290
     1
  9
$FINGERPRINTGUID
  2

  9
$VERSIONGUID
  2

  9
$EXTNAMES
290
     1
  9
$PSVPSCALE
 40
0.0
  0
ENDSEC
  0
SECTION
  2
CLASSES
  0
CLASS
  1
LWPOLYLINE
  2
AcDbPolyline
  3
AutoCAD 2000
 90
        0
280
     0
281
     1
  0
CLASS
  1
IMAGE
  2
AcDbRasterImage
  3
ISM
 90
      127
280
     0
281
     1
  0
CLASS
  1
OLE2FRAME
  2
AcDbOle2Frame
  3
AutoCAD 2000
 90
        0
280
     0
281
     1
  0
CLASS
  1
HATCH
  2
AcDbHatch
  3
AutoCAD 2000
 90
        0
280
     0
281
     1
  0
CLASS
  1
DICTIONARYVAR
  2
AcDbDictionaryVar
  3
AutoCAD 2000
 90
        0
280
     0
281
     0
  0
CLASS
  1
RASTERVARIABLES
  2
AcDbRasterVariables
  3
ISM
 90
        0
280
     0
281
     0
  0
CLASS
  1
IMAGEDEF
  2
AcDbRasterImageDef
  3
ISM
 90
        0
280
     0
281
     0
  0
CLASS
  1
IMAGEDEF_REACTOR
  2
AcDbRasterImageDefReactor
  3
ISM
 90
        1
280
     0
281
     0
  0
CLASS
  1
IDBUFFER
  2
AcDbIdBuffer
  3
AutoCAD 2000
 90
        0
280
     0
281
     0
  0
CLASS
  1
SPATIAL_FILTER
  2
AcDbSpatialFilter
  3
AutoCAD 2000
 90
        0
280
     0
281
     0
  0
CLASS
  1
XRECORD
  2
AcDbXrecord
  3
AutoCAD 2000
 90
        0
280
     0
281
     0
  0
CLASS
  1
SORTENTSTABLE
  2
AcDbSortentsTable
  3
AutoCAD 2000
 90
        0
280
     0
281
     0
  0
CLASS
  1
LAYER_INDEX
  2
AcDbLayerIndex
  3
AutoCAD 2000
 90
        0
280
     0
281
     0
  0
CLASS
  1
SPATIAL_INDEX
  2
AcDbSpatialIndex
  3
AutoCAD 2000
 90
        0
280
     0
281
     0
  0
CLASS
  1
OBJECT_PTR
  2
CAseDLPNTableRecord
  3
"ASE-LPNTableRecord"
 90
        1
280
     0
281
     0
  0
CLASS
  1
LAYOUT
  2
AcDbLayout
  3
AutoCAD 2000
 90
        0
280
     0
281
     0
  0
CLASS
  1
PLOTSETTINGS
  2
AcDbPlotSettings
  3
AutoCAD 2000
 90
        0
280
     0
281
     0
  0
CLASS
  1
ACDBDICTIONARYWDFLT
  2
AcDbDictionaryWithDefault
  3
AutoCAD 2000
 90
        0
280
     0
281
     0
  0
CLASS
  1
ACDBPLACEHOLDER
  2
AcDbPlaceHolder
  3
AutoCAD 2000
 90
        0
280
     0
281
     0
  0
ENDSEC
  0
SECTION
  2
TABLES
  0
TABLE
  2
VPORT
  5
7
100
AcDbSymbolTable
 70
     1
  0
VPORT
  5
15
100
AcDbSymbolTableRecord
100
AcDbViewportTableRecord
  2
*ACTIVE
 70
     0
 10
0.0
 20
0.0
 11
1.0
 21
1.0
 12
0.0
 22
0.0
 13
0.0
 23
0.0
 14
1.0
 24
1.0
 15
0.0
 25
0.0
 16
0.0
 26
0.0
 36
1.0
 17
0.0
 27
0.0
 37
0.0
 40
299.97
 41
1.732051
 42
50.0
 43
0.0
 44
0.0
 50
0.0
 51
0.0
 71
     0
 72
   100
 73
     1
 74
     1
 75
     0
 76
     0
 77
     0
 78
     0
281
     0
 65
     0
110
0.0
120
0.0
130
0.0
111
1.0
121
0.0
131
0.0
112
0.0
122
1.0
132
0.0
345
0
346
0
 79
     0
146
0.0
  0
ENDTAB
  0
TABLE
  2
LTYPE
  5
4
100
AcDbSymbolTable
 70
     5
  0
LTYPE
  5
11
100
AcDbSymbolTableRecord
100
AcDbLinetypeTableRecord
  2
BYBLOCK
 70
    64
  3

 72
    65
 73
     0
 40
0.0
  0
LTYPE
  5
12
100
AcDbSymbolTableRecord
100
AcDbLinetypeTableRecord
  2
BYLAYER
 70
    64
  3

 72
    65
 73
     0
 40
0.0
  0
LTYPE
  5
13
100
AcDbSymbolTableRecord
100
AcDbLinetypeTableRecord
  2
CONTINUOUS
 70
    64
  3
Solid line
 72
    65
 73
     0
 40
0.0
  0
LTYPE
  5
8E
100
AcDbSymbolTableRecord
100
AcDbLinetypeTableRecord
  2
CENTER
 70
    64
  3
Center ____ _ ____ _ ____ _ ____ _ ____ _ ____
 72
    65
 73
     4
 40
50.8
 49
31.75
 74
     0
 49
-6.35
 74
     0
 49
6.35
 74
     0
 49
-6.35
 74
     0
  0
LTYPE
  5
B5
100
AcDbSymbolTableRecord
100
AcDbLinetypeTableRecord
  2
NON_PLOTING
 70
     0
  3
Solid line
 72
    65
 73
     0
 40
0.0
  0
ENDTAB
  0
TABLE
  2
LAYER
  5
2
100
AcDbSymbolTable
 70
     4
  0
LAYER
  5
14
100
AcDbSymbolTableRecord
100
AcDbLayerTableRecord
  2
0
 70
     0
 62
     7
  6
CONTINUOUS
290
     1
370
    -3
390
1D
  0
LAYER
  5
23
100
AcDbSymbolTableRecord
100
AcDbLayerTableRecord
  2
DEFPOINTS
 70
     0
 62
     7
  6
CONTINUOUS
290
     0
370
    -3
390
1D
  0
LAYER
  5
24
100
AcDbSymbolTableRecord
100
AcDbLayerTableRecord
  2
CLASS1
 70
     0
 62
     7
  6
CONTINUOUS
290
     1
370
    -3
390
1D
  0
LAYER
  5
25
100
AcDbSymbolTableRecord
100
AcDbLayerTableRecord
  2
1_1
 70
     0
 62
     7
  6
CONTINUOUS
290
     1
370
    -3
390
1D
  0
ENDTAB
  0
TABLE
  2
STYLE
  5
3
100
AcDbSymbolTable
 70
     4
  0
STYLE
  5
17
100
AcDbSymbolTableRecord
100
AcDbTextStyleTableRecord
  2
MX_NOTE_STANDARD
 70
     0
 40
0.0
 41
1.0
 50
0.0
 71
     0
 42
2.5
  3
txt.shx
  4
extfont.shx
  0
STYLE
  5
D1
100
AcDbSymbolTableRecord
100
AcDbTextStyleTableRecord
  2
MX_DIMTXSTY_2
 70
     0
 40
0.0
 41
1.4
 50
0.0
 71
     0
 42
2.5
  3
txt.shx
  4
extfont.shx
  0
STYLE
  5
E1
100
AcDbSymbolTableRecord
100
AcDbTextStyleTableRecord
  2
MX_DIMTXSTY_3
 70
     0
 40
0.0
 41
1.15
 50
0.0
 71
     0
 42
2.5
  3
txt.shx
  4
extfont.shx
  0
STYLE
  5
102
100
AcDbSymbolTableRecord
100
AcDbTextStyleTableRecord
  2
MX_DIMTXSTY_4
 70
     0
 40
0.0
 41
1.25
 50
0.0
 71
     0
 42
2.5
  3
txt.shx
  4
extfont.shx
  0
ENDTAB
  0
TABLE
  2
VIEW
  5
5
100
AcDbSymbolTable
 70
     0
  0
ENDTAB
  0
TABLE
  2
UCS
  5
6
100
AcDbSymbolTable
 70
     0
  0
ENDTAB
  0
TABLE
  2
APPID
  5
8
100
AcDbSymbolTable
 70
     2
  0
APPID
  5
16
100
AcDbSymbolTableRecord
100
AcDbRegAppTableRecord
  2
ACAD
 70
     0
  0
APPID
  5
30
100
AcDbSymbolTableRecord
100
AcDbRegAppTableRecord
  2
CONTENTBLOCKDESCRIPTION
 70
     0
  0
ENDTAB
  0
TABLE
  2
DIMSTYLE
  5
9
100
AcDbSymbolTable
 70
     1
100
AcDbDimStyleTable
 71
     0
  0
DIMSTYLE
105
18
100
AcDbSymbolTableRecord
100
AcDbDimStyleTableRecord
  2
MXDIMSTYLE
 70
     0
  3

  4

 40
1.0
 41
2.5
 42
1.5
 43
3.75
 44
1.5
 45
0.0
 46
0.0
 47
0.0
 48
0.0
 71
     0
 72
     0
 73
     0
 74
     0
 75
     0
 76
     0
 77
     1
 78
     8
 79
     0
140
2.5
141
2.5
142
0.0
143
0.03937
144
1.0
145
0.0
146
1.0
147
1.0
148
0.0
170
     0
171
     4
172
     1
173
     1
174
     0
175
     0
176
     0
177
     0
178
     0
179
     0
271
     2
272
     2
273
     2
274
     4
275
     0
276
     0
277
     2
278
    46
279
     0
280
     0
281
     0
282
     0
283
     0
284
     0
285
     0
286
     0
288
     0
289
     3
340
17
341
26
342
0
343
26
344
26
371
    -2
372
    -2
  0
ENDTAB
  0
TABLE
  2
BLOCK_RECORD
  5
1
100
AcDbSymbolTable
 70
     7
  0
BLOCK_RECORD
  5
A
100
AcDbSymbolTableRecord
100
AcDbBlockTableRecord
  2
*MODEL_SPACE
340
20
  0
BLOCK_RECORD
  5
B
100
AcDbSymbolTableRecord
100
AcDbBlockTableRecord
  2
*PAPER_SPACE
340
21
  0
BLOCK_RECORD
  5
26
100
AcDbSymbolTableRecord
100
AcDbBlockTableRecord
  2
_OPEN30
340
0
102
{BLKREFS
331
CF
331
D0
331
DF
331
E0
331
F2
331
F3
331
100
331
101
102
}
  0
BLOCK_RECORD
  5
2F
100
AcDbSymbolTableRecord
100
AcDbBlockTableRecord
  2
$KAKUDAI-2
340
0
102
{BLKREFS
331
7F
102
}
1001
CONTENTBLOCKDESCRIPTION
1071
        0
1000
ICAD/MX UserSymbol^M^Jtable_name:KAKUDAI^M^Jsymbol_no.:  2
  0
BLOCK_RECORD
  5
80
100
AcDbSymbolTableRecord
100
AcDbBlockTableRecord
  2
$KAKUDAI-3
340
0
102
{BLKREFS
331
8D
102
}
1001
CONTENTBLOCKDESCRIPTION
1071
        0
1000
ICAD/MX UserSymbol^M^Jtable_name:KAKUDAI^M^Jsymbol_no.:  3
  0
BLOCK_RECORD
  5
CA
100
AcDbSymbolTableRecord
100
AcDbBlockTableRecord
  2
*D3
340
0
  0
BLOCK_RECORD
  5
DA
100
AcDbSymbolTableRecord
100
AcDbBlockTableRecord
  2
*D4
340
0
  0
BLOCK_RECORD
  5
ED
100
AcDbSymbolTableRecord
100
AcDbBlockTableRecord
  2
*D5
340
0
  0
BLOCK_RECORD
  5
FB
100
AcDbSymbolTableRecord
100
AcDbBlockTableRecord
  2
*D6
340
0
  0
ENDTAB
  0
ENDSEC
  0
SECTION
  2
BLOCKS
  0
BLOCK
  5
D
100
AcDbEntity
  8
0
390
0
100
AcDbBlockBegin
  2
*MODEL_SPACE
 70
     0
 10
0.0
 20
0.0
 30
0.0
  3
*MODEL_SPACE
  1

  0
ENDBLK
  5
E
100
AcDbEntity
  8
0
390
0
100
AcDbBlockEnd
  0
BLOCK
  5
F
100
AcDbEntity
 67
     1
  8
0
390
0
100
AcDbBlockBegin
  2
*PAPER_SPACE
 70
     0
 10
0.0
 20
0.0
 30
0.0
  3
*PAPER_SPACE
  1

  0
ENDBLK
  5
10
100
AcDbEntity
 67
     1
  8
0
390
0
100
AcDbBlockEnd
  0
BLOCK
  5
27
100
AcDbEntity
  8
0
370
    -2
390
0
  6
ByBlock
 62
     0
100
AcDbBlockBegin
  2
_OPEN30
 70
     2
 10
0.0
 20
0.0
 30
0.0
  3
_OPEN30
  1

  0
LINE
  5
28
100
AcDbEntity
  8
0
370
    -2
390
0
  6
ByBlock
 62
     0
100
AcDbLine
 10
-1.0
 20
0.267949
 30
0.0
 11
0.0
 21
0.0
 31
0.0
  0
LINE
  5
29
100
AcDbEntity
  8
0
370
    -2
390
0
  6
ByBlock
 62
     0
100
AcDbLine
 10
0.0
 20
0.0
 30
0.0
 11
-1.0
 21
-0.267949
 31
0.0
  0
LINE
  5
2A
100
AcDbEntity
  8
0
370
    -2
390
0
  6
ByBlock
 62
     0
100
AcDbLine
 10
0.0
 20
0.0
 30
0.0
 11
-1.0
 21
0.0
 31
0.0
  0
ENDBLK
  5
2B
100
AcDbEntity
  8
0
370
    -2
390
0
  6
ByBlock
 62
     0
100
AcDbBlockEnd
  0
BLOCK
  5
31
100
AcDbEntity
  8
0
370
    -2
390
0
  6
ByBlock
 62
     0
100
AcDbBlockBegin
  2
$KAKUDAI-2
 70
     0
 10
0.0
 20
0.0
 30
0.0
  3
$KAKUDAI-2
  1

  0
ARC
  5
32
100
AcDbEntity
  8
0
390
0
  6
CONTINUOUS
 62
     0
100
AcDbCircle
 10
29.31842
 20
1.863708
 30
0.0
 40
0.591628
100
AcDbArc
 50
270.000025
 51
354.40127
  0
ARC
  5
33
100
AcDbEntity
  8
0
390
0
  6
CONTINUOUS
 62
     0
100
AcDbCircle
 10
29.318405
 20
2.573524
 30
0.0
 40
0.591628
100
AcDbArc
 50
5.59873
 51
89.999982
  0
ARC
  5
34
100
AcDbEntity
  8
0
390
0
  6
CONTINUOUS
 62
     0
100
AcDbCircle
 10
25.69725
 20
2.218666
 30
0.0
 40
4.230142
100
AcDbArc
 50
354.401273
 51
5.598727
  0
ARC
  5
35
100
AcDbEntity
  8
0
390
0
  6
CONTINUOUS
 62
     0
100
AcDbCircle
 10
29.621689
 20
1.479218
 30
0.0
 40
1.479071
100
AcDbArc
 50
270.000025
 51
349.328068
  0
ARC
  5
36
100
AcDbEntity
  8
0
390
0
  6
CONTINUOUS
 62
     0
100
AcDbCircle
 10
29.621689
 20
2.958115
 30
0.0
 40
1.479071
100
AcDbArc
 50
10.671932
 51
89.999982
  0
ARC
  5
37
100
AcDbEntity
  8
0
390
0
  6
CONTINUOUS
 62
     0
100
AcDbCircle
 10
25.69725
 20
2.218666
 30
0.0
 40
5.472562
100
AcDbArc
 50
349.328068
 51
10.671932
  0
ARC
  5
38
100
AcDbEntity
  8
0
390
0
  6
CONTINUOUS
 62
     0
100
AcDbCircle
 10
22.88707
 20
1.622192
 30
0.0
 40
0.591628
100
AcDbArc
 50
276.999029
 51
0.0
  0
ARC
  5
39
100
AcDbEntity
  8
0
390
0
  6
CONTINUOUS
 62
     0
100
AcDbCircle
 10
21.112137
 20
1.622177
 30
0.0
 40
0.591628
100
AcDbArc
 50
179.999964
 51
263.000915
  0
ARC
  5
3A
100
AcDbEntity
  8
0
390
0
  6
CONTINUOUS
 62
     0
100
AcDbCircle
 10
21.999603
 20
8.85083
 30
0.0
 40
7.874568
100
AcDbArc
 50
263.000966
 51
276.999015
  0
ARC
  5
3B
100
AcDbEntity
  8
0
390
0
  6
CONTINUOUS
 62
     0
100
AcDbCircle
 10
23.271584
 20
1.28949
 30
0.0
 40
1.479071
100
AcDbArc
 50
279.549258
 51
0.0
  0
ARC
  5
3C
100
AcDbEntity
  8
0
390
0
  6
CONTINUOUS
 62
     0
100
AcDbCircle
 10
20.727631
 20
1.28949
 30
0.0
 40
1.479071
100
AcDbArc
 50
179.999964
 51
260.450713
  0
ARC
  5
3D
100
AcDbEntity
  8
0
390
0
  6
CONTINUOUS
 62
     0
100
AcDbCircle
 10
21.999603
 20
8.85083
 30
0.0
 40
9.146571
100
AcDbArc
 50
260.450737
 51
279.54923
  0
LINE
  5
3E
100
AcDbEntity
  8
0
390
0
  6
CONTINUOUS
 62
     0
100
AcDbLine
 10
39.999893
 20
4.437317
 30
0.0
 11
39.999893
 21
0.000015
 31
0.0
  0
LINE
  5
3F
100
AcDbEntity
  8
0
390
0
  6
CONTINUOUS
 62
     0
100
AcDbLine
 10
38.72789
 20
4.437317
 30
0.0
 11
38.72789
 21
0.000015
 31
0.0
  0
LINE
  5
40
100
AcDbEntity
  8
0
390
0
  6
CONTINUOUS
 62
     0
100
AcDbLine
 10
12.752607
 20
-0.000183
 30
0.0
 11
10.238149
 21
4.437112
 31
0.0
  0
LINE
  5
41
100
AcDbEntity
  8
0
390
0
  6
CONTINUOUS
 62
     0
100
AcDbLine
 10
11.290825
 20
0.0
 30
0.0
 11
12.752815
 21
0.0
 31
0.0
  0
LINE
  5
42
100
AcDbEntity
  8
0
390
0
  6
CONTINUOUS
 62
     0
100
AcDbLine
 10
11.290678
 20
-0.000035
 30
0.0
 11
10.871566
 21
0.739584
 31
0.0
  0
LINE
  5
43
100
AcDbEntity
  8
0
390
0
  6
CONTINUOUS
 62
     0
100
AcDbLine
 10
10.368869
 20
1.627127
 30
0.0
 11
9.328812
 21
3.462514
 31
0.0
  0
LINE
  5
44
100
AcDbEntity
  8
0
390
0
  6
CONTINUOUS
 62
     0
100
AcDbLine
 10
8.289557
 20
1.626387
 30
0.0
 11
9.329624
 21
3.46183
 31
0.0
  0
LINE
  5
45
100
AcDbEntity
  8
0
390
0
  6
CONTINUOUS
 62
     0
100
AcDbLine
 10
8.288605
 20
1.627098
 30
0.0
 11
10.368835
 21
1.627098
 31
0.0
  0
LINE
  5
46
100
AcDbEntity
  8
0
390
0
  6
CONTINUOUS
 62
     0
100
AcDbLine
 10
7.785843
 20
0.739464
 30
0.0
 11
10.871651
 21
0.739464
 31
0.0
  0
LINE
  5
47
100
AcDbEntity
  8
0
390
0
  6
CONTINUOUS
 62
     0
100
AcDbLine
 10
5.904288
 20
0.000176
 30
0.0
 11
8.41872
 21
4.437407
 31
0.0
  0
LINE
  5
48
100
AcDbEntity
  8
0
390
0
  6
CONTINUOUS
 62
     0
100
AcDbLine
 10
7.366972
 20
-0.000121
 30
0.0
 11
7.786036
 21
0.739421
 31
0.0
  0
LINE
  5
49
100
AcDbEntity
  8
0
390
0
  6
CONTINUOUS
 62
     0
100
AcDbLine
 10
5.904747
 20
0.0
 30
0.0
 11
7.366676
 21
0.0
 31
0.0
  0
LINE
  5
4A
100
AcDbEntity
  8
0
390
0
  6
CONTINUOUS
 62
     0
100
AcDbLine
 10
8.419144
 20
4.437302
 30
0.0
 11
10.238426
 21
4.437302
 31
0.0
  0
LINE
  5
4B
100
AcDbEntity
  8
0
390
0
  6
CONTINUOUS
 62
     0
100
AcDbLine
 10
26.821381
 20
3.16539
 30
0.0
 11
26.821381
 21
1.27224
 31
0.0
  0
LINE
  5
4C
100
AcDbEntity
  8
0
390
0
  6
CONTINUOUS
 62
     0
100
AcDbLine
 10
25.549355
 20
4.437317
 30
0.0
 11
25.549355
 21
0.000015
 31
0.0
  0
LINE
  5
4D
100
AcDbEntity
  8
0
390
0
  6
CONTINUOUS
 62
     0
100
AcDbLine
 10
26.821388
 20
3.1651
 30
0.0
 11
29.318481
 21
3.1651
 31
0.0
  0
LINE
  5
4E
100
AcDbEntity
  8
0
390
0
  6
CONTINUOUS
 62
     0
100
AcDbLine
 10
26.821388
 20
1.271919
 30
0.0
 11
29.318481
 21
1.271919
 31
0.0
  0
LINE
  5
4F
100
AcDbEntity
  8
0
390
0
  6
CONTINUOUS
 62
     0
100
AcDbLine
 10
38.727936
 20
0.000015
 30
0.0
 11
39.999947
 21
0.000015
 31
0.0
  0
LINE
  5
50
100
AcDbEntity
  8
0
390
0
  6
CONTINUOUS
 62
     0
100
AcDbLine
 10
38.727936
 20
4.437317
 30
0.0
 11
39.999947
 21
4.437317
 31
0.0
  0
LINE
  5
51
100
AcDbEntity
  8
0
390
0
  6
CONTINUOUS
 62
     0
100
AcDbLine
 10
23.478714
 20
4.437302
 30
0.0
 11
24.750725
 21
4.437302
 31
0.0
  0
LINE
  5
52
100
AcDbEntity
  8
0
390
0
  6
CONTINUOUS
 62
     0
100
AcDbLine
 10
25.549408
 20
4.437302
 30
0.0
 11
29.621742
 21
4.437302
 31
0.0
  0
LINE
  5
53
100
AcDbEntity
  8
0
390
0
  6
CONTINUOUS
 62
     0
100
AcDbLine
 10
24.750397
 20
4.437317
 30
0.0
 11
24.750397
 21
1.28949
 31
0.0
  0
LINE
  5
54
100
AcDbEntity
  8
0
390
0
  6
CONTINUOUS
 62
     0
100
AcDbLine
 10
23.478989
 20
4.437309
 30
0.0
 11
23.478989
 21
1.622185
 31
0.0
  0
LINE
  5
55
100
AcDbEntity
  8
0
390
0
  6
CONTINUOUS
 62
     0
100
AcDbLine
 10
19.248566
 20
4.437302
 30
0.0
 11
19.248566
 21
1.28949
 31
0.0
  0
LINE
  5
56
100
AcDbEntity
  8
0
390
0
  6
CONTINUOUS
 62
     0
100
AcDbLine
 10
20.5205
 20
4.437302
 30
0.0
 11
20.5205
 21
1.622192
 31
0.0
  0
LINE
  5
57
100
AcDbEntity
  8
0
390
0
  6
CONTINUOUS
 62
     0
100
AcDbLine
 10
3.786705
 20
4.437302
 30
0.0
 11
5.608849
 21
4.437302
 31
0.0
  0
LINE
  5
58
100
AcDbEntity
  8
0
390
0
  6
CONTINUOUS
 62
     0
100
AcDbLine
 10
3.228285
 20
2.219162
 30
0.0
 11
5.608237
 21
4.437769
 31
0.0
  0
LINE
  5
59
100
AcDbEntity
  8
0
390
0
  6
CONTINUOUS
 62
     0
100
AcDbLine
 10
3.228971
 20
2.218703
 30
0.0
 11
5.608881
 21
0.000134
 31
0.0
  0
LINE
  5
5A
100
AcDbEntity
  8
0
390
0
  6
CONTINUOUS
 62
     0
100
AcDbLine
 10
3.786705
 20
0.000015
 30
0.0
 11
5.608849
 21
0.000015
 31
0.0
  0
LINE
  5
5B
100
AcDbEntity
  8
0
390
0
  6
CONTINUOUS
 62
     0
100
AcDbLine
 10
2.041563
 20
1.627004
 30
0.0
 11
3.786919
 21
-0.000054
 31
0.0
  0
LINE
  5
5C
100
AcDbEntity
  8
0
390
0
  6
CONTINUOUS
 62
     0
100
AcDbLine
 10
1.242905
 20
1.627098
 30
0.0
 11
2.041748
 21
1.627098
 31
0.0
  0
LINE
  5
5D
100
AcDbEntity
  8
0
390
0
  6
CONTINUOUS
 62
     0
100
AcDbLine
 10
2.041729
 20
2.809854
 30
0.0
 11
3.78704
 21
4.436829
 31
0.0
  0
LINE
  5
5E
100
AcDbEntity
  8
0
390
0
  6
CONTINUOUS
 62
     0
100
AcDbLine
 10
1.242905
 20
2.810196
 30
0.0
 11
2.041748
 21
2.810196
 31
0.0
  0
LINE
  5
5F
100
AcDbEntity
  8
0
390
0
  6
CONTINUOUS
 62
     0
100
AcDbLine
 10
1.242874
 20
4.437302
 30
0.0
 11
1.242874
 21
2.810211
 31
0.0
  0
LINE
  5
60
100
AcDbEntity
  8
0
390
0
  6
CONTINUOUS
 62
     0
100
AcDbLine
 10
0.000366
 20
4.437302
 30
0.0
 11
1.242905
 21
4.437302
 31
0.0
  0
LINE
  5
61
100
AcDbEntity
  8
0
390
0
  6
CONTINUOUS
 62
     0
100
AcDbLine
 10
0.0
 20
4.437302
 30
0.0
 11
0.0
 21
0.000015
 31
0.0
  0
LINE
  5
62
100
AcDbEntity
  8
0
390
0
  6
CONTINUOUS
 62
     0
100
AcDbLine
 10
1.243866
 20
1.627106
 30
0.0
 11
1.243866
 21
0.0
 31
0.0
  0
LINE
  5
63
100
AcDbEntity
  8
0
390
0
  6
CONTINUOUS
 62
     0
100
AcDbLine
 10
0.000366
 20
0.0
 30
0.0
 11
1.242905
 21
0.0
 31
0.0
  0
LINE
  5
64
100
AcDbEntity
  8
0
390
0
  6
CONTINUOUS
 62
     0
100
AcDbLine
 10
25.549408
 20
0.000015
 30
0.0
 11
29.621742
 21
0.000015
 31
0.0
  0
LINE
  5
65
100
AcDbEntity
  8
0
390
0
  6
CONTINUOUS
 62
     0
100
AcDbLine
 10
19.248573
 20
4.437302
 30
0.0
 11
20.520576
 21
4.437302
 31
0.0
  0
LINE
  5
66
100
AcDbEntity
  8
0
390
0
  6
CONTINUOUS
 62
     0
100
AcDbLine
 10
36.674271
 20
0.000015
 30
0.0
 11
38.136307
 21
0.000015
 31
0.0
  0
LINE
  5
67
100
AcDbEntity
  8
0
390
0
  6
CONTINUOUS
 62
     0
100
AcDbLine
 10
31.288223
 20
0.0
 30
0.0
 11
32.750244
 21
0.0
 31
0.0
  0
LINE
  5
68
100
AcDbEntity
  8
0
390
0
  6
CONTINUOUS
 62
     0
100
AcDbLine
 10
33.802635
 20
4.437317
 30
0.0
 11
35.621895
 21
4.437317
 31
0.0
  0
LINE
  5
69
100
AcDbEntity
  8
0
390
0
  6
CONTINUOUS
 62
     0
100
AcDbLine
 10
16.834892
 20
4.437302
 30
0.0
 11
18.656952
 21
4.437302
 31
0.0
  0
LINE
  5
6A
100
AcDbEntity
  8
0
390
0
  6
CONTINUOUS
 62
     0
100
AcDbLine
 10
16.834892
 20
0.000015
 30
0.0
 11
18.656952
 21
0.000015
 31
0.0
  0
LINE
  5
6B
100
AcDbEntity
  8
0
390
0
  6
CONTINUOUS
 62
     0
100
AcDbLine
 10
14.29081
 20
1.627098
 30
0.0
 11
14.29081
 21
0.0
 31
0.0
  0
LINE
  5
6C
100
AcDbEntity
  8
0
390
0
  6
CONTINUOUS
 62
     0
100
AcDbLine
 10
38.136126
 20
0.000097
 30
0.0
 11
35.62175
 21
4.437263
 31
0.0
  0
LINE
  5
6D
100
AcDbEntity
  8
0
390
0
  6
CONTINUOUS
 62
     0
100
AcDbLine
 10
36.674036
 20
0.000002
 30
0.0
 11
36.254984
 21
0.739515
 31
0.0
  0
LINE
  5
6E
100
AcDbEntity
  8
0
390
0
  6
CONTINUOUS
 62
     0
100
AcDbLine
 10
35.752436
 20
1.626965
 30
0.0
 11
34.712341
 21
3.462418
 31
0.0
  0
LINE
  5
6F
100
AcDbEntity
  8
0
390
0
  6
CONTINUOUS
 62
     0
100
AcDbLine
 10
33.672051
 20
1.627072
 30
0.0
 11
34.712108
 21
3.462442
 31
0.0
  0
LINE
  5
70
100
AcDbEntity
  8
0
390
0
  6
CONTINUOUS
 62
     0
100
AcDbLine
 10
33.672188
 20
1.627083
 30
0.0
 11
35.752327
 21
1.627083
 31
0.0
  0
LINE
  5
71
100
AcDbEntity
  8
0
390
0
  6
CONTINUOUS
 62
     0
100
AcDbLine
 10
33.169319
 20
0.738998
 30
0.0
 11
36.255188
 21
0.738998
 31
0.0
  0
LINE
  5
72
100
AcDbEntity
  8
0
390
0
  6
CONTINUOUS
 62
     0
100
AcDbLine
 10
32.750442
 20
-0.000219
 30
0.0
 11
33.169532
 21
0.739348
 31
0.0
  0
LINE
  5
73
100
AcDbEntity
  8
0
390
0
  6
CONTINUOUS
 62
     0
100
AcDbLine
 10
31.287743
 20
0.000262
 30
0.0
 11
33.80215
 21
4.437459
 31
0.0
  0
LINE
  5
74
100
AcDbEntity
  8
0
390
0
  6
CONTINUOUS
 62
     0
100
AcDbLine
 10
16.277017
 20
2.218516
 30
0.0
 11
18.656834
 21
0.000049
 31
0.0
  0
LINE
  5
75
100
AcDbEntity
  8
0
390
0
  6
CONTINUOUS
 62
     0
100
AcDbLine
 10
15.089823
 20
1.626855
 30
0.0
 11
16.835171
 21
-0.000145
 31
0.0
  0
LINE
  5
76
100
AcDbEntity
  8
0
390
0
  6
CONTINUOUS
 62
     0
100
AcDbLine
 10
16.277186
 20
2.218402
 30
0.0
 11
18.657143
 21
4.437007
 31
0.0
  0
LINE
  5
77
100
AcDbEntity
  8
0
390
0
  6
CONTINUOUS
 62
     0
100
AcDbLine
 10
15.089013
 20
2.810919
 30
0.0
 11
16.834306
 21
4.437876
 31
0.0
  0
LINE
  5
78
100
AcDbEntity
  8
0
390
0
  6
CONTINUOUS
 62
     0
100
AcDbLine
 10
14.290756
 20
2.810212
 30
0.0
 11
15.089454
 21
2.810197
 31
0.0
  0
LINE
  5
79
100
AcDbEntity
  8
0
390
0
  6
CONTINUOUS
 62
     0
100
AcDbLine
 10
14.290886
 20
1.627098
 30
0.0
 11
15.089615
 21
1.627098
 31
0.0
  0
LINE
  5
7A
100
AcDbEntity
  8
0
390
0
  6
CONTINUOUS
 62
     0
100
AcDbLine
 10
14.29081
 20
4.437302
 30
0.0
 11
14.29081
 21
2.810196
 31
0.0
  0
LINE
  5
7B
100
AcDbEntity
  8
0
390
0
  6
CONTINUOUS
 62
     0
100
AcDbLine
 10
13.0485
 20
0.000015
 30
0.0
 11
14.290878
 21
0.000015
 31
0.0
  0
LINE
  5
7C
100
AcDbEntity
  8
0
390
0
  6
CONTINUOUS
 62
     0
100
AcDbLine
 10
13.048416
 20
4.437317
 30
0.0
 11
13.048416
 21
0.000015
 31
0.0
  0
LINE
  5
7D
100
AcDbEntity
  8
0
390
0
  6
CONTINUOUS
 62
     0
100
AcDbLine
 10
13.048546
 20
4.437316
 30
0.0
 11
14.290932
 21
4.437301
 31
0.0
  0
ENDBLK
  5
7E
100
AcDbEntity
  8
0
370
    -2
390
0
  6
ByBlock
 62
     0
100
AcDbBlockEnd
  0
BLOCK
  5
81
100
AcDbEntity
  8
0
370
    -2
390
0
  6
ByBlock
 62
     0
100
AcDbBlockBegin
  2
$KAKUDAI-3
 70
     0
 10
0.0
 20
0.0
 30
0.0
  3
$KAKUDAI-3
  1

  0
ARC
  5
82
100
AcDbEntity
  8
0
390
0
  6
CONTINUOUS
 62
     0
100
AcDbCircle
 10
0.0
 20
0.0
 30
0.0
 40
4.14
100
AcDbArc
 50
299.461315
 51
60.538685
  0
ARC
  5
83
100
AcDbEntity
  8
0
390
0
  6
CONTINUOUS
 62
     0
100
AcDbCircle
 10
0.0
 20
0.0
 30
0.0
 40
4.14
100
AcDbArc
 50
105.408581
 51
254.591422
  0
ARC
  5
84
100
AcDbEntity
  8
0
390
0
  6
CONTINUOUS
 62
     0
100
AcDbCircle
 10
0.0
 20
0.0
 30
0.0
 40
5.0
100
AcDbArc
 50
92.751257
 51
267.248746
  0
ARC
  5
85
100
AcDbEntity
  8
0
390
0
  6
CONTINUOUS
 62
     0
100
AcDbCircle
 10
0.0
 20
0.0
 30
0.0
 40
5.0
100
AcDbArc
 50
286.992764
 51
73.007236
  0
LINE
  5
86
100
AcDbEntity
  8
0
390
0
  6
CONTINUOUS
 62
     0
100
AcDbLine
 10
2.0362
 20
-3.604648
 30
0.0
 11
1.070337
 21
0.0
 31
0.0
  0
LINE
  5
87
100
AcDbEntity
  8
0
390
0
  6
CONTINUOUS
 62
     0
100
AcDbLine
 10
1.461255
 20
-4.781708
 30
0.0
 11
0.18
 21
0.0
 31
0.0
  0
LINE
  5
88
100
AcDbEntity
  8
0
390
0
  6
CONTINUOUS
 62
     0
100
AcDbLine
 10
1.070337
 20
0.0
 30
0.0
 11
2.0362
 21
3.604648
 31
0.0
  0
LINE
  5
89
100
AcDbEntity
  8
0
390
0
  6
CONTINUOUS
 62
     0
100
AcDbLine
 10
0.18
 20
0.0
 30
0.0
 11
1.461255
 21
4.781708
 31
0.0
  0
LINE
  5
8A
100
AcDbEntity
  8
0
390
0
  6
CONTINUOUS
 62
     0
100
AcDbLine
 10
-1.1
 20
3.99119
 30
0.0
 11
-1.1
 21
-3.99119
 31
0.0
  0
LINE
  5
8B
100
AcDbEntity
  8
0
390
0
  6
CONTINUOUS
 62
     0
100
AcDbLine
 10
-0.24
 20
4.994236
 30
0.0
 11
-0.24
 21
-4.994236
 31
0.0
  0
ENDBLK
  5
8C
100
AcDbEntity
  8
0
370
    -2
390
0
  6
ByBlock
 62
     0
100
AcDbBlockEnd
  0
BLOCK
  5
CB
100
AcDbEntity
  8
0
370
    -2
390
0
  6
ByBlock
 62
     0
100
AcDbBlockBegin
  2
*D3
 70
     1
 10
0.0
 20
0.0
 30
0.0
  3
*D3
  1

  0
LINE
  5
CC
100
AcDbEntity
  8
0
390
0
  6
CONTINUOUS
 62
   143
100
AcDbLine
 10
45.041423
 20
-13.265681
 30
0.0
 11
45.041423
 21
-43.265681
 31
0.0
  0
LINE
  5
CD
100
AcDbEntity
  8
0
390
0
  6
CONTINUOUS
 62
   143
100
AcDbLine
 10
1.499999
 20
-13.265681
 30
0.0
 11
46.541423
 21
-13.265681
 31
0.0
  0
LINE
  5
CE
100
AcDbEntity
  8
0
390
0
  6
CONTINUOUS
 62
   143
100
AcDbLine
 10
16.500001
 20
-43.265681
 30
0.0
 11
46.541423
 21
-43.265681
 31
0.0
  0
INSERT
  5
CF
100
AcDbEntity
  8
0
390
0
  6
CONTINUOUS
 62
   143
100
AcDbBlockReference
  2
_OPEN30
 10
45.041423
 20
-13.265681
 30
0.0
 41
2.77
 42
2.77
 43
2.77
 50
90.0
  0
INSERT
  5
D0
100
AcDbEntity
  8
0
390
0
  6
CONTINUOUS
 62
   143
100
AcDbBlockReference
  2
_OPEN30
 10
45.041423
 20
-43.265681
 30
0.0
 41
2.77
 42
2.77
 43
2.77
 50
270.0
  0
MTEXT
  5
D2
100
AcDbEntity
  8
0
390
0
  6
CONTINUOUS
 62
   143
100
AcDbMText
 10
42.791423
 20
-27.6907
 30
0.0
 40
2.5
 41
0.0
 71
     5
 72
     1
  1
\A1;(30.0)
  7
MX_DIMTXSTY_2
 11
0.0
 21
1.0
 31
0.0
 73
     1
 44
0.96
  0
POINT
  5
D3
100
AcDbEntity
  8
DEFPOINTS
390
0
  6
CONTINUOUS
 62
     0
100
AcDbPoint
 10
-0.000001
 20
-13.265681
 30
0.0
  0
POINT
  5
D4
100
AcDbEntity
  8
DEFPOINTS
390
0
  6
CONTINUOUS
 62
     0
100
AcDbPoint
 10
15.000001
 20
-43.265681
 30
0.0
  0
POINT
  5
D5
100
AcDbEntity
  8
DEFPOINTS
390
0
  6
CONTINUOUS
 62
     0
100
AcDbPoint
 10
45.041423
 20
-43.265681
 30
0.0
  0
ENDBLK
  5
D6
100
AcDbEntity
  8
0
370
    -2
390
0
  6
ByBlock
 62
     0
100
AcDbBlockEnd
  0
BLOCK
  5
DB
100
AcDbEntity
  8
0
370
    -2
390
0
  6
ByBlock
 62
     0
100
AcDbBlockBegin
  2
*D4
 70
     1
 10
0.0
 20
0.0
 30
0.0
  3
*D4
  1

  0
LINE
  5
DC
100
AcDbEntity
  8
0
390
0
  6
CONTINUOUS
 62
   143
100
AcDbLine
 10
17.0
 20
-63.645837
 30
0.0
 11
-17.0
 21
-63.645837
 31
0.0
  0
LINE
  5
DD
100
AcDbEntity
  8
0
390
0
  6
CONTINUOUS
 62
   143
100
AcDbLine
 10
17.0
 20
-36.503341
 30
0.0
 11
17.0
 21
-65.145837
 31
0.0
  0
LINE
  5
DE
100
AcDbEntity
  8
0
390
0
  6
CONTINUOUS
 62
   143
100
AcDbLine
 10
-17.0
 20
-36.503341
 30
0.0
 11
-17.0
 21
-65.145837
 31
0.0
  0
INSERT
  5
DF
100
AcDbEntity
  8
0
390
0
  6
CONTINUOUS
 62
   143
100
AcDbBlockReference
  2
_OPEN30
 10
17.0
 20
-63.645837
 30
0.0
 41
2.77
 42
2.77
 43
2.77
  0
INSERT
  5
E0
100
AcDbEntity
  8
0
390
0
  6
CONTINUOUS
 62
   143
100
AcDbBlockReference
  2
_OPEN30
 10
-17.0
 20
-63.645837
 30
0.0
 41
2.77
 42
2.77
 43
2.77
 50
180.0
  0
MTEXT
  5
E2
100
AcDbEntity
  8
0
390
0
  6
CONTINUOUS
 62
   143
100
AcDbMText
 10
0.0
 20
-61.395837
 30
0.0
 40
2.5
 41
0.0
 71
     5
 72
     1
  1
\A1;\U+220534.0
  7
MX_DIMTXSTY_3
 11
1.0
 21
0.0
 31
0.0
 73
     1
 44
0.96
  0
POINT
  5
E3
100
AcDbEntity
  8
DEFPOINTS
390
0
  6
CONTINUOUS
 62
     0
100
AcDbPoint
 10
17.0
 20
-35.003341
 30
0.0
  0
POINT
  5
E4
100
AcDbEntity
  8
DEFPOINTS
390
0
  6
CONTINUOUS
 62
     0
100
AcDbPoint
 10
-17.0
 20
-35.003341
 30
0.0
  0
POINT
  5
E5
100
AcDbEntity
  8
DEFPOINTS
390
0
  6
CONTINUOUS
 62
     0
100
AcDbPoint
 10
-17.0
 20
-63.645837
 30
0.0
  0
ENDBLK
  5
E6
100
AcDbEntity
  8
0
370
    -2
390
0
  6
ByBlock
 62
     0
100
AcDbBlockEnd
  0
BLOCK
  5
EE
100
AcDbEntity
  8
0
370
    -2
390
0
  6
ByBlock
 62
     0
100
AcDbBlockBegin
  2
*D5
 70
     1
 10
0.0
 20
0.0
 30
0.0
  3
*D5
  1

  0
LINE
  5
EF
100
AcDbEntity
  8
0
390
0
  6
CONTINUOUS
 62
   143
100
AcDbLine
 10
15.25
 20
-56.876002
 30
0.0
 11
-15.25
 21
-56.876002
 31
0.0
  0
LINE
  5
F0
100
AcDbEntity
  8
0
390
0
  6
CONTINUOUS
 62
   143
100
AcDbLine
 10
15.25
 20
-44.76568
 30
0.0
 11
15.25
 21
-58.376002
 31
0.0
  0
LINE
  5
F1
100
AcDbEntity
  8
0
390
0
  6
CONTINUOUS
 62
   143
100
AcDbLine
 10
-15.25
 20
-44.76568
 30
0.0
 11
-15.25
 21
-58.376002
 31
0.0
  0
INSERT
  5
F2
100
AcDbEntity
  8
0
390
0
  6
CONTINUOUS
 62
   143
100
AcDbBlockReference
  2
_OPEN30
 10
15.25
 20
-56.876002
 30
0.0
 41
2.77
 42
2.77
 43
2.77
  0
INSERT
  5
F3
100
AcDbEntity
  8
0
390
0
  6
CONTINUOUS
 62
   143
100
AcDbBlockReference
  2
_OPEN30
 10
-15.25
 20
-56.876002
 30
0.0
 41
2.77
 42
2.77
 43
2.77
 50
180.0
  0
MTEXT
  5
F4
100
AcDbEntity
  8
0
390
0
  6
CONTINUOUS
 62
   143
100
AcDbMText
 10
0.0
 20
-54.626002
 30
0.0
 40
2.5
 41
0.0
 71
     5
 72
     1
  1
\A1;\U+220530.5
  7
MX_DIMTXSTY_3
 11
1.0
 21
0.0
 31
0.0
 73
     1
 44
0.96
  0
POINT
  5
F5
100
AcDbEntity
  8
DEFPOINTS
390
0
  6
CONTINUOUS
 62
     0
100
AcDbPoint
 10
15.25
 20
-43.26568
 30
0.0
  0
POINT
  5
F6
100
AcDbEntity
  8
DEFPOINTS
390
0
  6
CONTINUOUS
 62
     0
100
AcDbPoint
 10
-15.25
 20
-43.26568
 30
0.0
  0
POINT
  5
F7
100
AcDbEntity
  8
DEFPOINTS
390
0
  6
CONTINUOUS
 62
     0
100
AcDbPoint
 10
-15.25
 20
-56.876002
 30
0.0
  0
ENDBLK
  5
F8
100
AcDbEntity
  8
0
370
    -2
390
0
  6
ByBlock
 62
     0
100
AcDbBlockEnd
  0
BLOCK
  5
FC
100
AcDbEntity
  8
0
370
    -2
390
0
  6
ByBlock
 62
     0
100
AcDbBlockBegin
  2
*D6
 70
     1
 10
0.0
 20
0.0
 30
0.0
  3
*D6
  1

  0
LINE
  5
FD
100
AcDbEntity
  8
0
390
0
  6
CONTINUOUS
 62
   143
100
AcDbLine
 10
-32.445
 20
0.778803
 30
0.0
 11
32.445
 21
0.778803
 31
0.0
  0
LINE
  5
FE
100
AcDbEntity
  8
0
390
0
  6
CONTINUOUS
 62
   143
100
AcDbLine
 10
-32.445
 20
-22.577518
 30
0.0
 11
-32.445
 21
2.278803
 31
0.0
  0
LINE
  5
FF
100
AcDbEntity
  8
0
390
0
  6
CONTINUOUS
 62
   143
100
AcDbLine
 10
32.445
 20
-22.577518
 30
0.0
 11
32.445
 21
2.278803
 31
0.0
  0
INSERT
  5
100
100
AcDbEntity
  8
0
390
0
  6
CONTINUOUS
 62
   143
100
AcDbBlockReference
  2
_OPEN30
 10
-32.445
 20
0.778803
 30
0.0
 41
2.77
 42
2.77
 43
2.77
 50
180.0
  0
INSERT
  5
101
100
AcDbEntity
  8
0
390
0
  6
CONTINUOUS
 62
   143
100
AcDbBlockReference
  2
_OPEN30
 10
32.445
 20
0.778803
 30
0.0
 41
2.77
 42
2.77
 43
2.77
  0
MTEXT
  5
103
100
AcDbEntity
  8
0
390
0
  6
CONTINUOUS
 62
   143
100
AcDbMText
 10
0.0
 20
3.028803
 30
0.0
 40
2.5
 41
0.0
 71
     5
 72
     1
  1
\A1;(\U+220565.0)
  7
MX_DIMTXSTY_4
 73
     1
 44
0.96
  0
POINT
  5
104
100
AcDbEntity
  8
DEFPOINTS
390
0
  6
CONTINUOUS
 62
     0
100
AcDbPoint
 10
-32.445
 20
-24.077518
 30
0.0
  0
POINT
  5
105
100
AcDbEntity
  8
DEFPOINTS
390
0
  6
CONTINUOUS
 62
     0
100
AcDbPoint
 10
32.445
 20
-24.077518
 30
0.0
  0
POINT
  5
106
100
AcDbEntity
  8
DEFPOINTS
390
0
  6
CONTINUOUS
 62
     0
100
AcDbPoint
 10
32.445
 20
0.778803
 30
0.0
  0
ENDBLK
  5
107
100
AcDbEntity
  8
0
370
    -2
390
0
  6
ByBlock
 62
     0
100
AcDbBlockEnd
  0
ENDSEC
  0
SECTION
  2
ENTITIES
  0
MTEXT
  5
2C
100
AcDbEntity
  8
CLASS1
390
0
  6
CONTINUOUS
 62
   143
100
AcDbMText
 10
18.56962
 20
-107.3
 30
0.0
 40
4.0
 41
0.0
 71
     7
 72
     1
  1
\W0.854430;\A1;※1　（　）内寸法は参考寸法である。
 73
     1
 44
0.96
  0
MTEXT
  5
2D
100
AcDbEntity
  8
CLASS1
390
0
  6
CONTINUOUS
 62
   143
100
AcDbMText
 10
-23.944444
 20
-126.0
 30
0.0
 40
4.0
 41
0.0
 71
     4
 72
     1
  1
\W0.833333;\A1;黒崎
 73
     1
 44
0.96
  0
MTEXT
  5
2E
100
AcDbEntity
  8
CLASS1
390
0
  6
CONTINUOUS
 62
   143
100
AcDbMText
 10
8.055556
 20
-126.0
 30
0.0
 40
4.0
 41
0.0
 71
     4
 72
     1
  1
\W0.833333;\A1;祝
 73
     1
 44
0.96
  0
INSERT
  5
7F
100
AcDbEntity
  8
CLASS1
390
0
  6
ByBlock
 62
   143
100
AcDbBlockReference
  2
$KAKUDAI-2
 10
-75.129906
 20
-134.630508
 30
0.0
  0
INSERT
  5
8D
100
AcDbEntity
  8
CLASS1
390
0
  6
ByBlock
 62
   143
100
AcDbBlockReference
  2
$KAKUDAI-3
 10
-84.340515
 20
-132.25
 30
0.0
  0
LINE
  5
8F
100
AcDbEntity
  8
CLASS1
390
0
  6
CENTER
 62
   140
100
AcDbLine
 10
-91.108955
 20
-119.75
 30
0.0
 11
-71.675331
 21
-119.75
 31
0.0
  0
LINE
  5
90
100
AcDbEntity
  8
CLASS1
390
0
  6
CENTER
 62
   140
100
AcDbLine
 10
-86.340515
 20
-114.676628
 30
0.0
 11
-86.340515
 21
-124.753326
 31
0.0
  0
LINE
  5
91
100
AcDbEntity
  8
CLASS1
390
0
  6
CONTINUOUS
 62
   130
100
AcDbLine
 10
-80.715515
 20
-117.875
 30
0.0
 11
-80.715515
 21
-121.624985
 31
0.0
  0
LINE
  5
92
100
AcDbEntity
  8
CLASS1
390
0
  6
CONTINUOUS
 62
   130
100
AcDbLine
 10
-73.215515
 20
-116.375
 30
0.0
 11
-73.215515
 21
-123.124985
 31
0.0
  0
LINE
  5
93
100
AcDbEntity
  8
CLASS1
390
0
  6
CONTINUOUS
 62
   130
100
AcDbLine
 10
-80.715524
 20
-117.875012
 30
0.0
 11
-73.215524
 21
-116.375012
 31
0.0
  0
LINE
  5
94
100
AcDbEntity
  8
CLASS1
390
0
  6
CONTINUOUS
 62
   130
100
AcDbLine
 10
-80.715521
 20
-121.625005
 30
0.0
 11
-73.215521
 21
-123.125005
 31
0.0
  0
LINE
  5
95
100
AcDbEntity
  8
CLASS1
390
0
  6
CONTINUOUS
 62
   130
100
AcDbLine
 10
-28.0
 20
-133.5
 30
0.0
 11
17.0
 21
-133.5
 31
0.0
  0
LINE
  5
96
100
AcDbEntity
  8
CLASS1
390
0
  6
CONTINUOUS
 62
   130
100
AcDbLine
 10
-28.0
 20
-118.5
 30
0.0
 11
17.0
 21
-118.5
 31
0.0
  0
LINE
  5
97
100
AcDbEntity
  8
CLASS1
390
0
  6
CONTINUOUS
 62
   130
100
AcDbLine
 10
-95.0
 20
-113.5
 30
0.0
 11
95.0
 21
-113.5
 31
0.0
  0
LINE
  5
98
100
AcDbEntity
  8
CLASS1
390
0
  6
CONTINUOUS
 62
   130
100
AcDbLine
 10
-95.0
 20
-126.0
 30
0.0
 11
-28.0
 21
-126.0
 31
0.0
  0
LINE
  5
99
100
AcDbEntity
  8
CLASS1
390
0
  6
CONTINUOUS
 62
   130
100
AcDbLine
 10
-48.0
 20
-113.5
 30
0.0
 11
-48.0
 21
-126.0
 31
0.0
  0
LINE
  5
9A
100
AcDbEntity
  8
CLASS1
390
0
  6
CONTINUOUS
 62
   130
100
AcDbLine
 10
-68.0
 20
-113.5
 30
0.0
 11
-68.0
 21
-126.0
 31
0.0
  0
LINE
  5
9B
100
AcDbEntity
  8
CLASS1
390
0
  6
CONTINUOUS
 62
   130
100
AcDbLine
 10
-43.0
 20
-113.5
 30
0.0
 11
-43.0
 21
-126.0
 31
0.0
  0
LINE
  5
9C
100
AcDbEntity
  8
CLASS1
390
0
  6
CONTINUOUS
 62
   130
100
AcDbLine
 10
-32.217645
 20
-117.014689
 30
0.0
 11
-39.920969
 21
-123.434125
 31
0.0
  0
LINE
  5
9D
100
AcDbEntity
  8
CLASS1
390
0
  6
CONTINUOUS
 62
   130
100
AcDbLine
 10
17.0
 20
-126.0
 30
0.0
 11
95.0
 21
-126.0
 31
0.0
  0
CIRCLE
  5
9E
100
AcDbEntity
  8
CLASS1
390
0
  6
CONTINUOUS
 62
   130
100
AcDbCircle
 10
-86.340515
 20
-119.75
 30
0.0
 40
3.375
  0
CIRCLE
  5
9F
100
AcDbEntity
  8
CLASS1
390
0
  6
CONTINUOUS
 62
   130
100
AcDbCircle
 10
-86.340515
 20
-119.75
 30
0.0
 40
1.875
  0
MTEXT
  5
A0
100
AcDbEntity
  8
CLASS1
390
0
  6
CONTINUOUS
 62
   140
100
AcDbMText
 10
4.121792
 20
-114.398474
 30
0.0
 40
3.2
 41
0.0
 71
     1
 72
     1
  1
\T0.958395;\W1.043411;\A1;承　認
 73
     1
 44
1.152
  0
MTEXT
  5
A1
100
AcDbEntity
  8
CLASS1
390
0
  6
CONTINUOUS
 62
   140
100
AcDbMText
 10
-25.878208
 20
-114.398474
 30
0.0
 40
3.2
 41
0.0
 71
     1
 72
     1
  1
\T0.958395;\W1.043411;\A1;製　図
 73
     1
 44
1.152
  0
MTEXT
  5
A2
100
AcDbEntity
  8
CLASS1
390
0
  6
CONTINUOUS
 62
   140
100
AcDbMText
 10
-10.878208
 20
-114.398474
 30
0.0
 40
3.2
 41
0.0
 71
     1
 72
     1
  1
\T0.958395;\W1.043411;\A1;検　図
 73
     1
 44
1.152
  0
MTEXT
  5
A3
100
AcDbEntity
  8
CLASS1
390
0
  6
CONTINUOUS
 62
   140
100
AcDbMText
 10
17.889511
 20
-115.09462
 30
0.0
 40
3.75
 41
0.0
 71
     1
 72
     1
  1
\T0.958395;\W1.043411;\A1;品
 73
     1
 44
1.152
  0
MTEXT
  5
A4
100
AcDbEntity
  8
CLASS1
390
0
  6
CONTINUOUS
 62
   140
100
AcDbMText
 10
17.889511
 20
-120.09462
 30
0.0
 40
3.75
 41
0.0
 71
     1
 72
     1
  1
\T0.958395;\W1.043411;\A1;番
 73
     1
 44
1.152
  0
MTEXT
  5
A5
100
AcDbEntity
  8
CLASS1
390
0
  6
CONTINUOUS
 62
   140
100
AcDbMText
 10
17.889511
 20
-127.59462
 30
0.0
 40
3.75
 41
0.0
 71
     1
 72
     1
  1
\T0.958395;\W1.043411;\A1;品
 73
     1
 44
1.152
  0
MTEXT
  5
A6
100
AcDbEntity
  8
CLASS1
390
0
  6
CONTINUOUS
 62
   140
100
AcDbMText
 10
-66.626118
 20
-117.951172
 30
0.0
 40
3.75
 41
0.0
 71
     1
 72
     1
  1
\T0.958395;\W1.043411;\A1;単位ｍｍ
 73
     1
 44
1.152
  0
MTEXT
  5
A7
100
AcDbEntity
  8
CLASS1
390
0
  6
CONTINUOUS
 62
   140
100
AcDbMText
 10
-47.110489
 20
-120.09462
 30
0.0
 40
3.75
 41
0.0
 71
     1
 72
     1
  1
\T0.958395;\W1.043411;\A1;度
 73
     1
 44
1.152
  0
MTEXT
  5
A8
100
AcDbEntity
  8
CLASS1
390
0
  6
CONTINUOUS
 62
   140
100
AcDbMText
 10
-47.110489
 20
-115.09462
 30
0.0
 40
3.75
 41
0.0
 71
     1
 72
     1
  1
\T0.958395;\W1.043411;\A1;尺
 73
     1
 44
1.152
  0
MTEXT
  5
A9
100
AcDbEntity
  8
CLASS1
390
0
  6
CONTINUOUS
 62
   143
100
AcDbMText
 10
-39.862743
 20
-115.332664
 30
0.0
 40
3.75
 41
0.0
 71
     1
 72
     1
  1
\T1.285821;\W1.399883;\A1;1
 73
     1
 44
1.152
  0
MTEXT
  5
AA
100
AcDbEntity
  8
CLASS1
390
0
  6
CONTINUOUS
 62
   143
100
AcDbMText
 10
-32.959413
 20
-120.569679
 30
0.0
 40
3.75
 41
0.0
 71
     1
 72
     1
  1
\T1.285821;\W1.399883;\A1;1
 73
     1
 44
1.152
  0
MTEXT
  5
AB
100
AcDbEntity
  8
CLASS1
390
0
  6
CONTINUOUS
 62
   140
100
AcDbMText
 10
17.889511
 20
-132.59462
 30
0.0
 40
3.75
 41
0.0
 71
     1
 72
     1
  1
\T0.958395;\W1.043411;\A1;名
 73
     1
 44
1.152
  0
LINE
  5
AC
100
AcDbEntity
  8
CLASS1
390
0
  6
CONTINUOUS
 62
   130
100
AcDbLine
 10
-28.0
 20
-113.5
 30
0.0
 11
-28.0
 21
-138.5
 31
0.0
  0
LINE
  5
AD
100
AcDbEntity
  8
CLASS1
390
0
  6
CONTINUOUS
 62
   130
100
AcDbLine
 10
22.0
 20
-113.5
 30
0.0
 11
22.0
 21
-138.5
 31
0.0
  0
LINE
  5
AE
100
AcDbEntity
  8
CLASS1
390
0
  6
CONTINUOUS
 62
   130
100
AcDbLine
 10
-13.0
 20
-113.5
 30
0.0
 11
-13.0
 21
-133.5
 31
0.0
  0
LINE
  5
AF
100
AcDbEntity
  8
CLASS1
390
0
  6
CONTINUOUS
 62
   130
100
AcDbLine
 10
2.0
 20
-113.5
 30
0.0
 11
2.0
 21
-133.5
 31
0.0
  0
LINE
  5
B0
100
AcDbEntity
  8
CLASS1
390
0
  6
CONTINUOUS
 62
   130
100
AcDbLine
 10
17.0
 20
-113.5
 30
0.0
 11
17.0
 21
-138.5
 31
0.0
  0
LINE
  5
B1
100
AcDbEntity
  8
CLASS1
390
0
  6
CONTINUOUS
 62
   130
100
AcDbLine
 10
-95.0
 20
-138.5
 30
0.0
 11
-95.0
 21
138.5
 31
0.0
  0
LINE
  5
B2
100
AcDbEntity
  8
CLASS1
390
0
  6
CONTINUOUS
 62
   130
100
AcDbLine
 10
-95.0
 20
138.5
 30
0.0
 11
95.0
 21
138.5
 31
0.0
  0
LINE
  5
B3
100
AcDbEntity
  8
CLASS1
390
0
  6
CONTINUOUS
 62
   130
100
AcDbLine
 10
95.0
 20
-138.5
 30
0.0
 11
95.0
 21
138.5
 31
0.0
  0
LINE
  5
B4
100
AcDbEntity
  8
CLASS1
390
0
  6
CONTINUOUS
 62
   130
100
AcDbLine
 10
-95.0
 20
-138.5
 30
0.0
 11
95.0
 21
-138.5
 31
0.0
  0
LINE
  5
B6
100
AcDbEntity
  8
DEFPOINTS
390
0
  6
NON_PLOTING
 62
   130
100
AcDbLine
 10
105.0
 20
-148.5
 30
0.0
 11
105.0
 21
148.5
 31
0.0
  0
LINE
  5
B7
100
AcDbEntity
  8
DEFPOINTS
390
0
  6
NON_PLOTING
 62
   130
100
AcDbLine
 10
-105.0
 20
-148.5
 30
0.0
 11
-105.0
 21
148.5
 31
0.0
  0
LINE
  5
B8
100
AcDbEntity
  8
DEFPOINTS
390
0
  6
NON_PLOTING
 62
   130
100
AcDbLine
 10
-105.0
 20
-148.5
 30
0.0
 11
105.0
 21
-148.5
 31
0.0
  0
LINE
  5
B9
100
AcDbEntity
  8
DEFPOINTS
390
0
  6
NON_PLOTING
 62
   130
100
AcDbLine
 10
-105.0
 20
148.5
 30
0.0
 11
105.0
 21
148.5
 31
0.0
  0
MTEXT
  5
BA
100
AcDbEntity
  8
CLASS1
390
0
  6
CONTINUOUS
 62
   143
100
AcDbMText
 10
-8.944444
 20
-126.0
 30
0.0
 40
4.0
 41
0.0
 71
     4
 72
     1
  1
\W0.833333;\A1;山田
 73
     1
 44
0.96
  0
MTEXT
  5
BB
100
AcDbEntity
  8
CLASS1
390
0
  6
CONTINUOUS
 62
   143
100
AcDbMText
 10
-26.485294
 20
-134.5
 30
0.0
 40
3.0
 41
0.0
 71
     1
 72
     1
  1
\W1.029412;\A1;2020年09月10日 作成
 73
     1
 44
0.96
  0
MTEXT
  5
BC
100
AcDbEntity
  8
CLASS1
390
0
  6
CONTINUOUS
 62
   143
100
AcDbMText
 10
90.416667
 20
-139.25
 30
0.0
 40
2.5
 41
0.0
 71
     1
 72
     1
  1
\A1;A4
 73
     1
 44
0.96
  0
MTEXT
  5
BD
100
AcDbEntity
  8
CLASS1
390
0
  6
CONTINUOUS
 62
   143
100
AcDbMText
 10
25.333333
 20
-117.25
 30
0.0
 40
5.0
 41
0.0
 71
     1
 72
     1
  1
\A1;433-138-W
 73
     1
 44
0.96
  0
MTEXT
  5
BE
100
AcDbEntity
  8
CLASS1
390
0
  6
CONTINUOUS
 62
   143
100
AcDbMText
 10
25.194444
 20
-129.75
 30
0.0
 40
5.0
 41
0.0
 71
     1
 72
     1
  1
\W0.833333;\A1;化粧キャップ
 73
     1
 44
0.96
  0
LINE
  5
BF
100
AcDbEntity
  8
1_1
390
0
  6
CONTINUOUS
 62
     3
100
AcDbLine
 10
-31.93
 20
-24.592518
 30
0.0
 11
31.93
 21
-24.592518
 31
0.0
  0
LINE
  5
C0
100
AcDbEntity
  8
1_1
390
0
  6
CONTINUOUS
 62
     3
100
AcDbLine
 10
32.445
 20
-24.077518
 30
0.0
 11
32.445
 21
-21.617063
 31
0.0
  0
LINE
  5
C1
100
AcDbEntity
  8
1_1
390
0
  6
CONTINUOUS
 62
     3
100
AcDbLine
 10
-32.445
 20
-21.766445
 30
0.0
 11
-32.445
 21
-24.077518
 31
0.0
  0
ARC
  5
C2
100
AcDbEntity
  8
1_1
390
0
  6
CONTINUOUS
 62
     3
100
AcDbCircle
 10
-31.93
 20
-24.077518
 30
0.0
 40
0.515
100
AcDbArc
 50
180.0
 51
270.0
  0
ARC
  5
C3
100
AcDbEntity
  8
1_1
390
0
  6
CONTINUOUS
 62
     3
100
AcDbCircle
 10
31.93
 20
-24.077518
 30
0.0
 40
0.515
100
AcDbArc
 50
270.0
 51
0.0
  0
ARC
  5
C4
100
AcDbEntity
  8
1_1
390
0
  6
CONTINUOUS
 62
     3
100
AcDbCircle
 10
0.189934
 20
-97.38698
 30
0.0
 40
84.01608
100
AcDbArc
 50
68.67663
 51
111.610903
  0
ARC
  5
C5
100
AcDbEntity
  8
1_1
390
0
  6
CONTINUOUS
 62
     3
100
AcDbCircle
 10
-29.767
 20
-21.766445
 30
0.0
 40
2.678
100
AcDbArc
 50
111.610903
 51
180.0
  0
ARC
  5
C6
100
AcDbEntity
  8
1_1
390
0
  6
CONTINUOUS
 62
     3
100
AcDbCircle
 10
29.767
 20
-21.617063
 30
0.0
 40
2.678
100
AcDbArc
 50
0.0
 51
68.67663
  0
LINE
  5
C7
100
AcDbEntity
  8
1_1
390
0
  6
CENTER
 62
   110
100
AcDbLine
 10
0.0
 20
-3.265681
 30
0.0
 11
0.0
 21
-53.265681
 31
0.0
  0
LINE
  5
C8
100
AcDbEntity
  8
1_1
390
0
  6
CENTER
 62
   110
100
AcDbLine
 10
0.0
 20
96.734319
 30
0.0
 11
0.0
 21
16.734319
 31
0.0
  0
LINE
  5
C9
100
AcDbEntity
  8
1_1
390
0
  6
CENTER
 62
   110
100
AcDbLine
 10
-40.0
 20
56.734319
 30
0.0
 11
40.0
 21
56.734319
 31
0.0
  0
DIMENSION
  5
D7
100
AcDbEntity
  8
1_1
390
0
  6
CONTINUOUS
 62
   143
100
AcDbDimension
  2
*D3
 10
45.041423
 20
-43.265681
 30
0.0
 11
45.041423
 21
-27.6907
 31
0.0
 70
   128
 71
     5
 72
     1
 41
0.96
 42
0.0
  1
\A1;(30.0)
  3
MXDIMSTYLE
100
AcDbAlignedDimension
 13
-0.000001
 23
-13.265681
 33
0.0
 14
15.000001
 24
-43.265681
 34
0.0
 50
90.0
100
AcDbRotatedDimension
1001
ACAD
1000
DSTYLE
1002
{
1070
    41
1040
2.77
1070
    78
1070
     0
1070
   271
1070
     1
1070
   340
1005
D1
1002
}
  0
LINE
  5
D8
100
AcDbEntity
  8
1_1
390
0
  6
CONTINUOUS
 62
     3
100
AcDbLine
 10
5.5
 20
-24.592518
 30
0.0
 11
5.5
 21
-33.765681
 31
0.0
  0
LINE
  5
D9
100
AcDbEntity
  8
1_1
390
0
  6
CONTINUOUS
 62
     3
100
AcDbLine
 10
-5.5
 20
-24.592518
 30
0.0
 11
-5.5
 21
-33.765681
 31
0.0
  0
DIMENSION
  5
E7
100
AcDbEntity
  8
1_1
390
0
  6
CONTINUOUS
 62
   143
100
AcDbDimension
  2
*D4
 10
-17.0
 20
-63.645837
 30
0.0
 11
0.0
 21
-63.645837
 31
0.0
 70
   128
 71
     5
 72
     1
 41
0.96
 42
34.0
  1
\A1;\U+2205<>
  3
MXDIMSTYLE
100
AcDbAlignedDimension
 13
17.0
 23
-35.003341
 33
0.0
 14
-17.0
 24
-35.003341
 34
0.0
100
AcDbRotatedDimension
1001
ACAD
1000
DSTYLE
1002
{
1070
    41
1040
2.77
1070
    78
1070
     0
1070
   271
1070
     1
1070
   340
1005
E1
1002
}
  0
LINE
  5
E8
100
AcDbEntity
  8
1_1
390
0
  6
CONTINUOUS
 62
     3
100
AcDbLine
 10
17.0
 20
-35.00334
 30
0.0
 11
-17.0
 21
-35.00334
 31
0.0
  0
LINE
  5
E9
100
AcDbEntity
  8
1_1
390
0
  6
CONTINUOUS
 62
     3
100
AcDbLine
 10
17.0
 20
-35.00334
 30
0.0
 11
17.0
 21
-33.765681
 31
0.0
  0
LINE
  5
EA
100
AcDbEntity
  8
1_1
390
0
  6
CONTINUOUS
 62
     3
100
AcDbLine
 10
-17.0
 20
-33.765681
 30
0.0
 11
-17.0
 21
-35.00334
 31
0.0
  0
LINE
  5
EB
100
AcDbEntity
  8
1_1
390
0
  6
CONTINUOUS
 62
     3
100
AcDbLine
 10
-5.5
 20
-33.765681
 30
0.0
 11
-17.0
 21
-33.765681
 31
0.0
  0
LINE
  5
EC
100
AcDbEntity
  8
1_1
390
0
  6
CONTINUOUS
 62
     3
100
AcDbLine
 10
5.5
 20
-33.765681
 30
0.0
 11
17.0
 21
-33.765681
 31
0.0
  0
DIMENSION
  5
F9
100
AcDbEntity
  8
1_1
390
0
  6
CONTINUOUS
 62
   143
100
AcDbDimension
  2
*D5
 10
-15.25
 20
-56.876002
 30
0.0
 11
0.0
 21
-56.876002
 31
0.0
 70
   128
 71
     5
 72
     1
 41
0.96
 42
30.5
  1
\A1;\U+2205<>
  3
MXDIMSTYLE
100
AcDbAlignedDimension
 13
15.25
 23
-43.26568
 33
0.0
 14
-15.25
 24
-43.26568
 34
0.0
100
AcDbRotatedDimension
1001
ACAD
1000
DSTYLE
1002
{
1070
    41
1040
2.77
1070
   271
1070
     1
1070
   284
1070
     8
1070
   340
1005
E1
1002
}
  0
CIRCLE
  5
FA
100
AcDbEntity
  8
1_1
390
0
  6
CONTINUOUS
 62
     3
100
AcDbCircle
 10
0.0
 20
56.734319
 30
0.0
 40
32.5
  0
DIMENSION
  5
108
100
AcDbEntity
  8
1_1
390
0
  6
CONTINUOUS
 62
   143
100
AcDbDimension
  2
*D6
 10
32.445
 20
0.778803
 30
0.0
 11
0.0
 21
0.778803
 31
0.0
 70
   128
 71
     5
 72
     1
 41
0.96
 42
0.0
  1
\A1;(\U+220565.0)
  3
MXDIMSTYLE
100
AcDbAlignedDimension
 13
-32.445
 23
-24.077518
 33
0.0
 14
32.445
 24
-24.077518
 34
0.0
100
AcDbRotatedDimension
1001
ACAD
1000
DSTYLE
1002
{
1070
    41
1040
2.77
1070
    78
1070
     0
1070
   271
1070
     1
1070
   340
1005
102
1002
}
  0
ARC
  5
109
100
AcDbEntity
  8
1_1
390
0
  6
CONTINUOUS
 62
     3
100
AcDbCircle
 10
-14.84481
 20
-42.782661
 30
0.0
 40
0.5
100
AcDbArc
 50
191.95876
 51
270.0
  0
LINE
  5
10A
100
AcDbEntity
  8
1_1
390
0
  6
CONTINUOUS
 62
     3
100
AcDbLine
 10
-17.0
 20
-35.02032
 30
0.0
 11
-15.333958
 21
-42.886265
 31
0.0
  0
LINE
  5
10B
100
AcDbEntity
  8
1_1
390
0
  6
CONTINUOUS
 62
     3
100
AcDbLine
 10
14.84481
 20
-43.282661
 30
0.0
 11
-14.84481
 21
-43.282661
 31
0.0
  0
ARC
  5
10C
100
AcDbEntity
  8
1_1
390
0
  6
CONTINUOUS
 62
     3
100
AcDbCircle
 10
14.84481
 20
-42.782661
 30
0.0
 40
0.5
100
AcDbArc
 50
270.0
 51
348.04124
  0
LINE
  5
10D
100
AcDbEntity
  8
1_1
390
0
  6
CONTINUOUS
 62
     3
100
AcDbLine
 10
15.333958
 20
-42.886265
 30
0.0
 11
17.0
 21
-35.02032
 31
0.0
  0
ENDSEC
  0
SECTION
  2
OBJECTS
  0
DICTIONARY
  5
19
100
AcDbDictionary
280
     0
281
     1
  3
ACAD_GROUP
350
1A
  3
ACAD_MLINESTYLE
350
1B
  3
ACAD_LAYOUT
350
1E
  3
ACAD_PLOTSETTINGS
350
22
  3
ACAD_PLOTSTYLENAME
350
1F
  0
DICTIONARY
  5
1A
102
{ACAD_REACTORS
330
19
102
}
100
AcDbDictionary
280
     0
281
     1
  0
DICTIONARY
  5
1B
102
{ACAD_REACTORS
330
19
102
}
100
AcDbDictionary
280
     0
281
     1
  3
Standard
350
1C
  0
MLINESTYLE
  5
1C
102
{ACAD_REACTORS
330
1B
102
}
100
AcDbMlineStyle
  2
Standard
 70
     0
  3

 62
     0
 51
90.0
 52
90.0
 71
     2
 49
0.5
 62
   256
  6
ByLayer
 49
-0.5
 62
   256
  6
ByLayer
  0
ACDBDICTIONARYWDFLT
  5
1F
102
{ACAD_REACTORS
330
19
102
}
100
AcDbDictionary
281
     1
  3
Normal
350
1D
100
AcDbDictionaryWithDefault
340
1D
  0
ACDBPLACEHOLDER
  5
1D
102
{ACAD_REACTORS
330
1F
102
}
  0
LAYOUT
  5
20
102
{ACAD_REACTORS
330
1E
102
}
100
AcDbPlotSettings
  1

  2

  4

  6

 40
0.0
 41
0.0
 42
0.0
 43
0.0
 44
0.0
 45
0.0
 46
0.0
 47
0.0
 48
0.0
 49
0.0
140
0.0
141
0.0
142
1.0
143
1.0
 70
  1024
 72
     0
 73
     0
 74
     0
  7

 75
     0
147
1.0
148
0.0
149
0.0
100
AcDbLayout
  1
Model
 70
     0
 71
     0
 10
0.0
 20
0.0
 11
0.0
 21
0.0
 12
0.0
 22
0.0
 32
0.0
 14
0.0
 24
0.0
 34
0.0
 15
0.0
 25
0.0
 35
0.0
146
0.0
 13
0.0
 23
0.0
 33
0.0
 16
0.0
 26
0.0
 36
0.0
 17
0.0
 27
0.0
 37
0.0
 76
     0
330
A
331
0
345
0
346
0
  0
LAYOUT
  5
21
102
{ACAD_REACTORS
330
1E
102
}
100
AcDbPlotSettings
  1

  2

  4

  6

 40
0.0
 41
0.0
 42
0.0
 43
0.0
 44
0.0
 45
0.0
 46
0.0
 47
0.0
 48
0.0
 49
0.0
140
0.0
141
0.0
142
1.0
143
1.0
 70
     0
 72
     0
 73
     0
 74
     0
  7

 75
     0
147
1.0
148
0.0
149
0.0
100
AcDbLayout
  1
Layout1
 70
     0
 71
     0
 10
0.0
 20
0.0
 11
0.0
 21
0.0
 12
0.0
 22
0.0
 32
0.0
 14
0.0
 24
0.0
 34
0.0
 15
0.0
 25
0.0
 35
0.0
146
0.0
 13
0.0
 23
0.0
 33
0.0
 16
0.0
 26
0.0
 36
0.0
 17
0.0
 27
0.0
 37
0.0
 76
     0
330
B
331
0
345
0
346
0
  0
DICTIONARY
  5
1E
102
{ACAD_REACTORS
330
19
102
}
100
AcDbDictionary
280
     0
281
     1
  3
Layout1
350
21
  3
Model
350
20
  0
DICTIONARY
  5
22
102
{ACAD_REACTORS
330
19
102
}
100
AcDbDictionary
280
     0
281
     1
  0
ENDSEC
  0
EOF
