  0
SECTION
  2
HEADER
  9
$ACADVER
  1
AC1015
  9
$ACADMAINTVER
 70
     6
  9
$DWGCODEPAGE
  3
DOS932
  9
$INSBASE
 10
0.0
 20
0.0
 30
0.0
  9
$EXTMIN
 10
0.0
 20
0.0
 30
0.0
  9
$EXTMAX
 10
594.0
 20
420.0
 30
0.0
  9
$LIMMIN
 10
0.0
 20
0.0
  9
$LIMMAX
 10
594.0
 20
420.0
  9
$ORTHOMODE
 70
     0
  9
$REGENMODE
 70
     1
  9
$FILLMODE
 70
     1
  9
$QTEXTMODE
 70
     0
  9
$MIRRTEXT
 70
     1
  9
$LTSCALE
 40
1.0
  9
$ATTMODE
 70
     1
  9
$TEXTSIZE
 40
3.8805555556
  9
$TRACEWID
 40
1.0
  9
$TEXTSTYLE
  7
Standard
  9
$CLAYER
  8
0
  9
$CELTYPE
  6
ByLayer
  9
$CECOLOR
 62
   256
  9
$CELTSCALE
 40
1.0
  9
$DISPSILH
 70
     0
  9
$DIMSCALE
 40
1.0
  9
$DIMASZ
 40
3.3348524306
  9
$DIMEXO
 40
1.0
  9
$DIMDLI
 40
3.75
  9
$DIMRND
 40
0.0
  9
$DIMDLE
 40
0.0
  9
$DIMEXE
 40
1.0
  9
$DIMTP
 40
0.0
  9
$DIMTM
 40
0.0
  9
$DIMTXT
 40
3.8805555556
  9
$DIMCEN
 40
2.5
  9
$DIMTSZ
 40
0.0
  9
$DIMTOL
 70
     0
  9
$DIMLIM
 70
     0
  9
$DIMTIH
 70
     1
  9
$DIMTOH
 70
     1
  9
$DIMSE1
 70
     0
  9
$DIMSE2
 70
     0
  9
$DIMTAD
 70
     1
  9
$DIMZIN
 70
     0
  9
$DIMBLK
  1

  9
$DIMASO
 70
     1
  9
$DIMSHO
 70
     1
  9
$DIMPOST
  1

  9
$DIMAPOST
  1

  9
$DIMALT
 70
     0
  9
$DIMALTD
 70
     3
  9
$DIMALTF
 40
0.0393700787
  9
$DIMLFAC
 40
2.0
  9
$DIMTOFL
 70
     1
  9
$DIMTVP
 40
0.0
  9
$DIMTIX
 70
     0
  9
$DIMSOXD
 70
     0
  9
$DIMSAH
 70
     0
  9
$DIMBLK1
  1

  9
$DIMBLK2
  1

  9
$DIMSTYLE
  2
ISO-25
  9
$DIMCLRD
 70
     0
  9
$DIMCLRE
 70
     0
  9
$DIMCLRT
 70
     0
  9
$DIMTFAC
 40
1.0
  9
$DIMGAP
 40
1.524
  9
$DIMJUST
 70
     0
  9
$DIMSD1
 70
     0
  9
$DIMSD2
 70
     0
  9
$DIMTOLJ
 70
     0
  9
$DIMTZIN
 70
     0
  9
$DIMALTZ
 70
     0
  9
$DIMALTTZ
 70
     0
  9
$DIMUPT
 70
     0
  9
$DIMDEC
 70
     1
  9
$DIMTDEC
 70
     1
  9
$DIMALTU
 70
     2
  9
$DIMALTTD
 70
     3
  9
$DIMTXSTY
  7
Standard
  9
$DIMAUNIT
 70
     0
  9
$DIMADEC
 70
     2
  9
$DIMALTRND
 40
0.0
  9
$DIMAZIN
 70
     0
  9
$DIMDSEP
 70
    44
  9
$DIMATFIT
 70
     3
  9
$DIMFRAC
 70
     0
  9
$DIMLDRBLK
  1

  9
$DIMLUNIT
 70
     2
  9
$DIMLWD
 70
    -2
  9
$DIMLWE
 70
    -2
  9
$DIMTMOVE
 70
     0
  9
$LUNITS
 70
     2
  9
$LUPREC
 70
     1
  9
$SKETCHINC
 40
1.0
  9
$FILLETRAD
 40
10.0
  9
$AUNITS
 70
     0
  9
$AUPREC
 70
     2
  9
$MENU
  1
.
  9
$ELEVATION
 40
0.0
  9
$PELEVATION
 40
0.0
  9
$THICKNESS
 40
0.0
  9
$LIMCHECK
 70
     0
  9
$CHAMFERA
 40
10.0
  9
$CHAMFERB
 40
10.0
  9
$CHAMFERC
 40
20.0
  9
$CHAMFERD
 40
0.0
  9
$SKPOLY
 70
     0
  9
$TDCREATE
 40
2456015.909194225
  9
$TDUCREATE
 40
2456015.534194225
  9
$TDUPDATE
 40
2456015.909194236
  9
$TDUUPDATE
 40
2456015.534194236
  9
$TDINDWG
 40
0.0000000116
  9
$TDUSRTIMER
 40
0.0000000116
  9
$USRTIMER
 70
     1
  9
$ANGBASE
 50
0.0
  9
$ANGDIR
 70
     0
  9
$PDMODE
 70
     0
  9
$PDSIZE
 40
-1.0
  9
$PLINEWID
 40
0.0
  9
$SPLFRAME
 70
     0
  9
$SPLINETYPE
 70
     6
  9
$SPLINESEGS
 70
     8
  9
$HANDSEED
  5
372
  9
$SURFTAB1
 70
     6
  9
$SURFTAB2
 70
     6
  9
$SURFTYPE
 70
     6
  9
$SURFU
 70
     6
  9
$SURFV
 70
     6
  9
$UCSBASE
  2

  9
$UCSNAME
  2

  9
$UCSORG
 10
0.0
 20
0.0
 30
0.0
  9
$UCSXDIR
 10
1.0
 20
0.0
 30
0.0
  9
$UCSYDIR
 10
0.0
 20
1.0
 30
0.0
  9
$UCSORTHOREF
  2

  9
$UCSORTHOVIEW
 70
     0
  9
$UCSORGTOP
 10
0.0
 20
0.0
 30
0.0
  9
$UCSORGBOTTOM
 10
0.0
 20
0.0
 30
0.0
  9
$UCSORGLEFT
 10
0.0
 20
0.0
 30
0.0
  9
$UCSORGRIGHT
 10
0.0
 20
0.0
 30
0.0
  9
$UCSORGFRONT
 10
0.0
 20
0.0
 30
0.0
  9
$UCSORGBACK
 10
0.0
 20
0.0
 30
0.0
  9
$PUCSBASE
  2

  9
$PUCSNAME
  2

  9
$PUCSORG
 10
0.0
 20
0.0
 30
0.0
  9
$PUCSXDIR
 10
1.0
 20
0.0
 30
0.0
  9
$PUCSYDIR
 10
0.0
 20
1.0
 30
0.0
  9
$PUCSORTHOREF
  2

  9
$PUCSORTHOVIEW
 70
     0
  9
$PUCSORGTOP
 10
0.0
 20
0.0
 30
0.0
  9
$PUCSORGBOTTOM
 10
0.0
 20
0.0
 30
0.0
  9
$PUCSORGLEFT
 10
0.0
 20
0.0
 30
0.0
  9
$PUCSORGRIGHT
 10
0.0
 20
0.0
 30
0.0
  9
$PUCSORGFRONT
 10
0.0
 20
0.0
 30
0.0
  9
$PUCSORGBACK
 10
0.0
 20
0.0
 30
0.0
  9
$USERI1
 70
     0
  9
$USERI2
 70
     0
  9
$USERI3
 70
     0
  9
$USERI4
 70
     0
  9
$USERI5
 70
     0
  9
$USERR1
 40
0.0
  9
$USERR2
 40
0.0
  9
$USERR3
 40
0.0
  9
$USERR4
 40
0.0
  9
$USERR5
 40
0.0
  9
$WORLDVIEW
 70
     1
  9
$SHADEDGE
 70
     3
  9
$SHADEDIF
 70
    70
  9
$TILEMODE
 70
     1
  9
$MAXACTVP
 70
    64
  9
$PINSBASE
 10
0.0
 20
0.0
 30
0.0
  9
$PLIMCHECK
 70
     0
  9
$PEXTMIN
 10
1.0000000000E+20
 20
1.0000000000E+20
 30
1.0000000000E+20
  9
$PEXTMAX
 10
-1.0000000000E+20
 20
-1.0000000000E+20
 30
-1.0000000000E+20
  9
$PLIMMIN
 10
0.0
 20
0.0
  9
$PLIMMAX
 10
420.0
 20
297.0
  9
$UNITMODE
 70
     0
  9
$VISRETAIN
 70
     1
  9
$PLINEGEN
 70
     0
  9
$PSLTSCALE
 70
     1
  9
$TREEDEPTH
 70
  3020
  9
$CMLSTYLE
  2
Standard
  9
$CMLJUST
 70
     0
  9
$CMLSCALE
 40
20.0
  9
$PROXYGRAPHICS
 70
     1
  9
$MEASUREMENT
 70
     1
  9
$CELWEIGHT
370
    -1
  9
$ENDCAPS
280
     0
  9
$JOINSTYLE
280
     0
  9
$LWDISPLAY
290
     1
  9
$INSUNITS
 70
     4
  9
$HYPERLINKBASE
  1

  9
$STYLESHEET
  1

  9
$XEDIT
290
     1
  9
$CEPSNTYPE
380
     0
  9
$PSTYLEMODE
290
     1
  9
$FINGERPRINTGUID
  2
{E72D6F3A-A250-42D5-BB2E-276731078868}
  9
$VERSIONGUID
  2
{FAEB1C32-E019-11D5-929B-00C0DF256EC4}
  9
$EXTNAMES
290
     1
  9
$PSVPSCALE
 40
0.0
  9
$OLESTARTUP
290
     0
  0
ENDSEC
  0
SECTION
  2
CLASSES
  0
CLASS
  1
ACDBDICTIONARYWDFLT
  2
AcDbDictionaryWithDefault
  3
ObjectDBX Classes
 90
        0
280
     0
281
     0
  0
CLASS
  1
VISUALSTYLE
  2
AcDbVisualStyle
  3
ObjectDBX Classes
 90
     4095
280
     0
281
     0
  0
CLASS
  1
MATERIAL
  2
AcDbMaterial
  3
ObjectDBX Classes
 90
     1153
280
     0
281
     0
  0
CLASS
  1
ACDBPLACEHOLDER
  2
AcDbPlaceHolder
  3
ObjectDBX Classes
 90
        0
280
     0
281
     0
  0
CLASS
  1
LAYOUT
  2
AcDbLayout
  3
ObjectDBX Classes
 90
        0
280
     0
281
     0
  0
ENDSEC
  0
SECTION
  2
TABLES
  0
TABLE
  2
VPORT
  5
8
330
0
100
AcDbSymbolTable
 70
     1
  0
VPORT
  5
29
330
8
100
AcDbSymbolTableRecord
100
AcDbViewportTableRecord
  2
*Active
 70
     0
 10
0.0
 20
0.0
 11
1.0
 21
1.0
 12
297.0
 22
210.0
 13
0.0
 23
0.0
 14
10.0
 24
10.0
 15
10.0
 25
10.0
 16
0.0
 26
0.0
 36
1.0
 17
0.0
 27
0.0
 37
0.0
 40
420.0
 41
1.4142857143
 42
50.0
 43
0.0
 44
0.0
 50
0.0
 51
0.0
 71
     0
 72
  2000
 73
     1
 74
     3
 75
     0
 76
     0
 77
     0
 78
     0
281
     0
 65
     1
110
0.0
120
0.0
130
0.0
111
1.0
121
0.0
131
0.0
112
0.0
122
1.0
132
0.0
 79
     0
146
0.0
  0
ENDTAB
  0
TABLE
  2
LTYPE
  5
5
330
0
100
AcDbSymbolTable
 70
     6
  0
LTYPE
  5
14
330
5
100
AcDbSymbolTableRecord
100
AcDbLinetypeTableRecord
  2
ByBlock
 70
     0
  3

 72
    65
 73
     0
 40
0.0
  0
LTYPE
  5
15
330
5
100
AcDbSymbolTableRecord
100
AcDbLinetypeTableRecord
  2
ByLayer
 70
     0
  3

 72
    65
 73
     0
 40
0.0
  0
LTYPE
  5
16
330
5
100
AcDbSymbolTableRecord
100
AcDbLinetypeTableRecord
  2
Continuous
 70
     0
  3
Solid line
 72
    65
 73
     0
 40
0.0
  0
LTYPE
  5
3F
330
5
100
AcDbSymbolTableRecord
100
AcDbLinetypeTableRecord
  2
HIDDEN
 70
     0
  3
Hidden __ __ __ __ __ __ __ __ __ __ __ __ __ __
 72
    65
 73
     2
 40
1.905
 49
1.27
 74
     0
 49
-0.635
 74
     0
  0
LTYPE
  5
40
330
5
100
AcDbSymbolTableRecord
100
AcDbLinetypeTableRecord
  2
PHANTOM
 70
     0
  3
Phantom ______  __  __  ______  __  __  ______
 72
    65
 73
     6
 40
12.7
 49
6.35
 74
     0
 49
-1.27
 74
     0
 49
1.27
 74
     0
 49
-1.27
 74
     0
 49
1.27
 74
     0
 49
-1.27
 74
     0
  0
LTYPE
  5
41
330
5
100
AcDbSymbolTableRecord
100
AcDbLinetypeTableRecord
  2
CENTER
 70
     0
  3
Center ____ _ ____ _ ____ _ ____ _ ____ _ ____
 72
    65
 73
     4
 40
10.16
 49
6.35
 74
     0
 49
-1.27
 74
     0
 49
1.27
 74
     0
 49
-1.27
 74
     0
  0
LTYPE
  5
42
330
5
100
AcDbSymbolTableRecord
100
AcDbLinetypeTableRecord
  2
CENTERX2
 70
     0
  3
Center (2x) ________  __  ________  __  _____
 72
    65
 73
     4
 40
20.32
 49
12.7
 74
     0
 49
-2.54
 74
     0
 49
2.54
 74
     0
 49
-2.54
 74
     0
  0
LTYPE
  5
43
330
5
100
AcDbSymbolTableRecord
100
AcDbLinetypeTableRecord
  2
DOT2
 70
     0
  3
Dot (.5x) ........................................
 72
    65
 73
     2
 40
0.635
 49
0.0
 74
     0
 49
-0.635
 74
     0
  0
ENDTAB
  0
TABLE
  2
LAYER
  5
2
330
0
100
AcDbSymbolTable
 70
     2
  0
LAYER
  5
10
330
2
100
AcDbSymbolTableRecord
100
AcDbLayerTableRecord
  2
0
 70
     0
 62
     7
  6
Continuous
370
    -3
390
F
  0
LAYER
  5
44
330
2
100
AcDbSymbolTableRecord
100
AcDbLayerTableRecord
  2
SLD-0
 70
     0
 62
   179
  6
Continuous
370
    -3
390
F
  0
ENDTAB
  0
TABLE
  2
STYLE
  5
3
330
0
100
AcDbSymbolTable
 70
     3
  0
STYLE
  5
11
330
3
100
AcDbSymbolTableRecord
100
AcDbTextStyleTableRecord
  2
Standard
 70
     0
 40
0.0
 41
1.0
 50
0.0
 71
     0
 42
2.5
  3
txt
  4
bigfont
  0
STYLE
  5
7F
330
3
100
AcDbSymbolTableRecord
100
AcDbTextStyleTableRecord
  2
SLDTEXTSTYLE0
 70
     0
 40
0.0
 41
0.7
 50
0.0
 71
     0
 42
0.2
  3
TXT
  4
bigfont
  0
STYLE
  5
85
330
3
100
AcDbSymbolTableRecord
100
AcDbTextStyleTableRecord
  2
SLDTEXTSTYLE1
 70
     0
 40
0.0
 41
0.4385966873
 50
0.0
 71
     0
 42
0.2
  3
TXT
  4
bigfont
  0
ENDTAB
  0
TABLE
  2
VIEW
  5
6
330
0
100
AcDbSymbolTable
 70
     0
  0
ENDTAB
  0
TABLE
  2
UCS
  5
7
330
0
100
AcDbSymbolTable
 70
     0
  0
ENDTAB
  0
TABLE
  2
APPID
  5
9
330
0
100
AcDbSymbolTable
 70
     1
  0
APPID
  5
12
330
9
100
AcDbSymbolTableRecord
100
AcDbRegAppTableRecord
  2
ACAD
 70
     0
  0
ENDTAB
  0
TABLE
  2
DIMSTYLE
  5
A
330
0
100
AcDbSymbolTable
 70
     3
100
AcDbDimStyleTable
  0
DIMSTYLE
105
27
330
A
100
AcDbSymbolTableRecord
100
AcDbDimStyleTableRecord
  2
ISO-25
 70
     0
 41
2.5
 42
0.625
 43
3.75
 44
1.25
 73
     0
 74
     0
 77
     1
 78
     8
140
2.5
141
2.5
143
0.0393700787
147
0.625
171
     3
172
     1
178
     0
271
     2
272
     2
274
     3
278
    44
283
     0
284
     8
340
11
  0
DIMSTYLE
105
F2
102
{ACAD_REACTORS
330
F1
330
10D
330
117
330
153
330
21B
330
225
330
22F
102
}
330
A
100
AcDbSymbolTableRecord
100
AcDbDimStyleTableRecord
  2
SLDDIMSTYLE0
 70
     0
 41
3.3348524306
 44
0.0
 45
0.000000001
 73
     0
 74
     0
 77
     3
 78
    12
 79
     3
140
3.3348524306
147
0.8337131076
173
     1
178
     0
271
     1
272
     1
276
     2
284
    12
340
7F
341
F3
343
F3
344
F3
  0
DIMSTYLE
105
103
102
{ACAD_REACTORS
330
102
102
}
330
A
100
AcDbSymbolTableRecord
100
AcDbDimStyleTableRecord
  2
SLDDIMSTYLE1
 70
     0
 41
3.3348524306
 44
0.0
 45
0.000000001
 73
     0
 74
     0
 77
     3
 78
    12
 79
     3
140
3.3348524306
147
0.8337131076
173
     1
178
     0
271
     0
272
     0
276
     2
284
    12
340
7F
341
F3
343
F3
344
F3
  0
ENDTAB
  0
TABLE
  2
BLOCK_RECORD
  5
1
330
0
100
AcDbSymbolTable
 70
    15
  0
BLOCK_RECORD
  5
1F
330
1
100
AcDbSymbolTableRecord
100
AcDbBlockTableRecord
  2
*Model_Space
340
22
  0
BLOCK_RECORD
  5
1B
330
1
100
AcDbSymbolTableRecord
100
AcDbBlockTableRecord
  2
*Paper_Space
340
1E
  0
BLOCK_RECORD
  5
23
330
1
100
AcDbSymbolTableRecord
100
AcDbBlockTableRecord
  2
*Paper_Space0
340
26
  0
BLOCK_RECORD
  5
8F
330
1
100
AcDbSymbolTableRecord
100
AcDbBlockTableRecord
  2
SW_NOTE_0
340
0
102
{BLKREFS
331
94
102
}
  0
BLOCK_RECORD
  5
A1
330
1
100
AcDbSymbolTableRecord
100
AcDbBlockTableRecord
  2
SW_NOTE_1
340
0
102
{BLKREFS
331
A6
102
}
  0
BLOCK_RECORD
  5
F3
330
1
100
AcDbSymbolTableRecord
100
AcDbBlockTableRecord
  2
_OPEN30
340
0
102
{BLKREFS
331
FC
331
FD
331
107
331
108
331
111
331
112
331
11B
331
11C
331
157
331
158
331
21F
331
220
331
229
331
22A
331
233
331
234
102
}
  0
BLOCK_RECORD
  5
F9
330
1
100
AcDbSymbolTableRecord
100
AcDbBlockTableRecord
  2
*D4
340
0
  0
BLOCK_RECORD
  5
104
330
1
100
AcDbSymbolTableRecord
100
AcDbBlockTableRecord
  2
*D5
340
0
  0
BLOCK_RECORD
  5
10E
330
1
100
AcDbSymbolTableRecord
100
AcDbBlockTableRecord
  2
*D6
340
0
  0
BLOCK_RECORD
  5
118
330
1
100
AcDbSymbolTableRecord
100
AcDbBlockTableRecord
  2
*D7
340
0
  0
BLOCK_RECORD
  5
154
330
1
100
AcDbSymbolTableRecord
100
AcDbBlockTableRecord
  2
*D8
340
0
  0
BLOCK_RECORD
  5
21C
330
1
100
AcDbSymbolTableRecord
100
AcDbBlockTableRecord
  2
*D9
340
0
  0
BLOCK_RECORD
  5
226
330
1
100
AcDbSymbolTableRecord
100
AcDbBlockTableRecord
  2
*D10
340
0
  0
BLOCK_RECORD
  5
230
330
1
100
AcDbSymbolTableRecord
100
AcDbBlockTableRecord
  2
*D11
340
0
  0
BLOCK_RECORD
  5
239
330
1
100
AcDbSymbolTableRecord
100
AcDbBlockTableRecord
  2
SW_CENTERMARKSYMBOL_0
340
0
102
{BLKREFS
331
244
102
}
  0
BLOCK_RECORD
  5
245
330
1
100
AcDbSymbolTableRecord
100
AcDbBlockTableRecord
  2
SW_CENTERMARKSYMBOL_1
340
0
102
{BLKREFS
331
250
102
}
  0
BLOCK_RECORD
  5
35E
330
1
100
AcDbSymbolTableRecord
100
AcDbBlockTableRecord
  2
SW_CENTERMARKSYMBOL_2
340
0
102
{BLKREFS
331
370
102
}
  0
ENDTAB
  0
ENDSEC
  0
SECTION
  2
BLOCKS
  0
BLOCK
  5
20
330
1F
100
AcDbEntity
  8
0
100
AcDbBlockBegin
  2
*Model_Space
 70
     0
 10
0.0
 20
0.0
 30
0.0
  3
*Model_Space
  1

  0
ENDBLK
  5
21
330
1F
100
AcDbEntity
  8
0
100
AcDbBlockEnd
  0
BLOCK
  5
1C
330
1B
100
AcDbEntity
 67
     1
  8
0
100
AcDbBlockBegin
  2
*Paper_Space
 70
     0
 10
0.0
 20
0.0
 30
0.0
  3
*Paper_Space
  1

  0
ENDBLK
  5
1D
330
1B
100
AcDbEntity
 67
     1
  8
0
100
AcDbBlockEnd
  0
BLOCK
  5
24
330
23
100
AcDbEntity
  8
0
100
AcDbBlockBegin
  2
*Paper_Space0
 70
     0
 10
0.0
 20
0.0
 30
0.0
  3
*Paper_Space0
  1

  0
ENDBLK
  5
25
330
23
100
AcDbEntity
  8
0
100
AcDbBlockEnd
  0
BLOCK
  5
90
330
8F
100
AcDbEntity
  8
0
100
AcDbBlockBegin
  2
SW_NOTE_0
 70
     0
 10
0.0
 20
0.0
 30
0.0
  3
SW_NOTE_0
  1

  0
MTEXT
  5
92
330
8F
100
AcDbEntity
  8
0
  6
Continuous
 62
     0
370
     0
100
AcDbMText
 10
1.7622188329
 20
6.4453386989
 30
0.0
 40
5.0
 41
0.0
 71
     2
 72
     1
  1
個
  7
SLDTEXTSTYLE1
 73
     1
 44
1.0
  0
MTEXT
  5
93
330
8F
100
AcDbEntity
  8
0
  6
Continuous
 62
     0
370
     0
100
AcDbMText
 10
1.7622188329
 20
0.6258941542
 30
0.0
 40
5.0
 41
0.0
 71
     2
 72
     1
  1
数
  7
SLDTEXTSTYLE1
 73
     1
 44
1.0
  0
ENDBLK
  5
91
330
8F
100
AcDbEntity
  8
0
100
AcDbBlockEnd
  0
BLOCK
  5
A2
330
A1
100
AcDbEntity
  8
0
100
AcDbBlockBegin
  2
SW_NOTE_1
 70
     0
 10
0.0
 20
0.0
 30
0.0
  3
SW_NOTE_1
  1

  0
MTEXT
  5
A4
330
A1
100
AcDbEntity
  8
0
  6
Continuous
 62
     0
370
     0
100
AcDbMText
 10
3.571875
 20
4.0927900738
 30
0.0
 40
3.175
 41
0.0
 71
     2
 72
     1
  1
通知
  7
SLDTEXTSTYLE0
 73
     1
 44
1.0
  0
MTEXT
  5
A5
330
A1
100
AcDbEntity
  8
0
  6
Continuous
 62
     0
370
     0
100
AcDbMText
 10
10.2526040643
 20
4.0927900738
 30
0.0
 40
3.175
 41
0.0
 71
     2
 72
     1
  1
書
  7
SLDTEXTSTYLE0
 73
     1
 44
1.0
  0
ENDBLK
  5
A3
330
A1
100
AcDbEntity
  8
0
100
AcDbBlockEnd
  0
BLOCK
  5
F4
330
F3
100
AcDbEntity
  8
0
100
AcDbBlockBegin
  2
_OPEN30
 70
     0
 10
0.0
 20
0.0
 30
0.0
  3
_OPEN30
  1

  0
LINE
  5
F6
330
F3
100
AcDbEntity
  8
0
  6
ByBlock
 62
     0
370
    -2
100
AcDbLine
 10
-1.0
 20
0.267949
 30
0.0
 11
0.0
 21
0.0
 31
0.0
  0
LINE
  5
F7
330
F3
100
AcDbEntity
  8
0
  6
ByBlock
 62
     0
370
    -2
100
AcDbLine
 10
0.0
 20
0.0
 30
0.0
 11
-1.0
 21
-0.267949
 31
0.0
  0
LINE
  5
F8
330
F3
100
AcDbEntity
  8
0
  6
ByBlock
 62
     0
370
    -2
100
AcDbLine
 10
0.0
 20
0.0
 30
0.0
 11
-1.0
 21
0.0
 31
0.0
  0
ENDBLK
  5
F5
330
F3
100
AcDbEntity
  8
0
100
AcDbBlockEnd
  0
BLOCK
  5
FA
330
F9
100
AcDbEntity
  8
0
100
AcDbBlockBegin
  2
*D4
 70
     1
 10
0.0
 20
0.0
 30
0.0
  3
*D4
  1

  0
INSERT
  5
FC
330
F9
100
AcDbEntity
  8
0
  6
Continuous
 62
     7
370
     0
100
AcDbBlockReference
  2
_OPEN30
 10
358.0808632776
 20
60.8740389919
 30
35.2657774808
 41
3.3348524306
 42
3.3348524306
 50
0.0
  0
INSERT
  5
FD
330
F9
100
AcDbEntity
  8
0
  6
Continuous
 62
     7
370
     0
100
AcDbBlockReference
  2
_OPEN30
 10
280.9189225005
 20
60.8740389919
 30
35.2657774808
 41
3.3348524306
 42
3.3348524306
 50
180.0
  0
LINE
  5
FE
330
F9
100
AcDbEntity
  8
0
  6
Continuous
 62
     7
370
     0
100
AcDbLine
 10
358.0808632776
 20
87.9652382074
 30
0.0
 11
358.0808632776
 21
59.8740389919
 31
0.0
  0
LINE
  5
FF
330
F9
100
AcDbEntity
  8
0
  6
Continuous
 62
     7
370
     0
100
AcDbLine
 10
280.9189225005
 20
78.6428255259
 30
0.0
 11
280.9189225005
 21
59.8740389919
 31
0.0
  0
LINE
  5
100
330
F9
100
AcDbEntity
  8
0
  6
Continuous
 62
     7
370
     0
100
AcDbLine
 10
358.0808632776
 20
60.8740389919
 30
0.0
 11
280.9189225005
 21
60.8740389919
 31
0.0
  0
MTEXT
  5
101
330
F9
100
AcDbEntity
  8
0
  6
Continuous
 62
     7
370
     0
100
AcDbMText
 10
315.0291692079
 20
64.6257632262
 30
35.2657774808
 40
2.9104166667
 41
0.0
 71
     1
 72
     1
  1
77.2
  7
SLDTEXTSTYLE0
 73
     1
 44
1.0
  0
ENDBLK
  5
FB
330
F9
100
AcDbEntity
  8
0
100
AcDbBlockEnd
  0
BLOCK
  5
105
330
104
100
AcDbEntity
  8
0
100
AcDbBlockBegin
  2
*D5
 70
     1
 10
0.0
 20
0.0
 30
0.0
  3
*D5
  1

  0
INSERT
  5
107
330
104
100
AcDbEntity
  8
0
  6
Continuous
 62
     7
370
     0
100
AcDbBlockReference
  2
_OPEN30
 10
384.3308632776
 20
88.9652382074
 30
35.2657774808
 41
3.3348524306
 42
3.3348524306
 50
270.0
  0
INSERT
  5
108
330
104
100
AcDbEntity
  8
0
  6
Continuous
 62
     7
370
     0
100
AcDbBlockReference
  2
_OPEN30
 10
384.3308632776
 20
118.7920331266
 30
35.2657774808
 41
3.3348524306
 42
3.3348524306
 50
90.0
  0
LINE
  5
109
330
104
100
AcDbEntity
  8
0
  6
Continuous
 62
     7
370
     0
100
AcDbLine
 10
359.0808632776
 20
88.9652382074
 30
0.0
 11
385.3308632776
 21
88.9652382074
 31
0.0
  0
LINE
  5
10A
330
104
100
AcDbEntity
  8
0
  6
Continuous
 62
     7
370
     0
100
AcDbLine
 10
359.3808632776
 20
118.7920331266
 30
0.0
 11
385.3308632776
 21
118.7920331266
 31
0.0
  0
LINE
  5
10B
330
104
100
AcDbEntity
  8
0
  6
Continuous
 62
     7
370
     0
100
AcDbLine
 10
384.3308632776
 20
88.9652382074
 30
0.0
 11
384.3308632776
 21
118.7920331266
 31
0.0
  0
MTEXT
  5
10C
330
104
100
AcDbEntity
  8
0
  6
Continuous
 62
     7
370
     0
100
AcDbMText
 10
380.5791390433
 20
100.7714962919
 30
35.2657774808
 40
2.9104166667
 41
0.0
 71
     1
 72
     1
  1
30
  7
SLDTEXTSTYLE0
 11
6.123233995736766E-17
 21
1.0
 31
0.0
 73
     1
 44
1.0
  0
ENDBLK
  5
106
330
104
100
AcDbEntity
  8
0
100
AcDbBlockEnd
  0
BLOCK
  5
10F
330
10E
100
AcDbEntity
  8
0
100
AcDbBlockBegin
  2
*D6
 70
     1
 10
0.0
 20
0.0
 30
0.0
  3
*D6
  1

  0
INSERT
  5
111
330
10E
100
AcDbEntity
  8
0
  6
Continuous
 62
     7
370
     0
100
AcDbBlockReference
  2
_OPEN30
 10
245.6537191173
 20
177.6251860788
 30
35.2657774808
 41
3.3348524306
 42
3.3348524306
 50
180.0
  0
INSERT
  5
112
330
10E
100
AcDbEntity
  8
0
  6
Continuous
 62
     7
370
     0
100
AcDbBlockReference
  2
_OPEN30
 10
358.3808632776
 20
177.6251860788
 30
35.2657774808
 41
3.3348524306
 42
3.3348524306
 50
0.0
  0
LINE
  5
113
330
10E
100
AcDbEntity
  8
0
  6
Continuous
 62
     7
370
     0
100
AcDbLine
 10
245.6537191173
 20
161.7333691482
 30
0.0
 11
245.6537191173
 21
178.6251860788
 31
0.0
  0
LINE
  5
114
330
10E
100
AcDbEntity
  8
0
  6
Continuous
 62
     7
370
     0
100
AcDbLine
 10
358.3808632776
 20
119.7920331266
 30
0.0
 11
358.3808632776
 21
178.6251860788
 31
0.0
  0
LINE
  5
115
330
10E
100
AcDbEntity
  8
0
  6
Continuous
 62
     7
370
     0
100
AcDbLine
 10
245.6537191173
 20
177.6251860788
 30
0.0
 11
358.3808632776
 21
177.6251860788
 31
0.0
  0
MTEXT
  5
116
330
10E
100
AcDbEntity
  8
0
  6
Continuous
 62
     7
370
     0
100
AcDbMText
 10
296.5764292794
 20
181.3769103131
 30
35.2657774808
 40
2.9104166667
 41
0.0
 71
     1
 72
     1
  1
112.7
  7
SLDTEXTSTYLE0
 73
     1
 44
1.0
  0
ENDBLK
  5
110
330
10E
100
AcDbEntity
  8
0
100
AcDbBlockEnd
  0
BLOCK
  5
119
330
118
100
AcDbEntity
  8
0
100
AcDbBlockBegin
  2
*D7
 70
     1
 10
0.0
 20
0.0
 30
0.0
  3
*D7
  1

  0
INSERT
  5
11B
330
118
100
AcDbEntity
  8
0
  6
Continuous
 62
     7
370
     0
100
AcDbBlockReference
  2
_OPEN30
 10
393.0333238341
 20
164.4621993274
 30
35.2657774808
 41
3.3348524306
 42
3.3348524306
 50
90.0
  0
INSERT
  5
11C
330
118
100
AcDbEntity
  8
0
  6
Continuous
 62
     7
370
     0
100
AcDbBlockReference
  2
_OPEN30
 10
393.0333238341
 20
88.9652382074
 30
35.2657774808
 41
3.3348524306
 42
3.3348524306
 50
270.0
  0
LINE
  5
11D
330
118
100
AcDbEntity
  8
0
  6
Continuous
 62
     7
370
     0
100
AcDbLine
 10
272.4474092837
 20
164.4621993274
 30
0.0
 11
394.0333238341
 21
164.4621993274
 31
0.0
  0
LINE
  5
11E
330
118
100
AcDbEntity
  8
0
  6
Continuous
 62
     7
370
     0
100
AcDbLine
 10
359.0808632776
 20
88.9652382074
 30
0.0
 11
394.0333238341
 21
88.9652382074
 31
0.0
  0
LINE
  5
11F
330
118
100
AcDbEntity
  8
0
  6
Continuous
 62
     7
370
     0
100
AcDbLine
 10
393.0333238341
 20
164.4621993274
 30
0.0
 11
393.0333238341
 21
88.9652382074
 31
0.0
  0
MTEXT
  5
120
330
118
100
AcDbEntity
  8
0
  6
Continuous
 62
     7
370
     0
100
AcDbMText
 10
389.2815995998
 20
122.2429950862
 30
35.2657774808
 40
2.9104166667
 41
0.0
 71
     1
 72
     1
  1
75.5
  7
SLDTEXTSTYLE0
 11
-7.044195017643634E-15
 21
1.0
 31
0.0
 73
     1
 44
1.0
  0
ENDBLK
  5
11A
330
118
100
AcDbEntity
  8
0
100
AcDbBlockEnd
  0
BLOCK
  5
155
330
154
100
AcDbEntity
  8
0
100
AcDbBlockBegin
  2
*D8
 70
     1
 10
0.0
 20
0.0
 30
0.0
  3
*D8
  1

  0
INSERT
  5
157
330
154
100
AcDbEntity
  8
0
  6
Continuous
 62
     7
370
     0
100
AcDbBlockReference
  2
_OPEN30
 10
204.1879373947
 20
236.5474466925
 30
0.1
 41
3.3348524306
 42
3.3348524306
 50
0.0
  0
INSERT
  5
158
330
154
100
AcDbEntity
  8
0
  6
Continuous
 62
     7
370
     0
100
AcDbBlockReference
  2
_OPEN30
 10
62.7098411655
 20
236.5474466925
 30
0.1
 41
3.3348524306
 42
3.3348524306
 50
180.0
  0
LINE
  5
159
330
154
100
AcDbEntity
  8
0
  6
Continuous
 62
     7
370
     0
100
AcDbLine
 10
204.1879373947
 20
298.2402812382
 30
0.0
 11
204.1879373947
 21
235.5474466925
 31
0.0
  0
LINE
  5
15A
330
154
100
AcDbEntity
  8
0
  6
Continuous
 62
     7
370
     0
100
AcDbLine
 10
62.7098411655
 20
298.304495887
 30
0.0
 11
62.7098411655
 21
235.5474466925
 31
0.0
  0
LINE
  5
15B
330
154
100
AcDbEntity
  8
0
  6
Continuous
 62
     7
370
     0
100
AcDbLine
 10
204.1879373947
 20
236.5474466925
 30
0.0
 11
62.7098411655
 21
236.5474466925
 31
0.0
  0
MTEXT
  5
15C
330
154
100
AcDbEntity
  8
0
  6
Continuous
 62
     7
370
     0
100
AcDbMText
 10
128.0080273621
 20
240.2991709268
 30
0.1
 40
2.9104166667
 41
0.0
 71
     1
 72
     1
  1
141.5
  7
SLDTEXTSTYLE0
 73
     1
 44
1.0
  0
ENDBLK
  5
156
330
154
100
AcDbEntity
  8
0
100
AcDbBlockEnd
  0
BLOCK
  5
21D
330
21C
100
AcDbEntity
  8
0
100
AcDbBlockBegin
  2
*D9
 70
     1
 10
0.0
 20
0.0
 30
0.0
  3
*D9
  1

  0
INSERT
  5
21F
330
21C
100
AcDbEntity
  8
0
  6
Continuous
 62
     7
370
     0
100
AcDbBlockReference
  2
_OPEN30
 10
55.7332271785
 20
60.3469627064
 30
0.1
 41
3.3348524306
 42
3.3348524306
 50
180.0
  0
INSERT
  5
220
330
21C
100
AcDbEntity
  8
0
  6
Continuous
 62
     7
370
     0
100
AcDbBlockReference
  2
_OPEN30
 10
204.4470817184
 20
60.3469627064
 30
0.1
 41
3.3348524306
 42
3.3348524306
 50
0.0
  0
LINE
  5
221
330
21C
100
AcDbEntity
  8
0
  6
Continuous
 62
     7
370
     0
100
AcDbLine
 10
55.7332271785
 20
94.6475463262
 30
0.0
 11
55.7332271785
 21
59.3469627064
 31
0.0
  0
LINE
  5
222
330
21C
100
AcDbEntity
  8
0
  6
Continuous
 62
     7
370
     0
100
AcDbLine
 10
204.4470817184
 20
87.1281069002
 30
0.0
 11
204.4470817184
 21
59.3469627064
 31
0.0
  0
LINE
  5
223
330
21C
100
AcDbEntity
  8
0
  6
Continuous
 62
     7
370
     0
100
AcDbLine
 10
55.7332271785
 20
60.3469627064
 30
0.0
 11
204.4470817184
 21
60.3469627064
 31
0.0
  0
MTEXT
  5
224
330
21C
100
AcDbEntity
  8
0
  6
Continuous
 62
     7
370
     0
100
AcDbMText
 10
124.6492925304
 20
64.0986869407
 30
0.1
 40
2.9104166667
 41
0.0
 71
     1
 72
     1
  1
148.7
  7
SLDTEXTSTYLE0
 73
     1
 44
1.0
  0
ENDBLK
  5
21E
330
21C
100
AcDbEntity
  8
0
100
AcDbBlockEnd
  0
BLOCK
  5
227
330
226
100
AcDbEntity
  8
0
100
AcDbBlockBegin
  2
*D10
 70
     1
 10
0.0
 20
0.0
 30
0.0
  3
*D10
  1

  0
INSERT
  5
229
330
226
100
AcDbEntity
  8
0
  6
Continuous
 62
     7
370
     0
100
AcDbBlockReference
  2
_OPEN30
 10
163.4470817184
 20
65.816622273
 30
-122.5535322548
 41
3.3348524306
 42
3.3348524306
 50
0.0
  0
INSERT
  5
22A
330
226
100
AcDbEntity
  8
0
  6
Continuous
 62
     7
370
     0
100
AcDbBlockReference
  2
_OPEN30
 10
103.4470817184
 20
65.816622273
 30
-122.5535322548
 41
3.3348524306
 42
3.3348524306
 50
180.0
  0
LINE
  5
22B
330
226
100
AcDbEntity
  8
0
  6
Continuous
 62
     7
370
     0
100
AcDbLine
 10
163.4470817184
 20
96.4652382074
 30
0.0
 11
163.4470817184
 21
64.816622273
 31
0.0
  0
LINE
  5
22C
330
226
100
AcDbEntity
  8
0
  6
Continuous
 62
     7
370
     0
100
AcDbLine
 10
103.4470817184
 20
96.4652382074
 30
0.0
 11
103.4470817184
 21
64.816622273
 31
0.0
  0
LINE
  5
22D
330
226
100
AcDbEntity
  8
0
  6
Continuous
 62
     7
370
     0
100
AcDbLine
 10
163.4470817184
 20
65.816622273
 30
0.0
 11
103.4470817184
 21
65.816622273
 31
0.0
  0
MTEXT
  5
22E
330
226
100
AcDbEntity
  8
0
  6
Continuous
 62
     7
370
     0
100
AcDbMText
 10
130.3399423433
 20
69.5683465073
 30
-122.5535322548
 40
2.9104166667
 41
0.0
 71
     1
 72
     1
  1
60
  7
SLDTEXTSTYLE0
 73
     1
 44
1.0
  0
ENDBLK
  5
228
330
226
100
AcDbEntity
  8
0
100
AcDbBlockEnd
  0
BLOCK
  5
231
330
230
100
AcDbEntity
  8
0
100
AcDbBlockBegin
  2
*D11
 70
     1
 10
0.0
 20
0.0
 30
0.0
  3
*D11
  1

  0
INSERT
  5
233
330
230
100
AcDbEntity
  8
0
  6
Continuous
 62
     7
370
     0
100
AcDbBlockReference
  2
_OPEN30
 10
118.4470817184
 20
70.9547873204
 30
-122.5535322548
 41
3.3348524306
 42
3.3348524306
 50
180.0
  0
INSERT
  5
234
330
230
100
AcDbEntity
  8
0
  6
Continuous
 62
     7
370
     0
100
AcDbBlockReference
  2
_OPEN30
 10
148.4470817184
 20
70.9547873204
 30
-122.5535322548
 41
3.3348524306
 42
3.3348524306
 50
0.0
  0
LINE
  5
235
330
230
100
AcDbEntity
  8
0
  6
Continuous
 62
     7
370
     0
100
AcDbLine
 10
118.4470817184
 20
96.4652382074
 30
0.0
 11
118.4470817184
 21
69.9547873204
 31
0.0
  0
LINE
  5
236
330
230
100
AcDbEntity
  8
0
  6
Continuous
 62
     7
370
     0
100
AcDbLine
 10
148.4470817184
 20
96.2152382074
 30
0.0
 11
148.4470817184
 21
69.9547873204
 31
0.0
  0
LINE
  5
237
330
230
100
AcDbEntity
  8
0
  6
Continuous
 62
     7
370
     0
100
AcDbLine
 10
118.4470817184
 20
70.9547873204
 30
0.0
 11
148.4470817184
 21
70.9547873204
 31
0.0
  0
MTEXT
  5
238
330
230
100
AcDbEntity
  8
0
  6
Continuous
 62
     7
370
     0
100
AcDbMText
 10
130.3399423433
 20
74.7065115547
 30
-122.5535322548
 40
2.9104166667
 41
0.0
 71
     1
 72
     1
  1
30
  7
SLDTEXTSTYLE0
 73
     1
 44
1.0
  0
ENDBLK
  5
232
330
230
100
AcDbEntity
  8
0
100
AcDbBlockEnd
  0
BLOCK
  5
23A
330
239
100
AcDbEntity
  8
0
100
AcDbBlockBegin
  2
SW_CENTERMARKSYMBOL_0
 70
     0
 10
0.0
 20
0.0
 30
0.0
  3
SW_CENTERMARKSYMBOL_0
  1

  0
LINE
  5
23C
330
239
100
AcDbEntity
  8
0
  6
Continuous
 62
     0
370
     0
100
AcDbLine
 10
0.0
 20
0.0
 30
0.0
 11
0.0
 21
2.5
 31
0.0
  0
LINE
  5
23D
330
239
100
AcDbEntity
  8
0
  6
Continuous
 62
     0
370
     0
100
AcDbLine
 10
0.0
 20
0.0
 30
0.0
 11
-2.5
 21
0.0
 31
0.0
  0
LINE
  5
23E
330
239
100
AcDbEntity
  8
0
  6
Continuous
 62
     0
370
     0
100
AcDbLine
 10
0.0
 20
0.0
 30
0.0
 11
0.0
 21
-2.5
 31
0.0
  0
LINE
  5
23F
330
239
100
AcDbEntity
  8
0
  6
Continuous
 62
     0
370
     0
100
AcDbLine
 10
0.0
 20
0.0
 30
0.0
 11
2.5
 21
0.0
 31
0.0
  0
LINE
  5
240
330
239
100
AcDbEntity
  8
0
  6
Continuous
 62
     0
370
     0
100
AcDbLine
 10
0.0
 20
5.0
 30
0.0
 11
0.0
 21
6.75
 31
0.0
  0
LINE
  5
241
330
239
100
AcDbEntity
  8
0
  6
Continuous
 62
     0
370
     0
100
AcDbLine
 10
-5.0
 20
0.0
 30
0.0
 11
-6.75
 21
0.0
 31
0.0
  0
LINE
  5
242
330
239
100
AcDbEntity
  8
0
  6
Continuous
 62
     0
370
     0
100
AcDbLine
 10
0.0
 20
-5.0
 30
0.0
 11
0.0
 21
-6.75
 31
0.0
  0
LINE
  5
243
330
239
100
AcDbEntity
  8
0
  6
Continuous
 62
     0
370
     0
100
AcDbLine
 10
5.0
 20
0.0
 30
0.0
 11
6.75
 21
0.0
 31
0.0
  0
ENDBLK
  5
23B
330
239
100
AcDbEntity
  8
0
100
AcDbBlockEnd
  0
BLOCK
  5
246
330
245
100
AcDbEntity
  8
0
100
AcDbBlockBegin
  2
SW_CENTERMARKSYMBOL_1
 70
     0
 10
0.0
 20
0.0
 30
0.0
  3
SW_CENTERMARKSYMBOL_1
  1

  0
LINE
  5
248
330
245
100
AcDbEntity
  8
0
  6
Continuous
 62
     0
370
     0
100
AcDbLine
 10
0.0
 20
0.0
 30
0.0
 11
0.0
 21
2.5
 31
0.0
  0
LINE
  5
249
330
245
100
AcDbEntity
  8
0
  6
Continuous
 62
     0
370
     0
100
AcDbLine
 10
0.0
 20
0.0
 30
0.0
 11
-2.5
 21
0.0
 31
0.0
  0
LINE
  5
24A
330
245
100
AcDbEntity
  8
0
  6
Continuous
 62
     0
370
     0
100
AcDbLine
 10
0.0
 20
0.0
 30
0.0
 11
0.0
 21
-2.5
 31
0.0
  0
LINE
  5
24B
330
245
100
AcDbEntity
  8
0
  6
Continuous
 62
     0
370
     0
100
AcDbLine
 10
0.0
 20
0.0
 30
0.0
 11
2.5
 21
0.0
 31
0.0
  0
LINE
  5
24C
330
245
100
AcDbEntity
  8
0
  6
Continuous
 62
     0
370
     0
100
AcDbLine
 10
0.0
 20
5.0
 30
0.0
 11
0.0
 21
6.5
 31
0.0
  0
LINE
  5
24D
330
245
100
AcDbEntity
  8
0
  6
Continuous
 62
     0
370
     0
100
AcDbLine
 10
-5.0
 20
0.0
 30
0.0
 11
-6.5
 21
0.0
 31
0.0
  0
LINE
  5
24E
330
245
100
AcDbEntity
  8
0
  6
Continuous
 62
     0
370
     0
100
AcDbLine
 10
0.0
 20
-5.0
 30
0.0
 11
0.0
 21
-6.5
 31
0.0
  0
LINE
  5
24F
330
245
100
AcDbEntity
  8
0
  6
Continuous
 62
     0
370
     0
100
AcDbLine
 10
5.0
 20
0.0
 30
0.0
 11
6.5
 21
0.0
 31
0.0
  0
ENDBLK
  5
247
330
245
100
AcDbEntity
  8
0
100
AcDbBlockEnd
  0
BLOCK
  5
35F
330
35E
100
AcDbEntity
  8
0
100
AcDbBlockBegin
  2
SW_CENTERMARKSYMBOL_2
 70
     0
 10
0.0
 20
0.0
 30
0.0
  3
SW_CENTERMARKSYMBOL_2
  1

  0
LINE
  5
361
330
35E
100
AcDbEntity
  8
0
  6
Continuous
 62
     0
370
     0
100
AcDbLine
 10
0.0
 20
0.0
 30
0.0
 11
0.0
 21
2.5
 31
0.0
  0
LINE
  5
362
330
35E
100
AcDbEntity
  8
0
  6
Continuous
 62
     0
370
     0
100
AcDbLine
 10
0.0
 20
0.0
 30
0.0
 11
-2.5
 21
0.0
 31
0.0
  0
LINE
  5
363
330
35E
100
AcDbEntity
  8
0
  6
Continuous
 62
     0
370
     0
100
AcDbLine
 10
0.0
 20
0.0
 30
0.0
 11
0.0
 21
-2.5
 31
0.0
  0
LINE
  5
364
330
35E
100
AcDbEntity
  8
0
  6
Continuous
 62
     0
370
     0
100
AcDbLine
 10
0.0
 20
0.0
 30
0.0
 11
2.5
 21
0.0
 31
0.0
  0
LINE
  5
365
330
35E
100
AcDbEntity
  8
0
  6
Continuous
 62
     0
370
     0
100
AcDbLine
 10
0.0
 20
2.5
 30
0.0
 11
0.0
 21
4.75
 31
0.0
  0
LINE
  5
366
330
35E
100
AcDbEntity
  8
0
  6
Continuous
 62
     0
370
     0
100
AcDbLine
 10
-2.5
 20
0.0
 30
0.0
 11
-17.3942599725
 21
0.0
 31
0.0
  0
LINE
  5
367
330
35E
100
AcDbEntity
  8
0
  6
Continuous
 62
     0
370
     0
100
AcDbLine
 10
0.0
 20
-2.5
 30
0.0
 11
0.0
 21
-4.75
 31
0.0
  0
LINE
  5
368
330
35E
100
AcDbEntity
  8
0
  6
Continuous
 62
     0
370
     0
100
AcDbLine
 10
30.0
 20
0.0
 30
0.0
 11
30.0
 21
2.5
 31
0.0
  0
LINE
  5
369
330
35E
100
AcDbEntity
  8
0
  6
Continuous
 62
     0
370
     0
100
AcDbLine
 10
30.0
 20
0.0
 30
0.0
 11
27.5
 21
0.0
 31
0.0
  0
LINE
  5
36A
330
35E
100
AcDbEntity
  8
0
  6
Continuous
 62
     0
370
     0
100
AcDbLine
 10
30.0
 20
0.0
 30
0.0
 11
30.0
 21
-2.5
 31
0.0
  0
LINE
  5
36B
330
35E
100
AcDbEntity
  8
0
  6
Continuous
 62
     0
370
     0
100
AcDbLine
 10
30.0
 20
0.0
 30
0.0
 11
32.5
 21
0.0
 31
0.0
  0
LINE
  5
36C
330
35E
100
AcDbEntity
  8
0
  6
Continuous
 62
     0
370
     0
100
AcDbLine
 10
30.0
 20
2.5
 30
0.0
 11
30.0
 21
4.5
 31
0.0
  0
LINE
  5
36D
330
35E
100
AcDbEntity
  8
0
  6
Continuous
 62
     0
370
     0
100
AcDbLine
 10
30.0
 20
-2.5
 30
0.0
 11
30.0
 21
-4.5
 31
0.0
  0
LINE
  5
36E
330
35E
100
AcDbEntity
  8
0
  6
Continuous
 62
     0
370
     0
100
AcDbLine
 10
32.5
 20
0.0
 30
0.0
 11
48.1241567182
 21
0.0
 31
0.0
  0
LINE
  5
36F
330
35E
100
AcDbEntity
  8
0
  6
CENTERX2
 62
     0
370
     0
100
AcDbLine
 10
5.0
 20
0.0
 30
0.0
 11
25.0
 21
0.0
 31
0.0
  0
ENDBLK
  5
360
330
35E
100
AcDbEntity
  8
0
100
AcDbBlockEnd
  0
ENDSEC
  0
SECTION
  2
ENTITIES
  0
HATCH
  5
45
330
1F
100
AcDbEntity
  8
0
  6
Continuous
 62
     7
100
AcDbHatch
 10
0.0
 20
0.0
 30
0.0
210
0.0
220
0.0
230
1.0
  2
SOLID
 70
     1
 71
     0
 91
        1
 92
        0
 93
       14
 72
     1
 10
510.3858167478193
 20
41.7197415390888
 11
507.8131108326068
 21
41.7197415390888
 72
     1
 10
507.8131108326068
 20
41.7197415390888
 11
507.8131108326068
 21
33.03685909852177
 72
     1
 10
507.8131108326068
 20
33.03685909852177
 11
514.4056697985282
 21
33.03685909852177
 72
     1
 10
514.4056697985282
 20
33.03685909852177
 11
514.4056697985282
 21
34.64480031880527
 72
     1
 10
514.4056697985282
 20
34.64480031880527
 11
518.7471108326067
 21
34.64480031880527
 72
     1
 10
518.7471108326067
 20
34.64480031880527
 11
518.7471108326067
 21
41.71974153908999
 72
     1
 10
518.7471108326067
 20
41.71974153908999
 11
516.1744049173939
 21
41.71974153908999
 72
     1
 10
516.1744049173939
 20
41.71974153908999
 11
516.1744049173939
 21
35.93115299710542
 72
     1
 10
516.1744049173939
 20
35.93115299710542
 11
514.4056697985279
 21
35.93115299710542
 72
     1
 10
514.4056697985279
 20
35.93115299710542
 11
514.4056697985279
 21
41.71974153908947
 72
     1
 10
514.4056697985279
 20
41.71974153908947
 11
512.1545521459926
 21
41.71974153908947
 72
     1
 10
512.1545521459926
 20
41.71974153908947
 11
512.1545521459926
 21
34.64480031880567
 72
     1
 10
512.1545521459926
 20
34.64480031880567
 11
510.3858167478193
 21
34.64480031880567
 72
     1
 10
510.3858167478193
 20
34.64480031880567
 11
510.3858167478193
 21
41.7197415390888
 97
        0
 75
     0
 76
     1
 98
        1
 10
0.0
 20
0.0
  0
LINE
  5
46
330
1F
100
AcDbEntity
  8
0
  6
Continuous
 62
     7
370
     0
100
AcDbLine
 10
514.4056697985
 20
41.7197415391
 30
0.0
 11
512.154552146
 21
41.7197415391
 31
0.0
  0
LINE
  5
47
330
1F
100
AcDbEntity
  8
0
  6
Continuous
 62
     7
370
     0
100
AcDbLine
 10
514.4056697985
 20
41.7197415391
 30
0.0
 11
514.4056697985
 21
35.9311529971
 31
0.0
  0
LINE
  5
48
330
1F
100
AcDbEntity
  8
0
  6
Continuous
 62
     7
370
     0
100
AcDbLine
 10
516.1744049174
 20
35.9311529971
 30
0.0
 11
514.4056697985
 21
35.9311529971
 31
0.0
  0
LINE
  5
49
330
1F
100
AcDbEntity
  8
0
  6
Continuous
 62
     7
370
     0
100
AcDbLine
 10
516.1744049174
 20
41.7197415391
 30
0.0
 11
516.1744049174
 21
35.9311529971
 31
0.0
  0
LINE
  5
4A
330
1F
100
AcDbEntity
  8
0
  6
Continuous
 62
     7
370
     0
100
AcDbLine
 10
518.7471108326
 20
41.7197415391
 30
0.0
 11
516.1744049174
 21
41.7197415391
 31
0.0
  0
LINE
  5
4B
330
1F
100
AcDbEntity
  8
0
  6
Continuous
 62
     7
370
     0
100
AcDbLine
 10
518.7471108326
 20
41.7197415391
 30
0.0
 11
518.7471108326
 21
34.6448003188
 31
0.0
  0
LINE
  5
4C
330
1F
100
AcDbEntity
  8
0
  6
Continuous
 62
     7
370
     0
100
AcDbLine
 10
514.4056697985
 20
34.6448003188
 30
0.0
 11
518.7471108326
 21
34.6448003188
 31
0.0
  0
LINE
  5
4D
330
1F
100
AcDbEntity
  8
0
  6
Continuous
 62
     7
370
     0
100
AcDbLine
 10
514.4056697985
 20
34.6448003188
 30
0.0
 11
514.4056697985
 21
33.0368590985
 31
0.0
  0
LINE
  5
4E
330
1F
100
AcDbEntity
  8
0
  6
Continuous
 62
     7
370
     0
100
AcDbLine
 10
507.8131108326
 20
33.0368590985
 30
0.0
 11
514.4056697985
 21
33.0368590985
 31
0.0
  0
LINE
  5
4F
330
1F
100
AcDbEntity
  8
0
  6
Continuous
 62
     7
370
     0
100
AcDbLine
 10
507.8131108326
 20
41.7197415391
 30
0.0
 11
507.8131108326
 21
33.0368590985
 31
0.0
  0
LINE
  5
50
330
1F
100
AcDbEntity
  8
0
  6
Continuous
 62
     7
370
     0
100
AcDbLine
 10
512.154552146
 20
41.7197415391
 30
0.0
 11
512.154552146
 21
34.6448003188
 31
0.0
  0
LINE
  5
51
330
1F
100
AcDbEntity
  8
0
  6
Continuous
 62
     7
370
     0
100
AcDbLine
 10
510.3858167478
 20
41.7197415391
 30
0.0
 11
510.3858167478
 21
34.6448003188
 31
0.0
  0
LINE
  5
52
330
1F
100
AcDbEntity
  8
0
  6
Continuous
 62
     7
370
     0
100
AcDbLine
 10
512.154552146
 20
34.6448003188
 30
0.0
 11
510.3858167478
 21
34.6448003188
 31
0.0
  0
LINE
  5
53
330
1F
100
AcDbEntity
  8
0
  6
Continuous
 62
     7
370
     0
100
AcDbLine
 10
510.3858167478
 20
41.7197415391
 30
0.0
 11
507.8131108326
 21
41.7197415391
 31
0.0
  0
LINE
  5
54
330
1F
100
AcDbEntity
  8
0
  6
Continuous
 62
     7
370
     0
100
AcDbLine
 10
411.885
 20
12.74475
 30
0.0
 11
411.885
 21
43.98475
 31
0.0
  0
LINE
  5
55
330
1F
100
AcDbEntity
  8
0
  6
Continuous
 62
     7
370
    30
100
AcDbLine
 10
28.485
 20
12.74475
 30
0.0
 11
578.735
 21
12.74475
 31
0.0
  0
LINE
  5
56
330
1F
100
AcDbEntity
  8
0
  6
Continuous
 62
     7
370
    30
100
AcDbLine
 10
28.485
 20
406.08475
 30
0.0
 11
28.485
 21
12.74475
 31
0.0
  0
LINE
  5
57
330
1F
100
AcDbEntity
  8
0
  6
Continuous
 62
     7
370
    30
100
AcDbLine
 10
28.485
 20
43.98475
 30
0.0
 11
194.625
 21
43.98475
 31
0.0
  0
LINE
  5
58
330
1F
100
AcDbEntity
  8
0
  6
Continuous
 62
     7
370
    30
100
AcDbLine
 10
578.735
 20
406.08475
 30
0.0
 11
578.735
 21
12.74475
 31
0.0
  0
LINE
  5
59
330
1F
100
AcDbEntity
  8
0
  6
Continuous
 62
     7
370
    30
100
AcDbLine
 10
194.625
 20
43.98475
 30
0.0
 11
578.735
 21
43.98475
 31
0.0
  0
LINE
  5
5A
330
1F
100
AcDbEntity
  8
0
  6
Continuous
 62
     7
370
    30
100
AcDbLine
 10
28.485
 20
406.08475
 30
0.0
 11
578.735
 21
406.08475
 31
0.0
  0
LINE
  5
5B
330
1F
100
AcDbEntity
  8
0
  6
Continuous
 62
     7
370
     0
100
AcDbLine
 10
36.295
 20
28.36475
 30
0.0
 11
194.625
 21
28.36475
 31
0.0
  0
LINE
  5
5C
330
1F
100
AcDbEntity
  8
0
  6
Continuous
 62
     7
370
     0
100
AcDbLine
 10
68.955
 20
43.98475
 30
0.0
 11
68.955
 21
12.74475
 31
0.0
  0
LINE
  5
5D
330
1F
100
AcDbEntity
  8
0
  6
Continuous
 62
     7
370
     0
100
AcDbLine
 10
36.295
 20
36.17475
 30
0.0
 11
194.625
 21
36.17475
 31
0.0
  0
LINE
  5
5E
330
1F
100
AcDbEntity
  8
0
  6
Continuous
 62
     7
370
     0
100
AcDbLine
 10
47.655
 20
43.98475
 30
0.0
 11
47.655
 21
12.74475
 31
0.0
  0
LINE
  5
5F
330
1F
100
AcDbEntity
  8
0
  6
Continuous
 62
     7
370
     0
100
AcDbLine
 10
36.295
 20
43.98475
 30
0.0
 11
36.295
 21
12.74475
 31
0.0
  0
LINE
  5
60
330
1F
100
AcDbEntity
  8
0
  6
Continuous
 62
     7
370
     0
100
AcDbLine
 10
36.295
 20
20.55475
 30
0.0
 11
194.625
 21
20.55475
 31
0.0
  0
LINE
  5
61
330
1F
100
AcDbEntity
  8
0
  6
Continuous
 62
     7
370
     0
100
AcDbLine
 10
286.925
 20
43.98475
 30
0.0
 11
286.925
 21
12.74475
 31
0.0
  0
LINE
  5
62
330
1F
100
AcDbEntity
  8
0
  6
Continuous
 62
     7
370
     0
100
AcDbLine
 10
279.825
 20
43.98475
 30
0.0
 11
279.825
 21
12.74475
 31
0.0
  0
LINE
  5
63
330
1F
100
AcDbEntity
  8
0
  6
Continuous
 62
     7
370
     0
100
AcDbLine
 10
201.725
 20
43.98475
 30
0.0
 11
201.725
 21
12.74475
 31
0.0
  0
LINE
  5
64
330
1F
100
AcDbEntity
  8
0
  6
Continuous
 62
     7
370
     0
100
AcDbLine
 10
194.625
 20
43.98475
 30
0.0
 11
194.625
 21
28.36475
 31
0.0
  0
LINE
  5
65
330
1F
100
AcDbEntity
  8
0
  6
Continuous
 62
     7
370
     0
100
AcDbLine
 10
83.155
 20
43.98475
 30
0.0
 11
83.155
 21
12.74475
 31
0.0
  0
LINE
  5
66
330
1F
100
AcDbEntity
  8
0
  6
Continuous
 62
     7
370
     0
100
AcDbLine
 10
326.685
 20
43.98475
 30
0.0
 11
326.685
 21
28.36475
 31
0.0
  0
LINE
  5
67
330
1F
100
AcDbEntity
  8
0
  6
Continuous
 62
     7
370
     0
100
AcDbLine
 10
333.785
 20
43.98475
 30
0.0
 11
333.785
 21
28.36475
 31
0.0
  0
LINE
  5
68
330
1F
100
AcDbEntity
  8
0
  6
Continuous
 62
     7
370
     0
100
AcDbLine
 10
355.085
 20
43.98475
 30
0.0
 11
355.085
 21
28.36475
 31
0.0
  0
LINE
  5
69
330
1F
100
AcDbEntity
  8
0
  6
Continuous
 62
     7
370
     0
100
AcDbLine
 10
362.185
 20
43.98475
 30
0.0
 11
362.185
 21
28.36475
 31
0.0
  0
LINE
  5
6A
330
1F
100
AcDbEntity
  8
0
  6
Continuous
 62
     7
370
     0
100
AcDbLine
 10
418.985
 20
43.98475
 30
0.0
 11
418.985
 21
28.36475
 31
0.0
  0
LINE
  5
6B
330
1F
100
AcDbEntity
  8
0
  6
Continuous
 62
     7
370
     0
100
AcDbLine
 10
440.285
 20
43.98475
 30
0.0
 11
440.285
 21
12.74475
 31
0.0
  0
LINE
  5
6C
330
1F
100
AcDbEntity
  8
0
  6
Continuous
 62
     7
370
     0
100
AcDbLine
 10
461.585
 20
43.98475
 30
0.0
 11
461.585
 21
12.74475
 31
0.0
  0
LINE
  5
6D
330
1F
100
AcDbEntity
  8
0
  6
Continuous
 62
     7
370
     0
100
AcDbLine
 10
482.885
 20
43.98475
 30
0.0
 11
482.885
 21
12.74475
 31
0.0
  0
LINE
  5
6E
330
1F
100
AcDbEntity
  8
0
  6
Continuous
 62
     7
370
     0
100
AcDbLine
 10
504.185
 20
43.98475
 30
0.0
 11
504.185
 21
12.74475
 31
0.0
  0
LINE
  5
6F
330
1F
100
AcDbEntity
  8
0
  6
Continuous
 62
     7
370
     0
100
AcDbLine
 10
504.185
 20
28.36475
 30
0.0
 11
578.735
 21
28.36475
 31
0.0
  0
LINE
  5
70
330
1F
100
AcDbEntity
  8
0
  6
Continuous
 62
     7
370
     0
100
AcDbLine
 10
511.285
 20
28.36475
 30
0.0
 11
511.285
 21
12.74475
 31
0.0
  0
LINE
  5
71
330
1F
100
AcDbEntity
  8
0
  6
Continuous
 62
     7
370
     0
100
AcDbLine
 10
440.285
 20
36.88475
 30
0.0
 11
504.185
 21
36.88475
 31
0.0
  0
LINE
  5
72
330
1F
100
AcDbEntity
  8
0
  6
Continuous
 62
     7
370
     0
100
AcDbLine
 10
194.625
 20
28.36475
 30
0.0
 11
440.285
 21
28.36475
 31
0.0
  0
LINE
  5
73
330
1F
100
AcDbEntity
  8
0
  6
Continuous
 62
     7
370
     0
100
AcDbLine
 10
194.625
 20
28.36475
 30
0.0
 11
194.625
 21
12.74475
 31
0.0
  0
LINE
  5
74
330
1F
100
AcDbEntity
  8
0
  6
Continuous
 62
     7
370
     0
100
AcDbLine
 10
41.3873265892
 20
27.1115576482
 30
0.0
 11
38.3373265892
 21
21.8288026851
 31
0.0
  0
LINE
  5
75
330
1F
100
AcDbEntity
  8
0
  6
Continuous
 62
     7
370
     0
100
AcDbLine
 10
38.3373265892
 20
21.8288026851
 30
0.0
 11
44.4373265892
 21
21.8288026851
 31
0.0
  0
LINE
  5
76
330
1F
100
AcDbEntity
  8
0
  6
Continuous
 62
     7
370
     0
100
AcDbLine
 10
44.4373265892
 20
21.8288026851
 30
0.0
 11
41.3873265892
 21
27.1115576482
 31
0.0
  0
LINE
  5
77
330
1F
100
AcDbEntity
  8
0
  6
Continuous
 62
     7
370
     0
100
AcDbLine
 10
41.3440309427
 20
34.5208790554
 30
0.0
 11
38.2940309427
 21
29.2381240923
 31
0.0
  0
LINE
  5
78
330
1F
100
AcDbEntity
  8
0
  6
Continuous
 62
     7
370
     0
100
AcDbLine
 10
38.2940309427
 20
29.2381240923
 30
0.0
 11
44.3940309427
 21
29.2381240923
 31
0.0
  0
LINE
  5
79
330
1F
100
AcDbEntity
  8
0
  6
Continuous
 62
     7
370
     0
100
AcDbLine
 10
44.3940309427
 20
29.2381240923
 30
0.0
 11
41.3440309427
 21
34.5208790554
 31
0.0
  0
LINE
  5
7A
330
1F
100
AcDbEntity
  8
0
  6
Continuous
 62
     7
370
     0
100
AcDbLine
 10
41.1834490337
 20
42.881404091
 30
0.0
 11
38.1334490337
 21
37.5986491279
 31
0.0
  0
LINE
  5
7B
330
1F
100
AcDbEntity
  8
0
  6
Continuous
 62
     7
370
     0
100
AcDbLine
 10
38.1334490337
 20
37.5986491279
 30
0.0
 11
44.2334490337
 21
37.5986491279
 31
0.0
  0
LINE
  5
7C
330
1F
100
AcDbEntity
  8
0
  6
Continuous
 62
     7
370
     0
100
AcDbLine
 10
44.2334490337
 20
37.5986491279
 30
0.0
 11
41.1834490337
 21
42.881404091
 31
0.0
  0
LINE
  5
7D
330
1F
100
AcDbEntity
  8
0
  6
Continuous
 62
     7
370
     0
100
AcDbLine
 10
173.325
 20
43.98475
 30
0.0
 11
173.325
 21
12.74475
 31
0.0
  0
LINE
  5
7E
330
1F
100
AcDbEntity
  8
0
  6
PHANTOM
 62
     7
370
     0
100
AcDbLine
 10
336.2309146319
 20
12.74475
 30
0.0
 11
411.885
 21
12.74475
 31
0.0
  0
MTEXT
  5
80
330
1F
100
AcDbEntity
  8
0
  6
Continuous
 62
     7
370
     0
100
AcDbMText
 10
507.9479548839
 20
32.818243896
 30
0.0
 40
3.175
 41
0.0
 71
     1
 72
     1
  1
WEST
  7
SLDTEXTSTYLE0
 73
     1
 44
1.0
  0
MTEXT
  5
81
330
1F
100
AcDbEntity
  8
0
  6
Continuous
 62
     7
370
     0
100
AcDbMText
 10
493.4445741767
 20
42.6793073721
 30
0.0
 40
3.5
 41
0.0
 71
     2
 72
     1
  1
承　認
  7
SLDTEXTSTYLE0
 73
     1
 44
1.0
  0
MTEXT
  5
82
330
1F
100
AcDbEntity
  8
0
  6
Continuous
 62
     7
370
     0
100
AcDbMText
 10
125.9884103284
 20
18.6128698158
 30
0.0
 40
3.175
 41
0.0
 71
     2
 72
     1
  1
変　更　内　容
  7
SLDTEXTSTYLE0
 73
     1
 44
1.0
  0
MTEXT
  5
83
330
1F
100
AcDbEntity
  8
0
  6
Continuous
 62
     7
370
     0
100
AcDbMText
 10
523.2755439048
 20
37.8524627542
 30
0.0
 40
3.175
 41
0.0
 71
     1
 72
     1
  1
株式会社
  7
SLDTEXTSTYLE0
 73
     1
 44
1.0
  0
MTEXT
  5
84
330
1F
100
AcDbEntity
  8
0
  6
Continuous
 62
     7
370
     0
100
AcDbMText
 10
512.6464246925
 20
23.5062717172
 30
0.0
 40
4.7625
 41
0.0
 71
     1
 72
     1
  1
No.
  7
SLDTEXTSTYLE0
 73
     1
 44
1.0
  0
MTEXT
  5
86
330
1F
100
AcDbEntity
  8
0
  6
Continuous
 62
     7
370
     0
100
AcDbMText
 10
507.691505191
 20
20.6119976916
 30
0.0
 40
5.0
 41
0.0
 71
     2
 72
     1
  1
番
  7
SLDTEXTSTYLE1
 73
     1
 44
1.0
  0
MTEXT
  5
87
330
1F
100
AcDbEntity
  8
0
  6
Continuous
 62
     7
370
     0
100
AcDbMText
 10
507.6931360946
 20
27.6142385519
 30
0.0
 40
5.0
 41
0.0
 71
     2
 72
     1
  1
図
  7
SLDTEXTSTYLE1
 73
     1
 44
1.0
  0
MTEXT
  5
88
330
1F
100
AcDbEntity
  8
0
  6
Continuous
 62
     7
370
     0
100
AcDbMText
 10
472.117159956
 20
42.6941085361
 30
0.0
 40
3.5
 41
0.0
 71
     2
 72
     1
  1
照　査
  7
SLDTEXTSTYLE0
 73
     1
 44
1.0
  0
MTEXT
  5
89
330
1F
100
AcDbEntity
  8
0
  6
Continuous
 62
     7
370
     0
100
AcDbMText
 10
450.6301649177
 20
42.6978558296
 30
0.0
 40
3.5
 41
0.0
 71
     2
 72
     1
  1
製図・設計
  7
SLDTEXTSTYLE0
 73
     1
 44
1.0
  0
MTEXT
  5
8A
330
1F
100
AcDbEntity
  8
0
  6
Continuous
 62
     7
370
     0
100
AcDbMText
 10
424.3690157298
 20
23.1545034727
 30
0.0
 40
4.2333333333
 41
0.0
 71
     2
 72
     1
  1
第三角法
  7
SLDTEXTSTYLE0
 73
     1
 44
1.0
  0
MTEXT
  5
8B
330
1F
100
AcDbEntity
  8
0
  6
Continuous
 62
     7
370
     0
100
AcDbMText
 10
415.4049426978
 20
35.7356443871
 30
0.0
 40
5.0
 41
0.0
 71
     2
 72
     1
  1
度
  7
SLDTEXTSTYLE1
 73
     1
 44
1.0
  0
MTEXT
  5
8C
330
1F
100
AcDbEntity
  8
0
  6
Continuous
 62
     7
370
     0
100
AcDbMText
 10
415.3988872359
 20
42.9874280589
 30
0.0
 40
5.0
 41
0.0
 71
     2
 72
     1
  1
尺
  7
SLDTEXTSTYLE1
 73
     1
 44
1.0
  0
MTEXT
  5
8D
330
1F
100
AcDbEntity
  8
0
  6
Continuous
 62
     7
370
     0
100
AcDbMText
 10
358.619285814
 20
35.7356443871
 30
0.0
 40
5.0
 41
0.0
 71
     2
 72
     1
  1
考
  7
SLDTEXTSTYLE1
 73
     1
 44
1.0
  0
MTEXT
  5
8E
330
1F
100
AcDbEntity
  8
0
  6
Continuous
 62
     7
370
     0
100
AcDbMText
 10
358.628599635
 20
43.0430857308
 30
0.0
 40
5.0
 41
0.0
 71
     2
 72
     1
  1
備
  7
SLDTEXTSTYLE1
 73
     1
 44
1.0
  0
INSERT
  5
94
330
1F
100
AcDbEntity
  8
0
  6
Continuous
 62
     7
370
     0
100
AcDbBlockReference
  2
SW_NOTE_0
 10
328.4703104849
 20
36.5977470319
 30
0.0
  0
MTEXT
  5
95
330
1F
100
AcDbEntity
  8
0
  6
Continuous
 62
     7
370
     0
100
AcDbMText
 10
198.1440753894
 20
20.4327553806
 30
0.0
 40
5.0
 41
0.0
 71
     2
 72
     1
  1
名
  7
SLDTEXTSTYLE1
 73
     1
 44
1.0
  0
MTEXT
  5
96
330
1F
100
AcDbEntity
  8
0
  6
Continuous
 62
     7
370
     0
100
AcDbMText
 10
198.1320619996
 20
27.6608824432
 30
0.0
 40
5.0
 41
0.0
 71
     2
 72
     1
  1
品
  7
SLDTEXTSTYLE1
 73
     1
 44
1.0
  0
MTEXT
  5
97
330
1F
100
AcDbEntity
  8
0
  6
Continuous
 62
     7
370
     0
100
AcDbMText
 10
198.2123212372
 20
35.5896742048
 30
0.0
 40
5.0
 41
0.0
 71
     2
 72
     1
  1
称
  7
SLDTEXTSTYLE1
 73
     1
 44
1.0
  0
MTEXT
  5
98
330
1F
100
AcDbEntity
  8
0
  6
Continuous
 62
     7
370
     0
100
AcDbMText
 10
198.2123212372
 20
43.1340685825
 30
0.0
 40
5.0
 41
0.0
 71
     2
 72
     1
  1
名
  7
SLDTEXTSTYLE1
 73
     1
 44
1.0
  0
MTEXT
  5
99
330
1F
100
AcDbEntity
  8
0
  6
Continuous
 62
     7
370
     0
100
AcDbMText
 10
203.8600144351
 20
23.957538282
 30
0.0
 40
4.97
 41
0.0
 71
     1
 72
     1
  1
45M
  7
SLDTEXTSTYLE0
 73
     1
 44
1.0
  0
MTEXT
  5
9A
330
1F
100
AcDbEntity
  8
0
  6
Continuous
 62
     7
370
     0
100
AcDbMText
 10
203.8307925724
 20
39.6346006556
 30
0.0
 40
4.97
 41
0.0
 71
     1
 72
     1
  1
承認図
  7
SLDTEXTSTYLE0
 73
     1
 44
1.0
  0
MTEXT
  5
9B
330
1F
100
AcDbEntity
  8
0
  6
Continuous
 62
     7
370
     0
100
AcDbMText
 10
32.3550720809
 20
27.9256443871
 30
0.0
 40
5.0
 41
0.0
 71
     2
 72
     1
  1
訂
  7
SLDTEXTSTYLE1
 73
     1
 44
1.0
  0
MTEXT
  5
9C
330
1F
100
AcDbEntity
  8
0
  6
Continuous
 62
     7
370
     0
100
AcDbMText
 10
32.3790512499
 20
35.6009477676
 30
0.0
 40
5.0
 41
0.0
 71
     2
 72
     1
  1
改
  7
SLDTEXTSTYLE1
 73
     1
 44
1.0
  0
MTEXT
  5
9D
330
1F
100
AcDbEntity
  8
0
  6
Continuous
 62
     7
370
     0
100
AcDbMText
 10
283.3215098364
 20
20.3532404958
 30
0.0
 40
5.0
 41
0.0
 71
     2
 72
     1
  1
番
  7
SLDTEXTSTYLE1
 73
     1
 44
1.0
  0
MTEXT
  5
9E
330
1F
100
AcDbEntity
  8
0
  6
Continuous
 62
     7
370
     0
100
AcDbMText
 10
283.4123212372
 20
35.5896742048
 30
0.0
 40
5.0
 41
0.0
 71
     2
 72
     1
  1
質
  7
SLDTEXTSTYLE1
 73
     1
 44
1.0
  0
MTEXT
  5
9F
330
1F
100
AcDbEntity
  8
0
  6
Continuous
 62
     7
370
     0
100
AcDbMText
 10
283.3215098364
 20
27.5197277997
 30
0.0
 40
5.0
 41
0.0
 71
     2
 72
     1
  1
工
  7
SLDTEXTSTYLE1
 73
     1
 44
1.0
  0
MTEXT
  5
A0
330
1F
100
AcDbEntity
  8
0
  6
Continuous
 62
     7
370
     0
100
AcDbMText
 10
283.4123212372
 20
43.1340685825
 30
0.0
 40
5.0
 41
0.0
 71
     2
 72
     1
  1
材
  7
SLDTEXTSTYLE1
 73
     1
 44
1.0
  0
INSERT
  5
A6
330
1F
100
AcDbEntity
  8
0
  6
Continuous
 62
     7
370
     0
100
AcDbBlockReference
  2
SW_NOTE_1
 10
177.6539276263
 20
14.493624207
 30
0.0
  0
MTEXT
  5
A7
330
1F
100
AcDbEntity
  8
0
  6
Continuous
 62
     7
370
     0
100
AcDbMText
 10
75.0865571772
 20
18.6119939996
 30
0.0
 40
3.175
 41
0.0
 71
     2
 72
     1
  1
担当者
  7
SLDTEXTSTYLE0
 73
     1
 44
1.0
  0
MTEXT
  5
A8
330
1F
100
AcDbEntity
  8
0
  6
Continuous
 62
     7
370
     0
100
AcDbMText
 10
57.6918170491
 20
18.7623133523
 30
0.0
 40
3.175
 41
0.0
 71
     2
 72
     1
  1
日付
  7
SLDTEXTSTYLE0
 73
     1
 44
1.0
  0
MTEXT
  5
A9
330
1F
100
AcDbEntity
  8
0
  6
Continuous
 62
     7
370
     0
100
AcDbMText
 10
41.334788252
 20
18.5655606085
 30
0.0
 40
3.175
 41
0.0
 71
     2
 72
     1
  1
記号
  7
SLDTEXTSTYLE0
 73
     1
 44
1.0
  0
MTEXT
  5
AA
330
1F
100
AcDbEntity
  8
0
  6
Continuous
 62
     7
370
     0
100
AcDbMText
 10
602.2331314714
 20
25.578852958
 30
0.0
 40
7.9375
 41
0.0
 71
     1
 72
     1
  1
A2
  7
SLDTEXTSTYLE0
 73
     1
 44
1.0
  0
MTEXT
  5
AB
330
1F
100
AcDbEntity
  8
0
  6
Continuous
 62
     7
370
     0
100
AcDbMText
 10
543.830377653
 20
39.649472273
 30
0.0
 40
5.8208333333
 41
0.0
 71
     1
 72
     1
  1
WESTinx
  7
SLDTEXTSTYLE0
 73
     1
 44
1.0
  0
MTEXT
  5
AC
330
1F
100
AcDbEntity
  8
0
  6
Continuous
 62
     7
370
     0
100
AcDbMText
 10
575.1964095932
 20
12.0781985141
 30
0.0
 40
2.6458333333
 41
0.0
 71
     1
 72
     1
  1
A2
  7
SLDTEXTSTYLE0
 73
     1
 44
1.0
  0
MTEXT
  5
AD
330
1F
100
AcDbEntity
  8
0
  6
Continuous
 62
     7
370
     0
100
AcDbMText
 10
424.1197137722
 20
39.264829135
 30
0.0
 40
4.7625
 41
0.0
 71
     1
 72
     1
  1
1/1
  7
SLDTEXTSTYLE0
 73
     1
 44
1.0
  0
LINE
  5
AE
330
1F
100
AcDbEntity
  8
0
  6
Continuous
 62
     7
370
    15
100
AcDbLine
 10
368.8359096981
 20
105.9652389305
 30
0.0
 11
358.3808601237
 21
105.9652389305
 31
0.0
  0
LINE
  5
AF
330
1F
100
AcDbEntity
  8
0
  6
Continuous
 62
     7
370
    15
100
AcDbLine
 10
358.3808601237
 20
101.9652382749
 30
0.0
 11
368.8359096981
 21
101.9652382749
 31
0.0
  0
LINE
  5
B0
330
1F
100
AcDbEntity
  8
0
  6
Continuous
 62
     7
370
    15
100
AcDbLine
 10
368.8359096981
 20
101.9652382749
 30
0.0
 11
374.3308618999
 21
103.9652386027
 31
0.0
  0
LINE
  5
B1
330
1F
100
AcDbEntity
  8
0
  6
Continuous
 62
     7
370
    15
100
AcDbLine
 10
374.3308618999
 20
103.9652386027
 30
0.0
 11
368.8359096981
 21
105.9652389305
 31
0.0
  0
LINE
  5
B2
330
1F
100
AcDbEntity
  8
0
  6
Continuous
 62
     7
370
    15
100
AcDbLine
 10
334.7445637322
 20
126.6400412934
 30
0.0
 11
334.7853109575
 21
126.6807847934
 31
0.0
  0
LINE
  5
B3
330
1F
100
AcDbEntity
  8
0
  6
Continuous
 62
     7
370
    15
100
AcDbLine
 10
331.9568842984
 20
129.5092114525
 30
0.0
 11
331.9161370731
 21
129.4684679525
 31
0.0
  0
LWPOLYLINE
  5
B4
330
1F
100
AcDbEntity
  8
0
  6
Continuous
 62
     7
370
    15
100
AcDbPolyline
 90
       12
 70
   128
 43
0.0
 10
328.0524373389
 20
128.4331948774
 10
327.9660702086
 20
128.3468240219
 10
327.7087197042
 20
128.089480968
 10
327.285638485
 20
127.6663960236
 10
326.7054245211
 20
127.0861857849
 10
325.9799018837
 20
126.3606594222
 10
325.1238301731
 20
125.5045914369
 10
324.1546437479
 20
124.5354012864
 10
323.0920717455
 20
123.4728255587
 10
321.9577357508
 20
122.3384932893
 10
320.7747325636
 20
121.1554938274
 10
319.5671573616
 20
119.9479111748
  0
LWPOLYLINE
  5
B5
330
1F
100
AcDbEntity
  8
0
  6
Continuous
 62
     7
370
    15
100
AcDbPolyline
 90
       12
 70
   128
 43
0.0
 10
325.2240106798
 20
114.2910578566
 10
326.4315933324
 20
115.4986405092
 10
327.614589069
 20
116.6816362458
 10
328.7489250637
 20
117.8159722405
 10
329.8114970661
 20
118.8785479682
 10
330.7806834913
 20
119.8477343934
 10
331.6367552019
 20
120.703806104
 10
332.3622852899
 20
121.4293324666
 10
332.9424918033
 20
122.0095427053
 10
333.365580473
 20
122.4326239245
 10
333.6229235269
 20
122.6899707036
 10
333.7092906571
 20
122.7763378339
  0
LINE
  5
B6
330
1F
100
AcDbEntity
  8
0
  6
Continuous
 62
     7
370
    15
100
AcDbLine
 10
296.232631836
 20
85.2996790128
 30
0.0
 11
325.2240106798
 21
114.2910578566
 31
0.0
  0
LINE
  5
B7
330
1F
100
AcDbEntity
  8
0
  6
Continuous
 62
     7
370
    15
100
AcDbLine
 10
319.5671573616
 20
119.9479111748
 30
0.0
 11
290.5757785178
 21
90.9565341937
 31
0.0
  0
LWPOLYLINE
  5
B8
330
1F
100
AcDbEntity
  8
0
  6
Continuous
 62
     7
370
    15
100
AcDbPolyline
 90
       12
 70
   128
 43
0.0
 10
290.5757785178
 20
90.9565341937
 10
289.3681884147
 20
89.7489534038
 10
288.1852001286
 20
88.5659539419
 10
287.0508641339
 20
87.4316216724
 10
285.9882921315
 20
86.3690440821
 10
285.0191057063
 20
85.3998557942
 10
284.1630339957
 20
84.5437859463
 10
283.4374964572
 20
83.8182614463
 10
282.8572899438
 20
83.2380502763
 10
282.4342161752
 20
82.8149662631
 10
282.1768582202
 20
82.5576204153
 10
282.0904910899
 20
82.4712523537
  0
LWPOLYLINE
  5
B9
330
1F
100
AcDbEntity
  8
0
  6
Continuous
 62
     7
370
    15
100
AcDbPolyline
 90
       12
 70
   128
 43
0.0
 10
287.7473444081
 20
76.8143981042
 10
287.8337115384
 20
76.9007661658
 10
288.0910694934
 20
77.1581120136
 10
288.514143262
 20
77.5811960267
 10
289.0943646766
 20
78.1614071967
 10
289.8198873139
 20
78.8869316968
 10
290.6759590245
 20
79.743002476
 10
291.6451454497
 20
80.7121907639
 10
292.7077174521
 20
81.7747664916
 10
293.8420534469
 20
82.9090996923
 10
295.025056634
 20
84.0920982229
 10
296.232631836
 20
85.2996790128
  0
ARC
  5
BA
330
1F
100
AcDbEntity
  8
0
  6
Continuous
 62
     7
370
    15
100
AcDbCircle
 10
271.4474092837
 20
49.4621993274
 30
0.0
 40
115.0000000000001
100
AcDbArc
 50
46.4232786955
 51
102.5618241858
  0
LINE
  5
BB
330
1F
100
AcDbEntity
  8
0
  6
Continuous
 62
     7
370
    15
100
AcDbLine
 10
344.1324815489
 20
133.2322889286
 30
0.0
 11
344.8648512698
 21
132.8590520935
 31
0.0
  0
LINE
  5
BC
330
1F
100
AcDbEntity
  8
0
  6
Continuous
 62
     7
370
    15
100
AcDbLine
 10
350.7736608721
 20
132.7111729699
 30
0.0
 11
350.7133484221
 21
132.7698462921
 31
0.0
  0
SPLINE
  5
BD
330
1F
100
AcDbEntity
  8
0
  6
Continuous
 62
     7
370
    15
100
AcDbSpline
210
0.0
220
0.0
230
1.0
 70
     8
 71
     3
 72
    21
 73
    17
 74
     0
 42
0.00000001
 43
0.00000001
 40
0.0
 40
0.0
 40
0.0
 40
0.0
 40
0.0942877840655033
 40
0.1727183045588057
 40
0.2352793297909283
 40
0.2826378831090759
 40
0.3266609489583697
 40
0.3714907778267147
 40
0.4796228062445061
 40
0.5881704458188135
 40
0.7115757967895179
 40
0.8411975922558071
 40
0.9099397428328914
 40
0.9679016079965108
 40
0.9841261767657151
 40
1.0
 40
1.0
 40
1.0
 40
1.0
 10
344.86485126981
 20
132.8590520935479
 30
0.0
 10
345.1565011137686
 20
132.7332566162338
 30
0.0
 10
345.6907513039986
 20
132.5028218703311
 30
0.0
 10
346.3256169925763
 20
132.2322386691498
 30
0.0
 10
346.7917138873323
 20
132.0367279241989
 30
0.0
 10
347.1436272784724
 20
131.8915084824201
 30
0.0
 10
347.4346823758135
 20
131.7735106636319
 30
0.0
 10
347.8272347580079
 20
131.6176085279367
 30
0.0
 10
348.2856485325755
 20
131.4428818759829
 30
0.0
 10
348.7762522848528
 20
131.2691788936871
 30
0.0
 10
349.1894791063266
 20
131.138599934251
 30
0.0
 10
349.467146614058
 20
131.0635572964745
 30
0.0
 10
349.6457080901395
 20
131.0225340054724
 30
0.0
 10
349.7227269984756
 20
131.006978885151
 30
0.0
 10
349.7738398790461
 20
130.9974844983232
 30
0.0
 10
349.7805086073809
 20
130.9963995823656
 30
0.0
 10
349.7838065362857
 20
130.9958630519334
 30
0.0
  0
LINE
  5
BE
330
1F
100
AcDbEntity
  8
0
  6
Continuous
 62
     7
370
    15
100
AcDbLine
 10
368.8359096981
 20
105.9652389305
 30
0.0
 11
368.8359096981
 21
101.9652382749
 31
0.0
  0
ARC
  5
BF
330
1F
100
AcDbEntity
  8
0
  6
Continuous
 62
     7
370
    15
100
AcDbCircle
 10
330.8808632776
 20
125.604766303
 30
0.0
 40
4.49999999999999
100
AcDbArc
 50
315.0
 51
162.2660444507
  0
ARC
  5
C0
330
1F
100
AcDbEntity
  8
0
  6
Continuous
 62
     7
370
    15
100
AcDbCircle
 10
330.8808632776
 20
125.604766303
 30
0.0
 40
4.500000000000013
100
AcDbArc
 50
287.7339555493
 51
315.0
  0
ARC
  5
C1
330
1F
100
AcDbEntity
  8
0
  6
Continuous
 62
     7
370
    15
100
AcDbCircle
 10
330.8808632776
 20
125.604766303
 30
0.0
 40
4.050000000000014
100
AcDbArc
 50
305.9875485008
 51
144.0124514993
  0
ARC
  5
C2
330
1F
100
AcDbEntity
  8
0
  6
Continuous
 62
     7
370
    15
100
AcDbCircle
 10
330.8808632776
 20
125.604766303
 30
0.0
 40
5.0
100
AcDbArc
 50
278.1301023542
 51
315.0
  0
ARC
  5
C3
330
1F
100
AcDbEntity
  8
0
  6
Continuous
 62
     7
370
    15
100
AcDbCircle
 10
330.8808632776
 20
125.604766303
 30
0.0
 40
5.00000000000002
100
AcDbArc
 50
315.0
 51
171.8698976458
  0
ARC
  5
C4
330
1F
100
AcDbEntity
  8
0
  6
Continuous
 62
     7
370
    15
100
AcDbCircle
 10
330.8808632776
 20
125.604766303
 30
0.0
 40
4.000000000000002
100
AcDbArc
 50
315.0
 51
135.0
  0
ARC
  5
C5
330
1F
100
AcDbEntity
  8
0
  6
Continuous
 62
     7
370
    15
100
AcDbCircle
 10
284.9189225005
 20
79.6428255259
 30
0.0
 40
4.000000000000012
100
AcDbArc
 50
135.0
 51
315.0
  0
LINE
  5
C6
330
1F
100
AcDbEntity
  8
0
  6
Continuous
 62
     7
370
    15
100
AcDbLine
 10
350.7176921106
 20
132.7741527276
 30
0.0
 11
350.7202402092
 21
132.773772748
 31
0.0
  0
SPLINE
  5
C7
330
1F
100
AcDbEntity
  8
0
  6
Continuous
 62
     7
370
    15
100
AcDbSpline
210
0.0
220
0.0
230
1.0
 70
     8
 71
     3
 72
    18
 73
    14
 74
     0
 42
0.00000001
 43
0.00000001
 40
0.0
 40
0.0
 40
0.0
 40
0.0
 40
0.1400307810124067
 40
0.2783333087900749
 40
0.4166633893131147
 40
0.5552030998436472
 40
0.616528840294213
 40
0.6808094374930211
 40
0.7480468790948458
 40
0.8099161611261066
 40
0.8739772358746792
 40
0.9283092865296022
 40
1.0
 40
1.0
 40
1.0
 40
1.0
 10
331.3834950662539
 20
141.3611033277932
 30
0.0
 10
330.0492753510979
 20
142.1678053524846
 30
0.0
 10
327.3973027970107
 20
143.7712531238723
 30
0.0
 10
323.2944508649692
 20
145.9808860028885
 30
0.0
 10
319.1196143246817
 20
148.0408808760716
 30
0.0
 10
315.6479658207518
 20
149.5857517096658
 30
0.0
 10
312.9023354214936
 20
150.7158251212667
 30
0.0
 10
310.8825828909864
 20
151.5049200967457
 30
0.0
 10
308.8420183147101
 20
152.2579392845188
 30
0.0
 10
306.7898498827527
 20
152.9722873909391
 30
0.0
 10
304.8624977675897
 20
153.6030827460663
 30
0.0
 10
302.8197004998903
 20
154.2360874124577
 30
0.0
 10
301.4556650063507
 20
154.6230739932579
 30
0.0
 10
300.679704580395
 20
154.8432194905702
 30
0.0
  0
SPLINE
  5
C8
330
1F
100
AcDbEntity
  8
0
  6
Continuous
 62
     7
370
    15
100
AcDbSpline
210
0.0
220
0.0
230
1.0
 70
     8
 71
     3
 72
    17
 73
    13
 74
     0
 42
0.00000001
 43
0.00000001
 40
0.0
 40
0.0
 40
0.0
 40
0.0
 40
0.085036460301244
 40
0.1638136545321944
 40
0.2416654541694924
 40
0.3281091926514833
 40
0.4094978452684613
 40
0.4829770708294046
 40
0.5634500010802003
 40
0.7093384278345262
 40
0.8532343939876434
 40
1.0
 40
1.0
 40
1.0
 40
1.0
 10
300.679704580395
 20
154.8432194905702
 30
0.0
 10
299.7569001459309
 20
155.0919871329572
 30
0.0
 10
297.979216005592
 20
155.5712114149231
 30
0.0
 10
295.3358162480616
 20
156.1965627196301
 30
0.0
 10
292.6645508361867
 20
156.7688745348811
 30
0.0
 10
289.9513209545582
 20
157.2811980462995
 30
0.0
 10
287.2755633743828
 20
157.7199240238413
 30
0.0
 10
284.6579223447145
 20
158.0894270633121
 30
0.0
 10
281.315125861353
 20
158.4878491400045
 30
0.0
 10
277.1776529845869
 20
158.844810383699
 30
0.0
 10
272.2992236622408
 20
159.0842363022759
 30
0.0
 10
269.0648798743425
 20
159.07735157148
 30
0.0
 10
267.4317419863627
 20
159.0738752203408
 30
0.0
  0
LINE
  5
C9
330
1F
100
AcDbEntity
  8
0
  6
Continuous
 62
     7
370
    15
100
AcDbLine
 10
246.1979151107
 20
159.6039840298
 30
0.0
 11
246.2040096856
 21
159.6013241725
 31
0.0
  0
SPLINE
  5
CA
330
1F
100
AcDbEntity
  8
0
  6
Continuous
 62
     7
370
    15
100
AcDbSpline
210
0.0
220
0.0
230
1.0
 70
     8
 71
     3
 72
    18
 73
    14
 74
     0
 42
0.00000001
 43
0.00000001
 40
0.0
 40
0.0
 40
0.0
 40
0.0
 40
0.1279852865215979
 40
0.2717603958509006
 40
0.4152389858790039
 40
0.5590343031996596
 40
0.6228631454832638
 40
0.6886359972791407
 40
0.7563670939380353
 40
0.8203032035555068
 40
0.8862235458542213
 40
0.9452970680803472
 40
1.0
 40
1.0
 40
1.0
 40
1.0
 10
251.0981023646281
 20
158.7011971788827
 30
0.0
 10
250.6138673110738
 20
158.7661864157318
 30
0.0
 10
249.5856560735534
 20
158.9041827527496
 30
0.0
 10
248.4232017435177
 20
159.0778678309888
 30
0.0
 10
247.5034727824745
 20
159.2417190318064
 30
0.0
 10
246.9871621270446
 20
159.3567294888726
 30
0.0
 10
246.6916488564534
 20
159.4342830578738
 30
0.0
 10
246.5217624598641
 20
159.4838005253217
 30
0.0
 10
246.3922627539066
 20
159.5259774540824
 30
0.0
 10
246.2988843400124
 20
159.5603716347241
 30
0.0
 10
246.2387646806818
 20
159.5842223675324
 30
0.0
 10
246.2086825861946
 20
159.6009134842138
 30
0.0
 10
246.202598590656
 20
159.6025996420737
 30
0.0
 10
246.1996734476969
 20
159.603410335106
 30
0.0
  0
SPLINE
  5
CB
330
1F
100
AcDbEntity
  8
0
  6
Continuous
 62
     7
370
    15
100
AcDbSpline
210
0.0
220
0.0
230
1.0
 70
     8
 71
     3
 72
    15
 73
    11
 74
     0
 42
0.00000001
 43
0.00000001
 40
0.0
 40
0.0
 40
0.0
 40
0.0
 40
0.1243326157686058
 40
0.2484609756720303
 40
0.3734408911095305
 40
0.4977424303229782
 40
0.6232511352379222
 40
0.7480123385622042
 40
0.8737525216408735
 40
1.0
 40
1.0
 40
1.0
 40
1.0
 10
267.4317419863627
 20
159.0738752203408
 30
0.0
 10
266.4875465690476
 20
159.0574010799605
 30
0.0
 10
264.6007068756901
 20
159.0244798632151
 30
0.0
 10
261.9012092852319
 20
158.9410280026358
 30
0.0
 10
259.3772395345202
 20
158.8452544822951
 30
0.0
 10
257.0826465149074
 20
158.7477146320474
 30
0.0
 10
255.076279474819
 20
158.6650931527608
 30
0.0
 10
253.4067753159064
 20
158.6148210513944
 30
0.0
 10
252.0794742580915
 20
158.6065365244907
 30
0.0
 10
251.5440399341788
 20
158.6534989905589
 30
0.0
 10
251.2757838107035
 20
158.6770274954263
 30
0.0
  0
SPLINE
  5
CC
330
1F
100
AcDbEntity
  8
0
  6
Continuous
 62
     7
370
    15
100
AcDbSpline
210
0.0
220
0.0
230
1.0
 70
     8
 71
     3
 72
    14
 73
    10
 74
     0
 42
0.00000001
 43
0.00000001
 40
0.0
 40
0.0
 40
0.0
 40
0.0
 40
0.142283906379082
 40
0.285439366024034
 40
0.4275967709997514
 40
0.5709195020243706
 40
0.7131883623461223
 40
0.8563278836329768
 40
1.0
 40
1.0
 40
1.0
 40
1.0
 10
343.8810840583728
 20
133.3850705342713
 30
0.0
 10
343.5477177972348
 20
133.5792448576015
 30
0.0
 10
342.8789432558647
 20
133.9687829097958
 30
0.0
 10
341.5109212763913
 20
134.8409291362606
 30
0.0
 10
339.8960351192101
 20
135.89293970625
 30
0.0
 10
338.0412829898567
 20
137.1091889859817
 30
0.0
 10
335.9781666127726
 20
138.4516086290957
 30
0.0
 10
333.7534860102159
 20
139.8800815158281
 30
0.0
 10
332.1744694329037
 20
140.8668186164115
 30
0.0
 10
331.3834950662539
 20
141.3611033277932
 30
0.0
  0
ARC
  5
CD
330
1F
100
AcDbEntity
  8
0
  6
Continuous
 62
     7
370
    15
100
AcDbCircle
 10
246.6537035988
 20
160.7333794482
 30
0.0
 40
0.9999803473782383
100
AcDbArc
 50
102.5601009541
 51
193.064877619
  0
ARC
  5
CE
330
1F
100
AcDbEntity
  8
0
  6
Continuous
 62
     7
370
    15
100
AcDbCircle
 10
350.0308858246
 20
132.0493265473
 30
0.0
 40
1.000016144019307
100
AcDbArc
 50
315.9213158809
 51
46.4224449234
  0
LINE
  5
CF
330
1F
100
AcDbEntity
  8
0
  6
Continuous
 62
     7
370
    15
100
AcDbLine
 10
245.8369344808
 20
159.82932684
 30
0.0
 11
245.6796080209
 21
160.5073296743
 31
0.0
  0
LINE
  5
D0
330
1F
100
AcDbEntity
  8
0
  6
Continuous
 62
     7
370
    15
100
AcDbLine
 10
350.7492825724
 20
131.3536697345
 30
0.0
 11
350.6112456656
 21
131.2111252265
 31
0.0
  0
SPLINE
  5
D1
330
1F
100
AcDbEntity
  8
0
  6
Continuous
 62
     7
370
    15
100
AcDbSpline
210
0.0
220
0.0
230
1.0
 70
     8
 71
     3
 72
    13
 73
     9
 74
     0
 42
0.00000001
 43
0.00000001
 40
0.0
 40
0.0
 40
0.0
 40
0.0
 40
0.2395548188382911
 40
0.3684237049134592
 40
0.4999969472650974
 40
0.6315744080457595
 40
0.7604478797400426
 40
1.0
 40
1.0
 40
1.0
 40
1.0
 10
350.6112456656383
 20
131.2111252265397
 30
0.0
 10
350.5339111510857
 20
131.1464967787337
 30
0.0
 10
350.4149744145703
 20
131.0471013572641
 30
0.0
 10
350.2147937138582
 20
130.9825796954948
 30
0.0
 10
350.0523264488456
 20
130.9619493802037
 30
0.0
 10
349.8891749948148
 20
130.9762068762151
 30
0.0
 10
349.6866181252814
 20
131.0328377821896
 30
0.0
 10
349.5638812472934
 20
131.1275018451762
 30
0.0
 10
349.484077129452
 20
131.1890528815213
 30
0.0
  0
SPLINE
  5
D2
330
1F
100
AcDbEntity
  8
0
  6
Continuous
 62
     7
370
    15
100
AcDbSpline
210
0.0
220
0.0
230
1.0
 70
     8
 71
     3
 72
    13
 73
     9
 74
     0
 42
0.00000001
 43
0.00000001
 40
0.0
 40
0.0
 40
0.0
 40
0.0
 40
0.2394764930106953
 40
0.3683667243633214
 40
0.4999993431175258
 40
0.6316216021947337
 40
0.7605171333280967
 40
1.0
 40
1.0
 40
1.0
 40
1.0
 10
246.1962014771388
 20
159.6047290878716
 30
0.0
 10
246.1585836068174
 20
159.6002012128967
 30
0.0
 10
246.1007191730535
 20
159.5932363603056
 30
0.0
 10
246.0244016645253
 20
159.614008189912
 30
0.0
 10
245.9689633872982
 20
159.6408775758622
 30
0.0
 10
245.9205193039356
 20
159.678939858584
 30
0.0
 10
245.8684235174612
 20
159.7384542854166
 30
0.0
 10
245.8493404115486
 20
159.7935252169031
 30
0.0
 10
245.8369344807551
 20
159.8293268399659
 30
0.0
  0
LINE
  5
D3
330
1F
100
AcDbEntity
  8
0
  6
Continuous
 62
     7
370
    15
100
AcDbLine
 10
325.2240106798
 20
131.2616215365
 30
0.0
 11
333.8036299086
 21
139.8412370401
 31
0.0
  0
ARC
  5
D4
330
1F
100
AcDbEntity
  8
0
  6
Continuous
 62
     7
370
    15
100
AcDbCircle
 10
330.8808632776
 20
125.604766303
 30
0.0
 40
5.050000000000021
100
AcDbArc
 50
315.0
 51
172.6197565506
  0
ARC
  5
D5
330
1F
100
AcDbEntity
  8
0
  6
Continuous
 62
     7
370
    15
100
AcDbCircle
 10
330.8808632776
 20
125.604766303
 30
0.0
 40
5.050000000000002
100
AcDbArc
 50
277.3802434494
 51
315.0
  0
LINE
  5
D6
330
1F
100
AcDbEntity
  8
0
  6
Continuous
 62
     7
370
    15
100
AcDbLine
 10
348.1040954925
 20
131.514289351
 30
0.0
 11
336.5377173162
 21
119.9479111748
 31
0.0
  0
ARC
  5
D7
330
1F
100
AcDbEntity
  8
0
  6
Continuous
 62
     7
370
    15
100
AcDbCircle
 10
330.8808632776
 20
125.604766303
 30
0.0
 40
8.000000000000009
100
AcDbArc
 50
255.0
 51
315.0
  0
ARC
  5
D8
330
1F
100
AcDbEntity
  8
0
  6
Continuous
 62
     7
370
    15
100
AcDbCircle
 10
330.8808632776
 20
125.604766303
 30
0.0
 40
8.000000000000028
100
AcDbArc
 50
135.0
 51
195.0
  0
LINE
  5
D9
330
1F
100
AcDbEntity
  8
0
  6
Continuous
 62
     7
370
    15
100
AcDbLine
 10
345.5667183138
 20
126.3634869175
 30
0.0
 11
358.2308650351
 21
119.0518410223
 31
0.0
  0
ARC
  5
DA
330
1F
100
AcDbEntity
  8
0
  6
Continuous
 62
     7
370
    15
100
AcDbCircle
 10
345.0667213185
 20
125.4974611131
 30
0.0
 40
1.000000000000024
100
AcDbArc
 50
60.0
 51
135.0
  0
ARC
  5
DB
330
1F
100
AcDbEntity
  8
0
  6
Continuous
 62
     7
370
    15
100
AcDbCircle
 10
355.9755282046
 20
89.9652382074
 30
0.0
 40
1.0
100
AcDbArc
 50
208.7421844111
 51
270.0
  0
SPLINE
  5
DC
330
1F
100
AcDbEntity
  8
0
  6
Continuous
 62
     7
370
    15
100
AcDbSpline
210
0.0
220
0.0
230
1.0
 70
     8
 71
     3
 72
    13
 73
     9
 74
     0
 42
0.00000001
 43
0.00000001
 40
0.0
 40
0.0
 40
0.0
 40
0.0
 40
0.1784834690888197
 40
0.3562151498918223
 40
0.540578963826293
 40
0.7453889785555872
 40
0.8726597327206291
 40
1.0
 40
1.0
 40
1.0
 40
1.0
 10
355.0987378097461
 20
89.48436838559542
 30
0.0
 10
355.0619846962678
 20
89.55179827734997
 30
0.0
 10
354.9886332767023
 20
89.68637404014282
 30
0.0
 10
354.4125742479544
 20
90.71814389182362
 30
0.0
 10
353.5158667565095
 20
92.25261122156223
 30
0.0
 10
352.4540519737089
 20
93.95979826880495
 30
0.0
 10
351.4037379411121
 20
95.55392164621915
 30
0.0
 10
350.783819065179
 20
96.44336974776564
 30
0.0
 10
350.4737750030444
 20
96.88821521572504
 30
0.0
  0
LINE
  5
DD
330
1F
100
AcDbEntity
  8
0
  6
Continuous
 62
     7
370
    15
100
AcDbLine
 10
358.3808601237
 20
97.4652384686
 30
0.0
 11
358.3808601237
 21
89.265237497
 31
0.0
  0
ARC
  5
DE
330
1F
100
AcDbEntity
  8
0
  6
Continuous
 62
     7
370
    15
100
AcDbCircle
 10
358.0808632776
 20
89.2652382074
 30
0.0
 40
0.3000000000000114
100
AcDbArc
 50
270.0
 51
0.0
  0
ARC
  5
DF
330
1F
100
AcDbEntity
  8
0
  6
Continuous
 62
     7
370
    15
100
AcDbCircle
 10
287.5857242688
 20
52.4574427826
 30
0.0
 40
77.0
100
AcDbArc
 50
35.2414288505
 51
53.1086019441
  0
LINE
  5
E0
330
1F
100
AcDbEntity
  8
0
  6
Continuous
 62
     7
370
    15
100
AcDbLine
 10
358.3808601237
 20
117.9837444144
 30
0.0
 11
358.3808601237
 21
97.4652384686
 31
0.0
  0
LINE
  5
E1
330
1F
100
AcDbEntity
  8
0
  6
Continuous
 62
     7
370
    15
100
AcDbLine
 10
358.080862496
 20
88.9652380066
 30
0.0
 11
355.975529585
 21
88.9652380066
 31
0.0
  0
LINE
  5
E2
330
1F
100
AcDbEntity
  8
0
  6
Continuous
 62
     7
370
    15
100
AcDbLine
 10
333.702026341
 20
115.5469836014
 30
0.0
 11
344.3596124984
 21
126.2045660334
 31
0.0
  0
ARC
  5
E3
330
1F
100
AcDbEntity
  8
0
  6
Continuous
 62
     7
370
    15
100
AcDbCircle
 10
334.409136757
 20
114.8398765517
 30
0.0
 40
1.000000000000008
100
AcDbArc
 50
135.0
 51
233.1086019441
  0
LINE
  5
E4
330
1F
100
AcDbEntity
  8
0
  6
Continuous
 62
     7
370
    15
100
AcDbLine
 10
358.3808601237
 20
118.7920318263
 30
0.0
 11
358.3808601237
 21
117.9837444144
 31
0.0
  0
ARC
  5
E5
330
1F
100
AcDbEntity
  8
0
  6
Continuous
 62
     7
370
    15
100
AcDbCircle
 10
358.0808632776
 20
118.7920331266
 30
0.0
 40
0.3000000000000114
100
AcDbArc
 50
0.0
 51
60.0
  0
SPLINE
  5
E6
330
1F
100
AcDbEntity
  8
0
  6
Continuous
 62
     7
370
    15
100
AcDbSpline
210
0.0
220
0.0
230
1.0
 70
     8
 71
     3
 72
    10
 73
     6
 74
     0
 42
0.00000001
 43
0.00000001
 40
0.0
 40
0.0
 40
0.0
 40
0.0
 40
0.2611827421176256
 40
0.6365188390289852
 40
1.0
 40
1.0
 40
1.0
 40
1.0
 10
332.1953326798366
 20
115.2187594490472
 30
0.0
 10
332.3213584410278
 20
115.1288415855998
 30
0.0
 10
332.6284911809278
 20
114.9097060731023
 30
0.0
 10
333.0869792575851
 20
114.5762247766584
 30
0.0
 10
333.3332727790425
 20
114.3940799718273
 30
0.0
 10
333.4544435478137
 20
114.3044689016763
 30
0.0
  0
LWPOLYLINE
  5
E7
330
1F
100
AcDbEntity
  8
0
  6
Continuous
 62
     7
370
    15
100
AcDbPolyline
 90
        9
 70
   128
 43
0.0
 10
345.5667183138
 20
126.3634869175
 10
345.5322668291
 20
126.3833799677
 10
345.4302236772
 20
126.4422917085
 10
345.2645227648
 20
126.5379608887
 10
345.0415194369
 20
126.6667106467
 10
344.769789312
 20
126.823593797
 10
344.4597781039
 20
127.0025790947
 10
344.1233992911
 20
127.1967896538
 10
343.9098731018
 20
127.3200669604
  0
ARC
  5
E8
330
1F
100
AcDbEntity
  8
0
  6
Continuous
 62
     7
370
    15
100
AcDbCircle
 10
287.5857242688
 20
52.4574427826
 30
0.0
 40
77.0
100
AcDbArc
 50
54.595475839
 51
57.8377346333
  0
SPLINE
  5
E9
330
1F
100
AcDbEntity
  8
0
  6
Continuous
 62
     7
370
    15
100
AcDbSpline
210
0.0
220
0.0
230
1.0
 70
     8
 71
     3
 72
    14
 73
    10
 74
     0
 42
0.00000001
 43
0.00000001
 40
0.0
 40
0.0
 40
0.0
 40
0.0
 40
0.058718931584907
 40
0.1870714366634979
 40
0.3588644608587273
 40
0.5962758877302076
 40
0.7538461181058113
 40
0.9115235725693821
 40
1.0
 40
1.0
 40
1.0
 40
1.0
 10
340.6422123647616
 20
108.2607441859666
 30
0.0
 10
340.632786719016
 20
108.2697059916959
 30
0.0
 10
340.60275774806
 20
108.298257224282
 30
0.0
 10
340.8788474508515
 20
108.035836640867
 30
0.0
 10
341.5198583179363
 20
107.4173107609353
 30
0.0
 10
342.4647760111118
 20
106.4767761267823
 30
0.0
 10
343.454775657965
 20
105.4489773800205
 30
0.0
 10
344.2034538189758
 20
104.64826671874
 30
0.0
 10
344.6581732679887
 20
104.145831591001
 30
0.0
 10
344.8216155506061
 20
103.9652386026803
 30
0.0
  0
LINE
  5
EA
330
1F
100
AcDbEntity
  8
0
  6
Continuous
 62
     7
370
    15
100
AcDbLine
 10
333.533918891
 20
114.2453336435
 30
0.0
 11
333.3587780929
 21
114.3749662953
 31
0.0
  0
SPLINE
  5
EB
330
1F
100
AcDbEntity
  8
0
  6
Continuous
 62
     7
370
     0
100
AcDbSpline
210
0.0
220
0.0
230
1.0
 70
     8
 71
     3
 72
    18
 73
    14
 74
     0
 42
0.00000001
 43
0.00000001
 40
0.0
 40
0.0
 40
0.0
 40
0.0
 40
0.125
 40
0.125
 40
0.2499999999999999
 40
0.2499999999999999
 40
0.4999999999999999
 40
0.4999999999999999
 40
0.7499999999999998
 40
0.7499999999999998
 40
0.8749999999999999
 40
0.8749999999999999
 40
1.0
 40
1.0
 40
1.0
 40
1.0
 10
345.8011781441742
 20
134.6364928811576
 30
0.0
 10
346.2906160664137
 20
134.4244618397389
 30
0.0
 10
346.7385911657584
 20
134.2306949210436
 30
0.0
 10
347.5506469205981
 20
133.88443133415
 30
0.0
 10
347.9151755267657
 20
133.731588768337
 30
0.0
 10
348.8907759376134
 20
133.3337198424671
 30
0.0
 10
349.384144638895
 20
133.1497799532527
 30
0.0
 10
350.1161021112427
 20
132.9050271617777
 30
0.0
 10
350.3566770813252
 20
132.8425733742853
 30
0.0
 10
350.5830387274743
 20
132.7936238321772
 30
0.0
 10
350.6361092879875
 20
132.7846433467341
 30
0.0
 10
350.704977877469
 20
132.7744679711563
 30
0.0
 10
350.71814383781
 20
132.7757728529743
 30
0.0
 10
350.7202350687435
 20
132.7737777051738
 30
0.0
  0
SPLINE
  5
EC
330
1F
100
AcDbEntity
  8
0
  6
Continuous
 62
     7
370
     0
100
AcDbSpline
210
0.0
220
0.0
230
1.0
 70
     8
 71
     3
 72
    28
 73
    24
 74
     0
 42
0.00000001
 43
0.00000001
 40
0.0
 40
0.0
 40
0.0
 40
0.0
 40
0.1250000000000002
 40
0.1250000000000002
 40
0.2500000000000004
 40
0.2500000000000004
 40
0.3125000000000003
 40
0.3125000000000003
 40
0.3750000000000002
 40
0.3750000000000002
 40
0.5000000000000011
 40
0.5000000000000011
 40
0.5625000000000009
 40
0.5625000000000009
 40
0.6250000000000007
 40
0.6250000000000007
 40
0.7500000000000007
 40
0.7500000000000007
 40
0.8125000000000006
 40
0.8125000000000006
 40
0.8750000000000004
 40
0.8750000000000004
 40
1.0
 40
1.0
 40
1.0
 40
1.0
 10
332.4669323380188
 20
143.0542699666287
 30
0.0
 10
333.2659906429203
 20
142.5580904044707
 30
0.0
 10
334.0439276792445
 20
142.0692569259821
 30
0.0
 10
335.5598194280795
 20
141.1073261841962
 30
0.0
 10
336.2977691184678
 20
140.6342218684721
 30
0.0
 10
337.3749051623372
 20
139.9385295608407
 30
0.0
 10
337.7303350713013
 20
139.708084560547
 30
0.0
 10
338.4211220060091
 20
139.2589351928241
 30
0.0
 10
338.7571802142804
 20
139.0397852325593
 30
0.0
 10
339.73829892216
 20
138.3988774054701
 30
0.0
 10
340.3564340118493
 20
137.9935600357309
 30
0.0
 10
341.2310423479381
 20
137.4213661310298
 30
0.0
 10
341.5137800681091
 20
137.2366229960726
 30
0.0
 10
342.0614685760091
 20
136.8799205678986
 30
0.0
 10
342.3247511330243
 20
136.7090552629537
 30
0.0
 10
343.0762329292305
 20
136.2241997788446
 30
0.0
 10
343.5296195222305
 20
135.9356300993279
 30
0.0
 10
344.1410002156202
 20
135.5566685450405
 30
0.0
 10
344.3332945959987
 20
135.4393624866275
 30
0.0
 10
344.6947392866305
 20
135.2235082423642
 30
0.0
 10
344.8643748813599
 20
135.124692255527
 30
0.0
 10
345.3333634918004
 20
134.8603595454209
 30
0.0
 10
345.5933452671902
 20
134.7265289712845
 30
0.0
 10
345.8011781441742
 20
134.6364928811575
 30
0.0
  0
SPLINE
  5
ED
330
1F
100
AcDbEntity
  8
0
  6
Continuous
 62
     7
370
     0
100
AcDbSpline
210
0.0
220
0.0
230
1.0
 70
     8
 71
     3
 72
    18
 73
    14
 74
     0
 42
0.00000001
 43
0.00000001
 40
0.0
 40
0.0
 40
0.0
 40
0.0
 40
0.125
 40
0.125
 40
0.2499999999999999
 40
0.2499999999999999
 40
0.5000000000000001
 40
0.5000000000000001
 40
0.7500000000000002
 40
0.7500000000000002
 40
0.8750000000000001
 40
0.8750000000000001
 40
1.0
 40
1.0
 40
1.0
 40
1.0
 10
301.2149150645632
 20
156.7805817926355
 30
0.0
 10
302.5963386161454
 20
156.3976218612177
 30
0.0
 10
303.9703005353528
 20
155.9891401309576
 30
0.0
 10
306.7029167345415
 20
155.1226634295001
 30
0.0
 10
308.0593002063479
 20
154.6651954096022
 30
0.0
 10
312.0988798325697
 20
153.2210211398671
 30
0.0
 10
314.7525438059979
 20
152.1626961138389
 30
0.0
 10
319.9812736256954
 20
149.8598334210857
 30
0.0
 10
322.5592676554414
 20
148.6135188882754
 30
0.0
 10
326.3361865514636
 20
146.6230257859976
 30
0.0
 10
327.5813750444601
 20
145.9387332444894
 30
0.0
 10
330.0444460191259
 20
144.5283773956797
 30
0.0
 10
331.262350671484
 20
143.8022614463727
 30
0.0
 10
332.4669323380188
 20
143.054269966629
 30
0.0
  0
SPLINE
  5
EE
330
1F
100
AcDbEntity
  8
0
  6
Continuous
 62
     7
370
     0
100
AcDbSpline
210
0.0
220
0.0
230
1.0
 70
     8
 71
     3
 72
    18
 73
    14
 74
     0
 42
0.00000001
 43
0.00000001
 40
0.0
 40
0.0
 40
0.0
 40
0.0
 40
0.1249999999999998
 40
0.1249999999999998
 40
0.2499999999999996
 40
0.2499999999999996
 40
0.4999999999999997
 40
0.4999999999999997
 40
0.7499999999999997
 40
0.7499999999999997
 40
0.8749999999999999
 40
0.8749999999999999
 40
1.0
 40
1.0
 40
1.0
 40
1.0
 10
267.3774708347865
 20
161.112687670656
 30
0.0
 10
268.794715237812
 20
161.1331049278647
 30
0.0
 10
270.2134416963598
 20
161.1279470941874
 30
0.0
 10
273.0547585802104
 20
161.0675236453589
 30
0.0
 10
274.4746015499205
 20
161.0123556105108
 30
0.0
 10
278.732040553566
 20
160.7725711859542
 30
0.0
 10
281.5679453489526
 20
160.5141765019876
 30
0.0
 10
287.2315214473199
 20
159.7953681671352
 30
0.0
 10
290.06194948264
 20
159.3338714037026
 30
0.0
 10
294.2684919979596
 20
158.4906577261653
 30
0.0
 10
295.6653372877511
 20
158.1842951770179
 30
0.0
 10
298.4482462257472
 20
157.5207016128355
 30
0.0
 10
299.8343794893175
 20
157.1636433483417
 30
0.0
 10
301.2149151387774
 20
156.7805820499682
 30
0.0
  0
SPLINE
  5
EF
330
1F
100
AcDbEntity
  8
0
  6
Continuous
 62
     7
370
     0
100
AcDbSpline
210
0.0
220
0.0
230
1.0
 70
     8
 71
     3
 72
    28
 73
    24
 74
     0
 42
0.00000001
 43
0.00000001
 40
0.0
 40
0.0
 40
0.0
 40
0.0
 40
0.1250000000000011
 40
0.1250000000000011
 40
0.2500000000000022
 40
0.2500000000000022
 40
0.3125000000000027
 40
0.3125000000000027
 40
0.3750000000000032
 40
0.3750000000000032
 40
0.5000000000000037
 40
0.5000000000000037
 40
0.562500000000003
 40
0.562500000000003
 40
0.6250000000000023
 40
0.6250000000000023
 40
0.7500000000000004
 40
0.7500000000000004
 40
0.8125000000000002
 40
0.8125000000000002
 40
0.875
 40
0.875
 40
1.0
 40
1.0
 40
1.0
 40
1.0
 10
251.6086012951989
 20
160.7692362101173
 30
0.0
 10
251.8329410517561
 20
160.7392203859111
 30
0.0
 10
252.1231695613791
 20
160.7200567643093
 30
0.0
 10
252.8300810985379
 20
160.6997988069138
 30
0.0
 10
253.2467791396611
 20
160.6987173738099
 30
0.0
 10
253.9692008526155
 20
160.7082344067447
 30
0.0
 10
254.2273870904086
 20
160.713298343115
 30
0.0
 10
254.7688426362549
 20
160.7265049137078
 30
0.0
 10
255.0526439227335
 20
160.7346427458436
 30
0.0
 10
255.9424503339615
 20
160.7627597293915
 30
0.0
 10
256.586656072928
 20
160.7864297199806
 30
0.0
 10
257.6299921037217
 20
160.8260860243075
 30
0.0
 10
257.990659020529
 20
160.8400006384121
 30
0.0
 10
258.7384955962956
 20
160.8687110383139
 30
0.0
 10
259.1225108983189
 20
160.8833826201664
 30
0.0
 10
260.2971368693317
 20
160.9272889712806
 30
0.0
 10
261.1131270989397
 20
160.9565086842841
 30
0.0
 10
262.3857233070052
 20
160.997569301538
 30
0.0
 10
262.8180554609042
 20
161.0108001596945
 30
0.0
 10
263.6992440382457
 20
161.0359510957817
 30
0.0
 10
264.1495464595575
 20
161.0479037922154
 30
0.0
 10
265.5119891177816
 20
161.0809044441879
 30
0.0
 10
266.4365986781252
 20
161.099133178021
 30
0.0
 10
267.3774708347865
 20
161.1126876706562
 30
0.0
  0
SPLINE
  5
F0
330
1F
100
AcDbEntity
  8
0
  6
Continuous
 62
     7
370
     0
100
AcDbSpline
210
0.0
220
0.0
230
1.0
 70
     8
 71
     3
 72
    18
 73
    14
 74
     0
 42
0.00000001
 43
0.00000001
 40
0.0
 40
0.0
 40
0.0
 40
0.0
 40
0.1250000000000001
 40
0.1250000000000001
 40
0.2500000000000001
 40
0.2500000000000001
 40
0.5000000000000002
 40
0.5000000000000002
 40
0.6250000000000002
 40
0.6250000000000002
 40
0.7500000000000001
 40
0.7500000000000001
 40
1.0
 40
1.0
 40
1.0
 40
1.0
 10
246.4362368344956
 20
161.7094320413876
 30
0.0
 10
246.4411459043463
 20
161.7105327367281
 30
0.0
 10
246.4504139398565
 20
161.7023211212672
 30
0.0
 10
246.5137926295338
 20
161.6752878324233
 30
0.0
 10
246.5639366261569
 20
161.6555873794911
 30
0.0
 10
246.7836579025036
 20
161.5807297669145
 30
0.0
 10
247.0226876449251
 20
161.5099894814034
 30
0.0
 10
247.5881764732707
 20
161.3841176621735
 30
0.0
 10
247.8111466511042
 20
161.3388145195546
 30
0.0
 10
248.3372943740156
 20
161.2424820269246
 30
0.0
 10
248.6406929212372
 20
161.1914295353183
 30
0.0
 10
249.6815366099455
 20
161.0293816075234
 30
0.0
 10
250.5530675149645
 20
160.9104631946732
 30
0.0
 10
251.6086012951996
 20
160.7692362101174
 30
0.0
  0
DIMENSION
  5
F1
330
1F
100
AcDbEntity
  8
0
  6
Continuous
 62
     7
370
     0
100
AcDbDimension
  2
*D4
 10
280.9189225005
 20
60.8740389919
 30
0.0
 11
319.499892889
 21
60.8740389919
 31
0.0
 70
   160
 71
     2
 42
-1.0
  3
SLDDIMSTYLE0
100
AcDbAlignedDimension
 13
358.0808632776
 23
88.9652382074
 33
0.0
 14
280.9189225005
 24
79.6428255259
 34
0.0
 50
0.0
100
AcDbRotatedDimension
  0
DIMENSION
  5
102
330
1F
100
AcDbEntity
  8
0
  6
Continuous
 62
     7
370
     0
100
AcDbDimension
  2
*D5
 10
384.3308632776
 20
118.7920331266
 30
0.0
 11
384.3308632776
 21
103.878635667
 31
0.0
 70
   160
 71
     2
 42
-1.0
  3
SLDDIMSTYLE1
100
AcDbAlignedDimension
 13
358.0808632776
 23
88.9652382074
 33
0.0
 14
358.3808632776
 24
118.7920331266
 34
0.0
 50
90.0
100
AcDbRotatedDimension
  0
DIMENSION
  5
10D
330
1F
100
AcDbEntity
  8
0
  6
Continuous
 62
     7
370
     0
100
AcDbDimension
  2
*D6
 10
358.3808632776
 20
177.6251860788
 30
0.0
 11
302.0172911975
 21
177.6251860788
 31
0.0
 70
   160
 71
     2
 42
-1.0
  3
SLDDIMSTYLE0
100
AcDbAlignedDimension
 13
245.6537191173
 23
160.7333691482
 33
0.0
 14
358.3808632776
 24
118.7920331266
 34
0.0
100
AcDbRotatedDimension
  0
DIMENSION
  5
117
330
1F
100
AcDbEntity
  8
0
  6
Continuous
 62
     7
370
     0
100
AcDbDimension
  2
*D7
 10
393.0333238341
 20
88.9652382074
 30
0.0
 11
393.0333238341
 21
126.7137187674
 31
0.0
 70
   160
 71
     2
 42
-1.0
  3
SLDDIMSTYLE0
100
AcDbAlignedDimension
 13
271.4474092837
 23
164.4621993274
 33
0.0
 14
358.0808632776
 24
88.9652382074
 34
0.0
 50
90.0
100
AcDbRotatedDimension
  0
LINE
  5
121
330
1F
100
AcDbEntity
  8
0
  6
CENTERX2
 62
     7
370
     0
100
AcDbLine
 10
376.3308632776
 20
103.9652382074
 30
0.0
 11
347.3307632776
 21
103.9652382074
 31
0.0
  0
LINE
  5
122
330
1F
100
AcDbEntity
  8
0
  6
CENTERX2
 62
     7
370
     0
100
AcDbLine
 10
344.9745573593
 20
139.6984603847
 30
0.0
 11
279.2196308435
 21
73.943533869
 31
0.0
  0
LINE
  5
123
330
1F
100
AcDbEntity
  8
0
  6
Continuous
 62
     7
370
    15
100
AcDbLine
 10
120.4470823635
 20
367.1540387435
 30
0.0
 11
118.4470820357
 21
372.6489909454
 31
0.0
  0
LINE
  5
124
330
1F
100
AcDbEntity
  8
0
  6
Continuous
 62
     7
370
    15
100
AcDbLine
 10
118.4470820357
 20
372.6489909454
 30
0.0
 11
116.4470817079
 21
367.1540387435
 31
0.0
  0
LINE
  5
125
330
1F
100
AcDbEntity
  8
0
  6
Continuous
 62
     7
370
    15
100
AcDbLine
 10
116.4470817079
 20
367.1540387435
 30
0.0
 11
116.4470817079
 21
356.6989891691
 31
0.0
  0
LINE
  5
126
330
1F
100
AcDbEntity
  8
0
  6
Continuous
 62
     7
370
    15
100
AcDbLine
 10
120.4470823635
 20
356.6989891691
 30
0.0
 11
120.4470823635
 21
367.1540387435
 31
0.0
  0
LINE
  5
127
330
1F
100
AcDbEntity
  8
0
  6
Continuous
 62
     7
370
    15
100
AcDbLine
 10
150.447081693
 20
367.1540387435
 30
0.0
 11
148.4470813651
 21
372.6489909454
 31
0.0
  0
LINE
  5
128
330
1F
100
AcDbEntity
  8
0
  6
Continuous
 62
     7
370
    15
100
AcDbLine
 10
148.4470813651
 20
372.6489909454
 30
0.0
 11
146.4470810373
 21
367.1540387435
 31
0.0
  0
LINE
  5
129
330
1F
100
AcDbEntity
  8
0
  6
Continuous
 62
     7
370
    15
100
AcDbLine
 10
146.4470810373
 20
367.1540387435
 30
0.0
 11
146.4470810373
 21
356.6989891691
 31
0.0
  0
LINE
  5
12A
330
1F
100
AcDbEntity
  8
0
  6
Continuous
 62
     7
370
    15
100
AcDbLine
 10
150.447081693
 20
356.6989891691
 30
0.0
 11
150.447081693
 21
367.1540387435
 31
0.0
  0
SPLINE
  5
12B
330
1F
100
AcDbEntity
  8
0
  6
Continuous
 62
     7
370
    15
100
AcDbSpline
210
0.0
220
0.0
230
1.0
 70
     8
 71
     3
 72
    12
 73
     8
 74
     0
 42
0.00000001
 43
0.00000001
 40
0.0
 40
0.0
 40
0.0
 40
0.0
 40
0.1591399364267422
 40
0.3934041089160831
 40
0.6276205036040503
 40
0.8633978399076521
 40
1.0
 40
1.0
 40
1.0
 40
1.0
 10
204.4470812310343
 20
320.713713066125
 30
0.0
 10
204.4372833097848
 20
321.0443446502869
 30
0.0
 10
204.4130622213203
 20
321.8616870890695
 30
0.0
 10
204.1817951306606
 20
323.1531574331734
 30
0.0
 10
203.7217299991235
 20
324.5525231759685
 30
0.0
 10
203.1814653227054
 20
325.7135337517201
 30
0.0
 10
202.7299075150812
 20
326.3654938280665
 30
0.0
 10
202.5642599095469
 20
326.6046561761142
 30
0.0
  0
LINE
  5
12C
330
1F
100
AcDbEntity
  8
0
  6
Continuous
 62
     7
370
    15
100
AcDbLine
 10
204.447081231
 20
291.7223267718
 30
0.0
 11
204.447081231
 21
320.7137130661
 31
0.0
  0
LINE
  5
12D
330
1F
100
AcDbEntity
  8
0
  6
Continuous
 62
     7
370
    15
100
AcDbLine
 10
59.9566715886
 20
303.7593655749
 30
0.0
 11
59.6117246081
 21
303.6818348332
 31
0.0
  0
LINE
  5
12E
330
1F
100
AcDbEntity
  8
0
  6
Continuous
 62
     7
370
    15
100
AcDbLine
 10
56.1824384262
 20
300.881832139
 30
0.0
 11
56.0374873807
 21
300.5593561096
 31
0.0
  0
LINE
  5
12F
330
1F
100
AcDbEntity
  8
0
  6
Continuous
 62
     7
370
    15
100
AcDbLine
 10
56.0986939003
 20
298.1598370238
 30
0.0
 11
62.8486666013
 21
289.8928516073
 31
0.0
  0
LINE
  5
130
330
1F
100
AcDbEntity
  8
0
  6
Continuous
 62
     7
370
    15
100
AcDbLine
 10
62.7355742385
 20
302.6804618998
 30
0.0
 11
62.2954684426
 21
303.2194816036
 31
0.0
  0
SPLINE
  5
131
330
1F
100
AcDbEntity
  8
0
  6
Continuous
 62
     7
370
    15
100
AcDbSpline
210
0.0
220
0.0
230
1.0
 70
     8
 71
     3
 72
    10
 73
     6
 74
     0
 42
0.00000001
 43
0.00000001
 40
0.0
 40
0.0
 40
0.0
 40
0.0
 40
0.145667219517272
 40
0.6718223494056688
 40
1.0
 40
1.0
 40
1.0
 40
1.0
 10
204.0258440305358
 20
288.9203571243526
 30
0.0
 10
204.0705713983733
 20
289.0517374167302
 30
0.0
 10
204.2768555949343
 20
289.6576679547281
 30
0.0
 10
204.410495990869
 20
290.6042455236706
 30
0.0
 10
204.4369278676065
 20
291.4120299088078
 30
0.0
 10
204.4470812310343
 20
291.7223267717601
 30
0.0
  0
SPLINE
  5
132
330
1F
100
AcDbEntity
  8
0
  6
Continuous
 62
     7
370
    15
100
AcDbSpline
210
0.0
220
0.0
230
1.0
 70
     8
 71
     3
 72
    20
 73
    16
 74
     0
 42
0.00000001
 43
0.00000001
 40
0.0
 40
0.0
 40
0.0
 40
0.0
 40
0.0071680033249424
 40
0.0940373622998356
 40
0.1810620374444221
 40
0.2685808575372066
 40
0.3551650845996551
 40
0.4416952171401946
 40
0.5292833607846303
 40
0.6164848441708785
 40
0.703471338126454
 40
0.7913834564336084
 40
0.879424105342291
 40
0.9674256141867789
 40
1.0
 40
1.0
 40
1.0
 40
1.0
 10
201.9745352794295
 20
330.4200761480571
 30
0.0
 10
201.9687004587524
 20
330.4686653942841
 30
0.0
 10
201.8921531803697
 20
331.106109929979
 30
0.0
 10
201.5433189225199
 20
332.3023168542199
 30
0.0
 10
200.9226392192654
 20
333.9863583505164
 30
0.0
 10
200.081851895951
 20
335.5950243780042
 30
0.0
 10
199.0538544651293
 20
337.1114583489977
 30
0.0
 10
197.8471039188335
 20
338.5248486802031
 30
0.0
 10
196.4751189737544
 20
339.8286984120148
 30
0.0
 10
194.9468472415041
 20
341.0065424603472
 30
0.0
 10
193.2816031569146
 20
342.0468012195932
 30
0.0
 10
191.4972002695574
 20
342.9509872015724
 30
0.0
 10
189.6035142406365
 20
343.6942526727738
 30
0.0
 10
188.0540807736622
 20
344.1873824866298
 30
0.0
 10
187.1274002414808
 20
344.3747468827862
 30
0.0
 10
186.8770512868529
 20
344.4253646297694
 30
0.0
  0
SPLINE
  5
133
330
1F
100
AcDbEntity
  8
0
  6
Continuous
 62
     7
370
    15
100
AcDbSpline
210
0.0
220
0.0
230
1.0
 70
     8
 71
     3
 72
    20
 73
    16
 74
     0
 42
0.00000001
 43
0.00000001
 40
0.0
 40
0.0
 40
0.0
 40
0.0
 40
0.0073745961210119
 40
0.0954350836165621
 40
0.1838371511910727
 40
0.2728477835665092
 40
0.3611254261856019
 40
0.4491660608901239
 40
0.5379366746995137
 40
0.6260598782745089
 40
0.7136599089057065
 40
0.8017870232341056
 40
0.8899119803467735
 40
0.9776930675178748
 40
1.0
 40
1.0
 40
1.0
 40
1.0
 10
80.01676379934601
 20
344.4393195672275
 30
0.0
 10
79.96025096432197
 20
344.4289103536494
 30
0.0
 10
79.22891503114954
 20
344.2942041064317
 30
0.0
 10
77.86357785407853
 20
343.879215538881
 30
0.0
 10
75.94560070160648
 20
343.1894036390827
 30
0.0
 10
74.12155694984358
 20
342.3280173173774
 30
0.0
 10
72.41348863802011
 20
341.3206819974585
 30
0.0
 10
70.83772299444124
 20
340.1739070701124
 30
0.0
 10
69.40793421552125
 20
338.8990741470683
 30
0.0
 10
68.14636335169291
 20
337.5029982155162
 30
0.0
 10
67.06789023111024
 20
336.0032445595788
 30
0.0
 10
66.16985022216187
 20
334.4132976525395
 30
0.0
 10
65.48884564187543
 20
332.7401872746876
 30
0.0
 10
65.0860946024269
 20
331.4475145359953
 30
0.0
 10
64.97884553572054
 20
330.7086354288793
 30
0.0
 10
64.95711385504059
 20
330.5589177174808
 30
0.0
  0
SPLINE
  5
134
330
1F
100
AcDbEntity
  8
0
  6
Continuous
 62
     7
370
    15
100
AcDbSpline
210
0.0
220
0.0
230
1.0
 70
     8
 71
     3
 72
    16
 73
    12
 74
     0
 42
0.00000001
 43
0.00000001
 40
0.0
 40
0.0
 40
0.0
 40
0.0
 40
0.0575329785973368
 40
0.1646918532684137
 40
0.2674447776590708
 40
0.3783638548230676
 40
0.4938587403392544
 40
0.6147846783774472
 40
0.7444880577012213
 40
0.8893488926122265
 40
1.0
 40
1.0
 40
1.0
 40
1.0
 10
186.8732291390067
 20
344.4110073609592
 30
0.0
 10
185.8718902520587
 20
344.6413159426385
 30
0.0
 10
183.0054932557311
 20
345.3005890771975
 30
0.0
 10
178.2974118378901
 20
346.1653203333606
 30
0.0
 10
172.6213261391709
 20
347.0551921740379
 30
0.0
 10
166.7666964295764
 20
347.7889405349455
 30
0.0
 10
160.5663841625233
 20
348.3887717576868
 30
0.0
 10
154.0137353381699
 20
348.8445396043247
 30
0.0
 10
146.9252093687664
 20
349.168531977453
 30
0.0
 10
140.0153211166908
 20
349.3493647466264
 30
0.0
 10
135.4308573099734
 20
349.36290259706
 30
0.0
 10
133.4455254603987
 20
349.3687652511836
 30
0.0
  0
SPLINE
  5
135
330
1F
100
AcDbEntity
  8
0
  6
Continuous
 62
     7
370
    15
100
AcDbSpline
210
0.0
220
0.0
230
1.0
 70
     8
 71
     3
 72
    16
 73
    12
 74
     0
 42
0.00000001
 43
0.00000001
 40
0.0
 40
0.0
 40
0.0
 40
0.0
 40
0.052925538536774
 40
0.2020153483471047
 40
0.3403051101148563
 40
0.4656182498314543
 40
0.5821204395534011
 40
0.6915681144427316
 40
0.8078832901780785
 40
0.9199589154772014
 40
1.0
 40
1.0
 40
1.0
 40
1.0
 10
133.4452944924002
 20
349.3349247141124
 30
0.0
 10
132.4958424493076
 20
349.3380767254631
 30
0.0
 10
128.8718096944788
 20
349.3501078674904
 30
0.0
 10
122.767013522122
 20
349.2438070506569
 30
0.0
 10
115.367995743149
 20
348.9768064576673
 30
0.0
 10
108.5617059422405
 20
348.5629429425158
 30
0.0
 10
102.2856751667898
 20
348.0176783054834
 30
0.0
 10
96.18966576773322
 20
347.3200378289962
 30
0.0
 10
90.20313908719694
 20
346.4383776100682
 30
0.0
 10
84.76667763391629
 20
345.4781692729111
 30
0.0
 10
81.41579756678141
 20
344.7356130597018
 30
0.0
 10
80.0197291304236
 20
344.4262437982799
 30
0.0
  0
LINE
  5
136
330
1F
100
AcDbEntity
  8
0
  6
Continuous
 62
     7
370
    15
100
AcDbLine
 10
118.4470820357
 20
367.1540387435
 30
0.0
 11
120.4470823635
 21
367.1540387435
 31
0.0
  0
LINE
  5
137
330
1F
100
AcDbEntity
  8
0
  6
Continuous
 62
     7
370
    15
100
AcDbLine
 10
116.4470817079
 20
367.1540387435
 30
0.0
 11
118.4470820357
 21
367.1540387435
 31
0.0
  0
LINE
  5
138
330
1F
100
AcDbEntity
  8
0
  6
Continuous
 62
     7
370
    15
100
AcDbLine
 10
148.4470813651
 20
367.1540387435
 30
0.0
 11
150.447081693
 21
367.1540387435
 31
0.0
  0
LINE
  5
139
330
1F
100
AcDbEntity
  8
0
  6
Continuous
 62
     7
370
    15
100
AcDbLine
 10
146.4470810373
 20
367.1540387435
 30
0.0
 11
148.4470813651
 21
367.1540387435
 31
0.0
  0
LWPOLYLINE
  5
13A
330
1F
100
AcDbEntity
  8
0
  6
Continuous
 62
     7
370
    15
100
AcDbPolyline
 90
       25
 70
   128
 43
0.0
 10
55.9159907629
 20
299.7584186955
 10
56.0192781617
 20
299.1600327654
 10
56.3220846583
 20
298.6867569847
 10
56.8037795951
 20
298.3708523674
 10
57.4315357138
 20
298.2338361902
 10
58.1625792314
 20
298.2850365801
 10
58.9470806648
 20
298.5209815665
 10
59.7315820982
 20
298.9255778952
 10
60.4626256158
 20
299.4712733193
 10
61.0903817345
 20
300.120844738
 10
61.5720841219
 20
300.8300655051
 10
61.8748906185
 20
301.5505813523
 10
61.9781705667
 20
302.2332929535
 10
61.8748906185
 20
302.8316639824
 10
61.5720841219
 20
303.3049397631
 10
61.0903817345
 20
303.6208592816
 10
60.4626256158
 20
303.7578754587
 10
59.7315820982
 20
303.7066750689
 10
58.9470806648
 20
303.4707300825
 10
58.1625792314
 20
303.0661188526
 10
57.4315357138
 20
302.5204383297
 10
56.8037795951
 20
301.8708520098
 10
56.3220846583
 20
301.1616312428
 10
56.0192781617
 20
300.4411302967
 10
55.9159907629
 20
299.7584186955
  0
LWPOLYLINE
  5
13B
330
1F
100
AcDbEntity
  8
0
  6
Continuous
 62
     7
370
    15
100
AcDbPolyline
 90
        3
 70
   128
 43
0.0
 10
55.7329821517
 20
299.27545716
 10
55.8418127824
 20
300.0232868357
 10
56.0374873807
 20
300.5593561096
  0
LWPOLYLINE
  5
13C
330
1F
100
AcDbEntity
  8
0
  6
Continuous
 62
     7
370
    15
100
AcDbPolyline
 90
       20
 70
   128
 43
0.0
 10
59.9566715886
 20
303.7593655749
 10
60.6720241834
 20
303.8510524197
 10
61.4051836659
 20
303.77046694
 10
61.9995984365
 20
303.4963004751
 10
62.4179187347
 20
303.0457787676
 10
62.6338663627
 20
302.4472289248
 10
62.6338663627
 20
301.7382316752
 10
62.4179187347
 20
300.9633563919
 10
61.9995984365
 20
300.1712851687
 10
61.4051836659
 20
299.4117729826
 10
60.6720241834
 20
298.7325780554
 10
59.8461869289
 20
298.1763326092
 10
58.9795726468
 20
297.7780245705
 10
58.1266152789
 20
297.5626580878
 10
57.3409217526
 20
297.5437783165
 10
56.671859615
 20
297.7225624485
 10
56.1614650418
 20
298.0877750082
 10
55.8418127824
 20
298.6164831085
 10
55.7329821517
 20
299.27545716
 10
55.7329821517
 20
299.27545716
  0
SPLINE
  5
13D
330
1F
100
AcDbEntity
  8
0
  6
Continuous
 62
     7
370
    15
100
AcDbSpline
210
0.0
220
0.0
230
1.0
 70
     8
 71
     3
 72
    12
 73
     8
 74
     0
 42
0.00000001
 43
0.00000001
 40
0.0
 40
0.0
 40
0.0
 40
0.0
 40
0.1934622697461059
 40
0.3877405886350677
 40
0.6321492358109992
 40
0.8780696267622203
 40
1.0
 40
1.0
 40
1.0
 40
1.0
 10
64.90542172685915
 20
265.578671590829
 30
0.0
 10
64.59331983848345
 20
267.7594453430087
 30
0.0
 10
63.96779957516944
 20
272.1301916361219
 30
0.0
 10
63.2841153370997
 20
279.2843215495977
 30
0.0
 10
62.87107234849957
 20
287.0087047621303
 30
0.0
 10
62.72159896085238
 20
293.8515250695226
 30
0.0
 10
62.71005338002275
 20
297.8987531458691
 30
0.0
 10
62.70622640148453
 20
299.2402755184413
 30
0.0
  0
LWPOLYLINE
  5
13E
330
1F
100
AcDbEntity
  8
0
  6
Continuous
 62
     7
370
    15
100
AcDbPolyline
 90
        9
 70
   128
 43
0.0
 10
62.7062264015
 20
299.2402755184
 10
62.7048405935
 20
299.292742507
 10
62.7418029238
 20
299.3443154259
 10
62.8156754305
 20
299.3929975195
 10
62.9236268927
 20
299.4369112416
 10
63.0614998867
 20
299.474387662
 10
63.2239746977
 20
299.5039664669
 10
63.40481519
 20
299.5245151682
 10
63.5970401694
 20
299.5352291031
  0
LWPOLYLINE
  5
13F
330
1F
100
AcDbEntity
  8
0
  6
Continuous
 62
     7
370
    15
100
AcDbPolyline
 90
        9
 70
   128
 43
0.0
 10
203.2971250941
 20
299.5330386324
 10
203.4893500735
 20
299.52274193
 10
203.6701831152
 20
299.5026104613
 10
203.8326653768
 20
299.4734041853
 10
203.9705346455
 20
299.4362704916
 10
204.0784861077
 20
299.3926100893
 10
204.1523623397
 20
299.344136612
 10
204.1893172194
 20
299.2926978035
 10
204.187938862
 20
299.2402755184
  0
SPLINE
  5
140
330
1F
100
AcDbEntity
  8
0
  6
Continuous
 62
     7
370
    15
100
AcDbSpline
210
0.0
220
0.0
230
1.0
 70
     8
 71
     3
 72
    12
 73
     8
 74
     0
 42
0.00000001
 43
0.00000001
 40
0.0
 40
0.0
 40
0.0
 40
0.0
 40
0.1929377497233608
 40
0.3865513376695032
 40
0.6313505123322847
 40
0.8778240861407496
 40
1.0
 40
1.0
 40
1.0
 40
1.0
 10
204.1879388620024
 20
299.2402755184413
 30
0.0
 10
204.1787053071432
 20
297.1139721411153
 30
0.0
 10
204.1602058533692
 20
292.8539171960613
 30
0.0
 10
203.9665221823917
 20
285.783411474501
 30
0.0
 10
203.5312458203956
 20
278.0519068631106
 30
0.0
 10
202.795159294767
 20
271.1074248934027
 30
0.0
 10
202.1894312122717
 20
266.9545827924425
 30
0.0
 10
201.988683931983
 20
265.5782692594768
 30
0.0
  0
SPLINE
  5
141
330
1F
100
AcDbEntity
  8
0
  6
Continuous
 62
     7
370
    15
100
AcDbSpline
210
0.0
220
0.0
230
1.0
 70
     8
 71
     3
 72
    14
 73
    10
 74
     0
 42
0.00000001
 43
0.00000001
 40
0.0
 40
0.0
 40
0.0
 40
0.0
 40
0.146807727438606
 40
0.286230507517801
 40
0.429666834199133
 40
0.5700005268877752
 40
0.7144542738648741
 40
0.855170105348062
 40
1.0
 40
1.0
 40
1.0
 40
1.0
 10
80.00091641441637
 20
249.1402023000956
 30
0.0
 10
78.8874497702353
 20
249.4677478824725
 30
0.0
 10
76.71652778793455
 20
250.1063623472195
 30
0.0
 10
73.72142417607849
 20
251.7428871732396
 30
0.0
 10
71.06697282555325
 20
253.7864608148947
 30
0.0
 10
68.76877126441983
 20
256.2845650715585
 30
0.0
 10
66.94706702132824
 20
259.1164008843362
 30
0.0
 10
65.57686196610706
 20
262.2434131353609
 30
0.0
 10
65.13137462571876
 20
264.4562912620849
 30
0.0
 10
64.90542172685915
 20
265.578671590829
 30
0.0
  0
SPLINE
  5
142
330
1F
100
AcDbEntity
  8
0
  6
Continuous
 62
     7
370
    15
100
AcDbSpline
210
0.0
220
0.0
230
1.0
 70
     8
 71
     3
 72
    14
 73
    10
 74
     0
 42
0.00000001
 43
0.00000001
 40
0.0
 40
0.0
 40
0.0
 40
0.0
 40
0.1484943899264759
 40
0.2879857902731758
 40
0.431509414678079
 40
0.5715434011698527
 40
0.7156663709897644
 40
0.8557984897472353
 40
1.0
 40
1.0
 40
1.0
 40
1.0
 10
201.988683931983
 20
265.5782692594767
 30
0.0
 10
201.7556371955132
 20
264.4274322792552
 30
0.0
 10
201.3036729926494
 20
262.1955318189835
 30
0.0
 10
199.9168353232369
 20
259.0624439784139
 30
0.0
 10
198.0987787076412
 20
256.2510845323919
 30
0.0
 10
195.7989593196685
 20
253.7597710636263
 30
0.0
 10
193.1331413640159
 20
251.7156519418986
 30
0.0
 10
190.1413464580494
 20
250.0919631204725
 30
0.0
 10
187.9841284440413
 20
249.4596182864407
 30
0.0
 10
186.8900823523169
 20
249.138920800233
 30
0.0
  0
SPLINE
  5
143
330
1F
100
AcDbEntity
  8
0
  6
Continuous
 62
     7
370
    15
100
AcDbSpline
210
0.0
220
0.0
230
1.0
 70
     8
 71
     3
 72
    14
 73
    10
 74
     0
 42
0.00000001
 43
0.00000001
 40
0.0
 40
0.0
 40
0.0
 40
0.0
 40
0.1537643905002556
 40
0.3075206235169283
 40
0.4617272557354403
 40
0.6159199110796744
 40
0.7694124560191827
 40
0.9232565875994589
 40
0.9999999999999999
 40
0.9999999999999999
 40
0.9999999999999999
 40
0.9999999999999999
 10
133.4470826317435
 20
243.9977370662928
 30
0.0
 10
130.6879055986444
 20
244.0109151703585
 30
0.0
 10
125.1696979118601
 20
244.0372706793673
 30
0.0
 10
116.8873045924548
 20
244.2753189921283
 30
0.0
 10
108.6073400647568
 20
244.7435486726473
 30
0.0
 10
100.3536084240419
 20
245.5079938628606
 30
0.0
 10
92.1485883805715
 20
246.6354667630185
 30
0.0
 10
85.37018108177983
 20
247.8911579915545
 30
0.0
 10
81.34167198784394
 20
248.8283042615591
 30
0.0
 10
80.00091641441635
 20
249.1402023000956
 30
0.0
  0
LINE
  5
144
330
1F
100
AcDbEntity
  8
0
  6
Continuous
 62
     7
370
    15
100
AcDbLine
 10
201.9825856318
 20
330.4218344851
 30
0.0
 11
201.9818890025
 21
330.3208865686
 31
0.0
  0
SPLINE
  5
145
330
1F
100
AcDbEntity
  8
0
  6
Continuous
 62
     7
370
    15
100
AcDbSpline
210
0.0
220
0.0
230
1.0
 70
     8
 71
     3
 72
    12
 73
     8
 74
     0
 42
0.00000001
 43
0.00000001
 40
0.0
 40
0.0
 40
0.0
 40
0.0
 40
0.1936244645640158
 40
0.3880670296614479
 40
0.6323454074412085
 40
0.8781343414714512
 40
1.0
 40
1.0
 40
1.0
 40
1.0
 10
201.9818890024787
 20
330.3208865685702
 30
0.0
 10
202.2947142919377
 20
328.4481914844904
 30
0.0
 10
202.9216866177576
 20
324.6948888200939
 30
0.0
 10
203.6069189095015
 20
318.3003017646531
 30
0.0
 10
204.0211733913921
 20
311.1635353070752
 30
0.0
 10
204.1717134962522
 20
304.5967058274802
 30
0.0
 10
204.1838995707216
 20
300.5737543796801
 30
0.0
 10
204.1879388620024
 20
299.2402755184413
 30
0.0
  0
SPLINE
  5
146
330
1F
100
AcDbEntity
  8
0
  6
Continuous
 62
     7
370
    15
100
AcDbSpline
210
0.0
220
0.0
230
1.0
 70
     8
 71
     3
 72
    12
 73
     8
 74
     0
 42
0.00000001
 43
0.00000001
 40
0.0
 40
0.0
 40
0.0
 40
0.0
 40
0.1931017319395518
 40
0.3868816408718966
 40
0.6315493545576537
 40
0.8778905425095134
 40
0.9999999999999999
 40
0.9999999999999999
 40
0.9999999999999999
 40
0.9999999999999999
 10
62.70622640148454
 20
299.2402755184413
 30
0.0
 10
62.71582176665051
 20
301.3502526203275
 30
0.0
 10
62.73504619608931
 20
305.5776171042227
 30
0.0
 10
62.9302896233324
 20
312.3178371177086
 30
0.0
 10
63.36748952142187
 20
319.4405179084803
 30
0.0
 10
64.10511285777983
 20
325.59522883036
 30
0.0
 10
64.71140317060524
 20
329.1448350174064
 30
0.0
 10
64.91233586565309
 20
330.3212218446971
 30
0.0
  0
LINE
  5
147
330
1F
100
AcDbEntity
  8
0
  6
Continuous
 62
     7
370
    15
100
AcDbLine
 10
64.9123358657
 20
330.3212218447
 30
0.0
 11
64.9116653134
 21
330.4223262234
 31
0.0
  0
SPLINE
  5
148
330
1F
100
AcDbEntity
  8
0
  6
Continuous
 62
     7
370
    15
100
AcDbSpline
210
0.0
220
0.0
230
1.0
 70
     8
 71
     3
 72
    14
 73
    10
 74
     0
 42
0.00000001
 43
0.00000001
 40
0.0
 40
0.0
 40
0.0
 40
0.0
 40
0.1546297782571965
 40
0.3096563666398791
 40
0.4629769111708975
 40
0.6165524253330207
 40
0.7699419055520503
 40
0.9234373651624653
 40
1.0
 40
1.0
 40
1.0
 40
1.0
 10
186.8900823523169
 20
249.138920800233
 30
0.0
 10
184.1837338375624
 20
248.5301190993034
 30
0.0
 10
178.7640917906975
 20
247.3109533937143
 30
0.0
 10
170.5556926013782
 20
246.0142943801205
 30
0.0
 10
162.3209073003677
 20
245.0751392928182
 30
0.0
 10
154.0833019776443
 20
244.4729523105035
 30
0.0
 10
145.8282061325345
 20
244.1313119358431
 30
0.0
 10
138.9486845058561
 20
244.0118627422097
 30
0.0
 10
134.8208225491024
 20
244.0012642217125
 30
0.0
 10
133.4470826317435
 20
243.9977370662928
 30
0.0
  0
LWPOLYLINE
  5
149
330
1F
100
AcDbEntity
  8
0
  6
Continuous
 62
     7
370
    15
100
AcDbPolyline
 90
        6
 70
   128
 43
0.0
 10
133.4452795912
 20
349.348641233
 10
133.4452311625
 20
349.3488200469
 10
133.4451343049
 20
349.3253879709
 10
133.4451976349
 20
349.264010088
 10
133.4454211523
 20
349.1670780344
 10
133.4457974066
 20
349.038361804
  0
LINE
  5
14A
330
1F
100
AcDbEntity
  8
0
  6
Continuous
 62
     7
370
    15
100
AcDbLine
 10
163.4470817284
 20
356.3989915414
 30
0.0
 11
163.4470817284
 21
348.0815060897
 31
0.0
  0
LINE
  5
14B
330
1F
100
AcDbEntity
  8
0
  6
Continuous
 62
     7
370
    15
100
AcDbLine
 10
103.4470814397
 20
348.0897687836
 30
0.0
 11
103.4470814397
 21
356.3989915414
 31
0.0
  0
LINE
  5
14C
330
1F
100
AcDbEntity
  8
0
  6
Continuous
 62
     7
370
    15
100
AcDbLine
 10
104.4470834662
 20
356.6989891691
 30
0.0
 11
162.4470817973
 21
356.6989891691
 31
0.0
  0
LINE
  5
14D
330
1F
100
AcDbEntity
  8
0
  6
Continuous
 62
     7
370
    15
100
AcDbLine
 10
162.4470817973
 20
356.6989891691
 30
0.0
 11
163.1470817723
 21
356.6989891691
 31
0.0
  0
ARC
  5
14E
330
1F
100
AcDbEntity
  8
0
  6
Continuous
 62
     7
370
    15
100
AcDbCircle
 10
163.1470817184
 20
356.398992323
 30
0.0
 40
0.3000000000000114
100
AcDbArc
 50
0.0
 51
90.0
  0
LINE
  5
14F
330
1F
100
AcDbEntity
  8
0
  6
Continuous
 62
     7
370
    15
100
AcDbLine
 10
103.7470827927
 20
356.6989891691
 30
0.0
 11
104.4470834662
 21
356.6989891691
 31
0.0
  0
ARC
  5
150
330
1F
100
AcDbEntity
  8
0
  6
Continuous
 62
     7
370
    15
100
AcDbCircle
 10
103.7470817184
 20
356.398992323
 30
0.0
 40
0.3000000000000114
100
AcDbArc
 50
90.0
 51
180.0
  0
POINT
  5
151
330
1F
100
AcDbEntity
  8
0
  6
Continuous
 62
     7
370
    15
100
AcDbPoint
 10
204.1879373947
 20
299.2402812382
 30
0.0
  0
POINT
  5
152
330
1F
100
AcDbEntity
  8
0
  6
Continuous
 62
     7
370
    15
100
AcDbPoint
 10
62.7098411655
 20
299.304495887
 30
0.0
  0
DIMENSION
  5
153
330
1F
100
AcDbEntity
  8
0
  6
Continuous
 62
     7
370
     0
100
AcDbDimension
  2
*D8
 10
62.7098411655
 20
236.5474466925
 30
0.0
 11
133.4488892801
 21
236.5474466925
 31
0.0
 70
   160
 71
     2
 42
-1.0
  3
SLDDIMSTYLE0
100
AcDbAlignedDimension
 13
204.1879373947
 23
299.2402812382
 33
0.0
 14
62.7098411655
 24
299.304495887
 34
0.0
100
AcDbRotatedDimension
  0
LINE
  5
15D
330
1F
100
AcDbEntity
  8
0
  6
CENTERX2
 62
     7
370
     0
100
AcDbLine
 10
148.4470817184
 20
374.648992323
 30
0.0
 11
148.4470817184
 21
345.648892323
 31
0.0
  0
LINE
  5
15E
330
1F
100
AcDbEntity
  8
0
  6
CENTERX2
 62
     7
370
     0
100
AcDbLine
 10
118.4470817184
 20
374.648992323
 30
0.0
 11
118.4470817184
 21
345.648892323
 31
0.0
  0
LINE
  5
15F
330
1F
100
AcDbEntity
  8
0
  6
CENTERX2
 62
     7
370
     0
100
AcDbLine
 10
133.4470817184
 20
358.398992323
 30
0.0
 11
133.4470817184
 21
242.260606634
 31
0.0
  0
LINE
  5
160
330
1F
100
AcDbEntity
  8
0
  6
Continuous
 62
     7
370
    15
100
AcDbLine
 10
110.4470807244
 20
118.6047652083
 30
0.0
 11
111.447082751
 21
118.6047652083
 31
0.0
  0
LINE
  5
161
330
1F
100
AcDbEntity
  8
0
  6
Continuous
 62
     7
370
    15
100
AcDbLine
 10
111.447082751
 20
132.6047637778
 30
0.0
 11
110.4470807244
 21
132.6047637778
 31
0.0
  0
LINE
  5
162
330
1F
100
AcDbEntity
  8
0
  6
Continuous
 62
     7
370
    15
100
AcDbLine
 10
156.4470817451
 20
132.6047637778
 30
0.0
 11
155.4470815812
 21
132.6047637778
 31
0.0
  0
LINE
  5
163
330
1F
100
AcDbEntity
  8
0
  6
Continuous
 62
     7
370
    15
100
AcDbLine
 10
155.4470815812
 20
118.6047652083
 30
0.0
 11
156.4470817451
 21
118.6047652083
 31
0.0
  0
LINE
  5
164
330
1F
100
AcDbEntity
  8
0
  6
Continuous
 62
     7
370
    15
100
AcDbLine
 10
80.3752857377
 20
75.6428255046
 30
0.0
 11
188.4470823337
 21
75.6428255046
 31
0.0
  0
LINE
  5
165
330
1F
100
AcDbEntity
  8
0
  6
Continuous
 62
     7
370
    15
100
AcDbLine
 10
188.4470823337
 20
83.6428254189
 30
0.0
 11
80.3752857377
 21
83.6428254189
 31
0.0
  0
SPLINE
  5
166
330
1F
100
AcDbEntity
  8
0
  6
Continuous
 62
     7
370
    15
100
AcDbSpline
210
0.0
220
0.0
230
1.0
 70
     8
 71
     3
 72
    15
 73
    11
 74
     0
 42
0.00000001
 43
0.00000001
 40
0.0
 40
0.0
 40
0.0
 40
0.0
 40
0.0680641343173077
 40
0.205251599249055
 40
0.3420394865534079
 40
0.4780133832086534
 40
0.6130319112565008
 40
0.7472361478514928
 40
0.8812599524839003
 40
0.9999999999999999
 40
0.9999999999999999
 40
0.9999999999999999
 40
0.9999999999999999
 10
80.37528573767001
 20
83.6428254189318
 30
0.0
 10
80.16080368091657
 20
83.64604654060987
 30
0.0
 10
79.51401979685747
 20
83.65576003189909
 30
0.0
 10
78.44555120356858
 20
83.76725416928167
 30
0.0
 10
77.2179060776473
 20
84.01853936364267
 30
0.0
 10
76.08278892617604
 20
84.38230061062984
 30
0.0
 10
75.07124308682027
 20
84.83761155462037
 30
0.0
 10
74.21242265065405
 20
85.36005144863323
 30
0.0
 10
73.53705258020605
 20
85.90065998501085
 30
0.0
 10
73.22701420956426
 20
86.25080261564685
 30
0.0
 10
73.0813684989577
 20
86.4152879732078
 30
0.0
  0
SPLINE
  5
167
330
1F
100
AcDbEntity
  8
0
  6
Continuous
 62
     7
370
    15
100
AcDbSpline
210
0.0
220
0.0
230
1.0
 70
     8
 71
     3
 72
    16
 73
    12
 74
     0
 42
0.00000001
 43
0.00000001
 40
0.0
 40
0.0
 40
0.0
 40
0.0
 40
0.0696989903247515
 40
0.1832144865004941
 40
0.2977945924990302
 40
0.4137629640006434
 40
0.5306529678597857
 40
0.6480556498785762
 40
0.7656509505619777
 40
0.8833111761129678
 40
1.0
 40
1.0
 40
1.0
 40
1.0
 10
66.884593956626
 20
81.35564432464298
 30
0.0
 10
67.09755697328829
 20
81.10700990621054
 30
0.0
 10
67.65736292685497
 20
80.45343620181107
 30
0.0
 10
68.70749001409189
 20
79.49080245447246
 30
0.0
 10
70.05636147167822
 20
78.50154169388502
 30
0.0
 10
71.55070287412703
 20
77.64263191007035
 30
0.0
 10
73.1686781913488
 20
76.92349593747814
 30
0.0
 10
74.8870660351601
 20
76.3542665274588
 30
0.0
 10
76.68038140982135
 20
75.94634645164166
 30
0.0
 10
78.51819894067671
 20
75.69023305978514
 30
0.0
 10
79.75796979923673
 20
75.65858429384025
 30
0.0
 10
80.37528573767001
 20
75.64282550461348
 30
0.0
  0
SPLINE
  5
168
330
1F
100
AcDbEntity
  8
0
  6
Continuous
 62
     7
370
    15
100
AcDbSpline
210
0.0
220
0.0
230
1.0
 70
     8
 71
     3
 72
    19
 73
    15
 74
     0
 42
0.00000001
 43
0.00000001
 40
0.0
 40
0.0
 40
0.0
 40
0.0
 40
0.0444750688345121
 40
0.155436253077839
 40
0.2519310842115943
 40
0.3418676676526284
 40
0.4373983250043027
 40
0.5295625557812923
 40
0.6206341374965274
 40
0.7116104085189906
 40
0.8028371972632699
 40
0.8944519783170028
 40
0.9816586333869718
 40
0.9999999999999999
 40
0.9999999999999999
 40
0.9999999999999999
 40
0.9999999999999999
 10
196.4470817823773
 20
88.12810753457006
 30
0.0
 10
196.4450610492592
 20
88.06198232394047
 30
0.0
 10
196.4379987738635
 20
87.83088082722342
 30
0.0
 10
196.3502439856476
 20
87.43820985776844
 30
0.0
 10
196.1039605467162
 20
86.90181684533131
 30
0.0
 10
195.7020350634731
 20
86.33609622184267
 30
0.0
 10
195.1202127810358
 20
85.7522429740821
 30
0.0
 10
194.3459113552476
 20
85.181374071351
 30
0.0
 10
193.4185128025608
 20
84.671558711816
 30
0.0
 10
192.3562449056241
 20
84.24390182272576
 30
0.0
 10
191.1844108538732
 20
83.91713012759132
 30
0.0
 10
189.9555460340935
 20
83.71097208514519
 30
0.0
 10
189.0297201168016
 20
83.64650475823716
 30
0.0
 10
188.5333397067615
 20
83.64337013153408
 30
0.0
 10
188.4470823337203
 20
83.6428254189318
 30
0.0
  0
SPLINE
  5
169
330
1F
100
AcDbEntity
  8
0
  6
Continuous
 62
     7
370
    15
100
AcDbSpline
210
0.0
220
0.0
230
1.0
 70
     8
 71
     3
 72
    21
 73
    17
 74
     0
 42
0.00000001
 43
0.00000001
 40
0.0
 40
0.0
 40
0.0
 40
0.0
 40
0.0427135423990933
 40
0.1195052606427549
 40
0.1964934580024463
 40
0.2737069116715406
 40
0.3511756626498206
 40
0.4288692403863994
 40
0.5065990333872628
 40
0.5840710332473568
 40
0.6608863914964326
 40
0.7366256610106666
 40
0.8109779935032317
 40
0.8838478731930656
 40
0.9553822434852758
 40
0.9999999999999999
 40
0.9999999999999999
 40
0.9999999999999999
 40
0.9999999999999999
 10
188.4470823337203
 20
75.64282550461348
 30
0.0
 10
188.7939432764892
 20
75.64800031264326
 30
0.0
 10
189.7644014741514
 20
75.66247854946563
 30
0.0
 10
191.3519337374538
 20
75.81872973373706
 30
0.0
 10
193.1795033145376
 20
76.1595794681933
 30
0.0
 10
194.950028840754
 20
76.66754869582957
 30
0.0
 10
196.6398530900829
 20
77.33684005778308
 30
0.0
 10
198.2246916852552
 20
78.16371305221963
 30
0.0
 10
199.6792062284182
 20
79.14058930646584
 30
0.0
 10
200.9776034726151
 20
80.25600094331082
 30
0.0
 10
202.0955844155174
 20
81.49346465360706
 30
0.0
 10
203.0119900026565
 20
82.83132122089151
 30
0.0
 10
203.7131060227371
 20
84.24408226818215
 30
0.0
 10
204.1866593679697
 20
85.70462411643751
 30
0.0
 10
204.4159242435299
 20
87.00849890522511
 30
0.0
 10
204.4384343697349
 20
87.81738749059298
 30
0.0
 10
204.4470812310343
 20
88.12810753457006
 30
0.0
  0
LINE
  5
16A
330
1F
100
AcDbEntity
  8
0
  6
Continuous
 62
     7
370
    15
100
AcDbLine
 10
56.0986939003
 20
94.5656177866
 30
0.0
 11
66.8845939566
 21
81.3556443246
 31
0.0
  0
LINE
  5
16B
330
1F
100
AcDbEntity
  8
0
  6
Continuous
 62
     7
370
    15
100
AcDbLine
 10
73.081368499
 20
86.4152879732
 30
0.0
 11
62.2954684426
 21
99.6252623665
 31
0.0
  0
LINE
  5
16C
330
1F
100
AcDbEntity
  8
0
  6
Continuous
 62
     7
370
    15
100
AcDbLine
 10
204.447081231
 20
88.1281075346
 30
0.0
 11
204.447081231
 21
117.1194845157
 31
0.0
  0
LINE
  5
16D
330
1F
100
AcDbEntity
  8
0
  6
Continuous
 62
     7
370
    15
100
AcDbLine
 10
196.4470817824
 20
117.1194845157
 30
0.0
 11
196.4470817824
 21
88.1281075346
 31
0.0
  0
LINE
  5
16E
330
1F
100
AcDbEntity
  8
0
  6
Continuous
 62
     7
370
    15
100
AcDbLine
 10
59.9566715886
 20
100.1651332992
 30
0.0
 11
59.6117246081
 21
100.0876081454
 31
0.0
  0
LINE
  5
16F
330
1F
100
AcDbEntity
  8
0
  6
Continuous
 62
     7
370
    15
100
AcDbLine
 10
56.1824384262
 20
97.2876091766
 30
0.0
 11
56.0374873807
 21
96.9651331472
 31
0.0
  0
SPLINE
  5
170
330
1F
100
AcDbEntity
  8
0
  6
Continuous
 62
     7
370
    15
100
AcDbSpline
210
0.0
220
0.0
230
1.0
 70
     8
 71
     3
 72
    18
 73
    14
 74
     0
 42
0.00000001
 43
0.00000001
 40
0.0
 40
0.0
 40
0.0
 40
0.0
 40
0.0455983210180705
 40
0.1375042866380737
 40
0.229143008312084
 40
0.3202359499944234
 40
0.4106889380756072
 40
0.5005970287388911
 40
0.5903838650787391
 40
0.6806726147851506
 40
0.7730022805597776
 40
0.8702380647956388
 40
0.9999999999999999
 40
0.9999999999999999
 40
0.9999999999999999
 40
0.9999999999999999
 10
188.4470823337203
 20
121.6047675626701
 30
0.0
 10
188.6615641146688
 20
121.6015470506741
 30
0.0
 10
189.3083459177641
 20
121.591835416677
 30
0.0
 10
190.3768252834822
 20
121.4803309647016
 30
0.0
 10
191.6044217476583
 20
121.2290620055322
 30
0.0
 10
192.7397187697057
 20
120.8652699553371
 30
0.0
 10
193.7505919960708
 20
120.410066255798
 30
0.0
 10
194.6119170067064
 20
119.8872027783332
 30
0.0
 10
195.305926916794
 20
119.3258050542693
 30
0.0
 10
195.8266290349294
 20
118.7567466719504
 30
0.0
 10
196.1786985215389
 20
118.2074465000283
 30
0.0
 10
196.406351272529
 20
117.6515738276249
 30
0.0
 10
196.4322671313624
 20
117.3130179994338
 30
0.0
 10
196.4470817823773
 20
117.1194845157092
 30
0.0
  0
SPLINE
  5
171
330
1F
100
AcDbEntity
  8
0
  6
Continuous
 62
     7
370
    15
100
AcDbSpline
210
0.0
220
0.0
230
1.0
 70
     8
 71
     3
 72
    21
 73
    17
 74
     0
 42
0.00000001
 43
0.00000001
 40
0.0
 40
0.0
 40
0.0
 40
0.0
 40
0.0474789599426644
 40
0.1173710293107451
 40
0.1872486885010357
 40
0.257592127253203
 40
0.328811733192588
 40
0.4011752707872642
 40
0.4747647541205431
 40
0.5494728218509473
 40
0.6250524696785401
 40
0.7012066021677483
 40
0.7776740549948974
 40
0.8542527524962088
 40
0.9308718308519022
 40
1.0
 40
1.0
 40
1.0
 40
1.0
 10
204.4470812310344
 20
117.1194845157092
 30
0.0
 10
204.437343645894
 20
117.4501507029509
 30
0.0
 10
204.4132717118771
 20
118.2675786921417
 30
0.0
 10
204.1804780429268
 20
119.5582086914369
 30
0.0
 10
203.7266204884745
 20
120.9609772131999
 30
0.0
 10
203.0720444960935
 20
122.3046344610477
 30
0.0
 10
202.2280712034841
 20
123.5765729296745
 30
0.0
 10
201.2007769754087
 20
124.7639351358906
 30
0.0
 10
199.9996796961228
 20
125.8527328500645
 30
0.0
 10
198.6375086841296
 20
126.8280431866215
 30
0.0
 10
197.1316618028065
 20
127.6753056036614
 30
0.0
 10
195.5035436817597
 20
128.3812509743336
 30
0.0
 10
193.7774404740488
 20
128.9365865286318
 30
0.0
 10
191.9786392586149
 20
129.3301838955236
 30
0.0
 10
190.192609686025
 20
129.5639652721775
 30
0.0
 10
189.0086408030087
 20
129.5916393067026
 30
0.0
 10
188.4470823337203
 20
129.604765148682
 30
0.0
  0
LINE
  5
172
330
1F
100
AcDbEntity
  8
0
  6
Continuous
 62
     7
370
    15
100
AcDbLine
 10
111.447082751
 20
121.6047675627
 30
0.0
 11
111.6470824112
 21
121.6047675627
 31
0.0
  0
LINE
  5
173
330
1F
100
AcDbEntity
  8
0
  6
Continuous
 62
     7
370
    15
100
AcDbLine
 10
155.247081921
 20
121.6047675627
 30
0.0
 11
155.4470815812
 21
121.6047675627
 31
0.0
  0
LINE
  5
174
330
1F
100
AcDbEntity
  8
0
  6
Continuous
 62
     7
370
    15
100
AcDbLine
 10
163.4470817284
 20
121.6047675627
 30
0.0
 11
188.4470823337
 21
121.6047675627
 31
0.0
  0
LINE
  5
175
330
1F
100
AcDbEntity
  8
0
  6
Continuous
 62
     7
370
    15
100
AcDbLine
 10
188.4470823337
 20
129.6047651487
 30
0.0
 11
163.4470817284
 21
129.6047651487
 31
0.0
  0
LINE
  5
176
330
1F
100
AcDbEntity
  8
0
  6
Continuous
 62
     7
370
    15
100
AcDbLine
 10
155.4470815812
 20
129.6047651487
 30
0.0
 11
155.247081921
 21
129.6047651487
 31
0.0
  0
LINE
  5
177
330
1F
100
AcDbEntity
  8
0
  6
Continuous
 62
     7
370
    15
100
AcDbLine
 10
111.6470824112
 20
129.6047651487
 30
0.0
 11
111.447082751
 21
129.6047651487
 31
0.0
  0
SPLINE
  5
178
330
1F
100
AcDbEntity
  8
0
  6
Continuous
 62
     7
370
    15
100
AcDbSpline
210
0.0
220
0.0
230
1.0
 70
     8
 71
     3
 72
    19
 73
    15
 74
     0
 42
0.00000001
 43
0.00000001
 40
0.0
 40
0.0
 40
0.0
 40
0.0
 40
0.0348695836869016
 40
0.1231591824841068
 40
0.211450762640447
 40
0.2997442544919173
 40
0.3880393152159811
 40
0.476335610954469
 40
0.5646327891971904
 40
0.652930466853111
 40
0.74122821606774
 40
0.8295257452019636
 40
0.9178226779778347
 40
1.0
 40
1.0
 40
1.0
 40
1.0
 10
201.5649656881457
 20
161.107555897755
 30
0.0
 10
199.9869797633415
 20
161.2625325818202
 30
0.0
 10
194.4135419438554
 20
161.8099093983876
 30
0.0
 10
184.828853230553
 20
162.5912574286297
 30
0.0
 10
172.808468383645
 20
163.3822524195176
 30
0.0
 10
160.7747886302726
 20
163.9592242417217
 30
0.0
 10
148.7323984457031
 20
164.3289562835305
 30
0.0
 10
136.6849613540842
 20
164.4894408736154
 30
0.0
 10
124.6363831811215
 20
164.4412105389864
 30
0.0
 10
112.5905558385474
 20
164.183785686448
 30
0.0
 10
100.5512036378444
 20
163.7186420500473
 30
0.0
 10
88.52272501056017
 20
163.0407569809146
 30
0.0
 10
76.78452059998358
 20
162.1897627950317
 30
0.0
 10
69.06646513708074
 20
161.4645560294838
 30
0.0
 10
65.34596710697465
 20
161.1149692254489
 30
0.0
  0
SPLINE
  5
179
330
1F
100
AcDbEntity
  8
0
  6
Continuous
 62
     7
370
    15
100
AcDbSpline
210
0.0
220
0.0
230
1.0
 70
     8
 71
     3
 72
    15
 73
    11
 74
     0
 42
0.00000001
 43
0.00000001
 40
0.0
 40
0.0
 40
0.0
 40
0.0
 40
0.066302159507927
 40
0.2480916659745853
 40
0.4357361746144272
 40
0.5667998696827616
 40
0.6874263236202336
 40
0.8153655741800756
 40
0.9410463513370575
 40
1.0
 40
1.0
 40
1.0
 40
1.0
 10
204.181393526948
 20
156.2567063885158
 30
0.0
 10
204.1797149222031
 20
156.4298301380988
 30
0.0
 10
204.1734338621172
 20
157.0776304476602
 30
0.0
 10
204.1010046021523
 20
158.0151684459538
 30
0.0
 10
203.9283101334208
 20
158.9834168947775
 30
0.0
 10
203.636284534112
 20
159.7559130820032
 30
0.0
 10
203.1988374280378
 20
160.3765657437238
 30
0.0
 10
202.6194060870309
 20
160.8164879309884
 30
0.0
 10
202.0586089072262
 20
161.0553878912341
 30
0.0
 10
201.7096791092268
 20
161.080630939316
 30
0.0
 10
201.5982660581236
 20
161.0886910276836
 30
0.0
  0
LINE
  5
17A
330
1F
100
AcDbEntity
  8
0
  6
Continuous
 62
     7
370
    15
100
AcDbLine
 10
204.1880021919
 20
155.8079355674
 30
0.0
 11
204.1813935269
 21
156.2567063885
 31
0.0
  0
SPLINE
  5
17B
330
1F
100
AcDbEntity
  8
0
  6
Continuous
 62
     7
370
    15
100
AcDbSpline
210
0.0
220
0.0
230
1.0
 70
     8
 71
     3
 72
    15
 73
    11
 74
     0
 42
0.00000001
 43
0.00000001
 40
0.0
 40
0.0
 40
0.0
 40
0.0
 40
0.0932544254022855
 40
0.2135383693565817
 40
0.3408432891855102
 40
0.4661819521629476
 40
0.5945419413025491
 40
0.7425687924962278
 40
0.9267032126000653
 40
0.9999999999999999
 40
0.9999999999999999
 40
0.9999999999999999
 40
0.9999999999999999
 10
65.32374202505405
 20
161.0961639600223
 30
0.0
 10
65.1478060541075
 20
161.0754045604506
 30
0.0
 10
64.74493959297146
 20
161.0278687109267
 30
0.0
 10
64.14493385983906
 20
160.7389111522087
 30
0.0
 10
63.59258285642934
 20
160.2649314414197
 30
0.0
 10
63.18886796070247
 20
159.6102073964598
 30
0.0
 10
62.95500426979839
 20
158.9061890063728
 30
0.0
 10
62.79373487502451
 20
158.0032723284436
 30
0.0
 10
62.72289738789612
 20
157.1400404382499
 30
0.0
 10
62.715981403463
 20
156.468137230256
 30
0.0
 10
62.71401225820834
 20
156.2768304067081
 30
0.0
  0
SPLINE
  5
17C
330
1F
100
AcDbEntity
  8
0
  6
Continuous
 62
     7
370
    15
100
AcDbSpline
210
0.0
220
0.0
230
1.0
 70
     8
 71
     3
 72
     9
 73
     5
 74
     0
 42
0.00000001
 43
0.00000001
 40
0.0
 40
0.0
 40
0.0
 40
0.0
 40
0.5004686541070158
 40
1.0
 40
1.0
 40
1.0
 40
1.0
 10
201.6349676181441
 20
159.104042621178
 30
0.0
 10
201.6857149878359
 20
159.0983586294939
 30
0.0
 10
201.7871146844508
 20
159.0870012914518
 30
0.0
 10
201.8723295903883
 20
159.0756343556746
 30
0.0
 10
201.9148971070414
 20
159.0699562149471
 30
0.0
  0
SPLINE
  5
17D
330
1F
100
AcDbEntity
  8
0
  6
Continuous
 62
     7
370
    15
100
AcDbSpline
210
0.0
220
0.0
230
1.0
 70
     8
 71
     3
 72
     9
 73
     5
 74
     0
 42
0.00000001
 43
0.00000001
 40
0.0
 40
0.0
 40
0.0
 40
0.0
 40
0.4998196448764836
 40
0.9999999999999999
 40
0.9999999999999999
 40
0.9999999999999999
 40
0.9999999999999999
 10
64.97971146599109
 20
159.0700083690112
 30
0.0
 10
65.02225681528863
 20
159.0756625244925
 30
0.0
 10
65.10737821804587
 20
159.0869749159503
 30
0.0
 10
65.20854423632797
 20
159.0983569846129
 30
0.0
 10
65.25914549127872
 20
159.1040500717586
 30
0.0
  0
LWPOLYLINE
  5
17E
330
1F
100
AcDbEntity
  8
0
  6
Continuous
 62
     7
370
    15
100
AcDbPolyline
 90
        3
 70
   128
 43
0.0
 10
62.9741790821
 20
151.1896857338
 10
62.9861596157
 20
151.0839917975
 10
62.9981401493
 20
150.9782904106
  0
LWPOLYLINE
  5
17F
330
1F
100
AcDbEntity
  8
0
  6
Continuous
 62
     7
370
    15
100
AcDbPolyline
 90
        3
 70
   128
 43
0.0
 10
203.8961778511
 20
150.9796464162
 10
203.9069290389
 20
151.074514659
 10
203.9176802267
 20
151.1693754511
  0
ARC
  5
180
330
1F
100
AcDbEntity
  8
0
  6
Continuous
 62
     7
370
    15
100
AcDbCircle
 10
162.6470817184
 20
118.404766303
 30
0.0
 40
0.8000000000000398
100
AcDbArc
 50
270.0
 51
0.0
  0
ARC
  5
181
330
1F
100
AcDbEntity
  8
0
  6
Continuous
 62
     7
370
    15
100
AcDbCircle
 10
157.2470817184
 20
118.404766303
 30
0.0
 40
0.7999999999999972
100
AcDbArc
 50
180.0
 51
270.0
  0
ARC
  5
182
330
1F
100
AcDbEntity
  8
0
  6
Continuous
 62
     7
370
    15
100
AcDbCircle
 10
104.2470817184
 20
118.404766303
 30
0.0
 40
0.7999999999999972
100
AcDbArc
 50
180.0
 51
270.0
  0
LINE
  5
183
330
1F
100
AcDbEntity
  8
0
  6
Continuous
 62
     7
370
    15
100
AcDbLine
 10
104.2470800807
 20
117.604766907
 30
0.0
 11
109.6470820834
 21
117.604766907
 31
0.0
  0
ARC
  5
184
330
1F
100
AcDbEntity
  8
0
  6
Continuous
 62
     7
370
    15
100
AcDbCircle
 10
109.6470817184
 20
118.404766303
 30
0.0
 40
0.7999999999999972
100
AcDbArc
 50
270.0
 51
0.0
  0
LINE
  5
185
330
1F
100
AcDbEntity
  8
0
  6
Continuous
 62
     7
370
    15
100
AcDbLine
 10
157.2470813175
 20
117.604766907
 30
0.0
 11
162.6470816904
 21
117.604766907
 31
0.0
  0
SPLINE
  5
186
330
1F
100
AcDbEntity
  8
0
  6
Continuous
 62
     7
370
    15
100
AcDbSpline
210
0.0
220
0.0
230
1.0
 70
     8
 71
     3
 72
    20
 73
    16
 74
     0
 42
0.00000001
 43
0.00000001
 40
0.0
 40
0.0
 40
0.0
 40
0.0
 40
0.1203043966031418
 40
0.2267787656944892
 40
0.3206435550085128
 40
0.435051911452018
 40
0.5226202184239117
 40
0.5597880164370391
 40
0.592515308891176
 40
0.6208301247316259
 40
0.6590054241197827
 40
0.7156586863124436
 40
0.7910499613966665
 40
0.8859996309010143
 40
1.0
 40
1.0
 40
1.0
 40
1.0
 10
186.7630853433972
 20
132.8037538843578
 30
0.0
 10
187.6713581332133
 20
132.9161097501281
 30
0.0
 10
189.3834899256021
 20
133.127905206299
 30
0.0
 10
191.6626848191902
 20
133.6890395823174
 30
0.0
 10
193.7664383617359
 20
134.3869776585789
 30
0.0
 10
195.5823039820094
 20
135.1922469719547
 30
0.0
 10
196.9009429453376
 20
135.9428066686514
 30
0.0
 10
197.7021309344213
 20
136.4733159554923
 30
0.0
 10
198.1778575558048
 20
136.8164026304355
 30
0.0
 10
198.6378713910813
 20
137.1743205250702
 30
0.0
 10
199.1774308792017
 20
137.6312341630274
 30
0.0
 10
199.8587306348768
 20
138.2844147384112
 30
0.0
 10
200.6390763885515
 20
139.1905080175692
 30
0.0
 10
201.4258477212046
 20
140.3673489620948
 30
0.0
 10
201.748666069695
 20
141.2586855983409
 30
0.0
 10
201.9247914780741
 20
141.7449870424693
 30
0.0
  0
SPLINE
  5
187
330
1F
100
AcDbEntity
  8
0
  6
Continuous
 62
     7
370
    15
100
AcDbSpline
210
0.0
220
0.0
230
1.0
 70
     8
 71
     3
 72
    19
 73
    15
 74
     0
 42
0.00000001
 43
0.00000001
 40
0.0
 40
0.0
 40
0.0
 40
0.0
 40
0.1135910653849493
 40
0.2078007306513288
 40
0.2967060307790249
 40
0.3583004085698431
 40
0.3952806996139724
 40
0.4325720751607653
 40
0.4762897779859409
 40
0.5642990018151902
 40
0.679137082244112
 40
0.7720579888619682
 40
0.879204832793681
 40
1.0
 40
1.0
 40
1.0
 40
1.0
 10
64.96942966476733
 20
141.7447858767932
 30
0.0
 10
65.14484779997412
 20
141.2601630612779
 30
0.0
 10
65.46575346752752
 20
140.373605876405
 30
0.0
 10
66.2845446230476
 20
139.144661252311
 30
0.0
 10
67.13767879204136
 20
138.1703803483158
 30
0.0
 10
67.91055358081705
 20
137.4582283101104
 30
0.0
 10
68.5242809191323
 20
136.9602321714797
 30
0.0
 10
69.08802960594643
 20
136.5436058020813
 30
0.0
 10
69.94327413743407
 20
135.971364330978
 30
0.0
 10
71.30201846122331
 20
135.1970531976678
 30
0.0
 10
73.11645438213078
 20
134.3910056669054
 30
0.0
 10
75.22096976934115
 20
133.6918339225036
 30
0.0
 10
77.50095075306562
 20
133.1288667291081
 30
0.0
 10
79.22209817415553
 20
132.9159424055242
 30
0.0
 10
80.13419985071475
 20
132.8031056838458
 30
0.0
  0
LINE
  5
188
330
1F
100
AcDbEntity
  8
0
  6
Continuous
 62
     7
370
    15
100
AcDbLine
 10
155.247081921
 20
131.1220498102
 30
0.0
 11
155.4470815812
 21
131.1255180555
 31
0.0
  0
SPLINE
  5
189
330
1F
100
AcDbEntity
  8
0
  6
Continuous
 62
     7
370
    15
100
AcDbSpline
210
0.0
220
0.0
230
1.0
 70
     8
 71
     3
 72
    14
 73
    10
 74
     0
 42
0.00000001
 43
0.00000001
 40
0.0
 40
0.0
 40
0.0
 40
0.0
 40
0.0880046192035603
 40
0.3261793035179824
 40
0.4039034558810974
 40
0.5098344182939548
 40
0.6445986375098806
 40
0.8080081026639383
 40
1.0
 40
1.0
 40
1.0
 40
1.0
 10
163.4470817283606
 20
131.3220271187251
 30
0.0
 10
164.138187669899
 20
131.3428699392328
 30
0.0
 10
166.6996947442798
 20
131.4201215282752
 30
0.0
 10
169.8585042949655
 20
131.5719993733326
 30
0.0
 10
173.1498754924504
 20
131.7513660082024
 30
0.0
 10
175.629394204339
 20
131.902260581547
 30
0.0
 10
178.7669707244787
 20
132.1180616025749
 30
0.0
 10
182.5591060851067
 20
132.41359092324
 30
0.0
 10
185.288587914589
 20
132.666908708005
 30
0.0
 10
186.7630853433972
 20
132.8037538843578
 30
0.0
  0
SPLINE
  5
18A
330
1F
100
AcDbEntity
  8
0
  6
Continuous
 62
     7
370
    15
100
AcDbSpline
210
0.0
220
0.0
230
1.0
 70
     8
 71
     3
 72
    15
 73
    11
 74
     0
 42
0.00000001
 43
0.00000001
 40
0.0
 40
0.0
 40
0.0
 40
0.0
 40
0.1763554693372021
 40
0.3230456931460612
 40
0.4400047561822611
 40
0.5285399362480044
 40
0.6107299370232135
 40
0.694452553484766
 40
0.8965330615089324
 40
1.0
 40
1.0
 40
1.0
 40
1.0
 10
80.13419985071475
 20
132.8031056838458
 30
0.0
 10
81.48831168063906
 20
132.6773230444658
 30
0.0
 10
83.9687564116089
 20
132.4469160144089
 30
0.0
 10
87.3699121805359
 20
132.176497767718
 30
0.0
 10
90.10103266535684
 20
131.9808322072357
 30
0.0
 10
92.33791911164283
 20
131.836109027684
 30
0.0
 10
94.32020113976871
 20
131.7189042707663
 30
0.0
 10
97.19215728910376
 20
131.5651753782785
 30
0.0
 10
100.2368921596775
 20
131.422654526318
 30
0.0
 10
102.6350110847888
 20
131.3453285046106
 30
0.0
 10
103.4470814396506
 20
131.3191437440341
 30
0.0
  0
LINE
  5
18B
330
1F
100
AcDbEntity
  8
0
  6
Continuous
 62
     7
370
    15
100
AcDbLine
 10
111.447082751
 20
131.1099947708
 30
0.0
 11
111.6470824112
 21
131.1054052132
 31
0.0
  0
ARC
  5
18C
330
1F
100
AcDbEntity
  8
0
  6
Continuous
 62
     7
370
    15
100
AcDbCircle
 10
112.6470817184
 20
132.604766303
 30
0.0
 40
1.0
100
AcDbArc
 50
90.0
 51
180.0
  0
LINE
  5
18D
330
1F
100
AcDbEntity
  8
0
  6
Continuous
 62
     7
370
    15
100
AcDbLine
 10
154.247081757
 20
133.6047658043
 30
0.0
 11
112.6470807125
 21
133.6047658043
 31
0.0
  0
ARC
  5
18E
330
1F
100
AcDbEntity
  8
0
  6
Continuous
 62
     7
370
    15
100
AcDbCircle
 10
154.2470817184
 20
132.604766303
 30
0.0
 40
1.0
100
AcDbArc
 50
0.0
 51
90.0
  0
LINE
  5
18F
330
1F
100
AcDbEntity
  8
0
  6
Continuous
 62
     7
370
    15
100
AcDbLine
 10
118.9620810677
 20
104.9137384909
 30
0.0
 11
117.9320830037
 21
104.9137384909
 31
0.0
  0
LINE
  5
190
330
1F
100
AcDbEntity
  8
0
  6
Continuous
 62
     7
370
    15
100
AcDbLine
 10
118.9620810677
 20
106.1652385908
 30
0.0
 11
117.9320830037
 21
106.1652385908
 31
0.0
  0
LINE
  5
191
330
1F
100
AcDbEntity
  8
0
  6
Continuous
 62
     7
370
    15
100
AcDbLine
 10
119.3955819239
 20
103.4502395707
 30
0.0
 11
119.3955819239
 21
104.4802376347
 31
0.0
  0
LINE
  5
192
330
1F
100
AcDbEntity
  8
0
  6
Continuous
 62
     7
370
    15
100
AcDbLine
 10
120.6470820238
 20
103.4502395707
 30
0.0
 11
120.6470820238
 21
104.4802376347
 31
0.0
  0
LINE
  5
193
330
1F
100
AcDbEntity
  8
0
  6
Continuous
 62
     7
370
    15
100
AcDbLine
 10
117.4985821475
 20
104.4802376347
 30
0.0
 11
117.4985821475
 21
103.4502395707
 31
0.0
  0
LINE
  5
194
330
1F
100
AcDbEntity
  8
0
  6
Continuous
 62
     7
370
    15
100
AcDbLine
 10
116.2470820476
 20
104.4802376347
 30
0.0
 11
116.2470820476
 21
103.4502395707
 31
0.0
  0
LINE
  5
195
330
1F
100
AcDbEntity
  8
0
  6
Continuous
 62
     7
370
    15
100
AcDbLine
 10
117.9320830037
 20
103.0167387145
 30
0.0
 11
118.9620810677
 21
103.0167387145
 31
0.0
  0
LINE
  5
196
330
1F
100
AcDbEntity
  8
0
  6
Continuous
 62
     7
370
    15
100
AcDbLine
 10
117.9320830037
 20
101.7652386146
 30
0.0
 11
118.9620810677
 21
101.7652386146
 31
0.0
  0
ARC
  5
197
330
1F
100
AcDbEntity
  8
0
  6
Continuous
 62
     7
370
    15
100
AcDbCircle
 10
118.4470817184
 20
103.9652382074
 30
0.0
 40
0.8500000000000133
100
AcDbArc
 50
217.292362089
 51
232.707637911
  0
ARC
  5
198
330
1F
100
AcDbEntity
  8
0
  6
Continuous
 62
     7
370
    15
100
AcDbCircle
 10
118.4470817184
 20
103.9652382074
 30
0.0
 40
0.850000000000002
100
AcDbArc
 50
307.292362089
 51
322.707637911
  0
ARC
  5
199
330
1F
100
AcDbEntity
  8
0
  6
Continuous
 62
     7
370
    15
100
AcDbCircle
 10
118.4470817184
 20
103.9652382074
 30
0.0
 40
0.850000000000002
100
AcDbArc
 50
37.292362089
 51
52.707637911
  0
ARC
  5
19A
330
1F
100
AcDbEntity
  8
0
  6
Continuous
 62
     7
370
    15
100
AcDbCircle
 10
118.4470817184
 20
103.9652382074
 30
0.0
 40
0.8500000000000133
100
AcDbArc
 50
127.292362089
 51
142.707637911
  0
CIRCLE
  5
19B
330
1F
100
AcDbEntity
  8
0
  6
Continuous
 62
     7
370
    15
100
AcDbCircle
 10
118.4470817184
 20
103.9652382074
 30
0.0
 40
4.0
  0
LINE
  5
19C
330
1F
100
AcDbEntity
  8
0
  6
Continuous
 62
     7
370
    15
100
AcDbLine
 10
119.1233041813
 20
103.4502395707
 30
0.0
 11
120.6470820238
 21
103.4502395707
 31
0.0
  0
LINE
  5
19D
330
1F
100
AcDbEntity
  8
0
  6
Continuous
 62
     7
370
    15
100
AcDbLine
 10
118.9620810677
 20
101.7652386146
 30
0.0
 11
118.9620810677
 21
103.2890164571
 31
0.0
  0
LINE
  5
19E
330
1F
100
AcDbEntity
  8
0
  6
Continuous
 62
     7
370
    15
100
AcDbLine
 10
117.9320830037
 20
106.1652385908
 30
0.0
 11
117.9320830037
 21
104.6414607482
 31
0.0
  0
LINE
  5
19F
330
1F
100
AcDbEntity
  8
0
  6
Continuous
 62
     7
370
    15
100
AcDbLine
 10
120.6470820238
 20
104.4802376347
 30
0.0
 11
119.1233041813
 21
104.4802376347
 31
0.0
  0
LINE
  5
1A0
330
1F
100
AcDbEntity
  8
0
  6
Continuous
 62
     7
370
    15
100
AcDbLine
 10
118.9620810677
 20
104.6414607482
 30
0.0
 11
118.9620810677
 21
106.1652385908
 31
0.0
  0
LINE
  5
1A1
330
1F
100
AcDbEntity
  8
0
  6
Continuous
 62
     7
370
    15
100
AcDbLine
 10
116.2470820476
 20
103.4502395707
 30
0.0
 11
117.7708598901
 21
103.4502395707
 31
0.0
  0
LINE
  5
1A2
330
1F
100
AcDbEntity
  8
0
  6
Continuous
 62
     7
370
    15
100
AcDbLine
 10
117.7708598901
 20
104.4802376347
 30
0.0
 11
116.2470820476
 21
104.4802376347
 31
0.0
  0
LINE
  5
1A3
330
1F
100
AcDbEntity
  8
0
  6
Continuous
 62
     7
370
    15
100
AcDbLine
 10
117.9320830037
 20
103.2890164571
 30
0.0
 11
117.9320830037
 21
101.7652386146
 31
0.0
  0
LINE
  5
1A4
330
1F
100
AcDbEntity
  8
0
  6
Continuous
 62
     7
370
    15
100
AcDbLine
 10
117.7708598901
 20
103.4502395707
 30
0.0
 11
117.9320830037
 21
103.4502395707
 31
0.0
  0
SPLINE
  5
1A5
330
1F
100
AcDbEntity
  8
0
  6
Continuous
 62
     7
370
    15
100
AcDbSpline
210
0.0
220
0.0
230
1.0
 70
    24
 71
     3
 72
     9
 73
     5
 74
     0
 42
0.00000001
 43
0.00000001
 40
0.0
 40
0.0
 40
0.0
 40
0.0
 40
0.7772126000277169
 40
0.9999999999999999
 40
0.9999999999999999
 40
0.9999999999999999
 40
0.9999999999999999
 10
117.9320830036765
 20
103.45023957066
 30
0.0
 10
117.9320830036765
 20
103.4071021438365
 30
0.0
 10
117.9320830036765
 20
103.3515994064621
 30
0.0
 10
117.9320830036765
 20
103.3004188420071
 30
0.0
 10
117.9320830036765
 20
103.2890164571231
 30
0.0
  0
SPLINE
  5
1A6
330
1F
100
AcDbEntity
  8
0
  6
Continuous
 62
     7
370
    15
100
AcDbSpline
210
0.0
220
0.0
230
1.0
 70
    24
 71
     3
 72
     9
 73
     5
 74
     0
 42
0.00000001
 43
0.00000001
 40
0.0
 40
0.0
 40
0.0
 40
0.0
 40
0.7772126000277169
 40
0.9999999999999999
 40
0.9999999999999999
 40
0.9999999999999999
 40
0.9999999999999999
 10
118.9620810677176
 20
103.45023957066
 30
0.0
 10
119.0052184945411
 20
103.45023957066
 30
0.0
 10
119.0607212319155
 20
103.4502395706599
 30
0.0
 10
119.1119017963704
 20
103.45023957066
 30
0.0
 10
119.1233041812545
 20
103.45023957066
 30
0.0
  0
LINE
  5
1A7
330
1F
100
AcDbEntity
  8
0
  6
Continuous
 62
     7
370
    15
100
AcDbLine
 10
118.9620810677
 20
103.2890164571
 30
0.0
 11
118.9620810677
 21
103.4502395707
 31
0.0
  0
LINE
  5
1A8
330
1F
100
AcDbEntity
  8
0
  6
Continuous
 62
     7
370
    15
100
AcDbLine
 10
117.9320830037
 20
104.6414607482
 30
0.0
 11
117.9320830037
 21
104.4802376347
 31
0.0
  0
SPLINE
  5
1A9
330
1F
100
AcDbEntity
  8
0
  6
Continuous
 62
     7
370
    15
100
AcDbSpline
210
0.0
220
0.0
230
1.0
 70
    24
 71
     3
 72
     9
 73
     5
 74
     0
 42
0.00000001
 43
0.00000001
 40
0.0
 40
0.0
 40
0.0
 40
0.0
 40
0.7772126000277169
 40
0.9999999999999999
 40
0.9999999999999999
 40
0.9999999999999999
 40
0.9999999999999999
 10
117.9320830036765
 20
104.4802376347011
 30
0.0
 10
117.888945576853
 20
104.4802376347011
 30
0.0
 10
117.8334428394786
 20
104.4802376347011
 30
0.0
 10
117.7822622750237
 20
104.4802376347011
 30
0.0
 10
117.7708598901396
 20
104.4802376347011
 30
0.0
  0
LINE
  5
1AA
330
1F
100
AcDbEntity
  8
0
  6
Continuous
 62
     7
370
    15
100
AcDbLine
 10
119.1233041813
 20
104.4802376347
 30
0.0
 11
118.9620810677
 21
104.4802376347
 31
0.0
  0
SPLINE
  5
1AB
330
1F
100
AcDbEntity
  8
0
  6
Continuous
 62
     7
370
    15
100
AcDbSpline
210
0.0
220
0.0
230
1.0
 70
    24
 71
     3
 72
     9
 73
     5
 74
     0
 42
0.00000001
 43
0.00000001
 40
0.0
 40
0.0
 40
0.0
 40
0.0
 40
0.7772126000277169
 40
0.9999999999999999
 40
0.9999999999999999
 40
0.9999999999999999
 40
0.9999999999999999
 10
118.9620810677176
 20
104.4802376347011
 30
0.0
 10
118.9620810677176
 20
104.5233750615245
 30
0.0
 10
118.9620810677176
 20
104.578877798899
 30
0.0
 10
118.9620810677176
 20
104.6300583633539
 30
0.0
 10
118.9620810677176
 20
104.6414607482379
 30
0.0
  0
CIRCLE
  5
1AC
330
1F
100
AcDbEntity
  8
0
  6
Continuous
 62
     7
370
    15
100
AcDbCircle
 10
118.4470817184
 20
103.9652382074
 30
0.0
 40
0.7059507673963594
  0
LINE
  5
1AD
330
1F
100
AcDbEntity
  8
0
  6
Continuous
 62
     7
370
    15
100
AcDbLine
 10
147.498581477
 20
104.4802376347
 30
0.0
 11
147.498581477
 21
103.4502395707
 31
0.0
  0
LINE
  5
1AE
330
1F
100
AcDbEntity
  8
0
  6
Continuous
 62
     7
370
    15
100
AcDbLine
 10
146.2470813771
 20
104.4802376347
 30
0.0
 11
146.2470813771
 21
103.4502395707
 31
0.0
  0
LINE
  5
1AF
330
1F
100
AcDbEntity
  8
0
  6
Continuous
 62
     7
370
    15
100
AcDbLine
 10
148.9620822598
 20
104.9137384909
 30
0.0
 11
147.9320823331
 21
104.9137384909
 31
0.0
  0
LINE
  5
1B0
330
1F
100
AcDbEntity
  8
0
  6
Continuous
 62
     7
370
    15
100
AcDbLine
 10
148.9620822598
 20
106.1652385908
 30
0.0
 11
147.9320823331
 21
106.1652385908
 31
0.0
  0
LINE
  5
1B1
330
1F
100
AcDbEntity
  8
0
  6
Continuous
 62
     7
370
    15
100
AcDbLine
 10
149.3955812533
 20
103.4502395707
 30
0.0
 11
149.3955812533
 21
104.4802376347
 31
0.0
  0
LINE
  5
1B2
330
1F
100
AcDbEntity
  8
0
  6
Continuous
 62
     7
370
    15
100
AcDbLine
 10
150.6470813532
 20
103.4502395707
 30
0.0
 11
150.6470813532
 21
104.4802376347
 31
0.0
  0
LINE
  5
1B3
330
1F
100
AcDbEntity
  8
0
  6
Continuous
 62
     7
370
    15
100
AcDbLine
 10
146.2470813771
 20
103.4502395707
 30
0.0
 11
147.7708610822
 21
103.4502395707
 31
0.0
  0
ARC
  5
1B4
330
1F
100
AcDbEntity
  8
0
  6
Continuous
 62
     7
370
    15
100
AcDbCircle
 10
148.4470817184
 20
103.9652382074
 30
0.0
 40
0.850000000000002
100
AcDbArc
 50
217.292362089
 51
232.707637911
  0
LINE
  5
1B5
330
1F
100
AcDbEntity
  8
0
  6
Continuous
 62
     7
370
    15
100
AcDbLine
 10
147.9320823331
 20
103.2890164571
 30
0.0
 11
147.9320823331
 21
101.7652386146
 31
0.0
  0
LINE
  5
1B6
330
1F
100
AcDbEntity
  8
0
  6
Continuous
 62
     7
370
    15
100
AcDbLine
 10
147.9320823331
 20
101.7652386146
 30
0.0
 11
148.9620822598
 21
101.7652386146
 31
0.0
  0
LINE
  5
1B7
330
1F
100
AcDbEntity
  8
0
  6
Continuous
 62
     7
370
    15
100
AcDbLine
 10
148.9620822598
 20
101.7652386146
 30
0.0
 11
148.9620822598
 21
103.2890164571
 31
0.0
  0
ARC
  5
1B8
330
1F
100
AcDbEntity
  8
0
  6
Continuous
 62
     7
370
    15
100
AcDbCircle
 10
148.4470817184
 20
103.9652382074
 30
0.0
 40
0.850000000000002
100
AcDbArc
 50
307.292362089
 51
322.707637911
  0
LINE
  5
1B9
330
1F
100
AcDbEntity
  8
0
  6
Continuous
 62
     7
370
    15
100
AcDbLine
 10
150.6470813532
 20
104.4802376347
 30
0.0
 11
149.1233035107
 21
104.4802376347
 31
0.0
  0
ARC
  5
1BA
330
1F
100
AcDbEntity
  8
0
  6
Continuous
 62
     7
370
    15
100
AcDbCircle
 10
148.4470817184
 20
103.9652382074
 30
0.0
 40
0.850000000000002
100
AcDbArc
 50
37.292362089
 51
52.707637911
  0
LINE
  5
1BB
330
1F
100
AcDbEntity
  8
0
  6
Continuous
 62
     7
370
    15
100
AcDbLine
 10
147.9320823331
 20
106.1652385908
 30
0.0
 11
147.9320823331
 21
104.6414607482
 31
0.0
  0
ARC
  5
1BC
330
1F
100
AcDbEntity
  8
0
  6
Continuous
 62
     7
370
    15
100
AcDbCircle
 10
148.4470817184
 20
103.9652382074
 30
0.0
 40
0.850000000000002
100
AcDbArc
 50
127.292362089
 51
142.707637911
  0
CIRCLE
  5
1BD
330
1F
100
AcDbEntity
  8
0
  6
Continuous
 62
     7
370
    15
100
AcDbCircle
 10
148.4470817184
 20
103.9652382074
 30
0.0
 40
4.0
  0
LINE
  5
1BE
330
1F
100
AcDbEntity
  8
0
  6
Continuous
 62
     7
370
    15
100
AcDbLine
 10
147.7708610822
 20
104.4802376347
 30
0.0
 11
146.2470813771
 21
104.4802376347
 31
0.0
  0
LINE
  5
1BF
330
1F
100
AcDbEntity
  8
0
  6
Continuous
 62
     7
370
    15
100
AcDbLine
 10
149.1233035107
 20
103.4502395707
 30
0.0
 11
150.6470813532
 21
103.4502395707
 31
0.0
  0
LINE
  5
1C0
330
1F
100
AcDbEntity
  8
0
  6
Continuous
 62
     7
370
    15
100
AcDbLine
 10
148.9620822598
 20
104.6414607482
 30
0.0
 11
148.9620822598
 21
106.1652385908
 31
0.0
  0
LINE
  5
1C1
330
1F
100
AcDbEntity
  8
0
  6
Continuous
 62
     7
370
    15
100
AcDbLine
 10
147.9320823331
 20
103.0167387145
 30
0.0
 11
148.9620822598
 21
103.0167387145
 31
0.0
  0
LINE
  5
1C2
330
1F
100
AcDbEntity
  8
0
  6
Continuous
 62
     7
370
    15
100
AcDbLine
 10
149.1233035107
 20
104.4802376347
 30
0.0
 11
148.9620822598
 21
104.4802376347
 31
0.0
  0
SPLINE
  5
1C3
330
1F
100
AcDbEntity
  8
0
  6
Continuous
 62
     7
370
    15
100
AcDbSpline
210
0.0
220
0.0
230
1.0
 70
    24
 71
     3
 72
     9
 73
     5
 74
     0
 42
0.00000001
 43
0.00000001
 40
0.0
 40
0.0
 40
0.0
 40
0.0
 40
0.7772126000277169
 40
0.9999999999999999
 40
0.9999999999999999
 40
0.9999999999999999
 40
0.9999999999999999
 10
148.9620822598105
 20
104.4802376347011
 30
0.0
 10
148.9620822598105
 20
104.5233750615245
 30
0.0
 10
148.9620822598105
 20
104.578877798899
 30
0.0
 10
148.9620822598105
 20
104.6300583633539
 30
0.0
 10
148.9620822598105
 20
104.6414607482379
 30
0.0
  0
LINE
  5
1C4
330
1F
100
AcDbEntity
  8
0
  6
Continuous
 62
     7
370
    15
100
AcDbLine
 10
147.9320823331
 20
104.6414607482
 30
0.0
 11
147.9320823331
 21
104.4802376347
 31
0.0
  0
SPLINE
  5
1C5
330
1F
100
AcDbEntity
  8
0
  6
Continuous
 62
     7
370
    15
100
AcDbSpline
210
0.0
220
0.0
230
1.0
 70
    24
 71
     3
 72
     9
 73
     5
 74
     0
 42
0.00000001
 43
0.00000001
 40
0.0
 40
0.0
 40
0.0
 40
0.0
 40
0.7772126732654051
 40
1.0
 40
1.0
 40
1.0
 40
1.0
 10
147.9320823331242
 20
104.4802376347011
 30
0.0
 10
147.888944071077
 20
104.4802376347011
 30
0.0
 10
147.8334402642928
 20
104.4802376347011
 30
0.0
 10
147.7822627776669
 20
104.4802376347011
 30
0.0
 10
147.7708610822325
 20
104.4802376347011
 30
0.0
  0
LINE
  5
1C6
330
1F
100
AcDbEntity
  8
0
  6
Continuous
 62
     7
370
    15
100
AcDbLine
 10
148.9620822598
 20
103.2890164571
 30
0.0
 11
148.9620822598
 21
103.4502395707
 31
0.0
  0
SPLINE
  5
1C7
330
1F
100
AcDbEntity
  8
0
  6
Continuous
 62
     7
370
    15
100
AcDbSpline
210
0.0
220
0.0
230
1.0
 70
    24
 71
     3
 72
     9
 73
     5
 74
     0
 42
0.00000001
 43
0.00000001
 40
0.0
 40
0.0
 40
0.0
 40
0.0
 40
0.7772126732654051
 40
1.0
 40
1.0
 40
1.0
 40
1.0
 10
148.9620822598105
 20
103.45023957066
 30
0.0
 10
149.0052205218577
 20
103.45023957066
 30
0.0
 10
149.060724328642
 20
103.45023957066
 30
0.0
 10
149.1119018152678
 20
103.45023957066
 30
0.0
 10
149.1233035107022
 20
103.45023957066
 30
0.0
  0
SPLINE
  5
1C8
330
1F
100
AcDbEntity
  8
0
  6
Continuous
 62
     7
370
    15
100
AcDbSpline
210
0.0
220
0.0
230
1.0
 70
    24
 71
     3
 72
     9
 73
     5
 74
     0
 42
0.00000001
 43
0.00000001
 40
0.0
 40
0.0
 40
0.0
 40
0.0
 40
0.7772126000277169
 40
0.9999999999999999
 40
0.9999999999999999
 40
0.9999999999999999
 40
0.9999999999999999
 10
147.9320823331242
 20
103.45023957066
 30
0.0
 10
147.9320823331242
 20
103.4071021438365
 30
0.0
 10
147.9320823331242
 20
103.3515994064621
 30
0.0
 10
147.9320823331242
 20
103.3004188420071
 30
0.0
 10
147.9320823331242
 20
103.2890164571231
 30
0.0
  0
LINE
  5
1C9
330
1F
100
AcDbEntity
  8
0
  6
Continuous
 62
     7
370
    15
100
AcDbLine
 10
147.7708610822
 20
103.4502395707
 30
0.0
 11
147.9320823331
 21
103.4502395707
 31
0.0
  0
CIRCLE
  5
1CA
330
1F
100
AcDbEntity
  8
0
  6
Continuous
 62
     7
370
    15
100
AcDbCircle
 10
148.4470817184
 20
103.9652382074
 30
0.0
 40
0.7059507673963594
  0
LINE
  5
1CB
330
1F
100
AcDbEntity
  8
0
  6
Continuous
 62
     7
370
    15
100
AcDbLine
 10
111.447082751
 20
130.5545130091
 30
0.0
 11
111.447082751
 21
118.6047652083
 31
0.0
  0
LINE
  5
1CC
330
1F
100
AcDbEntity
  8
0
  6
Continuous
 62
     7
370
    15
100
AcDbLine
 10
111.447082751
 20
132.6047637778
 30
0.0
 11
111.447082751
 21
130.5545130091
 31
0.0
  0
LINE
  5
1CD
330
1F
100
AcDbEntity
  8
0
  6
Continuous
 62
     7
370
    15
100
AcDbLine
 10
155.4470815812
 20
130.5545130091
 30
0.0
 11
155.4470815812
 21
132.6047637778
 31
0.0
  0
LINE
  5
1CE
330
1F
100
AcDbEntity
  8
0
  6
Continuous
 62
     7
370
    15
100
AcDbLine
 10
155.4470815812
 20
118.6047652083
 30
0.0
 11
155.4470815812
 21
130.5545130091
 31
0.0
  0
LWPOLYLINE
  5
1CF
330
1F
100
AcDbEntity
  8
0
  6
Continuous
 62
     7
370
    15
100
AcDbPolyline
 90
        3
 70
   128
 43
0.0
 10
55.7329821517
 20
95.681226747
 10
55.8418127824
 20
95.0222545581
 10
56.0986939003
 20
94.5656177866
  0
LWPOLYLINE
  5
1D0
330
1F
100
AcDbEntity
  8
0
  6
Continuous
 62
     7
370
    15
100
AcDbPolyline
 90
       12
 70
   128
 43
0.0
 10
62.2954684426
 20
99.6252623665
 10
61.9995984365
 20
99.9020700621
 10
61.4051836659
 20
100.1762346642
 10
60.6720241834
 20
100.256820144
 10
59.8461869289
 20
100.1387656944
 10
58.9795726468
 20
99.8294865059
 10
58.1266152789
 20
99.3484174179
 10
57.3409217526
 20
98.7257872986
 10
56.671859615
 20
98.0007135587
 10
56.1614650418
 20
97.2187602239
 10
55.8418127824
 20
96.4290582853
 10
55.7329821517
 20
95.681226747
  0
ARC
  5
1D1
330
1F
100
AcDbEntity
  8
0
  6
Continuous
 62
     7
370
    15
100
AcDbCircle
 10
60.8489810205
 20
95.0722829805
 30
0.0
 40
5.165683879239616
100
AcDbArc
 50
103.8578900649
 51
154.605121355
  0
SPLINE
  5
1D2
330
1F
100
AcDbEntity
  8
0
  6
Continuous
 62
     7
370
    15
100
AcDbSpline
210
0.0
220
0.0
230
1.0
 70
     8
 71
     3
 72
    14
 73
    10
 74
     0
 42
0.00000001
 43
0.00000001
 40
0.0
 40
0.0
 40
0.0
 40
0.0
 40
0.0766391287038305
 40
0.2299196062562329
 40
0.3835773258714401
 40
0.5373782522127011
 40
0.6911933581052273
 40
0.8455924595220033
 40
1.0
 40
1.0
 40
1.0
 40
1.0
 10
80.15234201446826
 20
160.7692250328487
 30
0.0
 10
81.48689962342972
 20
160.8111368361768
 30
0.0
 10
85.4906111108666
 20
160.9368734602965
 30
0.0
 10
92.23919642540598
 20
161.1155498721655
 30
0.0
 10
100.4061033828415
 20
161.3048159687948
 30
0.0
 10
108.6254444406659
 20
161.4687517954474
 30
0.0
 10
116.8798992577005
 20
161.5982934080114
 30
0.0
 10
125.1555693970488
 20
161.6912884631608
 30
0.0
 10
130.6817044313597
 20
161.7033818439149
 30
0.0
 10
133.4448474575644
 20
161.7094286995357
 30
0.0
  0
LINE
  5
1D3
330
1F
100
AcDbEntity
  8
0
  6
Continuous
 62
     7
370
    15
100
AcDbLine
 10
201.564488851
 20
161.1025342064
 30
0.0
 11
201.6024197568
 21
161.101707192
 31
0.0
  0
SPLINE
  5
1D4
330
1F
100
AcDbEntity
  8
0
  6
Continuous
 62
     7
370
    15
100
AcDbSpline
210
0.0
220
0.0
230
1.0
 70
     8
 71
     3
 72
    14
 73
    10
 74
     0
 42
0.00000001
 43
0.00000001
 40
0.0
 40
0.0
 40
0.0
 40
0.0
 40
0.1417307169124853
 40
0.2834631295508249
 40
0.4254391901815641
 40
0.5674183076787316
 40
0.7091910152166169
 40
0.8509715468481811
 40
1.0
 40
1.0
 40
1.0
 40
1.0
 10
186.7388132144576
 20
160.7692399340099
 30
0.0
 10
187.7652744943921
 20
160.7434424937576
 30
0.0
 10
189.8182093352752
 20
160.6918473046017
 30
0.0
 10
192.656314169623
 20
160.703798858949
 30
0.0
 10
195.2024040640906
 20
160.7638777593945
 30
0.0
 10
197.3873848791914
 20
160.8567040766825
 30
0.0
 10
199.1226099244365
 20
160.9579993507005
 30
0.0
 10
200.4490276882824
 20
161.0540337717319
 30
0.0
 10
200.8803159753754
 20
161.0928153011177
 30
0.0
 10
201.1013346840506
 20
161.1126893477863
 30
0.0
  0
SPLINE
  5
1D5
330
1F
100
AcDbEntity
  8
0
  6
Continuous
 62
     7
370
    15
100
AcDbSpline
210
0.0
220
0.0
230
1.0
 70
     8
 71
     3
 72
    14
 73
    10
 74
     0
 42
0.00000001
 43
0.00000001
 40
0.0
 40
0.0
 40
0.0
 40
0.0
 40
0.0767875456717644
 40
0.2304229900874114
 40
0.3840506001966317
 40
0.5374311278281066
 40
0.6907967666312397
 40
0.8454010726841217
 40
1.0
 40
1.0
 40
1.0
 40
1.0
 10
133.4448474575644
 20
161.7094286995357
 30
0.0
 10
134.8189711430723
 20
161.7078854429128
 30
0.0
 10
138.9424222261181
 20
161.7032544600833
 30
0.0
 10
145.8145263224176
 20
161.649286489911
 30
0.0
 10
154.0508213234034
 20
161.5399812679475
 30
0.0
 10
162.2676207906687
 20
161.3928912720672
 30
0.0
 10
170.4695042433919
 20
161.2150829597185
 30
0.0
 10
178.6463544125028
 20
161.0168546695905
 30
0.0
 10
184.0413582300233
 20
160.8517772220032
 30
0.0
 10
186.7388132144576
 20
160.7692399340099
 30
0.0
  0
SPLINE
  5
1D6
330
1F
100
AcDbEntity
  8
0
  6
Continuous
 62
     7
370
    15
100
AcDbSpline
210
0.0
220
0.0
230
1.0
 70
     8
 71
     3
 72
    14
 73
    10
 74
     0
 42
0.00000001
 43
0.00000001
 40
0.0
 40
0.0
 40
0.0
 40
0.0
 40
0.1432148551448729
 40
0.2864185675500173
 40
0.4289078590303803
 40
0.5713931069750432
 40
0.7125487608135996
 40
0.8537028151070056
 40
1.0
 40
1.0
 40
1.0
 40
1.0
 10
65.792763524211
 20
161.1126967983669
 30
0.0
 10
66.00454708523931
 20
161.0935482097272
 30
0.0
 10
66.42809772961212
 20
161.0552525222915
 30
0.0
 10
67.71592361481532
 20
160.9618142743818
 30
0.0
 10
69.45803146429134
 20
160.859335171888
 30
0.0
 10
71.62642263088027
 20
160.7657130207522
 30
0.0
 10
74.1649971354836
 20
160.7057502631781
 30
0.0
 10
77.01061064396082
 20
160.6902450265602
 30
0.0
 10
79.09268063086604
 20
160.7425861981202
 30
0.0
 10
80.15234201446826
 20
160.7692250328487
 30
0.0
  0
LINE
  5
1D7
330
1F
100
AcDbEntity
  8
0
  6
Continuous
 62
     7
370
    15
100
AcDbLine
 10
65.332891338
 20
161.067278059
 30
0.0
 11
65.3501319815
 21
161.068984242
 31
0.0
  0
SPLINE
  5
1D8
330
1F
100
AcDbEntity
  8
0
  6
Continuous
 62
     7
370
    15
100
AcDbSpline
210
0.0
220
0.0
230
1.0
 70
     8
 71
     3
 72
    12
 73
     8
 74
     0
 42
0.00000001
 43
0.00000001
 40
0.0
 40
0.0
 40
0.0
 40
0.0
 40
0.2112783334404346
 40
0.4224756500023575
 40
0.6358227712637932
 40
0.8524746426637934
 40
1.0
 40
1.0
 40
1.0
 40
1.0
 10
109.6470820833808
 20
141.8501445370143
 30
0.0
 10
109.736356970482
 20
141.8472365231272
 30
0.0
 10
109.9148725112987
 20
141.8414216104613
 30
0.0
 10
110.152698743152
 20
141.7684179994692
 30
0.0
 10
110.3339332177411
 20
141.6562850294836
 30
0.0
 10
110.4325696192361
 20
141.5271094298811
 30
0.0
 10
110.4428971301896
 20
141.4388591868989
 30
0.0
 10
110.4470807243949
 20
141.4031097011989
 30
0.0
  0
SPLINE
  5
1D9
330
1F
100
AcDbEntity
  8
0
  6
Continuous
 62
     7
370
    15
100
AcDbSpline
210
0.0
220
0.0
230
1.0
 70
     8
 71
     3
 72
     9
 73
     5
 74
     0
 42
0.00000001
 43
0.00000001
 40
0.0
 40
0.0
 40
0.0
 40
0.0
 40
0.5508427852737788
 40
1.0
 40
1.0
 40
1.0
 40
1.0
 10
109.6470820833808
 20
141.8501445370143
 30
0.0
 10
108.6554570519374
 20
141.8253341369103
 30
0.0
 10
106.8552609561485
 20
141.7802933362185
 30
0.0
 10
105.0554694297498
 20
141.7278121297207
 30
0.0
 10
104.2470800806647
 20
141.7042398171848
 30
0.0
  0
SPLINE
  5
1DA
330
1F
100
AcDbEntity
  8
0
  6
Continuous
 62
     7
370
    15
100
AcDbSpline
210
0.0
220
0.0
230
1.0
 70
     8
 71
     3
 72
    12
 73
     8
 74
     0
 42
0.00000001
 43
0.00000001
 40
0.0
 40
0.0
 40
0.0
 40
0.0
 40
0.2180372740148629
 40
0.4361593967003072
 40
0.6520435639454438
 40
0.8645548369402284
 40
1.0
 40
1.0
 40
1.0
 40
1.0
 10
103.4470814396506
 20
141.2146249132579
 30
0.0
 10
103.4560282470544
 20
141.2677809202246
 30
0.0
 10
103.4739253434903
 20
141.3741136196877
 30
0.0
 10
103.6141153572781
 20
141.5188844888635
 30
0.0
 10
103.8197975842335
 20
141.6299246313423
 30
0.0
 10
104.0441576361599
 20
141.6907246366912
 30
0.0
 10
104.1902228761482
 20
141.7004529744663
 30
0.0
 10
104.2470800806647
 20
141.7042398171848
 30
0.0
  0
SPLINE
  5
1DB
330
1F
100
AcDbEntity
  8
0
  6
Continuous
 62
     7
370
    15
100
AcDbSpline
210
0.0
220
0.0
230
1.0
 70
     8
 71
     3
 72
    12
 73
     8
 74
     0
 42
0.00000001
 43
0.00000001
 40
0.0
 40
0.0
 40
0.0
 40
0.0
 40
0.2101788511919843
 40
0.4203476572284721
 40
0.6310779470655348
 40
0.8444111963691403
 40
1.0
 40
1.0
 40
1.0
 40
1.0
 10
162.6470816903626
 20
141.7042398171848
 30
0.0
 10
162.735632927097
 20
141.6966303623606
 30
0.0
 10
162.9127311684038
 20
141.6814118163937
 30
0.0
 10
163.1497341919095
 20
141.5966412987806
 30
0.0
 10
163.3304729713753
 20
141.4763932355728
 30
0.0
 10
163.4315733683194
 20
141.341988138551
 30
0.0
 10
163.4424813904365
 20
141.2524054312431
 30
0.0
 10
163.4470817283606
 20
141.2146249132579
 30
0.0
  0
SPLINE
  5
1DC
330
1F
100
AcDbEntity
  8
0
  6
Continuous
 62
     7
370
    15
100
AcDbSpline
210
0.0
220
0.0
230
1.0
 70
     8
 71
     3
 72
     9
 73
     5
 74
     0
 42
0.00000001
 43
0.00000001
 40
0.0
 40
0.0
 40
0.0
 40
0.0
 40
0.5508429512710402
 40
1.0
 40
1.0
 40
1.0
 40
1.0
 10
157.2470813174611
 20
141.8501445370143
 30
0.0
 10
158.2387063492152
 20
141.8253341423656
 30
0.0
 10
160.0389019030769
 20
141.7802933651506
 30
0.0
 10
161.8386928847192
 20
141.7278121326765
 30
0.0
 10
162.6470816903626
 20
141.7042398171848
 30
0.0
  0
SPLINE
  5
1DD
330
1F
100
AcDbEntity
  8
0
  6
Continuous
 62
     7
370
    15
100
AcDbSpline
210
0.0
220
0.0
230
1.0
 70
     8
 71
     3
 72
    12
 73
     8
 74
     0
 42
0.00000001
 43
0.00000001
 40
0.0
 40
0.0
 40
0.0
 40
0.0
 40
0.2190554133494746
 40
0.4381190130492462
 40
0.6565623486332637
 40
0.8722925975445105
 40
1.0
 40
1.0
 40
1.0
 40
1.0
 10
156.4470817451244
 20
141.4031097011989
 30
0.0
 10
156.456188254143
 20
141.4562526114358
 30
0.0
 10
156.4744016125008
 20
141.5625404179208
 30
0.0
 10
156.6161840007903
 20
141.7003323905372
 30
0.0
 10
156.8243438827651
 20
141.8005969081044
 30
0.0
 10
157.0486706604109
 20
141.8479972475929
 30
0.0
 10
157.1933006199332
 20
141.8495624981027
 30
0.0
 10
157.2470813174611
 20
141.8501445370143
 30
0.0
  0
LINE
  5
1DE
330
1F
100
AcDbEntity
  8
0
  6
Continuous
 62
     7
370
    15
100
AcDbLine
 10
65.1080626179
 20
159.0585791784
 30
0.0
 11
65.0419685175
 21
159.0558895188
 31
0.0
  0
SPLINE
  5
1DF
330
1F
100
AcDbEntity
  8
0
  6
Continuous
 62
     7
370
    15
100
AcDbSpline
210
0.0
220
0.0
230
1.0
 70
     8
 71
     3
 72
    15
 73
    11
 74
     0
 42
0.00000001
 43
0.00000001
 40
0.0
 40
0.0
 40
0.0
 40
0.0
 40
0.1255033607321535
 40
0.2505520595623851
 40
0.3761727389300074
 40
0.5006883424050801
 40
0.6259804653373872
 40
0.7501282669754004
 40
0.8748858932458679
 40
1.0
 40
1.0
 40
1.0
 40
1.0
 10
80.17050652996356
 20
158.6770200448459
 30
0.0
 10
79.23726258399643
 20
158.6536182703183
 30
0.0
 10
77.37415556142659
 20
158.6068994990351
 30
0.0
 10
74.76937921982326
 20
158.6147675436471
 30
0.0
 10
72.38744861895931
 20
158.6645572067431
 30
0.0
 10
70.2836091204045
 20
158.7472355403667
 30
0.0
 10
68.50535825445635
 20
158.8443943368869
 30
0.0
 10
67.09219160272748
 20
158.9404419807246
 30
0.0
 10
66.03389766010059
 20
159.0241633113304
 30
0.0
 10
65.66796268794745
 20
159.0572888311201
 30
0.0
 10
65.48473417059238
 20
159.0738752203411
 30
0.0
  0
SPLINE
  5
1E0
330
1F
100
AcDbEntity
  8
0
  6
Continuous
 62
     7
370
    15
100
AcDbSpline
210
0.0
220
0.0
230
1.0
 70
     8
 71
     3
 72
    13
 73
     9
 74
     0
 42
0.00000001
 43
0.00000001
 40
0.0
 40
0.0
 40
0.0
 40
0.0
 40
0.1678539424138839
 40
0.3369503964130387
 40
0.5003909120464254
 40
0.6689143999099827
 40
0.8336875192779051
 40
1.0
 40
1.0
 40
1.0
 40
1.0
 10
133.4474626113539
 20
159.6047290878719
 30
0.0
 10
130.4453432435214
 20
159.597253531558
 30
0.0
 10
124.4188818061357
 20
159.582247082337
 30
0.0
 10
115.473424148883
 20
159.4759187905329
 30
0.0
 10
106.5287169454152
 20
159.3275487338305
 30
0.0
 10
97.69285890046827
 20
159.144101797661
 30
0.0
 10
88.85359452777085
 20
158.9354471630308
 30
0.0
 10
83.07382674962696
 20
158.7634290133747
 30
0.0
 10
80.17050652996356
 20
158.6770200448459
 30
0.0
  0
SPLINE
  5
1E1
330
1F
100
AcDbEntity
  8
0
  6
Continuous
 62
     7
370
    15
100
AcDbSpline
210
0.0
220
0.0
230
1.0
 70
     8
 71
     3
 72
    18
 73
    14
 74
     0
 42
0.00000001
 43
0.00000001
 40
0.0
 40
0.0
 40
0.0
 40
0.0
 40
0.1397681068903149
 40
0.2790231190858723
 40
0.4179909341504565
 40
0.5572655190251475
 40
0.6190876678803671
 40
0.6827927091889651
 40
0.7483944307612994
 40
0.8103204746088828
 40
0.8741683695161822
 40
0.9313846992161459
 40
1.0
 40
1.0
 40
1.0
 40
1.0
 10
186.7205257643824
 20
158.6770274954265
 30
0.0
 10
184.2822198652296
 20
158.7504220759878
 30
0.0
 10
179.4145591921049
 20
158.896941802468
 30
0.0
 10
172.0367270321259
 20
159.0779787283645
 30
0.0
 10
164.6272468407749
 20
159.241688612048
 30
0.0
 10
158.567130166004
 20
159.3567324963182
 30
0.0
 10
153.8412150035554
 20
159.4342829377863
 30
0.0
 10
150.4275496862794
 20
159.4837987620728
 30
0.0
 10
147.0101819069105
 20
159.5259846910224
 30
0.0
 10
143.5890141484021
 20
159.5603458567229
 30
0.0
 10
140.3170122263061
 20
159.5843177423701
 30
0.0
 10
136.9249433531314
 20
159.6020715791397
 30
0.0
 10
134.6745757651155
 20
159.6037913216659
 30
0.0
 10
133.4474626113539
 20
159.6047290878719
 30
0.0
  0
SPLINE
  5
1E2
330
1F
100
AcDbEntity
  8
0
  6
Continuous
 62
     7
370
    15
100
AcDbSpline
210
0.0
220
0.0
230
1.0
 70
     8
 71
     3
 72
    15
 73
    11
 74
     0
 42
0.00000001
 43
0.00000001
 40
0.0
 40
0.0
 40
0.0
 40
0.0
 40
0.1243326157686058
 40
0.2484609756720303
 40
0.3734408911095305
 40
0.4977424303229782
 40
0.6232511352379222
 40
0.7480123385622042
 40
0.8737525216408735
 40
1.0
 40
1.0
 40
1.0
 40
1.0
 10
201.4093677629595
 20
159.0738752203411
 30
0.0
 10
201.2275124299213
 20
159.0574010799608
 30
0.0
 10
200.8641005190682
 20
159.0244798632153
 30
0.0
 10
199.8112837998844
 20
158.941028002636
 30
0.0
 10
198.4032096333154
 20
158.8452544822954
 30
0.0
 10
196.6242596819032
 20
158.7477146320477
 30
0.0
 10
194.5265972094475
 20
158.6650931527611
 30
0.0
 10
192.1414234412789
 20
158.6148210513947
 30
0.0
 10
189.5334692638972
 20
158.6065365244909
 30
0.0
 10
187.6594311864728
 20
158.6534989905592
 30
0.0
 10
186.7205257643824
 20
158.6770274954265
 30
0.0
  0
LINE
  5
1E3
330
1F
100
AcDbEntity
  8
0
  6
Continuous
 62
     7
370
    15
100
AcDbLine
 10
201.8496151199
 20
159.052812429
 30
0.0
 11
201.7863149871
 21
159.0558373647
 31
0.0
  0
SPLINE
  5
1E4
330
1F
100
AcDbEntity
  8
0
  6
Continuous
 62
     7
370
    15
100
AcDbSpline
210
0.0
220
0.0
230
1.0
 70
     8
 71
     3
 72
    18
 73
    14
 74
     0
 42
0.00000001
 43
0.00000001
 40
0.0
 40
0.0
 40
0.0
 40
0.0
 40
0.1400307810124067
 40
0.2783333087900749
 40
0.4166633893131147
 40
0.5552030998436472
 40
0.616528840294213
 40
0.6808094374930211
 40
0.7480468790948458
 40
0.8099161611261066
 40
0.8739772358746792
 40
0.9283092865296022
 40
1.0
 40
1.0
 40
1.0
 40
1.0
 10
201.1016774107581
 20
141.3611033277934
 30
0.0
 10
201.329432062705
 20
142.1678053524849
 30
0.0
 10
201.782130429524
 20
143.7712531238725
 30
0.0
 10
202.3140884386053
 20
145.9808860028888
 30
0.0
 10
202.7107014222366
 20
148.0408808760718
 30
0.0
 10
202.9340217359224
 20
149.585751709666
 30
0.0
 10
203.0627662830035
 20
150.715825121267
 30
0.0
 10
203.1383507616022
 20
151.5049200967459
 30
0.0
 10
203.1965550092722
 20
152.2579392845191
 30
0.0
 10
203.2392777598733
 20
152.9722873909393
 30
0.0
 10
203.2671367664704
 20
153.6030827460665
 30
0.0
 10
203.2834047398353
 20
154.2360874124579
 30
0.0
 10
203.2864702942593
 20
154.6230739932581
 30
0.0
 10
203.2882141996985
 20
154.8432194905704
 30
0.0
  0
SPLINE
  5
1E5
330
1F
100
AcDbEntity
  8
0
  6
Continuous
 62
     7
370
    15
100
AcDbSpline
210
0.0
220
0.0
230
1.0
 70
     8
 71
     3
 72
    15
 73
    11
 74
     0
 42
0.00000001
 43
0.00000001
 40
0.0
 40
0.0
 40
0.0
 40
0.0
 40
0.1248395851525229
 40
0.2493608276853598
 40
0.3746448191359173
 40
0.499055352648107
 40
0.6244857333886861
 40
0.7489938082077481
 40
0.8742638510382211
 40
1.0
 40
1.0
 40
1.0
 40
1.0
 10
186.6284831543332
 20
132.9963364916271
 30
0.0
 10
187.5357947966141
 20
133.108455577305
 30
0.0
 10
189.348104424296
 20
133.3324078434858
 30
0.0
 10
191.8930499160206
 20
133.9828439939558
 30
0.0
 10
194.2327104000704
 20
134.8371820296236
 30
0.0
 10
196.312761431947
 20
135.8939501187072
 30
0.0
 10
198.0814627878058
 20
137.1089196861123
 30
0.0
 10
199.4947834887975
 20
138.4516806991397
 30
0.0
 10
200.5564382558615
 20
139.880063374122
 30
0.0
 10
200.9197061689203
 20
140.8668125616946
 30
0.0
 10
201.1016774107581
 20
141.3611033277934
 30
0.0
  0
SPLINE
  5
1E6
330
1F
100
AcDbEntity
  8
0
  6
Continuous
 62
     7
370
    15
100
AcDbSpline
210
0.0
220
0.0
230
1.0
 70
     8
 71
     3
 72
    15
 73
    11
 74
     0
 42
0.00000001
 43
0.00000001
 40
0.0
 40
0.0
 40
0.0
 40
0.0
 40
0.1249304971652704
 40
0.2495967642436316
 40
0.3749306798950549
 40
0.4993712927546097
 40
0.6247786445656718
 40
0.7492055284418161
 40
0.8744090852812754
 40
1.0
 40
1.0
 40
1.0
 40
1.0
 10
65.79254745737369
 20
141.3608947115367
 30
0.0
 10
65.97312336725001
 20
140.8696969331649
 30
0.0
 10
66.33389326593903
 20
139.8883402679218
 30
0.0
 10
67.3903873125521
 20
138.4614791020256
 30
0.0
 10
68.79827568122275
 20
137.1203535189183
 30
0.0
 10
70.56826828642812
 20
135.9014358890632
 30
0.0
 10
72.64175814269315
 20
134.8453478605961
 30
0.0
 10
74.98498305592358
 20
133.9875311234246
 30
0.0
 10
77.53285057984112
 20
133.3339706407929
 30
0.0
 10
79.35582504009408
 20
133.1085800158519
 30
0.0
 10
80.26872008339221
 20
132.9957106428569
 30
0.0
  0
SPLINE
  5
1E7
330
1F
100
AcDbEntity
  8
0
  6
Continuous
 62
     7
370
    15
100
AcDbSpline
210
0.0
220
0.0
230
1.0
 70
     8
 71
     3
 72
    18
 73
    14
 74
     0
 42
0.00000001
 43
0.00000001
 40
0.0
 40
0.0
 40
0.0
 40
0.0
 40
0.088279039975985
 40
0.161389910576157
 40
0.2408888017694095
 40
0.3251809760798581
 40
0.4060011806637542
 40
0.482058452816647
 40
0.5626946397652091
 40
0.6730729443005294
 40
0.779767224145379
 40
0.8886787092520209
 40
1.0
 40
1.0
 40
1.0
 40
1.0
 10
63.60594361320788
 20
154.8437037783092
 30
0.0
 10
63.60818448271634
 20
154.5712250774774
 30
0.0
 10
63.61228119389127
 20
154.073085165975
 30
0.0
 10
63.64042555935398
 20
153.2506007372556
 30
0.0
 10
63.68756038919307
 20
152.3900871846218
 30
0.0
 10
63.76010872766963
 20
151.439035047971
 30
0.0
 10
63.85953342564661
 20
150.441891702896
 30
0.0
 10
63.98682786232726
 20
149.4048405087156
 30
0.0
 10
64.16898508095798
 20
148.1784422908222
 30
0.0
 10
64.43000277443107
 20
146.73175044225
 30
0.0
 10
64.79924830276669
 20
145.0501935151132
 30
0.0
 10
65.24948583767757
 20
143.2782225714919
 30
0.0
 10
65.61021122159853
 20
142.004649180738
 30
0.0
 10
65.79254745737369
 20
141.3608947115367
 30
0.0
  0
LINE
  5
1E8
330
1F
100
AcDbEntity
  8
0
  6
Continuous
 62
     7
370
    15
100
AcDbLine
 10
204.187938862
 20
155.7205253559
 30
0.0
 11
204.1669394006
 21
155.5291273909
 31
0.0
  0
LINE
  5
1E9
330
1F
100
AcDbEntity
  8
0
  6
Continuous
 62
     7
370
    15
100
AcDbLine
 10
62.7272221376
 20
155.5291273909
 30
0.0
 11
62.7062264015
 21
155.7205253559
 31
0.0
  0
SPLINE
  5
1EA
330
1F
100
AcDbEntity
  8
0
  6
Continuous
 62
     7
370
    15
100
AcDbSpline
210
0.0
220
0.0
230
1.0
 70
     8
 71
     3
 72
    10
 73
     6
 74
     0
 42
0.00000001
 43
0.00000001
 40
0.0
 40
0.0
 40
0.0
 40
0.0
 40
0.1521999395363423
 40
0.576098380249969
 40
1.0
 40
1.0
 40
1.0
 40
1.0
 10
203.8642930914527
 20
150.9328791218227
 30
0.0
 10
203.8293157977894
 20
150.5628371379872
 30
0.0
 10
203.6969217752535
 20
149.1621756911986
 30
0.0
 10
203.1438154190108
 20
146.1879027981456
 30
0.0
 10
202.3589145042989
 20
143.3303700021355
 30
0.0
 10
201.9664625753528
 20
141.9015982466167
 30
0.0
  0
SPLINE
  5
1EB
330
1F
100
AcDbEntity
  8
0
  6
Continuous
 62
     7
370
    15
100
AcDbSpline
210
0.0
220
0.0
230
1.0
 70
     8
 71
     3
 72
    10
 73
     6
 74
     0
 42
0.00000001
 43
0.00000001
 40
0.0
 40
0.0
 40
0.0
 40
0.0
 40
0.4238748279599644
 40
0.8479043117031779
 40
1.0
 40
1.0
 40
1.0
 40
1.0
 10
64.92775856748874
 20
141.9013821797794
 30
0.0
 10
64.53529403889424
 20
143.3301949850085
 30
0.0
 10
63.75022178634407
 20
146.188341914849
 30
0.0
 10
63.19721061924684
 20
149.1623501799357
 30
0.0
 10
63.06471626025373
 20
150.5636300028469
 30
0.0
 10
63.02973806158359
 20
150.9335645752376
 30
0.0
  0
SPLINE
  5
1EC
330
1F
100
AcDbEntity
  8
0
  6
Continuous
 62
     7
370
    15
100
AcDbSpline
210
0.0
220
0.0
230
1.0
 70
     8
 71
     3
 72
     9
 73
     5
 74
     0
 42
0.00000001
 43
0.00000001
 40
0.0
 40
0.0
 40
0.0
 40
0.0
 40
0.7702816788788165
 40
1.0
 40
1.0
 40
1.0
 40
1.0
 10
62.70622640148456
 20
155.7205253558582
 30
0.0
 10
62.70768529084457
 20
155.1181312875058
 30
0.0
 10
62.70957925950567
 20
154.336087413336
 30
0.0
 10
62.79475942968005
 20
153.3264061914933
 30
0.0
 10
62.81432687536531
 20
153.094463916344
 30
0.0
  0
SPLINE
  5
1ED
330
1F
100
AcDbEntity
  8
0
  6
Continuous
 62
     7
370
    15
100
AcDbSpline
210
0.0
220
0.0
230
1.0
 70
     8
 71
     3
 72
     9
 73
     5
 74
     0
 42
0.00000001
 43
0.00000001
 40
0.0
 40
0.0
 40
0.0
 40
0.0
 40
0.8066652687095356
 40
1.0
 40
1.0
 40
1.0
 40
1.0
 10
62.84560441271121
 20
152.7006709294742
 30
0.0
 10
62.86317071636719
 20
152.3201329816512
 30
0.0
 10
62.88494716359673
 20
151.8483909064881
 30
0.0
 10
62.97504396581097
 20
151.2509950320203
 30
0.0
 10
62.99246280685718
 20
151.135497661156
 30
0.0
  0
SPLINE
  5
1EE
330
1F
100
AcDbEntity
  8
0
  6
Continuous
 62
     7
370
    15
100
AcDbSpline
210
0.0
220
0.0
230
1.0
 70
     8
 71
     3
 72
     9
 73
     5
 74
     0
 42
0.00000001
 43
0.00000001
 40
0.0
 40
0.0
 40
0.0
 40
0.0
 40
0.3780439175261266
 40
1.0
 40
1.0
 40
1.0
 40
1.0
 10
203.8930225302344
 20
151.1209094243472
 30
0.0
 10
203.9239727277917
 20
151.3270272112669
 30
0.0
 10
204.0058420454093
 20
151.8722490158353
 30
0.0
 10
204.0223013885946
 20
152.2887574273957
 30
0.0
 10
204.0325383772021
 20
152.5478073673671
 30
0.0
  0
SPLINE
  5
1EF
330
1F
100
AcDbEntity
  8
0
  6
Continuous
 62
     7
370
    15
100
AcDbSpline
210
0.0
220
0.0
230
1.0
 70
     8
 71
     3
 72
     9
 73
     5
 74
     0
 42
0.00000001
 43
0.00000001
 40
0.0
 40
0.0
 40
0.0
 40
0.0
 40
0.4451687341600928
 40
1.0
 40
1.0
 40
1.0
 40
1.0
 10
204.0913607110148
 20
153.4162246900028
 30
0.0
 10
204.1210432854397
 20
153.8021515889774
 30
0.0
 10
204.1877204173836
 20
154.6690743294136
 30
0.0
 10
204.1878609114833
 20
155.3453220030649
 30
0.0
 10
204.1879388620024
 20
155.7205253558582
 30
0.0
  0
LINE
  5
1F0
330
1F
100
AcDbEntity
  8
0
  6
Continuous
 62
     7
370
    15
100
AcDbLine
 10
163.4470817284
 20
130.6959362047
 30
0.0
 11
163.4470817284
 21
118.404765548
 31
0.0
  0
LINE
  5
1F1
330
1F
100
AcDbEntity
  8
0
  6
Continuous
 62
     7
370
    15
100
AcDbLine
 10
156.4470817451
 20
118.404765548
 30
0.0
 11
156.4470817451
 21
130.6959362047
 31
0.0
  0
LINE
  5
1F2
330
1F
100
AcDbEntity
  8
0
  6
Continuous
 62
     7
370
    15
100
AcDbLine
 10
103.4470814397
 20
118.404765548
 30
0.0
 11
103.4470814397
 21
130.6959362047
 31
0.0
  0
LINE
  5
1F3
330
1F
100
AcDbEntity
  8
0
  6
Continuous
 62
     7
370
    15
100
AcDbLine
 10
110.4470807244
 20
130.6959362047
 30
0.0
 11
110.4470807244
 21
118.404765548
 31
0.0
  0
LINE
  5
1F4
330
1F
100
AcDbEntity
  8
0
  6
Continuous
 62
     7
370
    15
100
AcDbLine
 10
103.4470814397
 20
130.6959362047
 30
0.0
 11
103.4470814397
 21
141.2146249133
 31
0.0
  0
LINE
  5
1F5
330
1F
100
AcDbEntity
  8
0
  6
Continuous
 62
     7
370
    15
100
AcDbLine
 10
156.4470817451
 20
130.6959362047
 30
0.0
 11
156.4470817451
 21
141.4031097012
 31
0.0
  0
LINE
  5
1F6
330
1F
100
AcDbEntity
  8
0
  6
Continuous
 62
     7
370
    15
100
AcDbLine
 10
163.4470817284
 20
141.2146249133
 30
0.0
 11
163.4470817284
 21
130.6959362047
 31
0.0
  0
LINE
  5
1F7
330
1F
100
AcDbEntity
  8
0
  6
Continuous
 62
     7
370
    15
100
AcDbLine
 10
110.4470807244
 20
141.4031097012
 30
0.0
 11
110.4470807244
 21
130.6959362047
 31
0.0
  0
LINE
  5
1F8
330
1F
100
AcDbEntity
  8
0
  6
Continuous
 62
     7
370
    15
100
AcDbLine
 10
111.6470824112
 20
119.5808694976
 30
0.0
 11
111.6470824112
 21
132.6047637778
 31
0.0
  0
ARC
  5
1F9
330
1F
100
AcDbEntity
  8
0
  6
Continuous
 62
     7
370
    15
100
AcDbCircle
 10
112.5822186343
 20
119.6562360282
 30
0.0
 40
0.9381683588860611
100
AcDbArc
 50
184.6077467727
 51
273.9644167285
  0
LINE
  5
1FA
330
1F
100
AcDbEntity
  8
0
  6
Continuous
 62
     7
370
    15
100
AcDbLine
 10
112.6470807125
 20
118.7203125375
 30
0.0
 11
154.247081757
 21
118.7203125375
 31
0.0
  0
LINE
  5
1FB
330
1F
100
AcDbEntity
  8
0
  6
Continuous
 62
     7
370
    15
100
AcDbLine
 10
155.247081921
 20
132.6047637778
 30
0.0
 11
155.247081921
 21
119.5808694976
 31
0.0
  0
ARC
  5
1FC
330
1F
100
AcDbEntity
  8
0
  6
Continuous
 62
     7
370
    15
100
AcDbCircle
 10
154.3119427551
 20
119.6562393074
 30
0.0
 40
0.9381715555664455
100
AcDbArc
 50
266.0356629237
 51
355.3920680455
  0
LINE
  5
1FD
330
1F
100
AcDbEntity
  8
0
  6
Continuous
 62
     7
370
    15
100
AcDbLine
 10
111.6470824112
 20
116.0338417905
 30
0.0
 11
111.6470824112
 21
119.5808694976
 31
0.0
  0
LINE
  5
1FE
330
1F
100
AcDbEntity
  8
0
  6
Continuous
 62
     7
370
    15
100
AcDbLine
 10
155.247081921
 20
119.5808694976
 30
0.0
 11
155.247081921
 21
116.0338417905
 31
0.0
  0
SPLINE
  5
1FF
330
1F
100
AcDbEntity
  8
0
  6
Continuous
 62
     7
370
    15
100
AcDbSpline
210
0.0
220
0.0
230
1.0
 70
     8
 71
     3
 72
    12
 73
     8
 74
     0
 42
0.00000001
 43
0.00000001
 40
0.0
 40
0.0
 40
0.0
 40
0.0
 40
0.1311312084964756
 40
0.3421257433013671
 40
0.5577104924888936
 40
0.7777345240077149
 40
1.0
 40
1.0
 40
1.0
 40
1.0
 10
110.6470803846484
 20
115.546983601374
 30
0.0
 10
110.7171981234799
 20
115.5492104485762
 30
0.0
 10
110.9001376677075
 20
115.5550203679921
 30
0.0
 10
111.1815183585737
 20
115.6139599471616
 30
0.0
 10
111.4393026956275
 20
115.7267338911363
 30
0.0
 10
111.6138926106149
 20
115.8742631521552
 30
0.0
 10
111.6359818295996
 20
115.9804694994192
 30
0.0
 10
111.6470824112063
 20
116.03384179048
 30
0.0
  0
SPLINE
  5
200
330
1F
100
AcDbEntity
  8
0
  6
Continuous
 62
     7
370
    15
100
AcDbSpline
210
0.0
220
0.0
230
1.0
 70
     8
 71
     3
 72
    12
 73
     8
 74
     0
 42
0.00000001
 43
0.00000001
 40
0.0
 40
0.0
 40
0.0
 40
0.0
 40
0.20810230325786
 40
0.4175238348058081
 40
0.630107104567262
 40
0.8473692467179398
 40
1.0
 40
1.0
 40
1.0
 40
1.0
 10
156.2470820848709
 20
115.546983601374
 30
0.0
 10
156.1354139307133
 20
115.552528591586
 30
0.0
 10
155.9113697215929
 20
115.5636537235091
 30
0.0
 10
155.6133508866164
 20
115.6493902098555
 30
0.0
 10
155.3876902086677
 20
115.7731265930581
 30
0.0
 10
155.2652502872012
 20
115.909116661781
 30
0.0
 10
155.2523889562137
 20
115.9974091995469
 30
0.0
 10
155.2470819209581
 20
116.03384179048
 30
0.0
  0
LINE
  5
201
330
1F
100
AcDbEntity
  8
0
  6
Continuous
 62
     7
370
    15
100
AcDbLine
 10
156.2470820849
 20
115.5469836014
 30
0.0
 11
162.4470817973
 21
115.5469836014
 31
0.0
  0
LINE
  5
202
330
1F
100
AcDbEntity
  8
0
  6
Continuous
 62
     7
370
    15
100
AcDbLine
 10
104.4470834662
 20
115.5469836014
 30
0.0
 11
110.6470803846
 21
115.5469836014
 31
0.0
  0
ARC
  5
203
330
1F
100
AcDbEntity
  8
0
  6
Continuous
 62
     7
370
    15
100
AcDbCircle
 10
162.5720806383
 20
114.6630990077
 30
0.0
 40
0.8926794974353488
100
AcDbArc
 50
11.4217002272
 51
98.0493832819
  0
ARC
  5
204
330
1F
100
AcDbEntity
  8
0
  6
Continuous
 62
     7
370
    15
100
AcDbCircle
 10
104.3220851544
 20
114.6630956663
 30
0.0
 40
0.8926827318523899
100
AcDbArc
 50
81.9506803814
 51
168.578122914
  0
LINE
  5
205
330
1F
100
AcDbEntity
  8
0
  6
Continuous
 62
     7
370
    15
100
AcDbLine
 10
103.4470814397
 20
114.839875074
 30
0.0
 11
103.4470814397
 21
118.404765548
 31
0.0
  0
LINE
  5
206
330
1F
100
AcDbEntity
  8
0
  6
Continuous
 62
     7
370
    15
100
AcDbLine
 10
163.4470817284
 20
118.404765548
 30
0.0
 11
163.4470817284
 21
114.839875074
 31
0.0
  0
LINE
  5
207
330
1F
100
AcDbEntity
  8
0
  6
Continuous
 62
     7
370
    15
100
AcDbLine
 10
103.4470814397
 20
97.4652384686
 30
0.0
 11
103.4470814397
 21
114.839875074
 31
0.0
  0
LINE
  5
208
330
1F
100
AcDbEntity
  8
0
  6
Continuous
 62
     7
370
    15
100
AcDbLine
 10
163.4470817284
 20
114.839875074
 30
0.0
 11
163.4470817284
 21
97.4652384686
 31
0.0
  0
SPLINE
  5
209
330
1F
100
AcDbEntity
  8
0
  6
Continuous
 62
     7
370
    15
100
AcDbSpline
210
0.0
220
0.0
230
1.0
 70
    11
 71
     3
 72
    27
 73
    23
 74
     0
 42
0.00000001
 43
0.00000001
 40
0.0
 40
0.0
 40
0.0
 40
0.0
 40
0.0645105737174975
 40
0.1276834889172691
 40
0.1698992498428111
 40
0.2069246444761003
 40
0.242768780468093
 40
0.2815824188765501
 40
0.320449694438428
 40
0.3667086443765837
 40
0.4252337386324818
 40
0.4944615189366761
 40
0.5344964579154057
 40
0.6118516132923129
 40
0.6691750880980023
 40
0.7103176689939015
 40
0.7415587036954253
 40
0.7767351450379404
 40
0.8119405239780539
 40
0.8569804639079599
 40
0.9212529240271531
 40
1.0
 40
1.0
 40
1.0
 40
1.0
 10
114.2012159456378
 20
104.1526877599185
 30
0.0
 10
114.2285796772875
 20
103.6513731591761
 30
0.0
 10
114.2827397401345
 20
102.659138962837
 30
0.0
 10
114.9843830059935
 20
101.3715619073682
 30
0.0
 10
115.9481280515103
 20
100.4629332146163
 30
0.0
 10
116.9780497772546
 20
99.92347388322936
 30
0.0
 10
118.1452178780681
 20
99.66816210035991
 30
0.0
 10
119.3802564414273
 20
99.7567655038214
 30
0.0
 10
120.5865264495036
 20
100.2188053321579
 30
0.0
 10
121.6721953911547
 20
101.0744712595805
 30
0.0
 10
122.4854403949556
 20
102.3540145132099
 30
0.0
 10
122.7507402299658
 20
103.6728217907648
 30
0.0
 10
122.6185010904259
 20
105.0997422100659
 30
0.0
 10
122.0784160413876
 20
106.370967602729
 30
0.0
 10
121.0127594948228
 20
107.4436328114622
 30
0.0
 10
119.8913267501582
 20
108.0136939436627
 30
0.0
 10
118.7787674607536
 20
108.2481054642199
 30
0.0
 10
117.6680285355255
 20
108.1937406650103
 30
0.0
 10
116.5422452406804
 20
107.8255948354856
 30
0.0
 10
115.442809645414
 20
107.079387899869
 30
0.0
 10
114.4804452389366
 20
105.8396347808536
 30
0.0
 10
114.3003674372375
 20
104.7517055470545
 30
0.0
 10
114.2012159456378
 20
104.1526877599185
 30
0.0
  0
SPLINE
  5
20A
330
1F
100
AcDbEntity
  8
0
  6
Continuous
 62
     7
370
    15
100
AcDbSpline
210
0.0
220
0.0
230
1.0
 70
    11
 71
     3
 72
    29
 73
    25
 74
     0
 42
0.00000001
 43
0.00000001
 40
0.0
 40
0.0
 40
0.0
 40
0.0
 40
0.0221509550171249
 40
0.0952789866368287
 40
0.1007818059795552
 40
0.1596906095394175
 40
0.2018046972745303
 40
0.2329387000400185
 40
0.2673499644172698
 40
0.3017827983232764
 40
0.3453685656384854
 40
0.4068167842179712
 40
0.476078365801492
 40
0.4992049392972503
 40
0.5747586634978186
 40
0.6343052716970096
 40
0.6747279398657847
 40
0.7109906837279293
 40
0.7473666064235899
 40
0.7880584575099567
 40
0.8288299538650301
 40
0.8785246455288162
 40
0.942449295457385
 40
1.0
 40
1.0
 40
1.0
 40
1.0
 10
152.6929455925589
 20
104.1526877599185
 30
0.0
 10
152.679158597372
 20
104.3219100707311
 30
0.0
 10
152.6198559203918
 20
105.0497942760893
 30
0.0
 10
152.331926521031
 20
105.792975584427
 30
0.0
 10
151.7256449693782
 20
106.7149444280298
 30
0.0
 10
151.1017919201948
 20
107.3794646151207
 30
0.0
 10
149.9831651174349
 20
107.9802285382713
 30
0.0
 10
148.8816121716598
 20
108.2373887720443
 30
0.0
 10
147.7873355473954
 20
108.2124116710549
 30
0.0
 10
146.6700213924979
 20
107.8837833937324
 30
0.0
 10
145.5648207499218
 20
107.1917108200293
 30
0.0
 10
144.6439326109078
 20
106.0649862476028
 30
0.0
 10
144.2585105724546
 20
104.9267268087533
 30
0.0
 10
144.1540947387642
 20
103.6434047963171
 30
0.0
 10
144.3796358836782
 20
102.3941809481771
 30
0.0
 10
145.205050890168
 20
101.10309582188
 30
0.0
 10
146.2176565350683
 20
100.2873331587717
 30
0.0
 10
147.284148648369
 20
99.82371810227892
 30
0.0
 10
148.4977012543649
 20
99.65360292187697
 30
0.0
 10
149.7605606988412
 20
99.85529974795314
 30
0.0
 10
150.9577720413954
 20
100.4509171929539
 30
0.0
 10
151.9827790554338
 20
101.4555338234938
 30
0.0
 10
152.6302368066531
 20
102.7639628942665
 30
0.0
 10
152.6727868803034
 20
103.7062606035906
 30
0.0
 10
152.6929455925589
 20
104.1526877599185
 30
0.0
  0
SPLINE
  5
20B
330
1F
100
AcDbEntity
  8
0
  6
Continuous
 62
     7
370
    15
100
AcDbSpline
210
0.0
220
0.0
230
1.0
 70
     8
 71
     3
 72
    16
 73
    12
 74
     0
 42
0.00000001
 43
0.00000001
 40
0.0
 40
0.0
 40
0.0
 40
0.0
 40
0.0563805011517061
 40
0.154633361404389
 40
0.2563028393056949
 40
0.3679382394221222
 40
0.4839229009401733
 40
0.5940577813800054
 40
0.7074053136893572
 40
0.8509690801623258
 40
0.9999999999999999
 40
0.9999999999999999
 40
0.9999999999999999
 40
0.9999999999999999
 10
111.9470800389415
 20
88.96523800663408
 30
0.0
 10
111.677705539048
 20
88.97292346385287
 30
0.0
 10
110.9388989739365
 20
88.99400217119661
 30
0.0
 10
109.7312896519941
 20
89.2199235975825
 30
0.0
 10
108.3426455966571
 20
89.71780713685783
 30
0.0
 10
107.0117988715094
 20
90.4854920141278
 30
0.0
 10
105.842029461984
 20
91.48611284572348
 30
0.0
 10
104.8883245652599
 20
92.65361649602869
 30
0.0
 10
104.1142154331677
 20
94.0370189717621
 30
0.0
 10
103.5570897105814
 20
95.66465297507837
 30
0.0
 10
103.4842048165072
 20
96.85761312120442
 30
0.0
 10
103.4470814396506
 20
97.46523846857008
 30
0.0
  0
SPLINE
  5
20C
330
1F
100
AcDbEntity
  8
0
  6
Continuous
 62
     7
370
    15
100
AcDbSpline
210
0.0
220
0.0
230
1.0
 70
     8
 71
     3
 72
    13
 73
     9
 74
     0
 42
0.00000001
 43
0.00000001
 40
0.0
 40
0.0
 40
0.0
 40
0.0
 40
0.124249732898747
 40
0.251747365339775
 40
0.4556792503303312
 40
0.6404931962692245
 40
0.8196013272927019
 40
0.9999999999999999
 40
0.9999999999999999
 40
0.9999999999999999
 40
0.9999999999999999
 10
163.4470817283606
 20
97.46523846857008
 30
0.0
 10
163.4211366465157
 20
96.96015116369222
 30
0.0
 10
163.36856827598
 20
95.93677352493957
 30
0.0
 10
162.8435218308992
 20
94.10334163510213
 30
0.0
 10
161.7411482338792
 20
92.13637877876768
 30
0.0
 10
159.8476579252144
 20
90.37779701978354
 30
0.0
 10
157.5327394380628
 20
89.19637498953966
 30
0.0
 10
155.8110276538919
 20
89.0424678306485
 30
0.0
 10
154.9470814992552
 20
88.96523800663408
 30
0.0
  0
LINE
  5
20D
330
1F
100
AcDbEntity
  8
0
  6
Continuous
 62
     7
370
    15
100
AcDbLine
 10
154.9470814993
 20
88.9652380066
 30
0.0
 11
111.9470800389
 21
88.9652380066
 31
0.0
  0
LINE
  5
20E
330
1F
100
AcDbEntity
  8
0
  6
Continuous
 62
     8
370
    15
100
AcDbLine
 10
201.1013346841
 20
161.1126893478
 30
0.0
 11
201.564488851
 21
161.1025342064
 31
0.0
  0
LINE
  5
20F
330
1F
100
AcDbEntity
  8
0
  6
Continuous
 62
     8
370
    15
100
AcDbLine
 10
65.3501319815
 20
161.068984242
 30
0.0
 11
65.7927635242
 21
161.1126967984
 31
0.0
  0
SPLINE
  5
210
330
1F
100
AcDbEntity
  8
0
  6
Continuous
 62
     8
370
    15
100
AcDbSpline
210
0.0
220
0.0
230
1.0
 70
     8
 71
     3
 72
    17
 73
    13
 74
     0
 42
0.00000001
 43
0.00000001
 40
0.0
 40
0.0
 40
0.0
 40
0.0
 40
0.1604488756809268
 40
0.3206418528878218
 40
0.479906055746823
 40
0.5500056662671714
 40
0.625751396020443
 40
0.7071451903302369
 40
0.7754833154388953
 40
0.8534911584214544
 40
0.9265873816683428
 40
1.0
 40
1.0
 40
1.0
 40
1.0
 10
64.84449087873752
 20
159.0478652434772
 30
0.0
 10
64.67099483882025
 20
158.992360146239
 30
0.0
 10
64.3242794662651
 20
158.8814384763449
 30
0.0
 10
63.99768017281589
 20
158.4920517615645
 30
0.0
 10
63.82473390459796
 20
158.0420391410088
 30
0.0
 10
63.73512825691849
 20
157.6053705563513
 30
0.0
 10
63.68455093046693
 20
157.2412452760352
 30
0.0
 10
63.64976918881678
 20
156.8378288108654
 30
0.0
 10
63.6269539925032
 20
156.3901065960933
 30
0.0
 10
63.61296344779731
 20
155.9195965335289
 30
0.0
 10
63.60757336838202
 20
155.4008050679161
 30
0.0
 10
63.60648764649424
 20
155.0296713703881
 30
0.0
 10
63.60594361320788
 20
154.8437037783092
 30
0.0
  0
SPLINE
  5
211
330
1F
100
AcDbEntity
  8
0
  6
Continuous
 62
     8
370
    15
100
AcDbSpline
210
0.0
220
0.0
230
1.0
 70
     8
 71
     3
 72
    16
 73
    12
 74
     0
 42
0.00000001
 43
0.00000001
 40
0.0
 40
0.0
 40
0.0
 40
0.0
 40
0.0996636573730002
 40
0.1919913867590372
 40
0.2832345436053673
 40
0.3845475463290278
 40
0.4799359333777532
 40
0.5660543857968283
 40
0.6603695362617555
 40
0.8313523608904104
 40
0.9999999999999999
 40
0.9999999999999999
 40
0.9999999999999999
 40
0.9999999999999999
 10
203.2882179249888
 20
154.8432194905704
 30
0.0
 10
203.2875780485074
 20
155.0919869885636
 30
0.0
 10
203.2863453948373
 20
155.5712109923702
 30
0.0
 10
203.2747843744193
 20
156.1965642582299
 30
0.0
 10
203.2501273761378
 20
156.7688685608302
 30
0.0
 10
203.207042050069
 20
157.2812224967462
 30
0.0
 10
203.1404636854269
 20
157.7198424468284
 30
0.0
 10
203.0498962974478
 20
158.0897100508872
 30
0.0
 10
202.8892326464458
 20
158.4862697964371
 30
0.0
 10
202.6127659835477
 20
158.856113043647
 30
0.0
 10
202.2551013189568
 20
158.9802587286234
 30
0.0
 10
202.0774985779887
 20
159.0419047789997
 30
0.0
  0
LINE
  5
212
330
1F
100
AcDbEntity
  8
0
  6
Continuous
 62
     8
370
    15
100
AcDbLine
 10
155.247081921
 20
131.3296155351
 30
0.0
 11
155.4470815812
 21
131.3337692337
 31
0.0
  0
SPLINE
  5
213
330
1F
100
AcDbEntity
  8
0
  6
Continuous
 62
     8
370
    15
100
AcDbSpline
210
0.0
220
0.0
230
1.0
 70
     8
 71
     3
 72
    11
 73
     7
 74
     0
 42
0.00000001
 43
0.00000001
 40
0.0
 40
0.0
 40
0.0
 40
0.0
 40
0.1524152972151803
 40
0.4315458133945698
 40
0.7163359678171998
 40
1.0
 40
1.0
 40
1.0
 40
1.0
 10
163.4470817283606
 20
131.5422364788478
 30
0.0
 10
164.6365102231962
 20
131.5798093511215
 30
0.0
 10
168.0042357511254
 20
131.686192476852
 30
0.0
 10
173.565917826308
 20
131.9750308970668
 30
0.0
 10
180.1154118433342
 20
132.409191355961
 30
0.0
 10
184.4603285142418
 20
132.8008800948651
 30
0.0
 10
186.6284831543332
 20
132.9963364916271
 30
0.0
  0
SPLINE
  5
214
330
1F
100
AcDbEntity
  8
0
  6
Continuous
 62
     8
370
    15
100
AcDbSpline
210
0.0
220
0.0
230
1.0
 70
     8
 71
     3
 72
    10
 73
     6
 74
     0
 42
0.00000001
 43
0.00000001
 40
0.0
 40
0.0
 40
0.0
 40
0.0
 40
0.4547681298219864
 40
0.905409369869996
 40
1.0
 40
1.0
 40
1.0
 40
1.0
 10
80.26872008339221
 20
132.9957106428569
 30
0.0
 10
83.75097806990824
 20
132.6967275749975
 30
0.0
 10
90.68389355483987
 20
132.1014746244919
 30
0.0
 10
98.449522961148
 20
131.6768105719672
 30
0.0
 10
102.7082480829532
 20
131.5677380106869
 30
0.0
 10
103.4470814396506
 20
131.5488153415149
 30
0.0
  0
LINE
  5
215
330
1F
100
AcDbEntity
  8
0
  6
Continuous
 62
     8
370
    15
100
AcDbLine
 10
111.447082751
 20
131.3305580335
 30
0.0
 11
111.6470824112
 21
131.3251004832
 31
0.0
  0
SPLINE
  5
216
330
1F
100
AcDbEntity
  8
0
  6
Continuous
 62
     8
370
    15
100
AcDbSpline
210
0.0
220
0.0
230
1.0
 70
     8
 71
     3
 72
     9
 73
     5
 74
     0
 42
0.00000001
 43
0.00000001
 40
0.0
 40
0.0
 40
0.0
 40
0.0
 40
0.6093909818719241
 40
0.9999999999999999
 40
0.9999999999999999
 40
0.9999999999999999
 40
0.9999999999999999
 10
204.16693940059
 20
155.5291273909038
 30
0.0
 10
204.1602311128803
 20
154.7292020755805
 30
0.0
 10
204.1492229294492
 20
153.4165385490115
 30
0.0
 10
203.9443272080191
 20
151.6305157382778
 30
0.0
 10
203.8642930914527
 20
150.9328791218227
 30
0.0
  0
SPLINE
  5
217
330
1F
100
AcDbEntity
  8
0
  6
Continuous
 62
     8
370
    15
100
AcDbSpline
210
0.0
220
0.0
230
1.0
 70
     8
 71
     3
 72
     9
 73
     5
 74
     0
 42
0.00000001
 43
0.00000001
 40
0.0
 40
0.0
 40
0.0
 40
0.0
 40
0.3900630527823097
 40
1.0
 40
1.0
 40
1.0
 40
1.0
 10
63.02973806158359
 20
150.9335645752376
 30
0.0
 10
62.9497969227133
 20
151.6303767492411
 30
0.0
 10
62.74485277765761
 20
153.4167858157579
 30
0.0
 10
62.73390164066968
 20
154.72885060115
 30
0.0
 10
62.72722213760669
 20
155.5291273909038
 30
0.0
  0
SPLINE
  5
218
330
1F
100
AcDbEntity
  8
0
  6
Continuous
 62
     8
370
    15
100
AcDbSpline
210
0.0
220
0.0
230
1.0
 70
     8
 71
     3
 72
    10
 73
     6
 74
     0
 42
0.00000001
 43
0.00000001
 40
0.0
 40
0.0
 40
0.0
 40
0.0
 40
0.2109084694614154
 40
0.4869358660115503
 40
1.0
 40
1.0
 40
1.0
 40
1.0
 10
186.7628152598506
 20
132.8069129305309
 30
0.0
 10
186.7539157103785
 20
132.8067478520263
 30
0.0
 10
186.7333688359908
 20
132.8063667262954
 30
0.0
 10
186.6874152894275
 20
132.8526820611616
 30
0.0
 10
186.6517030854673
 20
132.9397350130418
 30
0.0
 10
186.6284831543332
 20
132.9963364916271
 30
0.0
  0
SPLINE
  5
219
330
1F
100
AcDbEntity
  8
0
  6
Continuous
 62
     8
370
    15
100
AcDbSpline
210
0.0
220
0.0
230
1.0
 70
     8
 71
     3
 72
    10
 73
     6
 74
     0
 42
0.00000001
 43
0.00000001
 40
0.0
 40
0.0
 40
0.0
 40
0.0
 40
0.2109009158686129
 40
0.4869202020354361
 40
1.0
 40
1.0
 40
1.0
 40
1.0
 10
80.13446807161624
 20
132.8062721805995
 30
0.0
 10
80.1433610252703
 20
132.8061071370279
 30
0.0
 10
80.16389274639681
 20
132.8057260905591
 30
0.0
 10
80.20982938770133
 20
132.8520422743738
 30
0.0
 10
80.24551618517013
 20
132.9391029536303
 30
0.0
 10
80.26872008339221
 20
132.9957106428569
 30
0.0
  0
POINT
  5
21A
330
1F
100
AcDbEntity
  8
0
  6
Continuous
 62
     7
370
     0
100
AcDbPoint
 10
55.7332271785
 20
95.6475463262
 30
0.0
  0
DIMENSION
  5
21B
330
1F
100
AcDbEntity
  8
0
  6
Continuous
 62
     7
370
     0
100
AcDbDimension
  2
*D9
 10
204.4470817184
 20
60.3469627064
 30
0.0
 11
130.0901544484
 21
60.3469627064
 31
0.0
 70
   160
 71
     2
 42
-1.0
  3
SLDDIMSTYLE0
100
AcDbAlignedDimension
 13
55.7332271785
 23
95.6475463262
 33
0.0
 14
204.4470817184
 24
88.1281069002
 34
0.0
 50
0.0
100
AcDbRotatedDimension
  0
DIMENSION
  5
225
330
1F
100
AcDbEntity
  8
0
  6
Continuous
 62
     7
370
     0
100
AcDbDimension
  2
*D10
 10
103.4470817184
 20
65.816622273
 30
0.0
 11
133.4470817184
 21
65.816622273
 31
0.0
 70
   160
 71
     2
 42
-1.0
  3
SLDDIMSTYLE0
100
AcDbAlignedDimension
 13
163.4470817184
 23
97.4652382074
 33
0.0
 14
103.4470817184
 24
97.4652382074
 34
0.0
100
AcDbRotatedDimension
  0
DIMENSION
  5
22F
330
1F
100
AcDbEntity
  8
0
  6
Continuous
 62
     7
370
     0
100
AcDbDimension
  2
*D11
 10
148.4470817184
 20
70.9547873204
 30
0.0
 11
133.4470817184
 21
70.9547873204
 31
0.0
 70
   160
 71
     2
 42
-1.0
  3
SLDDIMSTYLE0
100
AcDbAlignedDimension
 13
118.4470817184
 23
97.4652382074
 33
0.0
 14
148.4470817184
 24
97.2152382074
 34
0.0
100
AcDbRotatedDimension
  0
INSERT
  5
244
330
1F
100
AcDbEntity
  8
0
  6
Continuous
 62
     7
370
     0
100
AcDbBlockReference
  2
SW_CENTERMARKSYMBOL_0
 10
148.4470817184
 20
103.9652382074
 30
0.0
  0
INSERT
  5
250
330
1F
100
AcDbEntity
  8
0
  6
Continuous
 62
     7
370
     0
100
AcDbBlockReference
  2
SW_CENTERMARKSYMBOL_1
 10
118.4470817184
 20
103.9652382074
 30
0.0
  0
LINE
  5
251
330
1F
100
AcDbEntity
  8
0
  6
CENTERX2
 62
     7
370
     0
100
AcDbLine
 10
133.4470817184
 20
85.9805969905
 30
0.0
 11
133.4470817184
 21
167.8929696157
 31
0.0
  0
LINE
  5
252
330
1F
100
AcDbEntity
  8
0
  6
Continuous
 62
     7
370
    15
100
AcDbLine
 10
511.2396719451
 20
129.6047651487
 30
0.0
 11
511.0396722848
 21
129.6047651487
 31
0.0
  0
LINE
  5
253
330
1F
100
AcDbEntity
  8
0
  6
Continuous
 62
     7
370
    15
100
AcDbLine
 10
467.4396727751
 20
129.6047651487
 30
0.0
 11
467.2396731148
 21
129.6047651487
 31
0.0
  0
LINE
  5
254
330
1F
100
AcDbEntity
  8
0
  6
Continuous
 62
     7
370
    15
100
AcDbLine
 10
459.2396729677
 20
129.6047651487
 30
0.0
 11
434.2396723623
 21
129.6047651487
 31
0.0
  0
LINE
  5
255
330
1F
100
AcDbEntity
  8
0
  6
Continuous
 62
     7
370
    15
100
AcDbLine
 10
434.2396723623
 20
121.6047675627
 30
0.0
 11
459.2396729677
 21
121.6047675627
 31
0.0
  0
SPLINE
  5
256
330
1F
100
AcDbEntity
  8
0
  6
Continuous
 62
     7
370
    15
100
AcDbSpline
210
0.0
220
0.0
230
1.0
 70
     8
 71
     3
 72
    21
 73
    17
 74
     0
 42
0.00000001
 43
0.00000001
 40
0.0
 40
0.0
 40
0.0
 40
0.0
 40
0.0427135432477418
 40
0.1195052330265714
 40
0.1964934733069408
 40
0.2737069165515784
 40
0.3511756622375629
 40
0.4288692513623976
 40
0.5065989028360194
 40
0.5840709200102635
 40
0.6608863866925367
 40
0.736625678740598
 40
0.8109778843140367
 40
0.8838479452915335
 40
0.9553820891968093
 40
1.0
 40
1.0
 40
1.0
 40
1.0
 10
434.2396723622966
 20
129.604765148682
 30
0.0
 10
433.8928114652515
 20
129.59959126835
 30
0.0
 10
432.9223536390592
 20
129.5851156307019
 30
0.0
 10
431.3348197264521
 20
129.4288628848055
 30
0.0
 10
429.5072522948701
 20
129.0880130273243
 30
0.0
 10
427.7367257395503
 20
128.5800443696664
 30
0.0
 10
426.0469011682014
 20
127.9107530553574
 30
0.0
 10
424.4620650627552
 20
127.0838794684527
 30
0.0
 10
423.0075465814914
 20
126.1070032176022
 30
0.0
 10
421.7091505876731
 20
124.9915895435832
 30
0.0
 10
420.5911708630146
 20
123.7541295818717
 30
0.0
 10
419.6747657845755
 20
122.4162729359092
 30
0.0
 10
418.9736469179584
 20
121.0035043278739
 30
0.0
 10
418.5000968811353
 20
119.5429716523857
 30
0.0
 10
418.2708299195174
 20
118.2390883154606
 30
0.0
 10
418.2483202038492
 20
117.4302041349692
 30
0.0
 10
418.2396734649825
 20
117.1194845157092
 30
0.0
  0
SPLINE
  5
257
330
1F
100
AcDbEntity
  8
0
  6
Continuous
 62
     7
370
    15
100
AcDbSpline
210
0.0
220
0.0
230
1.0
 70
     8
 71
     3
 72
    19
 73
    15
 74
     0
 42
0.00000001
 43
0.00000001
 40
0.0
 40
0.0
 40
0.0
 40
0.0
 40
0.0444755149099527
 40
0.1554367120845365
 40
0.2519315157678152
 40
0.3418675673425716
 40
0.4373982558200669
 40
0.5295624603785323
 40
0.6206340161860758
 40
0.7116102831117195
 40
0.8028372261498009
 40
0.8944519597888949
 40
0.9816586454993185
 40
1.0
 40
1.0
 40
1.0
 40
1.0
 10
426.2396729136395
 20
117.1194845157092
 30
0.0
 10
426.2416936141601
 20
117.1856088447692
 30
0.0
 10
426.2487557256537
 20
117.4167056250692
 30
0.0
 10
426.336510995361
 20
117.8093836893743
 30
0.0
 10
426.5827927356607
 20
118.34577361146
 30
0.0
 10
426.9847216525813
 20
118.9114951624471
 30
0.0
 10
427.5665414295069
 20
119.4953493275231
 30
0.0
 10
428.3408434629397
 20
120.0662179574919
 30
0.0
 10
429.2682417947217
 20
120.5760331076724
 30
0.0
 10
430.3305112346779
 20
121.0036916820769
 30
0.0
 10
431.5023418977844
 20
121.3304632492157
 30
0.0
 10
432.7312097449191
 20
121.5366176993435
 30
0.0
 10
433.6570340850066
 20
121.601088345824
 30
0.0
 10
434.1534149775196
 20
121.6042228685854
 30
0.0
 10
434.2396723622966
 20
121.6047675626701
 30
0.0
  0
LINE
  5
258
330
1F
100
AcDbEntity
  8
0
  6
Continuous
 62
     7
370
    15
100
AcDbLine
 10
426.2396729136
 20
88.1281075346
 30
0.0
 11
426.2396729136
 21
117.1194845157
 31
0.0
  0
LINE
  5
259
330
1F
100
AcDbEntity
  8
0
  6
Continuous
 62
     7
370
    15
100
AcDbLine
 10
418.239673465
 20
117.1194845157
 30
0.0
 11
418.239673465
 21
88.1281075346
 31
0.0
  0
LINE
  5
25A
330
1F
100
AcDbEntity
  8
0
  6
Continuous
 62
     7
370
    15
100
AcDbLine
 10
566.6492673154
 20
96.9651331472
 30
0.0
 11
566.5043162698
 21
97.2876091766
 31
0.0
  0
LINE
  5
25B
330
1F
100
AcDbEntity
  8
0
  6
Continuous
 62
     7
370
    15
100
AcDbLine
 10
563.0750300879
 20
100.0876081454
 30
0.0
 11
562.7300831074
 21
100.1651332992
 31
0.0
  0
LINE
  5
25C
330
1F
100
AcDbEntity
  8
0
  6
Continuous
 62
     7
370
    15
100
AcDbLine
 10
560.3912862534
 20
99.6252623665
 30
0.0
 11
549.6053861971
 21
86.4152879732
 31
0.0
  0
LINE
  5
25D
330
1F
100
AcDbEntity
  8
0
  6
Continuous
 62
     7
370
    15
100
AcDbLine
 10
555.8021607394
 20
81.3556443246
 30
0.0
 11
566.5880607958
 21
94.5656177866
 31
0.0
  0
SPLINE
  5
25E
330
1F
100
AcDbEntity
  8
0
  6
Continuous
 62
     7
370
    15
100
AcDbSpline
210
0.0
220
0.0
230
1.0
 70
     8
 71
     3
 72
    21
 73
    17
 74
     0
 42
0.00000001
 43
0.00000001
 40
0.0
 40
0.0
 40
0.0
 40
0.0
 40
0.0474788034684529
 40
0.1173708740953353
 40
0.1872487208177042
 40
0.2575921906909598
 40
0.3288115949635415
 40
0.4011752999210753
 40
0.4747647613760134
 40
0.5494728714291716
 40
0.6250524678322372
 40
0.7012065408844174
 40
0.777674061059082
 40
0.854252755886464
 40
0.9308718380020221
 40
1.0
 40
1.0
 40
1.0
 40
1.0
 10
418.2396734649825
 20
88.12810753457006
 30
0.0
 10
418.249411078632
 20
87.79744115495988
 30
0.0
 10
418.2734831306249
 20
86.98001107725007
 30
0.0
 10
418.5062772691303
 20
85.68938149607038
 30
0.0
 10
418.9601337221517
 20
84.2866157647839
 30
0.0
 10
419.6147083018656
 20
82.94295754571152
 30
0.0
 10
420.4586868885208
 20
81.67101593810392
 30
0.0
 10
421.4859754102105
 20
80.48365736903635
 30
0.0
 10
422.6870761281691
 20
79.39485963963017
 30
0.0
 10
424.0492448088247
 20
78.41954584979263
 30
0.0
 10
425.5550927208379
 20
77.57228931816945
 30
0.0
 10
427.1832128438697
 20
76.86633835532261
 30
0.0
 10
428.9093129995281
 20
76.31100566384599
 30
0.0
 10
430.7081157300001
 20
75.91740821720114
 30
0.0
 10
432.4941447993365
 20
75.68362646789332
 30
0.0
 10
433.6781138557748
 20
75.65595169550859
 30
0.0
 10
434.2396723622966
 20
75.64282550461348
 30
0.0
  0
SPLINE
  5
25F
330
1F
100
AcDbEntity
  8
0
  6
Continuous
 62
     7
370
    15
100
AcDbSpline
210
0.0
220
0.0
230
1.0
 70
     8
 71
     3
 72
    18
 73
    14
 74
     0
 42
0.00000001
 43
0.00000001
 40
0.0
 40
0.0
 40
0.0
 40
0.0
 40
0.0455983104391483
 40
0.137504259852668
 40
0.2291430298731026
 40
0.3202359999171495
 40
0.4106891705732415
 40
0.500596999903079
 40
0.5903838459355392
 40
0.6806726053887452
 40
0.7730027397841313
 40
0.87023805078766
 40
1.0
 40
1.0
 40
1.0
 40
1.0
 10
434.2396723622966
 20
83.6428254189318
 30
0.0
 10
434.0251905884994
 20
83.64604646082132
 30
0.0
 10
433.3784087829052
 20
83.65575969310353
 30
0.0
 10
432.3099287799342
 20
83.76725687112189
 30
0.0
 10
431.0823334126565
 20
84.0185314903076
 30
0.0
 10
429.9470343735284
 20
84.38232615669287
 30
0.0
 10
428.9361658933229
 20
84.8375202063358
 30
0.0
 10
428.0748357648716
 20
85.36039158581862
 30
0.0
 10
427.3808282559405
 20
85.9217862485786
 30
0.0
 10
426.8601240993681
 20
86.49084758862055
 30
0.0
 10
426.5080581499352
 20
87.0401419208321
 30
0.0
 10
426.2804024918399
 20
87.59602057283831
 30
0.0
 10
426.2544872458787
 20
87.93457464325257
 30
0.0
 10
426.2396729136395
 20
88.12810753457006
 30
0.0
  0
SPLINE
  5
260
330
1F
100
AcDbEntity
  8
0
  6
Continuous
 62
     7
370
    15
100
AcDbSpline
210
0.0
220
0.0
230
1.0
 70
     8
 71
     3
 72
    16
 73
    12
 74
     0
 42
0.00000001
 43
0.00000001
 40
0.0
 40
0.0
 40
0.0
 40
0.0
 40
0.0655949973387435
 40
0.183523581389586
 40
0.3017541282850512
 40
0.4203308169638506
 40
0.5392990238727409
 40
0.6586126079156073
 40
0.7779819057695112
 40
0.8969553118421922
 40
1.0
 40
1.0
 40
1.0
 40
1.0
 10
542.3114689583468
 20
75.64282550461348
 30
0.0
 10
542.6583298026369
 20
75.64800036605088
 30
0.0
 10
543.6287871083857
 20
75.66247874310274
 30
0.0
 10
545.2163227137198
 20
75.81872802551484
 30
0.0
 10
547.043879797045
 20
76.15958714861479
 30
0.0
 10
548.8144600417029
 20
76.66752082010399
 30
0.0
 10
550.5040876189839
 20
77.33693858270132
 30
0.0
 10
552.0896564524502
 20
78.16334660417691
 30
0.0
 10
553.5414384341024
 20
79.14195688937839
 30
0.0
 10
554.7951774556773
 20
80.20449592676914
 30
0.0
 10
555.4829477009495
 20
80.99073103985921
 30
0.0
 10
555.8021607393908
 20
81.35564432464298
 30
0.0
  0
SPLINE
  5
261
330
1F
100
AcDbEntity
  8
0
  6
Continuous
 62
     7
370
    15
100
AcDbSpline
210
0.0
220
0.0
230
1.0
 70
     8
 71
     3
 72
    15
 73
    11
 74
     0
 42
0.00000001
 43
0.00000001
 40
0.0
 40
0.0
 40
0.0
 40
0.0
 40
0.0658392570706056
 40
0.2049194303861368
 40
0.341676586909786
 40
0.4774984415087188
 40
0.613366598128994
 40
0.7497255159095297
 40
0.8866497869814687
 40
1.0
 40
1.0
 40
1.0
 40
1.0
 10
549.6053861970591
 20
86.4152879732078
 30
0.0
 10
549.5277904069711
 20
86.32467058935671
 30
0.0
 10
549.2862797063239
 20
86.04263121789276
 30
0.0
 10
548.7482298292491
 20
85.56064916293604
 30
0.0
 10
547.9276326109815
 20
85.00932751527954
 30
0.0
 10
546.9539692814425
 20
84.52381090094858
 30
0.0
 10
545.8533927745726
 20
84.12633069266083
 30
0.0
 10
544.652713669928
 20
83.83755957082292
 30
0.0
 10
543.4579424507315
 20
83.67059808057815
 30
0.0
 10
542.6688512143241
 20
83.65148279874879
 30
0.0
 10
542.3114689583468
 20
83.6428254189318
 30
0.0
  0
LINE
  5
262
330
1F
100
AcDbEntity
  8
0
  6
Continuous
 62
     7
370
    15
100
AcDbLine
 10
542.3114689583
 20
83.6428254189
 30
0.0
 11
434.2396723623
 21
83.6428254189
 31
0.0
  0
LINE
  5
263
330
1F
100
AcDbEntity
  8
0
  6
Continuous
 62
     7
370
    15
100
AcDbLine
 10
434.2396723623
 20
75.6428255046
 30
0.0
 11
542.3114689583
 21
75.6428255046
 31
0.0
  0
SPLINE
  5
264
330
1F
100
AcDbEntity
  8
0
  6
Continuous
 62
     7
370
    15
100
AcDbSpline
210
0.0
220
0.0
230
1.0
 70
     8
 71
     3
 72
    19
 73
    15
 74
     0
 42
0.00000001
 43
0.00000001
 40
0.0
 40
0.0
 40
0.0
 40
0.0
 40
0.0347427371691181
 40
0.1230321512091779
 40
0.2113235772133085
 40
0.2996169149126878
 40
0.3879118248953298
 40
0.4762079630681558
 40
0.5645049700929238
 40
0.6528025038282725
 40
0.7411001214760377
 40
0.8293974738776395
 40
0.9176942150563199
 40
1.0
 40
1.0
 40
1.0
 40
1.0
 10
557.3403405542064
 20
161.1092248278087
 30
0.0
 10
555.7680912886053
 20
161.26362980779
 30
0.0
 10
550.2003892263772
 20
161.810413924195
 30
0.0
 10
540.6214437359789
 20
162.5912446216516
 30
0.0
 10
528.6010614140998
 20
163.3822558735521
 30
0.0
 10
516.5673806107632
 20
163.9592233318662
 30
0.0
 10
504.5249900763326
 20
164.3289565020085
 30
0.0
 10
492.4775532592758
 20
164.4894408582786
 30
0.0
 10
480.4289751155304
 20
164.4412103524987
 30
0.0
 10
468.383146511125
 20
164.1837863279735
 30
0.0
 10
456.3437936641718
 20
163.718639605272
 30
0.0
 10
444.3153151764063
 20
163.0407668169119
 30
0.0
 10
432.5712833320666
 20
162.1893043131566
 30
0.0
 10
424.8474085074027
 20
161.4635323932077
 30
0.0
 10
421.121088653295
 20
161.1133897023624
 30
0.0
  0
SPLINE
  5
265
330
1F
100
AcDbEntity
  8
0
  6
Continuous
 62
     7
370
    15
100
AcDbSpline
210
0.0
220
0.0
230
1.0
 70
     8
 71
     3
 72
    21
 73
    17
 74
     0
 42
0.00000001
 43
0.00000001
 40
0.0
 40
0.0
 40
0.0
 40
0.0
 40
0.0777600828735591
 40
0.142383973061082
 40
0.1939018221561628
 40
0.2329045053893012
 40
0.2691167104091942
 40
0.3060046172920773
 40
0.484358601378252
 40
0.5981317358045951
 40
0.7030724875221858
 40
0.7373273732970943
 40
0.7839857010192255
 40
0.8433276259516704
 40
0.915344098435974
 40
0.9999999999999999
 40
0.9999999999999999
 40
0.9999999999999999
 40
0.9999999999999999
 10
489.2391207213092
 20
130.9676514285034
 30
0.0
 10
490.6309947085003
 20
130.968449977099
 30
0.0
 10
493.1796101545372
 20
130.9699121736082
 30
0.0
 10
496.650136349787
 20
130.9736881195498
 30
0.0
 10
499.4265492165632
 20
130.9834926006236
 30
0.0
 10
501.6941173380426
 20
130.9955167904096
 30
0.0
 10
503.6995404945461
 20
131.0099084693786
 30
0.0
 10
508.1967113070689
 20
131.0514325801971
 30
0.0
 10
514.0769057986922
 20
131.146697904474
 30
0.0
 10
521.1528311609293
 20
131.3680184001556
 30
0.0
 10
525.6460329358293
 20
131.5705906310771
 30
0.0
 10
528.9370453560041
 20
131.751223068234
 30
0.0
 10
531.415899423558
 20
131.9018258574575
 30
0.0
 10
534.5527820791466
 20
132.1181424496764
 30
0.0
 10
538.3457676241069
 20
132.4135524641798
 30
0.0
 10
541.0768497544061
 20
132.6664537356466
 30
0.0
 10
542.5525548453021
 20
132.8031056838458
 30
0.0
  0
SPLINE
  5
266
330
1F
100
AcDbEntity
  8
0
  6
Continuous
 62
     7
370
    15
100
AcDbSpline
210
0.0
220
0.0
230
1.0
 70
     8
 71
     3
 72
    22
 73
    18
 74
     0
 42
0.00000001
 43
0.00000001
 40
0.0
 40
0.0
 40
0.0
 40
0.0
 40
0.0776259937836873
 40
0.142213784106561
 40
0.1937525080893193
 40
0.2327730169973354
 40
0.269006265034787
 40
0.3059021377266388
 40
0.3948984349227952
 40
0.4842357473883237
 40
0.5979677961512514
 40
0.7029095302412183
 40
0.7372148942496771
 40
0.7839172148624238
 40
0.8432758477822487
 40
0.9152981587508818
 40
1.0
 40
1.0
 40
1.0
 40
1.0
 10
435.9236693526196
 20
132.8037538843578
 30
0.0
 10
437.276598819907
 20
132.6778103128846
 30
0.0
 10
439.7552172541955
 20
132.447076881851
 30
0.0
 10
443.1548750852832
 20
132.1764557613084
 30
0.0
 10
445.8860941992274
 20
131.9811483320889
 30
0.0
 10
448.1240664554424
 20
131.8364898324507
 30
0.0
 10
450.1074153538853
 20
131.7193491857061
 30
0.0
 10
452.9794964534391
 20
131.5650428522769
 30
0.0
 10
456.8025196204043
 20
131.393179918167
 30
0.0
 10
462.0046818912932
 20
131.2175564801538
 30
0.0
 10
467.5033923924054
 20
131.0940031705983
 30
0.0
 10
472.0261318254459
 20
131.0344941880791
 30
0.0
 10
475.3522093032475
 20
131.0053130177069
 30
0.0
 10
477.8635879560914
 20
130.9889384925588
 30
0.0
 10
481.0505354677486
 20
130.975566762691
 30
0.0
 10
484.9182464652471
 20
130.9687664530388
 30
0.0
 10
487.723744798791
 20
130.9680426234606
 30
0.0
 10
489.2399812633681
 20
130.9676514285034
 30
0.0
  0
SPLINE
  5
267
330
1F
100
AcDbEntity
  8
0
  6
Continuous
 62
     7
370
    15
100
AcDbSpline
210
0.0
220
0.0
230
1.0
 70
     8
 71
     3
 72
    20
 73
    16
 74
     0
 42
0.00000001
 43
0.00000001
 40
0.0
 40
0.0
 40
0.0
 40
0.0
 40
0.120792706420421
 40
0.2279373676038611
 40
0.3208563812779687
 40
0.4356921222761385
 40
0.5236995532202757
 40
0.5605804319957982
 40
0.5929881415291819
 40
0.62114031353043
 40
0.659158847060109
 40
0.7162609038157093
 40
0.7922035025735542
 40
0.8864112486421621
 40
1.0
 40
1.0
 40
1.0
 40
1.0
 10
542.5525548453021
 20
132.8031056838458
 30
0.0
 10
543.4646565249818
 20
132.9159423793488
 30
0.0
 10
545.1858039519599
 20
133.1288666535391
 30
0.0
 10
547.4657848970504
 20
133.6918341710112
 30
0.0
 10
549.5703004183216
 20
134.3910047908594
 30
0.0
 10
551.3847357883
 20
135.1970569430327
 30
0.0
 10
552.7058099908082
 20
135.9498885078135
 30
0.0
 10
553.505431455023
 20
136.4804692733643
 30
0.0
 10
553.9772086563099
 20
136.821223119363
 30
0.0
 10
554.4341024063826
 20
137.1770940301139
 30
0.0
 10
554.9741102135603
 20
137.6346705128365
 30
0.0
 10
555.658069700163
 20
138.2910969495328
 30
0.0
 10
556.4377175414597
 20
139.1982966954161
 30
0.0
 10
557.2210890575784
 20
140.3736224657756
 30
0.0
 10
557.5419379379048
 20
141.2601689245398
 30
0.0
 10
557.7173250312495
 20
141.7447858767932
 30
0.0
  0
SPLINE
  5
268
330
1F
100
AcDbEntity
  8
0
  6
Continuous
 62
     7
370
    15
100
AcDbSpline
210
0.0
220
0.0
230
1.0
 70
     8
 71
     3
 72
    19
 73
    15
 74
     0
 42
0.00000001
 43
0.00000001
 40
0.0
 40
0.0
 40
0.0
 40
0.0
 40
0.1140026650629075
 40
0.2089542468506742
 40
0.2971487273554606
 40
0.3584717555177257
 40
0.3956777074816274
 40
0.433288682048957
 40
0.4773692560209888
 40
0.5649393266158874
 40
0.679349987240167
 40
0.7732166669881558
 40
0.8796931804700167
 40
1.0
 40
1.0
 40
1.0
 40
1.0
 10
420.7619632179427
 20
141.7449870424693
 30
0.0
 10
420.9381213776846
 20
141.2586788215309
 30
0.0
 10
421.2609997557923
 20
140.3673297641433
 30
0.0
 10
422.0828085582016
 20
139.1375853175329
 30
0.0
 10
422.9367079632419
 20
138.164217333662
 30
0.0
 10
423.7070891613871
 20
137.4550442386953
 30
0.0
 10
424.322164237074
 20
136.956330165103
 30
0.0
 10
424.8905077521133
 20
136.5368908225571
 30
0.0
 10
425.7476908256673
 20
135.9645110560813
 30
0.0
 10
427.1044547607837
 20
135.1922418265837
 30
0.0
 10
428.9203153720524
 20
134.3869788820275
 30
0.0
 10
431.0240701465041
 20
133.6890392394296
 30
0.0
 10
433.303264688707
 20
133.1279053101882
 30
0.0
 10
435.0153965344824
 20
132.9161097861377
 30
0.0
 10
435.9236693526196
 20
132.8037538843578
 30
0.0
  0
LWPOLYLINE
  5
269
330
1F
100
AcDbEntity
  8
0
  6
Continuous
 62
     7
370
    15
100
AcDbPolyline
 90
        3
 70
   128
 43
0.0
 10
559.6886145467
 20
150.9782904106
 10
559.7005950803
 20
151.0839917975
 10
559.7125756139
 20
151.1896857338
  0
LWPOLYLINE
  5
26A
330
1F
100
AcDbEntity
  8
0
  6
Continuous
 62
     7
370
    15
100
AcDbPolyline
 90
        3
 70
   128
 43
0.0
 10
418.7690744693
 20
151.1693754511
 10
418.7798256571
 20
151.074514659
 10
418.7905768449
 20
150.9796464162
  0
LINE
  5
26B
330
1F
100
AcDbEntity
  8
0
  6
Continuous
 62
     7
370
    15
100
AcDbLine
 10
418.5039381082
 20
156.1838546114
 30
0.0
 11
418.4997285301
 21
155.8024742918
 31
0.0
  0
SPLINE
  5
26C
330
1F
100
AcDbEntity
  8
0
  6
Continuous
 62
     7
370
    15
100
AcDbSpline
210
0.0
220
0.0
230
1.0
 70
     8
 71
     3
 72
    15
 73
    11
 74
     0
 42
0.00000001
 43
0.00000001
 40
0.0
 40
0.0
 40
0.0
 40
0.0
 40
0.0972637729399514
 40
0.2162905761321714
 40
0.3422028875673379
 40
0.4665794570075417
 40
0.5946295845472752
 40
0.7554828346594914
 40
0.9396406289342311
 40
1.0
 40
1.0
 40
1.0
 40
1.0
 10
421.0884104067969
 20
161.0951730328029
 30
0.0
 10
420.9038445923771
 20
161.0699602994708
 30
0.0
 10
420.4934158671843
 20
161.013893416052
 30
0.0
 10
419.8916546152146
 20
160.7089816531735
 30
0.0
 10
419.3506440084004
 20
160.2234589186988
 30
0.0
 10
418.9602039454094
 20
159.5603702669135
 30
0.0
 10
418.7275107213496
 20
158.8308474073725
 30
0.0
 10
418.5724225431375
 20
157.8825803928785
 30
0.0
 10
418.5093488596953
 20
156.9991588497589
 30
0.0
 10
418.5050093272415
 20
156.3452683155972
 30
0.0
 10
418.5039381081748
 20
156.1838546114391
 30
0.0
  0
ARC
  5
26D
330
1F
100
AcDbEntity
  8
0
  6
Continuous
 62
     7
370
    15
100
AcDbCircle
 10
518.2396729776
 20
125.4974611131
 30
0.0
 40
1.0
100
AcDbArc
 50
0.0
 51
90.0
  0
LINE
  5
26E
330
1F
100
AcDbEntity
  8
0
  6
Continuous
 62
     7
370
    15
100
AcDbLine
 10
518.2396712298
 20
126.4974595325
 30
0.0
 11
512.0396743114
 21
126.4974595325
 31
0.0
  0
SPLINE
  5
26F
330
1F
100
AcDbEntity
  8
0
  6
Continuous
 62
     7
370
    15
100
AcDbSpline
210
0.0
220
0.0
230
1.0
 70
     8
 71
     3
 72
    12
 73
     8
 74
     0
 42
0.00000001
 43
0.00000001
 40
0.0
 40
0.0
 40
0.0
 40
0.0
 40
0.1476080994484601
 40
0.3965973668591848
 40
0.6149257541183673
 40
0.8157830736415339
 40
1.0
 40
1.0
 40
1.0
 40
1.0
 10
512.0396743113685
 20
126.4974595325416
 30
0.0
 10
511.9573909973493
 20
126.4995552438619
 30
0.0
 10
511.7363100011274
 20
126.5051860567672
 30
0.0
 10
511.4127155488106
 20
126.5620070590101
 30
0.0
 10
511.1432082998759
 20
126.6523363504736
 30
0.0
 10
510.9884232999601
 20
126.7446737919603
 30
0.0
 10
510.9812570339645
 20
126.7536567806493
 30
0.0
 10
510.9778287405658
 20
126.7579541819518
 30
0.0
  0
SPLINE
  5
270
330
1F
100
AcDbEntity
  8
0
  6
Continuous
 62
     7
370
    15
100
AcDbSpline
210
0.0
220
0.0
230
1.0
 70
     8
 71
     3
 72
    12
 73
     8
 74
     0
 42
0.00000001
 43
0.00000001
 40
0.0
 40
0.0
 40
0.0
 40
0.0
 40
0.1803160042789017
 40
0.3809892071313836
 40
0.5904412036533055
 40
0.8200817439010087
 40
1.0
 40
1.0
 40
1.0
 40
1.0
 10
467.5047694290566
 20
126.7608003037399
 30
0.0
 10
467.5002124140092
 20
126.7555585586759
 30
0.0
 10
467.4905839090036
 20
126.7444832894345
 30
0.0
 10
467.3422830008691
 20
126.6555442910887
 30
0.0
 10
467.0876572135363
 20
126.568434956054
 30
0.0
 10
466.7686361812595
 20
126.5075966422314
 30
0.0
 10
466.5400777950447
 20
126.5005535479739
 30
0.0
 10
466.439672611146
 20
126.4974595325416
 30
0.0
  0
LINE
  5
271
330
1F
100
AcDbEntity
  8
0
  6
Continuous
 62
     7
370
    15
100
AcDbLine
 10
466.4396726111
 20
126.4974595325
 30
0.0
 11
460.2396728987
 21
126.4974595325
 31
0.0
  0
ARC
  5
272
330
1F
100
AcDbEntity
  8
0
  6
Continuous
 62
     7
370
    15
100
AcDbCircle
 10
460.2396729776
 20
125.4974611131
 30
0.0
 40
1.0
100
AcDbArc
 50
90.0
 51
180.0
  0
CIRCLE
  5
273
330
1F
100
AcDbEntity
  8
0
  6
Continuous
 62
     7
370
    15
100
AcDbCircle
 10
504.2396729776
 20
103.9652382074
 30
0.0
 40
2.0
  0
CIRCLE
  5
274
330
1F
100
AcDbEntity
  8
0
  6
Continuous
 62
     7
370
    15
100
AcDbCircle
 10
474.2396729776
 20
103.9652382074
 30
0.0
 40
2.0
  0
LINE
  5
275
330
1F
100
AcDbEntity
  8
0
  6
Continuous
 62
     7
370
    15
100
AcDbLine
 10
504.9158948059
 20
129.9428650456
 30
0.0
 11
505.3882243628
 21
129.9428650456
 31
0.0
  0
LINE
  5
276
330
1F
100
AcDbEntity
  8
0
  6
Continuous
 62
     7
370
    15
100
AcDbLine
 10
506.4396726484
 20
130.349022271
 30
0.0
 11
506.4396726484
 21
130.671185376
 31
0.0
  0
LINE
  5
277
330
1F
100
AcDbEntity
  8
0
  6
Continuous
 62
     7
370
    15
100
AcDbLine
 10
506.4396726484
 20
130.671185376
 30
0.0
 11
504.9158948059
 21
130.671185376
 31
0.0
  0
ARC
  5
278
330
1F
100
AcDbEntity
  8
0
  6
Continuous
 62
     7
370
    15
100
AcDbCircle
 10
504.388678484
 20
130.0965880746
 30
0.0
 40
0.7798199206986629
100
AcDbArc
 50
47.4623571188
 51
62.0091587923
  0
LINE
  5
279
330
1F
100
AcDbEntity
  8
0
  6
Continuous
 62
     7
370
    15
100
AcDbLine
 10
504.7546716923
 20
130.7851867097
 30
0.0
 11
504.7546716923
 21
131.0203903633
 31
0.0
  0
LINE
  5
27A
330
1F
100
AcDbEntity
  8
0
  6
Continuous
 62
     7
370
    15
100
AcDbLine
 10
503.7246736283
 20
131.0108275431
 30
0.0
 11
503.7246736283
 21
130.7851867097
 31
0.0
  0
ARC
  5
27B
330
1F
100
AcDbEntity
  8
0
  6
Continuous
 62
     7
370
    15
100
AcDbCircle
 10
504.0906668366
 20
130.0965880746
 30
0.0
 40
0.7798199206986994
100
AcDbArc
 50
117.9908412077
 51
132.5376428812
  0
LINE
  5
27C
330
1F
100
AcDbEntity
  8
0
  6
Continuous
 62
     7
370
    15
100
AcDbLine
 10
503.5634505148
 20
130.671185376
 30
0.0
 11
502.0396726722
 21
130.671185376
 31
0.0
  0
LINE
  5
27D
330
1F
100
AcDbEntity
  8
0
  6
Continuous
 62
     7
370
    15
100
AcDbLine
 10
502.0396726722
 20
130.671185376
 30
0.0
 11
502.0396726722
 21
130.328477295
 31
0.0
  0
LINE
  5
27E
330
1F
100
AcDbEntity
  8
0
  6
Continuous
 62
     7
370
    15
100
AcDbLine
 10
503.0911209578
 20
129.9428650456
 30
0.0
 11
503.5634505148
 21
129.9428650456
 31
0.0
  0
ARC
  5
27F
330
1F
100
AcDbEntity
  8
0
  6
Continuous
 62
     7
370
    15
100
AcDbCircle
 10
504.0738906434
 20
130.4963691051
 30
0.0
 40
0.752938157404144
100
AcDbArc
 50
227.3178240101
 51
238.1364700415
  0
ARC
  5
280
330
1F
100
AcDbEntity
  8
0
  6
Continuous
 62
     7
370
    15
100
AcDbCircle
 10
504.4055566855
 20
130.4962350684
 30
0.0
 40
0.7527704691925886
100
AcDbArc
 50
301.862321376
 51
312.6833845725
  0
LINE
  5
281
330
1F
100
AcDbEntity
  8
0
  6
Continuous
 62
     7
370
    15
100
AcDbLine
 10
501.3331862683
 20
130.8325388747
 30
0.0
 11
501.4057921762
 21
131.0031348186
 31
0.0
  0
LINE
  5
282
330
1F
100
AcDbEntity
  8
0
  6
Continuous
 62
     7
370
    15
100
AcDbLine
 10
507.0434453482
 20
131.0616330522
 30
0.0
 11
507.1461590523
 21
130.8325388747
 31
0.0
  0
LINE
  5
283
330
1F
100
AcDbEntity
  8
0
  6
Continuous
 62
     7
370
    15
100
AcDbLine
 10
506.4396726484
 20
130.671185376
 30
0.0
 11
505.9387440378
 21
130.0881476419
 31
0.0
  0
LINE
  5
284
330
1F
100
AcDbEntity
  8
0
  6
Continuous
 62
     7
370
    15
100
AcDbLine
 10
502.0396726722
 20
130.671185376
 30
0.0
 11
502.5406012828
 21
130.0881476419
 31
0.0
  0
LINE
  5
285
330
1F
100
AcDbEntity
  8
0
  6
Continuous
 62
     7
370
    15
100
AcDbLine
 10
504.9158948059
 20
130.671185376
 30
0.0
 11
504.8099512751
 21
129.8626260179
 31
0.0
  0
SPLINE
  5
286
330
1F
100
AcDbEntity
  8
0
  6
Continuous
 62
     7
370
    15
100
AcDbSpline
210
0.0
220
0.0
230
1.0
 70
     8
 71
     3
 72
     9
 73
     5
 74
     0
 42
0.00000001
 43
0.00000001
 40
0.0
 40
0.0
 40
0.0
 40
0.0
 40
0.643596415798302
 40
1.0
 40
1.0
 40
1.0
 40
1.0
 10
503.6635080868888
 20
129.901991160435
 30
0.0
 10
503.6412564989488
 20
130.0669580773412
 30
0.0
 10
503.6066826769174
 20
130.3232785180035
 30
0.0
 10
503.5748100376392
 20
130.5797706579682
 30
0.0
 10
503.5634505147624
 20
130.6711853759712
 30
0.0
  0
SPLINE
  5
287
330
1F
100
AcDbEntity
  8
0
  6
Continuous
 62
     7
370
    15
100
AcDbSpline
210
0.0
220
0.0
230
1.0
 70
    24
 71
     3
 72
     9
 73
     5
 74
     0
 42
0.00000001
 43
0.00000001
 40
0.0
 40
0.0
 40
0.0
 40
0.0
 40
0.678078564330603
 40
1.0
 40
1.0
 40
1.0
 40
1.0
 10
504.7546716923404
 20
129.8551456349319
 30
0.0
 10
504.7546716923404
 20
130.0659344995113
 30
0.0
 10
504.7546716923404
 20
130.3767965082336
 30
0.0
 10
504.7546716923404
 20
130.6857333258322
 30
0.0
 10
504.7546716923404
 20
130.7851867096847
 30
0.0
  0
LINE
  5
288
330
1F
100
AcDbEntity
  8
0
  6
Continuous
 62
     7
370
    15
100
AcDbLine
 10
503.7246736283
 20
130.7851867097
 30
0.0
 11
503.7246736283
 21
129.8993648308
 31
0.0
  0
LINE
  5
289
330
1F
100
AcDbEntity
  8
0
  6
Continuous
 62
     7
370
    15
100
AcDbLine
 10
474.9158936138
 20
129.9428650456
 30
0.0
 11
475.388226896
 21
129.9428650456
 31
0.0
  0
LINE
  5
28A
330
1F
100
AcDbEntity
  8
0
  6
Continuous
 62
     7
370
    15
100
AcDbLine
 10
476.439673319
 20
130.349022271
 30
0.0
 11
476.439673319
 21
130.671185376
 31
0.0
  0
LINE
  5
28B
330
1F
100
AcDbEntity
  8
0
  6
Continuous
 62
     7
370
    15
100
AcDbLine
 10
476.439673319
 20
130.671185376
 30
0.0
 11
474.9158936138
 21
130.671185376
 31
0.0
  0
ARC
  5
28C
330
1F
100
AcDbEntity
  8
0
  6
Continuous
 62
     7
370
    15
100
AcDbCircle
 10
474.3886684728
 20
130.0965815825
 30
0.0
 40
0.7798306667245664
100
AcDbArc
 50
47.4622021625
 51
62.0086896522
  0
LINE
  5
28D
330
1F
100
AcDbEntity
  8
0
  6
Continuous
 62
     7
370
    15
100
AcDbLine
 10
474.7546723629
 20
130.7851867097
 30
0.0
 11
474.7546723629
 21
131.0111553686
 31
0.0
  0
LINE
  5
28E
330
1F
100
AcDbEntity
  8
0
  6
Continuous
 62
     7
370
    15
100
AcDbLine
 10
473.7246724362
 20
131.0202376264
 30
0.0
 11
473.7246724362
 21
130.7851867097
 31
0.0
  0
ARC
  5
28F
330
1F
100
AcDbEntity
  8
0
  6
Continuous
 62
     7
370
    15
100
AcDbCircle
 10
474.0907342147
 20
130.0964997164
 30
0.0
 40
0.7799301252927413
100
AcDbArc
 50
117.9922428627
 51
132.5368653226
  0
LINE
  5
290
330
1F
100
AcDbEntity
  8
0
  6
Continuous
 62
     7
370
    15
100
AcDbLine
 10
473.5634511853
 20
130.671185376
 30
0.0
 11
472.0396733428
 21
130.671185376
 31
0.0
  0
LINE
  5
291
330
1F
100
AcDbEntity
  8
0
  6
Continuous
 62
     7
370
    15
100
AcDbLine
 10
472.0396733428
 20
130.671185376
 30
0.0
 11
472.0396733428
 21
130.328477295
 31
0.0
  0
LINE
  5
292
330
1F
100
AcDbEntity
  8
0
  6
Continuous
 62
     7
370
    15
100
AcDbLine
 10
473.0911197657
 20
129.9428650456
 30
0.0
 11
473.5634511853
 21
129.9428650456
 31
0.0
  0
ARC
  5
293
330
1F
100
AcDbEntity
  8
0
  6
Continuous
 62
     7
370
    15
100
AcDbCircle
 10
474.073741558
 20
130.496172329
 30
0.0
 40
0.7526919784247519
100
AcDbArc
 50
227.3160495336
 51
238.138244518
  0
ARC
  5
294
330
1F
100
AcDbEntity
  8
0
  6
Continuous
 62
     7
370
    15
100
AcDbCircle
 10
474.4056323807
 20
130.4961254325
 30
0.0
 40
0.7526377493598694
100
AcDbArc
 50
301.8618763977
 51
312.6847401287
  0
LINE
  5
295
330
1F
100
AcDbEntity
  8
0
  6
Continuous
 62
     7
370
    15
100
AcDbLine
 10
471.3331850762
 20
130.8325388747
 30
0.0
 11
471.4326410139
 21
131.0555496531
 31
0.0
  0
LINE
  5
296
330
1F
100
AcDbEntity
  8
0
  6
Continuous
 62
     7
370
    15
100
AcDbLine
 10
477.0751892174
 20
130.9997932332
 30
0.0
 11
477.1461615855
 21
130.8325388747
 31
0.0
  0
LINE
  5
297
330
1F
100
AcDbEntity
  8
0
  6
Continuous
 62
     7
370
    15
100
AcDbLine
 10
476.439673319
 20
130.671185376
 30
0.0
 11
475.9387447084
 21
130.0881476419
 31
0.0
  0
LINE
  5
298
330
1F
100
AcDbEntity
  8
0
  6
Continuous
 62
     7
370
    15
100
AcDbLine
 10
472.0396733428
 20
130.671185376
 30
0.0
 11
472.5406019534
 21
130.0881476419
 31
0.0
  0
LINE
  5
299
330
1F
100
AcDbEntity
  8
0
  6
Continuous
 62
     7
370
    15
100
AcDbLine
 10
474.9158936138
 20
130.671185376
 30
0.0
 11
474.809950083
 21
129.8626260179
 31
0.0
  0
SPLINE
  5
29A
330
1F
100
AcDbEntity
  8
0
  6
Continuous
 62
     7
370
    15
100
AcDbSpline
210
0.0
220
0.0
230
1.0
 70
     8
 71
     3
 72
     9
 73
     5
 74
     0
 42
0.00000001
 43
0.00000001
 40
0.0
 40
0.0
 40
0.0
 40
0.0
 40
0.6435965695509008
 40
1.0
 40
1.0
 40
1.0
 40
1.0
 10
473.663508757441
 20
129.901991160435
 30
0.0
 10
473.6412559924026
 20
130.0669580417311
 30
0.0
 10
473.6066803496923
 20
130.3232783658297
 30
0.0
 10
473.5748099168939
 20
130.5797706470578
 30
0.0
 10
473.5634511853146
 20
130.6711853759712
 30
0.0
  0
LINE
  5
29B
330
1F
100
AcDbEntity
  8
0
  6
Continuous
 62
     7
370
    15
100
AcDbLine
 10
473.7246724362
 20
130.7851867097
 30
0.0
 11
473.7246724362
 21
129.8993648308
 31
0.0
  0
SPLINE
  5
29C
330
1F
100
AcDbEntity
  8
0
  6
Continuous
 62
     7
370
    15
100
AcDbSpline
210
0.0
220
0.0
230
1.0
 70
    24
 71
     3
 72
     9
 73
     5
 74
     0
 42
0.00000001
 43
0.00000001
 40
0.0
 40
0.0
 40
0.0
 40
0.0
 40
0.678078564330603
 40
1.0
 40
1.0
 40
1.0
 40
1.0
 10
474.7546723628926
 20
129.8551456349319
 30
0.0
 10
474.7546723628926
 20
130.0659344995113
 30
0.0
 10
474.7546723628926
 20
130.3767965082336
 30
0.0
 10
474.7546723628926
 20
130.6857333258322
 30
0.0
 10
474.7546723628926
 20
130.7851867096847
 30
0.0
  0
LINE
  5
29D
330
1F
100
AcDbEntity
  8
0
  6
Continuous
 62
     7
370
    15
100
AcDbLine
 10
511.2396719451
 20
126.6329893189
 30
0.0
 11
511.2396719451
 21
131.1728441434
 31
0.0
  0
LINE
  5
29E
330
1F
100
AcDbEntity
  8
0
  6
Continuous
 62
     7
370
    15
100
AcDbLine
 10
467.2396731148
 20
131.1420024651
 30
0.0
 11
467.2396731148
 21
126.6291485446
 31
0.0
  0
LWPOLYLINE
  5
29F
330
1F
100
AcDbEntity
  8
0
  6
Continuous
 62
     7
370
    15
100
AcDbPolyline
 90
       25
 70
   128
 43
0.0
 10
566.7707639332
 20
96.1641901451
 10
566.6674765343
 20
96.846898021
 10
566.3646700377
 20
97.5674120056
 10
565.882975101
 20
98.276625322
 10
565.2552189822
 20
98.9262116419
 10
564.5241754646
 20
99.4718977528
 10
563.7396740312
 20
99.8764996695
 10
562.9551725979
 20
100.1124427932
 10
562.2241290803
 20
100.1636469083
 10
561.5963729615
 20
100.0266270059
 10
561.1146705742
 20
99.710714938
 10
560.8118640775
 20
99.2374428826
 10
560.7085841293
 20
98.6390625405
 10
560.8118640775
 20
97.9563546645
 10
561.1146705742
 20
97.2358406799
 10
561.5963729615
 20
96.5266255008
 10
562.2241290803
 20
95.8770410436
 10
562.9551725979
 20
95.3313530701
 10
563.7396740312
 20
94.926753016
 10
564.5241754646
 20
94.6908098923
 10
565.2552189822
 20
94.6396039145
 10
565.882975101
 20
94.7766256797
 10
566.3646700377
 20
95.0925377475
 10
566.6674765343
 20
95.5658098029
 10
566.7707639332
 20
96.1641901451
  0
LWPOLYLINE
  5
2A0
330
1F
100
AcDbEntity
  8
0
  6
Continuous
 62
     7
370
    15
100
AcDbPolyline
 90
       19
 70
   128
 43
0.0
 10
566.9537725444
 20
95.681226747
 10
566.8449419136
 20
95.0222545581
 10
566.5252896542
 20
94.4935501831
 10
566.014895081
 20
94.1283301728
 10
565.3458329434
 20
93.9495460408
 10
564.5601394171
 20
93.9684295373
 10
563.7071820492
 20
94.1837941574
 10
562.8405677671
 20
94.5821096467
 10
562.0147305126
 20
95.1383457797
 10
561.2815710301
 20
95.8175537454
 10
560.6871562595
 20
96.5770547556
 10
560.2688359613
 20
97.3691297042
 10
560.0528883333
 20
98.14400685
 10
560.0528883333
 20
98.8529985117
 10
560.2688359613
 20
99.4515558051
 10
560.6871562595
 20
99.9020700621
 10
561.2815710301
 20
100.1762346642
 10
562.0147305126
 20
100.256820144
 10
562.7300831074
 20
100.1651332992
  0
LWPOLYLINE
  5
2A1
330
1F
100
AcDbEntity
  8
0
  6
Continuous
 62
     7
370
    15
100
AcDbPolyline
 90
        3
 70
   128
 43
0.0
 10
566.6492673154
 20
96.9651331472
 10
566.8449419136
 20
96.4290582853
 10
566.9537725444
 20
95.681226747
  0
LINE
  5
2A2
330
1F
100
AcDbEntity
  8
0
  6
Continuous
 62
     7
370
    15
100
AcDbLine
 10
421.1220721299
 20
161.1025342064
 30
0.0
 11
421.0844131703
 21
161.101707192
 31
0.0
  0
LINE
  5
2A3
330
1F
100
AcDbEntity
  8
0
  6
Continuous
 62
     7
370
    15
100
AcDbLine
 10
466.2396729509
 20
131.1329388338
 30
0.0
 11
466.2396729509
 21
126.4974595325
 31
0.0
  0
LINE
  5
2A4
330
1F
100
AcDbEntity
  8
0
  6
Continuous
 62
     7
370
    15
100
AcDbLine
 10
512.2396739716
 20
126.4974595325
 30
0.0
 11
512.2396739716
 21
131.1428034025
 31
0.0
  0
LINE
  5
2A5
330
1F
100
AcDbEntity
  8
0
  6
Continuous
 62
     7
370
    15
100
AcDbLine
 10
459.2396729677
 20
125.4974612313
 30
0.0
 11
459.2396729677
 21
131.3193002062
 31
0.0
  0
LINE
  5
2A6
330
1F
100
AcDbEntity
  8
0
  6
Continuous
 62
     7
370
    15
100
AcDbLine
 10
519.2396732564
 20
131.3218185025
 30
0.0
 11
519.2396732564
 21
125.4974612313
 31
0.0
  0
SPLINE
  5
2A7
330
1F
100
AcDbEntity
  8
0
  6
Continuous
 62
     7
370
    15
100
AcDbSpline
210
0.0
220
0.0
230
1.0
 70
     8
 71
     3
 72
    12
 73
     8
 74
     0
 42
0.00000001
 43
0.00000001
 40
0.0
 40
0.0
 40
0.0
 40
0.0
 40
0.1931017319395518
 40
0.3868816408718966
 40
0.6315493545576537
 40
0.8778905425095134
 40
0.9999999999999999
 40
0.9999999999999999
 40
0.9999999999999999
 40
0.9999999999999999
 10
559.9805282945323
 20
155.7205253558582
 30
0.0
 10
559.9709329293663
 20
155.0978426206073
 30
0.0
 10
559.9517084999275
 20
153.8502902763754
 30
0.0
 10
559.7564650726844
 20
151.3275783226836
 30
0.0
 10
559.319265174595
 20
148.1639870712353
 30
0.0
 10
558.581641838237
 20
144.92382866755
 30
0.0
 10
557.9753515254116
 20
142.768341998776
 30
0.0
 10
557.7744188303637
 20
142.0539849715656
 30
0.0
  0
SPLINE
  5
2A8
330
1F
100
AcDbEntity
  8
0
  6
Continuous
 62
     7
370
    15
100
AcDbSpline
210
0.0
220
0.0
230
1.0
 70
     8
 71
     3
 72
    12
 73
     8
 74
     0
 42
0.00000001
 43
0.00000001
 40
0.0
 40
0.0
 40
0.0
 40
0.0
 40
0.1936244645640158
 40
0.3880670296614479
 40
0.6323454074412085
 40
0.8781343414714512
 40
1.0
 40
1.0
 40
1.0
 40
1.0
 10
420.7048656935382
 20
142.0541935878223
 30
0.0
 10
420.3920404040791
 20
143.1774736299431
 30
0.0
 10
419.7650680782592
 20
145.4287797880019
 30
0.0
 10
419.0798357865154
 20
148.6886866853479
 30
0.0
 10
418.6655813046247
 20
151.8148058976832
 30
0.0
 10
418.5150411997646
 20
154.1720412815003
 30
0.0
 10
418.5028551252952
 20
155.335031536096
 30
0.0
 10
418.4988158340144
 20
155.7205253558582
 30
0.0
  0
LINE
  5
2A9
330
1F
100
AcDbEntity
  8
0
  6
Continuous
 62
     7
370
    15
100
AcDbLine
 10
557.7589961285
 20
141.9013821798
 30
0.0
 11
558.2398640508
 21
143.7411689477
 31
0.0
  0
LINE
  5
2AA
330
1F
100
AcDbEntity
  8
0
  6
Continuous
 62
     7
370
    15
100
AcDbLine
 10
559.6370341773
 20
150.7417791801
 30
0.0
 11
559.655176341
 21
150.9158917981
 31
0.0
  0
LINE
  5
2AB
330
1F
100
AcDbEntity
  8
0
  6
Continuous
 62
     7
370
    15
100
AcDbLine
 10
418.8242758209
 20
150.9154820161
 30
0.0
 11
418.8300798232
 21
150.8597516733
 31
0.0
  0
SPLINE
  5
2AC
330
1F
100
AcDbEntity
  8
0
  6
Continuous
 62
     7
370
    15
100
AcDbSpline
210
0.0
220
0.0
230
1.0
 70
     8
 71
     3
 72
     9
 73
     5
 74
     0
 42
0.00000001
 43
0.00000001
 40
0.0
 40
0.0
 40
0.0
 40
0.0
 40
0.2642174045221793
 40
1.0
 40
1.0
 40
1.0
 40
1.0
 10
419.3771908576178
 20
147.4315160232013
 30
0.0
 10
419.4521797424579
 20
146.9969768962086
 30
0.0
 10
419.735994826387
 20
145.3523497083116
 30
0.0
 10
420.3030573703032
 20
143.3643406853585
 30
0.0
 10
420.7202921206641
 20
141.9015982466167
 30
0.0
  0
LINE
  5
2AD
330
1F
100
AcDbEntity
  8
0
  6
Continuous
 62
     7
370
    15
100
AcDbLine
 10
519.2396732564
 20
117.9837444144
 30
0.0
 11
519.2396732564
 21
97.4652384686
 31
0.0
  0
ELLIPSE
  5
2AE
330
1F
100
AcDbEntity
  8
0
  6
Continuous
 62
     7
370
    15
100
AcDbEllipse
 10
518.2396729776
 20
117.9837427497
 30
0.0
 11
0.0
 21
1.068097998000809
 31
0.0
210
0.0
220
0.0
230
1.0
 40
0.9362436798
 41
4.712388980384703
 42
6.283185307179586
  0
ARC
  5
2AF
330
1F
100
AcDbEntity
  8
0
  6
Continuous
 62
     7
370
    15
100
AcDbCircle
 10
510.7396729776
 20
97.4652382074
 30
0.0
 40
8.5
100
AcDbArc
 50
270.0
 51
0.0
  0
CIRCLE
  5
2B0
330
1F
100
AcDbEntity
  8
0
  6
Continuous
 62
     7
370
    15
100
AcDbCircle
 10
474.2396729776
 20
103.9652382074
 30
0.0
 40
2.25
  0
CIRCLE
  5
2B1
330
1F
100
AcDbEntity
  8
0
  6
Continuous
 62
     7
370
    15
100
AcDbCircle
 10
504.2396729776
 20
103.9652382074
 30
0.0
 40
2.249999999999943
  0
ARC
  5
2B2
330
1F
100
AcDbEntity
  8
0
  6
Continuous
 62
     7
370
    15
100
AcDbCircle
 10
510.7396729776
 20
97.4652382074
 30
0.0
 40
6.5
100
AcDbArc
 50
270.0
 51
0.0
  0
ARC
  5
2B3
330
1F
100
AcDbEntity
  8
0
  6
Continuous
 62
     7
370
    15
100
AcDbCircle
 10
516.9396729776
 20
102.6652382074
 30
0.0
 40
0.3000000000000682
100
AcDbArc
 50
0.0
 51
90.0
  0
LINE
  5
2B4
330
1F
100
AcDbEntity
  8
0
  6
Continuous
 62
     7
370
    15
100
AcDbLine
 10
517.2396729285
 20
105.265238257
 30
0.0
 11
517.2396729285
 21
116.6652375179
 31
0.0
  0
LINE
  5
2B5
330
1F
100
AcDbEntity
  8
0
  6
Continuous
 62
     7
370
    15
100
AcDbLine
 10
516.9396715755
 20
116.9652388709
 30
0.0
 11
505.5396723146
 21
116.9652388709
 31
0.0
  0
LINE
  5
2B6
330
1F
100
AcDbEntity
  8
0
  6
Continuous
 62
     7
370
    15
100
AcDbLine
 10
517.2396729285
 20
97.4652384686
 30
0.0
 11
517.2396729285
 21
102.6652389484
 31
0.0
  0
ARC
  5
2B7
330
1F
100
AcDbEntity
  8
0
  6
Continuous
 62
     7
370
    15
100
AcDbCircle
 10
516.9396729776
 20
116.6652382074
 30
0.0
 40
0.3000000000000682
100
AcDbArc
 50
0.0
 51
90.0
  0
LINE
  5
2B8
330
1F
100
AcDbEntity
  8
0
  6
Continuous
 62
     7
370
    15
100
AcDbLine
 10
510.6593685741
 20
104.9652369039
 30
0.0
 11
516.9396715755
 21
104.9652369039
 31
0.0
  0
LINE
  5
2B9
330
1F
100
AcDbEntity
  8
0
  6
Continuous
 62
     7
370
    15
100
AcDbLine
 10
516.9396715755
 20
102.9652365761
 30
0.0
 11
510.6593685741
 21
102.9652365761
 31
0.0
  0
ARC
  5
2BA
330
1F
100
AcDbEntity
  8
0
  6
Continuous
 62
     7
370
    15
100
AcDbCircle
 10
516.9396729776
 20
105.2652382074
 30
0.0
 40
0.3000000000000682
100
AcDbArc
 50
270.0
 51
0.0
  0
ARC
  5
2BB
330
1F
100
AcDbEntity
  8
0
  6
Continuous
 62
     7
370
    15
100
AcDbCircle
 10
504.2396729776
 20
103.9652382074
 30
0.0
 40
6.249999999999991
100
AcDbArc
 50
11.4476949307
 51
78.5523050693
  0
ARC
  5
2BC
330
1F
100
AcDbEntity
  8
0
  6
Continuous
 62
     7
370
    15
100
AcDbCircle
 10
510.6593692321
 20
105.2652382074
 30
0.0
 40
0.2999999999999972
100
AcDbArc
 50
191.4476949307
 51
270.0
  0
ARC
  5
2BD
330
1F
100
AcDbEntity
  8
0
  6
Continuous
 62
     7
370
    15
100
AcDbCircle
 10
510.6593692321
 20
102.6652382074
 30
0.0
 40
0.2999999999999972
100
AcDbArc
 50
90.0
 51
168.5523050693
  0
LINE
  5
2BE
330
1F
100
AcDbEntity
  8
0
  6
Continuous
 62
     7
370
    15
100
AcDbLine
 10
505.5396723146
 20
90.9652383345
 30
0.0
 11
510.7396746571
 21
90.9652383345
 31
0.0
  0
ARC
  5
2BF
330
1F
100
AcDbEntity
  8
0
  6
Continuous
 62
     7
370
    15
100
AcDbCircle
 10
504.2396729776
 20
103.9652382074
 30
0.0
 40
6.249999999999991
100
AcDbArc
 50
281.4476949307
 51
348.5523050693
  0
LINE
  5
2C0
330
1F
100
AcDbEntity
  8
0
  6
Continuous
 62
     7
370
    15
100
AcDbLine
 10
510.7396746571
 20
88.9652380066
 30
0.0
 11
467.7396731968
 21
88.9652380066
 31
0.0
  0
ARC
  5
2C1
330
1F
100
AcDbEntity
  8
0
  6
Continuous
 62
     7
370
    15
100
AcDbCircle
 10
502.9396729776
 20
116.6652382074
 30
0.0
 40
0.3000000000000114
100
AcDbArc
 50
0.0
 51
90.0
  0
LINE
  5
2C2
330
1F
100
AcDbEntity
  8
0
  6
Continuous
 62
     7
370
    15
100
AcDbLine
 10
503.2396743591
 20
110.3849345165
 30
0.0
 11
503.2396743591
 21
116.6652375179
 31
0.0
  0
ARC
  5
2C3
330
1F
100
AcDbEntity
  8
0
  6
Continuous
 62
     7
370
    15
100
AcDbCircle
 10
505.5396729776
 20
110.3849344619
 30
0.0
 40
0.3000000000000682
100
AcDbArc
 50
180.0
 51
258.5523050693
  0
ARC
  5
2C4
330
1F
100
AcDbEntity
  8
0
  6
Continuous
 62
     7
370
    15
100
AcDbCircle
 10
504.2396729776
 20
103.9652382074
 30
0.0
 40
6.250000000000077
100
AcDbArc
 50
101.4476949307
 51
168.5523050693
  0
ARC
  5
2C5
330
1F
100
AcDbEntity
  8
0
  6
Continuous
 62
     7
370
    15
100
AcDbCircle
 10
505.5396729776
 20
97.5455419529
 30
0.0
 40
0.3000000000000682
100
AcDbArc
 50
101.4476949307
 51
180.0
  0
ARC
  5
2C6
330
1F
100
AcDbEntity
  8
0
  6
Continuous
 62
     7
370
    15
100
AcDbCircle
 10
505.5396729776
 20
91.2652382074
 30
0.0
 40
0.3000000000000682
100
AcDbArc
 50
180.0
 51
270.0
  0
ARC
  5
2C7
330
1F
100
AcDbEntity
  8
0
  6
Continuous
 62
     7
370
    15
100
AcDbCircle
 10
502.9396729776
 20
91.2652382074
 30
0.0
 40
0.2999999999999972
100
AcDbArc
 50
270.0
 51
0.0
  0
ARC
  5
2C8
330
1F
100
AcDbEntity
  8
0
  6
Continuous
 62
     7
370
    15
100
AcDbCircle
 10
502.9396729776
 20
110.3849344619
 30
0.0
 40
0.3000000000000265
100
AcDbArc
 50
281.4476949307
 51
0.0
  0
LINE
  5
2C9
330
1F
100
AcDbEntity
  8
0
  6
Continuous
 62
     7
370
    15
100
AcDbLine
 10
505.2396746869
 20
97.5455426889
 30
0.0
 11
505.2396746869
 21
91.2652378248
 31
0.0
  0
ARC
  5
2CA
330
1F
100
AcDbEntity
  8
0
  6
Continuous
 62
     7
370
    15
100
AcDbCircle
 10
502.9396729776
 20
97.5455419529
 30
0.0
 40
0.3000000000000265
100
AcDbArc
 50
0.0
 51
78.5523050693
  0
ARC
  5
2CB
330
1F
100
AcDbEntity
  8
0
  6
Continuous
 62
     7
370
    15
100
AcDbCircle
 10
505.5396729776
 20
116.6652382074
 30
0.0
 40
0.3000000000000682
100
AcDbArc
 50
90.0
 51
180.0
  0
LINE
  5
2CC
330
1F
100
AcDbEntity
  8
0
  6
Continuous
 62
     7
370
    15
100
AcDbLine
 10
503.2396743591
 20
91.2652378248
 30
0.0
 11
503.2396743591
 21
97.5455426889
 31
0.0
  0
LINE
  5
2CD
330
1F
100
AcDbEntity
  8
0
  6
Continuous
 62
     7
370
    15
100
AcDbLine
 10
505.2396746869
 20
116.6652375179
 30
0.0
 11
505.2396746869
 21
110.3849345165
 31
0.0
  0
ARC
  5
2CE
330
1F
100
AcDbEntity
  8
0
  6
Continuous
 62
     7
370
    15
100
AcDbCircle
 10
504.2396729776
 20
103.9652382074
 30
0.0
 40
6.250000000000077
100
AcDbArc
 50
191.4476949307
 51
258.5523050693
  0
LINE
  5
2CF
330
1F
100
AcDbEntity
  8
0
  6
Continuous
 62
     7
370
    15
100
AcDbLine
 10
502.939673006
 20
116.9652388709
 30
0.0
 11
475.5396729852
 21
116.9652388709
 31
0.0
  0
LINE
  5
2D0
330
1F
100
AcDbEntity
  8
0
  6
Continuous
 62
     7
370
    15
100
AcDbLine
 10
475.5396729852
 20
90.9652383345
 30
0.0
 11
502.939673006
 21
90.9652383345
 31
0.0
  0
LINE
  5
2D1
330
1F
100
AcDbEntity
  8
0
  6
Continuous
 62
     7
370
    15
100
AcDbLine
 10
497.8199767465
 20
102.9652365761
 30
0.0
 11
480.6593692447
 21
102.9652365761
 31
0.0
  0
ARC
  5
2D2
330
1F
100
AcDbEntity
  8
0
  6
Continuous
 62
     7
370
    15
100
AcDbCircle
 10
497.8199767231
 20
105.2652382074
 30
0.0
 40
0.2999999999999972
100
AcDbArc
 50
270.0
 51
348.5523050693
  0
LINE
  5
2D3
330
1F
100
AcDbEntity
  8
0
  6
Continuous
 62
     7
370
    15
100
AcDbLine
 10
480.6593692447
 20
104.9652369039
 30
0.0
 11
497.8199767465
 21
104.9652369039
 31
0.0
  0
ARC
  5
2D4
330
1F
100
AcDbEntity
  8
0
  6
Continuous
 62
     7
370
    15
100
AcDbCircle
 10
497.8199767231
 20
102.6652382074
 30
0.0
 40
0.2999999999999972
100
AcDbArc
 50
11.4476949307
 51
90.0
  0
ARC
  5
2D5
330
1F
100
AcDbEntity
  8
0
  6
Continuous
 62
     7
370
    15
100
AcDbCircle
 10
480.6593692321
 20
102.6652382074
 30
0.0
 40
0.3000000000000375
100
AcDbArc
 50
90.0
 51
168.5523050693
  0
ARC
  5
2D6
330
1F
100
AcDbEntity
  8
0
  6
Continuous
 62
     7
370
    15
100
AcDbCircle
 10
474.2396729776
 20
103.9652382074
 30
0.0
 40
6.250000000000016
100
AcDbArc
 50
281.4476949307
 51
348.5523050693
  0
ARC
  5
2D7
330
1F
100
AcDbEntity
  8
0
  6
Continuous
 62
     7
370
    15
100
AcDbCircle
 10
480.6593692321
 20
105.2652382074
 30
0.0
 40
0.3000000000000375
100
AcDbArc
 50
191.4476949307
 51
270.0
  0
ARC
  5
2D8
330
1F
100
AcDbEntity
  8
0
  6
Continuous
 62
     7
370
    15
100
AcDbCircle
 10
474.2396729776
 20
103.9652382074
 30
0.0
 40
6.250000000000003
100
AcDbArc
 50
11.4476949307
 51
78.5523050693
  0
ARC
  5
2D9
330
1F
100
AcDbEntity
  8
0
  6
Continuous
 62
     7
370
    15
100
AcDbCircle
 10
475.5396729776
 20
110.3849344619
 30
0.0
 40
0.3000000000000114
100
AcDbArc
 50
180.0
 51
258.5523050693
  0
LINE
  5
2DA
330
1F
100
AcDbEntity
  8
0
  6
Continuous
 62
     7
370
    15
100
AcDbLine
 10
475.2396734948
 20
97.5455426889
 30
0.0
 11
475.2396734948
 21
91.2652378248
 31
0.0
  0
LINE
  5
2DB
330
1F
100
AcDbEntity
  8
0
  6
Continuous
 62
     7
370
    15
100
AcDbLine
 10
475.2396734948
 20
116.6652375179
 30
0.0
 11
475.2396734948
 21
110.3849345165
 31
0.0
  0
ARC
  5
2DC
330
1F
100
AcDbEntity
  8
0
  6
Continuous
 62
     7
370
    15
100
AcDbCircle
 10
475.5396729776
 20
116.6652382074
 30
0.0
 40
0.3000000000000114
100
AcDbArc
 50
90.0
 51
180.0
  0
ARC
  5
2DD
330
1F
100
AcDbEntity
  8
0
  6
Continuous
 62
     7
370
    15
100
AcDbCircle
 10
475.5396729776
 20
91.2652382074
 30
0.0
 40
0.3000000000000114
100
AcDbArc
 50
180.0
 51
270.0
  0
ARC
  5
2DE
330
1F
100
AcDbEntity
  8
0
  6
Continuous
 62
     7
370
    15
100
AcDbCircle
 10
475.5396729776
 20
97.5455419529
 30
0.0
 40
0.3000000000000114
100
AcDbArc
 50
101.4476949307
 51
180.0
  0
ARC
  5
2DF
330
1F
100
AcDbEntity
  8
0
  6
Continuous
 62
     7
370
    15
100
AcDbCircle
 10
474.2396729776
 20
103.9652382074
 30
0.0
 40
6.249999999999991
100
AcDbArc
 50
101.4476949307
 51
168.5523050693
  0
LINE
  5
2E0
330
1F
100
AcDbEntity
  8
0
  6
Continuous
 62
     7
370
    15
100
AcDbLine
 10
473.239673167
 20
91.2652378248
 30
0.0
 11
473.239673167
 21
97.5455426889
 31
0.0
  0
LINE
  5
2E1
330
1F
100
AcDbEntity
  8
0
  6
Continuous
 62
     7
370
    15
100
AcDbLine
 10
473.239673167
 20
110.3849345165
 30
0.0
 11
473.239673167
 21
116.6652375179
 31
0.0
  0
ARC
  5
2E2
330
1F
100
AcDbEntity
  8
0
  6
Continuous
 62
     7
370
    15
100
AcDbCircle
 10
472.9396729776
 20
116.6652382074
 30
0.0
 40
0.3000000000000114
100
AcDbArc
 50
0.0
 51
90.0
  0
ARC
  5
2E3
330
1F
100
AcDbEntity
  8
0
  6
Continuous
 62
     7
370
    15
100
AcDbCircle
 10
472.9396729776
 20
97.5455419529
 30
0.0
 40
0.3000000000000114
100
AcDbArc
 50
0.0
 51
78.5523050693
  0
ARC
  5
2E4
330
1F
100
AcDbEntity
  8
0
  6
Continuous
 62
     7
370
    15
100
AcDbCircle
 10
474.2396729776
 20
103.9652382074
 30
0.0
 40
6.250000000000004
100
AcDbArc
 50
191.4476949307
 51
258.5523050693
  0
LINE
  5
2E5
330
1F
100
AcDbEntity
  8
0
  6
Continuous
 62
     7
370
    15
100
AcDbLine
 10
472.9396736766
 20
116.9652388709
 30
0.0
 11
461.5396730187
 21
116.9652388709
 31
0.0
  0
ARC
  5
2E6
330
1F
100
AcDbEntity
  8
0
  6
Continuous
 62
     7
370
    15
100
AcDbCircle
 10
472.9396729776
 20
110.3849344619
 30
0.0
 40
0.3000000000000114
100
AcDbArc
 50
281.4476949307
 51
0.0
  0
ARC
  5
2E7
330
1F
100
AcDbEntity
  8
0
  6
Continuous
 62
     7
370
    15
100
AcDbCircle
 10
472.9396729776
 20
91.2652382074
 30
0.0
 40
0.3000000000000114
100
AcDbArc
 50
270.0
 51
0.0
  0
LINE
  5
2E8
330
1F
100
AcDbEntity
  8
0
  6
Continuous
 62
     7
370
    15
100
AcDbLine
 10
467.7396731968
 20
90.9652383345
 30
0.0
 11
472.9396736766
 21
90.9652383345
 31
0.0
  0
ARC
  5
2E9
330
1F
100
AcDbEntity
  8
0
  6
Continuous
 62
     7
370
    15
100
AcDbCircle
 10
467.7396729776
 20
97.4652382074
 30
0.0
 40
8.5
100
AcDbArc
 50
180.0
 51
270.0
  0
LINE
  5
2EA
330
1F
100
AcDbEntity
  8
0
  6
Continuous
 62
     7
370
    15
100
AcDbLine
 10
467.8199764858
 20
102.9652365761
 30
0.0
 11
461.5396730187
 21
102.9652365761
 31
0.0
  0
ARC
  5
2EB
330
1F
100
AcDbEntity
  8
0
  6
Continuous
 62
     7
370
    15
100
AcDbCircle
 10
467.7396729776
 20
97.4652382074
 30
0.0
 40
6.5
100
AcDbArc
 50
180.0
 51
270.0
  0
ARC
  5
2EC
330
1F
100
AcDbEntity
  8
0
  6
Continuous
 62
     7
370
    15
100
AcDbCircle
 10
467.8199767231
 20
105.2652382074
 30
0.0
 40
0.3000000000000375
100
AcDbArc
 50
270.0
 51
348.5523050693
  0
LINE
  5
2ED
330
1F
100
AcDbEntity
  8
0
  6
Continuous
 62
     7
370
    15
100
AcDbLine
 10
461.5396730187
 20
104.9652369039
 30
0.0
 11
467.8199764858
 21
104.9652369039
 31
0.0
  0
ARC
  5
2EE
330
1F
100
AcDbEntity
  8
0
  6
Continuous
 62
     7
370
    15
100
AcDbCircle
 10
467.8199767231
 20
102.6652382074
 30
0.0
 40
0.3000000000000375
100
AcDbArc
 50
11.4476949307
 51
90.0
  0
LINE
  5
2EF
330
1F
100
AcDbEntity
  8
0
  6
Continuous
 62
     7
370
    15
100
AcDbLine
 10
461.2396730627
 20
116.6652375179
 30
0.0
 11
461.2396730627
 21
105.265238257
 31
0.0
  0
ELLIPSE
  5
2F0
330
1F
100
AcDbEntity
  8
0
  6
Continuous
 62
     7
370
    15
100
AcDbEllipse
 10
460.2396729776
 20
117.9837427497
 30
0.0
 11
0.0
 21
1.068097998000809
 31
0.0
210
0.0
220
0.0
230
1.0
 40
0.9362436798
 41
0.0
 42
1.570796326794897
  0
ARC
  5
2F1
330
1F
100
AcDbEntity
  8
0
  6
Continuous
 62
     7
370
    15
100
AcDbCircle
 10
461.5396729776
 20
102.6652382074
 30
0.0
 40
0.3000000000000114
100
AcDbArc
 50
90.0
 51
180.0
  0
ARC
  5
2F2
330
1F
100
AcDbEntity
  8
0
  6
Continuous
 62
     7
370
    15
100
AcDbCircle
 10
461.5396729776
 20
116.6652382074
 30
0.0
 40
0.3000000000000114
100
AcDbArc
 50
90.0
 51
180.0
  0
ARC
  5
2F3
330
1F
100
AcDbEntity
  8
0
  6
Continuous
 62
     7
370
    15
100
AcDbCircle
 10
461.5396729776
 20
105.2652382074
 30
0.0
 40
0.2999999999999972
100
AcDbArc
 50
180.0
 51
270.0
  0
LINE
  5
2F4
330
1F
100
AcDbEntity
  8
0
  6
Continuous
 62
     7
370
    15
100
AcDbLine
 10
459.2396729677
 20
97.4652384686
 30
0.0
 11
459.2396729677
 21
117.9837444144
 31
0.0
  0
LINE
  5
2F5
330
1F
100
AcDbEntity
  8
0
  6
Continuous
 62
     7
370
    15
100
AcDbLine
 10
461.2396730627
 20
102.6652389484
 30
0.0
 11
461.2396730627
 21
97.4652384686
 31
0.0
  0
LINE
  5
2F6
330
1F
100
AcDbEntity
  8
0
  6
Continuous
 62
     7
370
    15
100
AcDbLine
 10
519.2396732564
 20
125.4974612313
 30
0.0
 11
519.2396732564
 21
117.9837444144
 31
0.0
  0
ELLIPSE
  5
2F7
330
1F
100
AcDbEntity
  8
0
  6
Continuous
 62
     7
370
    15
100
AcDbEllipse
 10
474.2396729776
 20
131.4611727636
 30
0.0
 11
3.150000000000034
 21
0.0
 31
0.0
210
0.0
220
0.0
230
1.0
 40
0.5176380902
 41
3.402322988458701
 42
5.990025453656957
  0
ELLIPSE
  5
2F8
330
1F
100
AcDbEntity
  8
0
  6
Continuous
 62
     7
370
    15
100
AcDbEllipse
 10
504.2396729776
 20
131.4611727636
 30
0.0
 11
3.149999999999977
 21
0.0
 31
0.0
210
0.0
220
0.0
230
1.0
 40
0.5176380902
 41
3.474353516324079
 42
6.028359301988958
  0
LINE
  5
2F9
330
1F
100
AcDbEntity
  8
0
  6
Continuous
 62
     7
370
    15
100
AcDbLine
 10
459.2396729677
 20
117.9837444144
 30
0.0
 11
459.2396729677
 21
125.4974612313
 31
0.0
  0
ARC
  5
2FA
330
1F
100
AcDbEntity
  8
0
  6
Continuous
 62
     7
370
    15
100
AcDbCircle
 10
493.0396729776
 20
102.6652382074
 30
0.0
 40
0.3000000000000114
100
AcDbArc
 50
90.0
 51
180.0
  0
ARC
  5
2FB
330
1F
100
AcDbEntity
  8
0
  6
Continuous
 62
     7
370
    15
100
AcDbCircle
 10
485.4396729776
 20
102.6652382074
 30
0.0
 40
0.3000000000000114
100
AcDbArc
 50
0.0
 51
90.0
  0
LINE
  5
2FC
330
1F
100
AcDbEntity
  8
0
  6
Continuous
 62
     7
370
    15
100
AcDbLine
 10
499.2396737034
 20
92.1013308036
 30
0.0
 11
499.273789912
 21
91.7419054823
 31
0.0
  0
SPLINE
  5
2FD
330
1F
100
AcDbEntity
  8
0
  6
Continuous
 62
     7
370
    15
100
AcDbSpline
210
0.0
220
0.0
230
1.0
 70
     8
 71
     3
 72
    11
 73
     7
 74
     0
 42
0.00000001
 43
0.00000001
 40
0.0
 40
0.0
 40
0.0
 40
0.0
 40
0.0151148990427822
 40
0.1087593027621181
 40
0.4828946706767323
 40
1.0
 40
1.0
 40
1.0
 40
1.0
 10
499.5396713311362
 20
91.03358251027521
 30
0.0
 10
499.5404925092768
 20
91.03287151147893
 30
0.0
 10
499.546401299124
 20
91.02775551744352
 30
0.0
 10
499.5740923735513
 20
91.00638645955753
 30
0.0
 10
499.6416879048066
 20
90.97317348292638
 30
0.0
 10
499.710427266285
 20
90.9681518993675
 30
0.0
 10
499.7503104204822
 20
90.96523833445963
 30
0.0
  0
SPLINE
  5
2FE
330
1F
100
AcDbEntity
  8
0
  6
Continuous
 62
     7
370
    15
100
AcDbSpline
210
0.0
220
0.0
230
1.0
 70
     8
 71
     3
 72
    11
 73
     7
 74
     0
 42
0.00000001
 43
0.00000001
 40
0.0
 40
0.0
 40
0.0
 40
0.0
 40
0.4739496453823731
 40
0.8523686757944919
 40
0.9848944682746026
 40
0.9999999999999999
 40
0.9999999999999999
 40
0.9999999999999999
 40
0.9999999999999999
 10
478.7290355707097
 20
90.96523833445963
 30
0.0
 10
478.7655440851595
 20
90.96770226231277
 30
0.0
 10
478.831202355864
 20
90.97213348183557
 30
0.0
 10
478.900086527316
 20
91.0031183936205
 30
0.0
 10
478.9308258254908
 20
91.0259230925327
 30
0.0
 10
478.938851605344
 20
91.03287154915307
 30
0.0
 10
478.9396727974105
 20
91.03358251027521
 30
0.0
  0
LINE
  5
2FF
330
1F
100
AcDbEntity
  8
0
  6
Continuous
 62
     7
370
    15
100
AcDbLine
 10
499.2396737034
 20
95.665237801
 30
0.0
 11
499.2396737034
 21
92.1013308036
 31
0.0
  0
ARC
  5
300
330
1F
100
AcDbEntity
  8
0
  6
Continuous
 62
     7
370
    15
100
AcDbCircle
 10
498.9396729776
 20
95.6652382074
 30
0.0
 40
0.3000000000000114
100
AcDbArc
 50
0.0
 51
90.0
  0
LINE
  5
301
330
1F
100
AcDbEntity
  8
0
  6
Continuous
 62
     7
370
    15
100
AcDbLine
 10
493.0396730597
 20
95.9652372914
 30
0.0
 11
498.9396723504
 21
95.9652372914
 31
0.0
  0
ARC
  5
302
330
1F
100
AcDbEntity
  8
0
  6
Continuous
 62
     7
370
    15
100
AcDbCircle
 10
493.0396729776
 20
96.2652382074
 30
0.0
 40
0.3000000000000114
100
AcDbArc
 50
180.0
 51
270.0
  0
LINE
  5
303
330
1F
100
AcDbEntity
  8
0
  6
Continuous
 62
     7
370
    15
100
AcDbLine
 10
492.7396717066
 20
102.6652389484
 30
0.0
 11
492.7396717066
 21
96.2652386444
 31
0.0
  0
LINE
  5
304
330
1F
100
AcDbEntity
  8
0
  6
Continuous
 62
     7
370
    15
100
AcDbLine
 10
479.5396736408
 20
95.9652372914
 30
0.0
 11
485.4396729315
 21
95.9652372914
 31
0.0
  0
ARC
  5
305
330
1F
100
AcDbEntity
  8
0
  6
Continuous
 62
     7
370
    15
100
AcDbCircle
 10
485.4396729776
 20
96.2652382074
 30
0.0
 40
0.3000000000000114
100
AcDbArc
 50
270.0
 51
0.0
  0
LINE
  5
306
330
1F
100
AcDbEntity
  8
0
  6
Continuous
 62
     7
370
    15
100
AcDbLine
 10
485.7396724219
 20
96.2652386444
 30
0.0
 11
485.7396724219
 21
102.6652389484
 31
0.0
  0
LINE
  5
307
330
1F
100
AcDbEntity
  8
0
  6
Continuous
 62
     7
370
    15
100
AcDbLine
 10
479.2396722878
 20
92.1013308036
 30
0.0
 11
479.2396722878
 21
95.665237801
 31
0.0
  0
ARC
  5
308
330
1F
100
AcDbEntity
  8
0
  6
Continuous
 62
     7
370
    15
100
AcDbCircle
 10
479.5396729776
 20
95.6652382074
 30
0.0
 40
0.3000000000000114
100
AcDbArc
 50
90.0
 51
180.0
  0
LINE
  5
309
330
1F
100
AcDbEntity
  8
0
  6
Continuous
 62
     7
370
    15
100
AcDbLine
 10
511.0396722848
 20
131.1220013814
 30
0.0
 11
511.0396722848
 21
126.7450721281
 31
0.0
  0
LINE
  5
30A
330
1F
100
AcDbEntity
  8
0
  6
Continuous
 62
     7
370
    15
100
AcDbLine
 10
467.4396727751
 20
126.7543033975
 30
0.0
 11
467.4396727751
 21
131.105390312
 31
0.0
  0
LINE
  5
30B
330
1F
100
AcDbEntity
  8
0
  6
Continuous
 62
     7
370
    15
100
AcDbLine
 10
507.2168762381
 20
130.928543331
 30
0.0
 11
507.1469078357
 21
131.0584255772
 31
0.0
  0
LINE
  5
30C
330
1F
100
AcDbEntity
  8
0
  6
Continuous
 62
     7
370
    15
100
AcDbLine
 10
501.3020055885
 20
131.0048894303
 30
0.0
 11
501.2624690826
 21
130.928543331
 31
0.0
  0
LINE
  5
30D
330
1F
100
AcDbEntity
  8
0
  6
Continuous
 62
     7
370
    15
100
AcDbLine
 10
471.2624688218
 20
130.928543331
 30
0.0
 11
471.3302774871
 21
131.054752441
 31
0.0
  0
LINE
  5
30E
330
1F
100
AcDbEntity
  8
0
  6
Continuous
 62
     7
370
    15
100
AcDbLine
 10
477.1771858031
 20
131.0051725524
 30
0.0
 11
477.2168769086
 21
130.928543331
 31
0.0
  0
LINE
  5
30F
330
1F
100
AcDbEntity
  8
0
  6
Continuous
 62
     7
370
    15
100
AcDbLine
 10
491.7852262551
 20
97.8433554339
 30
0.0
 11
490.7133559282
 21
97.8433554339
 31
0.0
  0
LINE
  5
310
330
1F
100
AcDbEntity
  8
0
  6
Continuous
 62
     7
370
    15
100
AcDbLine
 10
491.3258532579
 20
96.4652383047
 30
0.0
 11
491.3258532579
 21
97.6902311014
 31
0.0
  0
LINE
  5
311
330
1F
100
AcDbEntity
  8
0
  6
Continuous
 62
     7
370
    15
100
AcDbLine
 10
491.1727289254
 20
96.4652383047
 30
0.0
 11
491.3258532579
 21
96.4652383047
 31
0.0
  0
LINE
  5
312
330
1F
100
AcDbEntity
  8
0
  6
Continuous
 62
     7
370
    15
100
AcDbLine
 10
491.1727289254
 20
97.6902311014
 30
0.0
 11
491.1727289254
 21
96.4652383047
 31
0.0
  0
LINE
  5
313
330
1F
100
AcDbEntity
  8
0
  6
Continuous
 62
     7
370
    15
100
AcDbLine
 10
490.7133559282
 20
97.8433554339
 30
0.0
 11
490.7133559282
 21
97.6902311014
 31
0.0
  0
LINE
  5
314
330
1F
100
AcDbEntity
  8
0
  6
Continuous
 62
     7
370
    15
100
AcDbLine
 10
491.7852262551
 20
97.6902311014
 30
0.0
 11
491.7852262551
 21
97.8433554339
 31
0.0
  0
LINE
  5
315
330
1F
100
AcDbEntity
  8
0
  6
Continuous
 62
     7
370
    15
100
AcDbLine
 10
491.3258532579
 20
97.6902311014
 30
0.0
 11
491.7852262551
 21
97.6902311014
 31
0.0
  0
LINE
  5
316
330
1F
100
AcDbEntity
  8
0
  6
Continuous
 62
     7
370
    15
100
AcDbLine
 10
490.7133559282
 20
97.6902311014
 30
0.0
 11
491.1727289254
 21
97.6902311014
 31
0.0
  0
LINE
  5
317
330
1F
100
AcDbEntity
  8
0
  6
Continuous
 62
     7
370
    15
100
AcDbLine
 10
489.4604402179
 20
97.8291155117
 30
0.0
 11
488.503781944
 21
97.8291155117
 31
0.0
  0
LINE
  5
318
330
1F
100
AcDbEntity
  8
0
  6
Continuous
 62
     7
370
    15
100
AcDbLine
 10
489.4604402179
 20
97.6819367426
 30
0.0
 11
489.4604402179
 21
97.8291155117
 31
0.0
  0
LINE
  5
319
330
1F
100
AcDbEntity
  8
0
  6
Continuous
 62
     7
370
    15
100
AcDbLine
 10
488.6509607131
 20
97.6819367426
 30
0.0
 11
489.4604402179
 21
97.6819367426
 31
0.0
  0
LINE
  5
31A
330
1F
100
AcDbEntity
  8
0
  6
Continuous
 62
     7
370
    15
100
AcDbLine
 10
488.6509607131
 20
97.2404022979
 30
0.0
 11
488.6509607131
 21
97.6819367426
 31
0.0
  0
LINE
  5
31B
330
1F
100
AcDbEntity
  8
0
  6
Continuous
 62
     7
370
    15
100
AcDbLine
 10
489.3868508334
 20
97.2404022979
 30
0.0
 11
488.6509607131
 21
97.2404022979
 31
0.0
  0
LINE
  5
31C
330
1F
100
AcDbEntity
  8
0
  6
Continuous
 62
     7
370
    15
100
AcDbLine
 10
489.3868508334
 20
97.0932235288
 30
0.0
 11
489.3868508334
 21
97.2404022979
 31
0.0
  0
LINE
  5
31D
330
1F
100
AcDbEntity
  8
0
  6
Continuous
 62
     7
370
    15
100
AcDbLine
 10
488.6509607131
 20
97.0932235288
 30
0.0
 11
489.3868508334
 21
97.0932235288
 31
0.0
  0
LINE
  5
31E
330
1F
100
AcDbEntity
  8
0
  6
Continuous
 62
     7
370
    15
100
AcDbLine
 10
489.4604402179
 20
96.6516890841
 30
0.0
 11
488.6509607131
 21
96.6516890841
 31
0.0
  0
LINE
  5
31F
330
1F
100
AcDbEntity
  8
0
  6
Continuous
 62
     7
370
    15
100
AcDbLine
 10
489.4604402179
 20
96.5045121776
 30
0.0
 11
489.4604402179
 21
96.6516890841
 31
0.0
  0
LINE
  5
320
330
1F
100
AcDbEntity
  8
0
  6
Continuous
 62
     7
370
    15
100
AcDbLine
 10
488.503781944
 20
96.5045121776
 30
0.0
 11
489.4604402179
 21
96.5045121776
 31
0.0
  0
LINE
  5
321
330
1F
100
AcDbEntity
  8
0
  6
Continuous
 62
     7
370
    15
100
AcDbLine
 10
488.503781944
 20
97.8291155117
 30
0.0
 11
488.503781944
 21
96.5045121776
 31
0.0
  0
LINE
  5
322
330
1F
100
AcDbEntity
  8
0
  6
Continuous
 62
     7
370
    15
100
AcDbLine
 10
488.6509607131
 20
96.6516890841
 30
0.0
 11
488.6509607131
 21
97.0932235288
 31
0.0
  0
LINE
  5
323
330
1F
100
AcDbEntity
  8
0
  6
Continuous
 62
     7
370
    15
100
AcDbLine
 10
486.7376423026
 20
102.0246752816
 30
0.0
 11
486.7376423026
 21
98.0508615541
 31
0.0
  0
LINE
  5
324
330
1F
100
AcDbEntity
  8
0
  6
Continuous
 62
     7
370
    15
100
AcDbLine
 10
487.9150687302
 20
102.0246752816
 30
0.0
 11
486.7376423026
 21
102.0246752816
 31
0.0
  0
LINE
  5
325
330
1F
100
AcDbEntity
  8
0
  6
Continuous
 62
     7
370
    15
100
AcDbLine
 10
487.9150687302
 20
98.786753537
 30
0.0
 11
487.9150687302
 21
102.0246752816
 31
0.0
  0
LINE
  5
326
330
1F
100
AcDbEntity
  8
0
  6
Continuous
 62
     7
370
    15
100
AcDbLine
 10
488.7245500977
 20
98.786753537
 30
0.0
 11
487.9150687302
 21
98.786753537
 31
0.0
  0
LINE
  5
327
330
1F
100
AcDbEntity
  8
0
  6
Continuous
 62
     7
370
    15
100
AcDbLine
 10
488.7245500977
 20
102.0246752816
 30
0.0
 11
488.7245500977
 21
98.786753537
 31
0.0
  0
LINE
  5
328
330
1F
100
AcDbEntity
  8
0
  6
Continuous
 62
     7
370
    15
100
AcDbLine
 10
489.7547977562
 20
102.0246752816
 30
0.0
 11
488.7245500977
 21
102.0246752816
 31
0.0
  0
LINE
  5
329
330
1F
100
AcDbEntity
  8
0
  6
Continuous
 62
     7
370
    15
100
AcDbLine
 10
489.7547977562
 20
99.3754667508
 30
0.0
 11
489.7547977562
 21
102.0246752816
 31
0.0
  0
LINE
  5
32A
330
1F
100
AcDbEntity
  8
0
  6
Continuous
 62
     7
370
    15
100
AcDbLine
 10
490.564277261
 20
99.3754667508
 30
0.0
 11
489.7547977562
 21
99.3754667508
 31
0.0
  0
LINE
  5
32B
330
1F
100
AcDbEntity
  8
0
  6
Continuous
 62
     7
370
    15
100
AcDbLine
 10
490.564277261
 20
102.0246752816
 30
0.0
 11
490.564277261
 21
99.3754667508
 31
0.0
  0
LINE
  5
32C
330
1F
100
AcDbEntity
  8
0
  6
Continuous
 62
     7
370
    15
100
AcDbLine
 10
491.7417036886
 20
102.0246752816
 30
0.0
 11
490.564277261
 21
102.0246752816
 31
0.0
  0
LINE
  5
32D
330
1F
100
AcDbEntity
  8
0
  6
Continuous
 62
     7
370
    15
100
AcDbLine
 10
491.7417036886
 20
98.786753537
 30
0.0
 11
491.7417036886
 21
102.0246752816
 31
0.0
  0
LINE
  5
32E
330
1F
100
AcDbEntity
  8
0
  6
Continuous
 62
     7
370
    15
100
AcDbLine
 10
489.7547977562
 20
98.786753537
 30
0.0
 11
491.7417036886
 21
98.786753537
 31
0.0
  0
LINE
  5
32F
330
1F
100
AcDbEntity
  8
0
  6
Continuous
 62
     7
370
    15
100
AcDbLine
 10
489.7547977562
 20
98.0508615541
 30
0.0
 11
489.7547977562
 21
98.786753537
 31
0.0
  0
LINE
  5
330
330
1F
100
AcDbEntity
  8
0
  6
Continuous
 62
     7
370
    15
100
AcDbLine
 10
486.7376423026
 20
98.0508615541
 30
0.0
 11
489.7547977562
 21
98.0508615541
 31
0.0
  0
ARC
  5
331
330
1F
100
AcDbEntity
  8
0
  6
Continuous
 62
     7
370
    15
100
AcDbCircle
 10
490.2873335706
 20
97.4387251262
 30
0.0
 40
0.2273904759797878
100
AcDbArc
 50
9.5940506375
 51
68.3398365874
  0
ARC
  5
332
330
1F
100
AcDbEntity
  8
0
  6
Continuous
 62
     7
370
    15
100
AcDbCircle
 10
490.4010286993
 20
96.8702491229
 30
0.0
 40
0.3410856034707059
100
AcDbArc
 50
290.9829576053
 51
69.5419740152
  0
ARC
  5
333
330
1F
100
AcDbEntity
  8
0
  6
Continuous
 62
     7
370
    15
100
AcDbCircle
 10
490.1963774663
 20
97.4038581639
 30
0.0
 40
0.9125930275717142
100
AcDbArc
 50
245.4704370132
 51
290.9829576053
  0
ARC
  5
334
330
1F
100
AcDbEntity
  8
0
  6
Continuous
 62
     7
370
    15
100
AcDbCircle
 10
490.0220448795
 20
97.0218426827
 30
0.0
 40
0.4926791332315678
100
AcDbArc
 50
188.8498719032
 51
245.4704370132
  0
LINE
  5
335
330
1F
100
AcDbEntity
  8
0
  6
Continuous
 62
     7
370
    15
100
AcDbLine
 10
489.6894896919
 20
96.9460466223
 30
0.0
 11
489.5352328713
 21
96.9460466223
 31
0.0
  0
ARC
  5
336
330
1F
100
AcDbEntity
  8
0
  6
Continuous
 62
     7
370
    15
100
AcDbCircle
 10
490.0220448795
 20
97.0218426827
 30
0.0
 40
0.341085508987363
100
AcDbArc
 50
192.8395737336
 51
245.4704370132
  0
LINE
  5
337
330
1F
100
AcDbEntity
  8
0
  6
Continuous
 62
     7
370
    15
100
AcDbLine
 10
490.5115420515
 20
97.4766229557
 30
0.0
 11
490.6644167895
 21
97.4766229557
 31
0.0
  0
ARC
  5
338
330
1F
100
AcDbEntity
  8
0
  6
Continuous
 62
     7
370
    15
100
AcDbCircle
 10
490.2873335706
 20
97.4387251262
 30
0.0
 40
0.3789840372030543
100
AcDbArc
 50
5.7391613777
 51
68.3398365874
  0
SPLINE
  5
339
330
1F
100
AcDbEntity
  8
0
  6
Continuous
 62
     7
370
    15
100
AcDbSpline
210
0.0
220
0.0
230
1.0
 70
     8
 71
     3
 72
    11
 73
     7
 74
     0
 42
0.00000001
 43
0.00000001
 40
0.0
 40
0.0
 40
0.0
 40
0.0
 40
0.3399546998943529
 40
0.559972172102497
 40
0.7799886789325439
 40
1.0
 40
1.0
 40
1.0
 40
1.0
 10
489.7667112345385
 20
97.30825659803804
 30
0.0
 10
489.8435445258077
 20
97.2697350551838
 30
0.0
 10
489.9701040498123
 20
97.20628250685448
 30
0.0
 10
490.1543253928351
 20
97.13585185109923
 30
0.0
 10
490.3130019478283
 20
97.08422158837688
 30
0.0
 10
490.42103381217
 20
97.05786366514307
 30
0.0
 10
490.475049107759
 20
97.04468485884126
 30
0.0
  0
ARC
  5
33A
330
1F
100
AcDbEntity
  8
0
  6
Continuous
 62
     7
370
    15
100
AcDbCircle
 10
489.8704513704
 20
97.5524203768
 30
0.0
 40
0.1136951956077976
100
AcDbArc
 50
109.6554568868
 51
249.6263182524
  0
ARC
  5
33B
330
1F
100
AcDbEntity
  8
0
  6
Continuous
 62
     7
370
    15
100
AcDbCircle
 10
490.0892284482
 20
96.9398996698
 30
0.0
 40
0.91570787262819
100
AcDbArc
 50
68.3398365874
 51
109.6554568869
  0
ARC
  5
33C
330
1F
100
AcDbEntity
  8
0
  6
Continuous
 62
     7
370
    15
100
AcDbCircle
 10
490.4010286993
 20
96.8702491229
 30
0.0
 40
0.1894919792264837
100
AcDbArc
 50
290.9829576053
 51
67.0060745861
  0
SPLINE
  5
33D
330
1F
100
AcDbEntity
  8
0
  6
Continuous
 62
     7
370
    15
100
AcDbSpline
210
0.0
220
0.0
230
1.0
 70
     8
 71
     3
 72
     9
 73
     5
 74
     0
 42
0.00000001
 43
0.00000001
 40
0.0
 40
0.0
 40
0.0
 40
0.0
 40
0.5599697929418035
 40
0.9999999999999999
 40
0.9999999999999999
 40
0.9999999999999999
 40
0.9999999999999999
 10
490.4391559357333
 20
97.20919740371164
 30
0.0
 10
490.3216533107588
 20
97.2434010370291
 30
0.0
 10
490.111815875855
 20
97.30448224845972
 30
0.0
 10
489.9167174047122
 20
97.4026433200422
 30
0.0
 10
489.8308681840587
 20
97.44583715669569
 30
0.0
  0
ARC
  5
33E
330
1F
100
AcDbEntity
  8
0
  6
Continuous
 62
     7
370
    15
100
AcDbCircle
 10
489.8704513704
 20
97.5524203768
 30
0.0
 40
0.2652887568310876
100
AcDbArc
 50
109.6554568869
 51
246.9801779813
  0
LINE
  5
33F
330
1F
100
AcDbEntity
  8
0
  6
Continuous
 62
     7
370
    15
100
AcDbLine
 10
490.5202443297
 20
97.1898221689
 30
0.0
 11
490.4391559357
 21
97.2091974037
 31
0.0
  0
ARC
  5
340
330
1F
100
AcDbEntity
  8
0
  6
Continuous
 62
     7
370
    15
100
AcDbCircle
 10
490.0892284482
 20
96.9398996698
 30
0.0
 40
0.7641143114048999
100
AcDbArc
 50
68.3398365874
 51
109.6554568869
  0
ARC
  5
341
330
1F
100
AcDbEntity
  8
0
  6
Continuous
 62
     7
370
    15
100
AcDbCircle
 10
490.1963774663
 20
97.4038581639
 30
0.0
 40
0.7609994033274787
100
AcDbArc
 50
245.4704370132
 51
290.9829576053
  0
LINE
  5
342
330
1F
100
AcDbEntity
  8
0
  6
Continuous
 62
     7
370
    15
100
AcDbLine
 10
488.3566031749
 20
97.8291155117
 30
0.0
 11
488.2048963154
 21
97.8291155117
 31
0.0
  0
LINE
  5
343
330
1F
100
AcDbEntity
  8
0
  6
Continuous
 62
     7
370
    15
100
AcDbLine
 10
488.025452807
 20
96.5045121776
 30
0.0
 11
488.3566031749
 21
97.8291155117
 31
0.0
  0
LINE
  5
344
330
1F
100
AcDbEntity
  8
0
  6
Continuous
 62
     7
370
    15
100
AcDbLine
 10
487.8782740379
 20
96.5045121776
 30
0.0
 11
488.025452807
 21
96.5045121776
 31
0.0
  0
LINE
  5
345
330
1F
100
AcDbEntity
  8
0
  6
Continuous
 62
     7
370
    15
100
AcDbLine
 10
487.5634758318
 20
97.5347598361
 30
0.0
 11
487.8782740379
 21
96.5045121776
 31
0.0
  0
LINE
  5
346
330
1F
100
AcDbEntity
  8
0
  6
Continuous
 62
     7
370
    15
100
AcDbLine
 10
487.5307696457
 20
97.5347598361
 30
0.0
 11
487.5634758318
 21
97.5347598361
 31
0.0
  0
LINE
  5
347
330
1F
100
AcDbEntity
  8
0
  6
Continuous
 62
     7
370
    15
100
AcDbLine
 10
487.2159714396
 20
96.504510315
 30
0.0
 11
487.5307696457
 21
97.5347598361
 31
0.0
  0
LINE
  5
348
330
1F
100
AcDbEntity
  8
0
  6
Continuous
 62
     7
370
    15
100
AcDbLine
 10
487.0687945331
 20
96.504510315
 30
0.0
 11
487.2159714396
 21
96.504510315
 31
0.0
  0
LINE
  5
349
330
1F
100
AcDbEntity
  8
0
  6
Continuous
 62
     7
370
    15
100
AcDbLine
 10
486.7376423026
 20
97.8291155117
 30
0.0
 11
487.0687945331
 21
96.504510315
 31
0.0
  0
LINE
  5
34A
330
1F
100
AcDbEntity
  8
0
  6
Continuous
 62
     7
370
    15
100
AcDbLine
 10
486.8893510247
 20
97.8291155117
 30
0.0
 11
486.7376423026
 21
97.8291155117
 31
0.0
  0
LINE
  5
34B
330
1F
100
AcDbEntity
  8
0
  6
Continuous
 62
     7
370
    15
100
AcDbLine
 10
487.1377142663
 20
96.8356625455
 30
0.0
 11
486.8893510247
 21
97.8291155117
 31
0.0
  0
LINE
  5
34C
330
1F
100
AcDbEntity
  8
0
  6
Continuous
 62
     7
370
    15
100
AcDbLine
 10
487.1632623071
 20
96.8356625455
 30
0.0
 11
487.1377142663
 21
96.8356625455
 31
0.0
  0
LINE
  5
34D
330
1F
100
AcDbEntity
  8
0
  6
Continuous
 62
     7
370
    15
100
AcDbLine
 10
487.4668175871
 20
97.8291155117
 30
0.0
 11
487.1632623071
 21
96.8356625455
 31
0.0
  0
LINE
  5
34E
330
1F
100
AcDbEntity
  8
0
  6
Continuous
 62
     7
370
    15
100
AcDbLine
 10
487.627429753
 20
97.8291155117
 30
0.0
 11
487.4668175871
 21
97.8291155117
 31
0.0
  0
LINE
  5
34F
330
1F
100
AcDbEntity
  8
0
  6
Continuous
 62
     7
370
    15
100
AcDbLine
 10
487.930985033
 20
96.8356625455
 30
0.0
 11
487.627429753
 21
97.8291155117
 31
0.0
  0
LINE
  5
350
330
1F
100
AcDbEntity
  8
0
  6
Continuous
 62
     7
370
    15
100
AcDbLine
 10
487.9565330739
 20
96.8356625455
 30
0.0
 11
487.930985033
 21
96.8356625455
 31
0.0
  0
LINE
  5
351
330
1F
100
AcDbEntity
  8
0
  6
Continuous
 62
     7
370
    15
100
AcDbLine
 10
488.2048963154
 20
97.8291155117
 30
0.0
 11
487.9565330739
 21
96.8356625455
 31
0.0
  0
LINE
  5
352
330
1F
100
AcDbEntity
  8
0
  6
Continuous
 62
     7
370
    15
100
AcDbLine
 10
460.2396728987
 20
119.0518410223
 30
0.0
 11
518.2396712298
 21
119.0518410223
 31
0.0
  0
SPLINE
  5
353
330
1F
100
AcDbEntity
  8
0
  6
Continuous
 62
     7
370
    15
100
AcDbSpline
210
0.0
220
0.0
230
1.0
 70
     8
 71
     3
 72
    14
 73
    10
 74
     0
 42
0.00000001
 43
0.00000001
 40
0.0
 40
0.0
 40
0.0
 40
0.0
 40
0.0273733082949332
 40
0.0376716688135514
 40
0.0942777728638928
 40
0.1114114713896474
 40
0.1984719034290898
 40
0.442841351958567
 40
1.0
 40
1.0
 40
1.0
 40
1.0
 10
478.9396727974105
 20
91.03358251027521
 30
0.0
 10
478.9505659057444
 20
91.03480988646464
 30
0.0
 10
478.9655572091369
 20
91.03649902497945
 30
0.0
 10
478.9993261991191
 20
91.05243474942802
 30
0.0
 10
479.0240743585774
 20
91.07553394250782
 30
0.0
 10
479.0624715762747
 20
91.12476863540078
 30
0.0
 10
479.1262118076846
 20
91.24497954229153
 30
0.0
 10
479.2175218756793
 20
91.57787590553428
 30
0.0
 10
479.2305890361034
 20
91.88667689274905
 30
0.0
 10
479.2396722877908
 20
92.10133080355581
 30
0.0
  0
SPLINE
  5
354
330
1F
100
AcDbEntity
  8
0
  6
Continuous
 62
     7
370
    15
100
AcDbSpline
210
0.0
220
0.0
230
1.0
 70
     8
 71
     3
 72
    14
 73
    10
 74
     0
 42
0.00000001
 43
0.00000001
 40
0.0
 40
0.0
 40
0.0
 40
0.0
 40
0.3552933340940677
 40
0.7108593707814865
 40
0.8375377640149634
 40
0.8975516759767802
 40
0.945120838586107
 40
0.982558058790109
 40
0.9999999999999999
 40
0.9999999999999999
 40
0.9999999999999999
 40
0.9999999999999999
 10
499.2737899119544
 20
91.74190548233446
 30
0.0
 10
499.2789908271434
 20
91.64799783421624
 30
0.0
 10
499.2893966494427
 20
91.46011045990596
 30
0.0
 10
499.353605805616
 20
91.2448889465895
 30
0.0
 10
499.4211925749466
 20
91.11658278106603
 30
0.0
 10
499.4619188215861
 20
91.06839736186463
 30
0.0
 10
499.493371872351
 20
91.04470166651625
 30
0.0
 10
499.5199720965763
 20
91.0346162970171
 30
0.0
 10
499.5349203956746
 20
91.03383183235302
 30
0.0
 10
499.5396713311362
 20
91.03358251027521
 30
0.0
  0
SPLINE
  5
355
330
1F
100
AcDbEntity
  8
0
  6
Continuous
 62
     7
370
    15
100
AcDbSpline
210
0.0
220
0.0
230
1.0
 70
     8
 71
     3
 72
    14
 73
    10
 74
     0
 42
0.00000001
 43
0.00000001
 40
0.0
 40
0.0
 40
0.0
 40
0.0
 40
0.0767325886351844
 40
0.230389228192214
 40
0.3840380940034533
 40
0.5374211391309479
 40
0.6907892983832136
 40
0.8453973630706532
 40
1.0
 40
1.0
 40
1.0
 40
1.0
 10
489.2409572894263
 20
132.7737801986164
 30
0.0
 10
490.6138987872699
 20
132.7743168933484
 30
0.0
 10
494.7361490288865
 20
132.7759283166993
 30
0.0
 10
501.6070353659871
 20
132.7909187254071
 30
0.0
 10
509.8429401284347
 20
132.875854047377
 30
0.0
 10
518.0590033835473
 20
133.0630446496402
 30
0.0
 10
526.2598101489821
 20
133.3970830260604
 30
0.0
 10
534.4355588102017
 20
133.9016405450253
 30
0.0
 10
539.8297946617392
 20
134.3911174811286
 30
0.0
 10
542.5268652434039
 20
134.6358516531413
 30
0.0
  0
SPLINE
  5
356
330
1F
100
AcDbEntity
  8
0
  6
Continuous
 62
     7
370
    15
100
AcDbSpline
210
0.0
220
0.0
230
1.0
 70
     8
 71
     3
 72
    14
 73
    10
 74
     0
 42
0.00000001
 43
0.00000001
 40
0.0
 40
0.0
 40
0.0
 40
0.0
 40
0.1417582562576101
 40
0.2835182330121896
 40
0.4255221086619536
 40
0.5675283878335092
 40
0.7093285791992938
 40
0.8511363566523394
 40
1.0
 40
1.0
 40
1.0
 40
1.0
 10
542.5268652434039
 20
134.6358516531413
 30
0.0
 10
543.5532963076965
 20
134.7703874307123
 30
0.0
 10
545.6061708939094
 20
135.0394606186932
 30
0.0
 10
548.4441158584308
 20
135.8450090213445
 30
0.0
 10
550.989976608017
 20
136.9122007348124
 30
0.0
 10
553.1746994423877
 20
138.2144979503851
 30
0.0
 10
554.9096292184572
 20
139.6975048821213
 30
0.0
 10
556.2351088826022
 20
141.3262033595435
 30
0.0
 10
556.66623606682
 20
142.4688580805565
 30
0.0
 10
556.8870323295283
 20
143.0540540533489
 30
0.0
  0
SPLINE
  5
357
330
1F
100
AcDbEntity
  8
0
  6
Continuous
 62
     7
370
    15
100
AcDbSpline
210
0.0
220
0.0
230
1.0
 70
     8
 71
     3
 72
    12
 73
     8
 74
     0
 42
0.00000001
 43
0.00000001
 40
0.0
 40
0.0
 40
0.0
 40
0.0
 40
0.1221019266881549
 40
0.3664926499393311
 40
0.6125876788405022
 40
0.8059490750898587
 40
1.0
 40
1.0
 40
1.0
 40
1.0
 10
556.8870323295283
 20
143.0540540533489
 30
0.0
 10
557.0877358627275
 20
143.7712931923243
 30
0.0
 10
557.6901536273726
 20
145.924108301906
 30
0.0
 10
558.4276008435877
 20
149.1764272998629
 30
0.0
 10
558.8646678795005
 20
152.3516478599138
 30
0.0
 10
559.0607303193158
 20
154.8950072939225
 30
0.0
 10
559.0800416672048
 20
156.1509077109237
 30
0.0
 10
559.0897145266223
 20
156.7799755649989
 30
0.0
  0
SPLINE
  5
358
330
1F
100
AcDbEntity
  8
0
  6
Continuous
 62
     7
370
    15
100
AcDbSpline
210
0.0
220
0.0
230
1.0
 70
     8
 71
     3
 72
    12
 73
     8
 74
     0
 42
0.00000001
 43
0.00000001
 40
0.0
 40
0.0
 40
0.0
 40
0.0
 40
0.1353089517444867
 40
0.4060719255508245
 40
0.6784376453787859
 40
0.8923835063150131
 40
1.0
 40
1.0
 40
1.0
 40
1.0
 10
559.0897219772029
 20
156.7799755649989
 30
0.0
 10
559.0858364566532
 20
157.1390444873997
 30
0.0
 10
559.0741757291771
 20
158.2166362272283
 30
0.0
 10
558.9272810406696
 20
159.5925225910876
 30
0.0
 10
558.5079039474164
 20
160.5843309555406
 30
0.0
 10
557.9500704687439
 20
161.045222317513
 30
0.0
 10
557.490316198286
 20
161.0630371098136
 30
0.0
 10
557.3364513511348
 20
161.0689991431659
 30
0.0
  0
SPLINE
  5
359
330
1F
100
AcDbEntity
  8
0
  6
Continuous
 62
     7
370
    15
100
AcDbSpline
210
0.0
220
0.0
230
1.0
 70
     8
 71
     3
 72
    14
 73
    10
 74
     0
 42
0.00000001
 43
0.00000001
 40
0.0
 40
0.0
 40
0.0
 40
0.0
 40
0.0766404123783463
 40
0.2299230705378121
 40
0.3835833935973837
 40
0.5373825233038457
 40
0.6911958775224901
 40
0.8455936755861597
 40
1.0
 40
1.0
 40
1.0
 40
1.0
 10
435.9494688505816
 20
134.6364924030727
 30
0.0
 10
437.283999621182
 20
134.5107628767397
 30
0.0
 10
441.2876238578168
 20
134.1335712900213
 30
0.0
 10
448.0361307109811
 20
133.6353428909175
 30
0.0
 10
456.2029208560605
 20
133.2126971329711
 30
0.0
 10
464.4221185258613
 20
132.9563317887569
 30
0.0
 10
472.6763741206198
 20
132.823567942585
 30
0.0
 10
480.9518580978877
 20
132.7789110388887
 30
0.0
 10
486.4778733662189
 20
132.7754855431804
 30
0.0
 10
489.2409572894263
 20
132.7737727480358
 30
0.0
  0
SPLINE
  5
35A
330
1F
100
AcDbEntity
  8
0
  6
Continuous
 62
     7
370
    15
100
AcDbSpline
210
0.0
220
0.0
230
1.0
 70
     8
 71
     3
 72
    14
 73
    10
 74
     0
 42
0.00000001
 43
0.00000001
 40
0.0
 40
0.0
 40
0.0
 40
0.0
 40
0.1432430728376713
 40
0.2864738902795034
 40
0.428990896577591
 40
0.5715033461337623
 40
0.7126864100857336
 40
0.8538672742811181
 40
1.0
 40
1.0
 40
1.0
 40
1.0
 10
421.5922484690833
 20
143.0542701201862
 30
0.0
 10
421.8041608831312
 20
142.4913700254855
 30
0.0
 10
422.2279675807131
 20
141.3656179959241
 30
0.0
 10
423.5161553185894
 20
139.7454851192392
 30
0.0
 10
425.258579225851
 20
138.2519944761698
 30
0.0
 10
427.4272673052769
 20
136.9396031129857
 30
0.0
 10
429.9660665852187
 20
135.8739559458848
 30
0.0
 10
432.8105989929115
 20
135.0482932593984
 30
0.0
 10
434.8912256692821
 20
134.7753275469367
 30
0.0
 10
435.9494688505816
 20
134.6364924030727
 30
0.0
  0
SPLINE
  5
35B
330
1F
100
AcDbEntity
  8
0
  6
Continuous
 62
     7
370
    15
100
AcDbSpline
210
0.0
220
0.0
230
1.0
 70
     8
 71
     3
 72
    12
 73
     8
 74
     0
 42
0.00000001
 43
0.00000001
 40
0.0
 40
0.0
 40
0.0
 40
0.0
 40
0.1221366266236659
 40
0.3665393741033863
 40
0.6123890693374935
 40
0.8057721879995
 40
1.0
 40
1.0
 40
1.0
 40
1.0
 10
419.3896258766341
 20
156.7805790620273
 30
0.0
 10
419.3936695658568
 20
156.3922283773981
 30
0.0
 10
419.405804920809
 20
155.2267645782775
 30
0.0
 10
419.5559369674802
 20
152.8577867434296
 30
0.0
 10
419.9680796651157
 20
149.7227898394075
 30
0.0
 10
420.653315342157
 20
146.4435306554722
 30
0.0
 10
421.2788163899079
 20
144.1856637689751
 30
0.0
 10
421.5922484690833
 20
143.0542701201862
 30
0.0
  0
SPLINE
  5
35C
330
1F
100
AcDbEntity
  8
0
  6
Continuous
 62
     7
370
    15
100
AcDbSpline
210
0.0
220
0.0
230
1.0
 70
     8
 71
     3
 72
    12
 73
     8
 74
     0
 42
0.00000001
 43
0.00000001
 40
0.0
 40
0.0
 40
0.0
 40
0.0
 40
0.0193161658740401
 40
0.2924871090990276
 40
0.5675641103470735
 40
0.7833983207471369
 40
1.0
 40
1.0
 40
1.0
 40
1.0
 10
421.0844131703067
 20
161.1017071919864
 30
0.0
 10
421.0567074832489
 20
161.1013775901086
 30
0.0
 10
420.6371854949838
 20
161.0963867290328
 30
0.0
 10
420.0560944987482
 20
160.7211195828961
 30
0.0
 10
419.6101882750784
 20
159.7757254833807
 30
0.0
 10
419.4179307505569
 20
158.4517135289925
 30
0.0
 10
419.399074473242
 20
157.3382825743406
 30
0.0
 10
419.3896296019244
 20
156.7805790620273
 30
0.0
  0
LINE
  5
35D
330
1F
100
AcDbEntity
  8
0
  6
Continuous
 62
     7
370
    15
100
AcDbLine
 10
559.9736786058
 20
155.0793378483
 30
0.0
 11
559.9736786058
 21
156.2863568143
 31
0.0
  0
INSERT
  5
370
330
1F
100
AcDbEntity
  8
0
  6
Continuous
 62
     7
370
     0
100
AcDbBlockReference
  2
SW_CENTERMARKSYMBOL_2
 10
474.2396729776
 20
103.9652382074
 30
0.0
  0
LINE
  5
371
330
1F
100
AcDbEntity
  8
0
  6
CENTERX2
 62
     7
370
     0
100
AcDbLine
 10
489.2396729776
 20
170.3205902693
 30
0.0
 11
489.2396729776
 21
85.3064495877
 31
0.0
  0
ENDSEC
  0
SECTION
  2
OBJECTS
  0
DICTIONARY
  5
C
330
0
100
AcDbDictionary
281
     1
  3
ACAD_GROUP
350
D
  3
ACAD_LAYOUT
350
1A
  3
ACAD_MLINESTYLE
350
17
  3
ACAD_PLOTSETTINGS
350
19
  3
ACAD_PLOTSTYLENAME
350
E
  0
DICTIONARY
  5
D
102
{ACAD_REACTORS
330
C
102
}
330
C
100
AcDbDictionary
281
     1
  0
DICTIONARY
  5
1A
102
{ACAD_REACTORS
330
C
102
}
330
C
100
AcDbDictionary
281
     1
  3
Layout1
350
1E
  3
Layout2
350
26
  3
Model
350
22
  0
DICTIONARY
  5
17
102
{ACAD_REACTORS
330
C
102
}
330
C
100
AcDbDictionary
281
     1
  3
Standard
350
18
  0
DICTIONARY
  5
19
102
{ACAD_REACTORS
330
C
102
}
330
C
100
AcDbDictionary
281
     1
  0
ACDBDICTIONARYWDFLT
  5
E
102
{ACAD_REACTORS
330
C
102
}
330
C
100
AcDbDictionary
281
     1
  3
Normal
350
F
100
AcDbDictionaryWithDefault
340
F
  0
LAYOUT
  5
1E
102
{ACAD_REACTORS
330
1A
102
}
330
1A
100
AcDbPlotSettings
  1

  2
none_device
  4

  6

 40
0.0
 41
0.0
 42
0.0
 43
0.0
 44
0.0
 45
0.0
 46
0.0
 47
0.0
 48
0.0
 49
0.0
140
0.0
141
0.0
142
1.0
143
1.0
 70
   688
 72
     0
 73
     0
 74
     5
  7

 75
    16
147
1.0
148
0.0
149
0.0
100
AcDbLayout
  1
Layout1
 70
     1
 71
     1
 10
0.0
 20
0.0
 11
420.0
 21
297.0
 12
0.0
 22
0.0
 32
0.0
 14
1.0000000000E+20
 24
1.0000000000E+20
 34
1.0000000000E+20
 15
-1.0000000000E+20
 25
-1.0000000000E+20
 35
-1.0000000000E+20
146
0.0
 13
0.0
 23
0.0
 33
0.0
 16
1.0
 26
0.0
 36
0.0
 17
0.0
 27
1.0
 37
0.0
 76
     0
330
1B
  0
LAYOUT
  5
26
102
{ACAD_REACTORS
330
1A
102
}
330
1A
100
AcDbPlotSettings
  1

  2
none_device
  4

  6

 40
0.0
 41
0.0
 42
0.0
 43
0.0
 44
0.0
 45
0.0
 46
0.0
 47
0.0
 48
0.0
 49
0.0
140
0.0
141
0.0
142
1.0
143
1.0
 70
   688
 72
     0
 73
     0
 74
     5
  7

 75
    16
147
1.0
148
0.0
149
0.0
100
AcDbLayout
  1
Layout2
 70
     1
 71
     2
 10
0.0
 20
0.0
 11
0.0
 21
0.0
 12
0.0
 22
0.0
 32
0.0
 14
0.0
 24
0.0
 34
0.0
 15
0.0
 25
0.0
 35
0.0
146
0.0
 13
0.0
 23
0.0
 33
0.0
 16
1.0
 26
0.0
 36
0.0
 17
0.0
 27
1.0
 37
0.0
 76
     0
330
23
  0
LAYOUT
  5
22
102
{ACAD_REACTORS
330
1A
102
}
330
1A
100
AcDbPlotSettings
  1

  2
none_device
  4

  6

 40
0.0
 41
0.0
 42
0.0
 43
0.0
 44
0.0
 45
0.0
 46
0.0
 47
0.0
 48
0.0
 49
0.0
140
0.0
141
0.0
142
1.0
143
1.0
 70
  1712
 72
     0
 73
     0
 74
     0
  7

 75
     0
147
1.0
148
0.0
149
0.0
100
AcDbLayout
  1
Model
 70
     1
 71
     0
 10
0.0
 20
0.0
 11
594.0
 21
420.0
 12
0.0
 22
0.0
 32
0.0
 14
0.0
 24
0.0
 34
0.0
 15
594.0
 25
420.0
 35
0.0
146
0.0
 13
0.0
 23
0.0
 33
0.0
 16
1.0
 26
0.0
 36
0.0
 17
0.0
 27
1.0
 37
0.0
 76
     0
330
1F
331
29
  0
MLINESTYLE
  5
18
102
{ACAD_REACTORS
330
17
102
}
330
17
100
AcDbMlineStyle
  2
Standard
 70
     0
  3

 62
   256
 51
90.0
 52
90.0
 71
     2
 49
0.5
 62
   256
  6
BYLAYER
 49
-0.5
 62
   256
  6
BYLAYER
  0
ACDBPLACEHOLDER
  5
F
102
{ACAD_REACTORS
330
E
102
}
330
E
  0
ENDSEC
  0
EOF
