  0
SECTION
  2
HEADER
  9
$ACADVER
  1
AC1015
  9
$ACADMAINTVER
 70
     6
  9
$DWGCODEPAGE
  3
DOS932
  9
$INSBASE
 10
0.0
 20
0.0
 30
0.0
  9
$EXTMIN
 10
0.0
 20
0.0
 30
0.0
  9
$EXTMAX
 10
594.0
 20
420.0
 30
0.0
  9
$LIMMIN
 10
0.0
 20
0.0
  9
$LIMMAX
 10
594.0
 20
420.0
  9
$ORTHOMODE
 70
     0
  9
$REGENMODE
 70
     1
  9
$FILLMODE
 70
     1
  9
$QTEXTMODE
 70
     0
  9
$MIRRTEXT
 70
     1
  9
$LTSCALE
 40
1.0
  9
$ATTMODE
 70
     1
  9
$TEXTSIZE
 40
3.8805555556
  9
$TRACEWID
 40
1.0
  9
$TEXTSTYLE
  7
Standard
  9
$CLAYER
  8
0
  9
$CELTYPE
  6
ByLayer
  9
$CECOLOR
 62
   256
  9
$CELTSCALE
 40
1.0
  9
$DISPSILH
 70
     0
  9
$DIMSCALE
 40
1.0
  9
$DIMASZ
 40
3.3348524306
  9
$DIMEXO
 40
1.0
  9
$DIMDLI
 40
3.75
  9
$DIMRND
 40
0.0
  9
$DIMDLE
 40
0.0
  9
$DIMEXE
 40
1.0
  9
$DIMTP
 40
0.0
  9
$DIMTM
 40
0.0
  9
$DIMTXT
 40
3.8805555556
  9
$DIMCEN
 40
2.5
  9
$DIMTSZ
 40
0.0
  9
$DIMTOL
 70
     0
  9
$DIMLIM
 70
     0
  9
$DIMTIH
 70
     1
  9
$DIMTOH
 70
     1
  9
$DIMSE1
 70
     0
  9
$DIMSE2
 70
     0
  9
$DIMTAD
 70
     1
  9
$DIMZIN
 70
     0
  9
$DIMBLK
  1

  9
$DIMASO
 70
     1
  9
$DIMSHO
 70
     1
  9
$DIMPOST
  1

  9
$DIMAPOST
  1

  9
$DIMALT
 70
     0
  9
$DIMALTD
 70
     3
  9
$DIMALTF
 40
0.0393700787
  9
$DIMLFAC
 40
2.0
  9
$DIMTOFL
 70
     1
  9
$DIMTVP
 40
0.0
  9
$DIMTIX
 70
     0
  9
$DIMSOXD
 70
     0
  9
$DIMSAH
 70
     0
  9
$DIMBLK1
  1

  9
$DIMBLK2
  1

  9
$DIMSTYLE
  2
ISO-25
  9
$DIMCLRD
 70
     0
  9
$DIMCLRE
 70
     0
  9
$DIMCLRT
 70
     0
  9
$DIMTFAC
 40
1.0
  9
$DIMGAP
 40
1.524
  9
$DIMJUST
 70
     0
  9
$DIMSD1
 70
     0
  9
$DIMSD2
 70
     0
  9
$DIMTOLJ
 70
     0
  9
$DIMTZIN
 70
     0
  9
$DIMALTZ
 70
     0
  9
$DIMALTTZ
 70
     0
  9
$DIMUPT
 70
     0
  9
$DIMDEC
 70
     1
  9
$DIMTDEC
 70
     1
  9
$DIMALTU
 70
     2
  9
$DIMALTTD
 70
     3
  9
$DIMTXSTY
  7
Standard
  9
$DIMAUNIT
 70
     0
  9
$DIMADEC
 70
     2
  9
$DIMALTRND
 40
0.0
  9
$DIMAZIN
 70
     0
  9
$DIMDSEP
 70
    44
  9
$DIMATFIT
 70
     3
  9
$DIMFRAC
 70
     0
  9
$DIMLDRBLK
  1

  9
$DIMLUNIT
 70
     2
  9
$DIMLWD
 70
    -2
  9
$DIMLWE
 70
    -2
  9
$DIMTMOVE
 70
     0
  9
$LUNITS
 70
     2
  9
$LUPREC
 70
     1
  9
$SKETCHINC
 40
1.0
  9
$FILLETRAD
 40
10.0
  9
$AUNITS
 70
     0
  9
$AUPREC
 70
     2
  9
$MENU
  1
.
  9
$ELEVATION
 40
0.0
  9
$PELEVATION
 40
0.0
  9
$THICKNESS
 40
0.0
  9
$LIMCHECK
 70
     0
  9
$CHAMFERA
 40
10.0
  9
$CHAMFERB
 40
10.0
  9
$CHAMFERC
 40
20.0
  9
$CHAMFERD
 40
0.0
  9
$SKPOLY
 70
     0
  9
$TDCREATE
 40
2456015.903321678
  9
$TDUCREATE
 40
2456015.528321678
  9
$TDUPDATE
 40
2456015.90332169
  9
$TDUUPDATE
 40
2456015.52832169
  9
$TDINDWG
 40
0.0000000116
  9
$TDUSRTIMER
 40
0.0000000116
  9
$USRTIMER
 70
     1
  9
$ANGBASE
 50
0.0
  9
$ANGDIR
 70
     0
  9
$PDMODE
 70
     0
  9
$PDSIZE
 40
-1.0
  9
$PLINEWID
 40
0.0
  9
$SPLFRAME
 70
     0
  9
$SPLINETYPE
 70
     6
  9
$SPLINESEGS
 70
     8
  9
$HANDSEED
  5
26D
  9
$SURFTAB1
 70
     6
  9
$SURFTAB2
 70
     6
  9
$SURFTYPE
 70
     6
  9
$SURFU
 70
     6
  9
$SURFV
 70
     6
  9
$UCSBASE
  2

  9
$UCSNAME
  2

  9
$UCSORG
 10
0.0
 20
0.0
 30
0.0
  9
$UCSXDIR
 10
1.0
 20
0.0
 30
0.0
  9
$UCSYDIR
 10
0.0
 20
1.0
 30
0.0
  9
$UCSORTHOREF
  2

  9
$UCSORTHOVIEW
 70
     0
  9
$UCSORGTOP
 10
0.0
 20
0.0
 30
0.0
  9
$UCSORGBOTTOM
 10
0.0
 20
0.0
 30
0.0
  9
$UCSORGLEFT
 10
0.0
 20
0.0
 30
0.0
  9
$UCSORGRIGHT
 10
0.0
 20
0.0
 30
0.0
  9
$UCSORGFRONT
 10
0.0
 20
0.0
 30
0.0
  9
$UCSORGBACK
 10
0.0
 20
0.0
 30
0.0
  9
$PUCSBASE
  2

  9
$PUCSNAME
  2

  9
$PUCSORG
 10
0.0
 20
0.0
 30
0.0
  9
$PUCSXDIR
 10
1.0
 20
0.0
 30
0.0
  9
$PUCSYDIR
 10
0.0
 20
1.0
 30
0.0
  9
$PUCSORTHOREF
  2

  9
$PUCSORTHOVIEW
 70
     0
  9
$PUCSORGTOP
 10
0.0
 20
0.0
 30
0.0
  9
$PUCSORGBOTTOM
 10
0.0
 20
0.0
 30
0.0
  9
$PUCSORGLEFT
 10
0.0
 20
0.0
 30
0.0
  9
$PUCSORGRIGHT
 10
0.0
 20
0.0
 30
0.0
  9
$PUCSORGFRONT
 10
0.0
 20
0.0
 30
0.0
  9
$PUCSORGBACK
 10
0.0
 20
0.0
 30
0.0
  9
$USERI1
 70
     0
  9
$USERI2
 70
     0
  9
$USERI3
 70
     0
  9
$USERI4
 70
     0
  9
$USERI5
 70
     0
  9
$USERR1
 40
0.0
  9
$USERR2
 40
0.0
  9
$USERR3
 40
0.0
  9
$USERR4
 40
0.0
  9
$USERR5
 40
0.0
  9
$WORLDVIEW
 70
     1
  9
$SHADEDGE
 70
     3
  9
$SHADEDIF
 70
    70
  9
$TILEMODE
 70
     1
  9
$MAXACTVP
 70
    64
  9
$PINSBASE
 10
0.0
 20
0.0
 30
0.0
  9
$PLIMCHECK
 70
     0
  9
$PEXTMIN
 10
1.0000000000E+20
 20
1.0000000000E+20
 30
1.0000000000E+20
  9
$PEXTMAX
 10
-1.0000000000E+20
 20
-1.0000000000E+20
 30
-1.0000000000E+20
  9
$PLIMMIN
 10
0.0
 20
0.0
  9
$PLIMMAX
 10
420.0
 20
297.0
  9
$UNITMODE
 70
     0
  9
$VISRETAIN
 70
     1
  9
$PLINEGEN
 70
     0
  9
$PSLTSCALE
 70
     1
  9
$TREEDEPTH
 70
  3020
  9
$CMLSTYLE
  2
Standard
  9
$CMLJUST
 70
     0
  9
$CMLSCALE
 40
20.0
  9
$PROXYGRAPHICS
 70
     1
  9
$MEASUREMENT
 70
     1
  9
$CELWEIGHT
370
    -1
  9
$ENDCAPS
280
     0
  9
$JOINSTYLE
280
     0
  9
$LWDISPLAY
290
     1
  9
$INSUNITS
 70
     4
  9
$HYPERLINKBASE
  1

  9
$STYLESHEET
  1

  9
$XEDIT
290
     1
  9
$CEPSNTYPE
380
     0
  9
$PSTYLEMODE
290
     1
  9
$FINGERPRINTGUID
  2
{36F3D184-66C6-44D0-9BDB-6D168EB6BD5D}
  9
$VERSIONGUID
  2
{FAEB1C32-E019-11D5-929B-00C0DF256EC4}
  9
$EXTNAMES
290
     1
  9
$PSVPSCALE
 40
0.0
  9
$OLESTARTUP
290
     0
  0
ENDSEC
  0
SECTION
  2
CLASSES
  0
CLASS
  1
ACDBDICTIONARYWDFLT
  2
AcDbDictionaryWithDefault
  3
ObjectDBX Classes
 90
        0
280
     0
281
     0
  0
CLASS
  1
VISUALSTYLE
  2
AcDbVisualStyle
  3
ObjectDBX Classes
 90
     4095
280
     0
281
     0
  0
CLASS
  1
MATERIAL
  2
AcDbMaterial
  3
ObjectDBX Classes
 90
     1153
280
     0
281
     0
  0
CLASS
  1
ACDBPLACEHOLDER
  2
AcDbPlaceHolder
  3
ObjectDBX Classes
 90
        0
280
     0
281
     0
  0
CLASS
  1
LAYOUT
  2
AcDbLayout
  3
ObjectDBX Classes
 90
        0
280
     0
281
     0
  0
ENDSEC
  0
SECTION
  2
TABLES
  0
TABLE
  2
VPORT
  5
8
330
0
100
AcDbSymbolTable
 70
     1
  0
VPORT
  5
29
330
8
100
AcDbSymbolTableRecord
100
AcDbViewportTableRecord
  2
*Active
 70
     0
 10
0.0
 20
0.0
 11
1.0
 21
1.0
 12
297.0
 22
210.0
 13
0.0
 23
0.0
 14
10.0
 24
10.0
 15
10.0
 25
10.0
 16
0.0
 26
0.0
 36
1.0
 17
0.0
 27
0.0
 37
0.0
 40
420.0
 41
1.4142857143
 42
50.0
 43
0.0
 44
0.0
 50
0.0
 51
0.0
 71
     0
 72
  2000
 73
     1
 74
     3
 75
     0
 76
     0
 77
     0
 78
     0
281
     0
 65
     1
110
0.0
120
0.0
130
0.0
111
1.0
121
0.0
131
0.0
112
0.0
122
1.0
132
0.0
 79
     0
146
0.0
  0
ENDTAB
  0
TABLE
  2
LTYPE
  5
5
330
0
100
AcDbSymbolTable
 70
     6
  0
LTYPE
  5
14
330
5
100
AcDbSymbolTableRecord
100
AcDbLinetypeTableRecord
  2
ByBlock
 70
     0
  3

 72
    65
 73
     0
 40
0.0
  0
LTYPE
  5
15
330
5
100
AcDbSymbolTableRecord
100
AcDbLinetypeTableRecord
  2
ByLayer
 70
     0
  3

 72
    65
 73
     0
 40
0.0
  0
LTYPE
  5
16
330
5
100
AcDbSymbolTableRecord
100
AcDbLinetypeTableRecord
  2
Continuous
 70
     0
  3
Solid line
 72
    65
 73
     0
 40
0.0
  0
LTYPE
  5
3F
330
5
100
AcDbSymbolTableRecord
100
AcDbLinetypeTableRecord
  2
HIDDEN
 70
     0
  3
Hidden __ __ __ __ __ __ __ __ __ __ __ __ __ __
 72
    65
 73
     2
 40
1.905
 49
1.27
 74
     0
 49
-0.635
 74
     0
  0
LTYPE
  5
40
330
5
100
AcDbSymbolTableRecord
100
AcDbLinetypeTableRecord
  2
PHANTOM
 70
     0
  3
Phantom ______  __  __  ______  __  __  ______
 72
    65
 73
     6
 40
12.7
 49
6.35
 74
     0
 49
-1.27
 74
     0
 49
1.27
 74
     0
 49
-1.27
 74
     0
 49
1.27
 74
     0
 49
-1.27
 74
     0
  0
LTYPE
  5
41
330
5
100
AcDbSymbolTableRecord
100
AcDbLinetypeTableRecord
  2
CENTER
 70
     0
  3
Center ____ _ ____ _ ____ _ ____ _ ____ _ ____
 72
    65
 73
     4
 40
10.16
 49
6.35
 74
     0
 49
-1.27
 74
     0
 49
1.27
 74
     0
 49
-1.27
 74
     0
  0
LTYPE
  5
42
330
5
100
AcDbSymbolTableRecord
100
AcDbLinetypeTableRecord
  2
CENTERX2
 70
     0
  3
Center (2x) ________  __  ________  __  _____
 72
    65
 73
     4
 40
20.32
 49
12.7
 74
     0
 49
-2.54
 74
     0
 49
2.54
 74
     0
 49
-2.54
 74
     0
  0
LTYPE
  5
43
330
5
100
AcDbSymbolTableRecord
100
AcDbLinetypeTableRecord
  2
DOT2
 70
     0
  3
Dot (.5x) ........................................
 72
    65
 73
     2
 40
0.635
 49
0.0
 74
     0
 49
-0.635
 74
     0
  0
ENDTAB
  0
TABLE
  2
LAYER
  5
2
330
0
100
AcDbSymbolTable
 70
     2
  0
LAYER
  5
10
330
2
100
AcDbSymbolTableRecord
100
AcDbLayerTableRecord
  2
0
 70
     0
 62
     7
  6
Continuous
370
    -3
390
F
  0
LAYER
  5
44
330
2
100
AcDbSymbolTableRecord
100
AcDbLayerTableRecord
  2
SLD-0
 70
     0
 62
   179
  6
Continuous
370
    -3
390
F
  0
ENDTAB
  0
TABLE
  2
STYLE
  5
3
330
0
100
AcDbSymbolTable
 70
     3
  0
STYLE
  5
11
330
3
100
AcDbSymbolTableRecord
100
AcDbTextStyleTableRecord
  2
Standard
 70
     0
 40
0.0
 41
1.0
 50
0.0
 71
     0
 42
2.5
  3
txt
  4
bigfont
  0
STYLE
  5
7F
330
3
100
AcDbSymbolTableRecord
100
AcDbTextStyleTableRecord
  2
SLDTEXTSTYLE0
 70
     0
 40
0.0
 41
0.7
 50
0.0
 71
     0
 42
0.2
  3
TXT
  4
bigfont
  0
STYLE
  5
85
330
3
100
AcDbSymbolTableRecord
100
AcDbTextStyleTableRecord
  2
SLDTEXTSTYLE1
 70
     0
 40
0.0
 41
0.4385966873
 50
0.0
 71
     0
 42
0.2
  3
TXT
  4
bigfont
  0
ENDTAB
  0
TABLE
  2
VIEW
  5
6
330
0
100
AcDbSymbolTable
 70
     0
  0
ENDTAB
  0
TABLE
  2
UCS
  5
7
330
0
100
AcDbSymbolTable
 70
     0
  0
ENDTAB
  0
TABLE
  2
APPID
  5
9
330
0
100
AcDbSymbolTable
 70
     1
  0
APPID
  5
12
330
9
100
AcDbSymbolTableRecord
100
AcDbRegAppTableRecord
  2
ACAD
 70
     0
  0
ENDTAB
  0
TABLE
  2
DIMSTYLE
  5
A
330
0
100
AcDbSymbolTable
 70
     4
100
AcDbDimStyleTable
  0
DIMSTYLE
105
27
330
A
100
AcDbSymbolTableRecord
100
AcDbDimStyleTableRecord
  2
ISO-25
 70
     0
 41
2.5
 42
0.625
 43
3.75
 44
1.25
 73
     0
 74
     0
 77
     1
 78
     8
140
2.5
141
2.5
143
0.0393700787
147
0.625
171
     3
172
     1
178
     0
271
     2
272
     2
274
     3
278
    44
283
     0
284
     8
340
11
  0
DIMSTYLE
105
D6
102
{ACAD_REACTORS
330
D5
330
E6
330
F0
330
FA
330
104
330
13B
330
23E
330
248
102
}
330
A
100
AcDbSymbolTableRecord
100
AcDbDimStyleTableRecord
  2
SLDDIMSTYLE0
 70
     0
 41
3.3348524306
 44
0.0
 45
0.000000001
 73
     0
 74
     0
 77
     3
 78
    12
 79
     3
140
3.3348524306
147
0.8337131076
173
     1
178
     0
271
     1
272
     1
276
     2
284
    12
340
7F
341
D7
343
D7
344
D7
  0
DIMSTYLE
105
12F
102
{ACAD_REACTORS
330
12E
330
145
330
187
102
}
330
A
100
AcDbSymbolTableRecord
100
AcDbDimStyleTableRecord
  2
SLDDIMSTYLE1
 70
     0
 41
3.3348524306
 44
0.0
 45
0.000000001
 73
     0
 74
     0
 77
     3
 78
    12
 79
     3
140
3.3348524306
147
0.8337131076
172
     1
173
     1
178
     0
271
     1
272
     1
276
     2
284
    12
289
     0
340
7F
341
D7
343
D7
344
D7
  0
DIMSTYLE
105
152
102
{ACAD_REACTORS
330
151
102
}
330
A
100
AcDbSymbolTableRecord
100
AcDbDimStyleTableRecord
  2
SLDDIMSTYLE2
 70
     0
 41
3.3348524306
 44
0.0
 45
0.000000001
 73
     0
 74
     0
 77
     3
 78
    12
 79
     3
140
3.3348524306
147
0.8337131076
173
     1
178
     0
271
     0
272
     2
276
     2
284
    12
340
7F
341
D7
343
D7
344
D7
  0
ENDTAB
  0
TABLE
  2
BLOCK_RECORD
  5
1
330
0
100
AcDbSymbolTable
 70
    18
  0
BLOCK_RECORD
  5
1F
330
1
100
AcDbSymbolTableRecord
100
AcDbBlockTableRecord
  2
*Model_Space
340
22
  0
BLOCK_RECORD
  5
1B
330
1
100
AcDbSymbolTableRecord
100
AcDbBlockTableRecord
  2
*Paper_Space
340
1E
  0
BLOCK_RECORD
  5
23
330
1
100
AcDbSymbolTableRecord
100
AcDbBlockTableRecord
  2
*Paper_Space0
340
26
  0
BLOCK_RECORD
  5
8F
330
1
100
AcDbSymbolTableRecord
100
AcDbBlockTableRecord
  2
SW_NOTE_0
340
0
102
{BLKREFS
331
94
102
}
  0
BLOCK_RECORD
  5
A1
330
1
100
AcDbSymbolTableRecord
100
AcDbBlockTableRecord
  2
SW_NOTE_1
340
0
102
{BLKREFS
331
A6
102
}
  0
BLOCK_RECORD
  5
D7
330
1
100
AcDbSymbolTableRecord
100
AcDbBlockTableRecord
  2
_OPEN30
340
0
102
{BLKREFS
331
E0
331
E1
331
EA
331
EB
331
F4
331
F5
331
FE
331
FF
331
108
331
109
331
133
331
134
331
13F
331
140
331
149
331
14A
331
156
331
157
331
18B
331
18C
331
242
331
243
331
24C
331
24D
102
}
  0
BLOCK_RECORD
  5
DD
330
1
100
AcDbSymbolTableRecord
100
AcDbBlockTableRecord
  2
*D4
340
0
  0
BLOCK_RECORD
  5
E7
330
1
100
AcDbSymbolTableRecord
100
AcDbBlockTableRecord
  2
*D5
340
0
  0
BLOCK_RECORD
  5
F1
330
1
100
AcDbSymbolTableRecord
100
AcDbBlockTableRecord
  2
*D6
340
0
  0
BLOCK_RECORD
  5
FB
330
1
100
AcDbSymbolTableRecord
100
AcDbBlockTableRecord
  2
*D7
340
0
  0
BLOCK_RECORD
  5
105
330
1
100
AcDbSymbolTableRecord
100
AcDbBlockTableRecord
  2
*D8
340
0
  0
BLOCK_RECORD
  5
130
330
1
100
AcDbSymbolTableRecord
100
AcDbBlockTableRecord
  2
*D9
340
0
  0
BLOCK_RECORD
  5
13C
330
1
100
AcDbSymbolTableRecord
100
AcDbBlockTableRecord
  2
*D10
340
0
  0
BLOCK_RECORD
  5
146
330
1
100
AcDbSymbolTableRecord
100
AcDbBlockTableRecord
  2
*D11
340
0
  0
BLOCK_RECORD
  5
153
330
1
100
AcDbSymbolTableRecord
100
AcDbBlockTableRecord
  2
*D12
340
0
  0
BLOCK_RECORD
  5
188
330
1
100
AcDbSymbolTableRecord
100
AcDbBlockTableRecord
  2
*D13
340
0
  0
BLOCK_RECORD
  5
23F
330
1
100
AcDbSymbolTableRecord
100
AcDbBlockTableRecord
  2
*D14
340
0
  0
BLOCK_RECORD
  5
249
330
1
100
AcDbSymbolTableRecord
100
AcDbBlockTableRecord
  2
*D15
340
0
  0
BLOCK_RECORD
  5
252
330
1
100
AcDbSymbolTableRecord
100
AcDbBlockTableRecord
  2
SW_CENTERMARKSYMBOL_0
340
0
102
{BLKREFS
331
25D
102
}
  0
BLOCK_RECORD
  5
25E
330
1
100
AcDbSymbolTableRecord
100
AcDbBlockTableRecord
  2
SW_CENTERMARKSYMBOL_1
340
0
102
{BLKREFS
331
269
102
}
  0
ENDTAB
  0
ENDSEC
  0
SECTION
  2
BLOCKS
  0
BLOCK
  5
20
330
1F
100
AcDbEntity
  8
0
100
AcDbBlockBegin
  2
*Model_Space
 70
     0
 10
0.0
 20
0.0
 30
0.0
  3
*Model_Space
  1

  0
ENDBLK
  5
21
330
1F
100
AcDbEntity
  8
0
100
AcDbBlockEnd
  0
BLOCK
  5
1C
330
1B
100
AcDbEntity
 67
     1
  8
0
100
AcDbBlockBegin
  2
*Paper_Space
 70
     0
 10
0.0
 20
0.0
 30
0.0
  3
*Paper_Space
  1

  0
ENDBLK
  5
1D
330
1B
100
AcDbEntity
 67
     1
  8
0
100
AcDbBlockEnd
  0
BLOCK
  5
24
330
23
100
AcDbEntity
  8
0
100
AcDbBlockBegin
  2
*Paper_Space0
 70
     0
 10
0.0
 20
0.0
 30
0.0
  3
*Paper_Space0
  1

  0
ENDBLK
  5
25
330
23
100
AcDbEntity
  8
0
100
AcDbBlockEnd
  0
BLOCK
  5
90
330
8F
100
AcDbEntity
  8
0
100
AcDbBlockBegin
  2
SW_NOTE_0
 70
     0
 10
0.0
 20
0.0
 30
0.0
  3
SW_NOTE_0
  1

  0
MTEXT
  5
92
330
8F
100
AcDbEntity
  8
0
  6
Continuous
 62
     0
370
     0
100
AcDbMText
 10
1.7622188329
 20
6.4453386989
 30
0.0
 40
5.0
 41
0.0
 71
     2
 72
     1
  1
個
  7
SLDTEXTSTYLE1
 73
     1
 44
1.0
  0
MTEXT
  5
93
330
8F
100
AcDbEntity
  8
0
  6
Continuous
 62
     0
370
     0
100
AcDbMText
 10
1.7622188329
 20
0.6258941542
 30
0.0
 40
5.0
 41
0.0
 71
     2
 72
     1
  1
数
  7
SLDTEXTSTYLE1
 73
     1
 44
1.0
  0
ENDBLK
  5
91
330
8F
100
AcDbEntity
  8
0
100
AcDbBlockEnd
  0
BLOCK
  5
A2
330
A1
100
AcDbEntity
  8
0
100
AcDbBlockBegin
  2
SW_NOTE_1
 70
     0
 10
0.0
 20
0.0
 30
0.0
  3
SW_NOTE_1
  1

  0
MTEXT
  5
A4
330
A1
100
AcDbEntity
  8
0
  6
Continuous
 62
     0
370
     0
100
AcDbMText
 10
3.571875
 20
4.0927900738
 30
0.0
 40
3.175
 41
0.0
 71
     2
 72
     1
  1
通知
  7
SLDTEXTSTYLE0
 73
     1
 44
1.0
  0
MTEXT
  5
A5
330
A1
100
AcDbEntity
  8
0
  6
Continuous
 62
     0
370
     0
100
AcDbMText
 10
10.2526040643
 20
4.0927900738
 30
0.0
 40
3.175
 41
0.0
 71
     2
 72
     1
  1
書
  7
SLDTEXTSTYLE0
 73
     1
 44
1.0
  0
ENDBLK
  5
A3
330
A1
100
AcDbEntity
  8
0
100
AcDbBlockEnd
  0
BLOCK
  5
D8
330
D7
100
AcDbEntity
  8
0
100
AcDbBlockBegin
  2
_OPEN30
 70
     0
 10
0.0
 20
0.0
 30
0.0
  3
_OPEN30
  1

  0
LINE
  5
DA
330
D7
100
AcDbEntity
  8
0
  6
ByBlock
 62
     0
370
    -2
100
AcDbLine
 10
-1.0
 20
0.267949
 30
0.0
 11
0.0
 21
0.0
 31
0.0
  0
LINE
  5
DB
330
D7
100
AcDbEntity
  8
0
  6
ByBlock
 62
     0
370
    -2
100
AcDbLine
 10
0.0
 20
0.0
 30
0.0
 11
-1.0
 21
-0.267949
 31
0.0
  0
LINE
  5
DC
330
D7
100
AcDbEntity
  8
0
  6
ByBlock
 62
     0
370
    -2
100
AcDbLine
 10
0.0
 20
0.0
 30
0.0
 11
-1.0
 21
0.0
 31
0.0
  0
ENDBLK
  5
D9
330
D7
100
AcDbEntity
  8
0
100
AcDbBlockEnd
  0
BLOCK
  5
DE
330
DD
100
AcDbEntity
  8
0
100
AcDbBlockBegin
  2
*D4
 70
     1
 10
0.0
 20
0.0
 30
0.0
  3
*D4
  1

  0
INSERT
  5
E0
330
DD
100
AcDbEntity
  8
0
  6
Continuous
 62
     7
370
     0
100
AcDbBlockReference
  2
_OPEN30
 10
250.6736430972
 20
368.8341875203
 30
0.1
 41
3.3348524306
 42
3.3348524306
 50
90.0
  0
INSERT
  5
E1
330
DD
100
AcDbEntity
  8
0
  6
Continuous
 62
     7
370
     0
100
AcDbBlockReference
  2
_OPEN30
 10
250.6736430972
 20
188.8341875203
 30
0.1
 41
3.3348524306
 42
3.3348524306
 50
270.0
  0
LINE
  5
E2
330
DD
100
AcDbEntity
  8
0
  6
Continuous
 62
     7
370
     0
100
AcDbLine
 10
139.6736430972
 20
368.8341875203
 30
0.0
 11
251.6736430972
 21
368.8341875203
 31
0.0
  0
LINE
  5
E3
330
DD
100
AcDbEntity
  8
0
  6
Continuous
 62
     7
370
     0
100
AcDbLine
 10
139.6736430972
 20
188.8341875203
 30
0.0
 11
251.6736430972
 21
188.8341875203
 31
0.0
  0
LINE
  5
E4
330
DD
100
AcDbEntity
  8
0
  6
Continuous
 62
     7
370
     0
100
AcDbLine
 10
250.6736430972
 20
368.8341875203
 30
0.0
 11
250.6736430972
 21
188.8341875203
 31
0.0
  0
MTEXT
  5
E5
330
DD
100
AcDbEntity
  8
0
  6
Continuous
 62
     7
370
     0
100
AcDbMText
 10
246.9219188629
 20
274.7569094427
 30
0.1
 40
2.9104166667
 41
0.0
 71
     1
 72
     1
  1
180
  7
SLDTEXTSTYLE0
 11
-9.708730276744010E-15
 21
1.0
 31
0.0
 73
     1
 44
1.0
  0
ENDBLK
  5
DF
330
DD
100
AcDbEntity
  8
0
100
AcDbBlockEnd
  0
BLOCK
  5
E8
330
E7
100
AcDbEntity
  8
0
100
AcDbBlockBegin
  2
*D5
 70
     1
 10
0.0
 20
0.0
 30
0.0
  3
*D5
  1

  0
INSERT
  5
EA
330
E7
100
AcDbEntity
  8
0
  6
Continuous
 62
     7
370
     0
100
AcDbBlockReference
  2
_OPEN30
 10
228.6736430972
 20
161.1178153262
 30
0.1
 41
3.3348524306
 42
3.3348524306
 50
0.0
  0
INSERT
  5
EB
330
E7
100
AcDbEntity
  8
0
  6
Continuous
 62
     7
370
     0
100
AcDbBlockReference
  2
_OPEN30
 10
48.6736430972
 20
161.1178153262
 30
0.1
 41
3.3348524306
 42
3.3348524306
 50
180.0
  0
LINE
  5
EC
330
E7
100
AcDbEntity
  8
0
  6
Continuous
 62
     7
370
     0
100
AcDbLine
 10
228.6736430972
 20
277.8341875203
 30
0.0
 11
228.6736430972
 21
160.1178153262
 31
0.0
  0
LINE
  5
ED
330
E7
100
AcDbEntity
  8
0
  6
Continuous
 62
     7
370
     0
100
AcDbLine
 10
48.6736430972
 20
277.8341875203
 30
0.0
 11
48.6736430972
 21
160.1178153262
 31
0.0
  0
LINE
  5
EE
330
E7
100
AcDbEntity
  8
0
  6
Continuous
 62
     7
370
     0
100
AcDbLine
 10
228.6736430972
 20
161.1178153262
 30
0.0
 11
48.6736430972
 21
161.1178153262
 31
0.0
  0
MTEXT
  5
EF
330
E7
100
AcDbEntity
  8
0
  6
Continuous
 62
     7
370
     0
100
AcDbMText
 10
134.5963650196
 20
164.8695395605
 30
0.1
 40
2.9104166667
 41
0.0
 71
     1
 72
     1
  1
180
  7
SLDTEXTSTYLE0
 73
     1
 44
1.0
  0
ENDBLK
  5
E9
330
E7
100
AcDbEntity
  8
0
100
AcDbBlockEnd
  0
BLOCK
  5
F2
330
F1
100
AcDbEntity
  8
0
100
AcDbBlockBegin
  2
*D6
 70
     1
 10
0.0
 20
0.0
 30
0.0
  3
*D6
  1

  0
INSERT
  5
F4
330
F1
100
AcDbEntity
  8
0
  6
Continuous
 62
     7
370
     0
100
AcDbBlockReference
  2
_OPEN30
 10
68.6736430972
 20
172.8341875203
 30
0.1
 41
3.3348524306
 42
3.3348524306
 50
180.0
  0
INSERT
  5
F5
330
F1
100
AcDbEntity
  8
0
  6
Continuous
 62
     7
370
     0
100
AcDbBlockReference
  2
_OPEN30
 10
208.6736430972
 20
172.8341875203
 30
0.1
 41
3.3348524306
 42
3.3348524306
 50
0.0
  0
LINE
  5
F6
330
F1
100
AcDbEntity
  8
0
  6
Continuous
 62
     7
370
     0
100
AcDbLine
 10
68.6736430972
 20
277.8341875203
 30
0.0
 11
68.6736430972
 21
171.8341875203
 31
0.0
  0
LINE
  5
F7
330
F1
100
AcDbEntity
  8
0
  6
Continuous
 62
     7
370
     0
100
AcDbLine
 10
208.6736430972
 20
277.8341875203
 30
0.0
 11
208.6736430972
 21
171.8341875203
 31
0.0
  0
LINE
  5
F8
330
F1
100
AcDbEntity
  8
0
  6
Continuous
 62
     7
370
     0
100
AcDbLine
 10
68.6736430972
 20
172.8341875203
 30
0.0
 11
208.6736430972
 21
172.8341875203
 31
0.0
  0
MTEXT
  5
F9
330
F1
100
AcDbEntity
  8
0
  6
Continuous
 62
     7
370
     0
100
AcDbMText
 10
134.5963650196
 20
176.5859117546
 30
0.1
 40
2.9104166667
 41
0.0
 71
     1
 72
     1
  1
140
  7
SLDTEXTSTYLE0
 73
     1
 44
1.0
  0
ENDBLK
  5
F3
330
F1
100
AcDbEntity
  8
0
100
AcDbBlockEnd
  0
BLOCK
  5
FC
330
FB
100
AcDbEntity
  8
0
100
AcDbBlockBegin
  2
*D7
 70
     1
 10
0.0
 20
0.0
 30
0.0
  3
*D7
  1

  0
INSERT
  5
FE
330
FB
100
AcDbEntity
  8
0
  6
Continuous
 62
     7
370
     0
100
AcDbBlockReference
  2
_OPEN30
 10
238.6736430972
 20
208.8341875203
 30
0.1
 41
3.3348524306
 42
3.3348524306
 50
270.0
  0
INSERT
  5
FF
330
FB
100
AcDbEntity
  8
0
  6
Continuous
 62
     7
370
     0
100
AcDbBlockReference
  2
_OPEN30
 10
238.6736430972
 20
348.8455580438
 30
0.1
 41
3.3348524306
 42
3.3348524306
 50
90.0
  0
LINE
  5
100
330
FB
100
AcDbEntity
  8
0
  6
Continuous
 62
     7
370
     0
100
AcDbLine
 10
139.6736430972
 20
208.8341875203
 30
0.0
 11
239.6736430972
 21
208.8341875203
 31
0.0
  0
LINE
  5
101
330
FB
100
AcDbEntity
  8
0
  6
Continuous
 62
     7
370
     0
100
AcDbLine
 10
139.6736430972
 20
348.8455580438
 30
0.0
 11
239.6736430972
 21
348.8455580438
 31
0.0
  0
LINE
  5
102
330
FB
100
AcDbEntity
  8
0
  6
Continuous
 62
     7
370
     0
100
AcDbLine
 10
238.6736430972
 20
208.8341875203
 30
0.0
 11
238.6736430972
 21
348.8455580438
 31
0.0
  0
MTEXT
  5
103
330
FB
100
AcDbEntity
  8
0
  6
Continuous
 62
     7
370
     0
100
AcDbMText
 10
234.9219188629
 20
274.7625947044
 30
0.1
 40
2.9104166667
 41
0.0
 71
     1
 72
     1
  1
140
  7
SLDTEXTSTYLE0
 11
2.832769448823990E-16
 21
1.0
 31
0.0
 73
     1
 44
1.0
  0
ENDBLK
  5
FD
330
FB
100
AcDbEntity
  8
0
100
AcDbBlockEnd
  0
BLOCK
  5
106
330
105
100
AcDbEntity
  8
0
100
AcDbBlockBegin
  2
*D8
 70
     1
 10
0.0
 20
0.0
 30
0.0
  3
*D8
  1

  0
INSERT
  5
108
330
105
100
AcDbEntity
  8
0
  6
Continuous
 62
     7
370
     0
100
AcDbBlockReference
  2
_OPEN30
 10
153.6736430972
 20
305.8634174294
 30
-13.075005
 41
3.3348524306
 42
3.3348524306
 50
0.0
  0
INSERT
  5
109
330
105
100
AcDbEntity
  8
0
  6
Continuous
 62
     7
370
     0
100
AcDbBlockReference
  2
_OPEN30
 10
123.6736430972
 20
305.8634174294
 30
-13.075005
 41
3.3348524306
 42
3.3348524306
 50
180.0
  0
LINE
  5
10A
330
105
100
AcDbEntity
  8
0
  6
Continuous
 62
     7
370
     0
100
AcDbLine
 10
153.6736430972
 20
332.3341875203
 30
0.0
 11
153.6736430972
 21
304.8634174294
 31
0.0
  0
LINE
  5
10B
330
105
100
AcDbEntity
  8
0
  6
Continuous
 62
     7
370
     0
100
AcDbLine
 10
123.6736430972
 20
332.3341875203
 30
0.0
 11
123.6736430972
 21
304.8634174294
 31
0.0
  0
LINE
  5
10C
330
105
100
AcDbEntity
  8
0
  6
Continuous
 62
     7
370
     0
100
AcDbLine
 10
153.6736430972
 20
305.8634174294
 30
0.0
 11
123.6736430972
 21
305.8634174294
 31
0.0
  0
MTEXT
  5
10D
330
105
100
AcDbEntity
  8
0
  6
Continuous
 62
     7
370
     0
100
AcDbMText
 10
135.5665037221
 20
309.6151416637
 30
-13.075005
 40
2.9104166667
 41
0.0
 71
     1
 72
     1
  1
30
  7
SLDTEXTSTYLE0
 73
     1
 44
1.0
  0
ENDBLK
  5
107
330
105
100
AcDbEntity
  8
0
100
AcDbBlockEnd
  0
BLOCK
  5
131
330
130
100
AcDbEntity
  8
0
100
AcDbBlockBegin
  2
*D9
 70
     1
 10
0.0
 20
0.0
 30
0.0
  3
*D9
  1

  0
INSERT
  5
133
330
130
100
AcDbEntity
  8
0
  6
Continuous
 62
     7
370
     0
100
AcDbBlockReference
  2
_OPEN30
 10
326.4126115793
 20
172.8341875203
 30
0.1
 41
3.3348524306
 42
3.3348524306
 50
0.0
  0
INSERT
  5
134
330
130
100
AcDbEntity
  8
0
  6
Continuous
 62
     7
370
     0
100
AcDbBlockReference
  2
_OPEN30
 10
337.9126115793
 20
172.8341875203
 30
0.1
 41
3.3348524306
 42
3.3348524306
 50
180.0
  0
LINE
  5
135
330
130
100
AcDbEntity
  8
0
  6
Continuous
 62
     7
370
     0
100
AcDbLine
 10
326.4126115793
 20
324.8341875203
 30
0.0
 11
326.4126115793
 21
171.8341875203
 31
0.0
  0
LINE
  5
136
330
130
100
AcDbEntity
  8
0
  6
Continuous
 62
     7
370
     0
100
AcDbLine
 10
337.9126115793
 20
325.1341875203
 30
0.0
 11
337.9126115793
 21
171.8341875203
 31
0.0
  0
LINE
  5
137
330
130
100
AcDbEntity
  8
0
  6
Continuous
 62
     7
370
     0
100
AcDbLine
 10
326.4126115793
 20
172.8341875203
 30
0.0
 11
319.9994338282
 21
172.8341875203
 31
0.0
  0
LINE
  5
138
330
130
100
AcDbEntity
  8
0
  6
Continuous
 62
     7
370
     0
100
AcDbLine
 10
326.4126115793
 20
172.8341875203
 30
0.0
 11
337.9126115793
 21
172.8341875203
 31
0.0
  0
LINE
  5
139
330
130
100
AcDbEntity
  8
0
  6
Continuous
 62
     7
370
     0
100
AcDbLine
 10
337.9126115793
 20
172.8341875203
 30
0.0
 11
344.3257893304
 21
172.8341875203
 31
0.0
  0
MTEXT
  5
13A
330
130
100
AcDbEntity
  8
0
  6
Continuous
 62
     7
370
     0
100
AcDbMText
 10
327.6918878981
 20
176.5859117546
 30
0.1
 40
2.9104166667
 41
0.0
 71
     1
 72
     1
  1
11.5
  7
SLDTEXTSTYLE0
 73
     1
 44
1.0
  0
ENDBLK
  5
132
330
130
100
AcDbEntity
  8
0
100
AcDbBlockEnd
  0
BLOCK
  5
13D
330
13C
100
AcDbEntity
  8
0
100
AcDbBlockBegin
  2
*D10
 70
     1
 10
0.0
 20
0.0
 30
0.0
  3
*D10
  1

  0
INSERT
  5
13F
330
13C
100
AcDbEntity
  8
0
  6
Continuous
 62
     7
370
     0
100
AcDbBlockReference
  2
_OPEN30
 10
297.9126115793
 20
161.1178153262
 30
0.1
 41
3.3348524306
 42
3.3348524306
 50
180.0
  0
INSERT
  5
140
330
13C
100
AcDbEntity
  8
0
  6
Continuous
 62
     7
370
     0
100
AcDbBlockReference
  2
_OPEN30
 10
337.9126115793
 20
161.1178153262
 30
0.1
 41
3.3348524306
 42
3.3348524306
 50
0.0
  0
LINE
  5
141
330
13C
100
AcDbEntity
  8
0
  6
Continuous
 62
     7
370
     0
100
AcDbLine
 10
297.9126115793
 20
246.2702792806
 30
0.0
 11
297.9126115793
 21
160.1178153262
 31
0.0
  0
LINE
  5
142
330
13C
100
AcDbEntity
  8
0
  6
Continuous
 62
     7
370
     0
100
AcDbLine
 10
337.9126115793
 20
325.1341875203
 30
0.0
 11
337.9126115793
 21
160.1178153262
 31
0.0
  0
LINE
  5
143
330
13C
100
AcDbEntity
  8
0
  6
Continuous
 62
     7
370
     0
100
AcDbLine
 10
297.9126115793
 20
161.1178153262
 30
0.0
 11
337.9126115793
 21
161.1178153262
 31
0.0
  0
MTEXT
  5
144
330
13C
100
AcDbEntity
  8
0
  6
Continuous
 62
     7
370
     0
100
AcDbMText
 10
314.8054722042
 20
164.8695395605
 30
0.1
 40
2.9104166667
 41
0.0
 71
     1
 72
     1
  1
40
  7
SLDTEXTSTYLE0
 73
     1
 44
1.0
  0
ENDBLK
  5
13E
330
13C
100
AcDbEntity
  8
0
100
AcDbBlockEnd
  0
BLOCK
  5
147
330
146
100
AcDbEntity
  8
0
100
AcDbBlockBegin
  2
*D11
 70
     1
 10
0.0
 20
0.0
 30
0.0
  3
*D11
  1

  0
INSERT
  5
149
330
146
100
AcDbEntity
  8
0
  6
Continuous
 62
     7
370
     0
100
AcDbBlockReference
  2
_OPEN30
 10
297.9126115793
 20
161.1178153262
 30
0.1
 41
3.3348524306
 42
3.3348524306
 50
180.0
  0
INSERT
  5
14A
330
146
100
AcDbEntity
  8
0
  6
Continuous
 62
     7
370
     0
100
AcDbBlockReference
  2
_OPEN30
 10
287.9126115793
 20
161.1178153262
 30
0.1
 41
3.3348524306
 42
3.3348524306
 50
0.0
  0
LINE
  5
14B
330
146
100
AcDbEntity
  8
0
  6
Continuous
 62
     7
370
     0
100
AcDbLine
 10
297.9126115793
 20
202.0597529648
 30
0.0
 11
297.9126115793
 21
160.1178153262
 31
0.0
  0
LINE
  5
14C
330
146
100
AcDbEntity
  8
0
  6
Continuous
 62
     7
370
     0
100
AcDbLine
 10
287.9126115793
 20
202.0597529648
 30
0.0
 11
287.9126115793
 21
160.1178153262
 31
0.0
  0
LINE
  5
14D
330
146
100
AcDbEntity
  8
0
  6
Continuous
 62
     7
370
     0
100
AcDbLine
 10
297.9126115793
 20
161.1178153262
 30
0.0
 11
304.3257893304
 21
161.1178153262
 31
0.0
  0
LINE
  5
14E
330
146
100
AcDbEntity
  8
0
  6
Continuous
 62
     7
370
     0
100
AcDbLine
 10
297.9126115793
 20
161.1178153262
 30
0.0
 11
287.9126115793
 21
161.1178153262
 31
0.0
  0
LINE
  5
14F
330
146
100
AcDbEntity
  8
0
  6
Continuous
 62
     7
370
     0
100
AcDbLine
 10
287.9126115793
 20
161.1178153262
 30
0.0
 11
281.4994338282
 21
161.1178153262
 31
0.0
  0
MTEXT
  5
150
330
146
100
AcDbEntity
  8
0
  6
Continuous
 62
     7
370
     0
100
AcDbMText
 10
289.8054722042
 20
164.8695395605
 30
0.1
 40
2.9104166667
 41
0.0
 71
     1
 72
     1
  1
10
  7
SLDTEXTSTYLE0
 73
     1
 44
1.0
  0
ENDBLK
  5
148
330
146
100
AcDbEntity
  8
0
100
AcDbBlockEnd
  0
BLOCK
  5
154
330
153
100
AcDbEntity
  8
0
100
AcDbBlockBegin
  2
*D12
 70
     1
 10
0.0
 20
0.0
 30
0.0
  3
*D12
  1

  0
INSERT
  5
156
330
153
100
AcDbEntity
  8
0
  6
Continuous
 62
     7
370
     0
100
AcDbBlockReference
  2
_OPEN30
 10
363.3699157399
 20
345.9074687891
 30
0.1
 41
3.3348524306
 42
3.3348524306
 50
90.0
  0
INSERT
  5
157
330
153
100
AcDbEntity
  8
0
  6
Continuous
 62
     7
370
     0
100
AcDbBlockReference
  2
_OPEN30
 10
363.3699157399
 20
325.8341875203
 30
0.1
 41
3.3348524306
 42
3.3348524306
 50
270.0
  0
LINE
  5
158
330
153
100
AcDbEntity
  8
0
  6
Continuous
 62
     7
370
     0
100
AcDbLine
 10
338.7186317499
 20
345.9074687891
 30
0.0
 11
364.3699157399
 21
345.9074687891
 31
0.0
  0
LINE
  5
159
330
153
100
AcDbEntity
  8
0
  6
Continuous
 62
     7
370
     0
100
AcDbLine
 10
338.6126115793
 20
325.8341875203
 30
0.0
 11
364.3699157399
 21
325.8341875203
 31
0.0
  0
LINE
  5
15A
330
153
100
AcDbEntity
  8
0
  6
Continuous
 62
     7
370
     0
100
AcDbLine
 10
363.3699157399
 20
345.9074687891
 30
0.0
 11
363.3699157399
 21
325.8341875203
 31
0.0
  0
MTEXT
  5
15B
330
153
100
AcDbEntity
  8
0
  6
Continuous
 62
     7
370
     0
100
AcDbMText
 10
359.6181915056
 20
332.7636887796
 30
0.1
 40
2.9104166667
 41
0.0
 71
     1
 72
     1
  1
20
  7
SLDTEXTSTYLE0
 11
-7.044195017643634E-15
 21
1.0
 31
0.0
 73
     1
 44
1.0
  0
ENDBLK
  5
155
330
153
100
AcDbEntity
  8
0
100
AcDbBlockEnd
  0
BLOCK
  5
189
330
188
100
AcDbEntity
  8
0
100
AcDbBlockBegin
  2
*D13
 70
     1
 10
0.0
 20
0.0
 30
0.0
  3
*D13
  1

  0
INSERT
  5
18B
330
188
100
AcDbEntity
  8
0
  6
Continuous
 62
     7
370
     0
100
AcDbBlockReference
  2
_OPEN30
 10
130.6736430972
 20
515.7269838355
 30
56.849995
 41
3.3348524306
 42
3.3348524306
 50
0.0
  0
INSERT
  5
18C
330
188
100
AcDbEntity
  8
0
  6
Continuous
 62
     7
370
     0
100
AcDbBlockReference
  2
_OPEN30
 10
146.6736430972
 20
515.7269838355
 30
56.849995
 41
3.3348524306
 42
3.3348524306
 50
180.0
  0
LINE
  5
18D
330
188
100
AcDbEntity
  8
0
  6
Continuous
 62
     7
370
     0
100
AcDbLine
 10
130.6736430972
 20
514.3052000288
 30
0.0
 11
130.6736430972
 21
516.7269838355
 31
0.0
  0
LINE
  5
18E
330
188
100
AcDbEntity
  8
0
  6
Continuous
 62
     7
370
     0
100
AcDbLine
 10
146.6736430972
 20
514.3052000288
 30
0.0
 11
146.6736430972
 21
516.7269838355
 31
0.0
  0
LINE
  5
18F
330
188
100
AcDbEntity
  8
0
  6
Continuous
 62
     7
370
     0
100
AcDbLine
 10
130.6736430972
 20
515.7269838355
 30
0.0
 11
124.2604653461
 21
515.7269838355
 31
0.0
  0
LINE
  5
190
330
188
100
AcDbEntity
  8
0
  6
Continuous
 62
     7
370
     0
100
AcDbLine
 10
130.6736430972
 20
515.7269838355
 30
0.0
 11
146.6736430972
 21
515.7269838355
 31
0.0
  0
LINE
  5
191
330
188
100
AcDbEntity
  8
0
  6
Continuous
 62
     7
370
     0
100
AcDbLine
 10
146.6736430972
 20
515.7269838355
 30
0.0
 11
153.0868208483
 21
515.7269838355
 31
0.0
  0
MTEXT
  5
192
330
188
100
AcDbEntity
  8
0
  6
Continuous
 62
     7
370
     0
100
AcDbMText
 10
135.5665037221
 20
519.4787080698
 30
56.849995
 40
2.9104166667
 41
0.0
 71
     1
 72
     1
  1
16
  7
SLDTEXTSTYLE0
 73
     1
 44
1.0
  0
ENDBLK
  5
18A
330
188
100
AcDbEntity
  8
0
100
AcDbBlockEnd
  0
BLOCK
  5
240
330
23F
100
AcDbEntity
  8
0
100
AcDbBlockBegin
  2
*D14
 70
     1
 10
0.0
 20
0.0
 30
0.0
  3
*D14
  1

  0
INSERT
  5
242
330
23F
100
AcDbEntity
  8
0
  6
Continuous
 62
     7
370
     0
100
AcDbBlockReference
  2
_OPEN30
 10
130.6736430972
 20
48.4225435387
 30
-56.649995
 41
3.3348524306
 42
3.3348524306
 50
180.0
  0
INSERT
  5
243
330
23F
100
AcDbEntity
  8
0
  6
Continuous
 62
     7
370
     0
100
AcDbBlockReference
  2
_OPEN30
 10
146.6736430972
 20
48.4225435387
 30
-56.649995
 41
3.3348524306
 42
3.3348524306
 50
0.0
  0
LINE
  5
244
330
23F
100
AcDbEntity
  8
0
  6
Continuous
 62
     7
370
     0
100
AcDbLine
 10
130.6736430972
 20
63.0515430665
 30
0.0
 11
130.6736430972
 21
47.4225435387
 31
0.0
  0
LINE
  5
245
330
23F
100
AcDbEntity
  8
0
  6
Continuous
 62
     7
370
     0
100
AcDbLine
 10
146.6736430972
 20
63.0515430665
 30
0.0
 11
146.6736430972
 21
47.4225435387
 31
0.0
  0
LINE
  5
246
330
23F
100
AcDbEntity
  8
0
  6
Continuous
 62
     7
370
     0
100
AcDbLine
 10
130.6736430972
 20
48.4225435387
 30
0.0
 11
146.6736430972
 21
48.4225435387
 31
0.0
  0
MTEXT
  5
247
330
23F
100
AcDbEntity
  8
0
  6
Continuous
 62
     7
370
     0
100
AcDbMText
 10
135.5665037221
 20
52.174267773
 30
-56.649995
 40
2.9104166667
 41
0.0
 71
     1
 72
     1
  1
16
  7
SLDTEXTSTYLE0
 73
     1
 44
1.0
  0
ENDBLK
  5
241
330
23F
100
AcDbEntity
  8
0
100
AcDbBlockEnd
  0
BLOCK
  5
24A
330
249
100
AcDbEntity
  8
0
100
AcDbBlockBegin
  2
*D15
 70
     1
 10
0.0
 20
0.0
 30
0.0
  3
*D15
  1

  0
INSERT
  5
24C
330
249
100
AcDbEntity
  8
0
  6
Continuous
 62
     7
370
     0
100
AcDbBlockReference
  2
_OPEN30
 10
131.6736430972
 20
56.0515430665
 30
-56.649995
 41
3.3348524306
 42
3.3348524306
 50
180.0
  0
INSERT
  5
24D
330
249
100
AcDbEntity
  8
0
  6
Continuous
 62
     7
370
     0
100
AcDbBlockReference
  2
_OPEN30
 10
145.6736430972
 20
56.0515430665
 30
-56.649995
 41
3.3348524306
 42
3.3348524306
 50
0.0
  0
LINE
  5
24E
330
249
100
AcDbEntity
  8
0
  6
Continuous
 62
     7
370
     0
100
AcDbLine
 10
131.6736430972
 20
87.4015430665
 30
0.0
 11
131.6736430972
 21
55.0515430665
 31
0.0
  0
LINE
  5
24F
330
249
100
AcDbEntity
  8
0
  6
Continuous
 62
     7
370
     0
100
AcDbLine
 10
145.6736430972
 20
87.4015430665
 30
0.0
 11
145.6736430972
 21
55.0515430665
 31
0.0
  0
LINE
  5
250
330
249
100
AcDbEntity
  8
0
  6
Continuous
 62
     7
370
     0
100
AcDbLine
 10
131.6736430972
 20
56.0515430665
 30
0.0
 11
145.6736430972
 21
56.0515430665
 31
0.0
  0
MTEXT
  5
251
330
249
100
AcDbEntity
  8
0
  6
Continuous
 62
     7
370
     0
100
AcDbMText
 10
135.5665037221
 20
59.8032673007
 30
-56.649995
 40
2.9104166667
 41
0.0
 71
     1
 72
     1
  1
14
  7
SLDTEXTSTYLE0
 73
     1
 44
1.0
  0
ENDBLK
  5
24B
330
249
100
AcDbEntity
  8
0
100
AcDbBlockEnd
  0
BLOCK
  5
253
330
252
100
AcDbEntity
  8
0
100
AcDbBlockBegin
  2
SW_CENTERMARKSYMBOL_0
 70
     0
 10
0.0
 20
0.0
 30
0.0
  3
SW_CENTERMARKSYMBOL_0
  1

  0
LINE
  5
255
330
252
100
AcDbEntity
  8
0
  6
Continuous
 62
     0
370
     0
100
AcDbLine
 10
0.0
 20
0.0
 30
0.0
 11
0.0
 21
2.5
 31
0.0
  0
LINE
  5
256
330
252
100
AcDbEntity
  8
0
  6
Continuous
 62
     0
370
     0
100
AcDbLine
 10
0.0
 20
0.0
 30
0.0
 11
-2.5
 21
0.0
 31
0.0
  0
LINE
  5
257
330
252
100
AcDbEntity
  8
0
  6
Continuous
 62
     0
370
     0
100
AcDbLine
 10
0.0
 20
0.0
 30
0.0
 11
0.0
 21
-2.5
 31
0.0
  0
LINE
  5
258
330
252
100
AcDbEntity
  8
0
  6
Continuous
 62
     0
370
     0
100
AcDbLine
 10
0.0
 20
0.0
 30
0.0
 11
2.5
 21
0.0
 31
0.0
  0
LINE
  5
259
330
252
100
AcDbEntity
  8
0
  6
Continuous
 62
     0
370
     0
100
AcDbLine
 10
0.0
 20
2.5
 30
0.0
 11
0.0
 21
4.15
 31
0.0
  0
LINE
  5
25A
330
252
100
AcDbEntity
  8
0
  6
Continuous
 62
     0
370
     0
100
AcDbLine
 10
-2.5
 20
0.0
 30
0.0
 11
-4.15
 21
0.0
 31
0.0
  0
LINE
  5
25B
330
252
100
AcDbEntity
  8
0
  6
Continuous
 62
     0
370
     0
100
AcDbLine
 10
0.0
 20
-2.5
 30
0.0
 11
0.0
 21
-4.15
 31
0.0
  0
LINE
  5
25C
330
252
100
AcDbEntity
  8
0
  6
Continuous
 62
     0
370
     0
100
AcDbLine
 10
2.5
 20
0.0
 30
0.0
 11
4.15
 21
0.0
 31
0.0
  0
ENDBLK
  5
254
330
252
100
AcDbEntity
  8
0
100
AcDbBlockEnd
  0
BLOCK
  5
25F
330
25E
100
AcDbEntity
  8
0
100
AcDbBlockBegin
  2
SW_CENTERMARKSYMBOL_1
 70
     0
 10
0.0
 20
0.0
 30
0.0
  3
SW_CENTERMARKSYMBOL_1
  1

  0
LINE
  5
261
330
25E
100
AcDbEntity
  8
0
  6
Continuous
 62
     0
370
     0
100
AcDbLine
 10
0.0
 20
0.0
 30
0.0
 11
0.0
 21
2.5
 31
0.0
  0
LINE
  5
262
330
25E
100
AcDbEntity
  8
0
  6
Continuous
 62
     0
370
     0
100
AcDbLine
 10
0.0
 20
0.0
 30
0.0
 11
-2.5
 21
0.0
 31
0.0
  0
LINE
  5
263
330
25E
100
AcDbEntity
  8
0
  6
Continuous
 62
     0
370
     0
100
AcDbLine
 10
0.0
 20
0.0
 30
0.0
 11
0.0
 21
-2.5
 31
0.0
  0
LINE
  5
264
330
25E
100
AcDbEntity
  8
0
  6
Continuous
 62
     0
370
     0
100
AcDbLine
 10
0.0
 20
0.0
 30
0.0
 11
2.5
 21
0.0
 31
0.0
  0
LINE
  5
265
330
25E
100
AcDbEntity
  8
0
  6
Continuous
 62
     0
370
     0
100
AcDbLine
 10
0.0
 20
2.5
 30
0.0
 11
0.0
 21
4.15
 31
0.0
  0
LINE
  5
266
330
25E
100
AcDbEntity
  8
0
  6
Continuous
 62
     0
370
     0
100
AcDbLine
 10
-2.5
 20
0.0
 30
0.0
 11
-4.15
 21
0.0
 31
0.0
  0
LINE
  5
267
330
25E
100
AcDbEntity
  8
0
  6
Continuous
 62
     0
370
     0
100
AcDbLine
 10
0.0
 20
-2.5
 30
0.0
 11
0.0
 21
-4.15
 31
0.0
  0
LINE
  5
268
330
25E
100
AcDbEntity
  8
0
  6
Continuous
 62
     0
370
     0
100
AcDbLine
 10
2.5
 20
0.0
 30
0.0
 11
4.15
 21
0.0
 31
0.0
  0
ENDBLK
  5
260
330
25E
100
AcDbEntity
  8
0
100
AcDbBlockEnd
  0
ENDSEC
  0
SECTION
  2
ENTITIES
  0
HATCH
  5
45
330
1F
100
AcDbEntity
  8
0
  6
Continuous
 62
     7
100
AcDbHatch
 10
0.0
 20
0.0
 30
0.0
210
0.0
220
0.0
230
1.0
  2
SOLID
 70
     1
 71
     0
 91
        1
 92
        0
 93
       14
 72
     1
 10
510.3858167478193
 20
41.7197415390888
 11
507.8131108326068
 21
41.7197415390888
 72
     1
 10
507.8131108326068
 20
41.7197415390888
 11
507.8131108326068
 21
33.03685909852177
 72
     1
 10
507.8131108326068
 20
33.03685909852177
 11
514.4056697985282
 21
33.03685909852177
 72
     1
 10
514.4056697985282
 20
33.03685909852177
 11
514.4056697985282
 21
34.64480031880527
 72
     1
 10
514.4056697985282
 20
34.64480031880527
 11
518.7471108326067
 21
34.64480031880527
 72
     1
 10
518.7471108326067
 20
34.64480031880527
 11
518.7471108326067
 21
41.71974153908999
 72
     1
 10
518.7471108326067
 20
41.71974153908999
 11
516.1744049173939
 21
41.71974153908999
 72
     1
 10
516.1744049173939
 20
41.71974153908999
 11
516.1744049173939
 21
35.93115299710542
 72
     1
 10
516.1744049173939
 20
35.93115299710542
 11
514.4056697985279
 21
35.93115299710542
 72
     1
 10
514.4056697985279
 20
35.93115299710542
 11
514.4056697985279
 21
41.71974153908947
 72
     1
 10
514.4056697985279
 20
41.71974153908947
 11
512.1545521459926
 21
41.71974153908947
 72
     1
 10
512.1545521459926
 20
41.71974153908947
 11
512.1545521459926
 21
34.64480031880567
 72
     1
 10
512.1545521459926
 20
34.64480031880567
 11
510.3858167478193
 21
34.64480031880567
 72
     1
 10
510.3858167478193
 20
34.64480031880567
 11
510.3858167478193
 21
41.7197415390888
 97
        0
 75
     0
 76
     1
 98
        1
 10
0.0
 20
0.0
  0
LINE
  5
46
330
1F
100
AcDbEntity
  8
0
  6
Continuous
 62
     7
370
     0
100
AcDbLine
 10
514.4056697985
 20
41.7197415391
 30
0.0
 11
512.154552146
 21
41.7197415391
 31
0.0
  0
LINE
  5
47
330
1F
100
AcDbEntity
  8
0
  6
Continuous
 62
     7
370
     0
100
AcDbLine
 10
514.4056697985
 20
41.7197415391
 30
0.0
 11
514.4056697985
 21
35.9311529971
 31
0.0
  0
LINE
  5
48
330
1F
100
AcDbEntity
  8
0
  6
Continuous
 62
     7
370
     0
100
AcDbLine
 10
516.1744049174
 20
35.9311529971
 30
0.0
 11
514.4056697985
 21
35.9311529971
 31
0.0
  0
LINE
  5
49
330
1F
100
AcDbEntity
  8
0
  6
Continuous
 62
     7
370
     0
100
AcDbLine
 10
516.1744049174
 20
41.7197415391
 30
0.0
 11
516.1744049174
 21
35.9311529971
 31
0.0
  0
LINE
  5
4A
330
1F
100
AcDbEntity
  8
0
  6
Continuous
 62
     7
370
     0
100
AcDbLine
 10
518.7471108326
 20
41.7197415391
 30
0.0
 11
516.1744049174
 21
41.7197415391
 31
0.0
  0
LINE
  5
4B
330
1F
100
AcDbEntity
  8
0
  6
Continuous
 62
     7
370
     0
100
AcDbLine
 10
518.7471108326
 20
41.7197415391
 30
0.0
 11
518.7471108326
 21
34.6448003188
 31
0.0
  0
LINE
  5
4C
330
1F
100
AcDbEntity
  8
0
  6
Continuous
 62
     7
370
     0
100
AcDbLine
 10
514.4056697985
 20
34.6448003188
 30
0.0
 11
518.7471108326
 21
34.6448003188
 31
0.0
  0
LINE
  5
4D
330
1F
100
AcDbEntity
  8
0
  6
Continuous
 62
     7
370
     0
100
AcDbLine
 10
514.4056697985
 20
34.6448003188
 30
0.0
 11
514.4056697985
 21
33.0368590985
 31
0.0
  0
LINE
  5
4E
330
1F
100
AcDbEntity
  8
0
  6
Continuous
 62
     7
370
     0
100
AcDbLine
 10
507.8131108326
 20
33.0368590985
 30
0.0
 11
514.4056697985
 21
33.0368590985
 31
0.0
  0
LINE
  5
4F
330
1F
100
AcDbEntity
  8
0
  6
Continuous
 62
     7
370
     0
100
AcDbLine
 10
507.8131108326
 20
41.7197415391
 30
0.0
 11
507.8131108326
 21
33.0368590985
 31
0.0
  0
LINE
  5
50
330
1F
100
AcDbEntity
  8
0
  6
Continuous
 62
     7
370
     0
100
AcDbLine
 10
512.154552146
 20
41.7197415391
 30
0.0
 11
512.154552146
 21
34.6448003188
 31
0.0
  0
LINE
  5
51
330
1F
100
AcDbEntity
  8
0
  6
Continuous
 62
     7
370
     0
100
AcDbLine
 10
510.3858167478
 20
41.7197415391
 30
0.0
 11
510.3858167478
 21
34.6448003188
 31
0.0
  0
LINE
  5
52
330
1F
100
AcDbEntity
  8
0
  6
Continuous
 62
     7
370
     0
100
AcDbLine
 10
512.154552146
 20
34.6448003188
 30
0.0
 11
510.3858167478
 21
34.6448003188
 31
0.0
  0
LINE
  5
53
330
1F
100
AcDbEntity
  8
0
  6
Continuous
 62
     7
370
     0
100
AcDbLine
 10
510.3858167478
 20
41.7197415391
 30
0.0
 11
507.8131108326
 21
41.7197415391
 31
0.0
  0
LINE
  5
54
330
1F
100
AcDbEntity
  8
0
  6
Continuous
 62
     7
370
     0
100
AcDbLine
 10
411.885
 20
12.74475
 30
0.0
 11
411.885
 21
43.98475
 31
0.0
  0
LINE
  5
55
330
1F
100
AcDbEntity
  8
0
  6
Continuous
 62
     7
370
    30
100
AcDbLine
 10
28.485
 20
12.74475
 30
0.0
 11
578.735
 21
12.74475
 31
0.0
  0
LINE
  5
56
330
1F
100
AcDbEntity
  8
0
  6
Continuous
 62
     7
370
    30
100
AcDbLine
 10
28.485
 20
406.08475
 30
0.0
 11
28.485
 21
12.74475
 31
0.0
  0
LINE
  5
57
330
1F
100
AcDbEntity
  8
0
  6
Continuous
 62
     7
370
    30
100
AcDbLine
 10
28.485
 20
43.98475
 30
0.0
 11
194.625
 21
43.98475
 31
0.0
  0
LINE
  5
58
330
1F
100
AcDbEntity
  8
0
  6
Continuous
 62
     7
370
    30
100
AcDbLine
 10
578.735
 20
406.08475
 30
0.0
 11
578.735
 21
12.74475
 31
0.0
  0
LINE
  5
59
330
1F
100
AcDbEntity
  8
0
  6
Continuous
 62
     7
370
    30
100
AcDbLine
 10
194.625
 20
43.98475
 30
0.0
 11
578.735
 21
43.98475
 31
0.0
  0
LINE
  5
5A
330
1F
100
AcDbEntity
  8
0
  6
Continuous
 62
     7
370
    30
100
AcDbLine
 10
28.485
 20
406.08475
 30
0.0
 11
578.735
 21
406.08475
 31
0.0
  0
LINE
  5
5B
330
1F
100
AcDbEntity
  8
0
  6
Continuous
 62
     7
370
     0
100
AcDbLine
 10
36.295
 20
28.36475
 30
0.0
 11
194.625
 21
28.36475
 31
0.0
  0
LINE
  5
5C
330
1F
100
AcDbEntity
  8
0
  6
Continuous
 62
     7
370
     0
100
AcDbLine
 10
68.955
 20
43.98475
 30
0.0
 11
68.955
 21
12.74475
 31
0.0
  0
LINE
  5
5D
330
1F
100
AcDbEntity
  8
0
  6
Continuous
 62
     7
370
     0
100
AcDbLine
 10
36.295
 20
36.17475
 30
0.0
 11
194.625
 21
36.17475
 31
0.0
  0
LINE
  5
5E
330
1F
100
AcDbEntity
  8
0
  6
Continuous
 62
     7
370
     0
100
AcDbLine
 10
47.655
 20
43.98475
 30
0.0
 11
47.655
 21
12.74475
 31
0.0
  0
LINE
  5
5F
330
1F
100
AcDbEntity
  8
0
  6
Continuous
 62
     7
370
     0
100
AcDbLine
 10
36.295
 20
43.98475
 30
0.0
 11
36.295
 21
12.74475
 31
0.0
  0
LINE
  5
60
330
1F
100
AcDbEntity
  8
0
  6
Continuous
 62
     7
370
     0
100
AcDbLine
 10
36.295
 20
20.55475
 30
0.0
 11
194.625
 21
20.55475
 31
0.0
  0
LINE
  5
61
330
1F
100
AcDbEntity
  8
0
  6
Continuous
 62
     7
370
     0
100
AcDbLine
 10
286.925
 20
43.98475
 30
0.0
 11
286.925
 21
12.74475
 31
0.0
  0
LINE
  5
62
330
1F
100
AcDbEntity
  8
0
  6
Continuous
 62
     7
370
     0
100
AcDbLine
 10
279.825
 20
43.98475
 30
0.0
 11
279.825
 21
12.74475
 31
0.0
  0
LINE
  5
63
330
1F
100
AcDbEntity
  8
0
  6
Continuous
 62
     7
370
     0
100
AcDbLine
 10
201.725
 20
43.98475
 30
0.0
 11
201.725
 21
12.74475
 31
0.0
  0
LINE
  5
64
330
1F
100
AcDbEntity
  8
0
  6
Continuous
 62
     7
370
     0
100
AcDbLine
 10
194.625
 20
43.98475
 30
0.0
 11
194.625
 21
28.36475
 31
0.0
  0
LINE
  5
65
330
1F
100
AcDbEntity
  8
0
  6
Continuous
 62
     7
370
     0
100
AcDbLine
 10
83.155
 20
43.98475
 30
0.0
 11
83.155
 21
12.74475
 31
0.0
  0
LINE
  5
66
330
1F
100
AcDbEntity
  8
0
  6
Continuous
 62
     7
370
     0
100
AcDbLine
 10
326.685
 20
43.98475
 30
0.0
 11
326.685
 21
28.36475
 31
0.0
  0
LINE
  5
67
330
1F
100
AcDbEntity
  8
0
  6
Continuous
 62
     7
370
     0
100
AcDbLine
 10
333.785
 20
43.98475
 30
0.0
 11
333.785
 21
28.36475
 31
0.0
  0
LINE
  5
68
330
1F
100
AcDbEntity
  8
0
  6
Continuous
 62
     7
370
     0
100
AcDbLine
 10
355.085
 20
43.98475
 30
0.0
 11
355.085
 21
28.36475
 31
0.0
  0
LINE
  5
69
330
1F
100
AcDbEntity
  8
0
  6
Continuous
 62
     7
370
     0
100
AcDbLine
 10
362.185
 20
43.98475
 30
0.0
 11
362.185
 21
28.36475
 31
0.0
  0
LINE
  5
6A
330
1F
100
AcDbEntity
  8
0
  6
Continuous
 62
     7
370
     0
100
AcDbLine
 10
418.985
 20
43.98475
 30
0.0
 11
418.985
 21
28.36475
 31
0.0
  0
LINE
  5
6B
330
1F
100
AcDbEntity
  8
0
  6
Continuous
 62
     7
370
     0
100
AcDbLine
 10
440.285
 20
43.98475
 30
0.0
 11
440.285
 21
12.74475
 31
0.0
  0
LINE
  5
6C
330
1F
100
AcDbEntity
  8
0
  6
Continuous
 62
     7
370
     0
100
AcDbLine
 10
461.585
 20
43.98475
 30
0.0
 11
461.585
 21
12.74475
 31
0.0
  0
LINE
  5
6D
330
1F
100
AcDbEntity
  8
0
  6
Continuous
 62
     7
370
     0
100
AcDbLine
 10
482.885
 20
43.98475
 30
0.0
 11
482.885
 21
12.74475
 31
0.0
  0
LINE
  5
6E
330
1F
100
AcDbEntity
  8
0
  6
Continuous
 62
     7
370
     0
100
AcDbLine
 10
504.185
 20
43.98475
 30
0.0
 11
504.185
 21
12.74475
 31
0.0
  0
LINE
  5
6F
330
1F
100
AcDbEntity
  8
0
  6
Continuous
 62
     7
370
     0
100
AcDbLine
 10
504.185
 20
28.36475
 30
0.0
 11
578.735
 21
28.36475
 31
0.0
  0
LINE
  5
70
330
1F
100
AcDbEntity
  8
0
  6
Continuous
 62
     7
370
     0
100
AcDbLine
 10
511.285
 20
28.36475
 30
0.0
 11
511.285
 21
12.74475
 31
0.0
  0
LINE
  5
71
330
1F
100
AcDbEntity
  8
0
  6
Continuous
 62
     7
370
     0
100
AcDbLine
 10
440.285
 20
36.88475
 30
0.0
 11
504.185
 21
36.88475
 31
0.0
  0
LINE
  5
72
330
1F
100
AcDbEntity
  8
0
  6
Continuous
 62
     7
370
     0
100
AcDbLine
 10
194.625
 20
28.36475
 30
0.0
 11
440.285
 21
28.36475
 31
0.0
  0
LINE
  5
73
330
1F
100
AcDbEntity
  8
0
  6
Continuous
 62
     7
370
     0
100
AcDbLine
 10
194.625
 20
28.36475
 30
0.0
 11
194.625
 21
12.74475
 31
0.0
  0
LINE
  5
74
330
1F
100
AcDbEntity
  8
0
  6
Continuous
 62
     7
370
     0
100
AcDbLine
 10
41.3873265892
 20
27.1115576482
 30
0.0
 11
38.3373265892
 21
21.8288026851
 31
0.0
  0
LINE
  5
75
330
1F
100
AcDbEntity
  8
0
  6
Continuous
 62
     7
370
     0
100
AcDbLine
 10
38.3373265892
 20
21.8288026851
 30
0.0
 11
44.4373265892
 21
21.8288026851
 31
0.0
  0
LINE
  5
76
330
1F
100
AcDbEntity
  8
0
  6
Continuous
 62
     7
370
     0
100
AcDbLine
 10
44.4373265892
 20
21.8288026851
 30
0.0
 11
41.3873265892
 21
27.1115576482
 31
0.0
  0
LINE
  5
77
330
1F
100
AcDbEntity
  8
0
  6
Continuous
 62
     7
370
     0
100
AcDbLine
 10
41.3440309427
 20
34.5208790554
 30
0.0
 11
38.2940309427
 21
29.2381240923
 31
0.0
  0
LINE
  5
78
330
1F
100
AcDbEntity
  8
0
  6
Continuous
 62
     7
370
     0
100
AcDbLine
 10
38.2940309427
 20
29.2381240923
 30
0.0
 11
44.3940309427
 21
29.2381240923
 31
0.0
  0
LINE
  5
79
330
1F
100
AcDbEntity
  8
0
  6
Continuous
 62
     7
370
     0
100
AcDbLine
 10
44.3940309427
 20
29.2381240923
 30
0.0
 11
41.3440309427
 21
34.5208790554
 31
0.0
  0
LINE
  5
7A
330
1F
100
AcDbEntity
  8
0
  6
Continuous
 62
     7
370
     0
100
AcDbLine
 10
41.1834490337
 20
42.881404091
 30
0.0
 11
38.1334490337
 21
37.5986491279
 31
0.0
  0
LINE
  5
7B
330
1F
100
AcDbEntity
  8
0
  6
Continuous
 62
     7
370
     0
100
AcDbLine
 10
38.1334490337
 20
37.5986491279
 30
0.0
 11
44.2334490337
 21
37.5986491279
 31
0.0
  0
LINE
  5
7C
330
1F
100
AcDbEntity
  8
0
  6
Continuous
 62
     7
370
     0
100
AcDbLine
 10
44.2334490337
 20
37.5986491279
 30
0.0
 11
41.1834490337
 21
42.881404091
 31
0.0
  0
LINE
  5
7D
330
1F
100
AcDbEntity
  8
0
  6
Continuous
 62
     7
370
     0
100
AcDbLine
 10
173.325
 20
43.98475
 30
0.0
 11
173.325
 21
12.74475
 31
0.0
  0
LINE
  5
7E
330
1F
100
AcDbEntity
  8
0
  6
PHANTOM
 62
     7
370
     0
100
AcDbLine
 10
336.2309146319
 20
12.74475
 30
0.0
 11
411.885
 21
12.74475
 31
0.0
  0
MTEXT
  5
80
330
1F
100
AcDbEntity
  8
0
  6
Continuous
 62
     7
370
     0
100
AcDbMText
 10
507.9479548839
 20
32.818243896
 30
0.0
 40
3.175
 41
0.0
 71
     1
 72
     1
  1
WEST
  7
SLDTEXTSTYLE0
 73
     1
 44
1.0
  0
MTEXT
  5
81
330
1F
100
AcDbEntity
  8
0
  6
Continuous
 62
     7
370
     0
100
AcDbMText
 10
493.4445741767
 20
42.6793073721
 30
0.0
 40
3.5
 41
0.0
 71
     2
 72
     1
  1
承　認
  7
SLDTEXTSTYLE0
 73
     1
 44
1.0
  0
MTEXT
  5
82
330
1F
100
AcDbEntity
  8
0
  6
Continuous
 62
     7
370
     0
100
AcDbMText
 10
125.9884103284
 20
18.6128698158
 30
0.0
 40
3.175
 41
0.0
 71
     2
 72
     1
  1
変　更　内　容
  7
SLDTEXTSTYLE0
 73
     1
 44
1.0
  0
MTEXT
  5
83
330
1F
100
AcDbEntity
  8
0
  6
Continuous
 62
     7
370
     0
100
AcDbMText
 10
523.2755439048
 20
37.8524627542
 30
0.0
 40
3.175
 41
0.0
 71
     1
 72
     1
  1
株式会社
  7
SLDTEXTSTYLE0
 73
     1
 44
1.0
  0
MTEXT
  5
84
330
1F
100
AcDbEntity
  8
0
  6
Continuous
 62
     7
370
     0
100
AcDbMText
 10
512.6464246925
 20
23.5062717172
 30
0.0
 40
4.7625
 41
0.0
 71
     1
 72
     1
  1
No.
  7
SLDTEXTSTYLE0
 73
     1
 44
1.0
  0
MTEXT
  5
86
330
1F
100
AcDbEntity
  8
0
  6
Continuous
 62
     7
370
     0
100
AcDbMText
 10
507.691505191
 20
20.6119976916
 30
0.0
 40
5.0
 41
0.0
 71
     2
 72
     1
  1
番
  7
SLDTEXTSTYLE1
 73
     1
 44
1.0
  0
MTEXT
  5
87
330
1F
100
AcDbEntity
  8
0
  6
Continuous
 62
     7
370
     0
100
AcDbMText
 10
507.6931360946
 20
27.6142385519
 30
0.0
 40
5.0
 41
0.0
 71
     2
 72
     1
  1
図
  7
SLDTEXTSTYLE1
 73
     1
 44
1.0
  0
MTEXT
  5
88
330
1F
100
AcDbEntity
  8
0
  6
Continuous
 62
     7
370
     0
100
AcDbMText
 10
472.117159956
 20
42.6941085361
 30
0.0
 40
3.5
 41
0.0
 71
     2
 72
     1
  1
照　査
  7
SLDTEXTSTYLE0
 73
     1
 44
1.0
  0
MTEXT
  5
89
330
1F
100
AcDbEntity
  8
0
  6
Continuous
 62
     7
370
     0
100
AcDbMText
 10
450.6301649177
 20
42.6978558296
 30
0.0
 40
3.5
 41
0.0
 71
     2
 72
     1
  1
製図・設計
  7
SLDTEXTSTYLE0
 73
     1
 44
1.0
  0
MTEXT
  5
8A
330
1F
100
AcDbEntity
  8
0
  6
Continuous
 62
     7
370
     0
100
AcDbMText
 10
424.3690157298
 20
23.1545034727
 30
0.0
 40
4.2333333333
 41
0.0
 71
     2
 72
     1
  1
第三角法
  7
SLDTEXTSTYLE0
 73
     1
 44
1.0
  0
MTEXT
  5
8B
330
1F
100
AcDbEntity
  8
0
  6
Continuous
 62
     7
370
     0
100
AcDbMText
 10
415.4049426978
 20
35.7356443871
 30
0.0
 40
5.0
 41
0.0
 71
     2
 72
     1
  1
度
  7
SLDTEXTSTYLE1
 73
     1
 44
1.0
  0
MTEXT
  5
8C
330
1F
100
AcDbEntity
  8
0
  6
Continuous
 62
     7
370
     0
100
AcDbMText
 10
415.3988872359
 20
42.9874280589
 30
0.0
 40
5.0
 41
0.0
 71
     2
 72
     1
  1
尺
  7
SLDTEXTSTYLE1
 73
     1
 44
1.0
  0
MTEXT
  5
8D
330
1F
100
AcDbEntity
  8
0
  6
Continuous
 62
     7
370
     0
100
AcDbMText
 10
358.619285814
 20
35.7356443871
 30
0.0
 40
5.0
 41
0.0
 71
     2
 72
     1
  1
考
  7
SLDTEXTSTYLE1
 73
     1
 44
1.0
  0
MTEXT
  5
8E
330
1F
100
AcDbEntity
  8
0
  6
Continuous
 62
     7
370
     0
100
AcDbMText
 10
358.628599635
 20
43.0430857308
 30
0.0
 40
5.0
 41
0.0
 71
     2
 72
     1
  1
備
  7
SLDTEXTSTYLE1
 73
     1
 44
1.0
  0
INSERT
  5
94
330
1F
100
AcDbEntity
  8
0
  6
Continuous
 62
     7
370
     0
100
AcDbBlockReference
  2
SW_NOTE_0
 10
328.4703104849
 20
36.5977470319
 30
0.0
  0
MTEXT
  5
95
330
1F
100
AcDbEntity
  8
0
  6
Continuous
 62
     7
370
     0
100
AcDbMText
 10
198.1440753894
 20
20.4327553806
 30
0.0
 40
5.0
 41
0.0
 71
     2
 72
     1
  1
名
  7
SLDTEXTSTYLE1
 73
     1
 44
1.0
  0
MTEXT
  5
96
330
1F
100
AcDbEntity
  8
0
  6
Continuous
 62
     7
370
     0
100
AcDbMText
 10
198.1320619996
 20
27.6608824432
 30
0.0
 40
5.0
 41
0.0
 71
     2
 72
     1
  1
品
  7
SLDTEXTSTYLE1
 73
     1
 44
1.0
  0
MTEXT
  5
97
330
1F
100
AcDbEntity
  8
0
  6
Continuous
 62
     7
370
     0
100
AcDbMText
 10
198.2123212372
 20
35.5896742048
 30
0.0
 40
5.0
 41
0.0
 71
     2
 72
     1
  1
称
  7
SLDTEXTSTYLE1
 73
     1
 44
1.0
  0
MTEXT
  5
98
330
1F
100
AcDbEntity
  8
0
  6
Continuous
 62
     7
370
     0
100
AcDbMText
 10
198.2123212372
 20
43.1340685825
 30
0.0
 40
5.0
 41
0.0
 71
     2
 72
     1
  1
名
  7
SLDTEXTSTYLE1
 73
     1
 44
1.0
  0
MTEXT
  5
99
330
1F
100
AcDbEntity
  8
0
  6
Continuous
 62
     7
370
     0
100
AcDbMText
 10
203.8600144351
 20
23.957538282
 30
0.0
 40
4.97
 41
0.0
 71
     1
 72
     1
  1
47M
  7
SLDTEXTSTYLE0
 73
     1
 44
1.0
  0
MTEXT
  5
9A
330
1F
100
AcDbEntity
  8
0
  6
Continuous
 62
     7
370
     0
100
AcDbMText
 10
203.8307925724
 20
39.6346006556
 30
0.0
 40
4.97
 41
0.0
 71
     1
 72
     1
  1
承認図
  7
SLDTEXTSTYLE0
 73
     1
 44
1.0
  0
MTEXT
  5
9B
330
1F
100
AcDbEntity
  8
0
  6
Continuous
 62
     7
370
     0
100
AcDbMText
 10
32.3550720809
 20
27.9256443871
 30
0.0
 40
5.0
 41
0.0
 71
     2
 72
     1
  1
訂
  7
SLDTEXTSTYLE1
 73
     1
 44
1.0
  0
MTEXT
  5
9C
330
1F
100
AcDbEntity
  8
0
  6
Continuous
 62
     7
370
     0
100
AcDbMText
 10
32.3790512499
 20
35.6009477676
 30
0.0
 40
5.0
 41
0.0
 71
     2
 72
     1
  1
改
  7
SLDTEXTSTYLE1
 73
     1
 44
1.0
  0
MTEXT
  5
9D
330
1F
100
AcDbEntity
  8
0
  6
Continuous
 62
     7
370
     0
100
AcDbMText
 10
283.3215098364
 20
20.3532404958
 30
0.0
 40
5.0
 41
0.0
 71
     2
 72
     1
  1
番
  7
SLDTEXTSTYLE1
 73
     1
 44
1.0
  0
MTEXT
  5
9E
330
1F
100
AcDbEntity
  8
0
  6
Continuous
 62
     7
370
     0
100
AcDbMText
 10
283.4123212372
 20
35.5896742048
 30
0.0
 40
5.0
 41
0.0
 71
     2
 72
     1
  1
質
  7
SLDTEXTSTYLE1
 73
     1
 44
1.0
  0
MTEXT
  5
9F
330
1F
100
AcDbEntity
  8
0
  6
Continuous
 62
     7
370
     0
100
AcDbMText
 10
283.3215098364
 20
27.5197277997
 30
0.0
 40
5.0
 41
0.0
 71
     2
 72
     1
  1
工
  7
SLDTEXTSTYLE1
 73
     1
 44
1.0
  0
MTEXT
  5
A0
330
1F
100
AcDbEntity
  8
0
  6
Continuous
 62
     7
370
     0
100
AcDbMText
 10
283.4123212372
 20
43.1340685825
 30
0.0
 40
5.0
 41
0.0
 71
     2
 72
     1
  1
材
  7
SLDTEXTSTYLE1
 73
     1
 44
1.0
  0
INSERT
  5
A6
330
1F
100
AcDbEntity
  8
0
  6
Continuous
 62
     7
370
     0
100
AcDbBlockReference
  2
SW_NOTE_1
 10
177.6539276263
 20
14.493624207
 30
0.0
  0
MTEXT
  5
A7
330
1F
100
AcDbEntity
  8
0
  6
Continuous
 62
     7
370
     0
100
AcDbMText
 10
75.0865571772
 20
18.6119939996
 30
0.0
 40
3.175
 41
0.0
 71
     2
 72
     1
  1
担当者
  7
SLDTEXTSTYLE0
 73
     1
 44
1.0
  0
MTEXT
  5
A8
330
1F
100
AcDbEntity
  8
0
  6
Continuous
 62
     7
370
     0
100
AcDbMText
 10
57.6918170491
 20
18.7623133523
 30
0.0
 40
3.175
 41
0.0
 71
     2
 72
     1
  1
日付
  7
SLDTEXTSTYLE0
 73
     1
 44
1.0
  0
MTEXT
  5
A9
330
1F
100
AcDbEntity
  8
0
  6
Continuous
 62
     7
370
     0
100
AcDbMText
 10
41.334788252
 20
18.5655606085
 30
0.0
 40
3.175
 41
0.0
 71
     2
 72
     1
  1
記号
  7
SLDTEXTSTYLE0
 73
     1
 44
1.0
  0
MTEXT
  5
AA
330
1F
100
AcDbEntity
  8
0
  6
Continuous
 62
     7
370
     0
100
AcDbMText
 10
602.2331314714
 20
25.578852958
 30
0.0
 40
7.9375
 41
0.0
 71
     1
 72
     1
  1
A2
  7
SLDTEXTSTYLE0
 73
     1
 44
1.0
  0
MTEXT
  5
AB
330
1F
100
AcDbEntity
  8
0
  6
Continuous
 62
     7
370
     0
100
AcDbMText
 10
543.830377653
 20
39.649472273
 30
0.0
 40
5.8208333333
 41
0.0
 71
     1
 72
     1
  1
WESTinx
  7
SLDTEXTSTYLE0
 73
     1
 44
1.0
  0
MTEXT
  5
AC
330
1F
100
AcDbEntity
  8
0
  6
Continuous
 62
     7
370
     0
100
AcDbMText
 10
575.1964095932
 20
12.0781985141
 30
0.0
 40
2.6458333333
 41
0.0
 71
     1
 72
     1
  1
A2
  7
SLDTEXTSTYLE0
 73
     1
 44
1.0
  0
MTEXT
  5
AD
330
1F
100
AcDbEntity
  8
0
  6
Continuous
 62
     7
370
     0
100
AcDbMText
 10
424.1197137722
 20
39.264829135
 30
0.0
 40
4.7625
 41
0.0
 71
     1
 72
     1
  1
1/1
  7
SLDTEXTSTYLE0
 73
     1
 44
1.0
  0
ARC
  5
AE
330
1F
100
AcDbEntity
  8
0
  6
Continuous
 62
     7
370
    15
100
AcDbCircle
 10
138.6736430972
 20
238.8341875203
 30
0.0
 40
110.0000000000001
100
AcDbArc
 50
98.4408894413
 51
105.2500804222
  0
ARC
  5
AF
330
1F
100
AcDbEntity
  8
0
  6
Continuous
 62
     7
370
    15
100
AcDbCircle
 10
138.6736430972
 20
238.8341875203
 30
0.0
 40
130.0
100
AcDbArc
 50
89.9999208951
 51
105.2500804222
  0
ARC
  5
B0
330
1F
100
AcDbEntity
  8
0
  6
Continuous
 62
     7
370
    15
100
AcDbCircle
 10
138.6736430972
 20
238.8341875203
 30
0.0
 40
110.0
100
AcDbArc
 50
74.7499195778
 51
81.5586815015
  0
ARC
  5
B1
330
1F
100
AcDbEntity
  8
0
  6
Continuous
 62
     7
370
    15
100
AcDbCircle
 10
138.6736430972
 20
238.8341875203
 30
0.0
 40
130.0
100
AcDbArc
 50
74.7499195778
 51
89.9999208951
  0
ARC
  5
B2
330
1F
100
AcDbEntity
  8
0
  6
Continuous
 62
     7
370
    15
100
AcDbCircle
 10
123.6807866833
 20
293.8270439341
 30
0.0
 40
52.99999999999999
100
AcDbArc
 50
105.2500804222
 51
164.7499195778
  0
ARC
  5
B3
330
1F
100
AcDbEntity
  8
0
  6
Continuous
 62
     7
370
    15
100
AcDbCircle
 10
123.6807866833
 20
293.8270439341
 30
0.0
 40
73.0
100
AcDbArc
 50
105.2500804222
 51
164.7499195778
  0
ARC
  5
B4
330
1F
100
AcDbEntity
  8
0
  6
Continuous
 62
     7
370
    15
100
AcDbCircle
 10
178.6736430972
 20
278.8341875203
 30
0.0
 40
110.0
100
AcDbArc
 50
180.0
 51
195.2500804222
  0
ARC
  5
B5
330
1F
100
AcDbEntity
  8
0
  6
Continuous
 62
     7
370
    15
100
AcDbCircle
 10
178.6736430972
 20
278.8341875203
 30
0.0
 40
110.0
100
AcDbArc
 50
164.7499195778
 51
180.0
  0
ARC
  5
B6
330
1F
100
AcDbEntity
  8
0
  6
Continuous
 62
     7
370
    15
100
AcDbCircle
 10
178.6736430972
 20
278.8341875203
 30
0.0
 40
130.0
100
AcDbArc
 50
164.7499195778
 51
195.2500804222
  0
ARC
  5
B7
330
1F
100
AcDbEntity
  8
0
  6
Continuous
 62
     7
370
    15
100
AcDbCircle
 10
123.6807866833
 20
263.8413311064
 30
0.0
 40
53.00000000000001
100
AcDbArc
 50
195.2500804222
 51
254.7499195778
  0
ARC
  5
B8
330
1F
100
AcDbEntity
  8
0
  6
Continuous
 62
     7
370
    15
100
AcDbCircle
 10
123.6807866833
 20
263.8413311064
 30
0.0
 40
72.99999999999999
100
AcDbArc
 50
195.2500804222
 51
254.7499195778
  0
ARC
  5
B9
330
1F
100
AcDbEntity
  8
0
  6
Continuous
 62
     7
370
    15
100
AcDbCircle
 10
98.6736430972
 20
278.8341875203
 30
0.0
 40
110.0
100
AcDbArc
 50
344.7499195778
 51
15.2500804222
  0
ARC
  5
BA
330
1F
100
AcDbEntity
  8
0
  6
Continuous
 62
     7
370
    15
100
AcDbCircle
 10
98.6736430972
 20
278.8341875203
 30
0.0
 40
130.0
100
AcDbArc
 50
344.7499195778
 51
0.0
  0
ARC
  5
BB
330
1F
100
AcDbEntity
  8
0
  6
Continuous
 62
     7
370
    15
100
AcDbCircle
 10
98.6736430972
 20
278.8341875203
 30
0.0
 40
130.0
100
AcDbArc
 50
0.0
 51
15.2500804222
  0
ARC
  5
BC
330
1F
100
AcDbEntity
  8
0
  6
Continuous
 62
     7
370
    15
100
AcDbCircle
 10
153.666499511
 20
293.8270439341
 30
0.0
 40
53.00000000000005
100
AcDbArc
 50
15.2500804222
 51
74.7499195778
  0
ARC
  5
BD
330
1F
100
AcDbEntity
  8
0
  6
Continuous
 62
     7
370
    15
100
AcDbCircle
 10
153.666499511
 20
293.8270439341
 30
0.0
 40
73.00000000000001
100
AcDbArc
 50
15.2500804222
 51
74.7499195778
  0
ARC
  5
BE
330
1F
100
AcDbEntity
  8
0
  6
Continuous
 62
     7
370
    15
100
AcDbCircle
 10
153.666499511
 20
263.8413311064
 30
0.0
 40
53.00000000000002
100
AcDbArc
 50
285.2500804222
 51
344.7499195778
  0
ARC
  5
BF
330
1F
100
AcDbEntity
  8
0
  6
Continuous
 62
     7
370
    15
100
AcDbCircle
 10
153.666499511
 20
263.8413311064
 30
0.0
 40
73.00000000000003
100
AcDbArc
 50
285.2500804222
 51
344.7499195778
  0
ARC
  5
C0
330
1F
100
AcDbEntity
  8
0
  6
Continuous
 62
     7
370
    15
100
AcDbCircle
 10
138.6736430972
 20
318.8341875203
 30
0.0
 40
110.0
100
AcDbArc
 50
254.7499195778
 51
285.2500804222
  0
ARC
  5
C1
330
1F
100
AcDbEntity
  8
0
  6
Continuous
 62
     7
370
    15
100
AcDbCircle
 10
138.6736430972
 20
318.8341875203
 30
0.0
 40
130.0
100
AcDbArc
 50
254.7499195778
 51
285.2500804222
  0
SPLINE
  5
C2
330
1F
100
AcDbEntity
  8
0
  6
Continuous
 62
     7
370
    15
100
AcDbSpline
210
0.0
220
0.0
230
1.0
 70
     8
 71
     3
 72
    10
 73
     6
 74
     0
 42
0.00000001
 43
0.00000001
 40
0.0
 40
0.0
 40
0.0
 40
0.0
 40
0.2905868961944888
 40
0.9016600872157472
 40
0.9999999999999999
 40
0.9999999999999999
 40
0.9999999999999999
 40
0.9999999999999999
 10
131.8002012371053
 20
348.6192306630056
 30
0.0
 10
132.4645800201912
 20
348.6578012474928
 30
0.0
 10
134.5260763895961
 20
348.7774816495623
 30
0.0
 10
136.8204075986607
 20
348.8414023216259
 30
0.0
 10
138.4480208914482
 20
348.8450519624181
 30
0.0
 10
138.673643097185
 20
348.845557881121
 30
0.0
  0
ARC
  5
C3
330
1F
100
AcDbEntity
  8
0
  6
Continuous
 62
     7
370
    15
100
AcDbCircle
 10
138.6736430972
 20
238.8341875203
 30
0.0
 40
110.0
100
AcDbArc
 50
93.5825085073
 51
98.4408894413
  0
ARC
  5
C4
330
1F
100
AcDbEntity
  8
0
  6
Continuous
 62
     7
370
    15
100
AcDbCircle
 10
138.6736430972
 20
238.8341875203
 30
0.0
 40
110.0000000000001
100
AcDbArc
 50
81.5591105587
 51
86.4174914927
  0
SPLINE
  5
C5
330
1F
100
AcDbEntity
  8
0
  6
Continuous
 62
     7
370
    15
100
AcDbSpline
210
0.0
220
0.0
230
1.0
 70
     8
 71
     3
 72
     9
 73
     5
 74
     0
 42
0.00000001
 43
0.00000001
 40
0.0
 40
0.0
 40
0.0
 40
0.0
 40
0.2906099278608819
 40
1.0
 40
1.0
 40
1.0
 40
1.0
 10
138.673643097185
 20
348.845557881121
 30
0.0
 10
139.3404811468838
 20
348.8419539268338
 30
0.0
 10
141.6350966633158
 20
348.8295525807624
 30
0.0
 10
143.9236253951187
 20
348.7065134212489
 30
0.0
 10
145.5470849572648
 20
348.6192306630056
 30
0.0
  0
SPLINE
  5
C6
330
1F
100
AcDbEntity
  8
0
  6
Continuous
 62
     7
370
    15
100
AcDbSpline
210
0.0
220
0.0
230
1.0
 70
     8
 71
     3
 72
    10
 73
     6
 74
     0
 42
0.00000001
 43
0.00000001
 40
0.0
 40
0.0
 40
0.0
 40
0.0
 40
0.0048804291452947
 40
0.4920612149300193
 40
1.0
 40
1.0
 40
1.0
 40
1.0
 10
122.5268547235955
 20
347.6426486052316
 30
0.0
 10
122.5290840445545
 20
347.6429795199847
 30
0.0
 10
122.753851651434
 20
347.6763434539004
 30
0.0
 10
123.2270808610182
 20
347.7450900322168
 30
0.0
 10
123.633391215302
 20
347.8009993292645
 30
0.0
 10
123.8407841696371
 20
347.8295371062796
 30
0.0
  0
SPLINE
  5
C7
330
1F
100
AcDbEntity
  8
0
  6
Continuous
 62
     7
370
    15
100
AcDbSpline
210
0.0
220
0.0
230
1.0
 70
     8
 71
     3
 72
    12
 73
     8
 74
     0
 42
0.00000001
 43
0.00000001
 40
0.0
 40
0.0
 40
0.0
 40
0.0
 40
0.1054006853529564
 40
0.5080562064989002
 40
0.9383004220121209
 40
0.9951207399298877
 40
0.9999999999999999
 40
0.9999999999999999
 40
0.9999999999999999
 40
0.9999999999999999
 10
153.506502024733
 20
347.8295371062796
 30
0.0
 10
153.5475802319464
 20
347.8239327008566
 30
0.0
 10
153.7455868962936
 20
347.7969181425606
 30
0.0
 10
154.1511914236658
 20
347.7403546560398
 30
0.0
 10
154.5643560912932
 20
347.680543852244
 30
0.0
 10
154.7900113103095
 20
347.6471641830407
 30
0.0
 10
154.8182021156429
 20
347.6429795313807
 30
0.0
 10
154.8204314707745
 20
347.6426486052316
 30
0.0
  0
LINE
  5
C8
330
1F
100
AcDbEntity
  8
0
  6
Continuous
 62
     7
370
    15
100
AcDbLine
 10
123.6736434325
 20
333.3341876171
 30
0.0
 11
123.6736434325
 21
347.8066610299
 31
0.0
  0
LINE
  5
C9
330
1F
100
AcDbEntity
  8
0
  6
Continuous
 62
     7
370
    15
100
AcDbLine
 10
153.6736427619
 20
347.8066610299
 30
0.0
 11
153.6736427619
 21
333.3341876171
 31
0.0
  0
ARC
  5
CA
330
1F
100
AcDbEntity
  8
0
  6
Continuous
 62
     7
370
    15
100
AcDbCircle
 10
146.1736430972
 20
333.3341875203
 30
0.0
 40
7.5
100
AcDbArc
 50
270.0
 51
0.0
  0
ARC
  5
CB
330
1F
100
AcDbEntity
  8
0
  6
Continuous
 62
     7
370
    15
100
AcDbCircle
 10
131.1736430972
 20
333.3341875203
 30
0.0
 40
7.5
100
AcDbArc
 50
180.0
 51
270.0
  0
LINE
  5
CC
330
1F
100
AcDbEntity
  8
0
  6
Continuous
 62
     7
370
    15
100
AcDbLine
 10
146.1736429295
 20
325.8341873191
 30
0.0
 11
131.1736432648
 21
325.8341873191
 31
0.0
  0
POINT
  5
CD
330
1F
100
AcDbEntity
  8
0
  6
Continuous
 62
     7
370
    15
100
AcDbPoint
 10
48.6736430972
 20
278.8341875203
 30
0.0
  0
POINT
  5
CE
330
1F
100
AcDbEntity
  8
0
  6
Continuous
 62
     7
370
    15
100
AcDbPoint
 10
228.6736430972
 20
278.8341875203
 30
0.0
  0
POINT
  5
CF
330
1F
100
AcDbEntity
  8
0
  6
Continuous
 62
     7
370
    15
100
AcDbPoint
 10
138.6736430972
 20
368.8341875203
 30
0.0
  0
POINT
  5
D0
330
1F
100
AcDbEntity
  8
0
  6
Continuous
 62
     7
370
    15
100
AcDbPoint
 10
138.6736430972
 20
188.8341875203
 30
0.0
  0
POINT
  5
D1
330
1F
100
AcDbEntity
  8
0
  6
Continuous
 62
     7
370
    15
100
AcDbPoint
 10
208.6736430972
 20
278.8341875203
 30
0.0
  0
POINT
  5
D2
330
1F
100
AcDbEntity
  8
0
  6
Continuous
 62
     7
370
    15
100
AcDbPoint
 10
68.6736430972
 20
278.8341875203
 30
0.0
  0
POINT
  5
D3
330
1F
100
AcDbEntity
  8
0
  6
Continuous
 62
     7
370
    15
100
AcDbPoint
 10
138.6736430972
 20
348.8455580438
 30
0.0
  0
POINT
  5
D4
330
1F
100
AcDbEntity
  8
0
  6
Continuous
 62
     7
370
    15
100
AcDbPoint
 10
138.6736430972
 20
208.8341875203
 30
0.0
  0
DIMENSION
  5
D5
330
1F
100
AcDbEntity
  8
0
  6
Continuous
 62
     7
370
     0
100
AcDbDimension
  2
*D4
 10
250.6736430972
 20
188.8341875203
 30
0.0
 11
250.6736430972
 21
278.8341875203
 31
0.0
 70
   160
 71
     2
 42
-1.0
  3
SLDDIMSTYLE0
100
AcDbAlignedDimension
 13
138.6736430972
 23
368.8341875203
 33
0.0
 14
138.6736430972
 24
188.8341875203
 34
0.0
 50
90.0
100
AcDbRotatedDimension
  0
DIMENSION
  5
E6
330
1F
100
AcDbEntity
  8
0
  6
Continuous
 62
     7
370
     0
100
AcDbDimension
  2
*D5
 10
48.6736430972
 20
161.1178153262
 30
0.0
 11
138.6736430972
 21
161.1178153262
 31
0.0
 70
   160
 71
     2
 42
-1.0
  3
SLDDIMSTYLE0
100
AcDbAlignedDimension
 13
228.6736430972
 23
278.8341875203
 33
0.0
 14
48.6736430972
 24
278.8341875203
 34
0.0
100
AcDbRotatedDimension
  0
DIMENSION
  5
F0
330
1F
100
AcDbEntity
  8
0
  6
Continuous
 62
     7
370
     0
100
AcDbDimension
  2
*D6
 10
208.6736430972
 20
172.8341875203
 30
0.0
 11
138.6736430972
 21
172.8341875203
 31
0.0
 70
   160
 71
     2
 42
-1.0
  3
SLDDIMSTYLE0
100
AcDbAlignedDimension
 13
68.6736430972
 23
278.8341875203
 33
0.0
 14
208.6736430972
 24
278.8341875203
 34
0.0
100
AcDbRotatedDimension
  0
DIMENSION
  5
FA
330
1F
100
AcDbEntity
  8
0
  6
Continuous
 62
     7
370
     0
100
AcDbDimension
  2
*D7
 10
238.6736430972
 20
348.8455580438
 30
0.0
 11
238.6736430972
 21
278.839872782
 31
0.0
 70
   160
 71
     2
 42
-1.0
  3
SLDDIMSTYLE0
100
AcDbAlignedDimension
 13
138.6736430972
 23
208.8341875203
 33
0.0
 14
138.6736430972
 24
348.8455580438
 34
0.0
 50
90.0
100
AcDbRotatedDimension
  0
DIMENSION
  5
104
330
1F
100
AcDbEntity
  8
0
  6
Continuous
 62
     7
370
     0
100
AcDbDimension
  2
*D8
 10
123.6736430972
 20
305.8634174294
 30
0.0
 11
138.6736430972
 21
305.8634174294
 31
0.0
 70
   160
 71
     2
 42
-1.0
  3
SLDDIMSTYLE0
100
AcDbAlignedDimension
 13
153.6736430972
 23
333.3341875203
 33
0.0
 14
123.6736430972
 24
333.3341875203
 34
0.0
100
AcDbRotatedDimension
  0
LINE
  5
10E
330
1F
100
AcDbEntity
  8
0
  6
CENTERX2
 62
     7
370
     0
100
AcDbLine
 10
138.6736430972
 20
377.6916118546
 30
0.0
 11
138.6736430972
 21
178.6241072207
 31
0.0
  0
LINE
  5
10F
330
1F
100
AcDbEntity
  8
0
  6
Continuous
 62
     7
370
    15
100
AcDbLine
 10
351.9485098401
 20
332.3341874532
 30
0.0
 11
355.4126116538
 21
334.3341875482
 31
0.0
  0
LINE
  5
110
330
1F
100
AcDbEntity
  8
0
  6
Continuous
 62
     7
370
    15
100
AcDbLine
 10
355.4126116538
 20
334.3341875482
 30
0.0
 11
351.9485098401
 21
336.3341875268
 31
0.0
  0
LINE
  5
111
330
1F
100
AcDbEntity
  8
0
  6
Continuous
 62
     7
370
    15
100
AcDbLine
 10
337.9126115793
 20
332.3341874532
 30
0.0
 11
351.9485098401
 21
332.3341874532
 31
0.0
  0
LINE
  5
112
330
1F
100
AcDbEntity
  8
0
  6
Continuous
 62
     7
370
    15
100
AcDbLine
 10
351.9485098401
 20
336.3341875268
 30
0.0
 11
337.9126115793
 21
336.3341875268
 31
0.0
  0
LINE
  5
113
330
1F
100
AcDbEntity
  8
0
  6
Continuous
 62
     7
370
    15
100
AcDbLine
 10
287.9126108342
 20
310.3980958588
 30
0.0
 11
287.9126108342
 21
247.2702801354
 31
0.0
  0
LINE
  5
114
330
1F
100
AcDbEntity
  8
0
  6
Continuous
 62
     7
370
    15
100
AcDbLine
 10
297.9126124734
 20
247.2702801354
 30
0.0
 11
297.9126124734
 21
310.3980958588
 31
0.0
  0
LINE
  5
115
330
1F
100
AcDbEntity
  8
0
  6
Continuous
 62
     7
370
    15
100
AcDbLine
 10
287.9126108342
 20
354.608622951
 30
0.0
 11
287.9126108342
 21
310.3980958588
 31
0.0
  0
LINE
  5
116
330
1F
100
AcDbEntity
  8
0
  6
Continuous
 62
     7
370
    15
100
AcDbLine
 10
297.9126124734
 20
310.3980958588
 30
0.0
 11
297.9126124734
 21
354.608622951
 31
0.0
  0
LINE
  5
117
330
1F
100
AcDbEntity
  8
0
  6
Continuous
 62
     7
370
    15
100
AcDbLine
 10
287.9126108342
 20
247.2702801354
 30
0.0
 11
287.9126108342
 21
203.0597567685
 31
0.0
  0
LINE
  5
118
330
1F
100
AcDbEntity
  8
0
  6
Continuous
 62
     7
370
    15
100
AcDbLine
 10
297.9126124734
 20
203.0597567685
 30
0.0
 11
297.9126124734
 21
247.2702801354
 31
0.0
  0
LINE
  5
119
330
1F
100
AcDbEntity
  8
0
  6
Continuous
 62
     7
370
    15
100
AcDbLine
 10
287.9126108342
 20
358.8341880716
 30
0.0
 11
287.9126108342
 21
354.608622951
 31
0.0
  0
LINE
  5
11A
330
1F
100
AcDbEntity
  8
0
  6
Continuous
 62
     7
370
    15
100
AcDbLine
 10
297.9126124734
 20
354.608622951
 30
0.0
 11
297.9126124734
 21
357.7620066829
 31
0.0
  0
ELLIPSE
  5
11B
330
1F
100
AcDbEntity
  8
0
  6
Continuous
 62
     7
370
    15
100
AcDbEllipse
 10
292.9126115793
 20
198.8341875203
 30
0.0
 11
0.0
 21
9.999999999999972
 31
0.0
210
0.0
220
0.0
230
1.0
 40
0.5
 41
1.570796326794897
 42
4.712388980384694
  0
LINE
  5
11C
330
1F
100
AcDbEntity
  8
0
  6
Continuous
 62
     7
370
    15
100
AcDbLine
 10
287.9126108342
 20
203.0597567685
 30
0.0
 11
287.9126108342
 21
198.8341897852
 31
0.0
  0
LINE
  5
11D
330
1F
100
AcDbEntity
  8
0
  6
Continuous
 62
     7
370
    15
100
AcDbLine
 10
297.9126124734
 20
198.8341897852
 30
0.0
 11
297.9126124734
 21
203.0597567685
 31
0.0
  0
LINE
  5
11E
330
1F
100
AcDbEntity
  8
0
  6
Continuous
 62
     7
370
    15
100
AcDbLine
 10
351.9485098401
 20
332.3341874532
 30
0.0
 11
351.9485098401
 21
336.3341875268
 31
0.0
  0
SPLINE
  5
11F
330
1F
100
AcDbEntity
  8
0
  6
Continuous
 62
     7
370
    15
100
AcDbSpline
210
0.0
220
0.0
230
1.0
 70
     8
 71
     3
 72
     9
 73
     5
 74
     0
 42
0.00000001
 43
0.00000001
 40
0.0
 40
0.0
 40
0.0
 40
0.0
 40
0.1435340875418661
 40
1.0
 40
1.0
 40
1.0
 40
1.0
 10
297.8975548499733
 20
357.7158745504659
 30
0.0
 10
297.9028557205614
 20
357.7984610738527
 30
0.0
 10
297.9397868125333
 20
358.3738402384903
 30
0.0
 10
297.8876045882286
 20
358.9496799202773
 30
0.0
 10
297.8429122918755
 20
359.4428669787686
 30
0.0
  0
SPLINE
  5
120
330
1F
100
AcDbEntity
  8
0
  6
Continuous
 62
     7
370
    15
100
AcDbSpline
210
0.0
220
0.0
230
1.0
 70
     8
 71
     3
 72
    19
 73
    15
 74
     0
 42
0.00000001
 43
0.00000001
 40
0.0
 40
0.0
 40
0.0
 40
0.0
 40
0.0516317548673184
 40
0.211330420991873
 40
0.2793214403416707
 40
0.3384007865435636
 40
0.3896224431060192
 40
0.4360402222641735
 40
0.4824578307725953
 40
0.5336796360371412
 40
0.5927588634216211
 40
0.6607498827714188
 40
0.8204485488959734
 40
1.0
 40
1.0
 40
1.0
 40
1.0
 10
297.7216391914994
 20
361.5715295202773
 30
0.0
 10
297.6628103726784
 20
361.9352563368534
 30
0.0
 10
297.4220221391614
 20
363.4240018089104
 30
0.0
 10
296.8127649008011
 20
365.3543501221509
 30
0.0
 10
295.7658887229867
 20
367.1239963077995
 30
0.0
 10
294.9048000209064
 20
368.0766926455011
 30
0.0
 10
293.9457236248836
 20
368.6878037500157
 30
0.0
 10
292.9126131005233
 20
368.9037787632168
 30
0.0
 10
291.8794885647799
 20
368.6878035486558
 30
0.0
 10
290.9204597506557
 20
368.076688370145
 30
0.0
 10
290.0591513724912
 20
367.1240261664154
 30
0.0
 10
289.0137157806445
 20
365.354134679393
 30
0.0
 10
288.1115019212606
 20
362.5421464545712
 30
0.0
 10
287.9814448267783
 20
360.1174712167143
 30
0.0
 10
287.912610834232
 20
358.8341880716126
 30
0.0
  0
LINE
  5
121
330
1F
100
AcDbEntity
  8
0
  6
Continuous
 62
     7
370
    15
100
AcDbLine
 10
298.2180192226
 20
360.829922942
 30
0.0
 11
337.7186317553
 21
345.9074689202
 31
0.0
  0
LINE
  5
122
330
1F
100
AcDbEntity
  8
0
  6
Continuous
 62
     7
370
    15
100
AcDbLine
 10
337.9126115793
 20
345.6268269695
 30
0.0
 11
337.9126115793
 21
344.8785418771
 31
0.0
  0
ARC
  5
123
330
1F
100
AcDbEntity
  8
0
  6
Continuous
 62
     7
370
    15
100
AcDbCircle
 10
337.6126115793
 20
345.626827161
 30
0.0
 40
0.3000000000000117
100
AcDbArc
 50
0.0
 51
69.3045492659
  0
LINE
  5
124
330
1F
100
AcDbEntity
  8
0
  6
Continuous
 62
     7
370
    15
100
AcDbLine
 10
337.612611565
 20
325.8341873191
 30
0.0
 11
330.4850299933
 21
325.8341873191
 31
0.0
  0
SPLINE
  5
125
330
1F
100
AcDbEntity
  8
0
  6
Continuous
 62
     7
370
    15
100
AcDbSpline
210
0.0
220
0.0
230
1.0
 70
     8
 71
     3
 72
    15
 73
    11
 74
     0
 42
0.00000001
 43
0.00000001
 40
0.0
 40
0.0
 40
0.0
 40
0.0
 40
0.1325463383834619
 40
0.2650301421143518
 40
0.3987927001409318
 40
0.5321426838938912
 40
0.6641340634272099
 40
0.7965979028518085
 40
0.9304245776582657
 40
1.0
 40
1.0
 40
1.0
 40
1.0
 10
330.4850299933464
 20
325.834187319104
 30
0.0
 10
330.4119783076525
 20
325.8378639276315
 30
0.0
 10
330.265909401659
 20
325.8452154100823
 30
0.0
 10
329.849282546543
 20
325.886038411513
 30
0.0
 10
329.3391114920522
 20
325.9188420641668
 30
0.0
 10
328.777276898803
 20
325.9270694356984
 30
0.0
 10
328.2333994161897
 20
325.905176950787
 30
0.0
 10
327.7673283872232
 20
325.866786278369
 30
0.0
 10
327.4738359412099
 20
325.8381957422896
 30
0.0
 10
327.3742553868192
 20
325.8352089700318
 30
0.0
 10
327.3401930087716
 20
325.834187319104
 30
0.0
  0
LINE
  5
126
330
1F
100
AcDbEntity
  8
0
  6
Continuous
 62
     7
370
    15
100
AcDbLine
 10
327.3401930088
 20
325.8341873191
 30
0.0
 11
326.722853733
 21
325.8341873191
 31
0.0
  0
LINE
  5
127
330
1F
100
AcDbEntity
  8
0
  6
Continuous
 62
     7
370
    15
100
AcDbLine
 10
337.9126115793
 20
333.3341876171
 30
0.0
 11
337.9126115793
 21
326.1341877408
 31
0.0
  0
ARC
  5
128
330
1F
100
AcDbEntity
  8
0
  6
Continuous
 62
     7
370
    15
100
AcDbCircle
 10
337.6126115793
 20
326.1341875203
 30
0.0
 40
0.3000000000000114
100
AcDbArc
 50
270.0
 51
0.0
  0
LINE
  5
129
330
1F
100
AcDbEntity
  8
0
  6
Continuous
 62
     7
370
    15
100
AcDbLine
 10
337.9126115793
 20
344.8785418771
 30
0.0
 11
337.9126115793
 21
333.3341876171
 31
0.0
  0
ARC
  5
12A
330
1F
100
AcDbEntity
  8
0
  6
Continuous
 62
     7
370
    15
100
AcDbCircle
 10
326.7228539944
 20
326.8341875203
 30
0.0
 40
1.0
100
AcDbArc
 50
235.52778612
 51
270.0
  0
LWPOLYLINE
  5
12B
330
1F
100
AcDbEntity
  8
0
  6
Continuous
 62
     7
370
    15
100
AcDbPolyline
 90
       11
 70
   128
 43
0.0
 10
326.1568470949
 20
326.0097863279
 10
326.0402883494
 20
326.0898120828
 10
325.6934805864
 20
326.3279196001
 10
325.124964034
 20
326.7182443417
 10
324.3487364703
 20
327.2511759899
 10
323.3839123601
 20
327.9135926753
 10
322.254249742
 20
328.6891827486
 10
320.9875616336
 20
329.5588485092
 10
319.615041753
 20
330.501176057
 10
318.1704822087
 20
331.4929628871
 10
316.6894557977
 20
332.5097866948
  0
LINE
  5
12C
330
1F
100
AcDbEntity
  8
0
  6
Continuous
 62
     7
370
    15
100
AcDbLine
 10
316.6894557977
 20
332.5097866948
 30
0.0
 11
297.9126124734
 21
345.4013519115
 31
0.0
  0
SPLINE
  5
12D
330
1F
100
AcDbEntity
  8
0
  6
Continuous
 62
     7
370
    15
100
AcDbSpline
210
0.0
220
0.0
230
1.0
 70
     8
 71
     3
 72
    11
 73
     7
 74
     0
 42
0.00000001
 43
0.00000001
 40
0.0
 40
0.0
 40
0.0
 40
0.0
 40
0.2499998870511219
 40
0.4999992638548599
 40
0.74999818324875
 40
1.0
 40
1.0
 40
1.0
 40
1.0
 10
297.7216391914994
 20
361.5715295202773
 30
0.0
 10
297.7409904544197
 20
361.4843060983731
 30
0.0
 10
297.7796929407647
 20
361.3098594325869
 30
0.0
 10
297.9230697698393
 20
361.0805901585994
 30
0.0
 10
298.1155508650792
 20
360.8906609695322
 30
0.0
 10
298.277360126797
 20
360.8148483785624
 30
0.0
 10
298.3582652264744
 20
360.7769418634217
 30
0.0
  0
DIMENSION
  5
12E
330
1F
100
AcDbEntity
  8
0
  6
Continuous
 62
     7
370
     0
100
AcDbDimension
  2
*D9
 10
337.9126115793
 20
172.8341875203
 30
0.0
 11
332.1626115793
 21
172.8341875203
 31
0.0
 70
   160
 71
     2
 42
-1.0
  3
SLDDIMSTYLE1
100
AcDbAlignedDimension
 13
326.4126115793
 23
325.8341875203
 33
0.0
 14
337.9126115793
 24
326.1341875203
 34
0.0
100
AcDbRotatedDimension
  0
DIMENSION
  5
13B
330
1F
100
AcDbEntity
  8
0
  6
Continuous
 62
     7
370
     0
100
AcDbDimension
  2
*D10
 10
337.9126115793
 20
161.1178153262
 30
0.0
 11
317.9126115793
 21
161.1178153262
 31
0.0
 70
   160
 71
     2
 42
-1.0
  3
SLDDIMSTYLE0
100
AcDbAlignedDimension
 13
297.9126115793
 23
247.2702792806
 33
0.0
 14
337.9126115793
 24
326.1341875203
 34
0.0
 50
0.0
100
AcDbRotatedDimension
  0
DIMENSION
  5
145
330
1F
100
AcDbEntity
  8
0
  6
Continuous
 62
     7
370
     0
100
AcDbDimension
  2
*D11
 10
287.9126115793
 20
161.1178153262
 30
0.0
 11
292.9126115793
 21
161.1178153262
 31
0.0
 70
   160
 71
     2
 42
-1.0
  3
SLDDIMSTYLE1
100
AcDbAlignedDimension
 13
297.9126115793
 23
203.0597529648
 33
0.0
 14
287.9126115793
 24
203.0597529648
 34
0.0
 50
0.0
100
AcDbRotatedDimension
  0
DIMENSION
  5
151
330
1F
100
AcDbEntity
  8
0
  6
Continuous
 62
     7
370
     0
100
AcDbDimension
  2
*D12
 10
363.3699157399
 20
325.8341875203
 30
0.0
 11
363.3699157399
 21
335.8708281547
 31
0.0
 70
   160
 71
     2
 42
-1.0
  3
SLDDIMSTYLE2
100
AcDbAlignedDimension
 13
337.7186317499
 23
345.9074687891
 33
0.0
 14
337.6126115793
 24
325.8341875203
 34
0.0
 50
90.0
100
AcDbRotatedDimension
  0
LINE
  5
15C
330
1F
100
AcDbEntity
  8
0
  6
CENTERX2
 62
     7
370
     0
100
AcDbLine
 10
330.9241653961
 20
334.3341875203
 30
0.0
 11
357.4126115793
 21
334.3341875203
 31
0.0
  0
LINE
  5
15D
330
1F
100
AcDbEntity
  8
0
  6
Continuous
 62
     7
370
    15
100
AcDbLine
 10
148.6736428737
 20
507.8410982896
 30
0.0
 11
146.6736434772
 21
511.3052001033
 31
0.0
  0
LINE
  5
15E
330
1F
100
AcDbEntity
  8
0
  6
Continuous
 62
     7
370
    15
100
AcDbLine
 10
146.6736434772
 20
511.3052001033
 30
0.0
 11
144.6736431493
 21
507.8410982896
 31
0.0
  0
LINE
  5
15F
330
1F
100
AcDbEntity
  8
0
  6
Continuous
 62
     7
370
    15
100
AcDbLine
 10
148.6736428737
 20
493.8052000288
 30
0.0
 11
148.6736428737
 21
507.8410982896
 31
0.0
  0
LINE
  5
160
330
1F
100
AcDbEntity
  8
0
  6
Continuous
 62
     7
370
    15
100
AcDbLine
 10
144.6736431493
 20
507.8410982896
 30
0.0
 11
144.6736431493
 21
493.8052000288
 31
0.0
  0
LINE
  5
161
330
1F
100
AcDbEntity
  8
0
  6
Continuous
 62
     7
370
    15
100
AcDbLine
 10
132.673643045
 20
507.8410982896
 30
0.0
 11
130.6736427172
 21
511.3052001033
 31
0.0
  0
LINE
  5
162
330
1F
100
AcDbEntity
  8
0
  6
Continuous
 62
     7
370
    15
100
AcDbLine
 10
130.6736427172
 20
511.3052001033
 30
0.0
 11
128.6736433207
 21
507.8410982896
 31
0.0
  0
LINE
  5
163
330
1F
100
AcDbEntity
  8
0
  6
Continuous
 62
     7
370
    15
100
AcDbLine
 10
132.673643045
 20
493.8052000288
 30
0.0
 11
132.673643045
 21
507.8410982896
 31
0.0
  0
LINE
  5
164
330
1F
100
AcDbEntity
  8
0
  6
Continuous
 62
     7
370
    15
100
AcDbLine
 10
128.6736433207
 20
507.8410982896
 30
0.0
 11
128.6736433207
 21
493.8052000288
 31
0.0
  0
LINE
  5
165
330
1F
100
AcDbEntity
  8
0
  6
Continuous
 62
     7
370
    15
100
AcDbLine
 10
138.6720994827
 20
443.8051992838
 30
0.0
 11
170.2375509589
 21
443.8051992838
 31
0.0
  0
LINE
  5
166
330
1F
100
AcDbEntity
  8
0
  6
Continuous
 62
     7
370
    15
100
AcDbLine
 10
170.2375509589
 20
453.8052009229
 30
0.0
 11
154.6888449042
 21
453.8052009229
 31
0.0
  0
LINE
  5
167
330
1F
100
AcDbEntity
  8
0
  6
Continuous
 62
     7
370
    15
100
AcDbLine
 10
107.1097352355
 20
443.8051992838
 30
0.0
 11
138.6720994827
 21
443.8051992838
 31
0.0
  0
LINE
  5
168
330
1F
100
AcDbEntity
  8
0
  6
Continuous
 62
     7
370
    15
100
AcDbLine
 10
122.660447359
 20
453.8052009229
 30
0.0
 11
107.1097352355
 21
453.8052009229
 31
0.0
  0
LINE
  5
169
330
1F
100
AcDbEntity
  8
0
  6
Continuous
 62
     7
370
    15
100
AcDbLine
 10
170.2375509589
 20
443.8051992838
 30
0.0
 11
214.4480743258
 21
443.8051992838
 31
0.0
  0
LINE
  5
16A
330
1F
100
AcDbEntity
  8
0
  6
Continuous
 62
     7
370
    15
100
AcDbLine
 10
214.4480743258
 20
453.8052009229
 30
0.0
 11
170.2375509589
 21
453.8052009229
 31
0.0
  0
LINE
  5
16B
330
1F
100
AcDbEntity
  8
0
  6
Continuous
 62
     7
370
    15
100
AcDbLine
 10
62.8992118685
 20
443.8051992838
 30
0.0
 11
107.1097352355
 21
443.8051992838
 31
0.0
  0
LINE
  5
16C
330
1F
100
AcDbEntity
  8
0
  6
Continuous
 62
     7
370
    15
100
AcDbLine
 10
107.1097352355
 20
453.8052009229
 30
0.0
 11
62.8992118685
 21
453.8052009229
 31
0.0
  0
ARC
  5
16D
330
1F
100
AcDbEntity
  8
0
  6
Continuous
 62
     7
370
    15
100
AcDbCircle
 10
122.6736462109
 20
454.8051643645
 30
0.0
 40
0.9999972239865194
100
AcDbArc
 50
270.4709609974
 51
359.9960208881
  0
ARC
  5
16E
330
1F
100
AcDbEntity
  8
0
  6
Continuous
 62
     7
370
    15
100
AcDbCircle
 10
154.6736447594
 20
454.8051995815
 30
0.0
 40
1.000001998268432
100
AcDbArc
 50
179.9976725996
 51
270.1480779039
  0
ELLIPSE
  5
16F
330
1F
100
AcDbEntity
  8
0
  6
Continuous
 62
     7
370
    15
100
AcDbEllipse
 10
58.6736430972
 20
448.8052000288
 30
0.0
 11
10.0
 21
0.0
 31
-9.992007221626409E-15
210
9.992007221626409E-16
220
0.0
230
1.0
 40
0.5
 41
1.570796326794897
 42
4.712388980384697
  0
LINE
  5
170
330
1F
100
AcDbEntity
  8
0
  6
Continuous
 62
     7
370
    15
100
AcDbLine
 10
58.6736448853
 20
443.8051992838
 30
0.0
 11
62.8992118685
 21
443.8051992838
 31
0.0
  0
LINE
  5
171
330
1F
100
AcDbEntity
  8
0
  6
Continuous
 62
     7
370
    15
100
AcDbLine
 10
62.8992118685
 20
453.8052009229
 30
0.0
 11
58.6736448853
 21
453.8052009229
 31
0.0
  0
ELLIPSE
  5
172
330
1F
100
AcDbEntity
  8
0
  6
Continuous
 62
     7
370
    15
100
AcDbEllipse
 10
218.6736430972
 20
448.8052000288
 30
0.0
 11
-10.0
 21
0.0
 31
1.110223024625157E-15
210
1.110223024625157E-16
220
0.0
230
1.0
 40
0.5
 41
1.570796326794894
 42
4.712388980384699
  0
LINE
  5
173
330
1F
100
AcDbEntity
  8
0
  6
Continuous
 62
     7
370
    15
100
AcDbLine
 10
214.4480743258
 20
443.8051992838
 30
0.0
 11
218.673641309
 21
443.8051992838
 31
0.0
  0
LINE
  5
174
330
1F
100
AcDbEntity
  8
0
  6
Continuous
 62
     7
370
    15
100
AcDbLine
 10
218.673641309
 20
453.8052009229
 30
0.0
 11
214.4480743258
 21
453.8052009229
 31
0.0
  0
LINE
  5
175
330
1F
100
AcDbEntity
  8
0
  6
Continuous
 62
     7
370
    15
100
AcDbLine
 10
146.6736434772
 20
507.8410982896
 30
0.0
 11
144.6736431493
 21
507.8410982896
 31
0.0
  0
LINE
  5
176
330
1F
100
AcDbEntity
  8
0
  6
Continuous
 62
     7
370
    15
100
AcDbLine
 10
148.6736428737
 20
507.8410982896
 30
0.0
 11
146.6736434772
 21
507.8410982896
 31
0.0
  0
LINE
  5
177
330
1F
100
AcDbEntity
  8
0
  6
Continuous
 62
     7
370
    15
100
AcDbLine
 10
130.6736427172
 20
507.8410982896
 30
0.0
 11
128.6736433207
 21
507.8410982896
 31
0.0
  0
LINE
  5
178
330
1F
100
AcDbEntity
  8
0
  6
Continuous
 62
     7
370
    15
100
AcDbLine
 10
132.673643045
 20
507.8410982896
 30
0.0
 11
130.6736427172
 21
507.8410982896
 31
0.0
  0
SPLINE
  5
179
330
1F
100
AcDbEntity
  8
0
  6
Continuous
 62
     7
370
    15
100
AcDbSpline
210
0.0
220
0.0
230
1.0
 70
     8
 71
     3
 72
     9
 73
     5
 74
     0
 42
0.00000001
 43
0.00000001
 40
0.0
 40
0.0
 40
0.0
 40
0.0
 40
0.2024952437905951
 40
1.0
 40
1.0
 40
1.0
 40
1.0
 10
152.6526021583904
 20
453.4814471189389
 30
0.0
 10
151.709171823068
 20
453.5001655422693
 30
0.0
 10
147.0501471582812
 20
453.5926043718431
 30
0.0
 10
142.3900737803611
 20
453.6046339751747
 30
0.0
 10
138.673643097185
 20
453.614227641047
 30
0.0
  0
SPLINE
  5
17A
330
1F
100
AcDbEntity
  8
0
  6
Continuous
 62
     7
370
    15
100
AcDbSpline
210
0.0
220
0.0
230
1.0
 70
     8
 71
     3
 72
    12
 73
     8
 74
     0
 42
0.00000001
 43
0.00000001
 40
0.0
 40
0.0
 40
0.0
 40
0.0
 40
0.058904228019859
 40
0.2697714166663094
 40
0.5103295388713098
 40
0.7567942971724179
 40
1.0
 40
1.0
 40
1.0
 40
1.0
 10
152.6526021583904
 20
453.4814471189389
 30
0.0
 10
152.7163289678687
 20
453.4804317589435
 30
0.0
 10
153.0081869931839
 20
453.4757815816366
 30
0.0
 10
153.5517461948442
 20
453.4956126803566
 30
0.0
 10
154.1509953072294
 20
453.5663407432438
 30
0.0
 10
154.5749358139677
 20
453.660590034327
 30
0.0
 10
154.6335049732235
 20
453.7106415468353
 30
0.0
 10
154.662594646119
 20
453.7355007414232
 30
0.0
  0
SPLINE
  5
17B
330
1F
100
AcDbEntity
  8
0
  6
Continuous
 62
     7
370
    15
100
AcDbSpline
210
0.0
220
0.0
230
1.0
 70
     8
 71
     3
 72
    12
 73
     8
 74
     0
 42
0.00000001
 43
0.00000001
 40
0.0
 40
0.0
 40
0.0
 40
0.0
 40
0.2330032644842404
 40
0.4453762446726648
 40
0.634611823897479
 40
0.8164857770232137
 40
0.9999999999999999
 40
0.9999999999999999
 40
0.9999999999999999
 40
0.9999999999999999
 10
122.684691548251
 20
453.7355007414232
 30
0.0
 10
122.7113168944934
 20
453.711804624402
 30
0.0
 10
122.7622101587949
 20
453.6665104623842
 30
0.0
 10
123.1048774092639
 20
453.5854597549784
 30
0.0
 10
123.5562790317814
 20
453.521169348282
 30
0.0
 10
124.0973649440829
 20
453.4790913641776
 30
0.0
 10
124.4949826879759
 20
453.4806595208062
 30
0.0
 10
124.6946840359796
 20
453.4814471189389
 30
0.0
  0
SPLINE
  5
17C
330
1F
100
AcDbEntity
  8
0
  6
Continuous
 62
     7
370
    15
100
AcDbSpline
210
0.0
220
0.0
230
1.0
 70
     8
 71
     3
 72
     9
 73
     5
 74
     0
 42
0.00000001
 43
0.00000001
 40
0.0
 40
0.0
 40
0.0
 40
0.0
 40
0.797504756209405
 40
1.0
 40
1.0
 40
1.0
 40
1.0
 10
138.673643097185
 20
453.614227641047
 30
0.0
 10
134.9572124140089
 20
453.6046339751747
 30
0.0
 10
130.2971390360888
 20
453.5926043718431
 30
0.0
 10
125.638114371302
 20
453.5001655422693
 30
0.0
 10
124.6946840359796
 20
453.4814471189389
 30
0.0
  0
LINE
  5
17D
330
1F
100
AcDbEntity
  8
0
  6
Continuous
 62
     7
370
    15
100
AcDbLine
 10
153.6736427619
 20
493.5052000146
 30
0.0
 11
153.6736427619
 21
454.7319600169
 31
0.0
  0
LINE
  5
17E
330
1F
100
AcDbEntity
  8
0
  6
Continuous
 62
     7
370
    15
100
AcDbLine
 10
123.6736434325
 20
454.7319600169
 30
0.0
 11
123.6736434325
 21
493.5052000146
 31
0.0
  0
LINE
  5
17F
330
1F
100
AcDbEntity
  8
0
  6
Continuous
 62
     7
370
    15
100
AcDbLine
 10
153.6736427619
 20
454.792402852
 30
0.0
 11
153.6736427619
 21
454.8041598682
 31
0.0
  0
LINE
  5
180
330
1F
100
AcDbEntity
  8
0
  6
Continuous
 62
     7
370
    15
100
AcDbLine
 10
152.6736435293
 20
493.8052000288
 30
0.0
 11
153.3736432715
 21
493.8052000288
 31
0.0
  0
ARC
  5
181
330
1F
100
AcDbEntity
  8
0
  6
Continuous
 62
     7
370
    15
100
AcDbCircle
 10
153.3736430972
 20
493.5052000288
 30
0.0
 40
0.3000000000000114
100
AcDbArc
 50
0.0
 51
90.0
  0
LINE
  5
182
330
1F
100
AcDbEntity
  8
0
  6
Continuous
 62
     7
370
    15
100
AcDbLine
 10
123.9736429228
 20
493.8052000288
 30
0.0
 11
124.6736426651
 21
493.8052000288
 31
0.0
  0
ARC
  5
183
330
1F
100
AcDbEntity
  8
0
  6
Continuous
 62
     7
370
    15
100
AcDbCircle
 10
123.9736430972
 20
493.5052000288
 30
0.0
 40
0.3000000000000114
100
AcDbArc
 50
90.0
 51
180.0
  0
LINE
  5
184
330
1F
100
AcDbEntity
  8
0
  6
Continuous
 62
     7
370
    15
100
AcDbLine
 10
124.6736426651
 20
493.8052000288
 30
0.0
 11
152.6736435293
 21
493.8052000288
 31
0.0
  0
SPLINE
  5
185
330
1F
100
AcDbEntity
  8
0
  6
Continuous
 62
     8
370
    15
100
AcDbSpline
210
0.0
220
0.0
230
1.0
 70
     8
 71
     3
 72
     9
 73
     5
 74
     0
 42
0.00000001
 43
0.00000001
 40
0.0
 40
0.0
 40
0.0
 40
0.0
 40
0.1771700203220024
 40
0.9999999999999999
 40
0.9999999999999999
 40
0.9999999999999999
 40
0.9999999999999999
 10
154.6745081244935
 20
453.7861386124501
 30
0.0
 10
154.6737757930459
 20
453.7931328767716
 30
0.0
 10
154.6696422977387
 20
453.8326105734423
 30
0.0
 10
154.6657759735624
 20
453.7793363607611
 30
0.0
 10
154.662594646119
 20
453.7355007414232
 30
0.0
  0
LINE
  5
186
330
1F
100
AcDbEntity
  8
0
  6
Continuous
 62
     8
370
    15
100
AcDbLine
 10
122.6846915483
 20
453.7355007414
 30
0.0
 11
122.6730146258
 21
453.7614250366
 31
0.0
  0
DIMENSION
  5
187
330
1F
100
AcDbEntity
  8
0
  6
Continuous
 62
     7
370
     0
100
AcDbDimension
  2
*D13
 10
146.6736430972
 20
515.7269838355
 30
0.0
 11
138.6736430972
 21
515.7269838355
 31
0.0
 70
   160
 71
     2
 42
-1.0
  3
SLDDIMSTYLE1
100
AcDbAlignedDimension
 13
130.6736430972
 23
513.3052000288
 33
0.0
 14
146.6736430972
 24
513.3052000288
 34
0.0
100
AcDbRotatedDimension
  0
LINE
  5
193
330
1F
100
AcDbEntity
  8
0
  6
CENTERX2
 62
     7
370
     0
100
AcDbLine
 10
146.6736430972
 20
486.8167538456
 30
0.0
 11
146.6736430972
 21
513.3052000288
 31
0.0
  0
LINE
  5
194
330
1F
100
AcDbEntity
  8
0
  6
CENTERX2
 62
     7
370
     0
100
AcDbLine
 10
130.6736430972
 20
486.8167538456
 30
0.0
 11
130.6736430972
 21
513.3052000288
 31
0.0
  0
LINE
  5
195
330
1F
100
AcDbEntity
  8
0
  6
CENTERX2
 62
     7
370
     0
100
AcDbLine
 10
138.6736430972
 20
497.5052000288
 30
0.0
 11
138.6736430972
 21
439.9404625169
 31
0.0
  0
ARC
  5
196
330
1F
100
AcDbEntity
  8
0
  6
Continuous
 62
     7
370
    15
100
AcDbCircle
 10
474.6325519236
 20
238.8341875203
 30
0.0
 40
110.0
100
AcDbArc
 50
74.7499195778
 51
81.5586914695
  0
ARC
  5
197
330
1F
100
AcDbEntity
  8
0
  6
Continuous
 62
     7
370
    15
100
AcDbCircle
 10
474.6325519236
 20
238.8341875203
 30
0.0
 40
130.0
100
AcDbArc
 50
74.7499195778
 51
89.9999208951
  0
ARC
  5
198
330
1F
100
AcDbEntity
  8
0
  6
Continuous
 62
     7
370
    15
100
AcDbCircle
 10
474.6325519236
 20
238.8341875203
 30
0.0
 40
110.0
100
AcDbArc
 50
98.4408894413
 51
105.2500804222
  0
ARC
  5
199
330
1F
100
AcDbEntity
  8
0
  6
Continuous
 62
     7
370
    15
100
AcDbCircle
 10
474.6325519236
 20
238.8341875203
 30
0.0
 40
130.0
100
AcDbArc
 50
89.9999208951
 51
105.2500804222
  0
ARC
  5
19A
330
1F
100
AcDbEntity
  8
0
  6
Continuous
 62
     7
370
    15
100
AcDbCircle
 10
434.6325519236
 20
278.8341875203
 30
0.0
 40
110.0
100
AcDbArc
 50
344.7499195778
 51
15.2500804222
  0
ARC
  5
19B
330
1F
100
AcDbEntity
  8
0
  6
Continuous
 62
     7
370
    15
100
AcDbCircle
 10
434.6325519236
 20
278.8341875203
 30
0.0
 40
130.0
100
AcDbArc
 50
344.7499195778
 51
0.0
  0
ARC
  5
19C
330
1F
100
AcDbEntity
  8
0
  6
Continuous
 62
     7
370
    15
100
AcDbCircle
 10
434.6325519236
 20
278.8341875203
 30
0.0
 40
130.0
100
AcDbArc
 50
0.0
 51
15.2500804222
  0
ARC
  5
19D
330
1F
100
AcDbEntity
  8
0
  6
Continuous
 62
     7
370
    15
100
AcDbCircle
 10
489.6254083375
 20
293.8270439341
 30
0.0
 40
52.99999999999996
100
AcDbArc
 50
15.2500804222
 51
74.7499195778
  0
ARC
  5
19E
330
1F
100
AcDbEntity
  8
0
  6
Continuous
 62
     7
370
    15
100
AcDbCircle
 10
489.6254083375
 20
293.8270439341
 30
0.0
 40
73.00000000000001
100
AcDbArc
 50
15.2500804222
 51
74.7499195778
  0
ARC
  5
19F
330
1F
100
AcDbEntity
  8
0
  6
Continuous
 62
     7
370
    15
100
AcDbCircle
 10
489.6254083375
 20
263.8413311064
 30
0.0
 40
53.00000000000005
100
AcDbArc
 50
285.2500804222
 51
344.7499195778
  0
ARC
  5
1A0
330
1F
100
AcDbEntity
  8
0
  6
Continuous
 62
     7
370
    15
100
AcDbCircle
 10
489.6254083375
 20
263.8413311064
 30
0.0
 40
73.0
100
AcDbArc
 50
285.2500804222
 51
344.7499195778
  0
ARC
  5
1A1
330
1F
100
AcDbEntity
  8
0
  6
Continuous
 62
     7
370
    15
100
AcDbCircle
 10
474.6325519236
 20
318.8341875203
 30
0.0
 40
110.0
100
AcDbArc
 50
254.7499195778
 51
285.2500804222
  0
ARC
  5
1A2
330
1F
100
AcDbEntity
  8
0
  6
Continuous
 62
     7
370
    15
100
AcDbCircle
 10
474.6325519236
 20
318.8341875203
 30
0.0
 40
130.0
100
AcDbArc
 50
254.7499195778
 51
285.2500804222
  0
ARC
  5
1A3
330
1F
100
AcDbEntity
  8
0
  6
Continuous
 62
     7
370
    15
100
AcDbCircle
 10
459.6396955098
 20
263.8413311064
 30
0.0
 40
53.00000000000001
100
AcDbArc
 50
195.2500804222
 51
254.7499195778
  0
ARC
  5
1A4
330
1F
100
AcDbEntity
  8
0
  6
Continuous
 62
     7
370
    15
100
AcDbCircle
 10
459.6396955098
 20
263.8413311064
 30
0.0
 40
73.00000000000003
100
AcDbArc
 50
195.2500804222
 51
254.7499195778
  0
ARC
  5
1A5
330
1F
100
AcDbEntity
  8
0
  6
Continuous
 62
     7
370
    15
100
AcDbCircle
 10
459.6396955098
 20
293.8270439341
 30
0.0
 40
53.00000000000005
100
AcDbArc
 50
105.2500804222
 51
164.7499195778
  0
ARC
  5
1A6
330
1F
100
AcDbEntity
  8
0
  6
Continuous
 62
     7
370
    15
100
AcDbCircle
 10
459.6396955098
 20
293.8270439341
 30
0.0
 40
73.00000000000003
100
AcDbArc
 50
105.2500804222
 51
164.7499195778
  0
ARC
  5
1A7
330
1F
100
AcDbEntity
  8
0
  6
Continuous
 62
     7
370
    15
100
AcDbCircle
 10
514.6325519236
 20
278.8341875203
 30
0.0
 40
110.0000000000001
100
AcDbArc
 50
180.0
 51
195.2500804222
  0
ARC
  5
1A8
330
1F
100
AcDbEntity
  8
0
  6
Continuous
 62
     7
370
    15
100
AcDbCircle
 10
514.6325519236
 20
278.8341875203
 30
0.0
 40
110.0000000000001
100
AcDbArc
 50
164.7499195778
 51
180.0
  0
ARC
  5
1A9
330
1F
100
AcDbEntity
  8
0
  6
Continuous
 62
     7
370
    15
100
AcDbCircle
 10
514.6325519236
 20
278.8341875203
 30
0.0
 40
130.0000000000001
100
AcDbArc
 50
164.7499195778
 51
195.2500804222
  0
CIRCLE
  5
1AA
330
1F
100
AcDbEntity
  8
0
  6
Continuous
 62
     7
370
    15
100
AcDbCircle
 10
466.6325519236
 20
334.3341875203
 30
0.0
 40
2.0
  0
CIRCLE
  5
1AB
330
1F
100
AcDbEntity
  8
0
  6
Continuous
 62
     7
370
    15
100
AcDbCircle
 10
482.6325519236
 20
334.3341875203
 30
0.0
 40
2.0
  0
ARC
  5
1AC
330
1F
100
AcDbEntity
  8
0
  6
Continuous
 62
     7
370
    15
100
AcDbCircle
 10
482.1325519236
 20
333.3341875203
 30
0.0
 40
7.5
100
AcDbArc
 50
270.0
 51
0.0
  0
LINE
  5
1AD
330
1F
100
AcDbEntity
  8
0
  6
Continuous
 62
     7
370
    15
100
AcDbLine
 10
489.6325515884
 20
344.8785418771
 30
0.0
 11
489.6325515884
 21
333.3341876171
 31
0.0
  0
ELLIPSE
  5
1AE
330
1F
100
AcDbEntity
  8
0
  6
Continuous
 62
     7
370
    15
100
AcDbEllipse
 10
488.6325519236
 20
344.8785418784
 30
0.0
 11
0.0
 21
1.028926910727932
 31
0.0
210
0.0
220
0.0
230
1.0
 40
0.9718863309
 41
4.712388980384703
 42
6.283185307179586
  0
ARC
  5
1AF
330
1F
100
AcDbEntity
  8
0
  6
Continuous
 62
     7
370
    15
100
AcDbCircle
 10
482.1325519236
 20
333.3341875203
 30
0.0
 40
5.5
100
AcDbArc
 50
270.0
 51
0.0
  0
LINE
  5
1B0
330
1F
100
AcDbEntity
  8
0
  6
Continuous
 62
     7
370
    15
100
AcDbLine
 10
487.6325521919
 20
333.3341876171
 30
0.0
 11
487.6325521919
 21
342.5341873556
 31
0.0
  0
ARC
  5
1B1
330
1F
100
AcDbEntity
  8
0
  6
Continuous
 62
     7
370
    15
100
AcDbCircle
 10
487.3325519236
 20
342.5341875203
 30
0.0
 40
0.3000000000000114
100
AcDbArc
 50
0.0
 51
90.0
  0
LINE
  5
1B2
330
1F
100
AcDbEntity
  8
0
  6
Continuous
 62
     7
370
    15
100
AcDbLine
 10
487.3325517701
 20
342.8341873117
 30
0.0
 11
478.9325520697
 21
342.8341873117
 31
0.0
  0
LINE
  5
1B3
330
1F
100
AcDbEntity
  8
0
  6
Continuous
 62
     7
370
    15
100
AcDbLine
 10
482.132551756
 20
325.8341873191
 30
0.0
 11
467.1325520913
 21
325.8341873191
 31
0.0
  0
LINE
  5
1B4
330
1F
100
AcDbEntity
  8
0
  6
Continuous
 62
     7
370
    15
100
AcDbLine
 10
467.1325520913
 20
327.8341876469
 30
0.0
 11
482.132551756
 21
327.8341876469
 31
0.0
  0
ARC
  5
1B5
330
1F
100
AcDbEntity
  8
0
  6
Continuous
 62
     7
370
    15
100
AcDbCircle
 10
478.3325519236
 20
343.5341875203
 30
0.0
 40
0.3000000000000114
100
AcDbArc
 50
0.0
 51
90.0
  0
LINE
  5
1B6
330
1F
100
AcDbEntity
  8
0
  6
Continuous
 62
     7
370
    15
100
AcDbLine
 10
478.6325521136
 20
343.1341877334
 30
0.0
 11
478.6325521136
 21
343.5341879852
 31
0.0
  0
ARC
  5
1B7
330
1F
100
AcDbEntity
  8
0
  6
Continuous
 62
     7
370
    15
100
AcDbCircle
 10
478.9325519236
 20
343.1341875203
 30
0.0
 40
0.3000000000000114
100
AcDbArc
 50
180.0
 51
270.0
  0
LINE
  5
1B8
330
1F
100
AcDbEntity
  8
0
  6
Continuous
 62
     7
370
    15
100
AcDbLine
 10
478.3325519247
 20
343.8341874756
 30
0.0
 11
470.9325519225
 21
343.8341874756
 31
0.0
  0
ARC
  5
1B9
330
1F
100
AcDbEntity
  8
0
  6
Continuous
 62
     7
370
    15
100
AcDbCircle
 10
470.9325519236
 20
343.5341875203
 30
0.0
 40
0.2999999999999545
100
AcDbArc
 50
90.0
 51
180.0
  0
LINE
  5
1BA
330
1F
100
AcDbEntity
  8
0
  6
Continuous
 62
     7
370
    15
100
AcDbLine
 10
470.6325517336
 20
343.5341879852
 30
0.0
 11
470.6325517336
 21
343.1341877334
 31
0.0
  0
ARC
  5
1BB
330
1F
100
AcDbEntity
  8
0
  6
Continuous
 62
     7
370
    15
100
AcDbCircle
 10
470.3325519236
 20
343.1341875203
 30
0.0
 40
0.3000000000000114
100
AcDbArc
 50
270.0
 51
0.0
  0
LINE
  5
1BC
330
1F
100
AcDbEntity
  8
0
  6
Continuous
 62
     7
370
    15
100
AcDbLine
 10
470.3325517776
 20
342.8341873117
 30
0.0
 11
461.9325520771
 21
342.8341873117
 31
0.0
  0
ARC
  5
1BD
330
1F
100
AcDbEntity
  8
0
  6
Continuous
 62
     7
370
    15
100
AcDbCircle
 10
467.1325519236
 20
333.3341875203
 30
0.0
 40
7.5
100
AcDbArc
 50
180.0
 51
270.0
  0
ARC
  5
1BE
330
1F
100
AcDbEntity
  8
0
  6
Continuous
 62
     7
370
    15
100
AcDbCircle
 10
467.1325519236
 20
333.3341875203
 30
0.0
 40
5.5
100
AcDbArc
 50
180.0
 51
270.0
  0
LINE
  5
1BF
330
1F
100
AcDbEntity
  8
0
  6
Continuous
 62
     7
370
    15
100
AcDbLine
 10
461.6325516554
 20
342.5341873556
 30
0.0
 11
461.6325516554
 21
333.3341876171
 31
0.0
  0
ARC
  5
1C0
330
1F
100
AcDbEntity
  8
0
  6
Continuous
 62
     7
370
    15
100
AcDbCircle
 10
461.9325519236
 20
342.5341875203
 30
0.0
 40
0.2999999999999545
100
AcDbArc
 50
90.0
 51
180.0
  0
LINE
  5
1C1
330
1F
100
AcDbEntity
  8
0
  6
Continuous
 62
     7
370
    15
100
AcDbLine
 10
459.6325522589
 20
333.3341876171
 30
0.0
 11
459.6325522589
 21
344.8785418771
 31
0.0
  0
ELLIPSE
  5
1C2
330
1F
100
AcDbEntity
  8
0
  6
Continuous
 62
     7
370
    15
100
AcDbEllipse
 10
460.6325519236
 20
344.8785418784
 30
0.0
 11
0.0
 21
1.028926910727932
 31
0.0
210
0.0
220
0.0
230
1.0
 40
0.9718863309
 41
0.0
 42
1.570796326794897
  0
LINE
  5
1C3
330
1F
100
AcDbEntity
  8
0
  6
Continuous
 62
     7
370
    15
100
AcDbLine
 10
489.6325515884
 20
359.5262091733
 30
0.0
 11
489.6325515884
 21
344.8785418771
 31
0.0
  0
LINE
  5
1C4
330
1F
100
AcDbEntity
  8
0
  6
Continuous
 62
     7
370
    15
100
AcDbLine
 10
459.6325522589
 20
344.8785418771
 30
0.0
 11
459.6325522589
 21
359.5262091733
 31
0.0
  0
ARC
  5
1C5
330
1F
100
AcDbEntity
  8
0
  6
Continuous
 62
     7
370
    15
100
AcDbCircle
 10
487.3325519236
 20
340.1341875203
 30
0.0
 40
0.3000000000000114
100
AcDbArc
 50
270.0
 51
0.0
  0
ARC
  5
1C6
330
1F
100
AcDbEntity
  8
0
  6
Continuous
 62
     7
370
    15
100
AcDbCircle
 10
477.3325519236
 20
328.1341875203
 30
0.0
 40
0.3000000000000114
100
AcDbArc
 50
270.0
 51
0.0
  0
ARC
  5
1C7
330
1F
100
AcDbEntity
  8
0
  6
Continuous
 62
     7
370
    15
100
AcDbCircle
 10
471.9325519236
 20
328.1341875203
 30
0.0
 40
0.3000000000000114
100
AcDbArc
 50
180.0
 51
270.0
  0
ARC
  5
1C8
330
1F
100
AcDbEntity
  8
0
  6
Continuous
 62
     7
370
    15
100
AcDbCircle
 10
461.9325519236
 20
340.1341875203
 30
0.0
 40
0.3000000000000114
100
AcDbArc
 50
180.0
 51
270.0
  0
LINE
  5
1C9
330
1F
100
AcDbEntity
  8
0
  6
Continuous
 62
     7
370
    15
100
AcDbLine
 10
477.6325519497
 20
328.134187603
 30
0.0
 11
477.6325519497
 21
328.3341877289
 31
0.0
  0
LINE
  5
1CA
330
1F
100
AcDbEntity
  8
0
  6
Continuous
 62
     7
370
    15
100
AcDbLine
 10
471.6325518976
 20
328.3341877289
 30
0.0
 11
471.6325518976
 21
328.134187603
 31
0.0
  0
SPLINE
  5
1CB
330
1F
100
AcDbEntity
  8
0
  6
Continuous
 62
     7
370
    15
100
AcDbSpline
210
0.0
220
0.0
230
1.0
 70
     8
 71
     3
 72
    10
 73
     6
 74
     0
 42
0.00000001
 43
0.00000001
 40
0.0
 40
0.0
 40
0.0
 40
0.0
 40
0.0056281729998406
 40
0.567451255143812
 40
1.0
 40
1.0
 40
1.0
 40
1.0
 10
490.779340297221
 20
347.6426486052316
 30
0.0
 10
490.7771110221958
 20
347.6429795110979
 30
0.0
 10
490.5523480465068
 20
347.676342549016
 30
0.0
 10
490.1395303763854
 20
347.7364316597598
 30
0.0
 10
489.7862343109654
 20
347.7851150836284
 30
0.0
 10
489.6325515883554
 20
347.8062922261398
 30
0.0
  0
SPLINE
  5
1CC
330
1F
100
AcDbEntity
  8
0
  6
Continuous
 62
     7
370
    15
100
AcDbSpline
210
0.0
220
0.0
230
1.0
 70
     8
 71
     3
 72
    11
 73
     7
 74
     0
 42
0.00000001
 43
0.00000001
 40
0.0
 40
0.0
 40
0.0
 40
0.0
 40
0.4286292407382936
 40
0.9283386939996379
 40
0.9943329572042073
 40
1.0
 40
1.0
 40
1.0
 40
1.0
 10
459.6325522589077
 20
347.8065660349768
 30
0.0
 10
459.4781860641415
 20
347.7851783796393
 30
0.0
 10
459.1438549032529
 20
347.738856322867
 30
0.0
 10
458.7416797208552
 20
347.6805166781845
 30
0.0
 10
458.5161842960165
 20
347.6471642829766
 30
0.0
 10
458.4879929480829
 20
347.6429795387046
 30
0.0
 10
458.485763550042
 20
347.6426486052316
 30
0.0
  0
ARC
  5
1CD
330
1F
100
AcDbEntity
  8
0
  6
Continuous
 62
     7
370
    15
100
AcDbCircle
 10
466.663832501
 20
333.3341875203
 30
0.0
 40
2.249999999999999
100
AcDbArc
 50
183.5833216985
 51
3.5833216985
  0
ARC
  5
1CE
330
1F
100
AcDbEntity
  8
0
  6
Continuous
 62
     7
370
    15
100
AcDbCircle
 10
482.6325519236
 20
334.3341875203
 30
0.0
 40
13.75000000000006
100
AcDbArc
 50
176.4166783015
 51
183.5833216985
  0
ARC
  5
1CF
330
1F
100
AcDbEntity
  8
0
  6
Continuous
 62
     7
370
    15
100
AcDbCircle
 10
466.663832501
 20
335.3341875203
 30
0.0
 40
2.249999999999999
100
AcDbArc
 50
356.4166783015
 51
176.4166783015
  0
ARC
  5
1D0
330
1F
100
AcDbEntity
  8
0
  6
Continuous
 62
     7
370
    15
100
AcDbCircle
 10
482.6325519236
 20
334.3341875203
 30
0.0
 40
18.25
100
AcDbArc
 50
176.4166783015
 51
183.5833216985
  0
CIRCLE
  5
1D1
330
1F
100
AcDbEntity
  8
0
  6
Continuous
 62
     7
370
    15
100
AcDbCircle
 10
482.6325519236
 20
334.3341875203
 30
0.0
 40
2.100000000000023
  0
LINE
  5
1D2
330
1F
100
AcDbEntity
  8
0
  6
Continuous
 62
     7
370
    15
100
AcDbLine
 10
486.5825521129
 20
339.8341877512
 30
0.0
 11
486.5825521129
 21
340.3341873675
 31
0.0
  0
LINE
  5
1D3
330
1F
100
AcDbEntity
  8
0
  6
Continuous
 62
     7
370
    15
100
AcDbLine
 10
486.5825521129
 20
339.8341877512
 30
0.0
 11
487.5825522768
 21
339.8341877512
 31
0.0
  0
LINE
  5
1D4
330
1F
100
AcDbEntity
  8
0
  6
Continuous
 62
     7
370
    15
100
AcDbLine
 10
487.5825522768
 20
339.8341877512
 30
0.0
 11
487.5825522768
 21
333.3341876171
 31
0.0
  0
ARC
  5
1D5
330
1F
100
AcDbEntity
  8
0
  6
Continuous
 62
     7
370
    15
100
AcDbCircle
 10
482.5825519236
 20
333.3341875203
 30
0.0
 40
5.0
100
AcDbArc
 50
270.0
 51
0.0
  0
LINE
  5
1D6
330
1F
100
AcDbEntity
  8
0
  6
Continuous
 62
     7
370
    15
100
AcDbLine
 10
482.5825523885
 20
328.3341877289
 30
0.0
 11
466.6825514587
 21
328.3341877289
 31
0.0
  0
ARC
  5
1D7
330
1F
100
AcDbEntity
  8
0
  6
Continuous
 62
     7
370
    15
100
AcDbCircle
 10
466.6825519236
 20
333.3341875203
 30
0.0
 40
5.0
100
AcDbArc
 50
180.0
 51
270.0
  0
LINE
  5
1D8
330
1F
100
AcDbEntity
  8
0
  6
Continuous
 62
     7
370
    15
100
AcDbLine
 10
461.6825515705
 20
333.3341876171
 30
0.0
 11
461.6825515705
 21
339.8341877512
 31
0.0
  0
LINE
  5
1D9
330
1F
100
AcDbEntity
  8
0
  6
Continuous
 62
     7
370
    15
100
AcDbLine
 10
462.6825517344
 20
339.8341877512
 30
0.0
 11
461.6825515705
 21
339.8341877512
 31
0.0
  0
LINE
  5
1DA
330
1F
100
AcDbEntity
  8
0
  6
Continuous
 62
     7
370
    15
100
AcDbLine
 10
462.6825517344
 20
339.8341877512
 30
0.0
 11
462.6825517344
 21
340.3341873675
 31
0.0
  0
LINE
  5
1DB
330
1F
100
AcDbEntity
  8
0
  6
Continuous
 62
     7
370
    15
100
AcDbLine
 10
470.507551946
 20
340.3341873675
 30
0.0
 11
470.6325517336
 21
339.8341877512
 31
0.0
  0
LINE
  5
1DC
330
1F
100
AcDbEntity
  8
0
  6
Continuous
 62
     7
370
    15
100
AcDbLine
 10
470.6325517336
 20
339.8341877512
 30
0.0
 11
470.757551987
 21
340.3341873675
 31
0.0
  0
LINE
  5
1DD
330
1F
100
AcDbEntity
  8
0
  6
Continuous
 62
     7
370
    15
100
AcDbLine
 10
478.6325521136
 20
339.8341877512
 30
0.0
 11
478.5075518603
 21
340.3341873675
 31
0.0
  0
LINE
  5
1DE
330
1F
100
AcDbEntity
  8
0
  6
Continuous
 62
     7
370
    15
100
AcDbLine
 10
478.7575519013
 20
340.3341873675
 30
0.0
 11
478.6325521136
 21
339.8341877512
 31
0.0
  0
LINE
  5
1DF
330
1F
100
AcDbEntity
  8
0
  6
Continuous
 62
     7
370
    15
100
AcDbLine
 10
486.5825521129
 20
342.8341873117
 30
0.0
 11
486.5825521129
 21
340.3341873675
 31
0.0
  0
ELLIPSE
  5
1E0
330
1F
100
AcDbEntity
  8
0
  6
Continuous
 62
     7
370
    15
100
AcDbEllipse
 10
478.1325519236
 20
340.3341875203
 30
0.0
 11
0.6626281522836733
 21
2.495169005243952
 31
0.0
210
0.0
220
0.0
230
1.0
 40
0.2344355629
 41
4.774566477658075
 42
6.345362804452909
  0
LINE
  5
1E1
330
1F
100
AcDbEntity
  8
0
  6
Continuous
 62
     7
370
    15
100
AcDbLine
 10
478.9325520697
 20
342.8341873117
 30
0.0
 11
478.7575519013
 21
342.8341873117
 31
0.0
  0
LINE
  5
1E2
330
1F
100
AcDbEntity
  8
0
  6
Continuous
 62
     7
370
    15
100
AcDbLine
 10
478.6325521136
 20
339.8341877512
 30
0.0
 11
478.6325521136
 21
342.8341873117
 31
0.0
  0
LINE
  5
1E3
330
1F
100
AcDbEntity
  8
0
  6
Continuous
 62
     7
370
    15
100
AcDbLine
 10
478.6325521136
 20
342.8341873117
 30
0.0
 11
478.7575519013
 21
342.8341873117
 31
0.0
  0
ELLIPSE
  5
1E4
330
1F
100
AcDbEntity
  8
0
  6
Continuous
 62
     7
370
    15
100
AcDbEllipse
 10
479.1325519236
 20
340.3341875203
 30
0.0
 11
-0.6626281522837303
 21
2.495169005243952
 31
0.0
210
0.0
220
0.0
230
0.9999999999999998
 40
0.2344355629
 41
6.22100780990632
 42
7.791804136701121
  0
LINE
  5
1E5
330
1F
100
AcDbEntity
  8
0
  6
Continuous
 62
     7
370
    15
100
AcDbLine
 10
478.6325521136
 20
342.8341873117
 30
0.0
 11
478.5075518603
 21
342.8341873117
 31
0.0
  0
ELLIPSE
  5
1E6
330
1F
100
AcDbEntity
  8
0
  6
Continuous
 62
     7
370
    15
100
AcDbEllipse
 10
470.1325519236
 20
340.3341875203
 30
0.0
 11
0.6626281522836733
 21
2.495169005243952
 31
0.0
210
0.0
220
0.0
230
1.0
 40
0.2344355629
 41
4.774566477658047
 42
6.345362804452915
  0
LINE
  5
1E7
330
1F
100
AcDbEntity
  8
0
  6
Continuous
 62
     7
370
    15
100
AcDbLine
 10
478.5075518603
 20
342.8341873117
 30
0.0
 11
470.757551987
 21
342.8341873117
 31
0.0
  0
ELLIPSE
  5
1E8
330
1F
100
AcDbEntity
  8
0
  6
Continuous
 62
     7
370
    15
100
AcDbEllipse
 10
471.1325519236
 20
340.3341875203
 30
0.0
 11
-0.6626281522837303
 21
2.495169005243952
 31
0.0
210
0.0
220
0.0
230
0.9999999999999998
 40
0.2344355629
 41
6.221007809906229
 42
7.791804136701121
  0
LINE
  5
1E9
330
1F
100
AcDbEntity
  8
0
  6
Continuous
 62
     7
370
    15
100
AcDbLine
 10
470.6325517336
 20
342.8341873117
 30
0.0
 11
470.507551946
 21
342.8341873117
 31
0.0
  0
LINE
  5
1EA
330
1F
100
AcDbEntity
  8
0
  6
Continuous
 62
     7
370
    15
100
AcDbLine
 10
470.6325517336
 20
339.8341877512
 30
0.0
 11
470.6325517336
 21
342.8341873117
 31
0.0
  0
LINE
  5
1EB
330
1F
100
AcDbEntity
  8
0
  6
Continuous
 62
     7
370
    15
100
AcDbLine
 10
470.757551987
 20
342.8341873117
 30
0.0
 11
470.6325517336
 21
342.8341873117
 31
0.0
  0
LINE
  5
1EC
330
1F
100
AcDbEntity
  8
0
  6
Continuous
 62
     7
370
    15
100
AcDbLine
 10
462.6825517344
 20
340.3341873675
 30
0.0
 11
462.6825517344
 21
342.8341873117
 31
0.0
  0
LINE
  5
1ED
330
1F
100
AcDbEntity
  8
0
  6
Continuous
 62
     7
370
    15
100
AcDbLine
 10
470.507551946
 20
342.8341873117
 30
0.0
 11
470.3325517776
 21
342.8341873117
 31
0.0
  0
LINE
  5
1EE
330
1F
100
AcDbEntity
  8
0
  6
Continuous
 62
     7
370
    15
100
AcDbLine
 10
487.5825522768
 20
342.7000186532
 30
0.0
 11
487.5825522768
 21
340.3341873675
 31
0.0
  0
LINE
  5
1EF
330
1F
100
AcDbEntity
  8
0
  6
Continuous
 62
     7
370
    15
100
AcDbLine
 10
486.5825521129
 20
340.3341873675
 30
0.0
 11
487.5825522768
 21
340.3341873675
 31
0.0
  0
LINE
  5
1F0
330
1F
100
AcDbEntity
  8
0
  6
Continuous
 62
     7
370
    15
100
AcDbLine
 10
461.6825515705
 20
342.7000186532
 30
0.0
 11
461.6825515705
 21
340.3341873675
 31
0.0
  0
LINE
  5
1F1
330
1F
100
AcDbEntity
  8
0
  6
Continuous
 62
     7
370
    15
100
AcDbLine
 10
462.6825517344
 20
340.3341873675
 30
0.0
 11
461.6825515705
 21
340.3341873675
 31
0.0
  0
LINE
  5
1F2
330
1F
100
AcDbEntity
  8
0
  6
Continuous
 62
     7
370
    15
100
AcDbLine
 10
460.6325514915
 20
345.9074689202
 30
0.0
 11
488.6325523558
 21
345.9074689202
 31
0.0
  0
SPLINE
  5
1F3
330
1F
100
AcDbEntity
  8
0
  6
Continuous
 62
     7
370
    15
100
AcDbSpline
210
0.0
220
0.0
230
1.0
 70
     8
 71
     3
 72
    14
 73
    10
 74
     0
 42
0.00000001
 43
0.00000001
 40
0.0
 40
0.0
 40
0.0
 40
0.0
 40
0.2691474078437486
 40
0.5324616381921533
 40
0.6960551266561854
 40
0.7665495851868637
 40
0.8889613025574165
 40
0.9503973404209042
 40
0.9999999999999999
 40
0.9999999999999999
 40
0.9999999999999999
 40
0.9999999999999999
 10
459.6325522589077
 20
359.5262091733258
 30
0.0
 10
459.6460073734257
 20
359.6851816149459
 30
0.0
 10
459.6726259924783
 20
359.9996811205165
 30
0.0
 10
459.8540193202827
 20
360.3750800190085
 30
0.0
 10
460.0542424517789
 20
360.600745133064
 30
0.0
 10
460.2324337210976
 20
360.7303053122934
 30
0.0
 10
460.3811520751415
 20
360.7975896768277
 30
0.0
 10
460.5290112080739
 20
360.8277356135883
 30
0.0
 10
460.6005804379247
 20
360.8292475411976
 30
0.0
 10
460.6325514914978
 20
360.8299229420464
 30
0.0
  0
SPLINE
  5
1F4
330
1F
100
AcDbEntity
  8
0
  6
Continuous
 62
     7
370
    15
100
AcDbSpline
210
0.0
220
0.0
230
1.0
 70
     8
 71
     3
 72
     9
 73
     5
 74
     0
 42
0.00000001
 43
0.00000001
 40
0.0
 40
0.0
 40
0.0
 40
0.0
 40
0.7973928176638715
 40
1.0
 40
1.0
 40
1.0
 40
1.0
 10
474.6325519236315
 20
360.7769418634217
 30
0.0
 10
470.9109620912706
 20
360.7807585102956
 30
0.0
 10
466.243764506943
 20
360.7855449176839
 30
0.0
 10
461.5778909799405
 20
360.822446430509
 30
0.0
 10
460.6325514914978
 20
360.8299229420464
 30
0.0
  0
SPLINE
  5
1F5
330
1F
100
AcDbEntity
  8
0
  6
Continuous
 62
     7
370
    15
100
AcDbSpline
210
0.0
220
0.0
230
1.0
 70
     8
 71
     3
 72
     9
 73
     5
 74
     0
 42
0.00000001
 43
0.00000001
 40
0.0
 40
0.0
 40
0.0
 40
0.0
 40
0.2026071823361283
 40
1.0
 40
1.0
 40
1.0
 40
1.0
 10
488.6325523557652
 20
360.8299229420464
 30
0.0
 10
487.6872128673225
 20
360.822446430509
 30
0.0
 10
483.02133934032
 20
360.7855449176839
 30
0.0
 10
478.3541417559924
 20
360.7807585102956
 30
0.0
 10
474.6325519236315
 20
360.7769418634217
 30
0.0
  0
SPLINE
  5
1F6
330
1F
100
AcDbEntity
  8
0
  6
Continuous
 62
     7
370
    15
100
AcDbSpline
210
0.0
220
0.0
230
1.0
 70
     8
 71
     3
 72
    13
 73
     9
 74
     0
 42
0.00000001
 43
0.00000001
 40
0.0
 40
0.0
 40
0.0
 40
0.0
 40
0.127142244416686
 40
0.1564030719210228
 40
0.3225636725783488
 40
0.5126726570888296
 40
0.7416375800334853
 40
0.9999999999999999
 40
0.9999999999999999
 40
0.9999999999999999
 40
0.9999999999999999
 10
488.6325523557652
 20
360.8299229420464
 30
0.0
 10
488.7151302396029
 20
360.8237135476787
 30
0.0
 10
488.8167127998621
 20
360.8160751080842
 30
0.0
 10
489.0092875315784
 20
360.744817377221
 30
0.0
 10
489.2141008558158
 20
360.6108596833334
 30
0.0
 10
489.4331032215397
 20
360.3346100888744
 30
0.0
 10
489.5970626435853
 20
359.9666013096117
 30
0.0
 10
489.6202555771865
 20
359.6787937785186
 30
0.0
 10
489.6325515883554
 20
359.5262091733258
 30
0.0
  0
LINE
  5
1F7
330
1F
100
AcDbEntity
  8
0
  6
CENTERX2
 62
     7
370
     0
100
AcDbLine
 10
474.6325519236
 20
373.0155353802
 30
0.0
 11
474.6325519236
 21
178.9779308743
 31
0.0
  0
LINE
  5
1F8
330
1F
100
AcDbEntity
  8
0
  6
Continuous
 62
     7
370
    15
100
AcDbLine
 10
144.6736431493
 20
69.5156448057
 30
0.0
 11
146.6736434772
 21
66.0515429919
 31
0.0
  0
LINE
  5
1F9
330
1F
100
AcDbEntity
  8
0
  6
Continuous
 62
     7
370
    15
100
AcDbLine
 10
146.6736434772
 20
66.0515429919
 30
0.0
 11
148.6736428737
 21
69.5156448057
 31
0.0
  0
LINE
  5
1FA
330
1F
100
AcDbEntity
  8
0
  6
Continuous
 62
     7
370
    15
100
AcDbLine
 10
144.6736431493
 20
83.5515430665
 30
0.0
 11
144.6736431493
 21
69.5156448057
 31
0.0
  0
LINE
  5
1FB
330
1F
100
AcDbEntity
  8
0
  6
Continuous
 62
     7
370
    15
100
AcDbLine
 10
148.6736428737
 20
69.5156448057
 30
0.0
 11
148.6736428737
 21
83.5515430665
 31
0.0
  0
LINE
  5
1FC
330
1F
100
AcDbEntity
  8
0
  6
Continuous
 62
     7
370
    15
100
AcDbLine
 10
128.6736433207
 20
69.5156448057
 30
0.0
 11
130.6736427172
 21
66.0515429919
 31
0.0
  0
LINE
  5
1FD
330
1F
100
AcDbEntity
  8
0
  6
Continuous
 62
     7
370
    15
100
AcDbLine
 10
130.6736427172
 20
66.0515429919
 30
0.0
 11
132.673643045
 21
69.5156448057
 31
0.0
  0
LINE
  5
1FE
330
1F
100
AcDbEntity
  8
0
  6
Continuous
 62
     7
370
    15
100
AcDbLine
 10
128.6736433207
 20
83.5515430665
 30
0.0
 11
128.6736433207
 21
69.5156448057
 31
0.0
  0
LINE
  5
1FF
330
1F
100
AcDbEntity
  8
0
  6
Continuous
 62
     7
370
    15
100
AcDbLine
 10
132.673643045
 20
69.5156448057
 30
0.0
 11
132.673643045
 21
83.5515430665
 31
0.0
  0
LINE
  5
200
330
1F
100
AcDbEntity
  8
0
  6
Continuous
 62
     7
370
    15
100
AcDbLine
 10
170.2375509589
 20
133.5515438115
 30
0.0
 11
107.1097352355
 21
133.5515438115
 31
0.0
  0
LINE
  5
201
330
1F
100
AcDbEntity
  8
0
  6
Continuous
 62
     7
370
    15
100
AcDbLine
 10
107.1097352355
 20
123.5515421724
 30
0.0
 11
170.2375509589
 21
123.5515421724
 31
0.0
  0
LINE
  5
202
330
1F
100
AcDbEntity
  8
0
  6
Continuous
 62
     7
370
    15
100
AcDbLine
 10
214.4480743258
 20
133.5515438115
 30
0.0
 11
170.2375509589
 21
133.5515438115
 31
0.0
  0
LINE
  5
203
330
1F
100
AcDbEntity
  8
0
  6
Continuous
 62
     7
370
    15
100
AcDbLine
 10
170.2375509589
 20
123.5515421724
 30
0.0
 11
214.4480743258
 21
123.5515421724
 31
0.0
  0
LINE
  5
204
330
1F
100
AcDbEntity
  8
0
  6
Continuous
 62
     7
370
    15
100
AcDbLine
 10
107.1097352355
 20
133.5515438115
 30
0.0
 11
62.8992118685
 21
133.5515438115
 31
0.0
  0
LINE
  5
205
330
1F
100
AcDbEntity
  8
0
  6
Continuous
 62
     7
370
    15
100
AcDbLine
 10
62.8992118685
 20
123.5515421724
 30
0.0
 11
107.1097352355
 21
123.5515421724
 31
0.0
  0
ELLIPSE
  5
206
330
1F
100
AcDbEntity
  8
0
  6
Continuous
 62
     7
370
    15
100
AcDbEllipse
 10
218.6736430972
 20
128.5515430665
 30
0.0
 11
-10.0
 21
0.0
 31
4.996003610813204E-15
210
4.996003610813204E-16
220
0.0
230
1.0
 40
0.5
 41
1.570796326794897
 42
4.712388980384697
  0
LINE
  5
207
330
1F
100
AcDbEntity
  8
0
  6
Continuous
 62
     7
370
    15
100
AcDbLine
 10
218.673641309
 20
133.5515438115
 30
0.0
 11
214.4480743258
 21
133.5515438115
 31
0.0
  0
LINE
  5
208
330
1F
100
AcDbEntity
  8
0
  6
Continuous
 62
     7
370
    15
100
AcDbLine
 10
214.4480743258
 20
123.5515421724
 30
0.0
 11
218.673641309
 21
123.5515421724
 31
0.0
  0
ELLIPSE
  5
209
330
1F
100
AcDbEntity
  8
0
  6
Continuous
 62
     7
370
    15
100
AcDbEllipse
 10
58.6736430972
 20
128.5515430665
 30
0.0
 11
10.0
 21
0.0
 31
4.996003610813204E-15
210
-4.996003610813204E-16
220
0.0
230
1.0
 40
0.5
 41
1.570796326794897
 42
4.712388980384698
  0
LINE
  5
20A
330
1F
100
AcDbEntity
  8
0
  6
Continuous
 62
     7
370
    15
100
AcDbLine
 10
62.8992118685
 20
133.5515438115
 30
0.0
 11
58.6736448853
 21
133.5515438115
 31
0.0
  0
LINE
  5
20B
330
1F
100
AcDbEntity
  8
0
  6
Continuous
 62
     7
370
    15
100
AcDbLine
 10
58.6736448853
 20
123.5515421724
 30
0.0
 11
62.8992118685
 21
123.5515421724
 31
0.0
  0
ARC
  5
20C
330
1F
100
AcDbEntity
  8
0
  6
Continuous
 62
     7
370
    15
100
AcDbCircle
 10
122.6736429828
 20
122.5515766372
 30
0.0
 40
1.000000452212843
100
AcDbArc
 50
0.0040990555
 51
90.4525415222
  0
ARC
  5
20D
330
1F
100
AcDbEntity
  8
0
  6
Continuous
 62
     7
370
    15
100
AcDbCircle
 10
154.6736451349
 20
122.5515426438
 30
0.0
 40
1.000002373800979
100
AcDbArc
 50
90.1366767997
 51
180.002277552
  0
LWPOLYLINE
  5
20E
330
1F
100
AcDbEntity
  8
0
  6
Continuous
 62
     7
370
    15
100
AcDbPolyline
 90
        3
 70
   128
 43
0.0
 10
130.0236428901
 20
92.551542679
 10
130.1492419838
 20
91.9201152867
 10
130.158692114
 20
91.8977663388
  0
LINE
  5
20F
330
1F
100
AcDbEntity
  8
0
  6
Continuous
 62
     7
370
    15
100
AcDbLine
 10
131.1028827726
 20
91.0034046976
 30
0.0
 11
131.1736432648
 21
90.9791246524
 31
0.0
  0
LWPOLYLINE
  5
210
330
1F
100
AcDbEntity
  8
0
  6
Continuous
 62
     7
370
    15
100
AcDbPolyline
 90
        3
 70
   128
 43
0.0
 10
131.1736432648
 20
94.123961637
 10
131.0422154888
 20
94.0759445077
 10
131.0030007548
 20
94.0591034016
  0
LINE
  5
211
330
1F
100
AcDbEntity
  8
0
  6
Continuous
 62
     7
370
    15
100
AcDbLine
 10
130.0600855424
 20
92.8964077031
 30
0.0
 11
130.0236428901
 21
92.551542679
 31
0.0
  0
LINE
  5
212
330
1F
100
AcDbEntity
  8
0
  6
Continuous
 62
     7
370
    15
100
AcDbLine
 10
131.096292734
 20
93.5515428429
 30
0.0
 11
130.518942587
 21
92.551542679
 31
0.0
  0
LINE
  5
213
330
1F
100
AcDbEntity
  8
0
  6
Continuous
 62
     7
370
    15
100
AcDbLine
 10
130.518942587
 20
92.551542679
 30
0.0
 11
131.096292734
 21
91.5515434464
 31
0.0
  0
LINE
  5
214
330
1F
100
AcDbEntity
  8
0
  6
Continuous
 62
     7
370
    15
100
AcDbLine
 10
131.096292734
 20
91.5515434464
 30
0.0
 11
132.2509934938
 21
91.5515434464
 31
0.0
  0
LINE
  5
215
330
1F
100
AcDbEntity
  8
0
  6
Continuous
 62
     7
370
    15
100
AcDbLine
 10
132.2509934938
 20
91.5515434464
 30
0.0
 11
132.8283436409
 21
92.551542679
 31
0.0
  0
LINE
  5
216
330
1F
100
AcDbEntity
  8
0
  6
Continuous
 62
     7
370
    15
100
AcDbLine
 10
132.8283436409
 20
92.551542679
 30
0.0
 11
132.2509934938
 21
93.5515428429
 31
0.0
  0
LINE
  5
217
330
1F
100
AcDbEntity
  8
0
  6
Continuous
 62
     7
370
    15
100
AcDbLine
 10
132.2509934938
 20
93.5515428429
 30
0.0
 11
131.096292734
 21
93.5515428429
 31
0.0
  0
ARC
  5
218
330
1F
100
AcDbEntity
  8
0
  6
Continuous
 62
     7
370
    15
100
AcDbCircle
 10
131.6736430972
 20
92.5515430665
 30
0.0
 40
1.0
100
AcDbArc
 50
270.0
 51
330.0
  0
ARC
  5
219
330
1F
100
AcDbEntity
  8
0
  6
Continuous
 62
     7
370
    15
100
AcDbCircle
 10
131.6736430972
 20
92.5515430665
 30
0.0
 40
1.000000000000008
100
AcDbArc
 50
150.0
 51
210.0
  0
ARC
  5
21A
330
1F
100
AcDbEntity
  8
0
  6
Continuous
 62
     7
370
    15
100
AcDbCircle
 10
131.6736430972
 20
92.5515430665
 30
0.0
 40
1.000000000000008
100
AcDbArc
 50
90.0
 51
150.0
  0
ARC
  5
21B
330
1F
100
AcDbEntity
  8
0
  6
Continuous
 62
     7
370
    15
100
AcDbCircle
 10
131.6736430972
 20
92.5515430665
 30
0.0
 40
1.0
100
AcDbArc
 50
30.0
 51
90.0
  0
ARC
  5
21C
330
1F
100
AcDbEntity
  8
0
  6
Continuous
 62
     7
370
    15
100
AcDbCircle
 10
131.6736430972
 20
92.5515430665
 30
0.0
 40
0.9999999999999836
100
AcDbArc
 50
330.0
 51
30.0
  0
ARC
  5
21D
330
1F
100
AcDbEntity
  8
0
  6
Continuous
 62
     7
370
    15
100
AcDbCircle
 10
131.6736430972
 20
92.5515430665
 30
0.0
 40
1.000000000000008
100
AcDbArc
 50
210.0
 51
270.0
  0
LINE
  5
21E
330
1F
100
AcDbEntity
  8
0
  6
Continuous
 62
     7
370
    15
100
AcDbLine
 10
146.1736429295
 20
90.9791246524
 30
0.0
 11
146.2823711148
 21
91.0179361237
 31
0.0
  0
LWPOLYLINE
  5
21F
330
1F
100
AcDbEntity
  8
0
  6
Continuous
 62
     7
370
    15
100
AcDbPolyline
 90
        3
 70
   128
 43
0.0
 10
146.6289865597
 20
93.8968381381
 10
146.3050707056
 20
94.0759445077
 10
146.1736429295
 20
94.123961637
  0
LINE
  5
220
330
1F
100
AcDbEntity
  8
0
  6
Continuous
 62
     7
370
    15
100
AcDbLine
 10
145.0962927005
 20
93.5515428429
 30
0.0
 11
144.5189425535
 21
92.551542679
 31
0.0
  0
LINE
  5
221
330
1F
100
AcDbEntity
  8
0
  6
Continuous
 62
     7
370
    15
100
AcDbLine
 10
144.5189425535
 20
92.551542679
 30
0.0
 11
145.0962927005
 21
91.5515434464
 31
0.0
  0
LINE
  5
222
330
1F
100
AcDbEntity
  8
0
  6
Continuous
 62
     7
370
    15
100
AcDbLine
 10
145.0962927005
 20
91.5515434464
 30
0.0
 11
146.2509934603
 21
91.5515434464
 31
0.0
  0
LINE
  5
223
330
1F
100
AcDbEntity
  8
0
  6
Continuous
 62
     7
370
    15
100
AcDbLine
 10
146.2509934603
 20
91.5515434464
 30
0.0
 11
146.8283436074
 21
92.551542679
 31
0.0
  0
LINE
  5
224
330
1F
100
AcDbEntity
  8
0
  6
Continuous
 62
     7
370
    15
100
AcDbLine
 10
146.8283436074
 20
92.551542679
 30
0.0
 11
146.2509934603
 21
93.5515428429
 31
0.0
  0
LINE
  5
225
330
1F
100
AcDbEntity
  8
0
  6
Continuous
 62
     7
370
    15
100
AcDbLine
 10
146.2509934603
 20
93.5515428429
 30
0.0
 11
145.0962927005
 21
93.5515428429
 31
0.0
  0
ARC
  5
226
330
1F
100
AcDbEntity
  8
0
  6
Continuous
 62
     7
370
    15
100
AcDbCircle
 10
145.6736430972
 20
92.5515430665
 30
0.0
 40
1.000000000000008
100
AcDbArc
 50
270.0
 51
330.0
  0
ARC
  5
227
330
1F
100
AcDbEntity
  8
0
  6
Continuous
 62
     7
370
    15
100
AcDbCircle
 10
145.6736430972
 20
92.5515430665
 30
0.0
 40
1.0
100
AcDbArc
 50
210.0
 51
270.0
  0
ARC
  5
228
330
1F
100
AcDbEntity
  8
0
  6
Continuous
 62
     7
370
    15
100
AcDbCircle
 10
145.6736430972
 20
92.5515430665
 30
0.0
 40
0.9999999999999836
100
AcDbArc
 50
150.0
 51
210.0
  0
ARC
  5
229
330
1F
100
AcDbEntity
  8
0
  6
Continuous
 62
     7
370
    15
100
AcDbCircle
 10
145.6736430972
 20
92.5515430665
 30
0.0
 40
1.0
100
AcDbArc
 50
90.0
 51
150.0
  0
ARC
  5
22A
330
1F
100
AcDbEntity
  8
0
  6
Continuous
 62
     7
370
    15
100
AcDbCircle
 10
145.6736430972
 20
92.5515430665
 30
0.0
 40
1.000000000000008
100
AcDbArc
 50
30.0
 51
90.0
  0
ARC
  5
22B
330
1F
100
AcDbEntity
  8
0
  6
Continuous
 62
     7
370
    15
100
AcDbCircle
 10
145.6736430972
 20
92.5515430665
 30
0.0
 40
1.000000000000008
100
AcDbArc
 50
330.0
 51
30.0
  0
LINE
  5
22C
330
1F
100
AcDbEntity
  8
0
  6
Continuous
 62
     7
370
    15
100
AcDbLine
 10
144.6736431493
 20
69.5156448057
 30
0.0
 11
148.6736428737
 21
69.5156448057
 31
0.0
  0
LINE
  5
22D
330
1F
100
AcDbEntity
  8
0
  6
Continuous
 62
     7
370
    15
100
AcDbLine
 10
128.6736433207
 20
69.5156448057
 30
0.0
 11
132.673643045
 21
69.5156448057
 31
0.0
  0
ARC
  5
22E
330
1F
100
AcDbEntity
  8
0
  6
Continuous
 62
     7
370
    15
100
AcDbCircle
 10
153.3736430972
 20
83.8515430665
 30
0.0
 40
0.3000000000000114
100
AcDbArc
 50
270.0
 51
0.0
  0
LINE
  5
22F
330
1F
100
AcDbEntity
  8
0
  6
Continuous
 62
     7
370
    15
100
AcDbLine
 10
153.3736432715
 20
83.5515430665
 30
0.0
 11
146.1736429295
 21
83.5515430665
 31
0.0
  0
LINE
  5
230
330
1F
100
AcDbEntity
  8
0
  6
Continuous
 62
     7
370
    15
100
AcDbLine
 10
146.1736429295
 20
83.5515430665
 30
0.0
 11
131.1736432648
 21
83.5515430665
 31
0.0
  0
SPLINE
  5
231
330
1F
100
AcDbEntity
  8
0
  6
Continuous
 62
     7
370
    15
100
AcDbSpline
210
0.0
220
0.0
230
1.0
 70
     8
 71
     3
 72
    15
 73
    11
 74
     0
 42
0.00000001
 43
0.00000001
 40
0.0
 40
0.0
 40
0.0
 40
0.0
 40
0.1325463383834619
 40
0.2650301421143518
 40
0.3987927001409318
 40
0.5321426838938912
 40
0.6641340634272099
 40
0.7965979028518085
 40
0.9304245776582657
 40
1.0
 40
1.0
 40
1.0
 40
1.0
 10
146.1736429295469
 20
90.97912465239514
 30
0.0
 10
146.3438612064162
 20
91.05217633808896
 30
0.0
 10
146.6842174520833
 20
91.19824524408251
 30
0.0
 10
147.067724471321
 20
91.61487209919852
 30
0.0
 10
147.3006517347382
 20
92.12504315368929
 30
0.0
 10
147.3494039088122
 20
92.68687774693849
 30
0.0
 10
147.2114876290167
 20
93.23075522955179
 30
0.0
 10
146.9028584169727
 20
93.69682625851833
 30
0.0
 10
146.5280216169043
 20
93.99031870453152
 30
0.0
 10
146.2639655571679
 20
94.08989925892223
 30
0.0
 10
146.1736429295469
 20
94.12396163696994
 30
0.0
  0
LINE
  5
232
330
1F
100
AcDbEntity
  8
0
  6
Continuous
 62
     7
370
    15
100
AcDbLine
 10
153.6736427619
 20
104.2086912786
 30
0.0
 11
153.6736427619
 21
83.8515430807
 31
0.0
  0
SPLINE
  5
233
330
1F
100
AcDbEntity
  8
0
  6
Continuous
 62
     7
370
    15
100
AcDbSpline
210
0.0
220
0.0
230
1.0
 70
     8
 71
     3
 72
    15
 73
    11
 74
     0
 42
0.00000001
 43
0.00000001
 40
0.0
 40
0.0
 40
0.0
 40
0.0
 40
0.1325463958938309
 40
0.2650302868940047
 40
0.3987926471750717
 40
0.5321426371831299
 40
0.6641340229078189
 40
0.7965978685459495
 40
0.9304246175869477
 40
1.0
 40
1.0
 40
1.0
 40
1.0
 10
131.1736432648231
 20
94.12396163696994
 30
0.0
 10
131.003424968879
 20
94.05090979462179
 30
0.0
 10
130.6630686468194
 20
93.90484055897711
 30
0.0
 10
130.2795621462448
 20
93.48821347239635
 30
0.0
 10
130.0466342553382
 20
92.97804292904245
 30
0.0
 10
129.9978823413166
 20
92.41620853415556
 30
0.0
 10
130.1357985197457
 20
91.87233101387828
 30
0.0
 10
130.4444279579673
 20
91.40626014512117
 30
0.0
 10
130.819264312289
 20
91.11276692139809
 30
0.0
 10
131.0833206195898
 20
91.0131868425027
 30
0.0
 10
131.1736432648231
 20
90.97912465239514
 30
0.0
  0
LINE
  5
234
330
1F
100
AcDbEntity
  8
0
  6
Continuous
 62
     7
370
    15
100
AcDbLine
 10
123.6736434325
 20
83.8515430807
 30
0.0
 11
123.6736434325
 21
104.2086912786
 31
0.0
  0
ARC
  5
235
330
1F
100
AcDbEntity
  8
0
  6
Continuous
 62
     7
370
    15
100
AcDbCircle
 10
145.6736430972
 20
92.5515430665
 30
0.0
 40
1.649999999999991
100
AcDbArc
 50
72.3602986058
 51
287.6397013942
  0
ARC
  5
236
330
1F
100
AcDbEntity
  8
0
  6
Continuous
 62
     7
370
    15
100
AcDbCircle
 10
131.6736430972
 20
92.5515430665
 30
0.0
 40
1.649999999999991
100
AcDbArc
 50
252.3602986058
 51
107.6397013942
  0
LINE
  5
237
330
1F
100
AcDbEntity
  8
0
  6
Continuous
 62
     7
370
    15
100
AcDbLine
 10
131.1736432648
 20
83.5515430665
 30
0.0
 11
123.9736429228
 21
83.5515430665
 31
0.0
  0
ARC
  5
238
330
1F
100
AcDbEntity
  8
0
  6
Continuous
 62
     7
370
    15
100
AcDbCircle
 10
123.9736430972
 20
83.8515430665
 30
0.0
 40
0.2999999999999972
100
AcDbArc
 50
180.0
 51
270.0
  0
LINE
  5
239
330
1F
100
AcDbEntity
  8
0
  6
Continuous
 62
     7
370
    15
100
AcDbLine
 10
153.6736427619
 20
123.5515421724
 30
0.0
 11
153.6736427619
 21
104.2086912786
 31
0.0
  0
LINE
  5
23A
330
1F
100
AcDbEntity
  8
0
  6
Continuous
 62
     7
370
    15
100
AcDbLine
 10
123.6736434325
 20
104.2086912786
 30
0.0
 11
123.6736434325
 21
123.5515421724
 31
0.0
  0
ELLIPSE
  5
23B
330
1F
100
AcDbEntity
  8
0
  6
Continuous
 62
     7
370
    15
100
AcDbEllipse
 10
131.1736430972
 20
104.2086919557
 30
0.0
 11
0.0
 21
9.467391304347828
 31
0.0
210
0.0
220
0.0
230
1.0
 40
0.7921928817
 41
1.570796326794897
 42
3.141592653589793
  0
LINE
  5
23C
330
1F
100
AcDbEntity
  8
0
  6
Continuous
 62
     7
370
    15
100
AcDbLine
 10
146.1736429295
 20
94.7413009127
 30
0.0
 11
131.1736432648
 21
94.7413009127
 31
0.0
  0
ELLIPSE
  5
23D
330
1F
100
AcDbEntity
  8
0
  6
Continuous
 62
     7
370
    15
100
AcDbEllipse
 10
146.1736430972
 20
104.2086919557
 30
0.0
 11
0.0
 21
9.467391304347842
 31
0.0
210
0.0
220
0.0
230
1.0
 40
0.7921928817
 41
3.141592653589793
 42
4.7123889803847
  0
DIMENSION
  5
23E
330
1F
100
AcDbEntity
  8
0
  6
Continuous
 62
     7
370
     0
100
AcDbDimension
  2
*D14
 10
146.6736430972
 20
48.4225435387
 30
0.0
 11
138.6736430972
 21
48.4225435387
 31
0.0
 70
   160
 71
     2
 42
-1.0
  3
SLDDIMSTYLE0
100
AcDbAlignedDimension
 13
130.6736430972
 23
64.0515430665
 33
0.0
 14
146.6736430972
 24
64.0515430665
 34
0.0
100
AcDbRotatedDimension
  0
DIMENSION
  5
248
330
1F
100
AcDbEntity
  8
0
  6
Continuous
 62
     7
370
     0
100
AcDbDimension
  2
*D15
 10
145.6736430972
 20
56.0515430665
 30
0.0
 11
138.6736430972
 21
56.0515430665
 31
0.0
 70
   160
 71
     2
 42
-1.0
  3
SLDDIMSTYLE0
100
AcDbAlignedDimension
 13
131.6736430972
 23
88.4015430665
 33
0.0
 14
145.6736430972
 24
88.4015430665
 34
0.0
100
AcDbRotatedDimension
  0
INSERT
  5
25D
330
1F
100
AcDbEntity
  8
0
  6
Continuous
 62
     7
370
     0
100
AcDbBlockReference
  2
SW_CENTERMARKSYMBOL_0
 10
131.6736430972
 20
92.5515430665
 30
0.0
  0
INSERT
  5
269
330
1F
100
AcDbEntity
  8
0
  6
Continuous
 62
     7
370
     0
100
AcDbBlockReference
  2
SW_CENTERMARKSYMBOL_1
 10
145.6736430972
 20
92.5515430665
 30
0.0
  0
LINE
  5
26A
330
1F
100
AcDbEntity
  8
0
  6
CENTERX2
 62
     7
370
     0
100
AcDbLine
 10
130.6736430972
 20
90.5399892497
 30
0.0
 11
130.6736430972
 21
64.0515430665
 31
0.0
  0
LINE
  5
26B
330
1F
100
AcDbEntity
  8
0
  6
CENTERX2
 62
     7
370
     0
100
AcDbLine
 10
146.6736430972
 20
90.5399892497
 30
0.0
 11
146.6736430972
 21
64.0515430665
 31
0.0
  0
LINE
  5
26C
330
1F
100
AcDbEntity
  8
0
  6
CENTERX2
 62
     7
370
     0
100
AcDbLine
 10
138.6736430972
 20
81.8515430665
 30
0.0
 11
138.6736430972
 21
136.080929318
 31
0.0
  0
ENDSEC
  0
SECTION
  2
OBJECTS
  0
DICTIONARY
  5
C
330
0
100
AcDbDictionary
281
     1
  3
ACAD_GROUP
350
D
  3
ACAD_LAYOUT
350
1A
  3
ACAD_MLINESTYLE
350
17
  3
ACAD_PLOTSETTINGS
350
19
  3
ACAD_PLOTSTYLENAME
350
E
  0
DICTIONARY
  5
D
102
{ACAD_REACTORS
330
C
102
}
330
C
100
AcDbDictionary
281
     1
  0
DICTIONARY
  5
1A
102
{ACAD_REACTORS
330
C
102
}
330
C
100
AcDbDictionary
281
     1
  3
Layout1
350
1E
  3
Layout2
350
26
  3
Model
350
22
  0
DICTIONARY
  5
17
102
{ACAD_REACTORS
330
C
102
}
330
C
100
AcDbDictionary
281
     1
  3
Standard
350
18
  0
DICTIONARY
  5
19
102
{ACAD_REACTORS
330
C
102
}
330
C
100
AcDbDictionary
281
     1
  0
ACDBDICTIONARYWDFLT
  5
E
102
{ACAD_REACTORS
330
C
102
}
330
C
100
AcDbDictionary
281
     1
  3
Normal
350
F
100
AcDbDictionaryWithDefault
340
F
  0
LAYOUT
  5
1E
102
{ACAD_REACTORS
330
1A
102
}
330
1A
100
AcDbPlotSettings
  1

  2
none_device
  4

  6

 40
0.0
 41
0.0
 42
0.0
 43
0.0
 44
0.0
 45
0.0
 46
0.0
 47
0.0
 48
0.0
 49
0.0
140
0.0
141
0.0
142
1.0
143
1.0
 70
   688
 72
     0
 73
     0
 74
     5
  7

 75
    16
147
1.0
148
0.0
149
0.0
100
AcDbLayout
  1
Layout1
 70
     1
 71
     1
 10
0.0
 20
0.0
 11
420.0
 21
297.0
 12
0.0
 22
0.0
 32
0.0
 14
1.0000000000E+20
 24
1.0000000000E+20
 34
1.0000000000E+20
 15
-1.0000000000E+20
 25
-1.0000000000E+20
 35
-1.0000000000E+20
146
0.0
 13
0.0
 23
0.0
 33
0.0
 16
1.0
 26
0.0
 36
0.0
 17
0.0
 27
1.0
 37
0.0
 76
     0
330
1B
  0
LAYOUT
  5
26
102
{ACAD_REACTORS
330
1A
102
}
330
1A
100
AcDbPlotSettings
  1

  2
none_device
  4

  6

 40
0.0
 41
0.0
 42
0.0
 43
0.0
 44
0.0
 45
0.0
 46
0.0
 47
0.0
 48
0.0
 49
0.0
140
0.0
141
0.0
142
1.0
143
1.0
 70
   688
 72
     0
 73
     0
 74
     5
  7

 75
    16
147
1.0
148
0.0
149
0.0
100
AcDbLayout
  1
Layout2
 70
     1
 71
     2
 10
0.0
 20
0.0
 11
0.0
 21
0.0
 12
0.0
 22
0.0
 32
0.0
 14
0.0
 24
0.0
 34
0.0
 15
0.0
 25
0.0
 35
0.0
146
0.0
 13
0.0
 23
0.0
 33
0.0
 16
1.0
 26
0.0
 36
0.0
 17
0.0
 27
1.0
 37
0.0
 76
     0
330
23
  0
LAYOUT
  5
22
102
{ACAD_REACTORS
330
1A
102
}
330
1A
100
AcDbPlotSettings
  1

  2
none_device
  4

  6

 40
0.0
 41
0.0
 42
0.0
 43
0.0
 44
0.0
 45
0.0
 46
0.0
 47
0.0
 48
0.0
 49
0.0
140
0.0
141
0.0
142
1.0
143
1.0
 70
  1712
 72
     0
 73
     0
 74
     0
  7

 75
     0
147
1.0
148
0.0
149
0.0
100
AcDbLayout
  1
Model
 70
     1
 71
     0
 10
0.0
 20
0.0
 11
594.0
 21
420.0
 12
0.0
 22
0.0
 32
0.0
 14
0.0
 24
0.0
 34
0.0
 15
594.0
 25
420.0
 35
0.0
146
0.0
 13
0.0
 23
0.0
 33
0.0
 16
1.0
 26
0.0
 36
0.0
 17
0.0
 27
1.0
 37
0.0
 76
     0
330
1F
331
29
  0
MLINESTYLE
  5
18
102
{ACAD_REACTORS
330
17
102
}
330
17
100
AcDbMlineStyle
  2
Standard
 70
     0
  3

 62
   256
 51
90.0
 52
90.0
 71
     2
 49
0.5
 62
   256
  6
BYLAYER
 49
-0.5
 62
   256
  6
BYLAYER
  0
ACDBPLACEHOLDER
  5
F
102
{ACAD_REACTORS
330
E
102
}
330
E
  0
ENDSEC
  0
EOF
