  0
SECTION
  2
HEADER
  9
$ACADVER
  1
AC1009
  9
$INSBASE
 10
0.0
 20
0.0
 30
0.0
  9
$EXTMIN
 10
-344.1481576071431
 20
-549.9578156508403
 30
0.0
  9
$EXTMAX
 10
349.42453484710069
 20
66.338674675041943
 30
0.0
  9
$LIMMIN
 10
0.0
 20
0.0
  9
$LIMMAX
 10
420.0
 20
297.0
  9
$ORTHOMODE
 70
     0
  9
$REGENMODE
 70
     1
  9
$FILLMODE
 70
     1
  9
$QTEXTMODE
 70
     0
  9
$MIRRTEXT
 70
     1
  9
$DRAGMODE
 70
     2
  9
$LTSCALE
 40
1.0
  9
$OSMODE
 70
   957
  9
$ATTMODE
 70
     1
  9
$TEXTSIZE
 40
2.5
  9
$TRACEWID
 40
1.0
  9
$TEXTSTYLE
  7
STANDARD
  9
$CLAYER
  8
0
  9
$CELTYPE
  6
BYLAYER
  9
$CECOLOR
 62
   256
  9
$DIMSCALE
 40
1.0
  9
$DIMASZ
 40
2.5
  9
$DIMEXO
 40
1.0
  9
$DIMDLI
 40
10.0
  9
$DIMRND
 40
0.0
  9
$DIMDLE
 40
0.0
  9
$DIMEXE
 40
1.0
  9
$DIMTP
 40
0.1
  9
$DIMTM
 40
0.1
  9
$DIMTXT
 40
3.5
  9
$DIMCEN
 40
0.0
  9
$DIMTSZ
 40
0.0
  9
$DIMTOL
 70
     0
  9
$DIMLIM
 70
     0
  9
$DIMTIH
 70
     0
  9
$DIMTOH
 70
     0
  9
$DIMSE1
 70
     0
  9
$DIMSE2
 70
     0
  9
$DIMTAD
 70
     1
  9
$DIMZIN
 70
     8
  9
$DIMBLK
  1

  9
$DIMASO
 70
     1
  9
$DIMSHO
 70
     1
  9
$DIMPOST
  1

  9
$DIMAPOST
  1
"
  9
$DIMALT
 70
     0
  9
$DIMALTD
 70
     2
  9
$DIMALTF
 40
0.0393701
  9
$DIMLFAC
 40
1.0
  9
$DIMTOFL
 70
     1
  9
$DIMTVP
 40
0.0
  9
$DIMTIX
 70
     0
  9
$DIMSOXD
 70
     0
  9
$DIMSAH
 70
     0
  9
$DIMBLK1
  1

  9
$DIMBLK2
  1

  9
$DIMSTYLE
  2
AM_DIN
  9
$DIMCLRD
 70
   256
  9
$DIMCLRE
 70
   256
  9
$DIMCLRT
 70
     2
  9
$DIMTFAC
 40
0.71
  9
$DIMGAP
 40
1.5
  9
$LUNITS
 70
     2
  9
$LUPREC
 70
     2
  9
$SKETCHINC
 40
1.0
  9
$FILLETRAD
 40
0.0
  9
$AUNITS
 70
     0
  9
$AUPREC
 70
     0
  9
$MENU
  1
.
  9
$ELEVATION
 40
0.0
  9
$PELEVATION
 40
0.0
  9
$THICKNESS
 40
0.0
  9
$LIMCHECK
 70
     0
  9
$BLIPMODE
 70
     0
  9
$CHAMFERA
 40
2.5
  9
$CHAMFERB
 40
2.5
  9
$SKPOLY
 70
     0
  9
$TDCREATE
 40
2453918.5543399081
  9
$TDUPDATE
 40
2456885.8177930331
  9
$TDINDWG
 40
0.7436399653
  9
$TDUSRTIMER
 40
0.7436358102
  9
$USRTIMER
 70
     1
  9
$ANGBASE
 50
0.0
  9
$ANGDIR
 70
     0
  9
$PDMODE
 70
     0
  9
$PDSIZE
 40
0.0
  9
$PLINEWID
 40
0.0
  9
$COORDS
 70
     1
  9
$SPLFRAME
 70
     0
  9
$SPLINETYPE
 70
     6
  9
$SPLINESEGS
 70
     8
  9
$ATTDIA
 70
     1
  9
$ATTREQ
 70
     1
  9
$HANDLING
 70
     1
  9
$HANDSEED
  5
3BAD
  9
$SURFTAB1
 70
     6
  9
$SURFTAB2
 70
     6
  9
$SURFTYPE
 70
     6
  9
$SURFU
 70
     6
  9
$SURFV
 70
     6
  9
$UCSNAME
  2

  9
$UCSORG
 10
0.0
 20
0.0
 30
0.0
  9
$UCSXDIR
 10
1.0
 20
0.0
 30
0.0
  9
$UCSYDIR
 10
0.0
 20
1.0
 30
0.0
  9
$PUCSNAME
  2

  9
$PUCSORG
 10
0.0
 20
0.0
 30
0.0
  9
$PUCSXDIR
 10
1.0
 20
0.0
 30
0.0
  9
$PUCSYDIR
 10
0.0
 20
1.0
 30
0.0
  9
$USERI1
 70
     0
  9
$USERI2
 70
     0
  9
$USERI3
 70
     0
  9
$USERI4
 70
     0
  9
$USERI5
 70
     0
  9
$USERR1
 40
0.0
  9
$USERR2
 40
0.0
  9
$USERR3
 40
0.0
  9
$USERR4
 40
0.0
  9
$USERR5
 40
0.0
  9
$WORLDVIEW
 70
     1
  9
$SHADEDGE
 70
     3
  9
$SHADEDIF
 70
    70
  9
$TILEMODE
 70
     1
  9
$MAXACTVP
 70
    64
  9
$PLIMCHECK
 70
     0
  9
$PEXTMIN
 10
1.0000000000000000E+020
 20
1.0000000000000000E+020
 30
1.0000000000000000E+020
  9
$PEXTMAX
 10
-1.0000000000000000E+020
 20
-1.0000000000000000E+020
 30
-1.0000000000000000E+020
  9
$PLIMMIN
 10
0.0
 20
0.0
  9
$PLIMMAX
 10
420.0
 20
297.0
  9
$UNITMODE
 70
     0
  9
$VISRETAIN
 70
     1
  9
$PLINEGEN
 70
     0
  9
$PSLTSCALE
 70
     1
  0
ENDSEC
  0
SECTION
  2
TABLES
  0
TABLE
  2
VPORT
 70
     1
  0
VPORT
  2
*ACTIVE
 70
     0
 10
0.0
 20
0.0
 11
1.0
 21
1.0
 12
-56.878011079898442
 22
-428.77251826894121
 13
0.0
 23
0.0
 14
2.5
 24
2.5
 15
10.0
 25
10.0
 16
0.0
 26
0.0
 36
1.0
 17
0.0
 27
0.0
 37
0.0
 40
241.5883776683001
 41
1.681623931623931
 42
50.0
 43
0.0
 44
0.0
 50
0.0
 51
0.0
 71
     0
 72
   100
 73
     1
 74
     3
 75
     0
 76
     0
 77
     0
 78
     0
  0
ENDTAB
  0
TABLE
  2
LTYPE
 70
    27
  0
LTYPE
  2
CONTINUOUS
 70
     0
  3
Solid line
 72
    65
 73
     0
 40
0.0
  0
LTYPE
  2
AMCONSTR
 70
     0
  3
_______________________
 72
    65
 73
     2
 40
9999.0
 49
9999.0
 49
0.0
  0
LTYPE
  2
AMZIGZAG
 70
     0
  3
/\/-/\/-/\/-/\/-/\/-/\/
 72
    65
 73
     2
 40
11.0001
 49
0.0001
 49
-11.0
  0
LTYPE
  2
AM_DIN_F_W050
 70
     0
  3
__ __ __ __ __ __ __ __ __ __ __ __ __ __ __
 72
    65
 73
     2
 40
6.25
 49
4.75
 49
-1.5
  0
LTYPE
  2
AM_DIN_G_W050
 70
     0
  3
____ . ____ . ____ . ____ . ____ . ____ . ____
 72
    65
 73
     4
 40
13.75
 49
9.75
 49
-1.5
 49
1.0
 49
-1.5
  0
LTYPE
  2
AM_DIN_K_W050
 70
     0
  3
_____ . . _____ . . _____ . . ____ .. ____
 72
    65
 73
     6
 40
16.25
 49
9.75
 49
-1.5
 49
1.0
 49
-1.5
 49
1.0
 49
-1.5
  0
LTYPE
  2
AM_DIN_G_W050X2
 70
     0
  3
__ . __ . __ . __ . __ . __
 72
    65
 73
     4
 40
6.875
 49
4.75
 49
-0.875
 49
0.375
 49
-0.875
  0
LTYPE
  2
AM_DIN_F_W050X2
 70
     0
  3
 _ _ _ _ _ _ _ _ _ _ _ _
 72
    65
 73
     2
 40
3.125
 49
2.25
 49
-0.875
  0
LTYPE
  2
ACDINWELD
 70
     0
  3
_ _ _ _ _
 72
    65
 73
     2
 40
2.0
 49
2.0
 49
-1.0
  0
LTYPE
  2
ACDINTGB
 70
     0
  3
__ . . __ . .
 72
    65
 73
     6
 40
9.0
 49
4.0
 49
-1.0
 49
1.0
 49
-1.0
 49
1.0
 49
-1.0
  0
LTYPE
  2
ACDINTGL
 70
     0
  3
_ _ _ _ _
 72
    65
 73
     2
 40
3.0
 49
2.0
 49
-1.0
  0
LTYPE
  2
CENTER
 70
     0
  3
__ . __
 72
    65
 73
     4
 40
7.0
 49
4.0
 49
-1.0
 49
1.0
 49
-1.0
  0
LTYPE
  2
PHANTOM2
 70
     0
  3
Phantom (.5x) ___ _ _ ___ _ _ ___ _ _ ___ _ _
 72
    65
 73
     6
 40
1.25
 49
0.625
 49
-0.125
 49
0.125
 49
-0.125
 49
0.125
 49
-0.125
  0
LTYPE
  2
ACANSTGB
 70
     0
  3
__ . . __ . .
 72
    65
 73
     6
 40
0.35433070866
 49
0.15748031496
 49
-0.03937007874
 49
0.03937007874
 49
-0.03937007874
 49
0.03937007874
 49
-0.03937007874
  0
LTYPE
  2
ACANSTGL
 70
     0
  3
_ _ _ _ _
 72
    65
 73
     2
 40
0.11811023622
 49
0.07874015748
 49
-0.03937007874
  0
LTYPE
  2
HIDDEN
 70
     0
  3
Verdeckt
 72
    65
 73
     2
 40
9.5250000000000004
 49
6.3499999999999988
 49
-3.1749999999999989
  0
LTYPE
  2
AM_ISO02W050
 70
     0
  3
__ __ __ __ __ __ __ __ __ __ __ __ __ __ __
 72
    65
 73
     2
 40
7.5
 49
6.0
 49
-1.5
  0
LTYPE
  2
AM_ISO08W050
 70
     0
  3
____ . ____ . ____ . ____ . ____ . ____ . ____
 72
    65
 73
     4
 40
18.0
 49
12.0
 49
-1.5
 49
3.0
 49
-1.5
  0
LTYPE
  2
AM_ISO09W050
 70
     0
  3
_____ . . _____ . . _____ . . ____ .. ____
 72
    65
 73
     6
 40
22.5
 49
12.0
 49
-1.5
 49
3.0
 49
-1.5
 49
3.0
 49
-1.5
  0
LTYPE
  2
AM_ISO08W050X2
 70
     0
  3
__ . __ . __ . __ . __ . __
 72
    65
 73
     4
 40
9.0
 49
6.0
 49
-0.75
 49
1.5
 49
-0.75
  0
LTYPE
  2
AM_ISO02W050X2
 70
     0
  3
 _ _ _ _ _ _ _ _ _ _ _ _
 72
    65
 73
     2
 40
3.75
 49
3.0
 49
-0.75
  0
LTYPE
  2
CENTER2
 70
     0
  3
Center (.5x) ___ _ ___ _ ___ _ ___ _ ___ _ ___
 72
    65
 73
     4
 40
1.125
 49
0.75
 49
-0.125
 49
0.125
 49
-0.125
  0
LTYPE
  2
HIDDEN2
 70
     0
  3
Hidden (.5x) _ _ _ _ _ _ _ _ _ _ _ _ _ _ _ _ _
 72
    65
 73
     2
 40
0.1875
 49
0.125
 49
-0.0625
  0
LTYPE
  2
AMZIGZAG2
 70
     0
  3
/\/-/\/-/\/-/\/-/\/-/\/
 72
    65
 73
     2
 40
0.4401
 49
0.0001
 49
-0.4400000000000001
  0
LTYPE
  2
ACISOWELD
 70
     0
  3
_ _ _ _ _
 72
    65
 73
     2
 40
2.0
 49
2.0
 49
-1.0
  0
LTYPE
  2
ACISOTGL
 70
     0
  3
_ _ _ _ _
 72
    65
 73
     2
 40
3.0
 49
2.0
 49
-1.0
  0
LTYPE
  2
ACISOTGB
 70
     0
  3
__ . . __ . .
 72
    65
 73
     6
 40
9.0
 49
4.0
 49
-1.0
 49
1.0
 49
-1.0
 49
1.0
 49
-1.0
  0
ENDTAB
  0
TABLE
  2
LAYER
 70
     3
  0
LAYER
  2
0
 70
     0
 62
     7
  6
CONTINUOUS
  0
LAYER
  2
AM_5
 70
     0
 62
     3
  6
CONTINUOUS
  0
LAYER
  2
DEFPOINTS
 70
     0
 62
     7
  6
CONTINUOUS
  0
ENDTAB
  0
TABLE
  2
STYLE
 70
     9
  0
STYLE
  2
STANDARD
 70
     0
 40
0.0
 41
1.0
 50
0.0
 71
     0
 42
2.5
  3
ISOCP.SHX
  4

  0
STYLE
  2

 70
     1
 40
0.0
 41
1.0
 50
0.0
 71
     0
 42
2.5
  3
ltypeshp.shx
  4

  0
STYLE
  2
ACDINTS
 70
     0
 40
1.0
 41
1.0
 50
0.0
 71
     0
 42
2.5
  3
isocp.shx
  4

  0
STYLE
  2
ACDINGDT
 70
     0
 40
0.0
 41
1.0
 50
0.0
 71
     0
 42
2.5
  3
amgdt.shx
  4

  0
STYLE
  2
ACANSTS
 70
     0
 40
1.0
 41
1.0
 50
0.0
 71
     0
 42
0.2
  3
romans.shx
  4

  0
STYLE
  2
ACANSGDT
 70
     0
 40
0.0
 41
1.0
 50
0.0
 71
     0
 42
0.2
  3
amgdtans.shx
  4

  0
STYLE
  2

 70
     1
 40
0.0
 41
1.0
 50
0.0
 71
     0
 42
0.2
  3
genltshp.shx
  4

  0
STYLE
  2
ACISOTS
 70
     0
 40
1.0
 41
1.0
 50
0.0
 71
     0
 42
2.5
  3
isocp.shx
  4
extfont.shx
  0
STYLE
  2
ACISOGDT
 70
     0
 40
0.0
 41
1.0
 50
0.0
 71
     0
 42
2.5
  3
amgdt.shx
  4

  0
ENDTAB
  0
TABLE
  2
VIEW
 70
     0
  0
ENDTAB
  0
TABLE
  2
UCS
 70
     0
  0
ENDTAB
  0
TABLE
  2
APPID
 70
    23
  0
APPID
  2
ACAD
 70
     0
  0
APPID
  2
MCAD_NO_VIS
 70
     0
  0
APPID
  2
ACAD_TEMP_GRAPHIC
 70
     0
  0
APPID
  2
ACATTRIBSERVICES
 70
     0
  0
APPID
  2
DCO15
 70
     0
  0
APPID
  2
GENIUS_GENREC_14
 70
     0
  0
APPID
  2
GENIUS_GENODEF_13
 70
     0
  0
APPID
  2
GENIUS_GENOBJ-N-REC_13
 70
     0
  0
APPID
  2
AD_DRAW
 70
     0
  0
APPID
  2
DESIGNERASSEMBLIES
 70
     0
  0
APPID
  2
ACADM_DIM_EDIT
 70
     0
  0
APPID
  2
AMDT_DM_ADJ
 70
     0
  0
APPID
  2
ACAD_MLEADERVER
 70
     0
  0
APPID
  2
ACAD_DSTYLE_DIMBREAK
 70
     0
  0
APPID
  2
ACAD_DSTYLE_DIMJAG
 70
     0
  0
APPID
  2
ACAD_PSEXT
 70
     0
  0
APPID
  2
ACAD_EXEMPT_FROM_CAD_STANDARDS
 70
     0
  0
APPID
  2
GENIUS_GENOBJ-N-FIL_13
 70
     0
  0
APPID
  2
ACAD_NAV_VCDISPLAY
 70
     0
  0
APPID
  2
ACAECLAYERSTANDARD
 70
     0
  0
APPID
  2
GENIUS_GENDTOL_13
 70
     0
  0
APPID
  2
ACAD_DSTYLE_DIMINSPECT
 70
     0
  0
APPID
  2
ACADANNOMONITORALERTICONDI
 70
     0
  0
ENDTAB
  0
TABLE
  2
DIMSTYLE
 70
    22
  0
DIMSTYLE
  2
AM_DIN
 70
     0
  3

  4
"
  5

  6

  7

 40
1.0
 41
2.5
 42
1.0
 43
10.0
 44
1.0
 45
0.0
 46
0.0
 47
0.1
 48
0.1
140
3.5
141
0.0
142
0.0
143
0.0393701
144
1.0
145
0.0
146
0.71
147
1.5
 71
     0
 72
     0
 73
     0
 74
     0
 75
     0
 76
     0
 77
     1
 78
     8
170
     0
171
     2
172
     1
173
     0
174
     0
175
     0
176
   256
177
   256
178
     2
  0
DIMSTYLE
  2
AM_DIN$3
 70
     0
  3

  4
"
  5

  6

  7

 40
1.0
 41
2.5
 42
1.0
 43
10.0
 44
1.0
 45
0.0
 46
0.0
 47
0.1
 48
0.1
140
3.5
141
0.0
142
0.0
143
0.0393701
144
1.0
145
0.0
146
0.71
147
1.5
 71
     0
 72
     0
 73
     0
 74
     1
 75
     0
 76
     0
 77
     1
 78
     8
170
     0
171
     2
172
     0
173
     0
174
     0
175
     0
176
   256
177
   256
178
     2
  0
DIMSTYLE
  2
AM_DIN$4
 70
     0
  3

  4
"
  5

  6

  7

 40
1.0
 41
2.5
 42
1.0
 43
10.0
 44
1.0
 45
0.0
 46
0.0
 47
0.1
 48
0.1
140
3.5
141
0.0
142
0.0
143
0.0393701
144
1.0
145
0.0
146
0.71
147
1.5
 71
     0
 72
     0
 73
     0
 74
     1
 75
     0
 76
     0
 77
     1
 78
     8
170
     0
171
     2
172
     0
173
     0
174
     0
175
     0
176
   256
177
   256
178
     2
  0
DIMSTYLE
  2
AM_DIN$6
 70
     0
  3

  4
"
  5

  6

  7

 40
1.0
 41
2.5
 42
1.0
 43
10.0
 44
1.0
 45
0.0
 46
0.0
 47
0.1
 48
0.1
140
3.5
141
0.0
142
0.0
143
0.0393701
144
1.0
145
0.0
146
0.71
147
1.5
 71
     0
 72
     0
 73
     0
 74
     0
 75
     0
 76
     0
 77
     0
 78
     8
170
     0
171
     2
172
     1
173
     0
174
     0
175
     0
176
   256
177
   256
178
     2
  0
DIMSTYLE
  2
AM_DIN$7
 70
     0
  3

  4
"
  5

  6

  7

 40
1.0
 41
2.5
 42
1.0
 43
10.0
 44
1.0
 45
0.0
 46
0.0
 47
0.1
 48
0.1
140
5.0
141
0.0
142
0.0
143
0.0393701
144
1.0
145
0.0
146
0.71
147
1.5
 71
     0
 72
     0
 73
     0
 74
     0
 75
     0
 76
     0
 77
     1
 78
     8
170
     0
171
     2
172
     1
173
     0
174
     0
175
     0
176
   256
177
   256
178
     2
  0
DIMSTYLE
  2
AM_DIN$SF
 70
     0
  3

  4
"
  5

  6

  7

 40
1.0
 41
2.5
 42
1.0
 43
10.0
 44
1.0
 45
0.0
 46
0.0
 47
0.1
 48
0.1
140
3.5
141
0.0
142
0.0
143
0.0393701
144
1.0
145
0.0
146
0.71
147
1.5
 71
     0
 72
     0
 73
     0
 74
     0
 75
     1
 76
     1
 77
     1
 78
     8
170
     0
171
     2
172
     1
173
     0
174
     0
175
     0
176
   256
177
   256
178
     2
  0
DIMSTYLE
  2
AM_DIN$SH
 70
     0
  3

  4
"
  5

  6
GENAXEH
  7

 40
1.0
 41
2.5
 42
1.0
 43
10.0
 44
1.0
 45
0.0
 46
0.0
 47
0.1
 48
0.1
140
3.5
141
0.0
142
0.0
143
0.0393701
144
2.0
145
0.0
146
0.71
147
1.5
 71
     0
 72
     0
 73
     0
 74
     0
 75
     1
 76
     1
 77
     1
 78
     8
170
     0
171
     2
172
     1
173
     1
174
     0
175
     0
176
   256
177
   256
178
     2
  0
DIMSTYLE
  2
STANDARD
 70
     0
  3

  4

  5

  6

  7

 40
1.0
 41
0.18
 42
0.0625
 43
0.38
 44
0.18
 45
0.0
 46
0.0
 47
0.0
 48
0.0
140
0.18
141
0.09
142
0.0
143
25.399999999999999
144
1.0
145
0.0
146
1.0
147
0.09
 71
     0
 72
     0
 73
     1
 74
     1
 75
     0
 76
     0
 77
     0
 78
     0
170
     0
171
     2
172
     0
173
     0
174
     0
175
     0
176
     0
177
     0
178
     0
  0
DIMSTYLE
  2
AM_ANSI
 70
     0
  3

  4
mm
  5

  6

  7

 40
1.0
 41
0.1
 42
0.05
 43
0.5
 44
0.1
 45
0.0
 46
0.0
 47
0.1
 48
0.1
140
0.12
141
0.0
142
0.0
143
25.399999999999999
144
1.0
145
0.0
146
0.71
147
0.06
 71
     0
 72
     0
 73
     1
 74
     1
 75
     0
 76
     0
 77
     0
 78
     7
170
     0
171
     2
172
     0
173
     0
174
     0
175
     0
176
   256
177
   256
178
     2
  0
DIMSTYLE
  2
AM_ANSI$3
 70
     0
  3

  4
mm
  5

  6

  7

 40
1.0
 41
0.1
 42
0.05
 43
0.5
 44
0.1
 45
0.0
 46
0.0
 47
0.1
 48
0.1
140
0.12
141
0.0
142
0.0
143
25.399999999999999
144
1.0
145
0.0
146
0.71
147
0.06
 71
     0
 72
     0
 73
     1
 74
     1
 75
     0
 76
     0
 77
     0
 78
     7
170
     0
171
     2
172
     0
173
     0
174
     0
175
     0
176
   256
177
   256
178
     2
  0
DIMSTYLE
  2
AM_ANSI$4
 70
     0
  3

  4
mm
  5

  6

  7

 40
1.0
 41
0.1
 42
0.05
 43
0.5
 44
0.1
 45
0.0
 46
0.0
 47
0.1
 48
0.1
140
0.12
141
0.0
142
0.0
143
25.399999999999999
144
1.0
145
0.0
146
0.71
147
0.06
 71
     0
 72
     0
 73
     1
 74
     1
 75
     0
 76
     0
 77
     0
 78
     7
170
     0
171
     2
172
     0
173
     0
174
     0
175
     0
176
   256
177
   256
178
     2
  0
DIMSTYLE
  2
AM_ANSI$7
 70
     0
  3

  4
mm
  5

  6

  7

 40
1.0
 41
0.1
 42
0.05
 43
0.5
 44
0.1
 45
0.0
 46
0.0
 47
0.1
 48
0.1
140
0.24
141
0.0
142
0.0
143
25.399999999999999
144
1.0
145
0.0
146
0.71
147
0.06
 71
     0
 72
     0
 73
     1
 74
     1
 75
     0
 76
     0
 77
     0
 78
     7
170
     0
171
     2
172
     0
173
     0
174
     0
175
     0
176
   256
177
   256
178
     2
  0
DIMSTYLE
  2
AM_ANSI$SF
 70
     0
  3

  4
mm
  5

  6

  7

 40
1.0
 41
0.1
 42
0.05
 43
0.5
 44
0.1
 45
0.0
 46
0.0
 47
0.1
 48
0.1
140
0.12
141
0.0
142
0.0
143
25.399999999999999
144
1.0
145
0.0
146
0.71
147
0.06
 71
     0
 72
     0
 73
     1
 74
     1
 75
     1
 76
     1
 77
     0
 78
     7
170
     0
171
     2
172
     0
173
     0
174
     0
175
     0
176
   256
177
   256
178
     2
  0
DIMSTYLE
  2
AM_ANSI$SH
 70
     0
  3

  4
mm
  5

  6
GENAXEH
  7

 40
1.0
 41
0.1
 42
0.05
 43
0.5
 44
0.1
 45
0.0
 46
0.0
 47
0.1
 48
0.1
140
0.12
141
0.0
142
0.0
143
25.399999999999999
144
1.0
145
0.0
146
0.71
147
0.06
 71
     0
 72
     0
 73
     1
 74
     1
 75
     1
 76
     1
 77
     0
 78
     7
170
     0
171
     2
172
     0
173
     1
174
     0
175
     0
176
   256
177
   256
178
     2
  0
DIMSTYLE
  2
AM_ISO
 70
     0
  3

  4
"
  5

  6

  7

 40
1.0
 41
3.5
 42
1.0
 43
10.0
 44
1.0
 45
0.0
 46
0.0
 47
0.1
 48
0.1
140
3.5
141
0.0
142
0.0
143
0.0393701
144
1.0
145
0.0
146
0.71
147
1.5
 71
     0
 72
     0
 73
     0
 74
     0
 75
     0
 76
     0
 77
     1
 78
     8
170
     0
171
     2
172
     1
173
     0
174
     0
175
     0
176
   256
177
   256
178
     2
  0
DIMSTYLE
  2
AM_ISO$3
 70
     0
  3

  4
"
  5

  6

  7

 40
1.0
 41
3.5
 42
1.0
 43
10.0
 44
1.0
 45
0.0
 46
0.0
 47
0.1
 48
0.1
140
3.5
141
0.0
142
0.0
143
0.0393701
144
1.0
145
0.0
146
0.71
147
1.5
 71
     0
 72
     0
 73
     0
 74
     1
 75
     0
 76
     0
 77
     1
 78
     8
170
     0
171
     2
172
     0
173
     0
174
     0
175
     0
176
   256
177
   256
178
     2
  0
DIMSTYLE
  2
AM_ISO$4
 70
     0
  3

  4
"
  5

  6

  7

 40
1.0
 41
3.5
 42
1.0
 43
10.0
 44
1.0
 45
0.0
 46
0.0
 47
0.1
 48
0.1
140
3.5
141
0.0
142
0.0
143
0.0393701
144
1.0
145
0.0
146
0.71
147
1.5
 71
     0
 72
     0
 73
     0
 74
     1
 75
     0
 76
     0
 77
     1
 78
     8
170
     0
171
     2
172
     0
173
     0
174
     0
175
     0
176
   256
177
   256
178
     2
  0
DIMSTYLE
  2
AM_ISO$6
 70
     0
  3

  4
"
  5

  6

  7

 40
1.0
 41
3.5
 42
1.0
 43
10.0
 44
1.0
 45
0.0
 46
0.0
 47
0.1
 48
0.1
140
3.5
141
0.0
142
0.0
143
0.0393701
144
1.0
145
0.0
146
0.71
147
1.5
 71
     0
 72
     0
 73
     0
 74
     0
 75
     0
 76
     0
 77
     0
 78
     8
170
     0
171
     2
172
     1
173
     0
174
     0
175
     0
176
   256
177
   256
178
     2
  0
DIMSTYLE
  2
AM_ISO$7
 70
     0
  3

  4
"
  5

  6

  7

 40
1.0
 41
3.5
 42
1.0
 43
10.0
 44
1.0
 45
0.0
 46
0.0
 47
0.1
 48
0.1
140
3.5
141
0.0
142
0.0
143
0.0393701
144
1.0
145
0.0
146
0.71
147
1.5
 71
     0
 72
     0
 73
     0
 74
     0
 75
     0
 76
     0
 77
     1
 78
     8
170
     0
171
     2
172
     1
173
     0
174
     0
175
     0
176
   256
177
   256
178
     2
  0
DIMSTYLE
  2
AM_ISO$SF
 70
     0
  3

  4
"
  5

  6

  7

 40
1.0
 41
3.5
 42
1.0
 43
10.0
 44
1.0
 45
0.0
 46
0.0
 47
0.1
 48
0.1
140
3.5
141
0.0
142
0.0
143
0.0393701
144
1.0
145
0.0
146
0.71
147
1.5
 71
     0
 72
     0
 73
     0
 74
     0
 75
     1
 76
     1
 77
     1
 78
     8
170
     0
171
     2
172
     1
173
     0
174
     0
175
     0
176
   256
177
   256
178
     2
  0
DIMSTYLE
  2
AM_ISO$SH
 70
     0
  3

  4
"
  5

  6
GENAXEH
  7

 40
1.0
 41
3.5
 42
1.0
 43
10.0
 44
1.0
 45
0.0
 46
0.0
 47
0.1
 48
0.1
140
3.5
141
0.0
142
0.0
143
0.0393701
144
2.0
145
0.0
146
0.71
147
1.5
 71
     0
 72
     0
 73
     0
 74
     0
 75
     1
 76
     1
 77
     1
 78
     8
170
     0
171
     2
172
     1
173
     1
174
     0
175
     0
176
   256
177
   256
178
     2
  0
DIMSTYLE
  2
AM_DIN$0
 70
     0
  3

  4
"
  5

  6

  7

 40
1.0
 41
2.5
 42
1.0
 43
10.0
 44
1.0
 45
0.0
 46
0.0
 47
0.1
 48
0.1
140
3.5
141
0.0
142
0.0
143
0.0393701
144
1.0
145
0.0
146
0.71
147
1.5
 71
     0
 72
     0
 73
     0
 74
     0
 75
     0
 76
     0
 77
     1
 78
     8
170
     0
171
     2
172
     1
173
     0
174
     0
175
     0
176
   256
177
   256
178
     2
  0
ENDTAB
  0
ENDSEC
  0
SECTION
  2
BLOCKS
  0
BLOCK
  8
0
  2
$MODEL_SPACE
 70
     0
 10
0.0
 20
0.0
 30
0.0
  3
$MODEL_SPACE
  1

  0
ENDBLK
  5
21
  8
0
  0
BLOCK
 67
     1
  8
0
  2
$PAPER_SPACE
 70
     0
 10
0.0
 20
0.0
 30
0.0
  3
$PAPER_SPACE
  1

  0
ENDBLK
  5
1D
 67
     1
  8
0
  0
BLOCK
  8
0
  2
GENAXEH
 70
     0
 10
0.0
 20
0.0
 30
0.0
  3
GENAXEH
  1

  0
LINE
  5
76
  8
0
 10
-1.0
 20
0.0
 30
0.0
 11
1.0
 21
0.0
 31
0.0
  0
ENDBLK
  5
78
  8
0
  0
BLOCK
  8
0
  2
*D3
 70
     1
 10
0.0
 20
0.0
 30
0.0
  3
*D3
  1

  0
LINE
  5
3998
  8
0
 10
-144.9992029684723
 20
-145.99672795210421
 30
0.0
 11
-144.9992029684723
 21
-269.41917505546371
 31
0.0
  0
LINE
  5
3999
  8
0
 10
145.0007970315277
 20
-145.99672795210421
 30
0.0
 11
145.0007970315277
 21
-269.41917505546371
 31
0.0
  0
LINE
  5
399A
  8
0
 10
-124.9992029684722
 20
-268.41917505546371
 30
0.0
 11
125.0007970315277
 21
-268.41917505546371
 31
0.0
  0
SOLID
  5
399B
  8
0
 10
-124.9992029684722
 20
-265.0858417221304
 30
0.0
 11
-124.9992029684722
 21
-271.75250838879703
 31
0.0
 12
-144.9992029684723
 22
-268.41917505546371
 32
0.0
 13
-144.9992029684723
 23
-268.41917505546371
 33
0.0
  0
SOLID
  5
399C
  8
0
 10
125.0007970315277
 20
-265.0858417221304
 30
0.0
 11
125.0007970315277
 21
-271.75250838879703
 31
0.0
 12
145.0007970315277
 22
-268.41917505546371
 32
0.0
 13
145.0007970315277
 23
-268.41917505546371
 33
0.0
  0
INSERT
  5
399D
  8
0
  2
*U20
 10
0.0
 20
0.0
 30
0.0
  0
POINT
  5
399E
  8
DEFPOINTS
 62
     0
 10
-144.9992029684723
 20
-144.99672795210421
 30
0.0
  0
POINT
  5
399F
  8
DEFPOINTS
 62
     0
 10
145.0007970315277
 20
-144.99672795210421
 30
0.0
  0
POINT
  5
39A0
  8
DEFPOINTS
 62
     0
 10
145.0007970315277
 20
-268.41917505546371
 30
0.0
  0
ENDBLK
  5
3419
  8
0
  0
BLOCK
  8
0
  2
*D4
 70
     1
 10
0.0
 20
0.0
 30
0.0
  3
*D4
  1

  0
LINE
  5
39DB
  8
0
 10
-249.99920296847219
 20
-151.6205226678133
 30
0.0
 11
-249.99920296847219
 21
-301.2918709663598
 31
0.0
  0
LINE
  5
39DC
  8
0
 10
250.00079703152781
 20
-151.6205226678133
 30
0.0
 11
250.00079703152781
 21
-301.2918709663598
 31
0.0
  0
LINE
  5
39DD
  8
0
 10
-229.99920296847219
 20
-300.29187096635968
 30
0.0
 11
230.00079703152781
 21
-300.29187096635968
 31
0.0
  0
SOLID
  5
39DE
  8
0
 10
-229.99920296847219
 20
-296.95853763302642
 30
0.0
 11
-229.99920296847219
 21
-303.62520429969311
 31
0.0
 12
-249.99920296847219
 22
-300.29187096635968
 32
0.0
 13
-249.99920296847219
 23
-300.29187096635968
 33
0.0
  0
SOLID
  5
39DF
  8
0
 10
230.00079703152781
 20
-296.95853763302642
 30
0.0
 11
230.00079703152781
 21
-303.62520429969311
 31
0.0
 12
250.00079703152781
 22
-300.29187096635968
 32
0.0
 13
250.00079703152781
 23
-300.29187096635968
 33
0.0
  0
INSERT
  5
39E0
  8
0
  2
*U22
 10
0.0
 20
0.0
 30
0.0
  0
POINT
  5
39E1
  8
DEFPOINTS
 62
     0
 10
-249.99920296847219
 20
-150.6205226678133
 30
0.0
  0
POINT
  5
39E2
  8
DEFPOINTS
 62
     0
 10
250.00079703152781
 20
-150.6205226678133
 30
0.0
  0
POINT
  5
39E3
  8
DEFPOINTS
 62
     0
 10
250.00079703152781
 20
-300.29187096635968
 30
0.0
  0
ENDBLK
  5
3462
  8
0
  0
BLOCK
  8
0
  2
*D5
 70
     1
 10
0.0
 20
0.0
 30
0.0
  3
*D5
  1

  0
LINE
  5
39C7
  8
0
 10
-0.9992029684798035
 20
-219.99762646545241
 30
0.0
 11
-324.64028359139508
 21
-219.9976264654523
 31
0.0
  0
LINE
  5
39C8
  8
0
 10
-247.99920296847219
 20
0.002373534547701
 30
0.0
 11
-324.64028359139502
 21
0.0023735345477227
 31
0.0
  0
LINE
  5
39C9
  8
0
 10
-323.64028359139508
 20
-199.9976264654523
 30
0.0
 11
-323.64028359139502
 21
-19.997626465452282
 31
0.0
  0
SOLID
  5
39CA
  8
0
 10
-326.97361692472839
 20
-199.9976264654523
 30
0.0
 11
-320.30695025806182
 21
-199.9976264654523
 31
0.0
 12
-323.64028359139508
 22
-219.9976264654523
 32
0.0
 13
-323.64028359139508
 23
-219.9976264654523
 33
0.0
  0
SOLID
  5
39CB
  8
0
 10
-326.97361692472828
 20
-19.997626465452282
 30
0.0
 11
-320.3069502580617
 21
-19.997626465452282
 31
0.0
 12
-323.64028359139502
 22
0.0023735345477224
 32
0.0
 13
-323.64028359139502
 23
0.0023735345477224
 33
0.0
  0
INSERT
  5
39CC
  8
0
  2
*U21
 10
0.0
 20
0.0
 30
0.0
  0
POINT
  5
39CD
  8
DEFPOINTS
 62
     0
 10
0.0007970315201965
 20
-219.99762646545241
 30
0.0
  0
POINT
  5
39CE
  8
DEFPOINTS
 62
     0
 10
-246.99920296847219
 20
0.0023735345477007
 30
0.0
  0
POINT
  5
39CF
  8
DEFPOINTS
 62
     0
 10
-323.64028359139502
 20
0.0023735345477224
 30
0.0
  0
ENDBLK
  5
3483
  8
0
  0
BLOCK
  8
0
  2
*D7
 70
     1
 10
0.0
 20
0.0
 30
0.0
  3
*D7
  1

  0
LINE
  5
3A50
  8
0
 10
248.48580116742491
 20
-0.0370908740157206
 30
0.0
 11
347.09120151376737
 21
-0.0370908740157485
 31
0.0
  0
LINE
  5
3A51
  8
0
 10
48.611209228345672
 20
-109.99762646545111
 30
0.0
 11
347.09120151376737
 21
-109.99762646545111
 31
0.0
  0
LINE
  5
3A52
  8
0
 10
346.09120151376737
 20
-20.03709087401575
 30
0.0
 11
346.09120151376737
 21
-89.997626465451177
 31
0.0
  0
SOLID
  5
3A53
  8
0
 10
342.757868180434
 20
-20.03709087401575
 30
0.0
 11
349.42453484710069
 21
-20.03709087401575
 31
0.0
 12
346.09120151376737
 22
-0.0370908740157483
 32
0.0
 13
346.09120151376737
 23
-0.0370908740157483
 33
0.0
  0
SOLID
  5
3A54
  8
0
 10
342.757868180434
 20
-89.997626465451177
 30
0.0
 11
349.42453484710069
 21
-89.997626465451177
 31
0.0
 12
346.09120151376737
 22
-109.99762646545111
 32
0.0
 13
346.09120151376737
 23
-109.99762646545111
 33
0.0
  0
INSERT
  5
3A55
  8
0
  2
*U23
 10
0.0
 20
0.0
 30
0.0
  0
POINT
  5
3A56
  8
DEFPOINTS
 62
     0
 10
247.4858011674248
 20
-0.0370908740157203
 30
0.0
  0
POINT
  5
3A57
  8
DEFPOINTS
 62
     0
 10
47.611209228345672
 20
-109.99762646545111
 30
0.0
  0
POINT
  5
3A58
  8
DEFPOINTS
 62
     0
 10
346.09120151376737
 20
-109.99762646545111
 30
0.0
  0
ENDBLK
  5
34C5
  8
0
  0
BLOCK
  8
0
  2
*D8
 70
     1
 10
0.0
 20
0.0
 30
0.0
  3
*D8
  1

  0
LINE
  5
3A6D
  8
0
 10
-247.99920296847219
 20
0.002373534547701
 30
0.0
 11
-294.25907460410548
 21
0.0023735345477141
 31
0.0
  0
LINE
  5
3A6E
  8
0
 10
-95.999202968472275
 20
-24.996727952104241
 30
0.0
 11
-294.25907460410548
 21
-24.996727952104191
 31
0.0
  0
LINE
  5
3A6F
  8
0
 10
-293.25907460410548
 20
-44.99672795210418
 30
0.0
 11
-293.25907460410548
 21
-64.99672795210418
 31
0.0
  0
LINE
  5
3A70
  8
0
 10
-293.25907460410548
 20
20.002373534547711
 30
0.0
 11
-293.25907460410548
 21
66.338674675041943
 31
0.0
  0
LINE
  5
3A71
  8
0
 10
-293.25907460410548
 20
-24.996727952104191
 30
0.0
 11
-293.25907460410548
 21
0.0023735345477138
 31
0.0
  0
SOLID
  5
3A72
  8
0
 10
-296.59240793743879
 20
-44.99672795210418
 30
0.0
 11
-289.92574127077222
 21
-44.99672795210418
 31
0.0
 12
-293.25907460410548
 22
-24.996727952104191
 32
0.0
 13
-293.25907460410548
 23
-24.996727952104191
 33
0.0
  0
SOLID
  5
3A73
  8
0
 10
-296.59240793743879
 20
20.002373534547711
 30
0.0
 11
-289.92574127077222
 21
20.002373534547711
 31
0.0
 12
-293.25907460410548
 22
0.0023735345477138
 32
0.0
 13
-293.25907460410548
 23
0.0023735345477138
 33
0.0
  0
INSERT
  5
3A74
  8
0
  2
*U25
 10
0.0
 20
0.0
 30
0.0
  0
POINT
  5
3A75
  8
DEFPOINTS
 62
     0
 10
-246.99920296847219
 20
0.0023735345477007
 30
0.0
  0
POINT
  5
3A76
  8
DEFPOINTS
 62
     0
 10
-94.999202968472275
 20
-24.996727952104241
 30
0.0
  0
POINT
  5
3A77
  8
DEFPOINTS
 62
     0
 10
-293.25907460410548
 20
-24.996727952104191
 30
0.0
  0
ENDBLK
  5
34E6
  8
0
  0
BLOCK
  8
0
  2
*D9
 70
     1
 10
0.0
 20
0.0
 30
0.0
  3
*D9
  1

  0
LINE
  5
3A59
  8
0
 10
-95.999202968472275
 20
-24.996727952104241
 30
0.0
 11
-294.25907460410548
 21
-24.996727952104191
 31
0.0
  0
LINE
  5
3A5A
  8
0
 10
-95.999202968472275
 20
-194.99672795210421
 30
0.0
 11
-294.25907460410548
 21
-194.99672795210421
 31
0.0
  0
LINE
  5
3A5B
  8
0
 10
-293.25907460410548
 20
-44.99672795210418
 30
0.0
 11
-293.25907460410548
 21
-174.99672795210421
 31
0.0
  0
SOLID
  5
3A5C
  8
0
 10
-296.59240793743879
 20
-44.99672795210418
 30
0.0
 11
-289.92574127077222
 21
-44.99672795210418
 31
0.0
 12
-293.25907460410548
 22
-24.996727952104191
 32
0.0
 13
-293.25907460410548
 23
-24.996727952104191
 33
0.0
  0
SOLID
  5
3A5D
  8
0
 10
-296.59240793743891
 20
-174.99672795210421
 30
0.0
 11
-289.92574127077222
 21
-174.99672795210421
 31
0.0
 12
-293.25907460410548
 22
-194.99672795210421
 32
0.0
 13
-293.25907460410548
 23
-194.99672795210421
 33
0.0
  0
INSERT
  5
3A5E
  8
0
  2
*U24
 10
0.0
 20
0.0
 30
0.0
  0
POINT
  5
3A5F
  8
DEFPOINTS
 62
     0
 10
-94.999202968472275
 20
-24.996727952104241
 30
0.0
  0
POINT
  5
3A60
  8
DEFPOINTS
 62
     0
 10
-94.999202968472275
 20
-194.99672795210421
 30
0.0
  0
POINT
  5
3A61
  8
DEFPOINTS
 62
     0
 10
-293.25907460410548
 20
-194.99672795210421
 30
0.0
  0
ENDBLK
  5
352B
  8
0
  0
BLOCK
  8
0
  2
*D10
 70
     1
 10
0.0
 20
0.0
 30
0.0
  3
*D10
  1

  0
LINE
  5
3974
  8
0
 10
-182.4992029684723
 20
-447.35169064220952
 30
0.0
 11
-182.4992029684723
 21
-368.53008567706138
 31
0.0
  0
LINE
  5
3975
  8
0
 10
182.5007970315277
 20
-447.35169064220952
 30
0.0
 11
182.5007970315277
 21
-368.53008567706138
 31
0.0
  0
LINE
  5
3976
  8
0
 10
-162.4992029684723
 20
-369.53008567706138
 30
0.0
 11
162.5007970315277
 21
-369.53008567706138
 31
0.0
  0
SOLID
  5
3977
  8
0
 10
-162.4992029684723
 20
-366.19675234372812
 30
0.0
 11
-162.4992029684723
 21
-372.86341901039469
 31
0.0
 12
-182.4992029684723
 22
-369.53008567706138
 32
0.0
 13
-182.4992029684723
 23
-369.53008567706138
 33
0.0
  0
SOLID
  5
3978
  8
0
 10
162.5007970315277
 20
-366.19675234372812
 30
0.0
 11
162.5007970315277
 21
-372.86341901039469
 31
0.0
 12
182.5007970315277
 22
-369.53008567706138
 32
0.0
 13
182.5007970315277
 23
-369.53008567706138
 33
0.0
  0
INSERT
  5
3979
  8
0
  2
*U19
 10
0.0
 20
0.0
 30
0.0
  0
POINT
  5
397A
  8
DEFPOINTS
 62
     0
 10
-182.4992029684723
 20
-448.35169064220952
 30
0.0
  0
POINT
  5
397B
  8
DEFPOINTS
 62
     0
 10
182.5007970315277
 20
-448.35169064220952
 30
0.0
  0
POINT
  5
397C
  8
DEFPOINTS
 62
     0
 10
182.5007970315277
 20
-369.53008567706138
 30
0.0
  0
ENDBLK
  5
359E
  8
0
  0
BLOCK
  8
0
  2
*D11
 70
     1
 10
0.0
 20
0.0
 30
0.0
  3
*D11
  1

  0
LINE
  5
3B77
  8
0
 10
-243.99933063787631
 20
-419.49325077227678
 30
0.0
 11
-277.96075991353558
 21
-419.49325077227678
 31
0.0
  0
LINE
  5
3B78
  8
0
 10
-206.39150445176011
 20
-464.494356380179
 30
0.0
 11
-277.96075991353558
 21
-464.494356380179
 31
0.0
  0
LINE
  5
3B79
  8
0
 10
-276.9607599135357
 20
-439.49325077227678
 30
0.0
 11
-276.9607599135357
 21
-444.494356380179
 31
0.0
  0
TEXT
  8
0
  40
20
  5
3BAC
  62
0
  72
0
  71
0
 10
-293.734
 20
-467.994
 30
0.000000
  1
45
  0
SOLID
  5
3B7B
  8
0
 10
-280.29409324686901
 20
-439.49325077227678
 30
0.0
 11
-273.62742658020233
 21
-439.49325077227678
 31
0.0
 12
-276.9607599135357
 22
-419.49325077227678
 32
0.0
 13
-276.9607599135357
 23
-419.49325077227678
 33
0.0
  0
SOLID
  5
3B7C
  8
0
 10
-280.29409324686901
 20
-444.494356380179
 30
0.0
 11
-273.62742658020233
 21
-444.494356380179
 31
0.0
 12
-276.9607599135357
 22
-464.494356380179
 32
0.0
 13
-276.9607599135357
 23
-464.494356380179
 33
0.0
  0
POINT
  5
3B7D
  8
DEFPOINTS
 62
     0
 10
-242.99933063787631
 20
-419.49325077227678
 30
0.0
  0
POINT
  5
3B7E
  8
DEFPOINTS
 62
     0
 10
-205.39150445176011
 20
-464.494356380179
 30
0.0
  0
POINT
  5
3B7F
  8
DEFPOINTS
 62
     0
 10
-276.9607599135357
 20
-464.494356380179
 30
0.0
  0
ENDBLK
  5
35E3
  8
0
  0
BLOCK
  8
0
  2
*D12
 70
     1
 10
0.0
 20
0.0
 30
0.0
  3
*D12
  1

  0
LINE
  5
3A81
  8
0
 10
-243.99929431794629
 20
-419.49325077237108
 30
0.0
 11
-321.05214440943979
 21
-419.49325077237108
 31
0.0
  0
LINE
  5
3A82
  8
0
 10
-243.99929431764491
 20
-499.49324491612788
 30
0.0
 11
-321.05214440943979
 21
-499.49324491612788
 31
0.0
  0
LINE
  5
3A83
  8
0
 10
-320.0521444094399
 20
-439.49325077237108
 30
0.0
 11
-320.0521444094399
 21
-479.49324491612788
 31
0.0
  0
SOLID
  5
3A84
  8
0
 10
-323.38547774277311
 20
-439.49325077237108
 30
0.0
 11
-316.71881107610648
 21
-439.49325077237108
 31
0.0
 12
-320.0521444094399
 22
-419.49325077237108
 32
0.0
 13
-320.0521444094399
 23
-419.49325077237108
 33
0.0
  0
SOLID
  5
3A85
  8
0
 10
-323.38547774277311
 20
-479.49324491612788
 30
0.0
 11
-316.71881107610648
 21
-479.49324491612788
 31
0.0
 12
-320.0521444094399
 22
-499.49324491612788
 32
0.0
 13
-320.0521444094399
 23
-499.49324491612788
 33
0.0
  0
INSERT
  5
3A86
  8
0
  2
*U26
 10
0.0
 20
0.0
 30
0.0
  0
POINT
  5
3A87
  8
DEFPOINTS
 62
     0
 10
-242.99929431794629
 20
-419.49325077237108
 30
0.0
  0
POINT
  5
3A88
  8
DEFPOINTS
 62
     0
 10
-242.99929431764491
 20
-499.49324491612788
 30
0.0
  0
POINT
  5
3A89
  8
DEFPOINTS
 62
     0
 10
-320.0521444094399
 20
-499.49324491612788
 30
0.0
  0
ENDBLK
  5
3604
  8
0
  0
BLOCK
  8
0
  2
*D13
 70
     1
 10
0.0
 20
0.0
 30
0.0
  3
*D13
  1

  0
LINE
  5
3962
  8
0
 10
35.413622682421021
 20
-529.49433304051354
 30
0.0
 11
283.9471348878692
 21
-529.49433304051365
 31
0.0
  0
LINE
  5
3963
  8
0
 10
244.18883498661009
 20
-419.4957733893487
 30
0.0
 11
283.9471348878692
 21
-419.4957733893487
 31
0.0
  0
LINE
  5
3964
  8
0
 10
282.9471348878692
 20
-509.49433304051348
 30
0.0
 11
282.9471348878692
 21
-439.4957733893487
 31
0.0
  0
SOLID
  5
3965
  8
0
 10
279.61380155453588
 20
-509.49433304051348
 30
0.0
 11
286.28046822120251
 21
-509.49433304051348
 31
0.0
 12
282.9471348878692
 22
-529.49433304051365
 32
0.0
 13
282.9471348878692
 23
-529.49433304051365
 33
0.0
  0
SOLID
  5
3966
  8
0
 10
279.61380155453588
 20
-439.4957733893487
 30
0.0
 11
286.28046822120251
 21
-439.4957733893487
 31
0.0
 12
282.9471348878692
 22
-419.4957733893487
 32
0.0
 13
282.9471348878692
 23
-419.4957733893487
 33
0.0
  0
INSERT
  5
3967
  8
0
  2
*U18
 10
0.0
 20
0.0
 30
0.0
  0
POINT
  5
3968
  8
DEFPOINTS
 62
     0
 10
34.413622682421021
 20
-529.49433304051354
 30
0.0
  0
POINT
  5
3969
  8
DEFPOINTS
 62
     0
 10
243.18883498661009
 20
-419.4957733893487
 30
0.0
  0
POINT
  5
396A
  8
DEFPOINTS
 62
     0
 10
282.9471348878692
 20
-419.4957733893487
 30
0.0
  0
ENDBLK
  5
3623
  8
0
  0
BLOCK
  8
0
  2
*D15
 70
     1
 10
0.0
 20
0.0
 30
0.0
  3
*D15
  1

  0
LINE
  5
3AB7
  8
0
 10
-48.452590478620088
 20
-505.15402305107273
 30
0.0
 11
55.622244891685483
 21
-505.15402305107273
 31
0.0
  0
LINE
  5
3AB8
  8
0
 10
-41.168871027892578
 20
-419.49429279336027
 30
0.0
 11
55.622244891685511
 21
-419.49429279336027
 31
0.0
  0
LINE
  5
3AB9
  8
0
 10
54.62224489168549
 20
-485.15402305107273
 30
0.0
 11
54.622244891685497
 21
-439.49429279336027
 31
0.0
  0
SOLID
  5
3ABA
  8
0
 10
51.288911558352162
 20
-485.15402305107273
 30
0.0
 11
57.955578225018833
 21
-485.15402305107273
 31
0.0
 12
54.622244891685483
 22
-505.15402305107273
 32
0.0
 13
54.622244891685483
 23
-505.15402305107273
 33
0.0
  0
SOLID
  5
3ABB
  8
0
 10
51.288911558352162
 20
-439.49429279336027
 30
0.0
 11
57.95557822501884
 21
-439.49429279336027
 31
0.0
 12
54.622244891685497
 22
-419.49429279336027
 32
0.0
 13
54.622244891685497
 23
-419.49429279336027
 33
0.0
  0
INSERT
  5
3ABC
  8
0
  2
*U27
 10
0.0
 20
0.0
 30
0.0
  0
POINT
  5
3ABD
  8
DEFPOINTS
 62
     0
 10
-49.452590478620088
 20
-505.15402305107273
 30
0.0
  0
POINT
  5
3ABE
  8
DEFPOINTS
 62
     0
 10
-42.168871027892571
 20
-419.49429279336027
 30
0.0
  0
POINT
  5
3ABF
  8
DEFPOINTS
 62
     0
 10
54.622244891685497
 20
-419.49429279336027
 30
0.0
  0
ENDBLK
  5
3665
  8
0
  0
BLOCK
  8
0
  2
*U16
 70
     1
 10
0.0
 20
0.0
 30
0.0
  3
*U16
  1

  0
TEXT
  5
3B5F
  8
AM_5
 62
     2
 10
294.15081800882848
 20
-14.97522560581559
 30
0.0
 40
3.5
  1
25
 50
90.0
  0
ENDBLK
  5
3B61
  8
0
  0
BLOCK
  8
0
  2
*U17
 70
     1
 10
0.0
 20
0.0
 30
0.0
  3
*U17
  1

  0
TEXT
  5
3B81
  8
AM_5
 62
     2
 10
24.078136727874949
 20
-467.81580102086252
 30
0.0
 40
3.5
  1
85.65
 50
89.999702717328034
  0
ENDBLK
  5
3B83
  8
0
  0
BLOCK
  8
0
  2
*U18
 70
     1
 10
0.0
 20
0.0
 30
0.0
  3
*U18
  1

  0
TEXT
  5
3B85
  8
0
 62
     0
 10
281.44713488786931
 20
-491.50292723067901
 30
0.0
 40
20.0
  1
110
 50
90.0
  0
ENDBLK
  5
3B87
  8
0
  0
BLOCK
  8
0
  2
*U19
 70
     1
 10
0.0
 20
0.0
 30
0.0
  3
*U19
  1

  0
TEXT
  5
3B89
  8
0
 62
     0
 10
-21.413416530845382
 20
-368.03008567706138
 30
0.0
 40
20.0
  1
365
  0
ENDBLK
  5
3B8B
  8
0
  0
BLOCK
  8
0
  2
*U20
 70
     1
 10
0.0
 20
0.0
 30
0.0
  3
*U20
  1

  0
TEXT
  5
3B8D
  8
0
 62
     0
 10
-20.788083281289051
 20
-266.91917505546371
 30
0.0
 40
20.0
  1
290
  0
ENDBLK
  5
3B8F
  8
0
  0
BLOCK
  8
0
  2
*U21
 70
     1
 10
0.0
 20
0.0
 30
0.0
  3
*U21
  1

  0
TEXT
  5
3B91
  8
0
 62
     0
 10
-325.14028359139502
 20
-130.75156347332631
 30
0.0
 40
20.0
  1
220
 50
90.0
  0
ENDBLK
  5
3B93
  8
0
  0
BLOCK
  8
0
  2
*U22
 70
     1
 10
0.0
 20
0.0
 30
0.0
  3
*U22
  1

  0
TEXT
  5
3B95
  8
0
 62
     0
 10
-21.007076984220252
 20
-298.79187096635968
 30
0.0
 40
20.0
  1
500
  0
ENDBLK
  5
3B97
  8
0
  0
BLOCK
  8
0
  2
*U23
 70
     1
 10
0.0
 20
0.0
 30
0.0
  3
*U23
  1

  0
TEXT
  5
3B99
  8
0
 62
     0
 10
344.59120151376737
 20
-72.025232685481441
 30
0.0
 40
20.0
  1
110
 50
90.0
  0
ENDBLK
  5
3B9B
  8
0
  0
BLOCK
  8
0
  2
*U24
 70
     1
 10
0.0
 20
0.0
 30
0.0
  3
*U24
  1

  0
TEXT
  5
3B9D
  8
0
 62
     0
 10
-294.75907460410542
 20
-129.0046019678523
 30
0.0
 40
20.0
  1
170
 50
90.0
  0
ENDBLK
  5
3B9F
  8
0
  0
BLOCK
  8
0
  2
*U25
 70
     1
 10
0.0
 20
0.0
 30
0.0
  3
*U25
  1

  0
TEXT
  5
3BA1
  8
0
 62
     0
 10
-294.75907460410542
 20
39.010247550295702
 30
0.0
 40
20.0
  1
25
 50
90.0
  0
ENDBLK
  5
3BA3
  8
0
  0
BLOCK
  8
0
  2
*U26
 70
     1
 10
0.0
 20
0.0
 30
0.0
  3
*U26
  1

  0
TEXT
  5
3BA5
  8
0
 62
     0
 10
-321.55214440943968
 20
-473.50112185999762
 30
0.0
 40
20.0
  1
80
 50
90.0
  0
ENDBLK
  5
3BA7
  8
0
  0
BLOCK
  8
0
  2
*U27
 70
     1
 10
0.0
 20
0.0
 30
0.0
  3
*U27
  1

  0
TEXT
  5
3BA9
  8
0
 62
     0
 10
53.122244891685561
 20
-476.73837148458949
 30
0.0
 40
20.0
  1
85
 50
90.0
  0
ENDBLK
  5
3BAB
  8
0
  0
ENDSEC
  0
SECTION
  2
ENTITIES
  0
CIRCLE
  5
325A
  8
0
 10
0.0007970315277248
 20
-109.99762646545111
 30
0.0
 40
37.5
  0
CIRCLE
  5
325B
  8
0
 10
0.0007970315277248
 20
-109.99762646545111
 30
0.0
 40
26.0
  0
LINE
  5
325C
  8
0
  6
AM_DIN_G_W050
 10
0.0007970315277248
 20
-62.387214268633251
 30
0.0
 11
0.0007970315277248
 21
-157.60803866226891
 31
0.0
  0
LINE
  5
325D
  8
0
  6
AM_DIN_G_W050
 10
-47.609615165290002
 20
-109.99762646545111
 30
0.0
 11
47.611209228345672
 21
-109.99762646545111
 31
0.0
  0
LINE
  5
3261
  8
0
  6
AM_DIN_G_W050
 10
187.00079703152781
 20
-83.648495946431069
 30
0.0
 11
187.00079703152781
 21
-136.34675698447111
 31
0.0
  0
CIRCLE
  5
3262
  8
0
 10
187.00079703152781
 20
-109.99762646545111
 30
0.0
 40
17.5
  0
LINE
  5
3263
  8
0
  6
AM_DIN_G_W050
 62
     4
 10
213.3499275505479
 20
-109.99762646545111
 30
0.0
 11
160.6516665125078
 21
-109.99762646545111
 31
0.0
  0
LINE
  5
3264
  8
0
  6
AM_DIN_G_W050
 62
     4
 10
0.0033111668870447
 20
-7.7198602958968356
 30
0.0
 11
0.0007970315277248
 21
9.5570073603105357
 31
0.0
  0
LINE
  5
326E
  8
0
 10
-144.9992029684723
 20
-74.996727952104237
 30
0.0
 11
-144.9992029684723
 21
-144.99672795210421
 31
0.0
  0
ARC
  5
326F
  8
0
 10
-94.999202968472275
 20
-144.99672795210421
 30
0.0
 40
50.0
 50
180.0
 51
270.0
1001
GENIUS_GENODEF_13
1002
{
1000
HIER
1070
     0
1002
}
1002
{
1000
MANEDIT
1070
     0
1002
}
1002
{
1000
NOSEL
1070
     0
1002
}
1002
{
1000
BEHIND
1070
     0
1002
}
1002
{
1000
OTHER
1070
     0
1002
}
1002
{
1000
REACTOR
1002
}
1001
GENIUS_GENOBJ-N-FIL_13
1002
{
1000
OWNER
1000
GEN
1002
}
  0
ARC
  5
3270
  8
0
 10
-94.999202968472275
 20
-74.996727952104237
 30
0.0
 40
50.0
 50
90.0
 51
180.0
1001
GENIUS_GENODEF_13
1002
{
1000
HIER
1070
     0
1002
}
1002
{
1000
MANEDIT
1070
     0
1002
}
1002
{
1000
NOSEL
1070
     0
1002
}
1002
{
1000
BEHIND
1070
     0
1002
}
1002
{
1000
OTHER
1070
     0
1002
}
1002
{
1000
REACTOR
1002
}
1001
GENIUS_GENOBJ-N-FIL_13
1002
{
1000
OWNER
1000
GEN
1002
}
  0
LINE
  5
3295
  8
0
 10
145.0007970315277
 20
-74.996727952104237
 30
0.0
 11
145.0007970315277
 21
-144.99672795210421
 31
0.0
  0
ARC
  5
3296
  8
0
 10
95.000797031527725
 20
-144.99672795210421
 30
0.0
 40
50.0
 50
270.0
 51
0.000000000000007
1001
GENIUS_GENODEF_13
1002
{
1000
HIER
1070
     0
1002
}
1002
{
1000
MANEDIT
1070
     0
1002
}
1002
{
1000
NOSEL
1070
     0
1002
}
1002
{
1000
BEHIND
1070
     0
1002
}
1002
{
1000
OTHER
1070
     0
1002
}
1002
{
1000
REACTOR
1002
}
1001
GENIUS_GENOBJ-N-FIL_13
1002
{
1000
OWNER
1000
GEN
1002
}
  0
ARC
  5
3297
  8
0
 10
95.000797031527725
 20
-74.996727952104237
 30
0.0
 40
50.0
 50
0.000000000000007
 51
90.0
1001
GENIUS_GENODEF_13
1002
{
1000
HIER
1070
     0
1002
}
1002
{
1000
MANEDIT
1070
     0
1002
}
1002
{
1000
NOSEL
1070
     0
1002
}
1002
{
1000
BEHIND
1070
     0
1002
}
1002
{
1000
OTHER
1070
     0
1002
}
1002
{
1000
REACTOR
1002
}
1001
GENIUS_GENOBJ-N-FIL_13
1002
{
1000
OWNER
1000
GEN
1002
}
  0
LINE
  5
329A
  8
0
 10
-94.999202968472275
 20
-24.996727952104241
 30
0.0
 11
95.000797031527725
 21
-24.996727952104241
 31
0.0
  0
LINE
  5
329B
  8
0
 10
-94.999202968472275
 20
-194.99672795210421
 30
0.0
 11
95.000797031527711
 21
-194.99672795210421
 31
0.0
  0
POLYLINE
  5
32BC
  8
0
 66
     1
 10
0.0
 20
0.0
 30
0.0
 70
     1
  0
VERTEX
  5
3B54
  8
0
 10
250.00079703152781
 20
-2.9976264654522988
 30
0.0
 42
0.4142135623730951
  0
VERTEX
  5
3B55
  8
0
 10
247.00079703152781
 20
0.0023735345477007
 30
0.0
  0
VERTEX
  5
3B56
  8
0
 10
-246.99920296847219
 20
0.0023735345477007
 30
0.0
 42
0.4142135623730951
  0
VERTEX
  5
3B57
  8
0
 10
-249.99920296847219
 20
-2.9976264654522988
 30
0.0
  0
VERTEX
  5
3B58
  8
0
 10
-249.99920296847219
 20
-150.6205226678133
 30
0.0
 42
0.3971538606284612
  0
VERTEX
  5
3B59
  8
0
 10
-188.80568033383381
 20
-215.5089710239771
 30
0.0
 42
0.0237738424234941
  0
VERTEX
  5
3B5A
  8
0
 10
188.8072743921405
 20
-215.5089710242024
 30
0.0
 42
0.3971538606495213
  0
VERTEX
  5
3B5B
  8
0
 10
250.00079703152781
 20
-150.6205226677873
 30
0.0
  0
SEQEND
  5
3B5C
  8
0
  0
DIMENSION
  5
3415
  8
0
  2
*D3
 10
145.0007970315277
 20
-268.41917505546371
 30
0.0
 11
0.0007970315277255
 21
-256.9172065515267
 31
0.0
 70
     0
  1
<>
 13
-144.9992029684723
 23
-144.99672795210421
 33
0.0
 14
145.0007970315277
 24
-144.99672795210421
 34
0.0
 50
0.0000000000001132
1001
ACAD_DSTYLE_DIMINSPECT
1070
   396
1000
100%
1070
   395
1000

1070
   394
1070
    33
1070
   393
1070
     0
1001
ACAD
1000
DSTYLE
1002
{
1070
   140
1040
20.0
1070
   178
1070
     0
1070
    41
1040
20.0
1070
     3
1000

1002
}
  0
DIMENSION
  5
345F
  8
0
  2
*D4
 10
250.00079703152781
 20
-300.29187096635968
 30
0.0
 11
0.0007970315277779
 21
-300.29187096635968
 31
0.0
 70
   128
 13
-249.99920296847219
 23
-150.6205226678133
 33
0.0
 14
250.00079703152781
 24
-150.6205226678133
 34
0.0
 50
0.0000000000001132
1001
ACAD_DSTYLE_DIMINSPECT
1070
   396
1000
100%
1070
   395
1000

1070
   394
1070
    33
1070
   393
1070
     0
1001
ACAD
1000
DSTYLE
1002
{
1070
    41
1040
20.0
1070
   140
1040
20.0
1070
   178
1070
     0
1002
}
  0
DIMENSION
  5
3480
  8
0
  2
*D5
 10
-323.64028359139502
 20
0.0023735345477224
 30
0.0
 11
-323.64028359139502
 21
-109.9976264654523
 31
0.0
 70
   128
 13
0.0007970315201965
 23
-219.99762646545241
 33
0.0
 14
-246.99920296847219
 24
0.0023735345477007
 34
0.0
 50
90.000000000000028
1001
ACAD_DSTYLE_DIMINSPECT
1070
   396
1000
100%
1070
   395
1000

1070
   394
1070
    33
1070
   393
1070
     0
1001
ACAD
1000
DSTYLE
1002
{
1070
    41
1040
20.0
1070
   140
1040
20.0
1070
   178
1070
     0
1002
}
  0
DIMENSION
  5
34C2
  8
0
  2
*D7
 10
346.09120151376737
 20
-109.99762646545111
 30
0.0
 11
334.59120151376737
 21
-55.017358669733412
 31
0.0
 70
     0
  1
110
 13
247.4858011674248
 23
-0.0370908740157203
 33
0.0
 14
47.611209228345672
 24
-109.99762646545111
 34
0.0
 50
90.000000000000028
1001
ACAD_DSTYLE_DIMINSPECT
1070
   396
1000
100%
1070
   395
1000

1070
   394
1070
    33
1070
   393
1070
     0
1001
ACAD
1000
DSTYLE
1002
{
1070
     3
1000

1070
   140
1040
20.0
1070
   178
1070
     0
1070
    41
1040
20.0
1002
}
  0
DIMENSION
  5
34E3
  8
0
  2
*D8
 10
-293.25907460410548
 20
-24.996727952104191
 30
0.0
 11
-293.25907460410548
 21
53.170524104794787
 31
0.0
 70
   128
  1
<>
 13
-246.99920296847219
 23
0.0023735345477007
 33
0.0
 14
-94.999202968472275
 24
-24.996727952104241
 34
0.0
 50
90.000000000000028
1001
ACAD_DSTYLE_DIMINSPECT
1070
   396
1000
100%
1070
   395
1000

1070
   394
1070
    33
1070
   393
1070
     0
1001
ACAD
1000
DSTYLE
1002
{
1070
    41
1040
20.0
1070
   140
1040
20.0
1070
   178
1070
     0
1002
}
  0
DIMENSION
  5
3528
  8
0
  2
*D9
 10
-293.25907460410548
 20
-194.99672795210421
 30
0.0
 11
-293.25907460410548
 21
-109.99672795210419
 31
0.0
 70
   128
 13
-94.999202968472275
 23
-24.996727952104241
 33
0.0
 14
-94.999202968472275
 24
-194.99672795210421
 34
0.0
 50
90.000000000000028
1001
ACAD_DSTYLE_DIMINSPECT
1070
   396
1000
100%
1070
   395
1000

1070
   394
1070
    33
1070
   393
1070
     0
1001
ACAD
1000
DSTYLE
1002
{
1070
    41
1040
20.0
1070
   140
1040
20.0
1070
   178
1070
     0
1002
}
  0
LINE
  5
3576
  8
0
  6
AM_DIN_G_W050
 10
0.0007970315277248
 20
-549.9578156508403
 30
0.0
 11
0.0007970315277248
 21
-410.00260121063019
 31
0.0
  0
LINE
  5
3577
  8
0
  6
AM_DIN_F_W050
 10
-37.834714509788171
 20
-505.1418658479605
 30
0.0
 11
0.199139647370032
 21
-505.1418658479605
 31
0.0
  0
LINE
  5
3578
  8
0
  6
AM_DIN_F_W050
 10
-36.441665420300161
 20
-506.26869640832882
 30
0.0
 11
-24.181065816553261
 21
-516.19973530903644
 31
0.0
  0
LINE
  5
3579
  8
0
  6
AM_DIN_F_W050
 10
-24.181065816553261
 20
-516.19973530903644
 30
0.0
 11
0.00074841351244
 21
-516.19973530903644
 31
0.0
  0
LINE
  5
357A
  8
0
  6
AM_DIN_F_W050
 10
-24.18101719853809
 20
-516.19973530903644
 30
0.0
 11
-24.18101719853809
 21
-529.497241706963
 31
0.0
  0
ARC
  5
357B
  8
0
  6
AM_DIN_F_W050
 10
-65.396379316780383
 20
-431.6153662738032
 30
0.0
 40
73.539323738581274
 50
236.164731185596
 51
270.24402170874811
  0
LINE
  5
357C
  8
0
  6
AM_DIN_F_W050
 10
-154.823204595173
 20
-428.23636782876798
 30
0.0
 11
-235.9416357177179
 21
-428.23488835054121
 31
0.0
  0
ARC
  5
357D
  8
0
  6
AM_DIN_F_W050
 10
-154.8232957876557
 20
-433.23636782793642
 30
0.0
 40
5.0
 50
14.22630556167635
 51
89.998955011124536
1001
GENIUS_GENODEF_13
1002
{
1000
HIER
1070
     0
1002
}
1002
{
1000
MANEDIT
1070
     0
1002
}
1002
{
1000
NOSEL
1070
     0
1002
}
1002
{
1000
BEHIND
1070
     0
1002
}
1002
{
1000
OTHER
1070
     0
1002
}
1002
{
1000
REACTOR
1002
}
1001
GENIUS_GENOBJ-N-FIL_13
1002
{
1000
OWNER
1000
GEN
1002
}
  0
LINE
  5
357E
  8
0
  6
AM_DIN_G_W050
 10
-159.36809931066071
 20
-464.494356380179
 30
0.0
 11
-205.39150445176011
 21
-464.494356380179
 31
0.0
  0
ARC
  5
357F
  8
0
  6
AM_DIN_F_W050
 10
-187.59138059307799
 20
-464.494356380179
 30
0.0
 40
10.0
 50
90.0
 51
269.45586987632589
  0
ARC
  5
3580
  8
0
  6
AM_DIN_F_W050
 10
-177.66501033998341
 20
-464.494356380179
 30
0.0
 40
10.0
 50
270.09066366110272
 51
90.0
  0
LINE
  5
3581
  8
0
  6
AM_DIN_F_W050
 10
-187.59138059307799
 20
-454.494356380179
 30
0.0
 11
-177.66501033998341
 21
-454.494356380179
 31
0.0
  0
LINE
  5
3582
  8
0
  6
AM_DIN_F_W050
 10
-187.66859406010099
 20
-474.51019837781399
 30
0.0
 11
-177.64918655260479
 21
-474.49434386055879
 31
0.0
  0
ARC
  5
3583
  8
0
  6
AM_DIN_F_W050
 10
-235.9417269102008
 20
-433.23488834970959
 30
0.0
 40
5.0
 50
89.998955011124536
 51
182.5663705597066
  0
LINE
  5
3584
  8
0
  6
AM_DIN_F_W050
 10
-240.93671202654639
 20
-433.458771550253
 30
0.0
 11
-238.6639780747773
 21
-486.58588123265929
 31
0.0
  0
ARC
  5
3585
  8
0
  6
AM_DIN_F_W050
 10
-233.67087209995381
 20
-486.323406997387
 30
0.0
 40
5.0
 50
183.00911630447911
 51
269.99895501112121
1001
GENIUS_GENODEF_13
1002
{
1000
HIER
1070
     0
1002
}
1002
{
1000
MANEDIT
1070
     0
1002
}
1002
{
1000
NOSEL
1070
     0
1002
}
1002
{
1000
BEHIND
1070
     0
1002
}
1002
{
1000
OTHER
1070
     0
1002
}
1002
{
1000
REACTOR
1002
}
1001
GENIUS_GENOBJ-N-FIL_13
1002
{
1000
OWNER
1000
GEN
1002
}
  0
LINE
  5
3586
  8
0
  6
AM_DIN_F_W050
 10
-217.13738924326441
 20
-491.32370854408879
 30
0.0
 11
-233.67096329243651
 21
-491.32340699655538
 31
0.0
  0
LINE
  5
3587
  8
0
  6
AM_DIN_F_W050
 10
-145.4186621924739
 20
-449.98581687299571
 30
0.0
 11
-149.97663267502861
 21
-432.00760557562751
 31
0.0
  0
LINE
  5
3588
  8
0
  6
AM_DIN_F_W050
 10
-138.46492806109401
 20
-444.18300905451451
 30
0.0
 11
-143.76432289540659
 21
-423.2662100211337
 31
0.0
  0
ARC
  5
3589
  8
0
  6
AM_DIN_F_W050
 10
-148.61098600803371
 20
-424.49497227344273
 30
0.0
 40
5.0
 50
14.22630556167635
 51
89.998955011124536
1001
GENIUS_GENODEF_13
1002
{
1000
HIER
1070
     0
1002
}
1002
{
1000
MANEDIT
1070
     0
1002
}
1002
{
1000
NOSEL
1070
     0
1002
}
1002
{
1000
BEHIND
1070
     0
1002
}
1002
{
1000
OTHER
1070
     0
1002
}
1002
{
1000
REACTOR
1002
}
1001
GENIUS_GENOBJ-N-FIL_13
1002
{
1000
OWNER
1000
GEN
1002
}
  0
ARC
  5
358A
  8
0
  6
AM_DIN_F_W050
 10
-55.706747559565493
 20
-424.2029334665753
 30
0.0
 40
93.343369897659755
 50
196.03446173020961
 51
233.76710037686661
  0
ARC
  5
358B
  8
0
  6
AM_DIN_F_W050
 10
-55.179821932421532
 20
-423.72860245293458
 30
0.0
 40
85.87673584276483
 50
193.7990260833586
 51
233.43163712677821
  0
LINE
  5
358C
  8
0
  6
AM_DIN_F_W050
 10
-212.46204392428641
 20
-494.55162123522177
 30
0.0
 11
-210.5888398985432
 21
-499.4938418897363
 31
0.0
  0
ARC
  5
358D
  8
0
  6
AM_DIN_F_W050
 10
-217.13748043574711
 20
-496.32370854325723
 30
0.0
 40
5.0
 50
20.757746179068459
 51
89.998955011124536
1001
GENIUS_GENODEF_13
1002
{
1000
HIER
1070
     0
1002
}
1002
{
1000
MANEDIT
1070
     0
1002
}
1002
{
1000
NOSEL
1070
     0
1002
}
1002
{
1000
BEHIND
1070
     0
1002
}
1002
{
1000
OTHER
1070
     0
1002
}
1002
{
1000
REACTOR
1002
}
1001
GENIUS_GENOBJ-N-FIL_13
1002
{
1000
OWNER
1000
GEN
1002
}
  0
LINE
  5
358E
  8
0
  6
AM_DIN_F_W050
 10
-65.083177588127754
 20
-505.15402305107273
 30
0.0
 11
-39.58876517708967
 21
-505.15402305107273
 31
0.0
  0
ARC
  5
358F
  8
0
  6
AM_DIN_F_W050
 10
-39.58876517708967
 20
-510.15402305107273
 30
0.0
 40
5.0
 50
50.992659446645717
 51
90.0
1001
GENIUS_GENODEF_13
1002
{
1000
HIER
1070
     0
1002
}
1002
{
1000
MANEDIT
1070
     0
1002
}
1002
{
1000
NOSEL
1070
     0
1002
}
1002
{
1000
BEHIND
1070
     0
1002
}
1002
{
1000
OTHER
1070
     0
1002
}
1002
{
1000
REACTOR
1002
}
1001
GENIUS_GENOBJ-N-FIL_13
1002
{
1000
OWNER
1000
GEN
1002
}
  0
LINE
  5
3590
  8
0
 10
-42.645977048969712
 20
-513.28084377230005
 30
0.0
 11
42.647571112025147
 21
-513.28084377230005
 31
0.0
  0
LINE
  5
3591
  8
0
  6
AM_DIN_G_W050
 10
-182.4992029684723
 20
-481.7366778957429
 30
0.0
 11
-182.4992029684723
 21
-448.35169064220952
 31
0.0
  0
LINE
  5
3592
  8
0
  6
AM_DIN_G_W050
 10
159.3696933737161
 20
-464.494356380179
 30
0.0
 11
205.39309851481559
 21
-464.494356380179
 31
0.0
  0
ARC
  5
3593
  8
0
  6
AM_DIN_F_W050
 10
187.59297465613341
 20
-464.494356380179
 30
0.0
 40
10.0
 50
270.54413012367422
 51
90.0
  0
ARC
  5
3594
  8
0
  6
AM_DIN_F_W050
 10
177.66660440303889
 20
-464.494356380179
 30
0.0
 40
10.0
 50
90.0
 51
269.90933633889728
  0
LINE
  5
3595
  8
0
  6
AM_DIN_F_W050
 10
187.59297465613341
 20
-454.494356380179
 30
0.0
 11
177.66660440303889
 21
-454.494356380179
 31
0.0
  0
LINE
  5
3596
  8
0
  6
AM_DIN_F_W050
 10
187.67018812315649
 20
-474.51019837781399
 30
0.0
 11
177.65078061566021
 21
-474.49434386055879
 31
0.0
  0
LINE
  5
3597
  8
0
  6
AM_DIN_G_W050
 10
182.5007970315277
 20
-481.7366778957429
 30
0.0
 11
182.5007970315277
 21
-448.35169064220952
 31
0.0
  0
LINE
  5
3599
  8
0
 10
-110.8791135408062
 20
-499.49566044523749
 30
0.0
 11
110.88070760386159
 21
-499.49566044523749
 31
0.0
  0
POLYLINE
  5
359A
  8
0
 66
     1
 10
0.0
 20
0.0
 30
0.0
 70
     1
  0
VERTEX
  5
3B62
  8
0
 10
249.97285543608351
 20
-427.11949499480511
 30
0.0
 42
0.4327100970322102
  0
VERTEX
  5
3B63
  8
0
 10
243.18883498661009
 20
-419.4957733893487
 30
0.0
  0
VERTEX
  5
3B64
  8
0
 10
-242.99929431795491
 20
-419.49325077237103
 30
0.0
 42
0.4407035856813617
  0
VERTEX
  5
3B65
  8
0
 10
-249.9712613728843
 20
-427.11949499480539
 30
0.0
  0
VERTEX
  5
3B66
  8
0
 10
-246.31619022376319
 20
-496.65072945729253
 30
0.0
 42
0.3989134380082442
  0
VERTEX
  5
3B67
  8
0
 10
-243.32032663886909
 20
-499.49324491612907
 30
0.0
  0
VERTEX
  5
3B68
  8
0
 10
-110.8827324586731
 20
-499.4932449156301
 30
0.0
 42
0.1634121292138131
  0
VERTEX
  5
3B69
  8
0
 10
-60.002415051390301
 20
-513.28084377230005
 30
0.0
  0
VERTEX
  5
3B6A
  8
0
 10
-42.645977048897862
 20
-513.28084377230005
 30
0.0
 42
-0.406009451436572
  0
VERTEX
  5
3B6B
  8
0
 10
-37.647949765347391
 20
-518.14040420207493
 30
0.0
  0
VERTEX
  5
3B6C
  8
0
 10
-37.41084498935038
 20
-526.57859678264856
 30
0.0
 42
0.406009451436572
  0
VERTEX
  5
3B6D
  8
0
 10
-34.412028619220109
 20
-529.49433304051354
 30
0.0
  0
VERTEX
  5
3B6E
  8
0
 10
34.413622682421021
 20
-529.49433304051354
 30
0.0
 42
0.406009451436402
  0
VERTEX
  5
3B6F
  8
0
 10
37.41243905254953
 20
-526.57859678264856
 30
0.0
  0
VERTEX
  5
3B70
  8
0
 10
37.649543828546541
 20
-518.14040420207493
 30
0.0
 42
-0.4060094514365714
  0
VERTEX
  5
3B71
  8
0
 10
42.647571112097012
 20
-513.28084377230005
 30
0.0
  0
VERTEX
  5
3B72
  8
0
 10
60.00400911458825
 20
-513.28084377230005
 30
0.0
 42
0.1634121292138165
  0
VERTEX
  5
3B73
  8
0
 10
110.8843265218722
 20
-499.4932449156301
 30
0.0
  0
VERTEX
  5
3B74
  8
0
 10
243.3219207020683
 20
-499.49324491612907
 30
0.0
 42
0.3989134380082444
  0
VERTEX
  5
3B75
  8
0
 10
246.31778428696239
 20
-496.65072945729253
 30
0.0
  0
SEQEND
  5
3B76
  8
0
  0
DIMENSION
  5
359B
  8
0
  2
*D10
 10
182.5007970315277
 20
-369.53008567706138
 30
0.0
 11
0.0007970315277255
 21
-358.03008567706138
 31
0.0
 70
     0
  1
<>
 13
-182.4992029684723
 23
-448.35169064220952
 33
0.0
 14
182.5007970315277
 24
-448.35169064220952
 34
0.0
1001
ACAD_DSTYLE_DIMINSPECT
1070
   396
1000
100%
1070
   395
1000

1070
   394
1070
    33
1070
   393
1070
     0
1001
ACAD
1000
DSTYLE
1002
{
1070
   140
1040
20.0
1070
   178
1070
     0
1070
    41
1040
20.0
1070
     3
1000

1002
}
  0
DIMENSION
  5
35E0
  8
0
  2
*D11
 10
-276.9607599135357
 20
-464.494356380179
 30
0.0
 11
-293.73413665953512
 21
-441.993803576228
 31
0.0
 70
   128
 13
-242.99933063787631
 23
-419.49325077227678
 33
0.0
 14
-205.39150445176011
 24
-464.494356380179
 34
0.0
 50
90.000000000000028
1001
ACAD_DSTYLE_DIMINSPECT
1070
   396
1000
100%
1070
   395
1000

1070
   394
1070
    33
1070
   393
1070
     0
1001
ACAD
1000
DSTYLE
1002
{
1070
   287
1070
     5
1070
    41
1040
20.0
1070
   140
1040
20.0
1070
   178
1070
     0
1070
   279
1070
     2
1002
}
  0
DIMENSION
  5
3601
  8
0
  2
*D12
 10
-320.0521444094399
 20
-499.49324491612788
 30
0.0
 11
-320.05214440943968
 21
-459.49324784424959
 31
0.0
 70
   128
 13
-242.99929431794629
 23
-419.49325077237108
 33
0.0
 14
-242.99929431764491
 24
-499.49324491612788
 34
0.0
 50
90.000000000215877
1001
ACAD_DSTYLE_DIMINSPECT
1070
   396
1000
100%
1070
   395
1000

1070
   394
1070
    33
1070
   393
1070
     0
1001
ACAD
1000
DSTYLE
1002
{
1070
    41
1040
20.0
1070
   140
1040
20.0
1070
   178
1070
     0
1002
}
  0
DIMENSION
  5
3620
  8
0
  2
*D13
 10
282.9471348878692
 20
-419.4957733893487
 30
0.0
 11
271.44713488786931
 21
-474.49505321493098
 31
0.0
 70
     0
 13
34.413622682421021
 23
-529.49433304051354
 33
0.0
 14
243.18883498661009
 24
-419.4957733893487
 34
0.0
 50
90.000000000000028
1001
ACAD_DSTYLE_DIMINSPECT
1070
   396
1000
100%
1070
   395
1000

1070
   394
1070
    33
1070
   393
1070
     0
1001
ACAD
1000
DSTYLE
1002
{
1070
   140
1040
20.0
1070
   178
1070
     0
1070
    41
1040
20.0
1002
}
  0
DIMENSION
  5
3662
  8
0
  2
*D15
 10
54.622244891685497
 20
-419.49429279336027
 30
0.0
 11
54.622244891685568
 21
-462.3241579222165
 31
0.0
 70
   128
  1
85
 13
-49.452590478620088
 23
-505.15402305107273
 33
0.0
 14
-42.168871027892571
 24
-419.49429279336027
 34
0.0
 50
90.000000000000028
1001
ACAD_DSTYLE_DIMINSPECT
1070
   396
1000
100%
1070
   395
1000

1070
   394
1070
    33
1070
   393
1070
     0
1001
ACAD
1000
DSTYLE
1002
{
1070
   140
1040
20.0
1070
   178
1070
     0
1070
    41
1040
20.0
1070
     3
1000

1002
}
  0
ENDSEC
  0
EOF
