  0
SECTION
  2
HEADER
  9
$ACADVER
  1
AC1015
  9
$ACADMAINTVER
 70
    20
  9
$DWGCODEPAGE
  3
ANSI_932
  9
$INSBASE
 10
0.0
 20
0.0
 30
0.0
  9
$EXTMIN
 10
4.230000000000359
 20
-25.76999999999998
 30
0.0
  9
$EXTMAX
 10
301.2300000000004
 20
214.23
 30
0.0
  9
$LIMMIN
 10
0.0
 20
0.0
  9
$LIMMAX
 10
420.0
 20
297.0
  9
$ORTHOMODE
 70
     0
  9
$REGENMODE
 70
     1
  9
$FILLMODE
 70
     1
  9
$QTEXTMODE
 70
     0
  9
$MIRRTEXT
 70
     1
  9
$LTSCALE
 40
1.0
  9
$ATTMODE
 70
     1
  9
$TEXTSIZE
 40
2.5
  9
$TRACEWID
 40
1.0
  9
$TEXTSTYLE
  7
Standard
  9
$CLAYER
  8
実線  太
  9
$CELTYPE
  6
ByLayer
  9
$CECOLOR
 62
   256
  9
$CELTSCALE
 40
1.0
  9
$DISPSILH
 70
     0
  9
$DIMSCALE
 40
1.0
  9
$DIMASZ
 40
3.9
  9
$DIMEXO
 40
2.1
  9
$DIMDLI
 40
0.0
  9
$DIMRND
 40
0.0
  9
$DIMDLE
 40
0.0
  9
$DIMEXE
 40
0.0
  9
$DIMTP
 40
0.0
  9
$DIMTM
 40
0.0
  9
$DIMTXT
 40
2.5
  9
$DIMCEN
 40
2.5
  9
$DIMTSZ
 40
0.0
  9
$DIMTOL
 70
     0
  9
$DIMLIM
 70
     0
  9
$DIMTIH
 70
     0
  9
$DIMTOH
 70
     0
  9
$DIMSE1
 70
     0
  9
$DIMSE2
 70
     0
  9
$DIMTAD
 70
     1
  9
$DIMZIN
 70
     9
  9
$DIMBLK
  1
DotSmall
  9
$DIMASO
 70
     1
  9
$DIMSHO
 70
     1
  9
$DIMPOST
  1

  9
$DIMAPOST
  1

  9
$DIMALT
 70
     0
  9
$DIMALTD
 70
     3
  9
$DIMALTF
 40
0.03937007874016
  9
$DIMLFAC
 40
1.0
  9
$DIMTOFL
 70
     1
  9
$DIMTVP
 40
0.0
  9
$DIMTIX
 70
     0
  9
$DIMSOXD
 70
     0
  9
$DIMSAH
 70
     0
  9
$DIMBLK1
  1

  9
$DIMBLK2
  1

  9
$DIMSTYLE
  2
ISO-25
  9
$DIMCLRD
 70
     0
  9
$DIMCLRE
 70
     0
  9
$DIMCLRT
 70
     7
  9
$DIMTFAC
 40
1.0
  9
$DIMGAP
 40
0.9
  9
$DIMJUST
 70
     0
  9
$DIMSD1
 70
     0
  9
$DIMSD2
 70
     0
  9
$DIMTOLJ
 70
     0
  9
$DIMTZIN
 70
     8
  9
$DIMALTZ
 70
     0
  9
$DIMALTTZ
 70
     0
  9
$DIMUPT
 70
     0
  9
$DIMDEC
 70
     1
  9
$DIMTDEC
 70
     1
  9
$DIMALTU
 70
     2
  9
$DIMALTTD
 70
     3
  9
$DIMTXSTY
  7
Standard
  9
$DIMAUNIT
 70
     0
  9
$DIMADEC
 70
     0
  9
$DIMALTRND
 40
0.0
  9
$DIMAZIN
 70
     0
  9
$DIMDSEP
 70
    46
  9
$DIMATFIT
 70
     3
  9
$DIMFRAC
 70
     0
  9
$DIMLDRBLK
  1

  9
$DIMLUNIT
 70
     2
  9
$DIMLWD
 70
    -2
  9
$DIMLWE
 70
    -2
  9
$DIMTMOVE
 70
     0
  9
$LUNITS
 70
     2
  9
$LUPREC
 70
     4
  9
$SKETCHINC
 40
1.0
  9
$FILLETRAD
 40
3.0
  9
$AUNITS
 70
     0
  9
$AUPREC
 70
     0
  9
$MENU
  1
.
  9
$ELEVATION
 40
0.0
  9
$PELEVATION
 40
0.0
  9
$THICKNESS
 40
0.0
  9
$LIMCHECK
 70
     0
  9
$CHAMFERA
 40
0.0
  9
$CHAMFERB
 40
0.0
  9
$CHAMFERC
 40
20.0
  9
$CHAMFERD
 40
0.0
  9
$SKPOLY
 70
     0
  9
$TDCREATE
 40
2452626.479274549
  9
$TDUCREATE
 40
2452626.104274548
  9
$TDUPDATE
 40
2456820.682636713
  9
$TDUUPDATE
 40
2456820.307636713
  9
$TDINDWG
 40
0.8785171991
  9
$TDUSRTIMER
 40
0.8785171991
  9
$USRTIMER
 70
     1
  9
$ANGBASE
 50
0.0
  9
$ANGDIR
 70
     0
  9
$PDMODE
 70
    99
  9
$PDSIZE
 40
-2.0
  9
$PLINEWID
 40
0.0
  9
$SPLFRAME
 70
     0
  9
$SPLINETYPE
 70
     6
  9
$SPLINESEGS
 70
     8
  9
$HANDSEED
  5
7A12
  9
$SURFTAB1
 70
     6
  9
$SURFTAB2
 70
     6
  9
$SURFTYPE
 70
     6
  9
$SURFU
 70
     6
  9
$SURFV
 70
     6
  9
$UCSBASE
  2

  9
$UCSNAME
  2

  9
$UCSORG
 10
0.0
 20
0.0
 30
0.0
  9
$UCSXDIR
 10
1.0
 20
0.0
 30
0.0
  9
$UCSYDIR
 10
0.0
 20
1.0
 30
0.0
  9
$UCSORTHOREF
  2

  9
$UCSORTHOVIEW
 70
     0
  9
$UCSORGTOP
 10
0.0
 20
0.0
 30
0.0
  9
$UCSORGBOTTOM
 10
0.0
 20
0.0
 30
0.0
  9
$UCSORGLEFT
 10
0.0
 20
0.0
 30
0.0
  9
$UCSORGRIGHT
 10
0.0
 20
0.0
 30
0.0
  9
$UCSORGFRONT
 10
0.0
 20
0.0
 30
0.0
  9
$UCSORGBACK
 10
0.0
 20
0.0
 30
0.0
  9
$PUCSBASE
  2

  9
$PUCSNAME
  2

  9
$PUCSORG
 10
0.0
 20
0.0
 30
0.0
  9
$PUCSXDIR
 10
1.0
 20
0.0
 30
0.0
  9
$PUCSYDIR
 10
0.0
 20
1.0
 30
0.0
  9
$PUCSORTHOREF
  2

  9
$PUCSORTHOVIEW
 70
     0
  9
$PUCSORGTOP
 10
0.0
 20
0.0
 30
0.0
  9
$PUCSORGBOTTOM
 10
0.0
 20
0.0
 30
0.0
  9
$PUCSORGLEFT
 10
0.0
 20
0.0
 30
0.0
  9
$PUCSORGRIGHT
 10
0.0
 20
0.0
 30
0.0
  9
$PUCSORGFRONT
 10
0.0
 20
0.0
 30
0.0
  9
$PUCSORGBACK
 10
0.0
 20
0.0
 30
0.0
  9
$USERI1
 70
     0
  9
$USERI2
 70
     0
  9
$USERI3
 70
     0
  9
$USERI4
 70
     0
  9
$USERI5
 70
     0
  9
$USERR1
 40
0.0
  9
$USERR2
 40
0.0
  9
$USERR3
 40
0.0
  9
$USERR4
 40
0.0
  9
$USERR5
 40
0.0
  9
$WORLDVIEW
 70
     1
  9
$SHADEDGE
 70
     3
  9
$SHADEDIF
 70
    70
  9
$TILEMODE
 70
     1
  9
$MAXACTVP
 70
    64
  9
$PINSBASE
 10
0.0
 20
0.0
 30
0.0
  9
$PLIMCHECK
 70
     0
  9
$PEXTMIN
 10
28.84593157768251
 20
20.15066723823549
 30
0.0
  9
$PEXTMAX
 10
259.6133841991425
 20
181.3560051441192
 30
0.0
  9
$PLIMMIN
 10
-4.23333740234375
 20
-4.233333110809326
  9
$PLIMMAX
 10
292.6926574707031
 20
205.7399945259094
  9
$UNITMODE
 70
     0
  9
$VISRETAIN
 70
     1
  9
$PLINEGEN
 70
     0
  9
$PSLTSCALE
 70
     1
  9
$TREEDEPTH
 70
  3020
  9
$CMLSTYLE
  2
Standard
  9
$CMLJUST
 70
     0
  9
$CMLSCALE
 40
20.0
  9
$PROXYGRAPHICS
 70
     1
  9
$MEASUREMENT
 70
     1
  9
$CELWEIGHT
370
    -1
  9
$ENDCAPS
280
     0
  9
$JOINSTYLE
280
     0
  9
$LWDISPLAY
290
     0
  9
$INSUNITS
 70
     4
  9
$HYPERLINKBASE
  1

  9
$STYLESHEET
  1

  9
$XEDIT
290
     1
  9
$CEPSNTYPE
380
     0
  9
$PSTYLEMODE
290
     1
  9
$FINGERPRINTGUID
  2
{AEAF812E-8D80-486D-9611-5903FAC53DCD}
  9
$VERSIONGUID
  2
{0D3ABBC3-7DF4-4A2B-BC07-48819085F393}
  9
$EXTNAMES
290
     1
  9
$PSVPSCALE
 40
0.0
  9
$OLESTARTUP
290
     0
  0
ENDSEC
  0
SECTION
  2
CLASSES
  0
CLASS
  1
ACDBDICTIONARYWDFLT
  2
AcDbDictionaryWithDefault
  3
ObjectDBX Classes
 90
        0
280
     0
281
     0
  0
CLASS
  1
ACDBPLACEHOLDER
  2
AcDbPlaceHolder
  3
ObjectDBX Classes
 90
        0
280
     0
281
     0
  0
CLASS
  1
LAYOUT
  2
AcDbLayout
  3
ObjectDBX Classes
 90
        0
280
     0
281
     0
  0
CLASS
  1
DICTIONARYVAR
  2
AcDbDictionaryVar
  3
ObjectDBX Classes
 90
        0
280
     0
281
     0
  0
CLASS
  1
MATERIAL
  2
AcDbMaterial
  3
ObjectDBX Classes
 90
     1153
280
     0
281
     0
  0
CLASS
  1
VISUALSTYLE
  2
AcDbVisualStyle
  3
ObjectDBX Classes
 90
     4095
280
     0
281
     0
  0
CLASS
  1
TABLESTYLE
  2
AcDbTableStyle
  3
ObjectDBX Classes
 90
     4095
280
     0
281
     0
  0
CLASS
  1
SCALE
  2
AcDbScale
  3
ObjectDBX Classes
 90
     1153
280
     0
281
     0
  0
CLASS
  1
MLEADERSTYLE
  2
AcDbMLeaderStyle
  3
ACDB_MLEADERSTYLE_CLASS
 90
     4095
280
     0
281
     0
  0
CLASS
  1
CELLSTYLEMAP
  2
AcDbCellStyleMap
  3
ObjectDBX Classes
 90
     1152
280
     0
281
     0
  0
CLASS
  1
SORTENTSTABLE
  2
AcDbSortentsTable
  3
ObjectDBX Classes
 90
        0
280
     0
281
     0
  0
ENDSEC
  0
SECTION
  2
TABLES
  0
TABLE
  2
VPORT
  5
8
102
{ACAD_XDICTIONARY
360
6755
102
}
330
0
100
AcDbSymbolTable
 70
     1
  0
VPORT
  5
6387
330
8
100
AcDbSymbolTableRecord
100
AcDbViewportTableRecord
  2
*Active
 70
     0
 10
0.0
 20
0.0
 11
1.0
 21
1.0
 12
90.65680945403551
 22
35.7020633157366
 13
0.0
 23
0.0
 14
10.0
 24
10.0
 15
10.0
 25
10.0
 16
0.0
 26
0.0
 36
1.0
 17
0.0
 27
0.0
 37
0.0
 40
253.4457296168677
 41
2.340523882896764
 42
50.0
 43
0.0
 44
0.0
 50
0.0
 51
0.0
 71
     0
 72
 20000
 73
     1
 74
     0
 75
     0
 76
     0
 77
     0
 78
     0
281
     0
 65
     1
110
0.0
120
0.0
130
0.0
111
1.0
121
0.0
131
0.0
112
0.0
122
1.0
132
0.0
 79
     0
146
0.0
1001
ACAD_NAV_VCDISPLAY
1070
     3
  0
ENDTAB
  0
TABLE
  2
LTYPE
  5
5
330
0
100
AcDbSymbolTable
 70
     5
  0
LTYPE
  5
14
330
5
100
AcDbSymbolTableRecord
100
AcDbLinetypeTableRecord
  2
ByBlock
 70
     0
  3

 72
    65
 73
     0
 40
0.0
  0
LTYPE
  5
15
330
5
100
AcDbSymbolTableRecord
100
AcDbLinetypeTableRecord
  2
ByLayer
 70
     0
  3

 72
    65
 73
     0
 40
0.0
  0
LTYPE
  5
16
330
5
100
AcDbSymbolTableRecord
100
AcDbLinetypeTableRecord
  2
Continuous
 70
     0
  3
Solid line
 72
    65
 73
     0
 40
0.0
  0
LTYPE
  5
260
330
5
100
AcDbSymbolTableRecord
100
AcDbLinetypeTableRecord
  2
ACAD_ISO10W100
 70
     0
  3
ISO dash dot __ . __ . __ . __ . __ . __ . __ .
 72
    65
 73
     4
 40
18.0
 49
12.0
 74
     0
 49
-3.0
 74
     0
 49
0.0
 74
     0
 49
-3.0
 74
     0
  0
LTYPE
  5
2205
330
5
100
AcDbSymbolTableRecord
100
AcDbLinetypeTableRecord
  2
ACAD_ISO03W100
 70
     0
  3
ISO dash space __    __    __    __    __    __
 72
    65
 73
     2
 40
30.0
 49
12.0
 74
     0
 49
-18.0
 74
     0
  0
LTYPE
  5
73B5
330
5
100
AcDbSymbolTableRecord
100
AcDbLinetypeTableRecord
  2
DASHEDX2
 70
     0
  3
Dashed (2x) ____  ____  ____  ____  ____  ___
 72
    65
 73
     2
 40
1.5
 49
1.0
 74
     0
 49
-0.5
 74
     0
  0
ENDTAB
  0
TABLE
  2
LAYER
  5
2
102
{ACAD_XDICTIONARY
360
322F
102
}
330
0
100
AcDbSymbolTable
 70
    11
  0
LAYER
  5
10
102
{ACAD_XDICTIONARY
360
6806
102
}
330
2
100
AcDbSymbolTableRecord
100
AcDbLayerTableRecord
  2
0
 70
     0
 62
     9
  6
Continuous
290
     0
370
    -3
390
F
  0
LAYER
  5
35
102
{ACAD_XDICTIONARY
360
6808
102
}
330
2
100
AcDbSymbolTableRecord
100
AcDbLayerTableRecord
  2
図面枠
 70
     0
 62
     5
  6
Continuous
370
    20
390
F
  0
LAYER
  5
36
102
{ACAD_XDICTIONARY
360
680A
102
}
330
2
100
AcDbSymbolTableRecord
100
AcDbLayerTableRecord
  2
用紙枠
 70
     0
 62
   204
  6
Continuous
290
     0
370
    -3
390
F
  0
LAYER
  5
37
102
{ACAD_XDICTIONARY
360
680C
102
}
330
2
100
AcDbSymbolTableRecord
100
AcDbLayerTableRecord
  2
寸法線
 70
     0
 62
    20
  6
Continuous
370
    13
390
F
  0
LAYER
  5
38
102
{ACAD_XDICTIONARY
360
680E
102
}
330
2
100
AcDbSymbolTableRecord
100
AcDbLayerTableRecord
  2
破線
 70
     0
 62
   221
  6
ACAD_ISO03W100
370
     5
390
F
  0
LAYER
  5
261
102
{ACAD_XDICTIONARY
360
6810
102
}
330
2
100
AcDbSymbolTableRecord
100
AcDbLayerTableRecord
  2
実線  太
 70
     0
 62
     7
  6
Continuous
370
    18
390
F
  0
LAYER
  5
262
102
{ACAD_XDICTIONARY
360
6812
102
}
330
2
100
AcDbSymbolTableRecord
100
AcDbLayerTableRecord
  2
通り芯
 70
     0
 62
    70
  6
ACAD_ISO10W100
370
     9
390
F
  0
LAYER
  5
263
102
{ACAD_XDICTIONARY
360
6814
102
}
330
2
100
AcDbSymbolTableRecord
100
AcDbLayerTableRecord
  2
実線  細
 70
     0
 62
   141
  6
Continuous
370
     5
390
F
  0
LAYER
  5
491
330
2
100
AcDbSymbolTableRecord
100
AcDbLayerTableRecord
  2
Defpoints
 70
     0
 62
     7
  6
Continuous
290
     0
370
    -3
390
F
  0
LAYER
  5
FA1
102
{ACAD_XDICTIONARY
360
6816
102
}
330
2
100
AcDbSymbolTableRecord
100
AcDbLayerTableRecord
  2
HAFELE
 70
     0
 62
   240
  6
Continuous
370
     0
390
F
  0
LAYER
  5
243E
102
{ACAD_XDICTIONARY
360
6818
102
}
330
2
100
AcDbSymbolTableRecord
100
AcDbLayerTableRecord
  2
ｽﾀﾝﾌﾟ
 70
     0
 62
     1
  6
Continuous
370
     0
390
F
  0
ENDTAB
  0
TABLE
  2
STYLE
  5
3
330
0
100
AcDbSymbolTable
 70
     4
  0
STYLE
  5
11
330
3
100
AcDbSymbolTableRecord
100
AcDbTextStyleTableRecord
  2
Standard
 70
     0
 40
0.0
 41
1.0
 50
0.0
 71
     0
 42
2.5
  3

  4

1001
ACAD
1000
MS PGothic
1071
    32818
  0
STYLE
  5
39
330
3
100
AcDbSymbolTableRecord
100
AcDbTextStyleTableRecord
  2
CITYBLUEPRINT
 70
     0
 40
4.0
 41
1.5
 50
0.0
 71
     0
 42
4.0
  3
cityb___.ttf
  4

1001
ACAD
1000
CityBlueprint
1071
      514
  0
STYLE
  5
D18
330
3
100
AcDbSymbolTableRecord
100
AcDbTextStyleTableRecord
  2
STD
 70
     0
 40
0.0
 41
1.0
 50
0.0
 71
     0
 42
0.0
  3
txt
  4

  0
STYLE
  5
1880
330
3
100
AcDbSymbolTableRecord
100
AcDbTextStyleTableRecord
  2

 70
     1
 40
0.0
 41
1.0
 50
0.0
 71
     0
 42
2.5
  3
ltypeshp.shx
  4

  0
ENDTAB
  0
TABLE
  2
VIEW
  5
6
330
0
100
AcDbSymbolTable
 70
     0
  0
ENDTAB
  0
TABLE
  2
UCS
  5
7
330
0
100
AcDbSymbolTable
 70
     0
  0
ENDTAB
  0
TABLE
  2
APPID
  5
9
330
0
100
AcDbSymbolTable
 70
     7
  0
APPID
  5
12
330
9
100
AcDbSymbolTableRecord
100
AcDbRegAppTableRecord
  2
ACAD
 70
     0
  0
APPID
  5
63D9
330
9
100
AcDbSymbolTableRecord
100
AcDbRegAppTableRecord
  2
ACAD_NAV_VCDISPLAY
 70
     0
  0
APPID
  5
6654
330
9
100
AcDbSymbolTableRecord
100
AcDbRegAppTableRecord
  2
ACAD_EXEMPT_FROM_CAD_STANDARDS
 70
     0
  0
APPID
  5
679B
330
9
100
AcDbSymbolTableRecord
100
AcDbRegAppTableRecord
  2
ACAD_MLEADERVER
 70
     0
  0
APPID
  5
6F6B
330
9
100
AcDbSymbolTableRecord
100
AcDbRegAppTableRecord
  2
ACAD_DSTYLE_DIMJAG
 70
     0
  0
APPID
  5
6F6C
330
9
100
AcDbSymbolTableRecord
100
AcDbRegAppTableRecord
  2
ACAD_DSTYLE_DIMBREAK
 70
     0
  0
APPID
  5
6F6D
330
9
100
AcDbSymbolTableRecord
100
AcDbRegAppTableRecord
  2
ACAD_DSTYLE_DIMTALN
 70
     0
  0
ENDTAB
  0
TABLE
  2
DIMSTYLE
  5
A
330
0
100
AcDbSymbolTable
 70
     1
100
AcDbDimStyleTable
 71
     1
340
27
  0
DIMSTYLE
105
27
102
{ACAD_REACTORS
330
764E
330
766B
330
7675
330
7679
330
7682
330
7683
330
7687
330
768B
330
768E
330
768F
330
7696
330
7697
102
}
330
A
100
AcDbSymbolTableRecord
100
AcDbDimStyleTableRecord
  2
ISO-25
 70
     0
 41
3.9
 42
2.1
 43
0.0
 44
0.0
 73
     0
 74
     0
 77
     1
 78
     9
140
2.5
141
2.5
143
0.03937007874016
147
0.9
171
     3
172
     1
178
     7
271
     1
272
     1
274
     3
283
     0
284
     8
340
11
342
2B
  0
ENDTAB
  0
TABLE
  2
BLOCK_RECORD
  5
1
330
0
100
AcDbSymbolTable
 70
    15
  0
BLOCK_RECORD
  5
1F
102
{ACAD_XDICTIONARY
360
6430
102
}
330
1
100
AcDbSymbolTableRecord
100
AcDbBlockTableRecord
  2
*Model_Space
340
22
  0
BLOCK_RECORD
  5
23
330
1
100
AcDbSymbolTableRecord
100
AcDbBlockTableRecord
  2
*Paper_Space
340
26
  0
BLOCK_RECORD
  5
1B
330
1
100
AcDbSymbolTableRecord
100
AcDbBlockTableRecord
  2
*Paper_Space0
340
1E
  0
BLOCK_RECORD
  5
2B
330
1
100
AcDbSymbolTableRecord
100
AcDbBlockTableRecord
  2
_DotSmall
340
0
102
{BLKREFS
331
782A
331
782B
331
7833
331
7834
331
783C
331
783D
331
7845
331
7846
331
784F
331
7850
331
7858
331
7859
331
7861
331
7862
331
786B
331
786C
331
7874
331
7875
331
787D
331
787E
331
7886
331
7887
331
7890
331
7891
102
}
  0
BLOCK_RECORD
  5
2F
330
1
100
AcDbSymbolTableRecord
100
AcDbBlockTableRecord
  2
DOT
340
0
310
2800000020000000200000000100080000000000000400000000000000000000000000000000000000000000000080000080000000808000800000008000800080800000C0C0C000C0DCC000F0CAA6000020400000206000002080000020A0000020C0000020E00000400000004020000040400000406000004080000040A0
310
000040C0000040E00000600000006020000060400000606000006080000060A0000060C0000060E00000800000008020000080400000806000008080000080A0000080C0000080E00000A0000000A0200000A0400000A0600000A0800000A0A00000A0C00000A0E00000C0000000C0200000C0400000C0600000C0800000C0
310
A00000C0C00000C0E00000E0000000E0200000E0400000E0600000E0800000E0A00000E0C00000E0E00040000000400020004000400040006000400080004000A0004000C0004000E00040200000402020004020400040206000402080004020A0004020C0004020E000404000004040200040404000404060004040800040
310
40A0004040C0004040E00040600000406020004060400040606000406080004060A0004060C0004060E00040800000408020004080400040806000408080004080A0004080C0004080E00040A0000040A0200040A0400040A0600040A0800040A0A00040A0C00040A0E00040C0000040C0200040C0400040C0600040C08000
310
40C0A00040C0C00040C0E00040E0000040E0200040E0400040E0600040E0800040E0A00040E0C00040E0E00080000000800020008000400080006000800080008000A0008000C0008000E00080200000802020008020400080206000802080008020A0008020C0008020E00080400000804020008040400080406000804080
310
008040A0008040C0008040E00080600000806020008060400080606000806080008060A0008060C0008060E00080800000808020008080400080806000808080008080A0008080C0008080E00080A0000080A0200080A0400080A0600080A0800080A0A00080A0C00080A0E00080C0000080C0200080C0400080C0600080C0
310
800080C0A00080C0C00080C0E00080E0000080E0200080E0400080E0600080E0800080E0A00080E0C00080E0E000C0000000C0002000C0004000C0006000C0008000C000A000C000C000C000E000C0200000C0202000C0204000C0206000C0208000C020A000C020C000C020E000C0400000C0402000C0404000C0406000C0
310
408000C040A000C040C000C040E000C0600000C0602000C0604000C0606000C0608000C060A000C060C000C060E000C0800000C0802000C0804000C0806000C0808000C080A000C080C000C080E000C0A00000C0A02000C0A04000C0A06000C0A08000C0A0A000C0A0C000C0A0E000C0C00000C0C02000C0C04000C0C06000
310
C0C08000C0C0A000F0FBFF00A4A0A000808080000000FF0000FF000000FFFF00FF000000FF00FF00FFFF0000FFFFFF00FFFFFFFFFFFFFFFFFFFFFFFFFFFFFFFFFFFFFFFFFFFFFFFFFFFFFFFFFFFFFFFFFFFFFFFFFFFFFFFFFFFFFFFFFFFFFFFFFFFFFFFFFFFFFFFFFFFFFFFFFFFFFFFFFFFFFFFFFFFFFFFFFFFFFFFFFFFFFF
310
FFFFFFFFFFFFFFFFFF00FFFFFFFFFFFFFFFFFFFFFFFFFFFFFFFFFFFFFFFFFFFFFFFFFFFFFFFFFFFF000000FFFFFFFFFFFFFFFFFFFFFFFFFFFFFFFFFFFFFFFFFFFFFFFFFFFFFFFF00FF00FF00FFFFFFFFFFFFFFFFFFFFFFFFFFFFFFFFFFFFFFFFFFFFFFFFFFFF00FFFF00FFFF00FFFFFFFFFFFFFFFFFFFFFFFFFFFFFFFFFFFF
310
FFFFFFFFFFFF00FFFFFF00FFFFFF00FFFFFFFFFFFFFFFFFFFFFFFFFFFFFFFFFFFFFFFFFFFF00FFFFFFFF00FFFFFFFF00FFFFFFFFFFFFFFFFFFFFFFFFFFFFFFFFFFFFFFFF00FFFFFFFFFF00FFFFFFFFFF00FFFFFFFFFFFFFFFFFFFFFFFFFFFFFFFFFFFF00FFFFFFFFFFFF00FFFFFFFFFFFF00FFFFFFFFFFFFFFFFFFFFFFFFFF
310
FFFFFF00FFFFFFFFFFFFFF00FFFFFFFFFFFFFFFFFFFFFFFFFFFFFFFFFFFFFFFFFFFF00FFFFFFFFFFFFFFFF00FFFFFFFFFFFFFFFFFFFFFFFFFFFFFFFFFFFFFFFFFF00FFFFFFFFFFFFFFFFFF00FFFFFFFFFFFFFFFFFFFFFFFFFFFFFFFFFFFFFFFF00FFFFFFFFFFFFFFFFFFFF00FFFFFFFFFFFFFFFFFFFFFFFFFFFFFFFFFFFFFF
310
00FFFFFFFFFFFFFFFFFFFF000000FFFFFFFFFFFFFFFFFFFFFFFFFFFFFFFFFF00FFFFFFFFFFFFFFFFFFFF00000000000000000000FF0000000000000000000000000000000000000000000000000000FFFFFFFFFFFFFFFFFFFFFFFFFFFFFFFF00FFFFFFFFFFFFFFFFFFFFFF000000FFFFFFFFFFFFFFFFFFFFFFFFFFFFFFFFFF
310
FF00FFFFFFFFFFFFFFFFFFFFFF00FFFFFFFFFFFFFFFFFFFFFFFFFFFFFFFFFFFFFFFF00FFFFFFFFFFFFFFFFFFFF00FFFFFFFFFFFFFFFFFFFFFFFFFFFFFFFFFFFFFFFFFF00FFFFFFFFFFFFFFFFFF00FFFFFFFFFFFFFFFFFFFFFFFFFFFFFFFFFFFFFFFFFFFF00FFFFFFFFFFFFFFFF00FFFFFFFFFFFFFFFFFFFFFFFFFFFFFFFFFF
310
FFFFFFFFFFFF0000FFFFFFFFFFFF00FFFFFFFFFFFF00FFFFFFFFFFFFFFFFFFFFFFFFFFFFFFFFFFFF00FFFFFFFFFF00FFFFFFFFFF00FFFFFFFFFFFFFFFFFFFFFFFFFFFFFFFFFFFFFFFF00FFFFFFFF00FFFFFFFF00FFFFFFFFFFFFFFFFFFFFFFFFFFFFFFFFFFFFFFFFFFFF00FFFFFF00FFFFFF00FFFFFFFFFFFFFFFFFFFFFFFF
310
FFFFFFFFFFFFFFFFFFFFFFFF00FFFF00FFFF00FFFFFFFFFFFFFFFFFFFFFFFFFFFFFFFFFFFFFFFFFFFFFFFFFFFF00FF00FF00FFFFFFFFFFFFFFFFFFFFFFFFFFFFFFFFFFFFFFFFFFFFFFFFFFFFFFFF000000FFFFFFFFFFFFFFFFFFFFFFFFFFFFFFFFFFFFFFFFFFFFFFFFFFFFFFFFFFFF00FFFFFFFFFFFFFFFFFFFFFFFFFFFFFF
310
FFFFFFFFFFFFFFFFFFFFFFFFFFFFFFFFFFFFFFFFFFFFFFFFFFFFFFFFFFFFFFFFFFFFFFFFFFFFFFFFFFFFFFFFFFFFFFFFFFFFFFFFFFFFFFFF
  0
BLOCK_RECORD
  5
76B6
330
1
100
AcDbSymbolTableRecord
100
AcDbBlockTableRecord
  2
*D3
340
0
  0
BLOCK_RECORD
  5
76C2
330
1
100
AcDbSymbolTableRecord
100
AcDbBlockTableRecord
  2
*D4
340
0
  0
BLOCK_RECORD
  5
76CE
330
1
100
AcDbSymbolTableRecord
100
AcDbBlockTableRecord
  2
*D5
340
0
  0
BLOCK_RECORD
  5
76DA
330
1
100
AcDbSymbolTableRecord
100
AcDbBlockTableRecord
  2
*D6
340
0
  0
BLOCK_RECORD
  5
76E6
330
1
100
AcDbSymbolTableRecord
100
AcDbBlockTableRecord
  2
*D7
340
0
  0
BLOCK_RECORD
  5
76F3
330
1
100
AcDbSymbolTableRecord
100
AcDbBlockTableRecord
  2
*D8
340
0
  0
BLOCK_RECORD
  5
76FF
330
1
100
AcDbSymbolTableRecord
100
AcDbBlockTableRecord
  2
*D9
340
0
  0
BLOCK_RECORD
  5
770B
330
1
100
AcDbSymbolTableRecord
100
AcDbBlockTableRecord
  2
*D10
340
0
  0
BLOCK_RECORD
  5
7718
330
1
100
AcDbSymbolTableRecord
100
AcDbBlockTableRecord
  2
*D11
340
0
  0
BLOCK_RECORD
  5
7724
330
1
100
AcDbSymbolTableRecord
100
AcDbBlockTableRecord
  2
*D12
340
0
  0
BLOCK_RECORD
  5
7730
330
1
100
AcDbSymbolTableRecord
100
AcDbBlockTableRecord
  2
*D13
340
0
  0
BLOCK_RECORD
  5
773C
330
1
100
AcDbSymbolTableRecord
100
AcDbBlockTableRecord
  2
*D14
340
0
  0
ENDTAB
  0
ENDSEC
  0
SECTION
  2
BLOCKS
  0
BLOCK
  5
20
330
1F
100
AcDbEntity
  8
0
100
AcDbBlockBegin
  2
*Model_Space
 70
     0
 10
0.0
 20
0.0
 30
0.0
  3
*Model_Space
  1

  0
ENDBLK
  5
21
330
1F
100
AcDbEntity
  8
0
100
AcDbBlockEnd
  0
BLOCK
  5
24
330
23
100
AcDbEntity
 67
     1
  8
0
100
AcDbBlockBegin
  2
*Paper_Space
 70
     0
 10
0.0
 20
0.0
 30
0.0
  3
*Paper_Space
  1

  0
ENDBLK
  5
25
330
23
100
AcDbEntity
 67
     1
  8
0
100
AcDbBlockEnd
  0
BLOCK
  5
1C
330
1B
100
AcDbEntity
 67
     1
  8
0
100
AcDbBlockBegin
  2
*Paper_Space0
 70
     0
 10
0.0
 20
0.0
 30
0.0
  3
*Paper_Space0
  1

  0
VIEWPORT
  5
2835
102
{ACAD_XDICTIONARY
360
79D6
102
}
330
1B
100
AcDbEntity
 67
     1
  8
0
100
AcDbViewport
 10
145.0671538148211
 20
105.2792470596998
 30
0.0
 40
255.4768232678978
 41
146.5118883694624
 68
     0
 69
     0
 12
145.0671538148211
 22
105.2792470596998
 13
0.0
 23
0.0
 14
10.0
 24
10.0
 15
10.0
 25
10.0
 16
0.0
 26
0.0
 36
1.0
 17
0.0
 27
0.0
 37
0.0
 42
50.0
 43
0.0
 44
0.0
 45
146.5118883694624
 50
0.0
 51
0.0
 72
 20000
 90
    32800
  1

281
     0
 71
     1
 74
     0
110
0.0
120
0.0
130
0.0
111
1.0
121
0.0
131
0.0
112
0.0
122
1.0
132
0.0
 79
     0
146
0.0
  0
VIEWPORT
  5
2837
102
{ACAD_XDICTIONARY
360
79D8
102
}
330
1B
100
AcDbEntity
 67
     1
  8
実線  太
100
AcDbViewport
 10
144.2296578884125
 20
100.7533361911773
 30
0.0
 40
230.7674526214599
 41
161.2053379058837
 68
     0
 69
     0
 12
144.2273710473552
 22
92.63739313986013
 13
0.0
 23
0.0
 14
10.0
 24
10.0
 15
10.0
 25
10.0
 16
0.0
 26
0.0
 36
1.0
 17
0.0
 27
0.0
 37
0.0
 42
50.0
 43
0.0
 44
0.0
 45
237.262888478563
 50
0.0
 51
0.0
 72
 20000
 90
    32768
  1

281
     0
 71
     1
 74
     0
110
0.0
120
0.0
130
0.0
111
1.0
121
0.0
131
0.0
112
0.0
122
1.0
132
0.0
 79
     0
146
0.0
  0
ENDBLK
  5
1D
330
1B
100
AcDbEntity
 67
     1
  8
0
100
AcDbBlockEnd
  0
BLOCK
  5
2D
330
2B
100
AcDbEntity
  8
0
370
    18
100
AcDbBlockBegin
  2
_DotSmall
 70
     0
 10
0.0
 20
0.0
 30
0.0
  3
_DotSmall
  1

  0
LWPOLYLINE
  5
2C
330
2B
100
AcDbEntity
  8
0
 62
     0
370
    18
100
AcDbPolyline
 90
        2
 70
     1
 43
0.5
 10
-0.0625
 20
0.0
 42
1.0
 10
0.0625
 20
0.0
 42
1.0
  0
ENDBLK
  5
2E
330
2B
100
AcDbEntity
  8
0
370
    18
100
AcDbBlockEnd
  0
BLOCK
  5
32
330
2F
100
AcDbEntity
  8
0
100
AcDbBlockBegin
  2
DOT
 70
     0
 10
0.0
 20
0.0
 30
0.0
  3
DOT
  1

  0
LWPOLYLINE
  5
30
330
2F
100
AcDbEntity
  8
破線
  6
ByBlock
 62
     0
100
AcDbPolyline
 90
        2
 70
     1
 43
0.5
 10
-0.25
 20
0.0
 42
1.0
 10
0.25
 20
0.0
 42
1.0
  0
LINE
  5
31
330
2F
100
AcDbEntity
  8
破線
  6
ByBlock
 62
     0
100
AcDbLine
 10
-0.5
 20
0.0
 30
0.0
 11
-1.0
 21
0.0
 31
0.0
  0
ENDBLK
  5
33
330
2F
100
AcDbEntity
  8
0
100
AcDbBlockEnd
  0
BLOCK
  5
76B7
330
76B6
100
AcDbEntity
  8
0
100
AcDbBlockBegin
  2
*D3
 70
     1
 10
0.0
 20
0.0
 30
0.0
  3
*D3
  1

  0
LINE
  5
7827
330
76B6
100
AcDbEntity
  8
寸法線
 62
     0
370
    -2
100
AcDbLine
 10
158.607787766736
 20
159.2520674631188
 30
0.0
 11
176.507787766736
 21
159.2520674631188
 31
0.0
  0
LINE
  5
7828
330
76B6
100
AcDbEntity
  8
寸法線
 62
     0
370
    -2
100
AcDbLine
 10
158.607787766736
 20
139.2520674631189
 30
0.0
 11
176.507787766736
 21
139.2520674631189
 31
0.0
  0
LINE
  5
7829
330
76B6
100
AcDbEntity
  8
寸法線
 62
     0
370
    -2
100
AcDbLine
 10
176.507787766736
 20
159.2520674631188
 30
0.0
 11
176.507787766736
 21
139.2520674631189
 31
0.0
  0
INSERT
  5
782A
330
76B6
100
AcDbEntity
  8
寸法線
 62
     0
370
    -2
100
AcDbBlockReference
  2
_DotSmall
 10
176.507787766736
 20
159.2520674631188
 30
0.0
 41
3.9
 42
3.9
 43
3.9
 50
90.0
  0
INSERT
  5
782B
330
76B6
100
AcDbEntity
  8
寸法線
 62
     0
370
    -2
100
AcDbBlockReference
  2
_DotSmall
 10
176.507787766736
 20
139.2520674631189
 30
0.0
 41
3.9
 42
3.9
 43
3.9
 50
270.0
  0
MTEXT
  5
782C
330
76B6
100
AcDbEntity
  8
寸法線
 62
     7
100
AcDbMText
 10
174.357787766736
 20
149.2520674631189
 30
0.0
 40
2.5
 41
0.0
 71
     5
 72
     1
  1
20
 11
0.0000000000000001
 21
1.0
 31
0.0
 73
     1
 44
1.0
1001
ACAD
1000
MTEXTBEGIN
1070
    73
1070
     1
1070
    44
1040
1.0
1070
    74
1070
     0
1000
MTEXTEND
  0
POINT
  5
782D
330
76B6
100
AcDbEntity
  8
Defpoints
 62
     0
100
AcDbPoint
 10
156.507787766736
 20
159.2520674631188
 30
0.0
  0
POINT
  5
782E
330
76B6
100
AcDbEntity
  8
Defpoints
 62
     0
100
AcDbPoint
 10
156.507787766736
 20
139.2520674631189
 30
0.0
  0
POINT
  5
782F
330
76B6
100
AcDbEntity
  8
Defpoints
 62
     0
100
AcDbPoint
 10
176.507787766736
 20
139.2520674631189
 30
0.0
  0
ENDBLK
  5
76B8
330
76B6
100
AcDbEntity
  8
0
100
AcDbBlockEnd
  0
BLOCK
  5
76C3
330
76C2
100
AcDbEntity
  8
0
100
AcDbBlockBegin
  2
*D4
 70
     1
 10
0.0
 20
0.0
 30
0.0
  3
*D4
  1

  0
LINE
  5
7830
330
76C2
100
AcDbEntity
  8
寸法線
 62
     0
370
    -2
100
AcDbLine
 10
136.5077877667359
 20
161.3520674631189
 30
0.0
 11
136.5077877667359
 21
179.2520674631189
 31
0.0
  0
LINE
  5
7831
330
76C2
100
AcDbEntity
  8
寸法線
 62
     0
370
    -2
100
AcDbLine
 10
156.507787766736
 20
161.3520674631188
 30
0.0
 11
156.507787766736
 21
179.2520674631189
 31
0.0
  0
LINE
  5
7832
330
76C2
100
AcDbEntity
  8
寸法線
 62
     0
370
    -2
100
AcDbLine
 10
136.5077877667359
 20
179.2520674631189
 30
0.0
 11
156.507787766736
 21
179.2520674631189
 31
0.0
  0
INSERT
  5
7833
330
76C2
100
AcDbEntity
  8
寸法線
 62
     0
370
    -2
100
AcDbBlockReference
  2
_DotSmall
 10
136.5077877667359
 20
179.2520674631189
 30
0.0
 41
3.9
 42
3.9
 43
3.9
 50
180.0
  0
INSERT
  5
7834
330
76C2
100
AcDbEntity
  8
寸法線
 62
     0
370
    -2
100
AcDbBlockReference
  2
_DotSmall
 10
156.507787766736
 20
179.2520674631189
 30
0.0
 41
3.9
 42
3.9
 43
3.9
  0
MTEXT
  5
7835
330
76C2
100
AcDbEntity
  8
寸法線
 62
     7
100
AcDbMText
 10
146.507787766736
 20
181.4020674631189
 30
0.0
 40
2.5
 41
0.0
 71
     5
 72
     1
  1
20
 73
     1
 44
1.0
1001
ACAD
1000
MTEXTBEGIN
1070
    73
1070
     1
1070
    44
1040
1.0
1070
    74
1070
     0
1000
MTEXTEND
  0
POINT
  5
7836
330
76C2
100
AcDbEntity
  8
Defpoints
 62
     0
100
AcDbPoint
 10
136.5077877667359
 20
159.2520674631189
 30
0.0
  0
POINT
  5
7837
330
76C2
100
AcDbEntity
  8
Defpoints
 62
     0
100
AcDbPoint
 10
156.507787766736
 20
159.2520674631188
 30
0.0
  0
POINT
  5
7838
330
76C2
100
AcDbEntity
  8
Defpoints
 62
     0
100
AcDbPoint
 10
156.507787766736
 20
179.2520674631189
 30
0.0
  0
ENDBLK
  5
76C4
330
76C2
100
AcDbEntity
  8
0
100
AcDbBlockEnd
  0
BLOCK
  5
76CF
330
76CE
100
AcDbEntity
  8
0
100
AcDbBlockBegin
  2
*D5
 70
     1
 10
0.0
 20
0.0
 30
0.0
  3
*D5
  1

  0
LINE
  5
7839
330
76CE
100
AcDbEntity
  8
寸法線
 62
     0
370
    -2
100
AcDbLine
 10
62.94316519121474
 20
161.3520674631189
 30
0.0
 11
62.94316519121474
 21
179.2520674631189
 31
0.0
  0
LINE
  5
783A
330
76CE
100
AcDbEntity
  8
寸法線
 62
     0
370
    -2
100
AcDbLine
 10
112.9431651912147
 20
151.3520674631189
 30
0.0
 11
112.9431651912147
 21
179.2520674631189
 31
0.0
  0
LINE
  5
783B
330
76CE
100
AcDbEntity
  8
寸法線
 62
     0
370
    -2
100
AcDbLine
 10
62.94316519121474
 20
179.2520674631189
 30
0.0
 11
112.9431651912147
 21
179.2520674631189
 31
0.0
  0
INSERT
  5
783C
330
76CE
100
AcDbEntity
  8
寸法線
 62
     0
370
    -2
100
AcDbBlockReference
  2
_DotSmall
 10
62.94316519121474
 20
179.2520674631189
 30
0.0
 41
3.9
 42
3.9
 43
3.9
 50
180.0
  0
INSERT
  5
783D
330
76CE
100
AcDbEntity
  8
寸法線
 62
     0
370
    -2
100
AcDbBlockReference
  2
_DotSmall
 10
112.9431651912147
 20
179.2520674631189
 30
0.0
 41
3.9
 42
3.9
 43
3.9
  0
MTEXT
  5
783E
330
76CE
100
AcDbEntity
  8
寸法線
 62
     7
100
AcDbMText
 10
87.94316519121474
 20
181.4020674631189
 30
0.0
 40
2.5
 41
0.0
 71
     5
 72
     1
  1
50
 73
     1
 44
1.0
1001
ACAD
1000
MTEXTBEGIN
1070
    73
1070
     1
1070
    44
1040
1.0
1070
    74
1070
     0
1000
MTEXTEND
  0
POINT
  5
783F
330
76CE
100
AcDbEntity
  8
Defpoints
 62
     0
100
AcDbPoint
 10
62.94316519121474
 20
159.2520674631189
 30
0.0
  0
POINT
  5
7840
330
76CE
100
AcDbEntity
  8
Defpoints
 62
     0
100
AcDbPoint
 10
112.9431651912147
 20
149.2520674631189
 30
0.0
  0
POINT
  5
7841
330
76CE
100
AcDbEntity
  8
Defpoints
 62
     0
100
AcDbPoint
 10
112.9431651912147
 20
179.2520674631189
 30
0.0
  0
ENDBLK
  5
76D0
330
76CE
100
AcDbEntity
  8
0
100
AcDbBlockEnd
  0
BLOCK
  5
76DB
330
76DA
100
AcDbEntity
  8
0
100
AcDbBlockBegin
  2
*D6
 70
     1
 10
0.0
 20
0.0
 30
0.0
  3
*D6
  1

  0
LINE
  5
7842
330
76DA
100
AcDbEntity
  8
寸法線
 62
     0
370
    -2
100
AcDbLine
 10
128.2226330922595
 20
67.49320324598477
 30
0.0
 11
128.2226330922595
 21
91.39320324598477
 31
0.0
  0
LINE
  5
7843
330
76DA
100
AcDbEntity
  8
寸法線
 62
     0
370
    -2
100
AcDbLine
 10
140.2226330922596
 20
67.49320324598477
 30
0.0
 11
140.2226330922596
 21
91.39320324598477
 31
0.0
  0
LINE
  5
7844
330
76DA
100
AcDbEntity
  8
寸法線
 62
     0
370
    -2
100
AcDbLine
 10
128.2226330922595
 20
91.39320324598477
 30
0.0
 11
140.2226330922596
 21
91.39320324598477
 31
0.0
  0
INSERT
  5
7845
330
76DA
100
AcDbEntity
  8
寸法線
 62
     0
370
    -2
100
AcDbBlockReference
  2
_DotSmall
 10
128.2226330922595
 20
91.39320324598477
 30
0.0
 41
3.9
 42
3.9
 43
3.9
 50
180.0
  0
INSERT
  5
7846
330
76DA
100
AcDbEntity
  8
寸法線
 62
     0
370
    -2
100
AcDbBlockReference
  2
_DotSmall
 10
140.2226330922596
 20
91.39320324598477
 30
0.0
 41
3.9
 42
3.9
 43
3.9
  0
MTEXT
  5
7847
330
76DA
100
AcDbEntity
  8
寸法線
 62
     7
100
AcDbMText
 10
134.2226330922595
 20
93.91962370053024
 30
0.0
 40
2.5
 41
0.0
 71
     5
 72
     1
  1
\U+03C612
 73
     1
 44
1.0
1001
ACAD
1000
MTEXTBEGIN
1070
    73
1070
     1
1070
    44
1040
1.0
1070
    74
1070
     0
1000
MTEXTEND
  0
POINT
  5
7848
330
76DA
100
AcDbEntity
  8
Defpoints
 62
     0
100
AcDbPoint
 10
128.2226330922595
 20
65.39320324598477
 30
0.0
  0
POINT
  5
7849
330
76DA
100
AcDbEntity
  8
Defpoints
 62
     0
100
AcDbPoint
 10
140.2226330922596
 20
65.39320324598477
 30
0.0
  0
POINT
  5
784A
330
76DA
100
AcDbEntity
  8
Defpoints
 62
     0
100
AcDbPoint
 10
140.2226330922596
 20
91.39320324598477
 30
0.0
  0
ENDBLK
  5
76DC
330
76DA
100
AcDbEntity
  8
0
100
AcDbBlockEnd
  0
BLOCK
  5
76E7
330
76E6
100
AcDbEntity
  8
0
100
AcDbBlockBegin
  2
*D7
 70
     1
 10
0.0
 20
0.0
 30
0.0
  3
*D7
  1

  0
LINE
  5
784B
330
76E6
100
AcDbEntity
  8
寸法線
 62
     0
370
    -2
100
AcDbLine
 10
88.94064480228479
 20
73.49320324598477
 30
0.0
 11
88.94064480228479
 21
91.39320324598477
 31
0.0
  0
LINE
  5
784C
330
76E6
100
AcDbEntity
  8
寸法線
 62
     0
370
    -2
100
AcDbLine
 10
91.94064480228467
 20
73.49320324598477
 30
0.0
 11
91.94064480228467
 21
91.39320324598477
 31
0.0
  0
LINE
  5
784D
330
76E6
100
AcDbEntity
  8
寸法線
 62
     0
370
    -2
100
AcDbLine
 10
88.94064480228479
 20
91.39320324598477
 30
0.0
 11
91.94064480228467
 21
91.39320324598477
 31
0.0
  0
LINE
  5
784E
330
76E6
100
AcDbEntity
  8
寸法線
 62
     0
370
    -2
100
AcDbLine
 10
91.94064480228467
 20
91.39320324598477
 30
0.0
 11
99.08950843864833
 21
91.39320324598477
 31
0.0
  0
INSERT
  5
784F
330
76E6
100
AcDbEntity
  8
寸法線
 62
     0
370
    -2
100
AcDbBlockReference
  2
_DotSmall
 10
88.94064480228479
 20
91.39320324598477
 30
0.0
 41
3.9
 42
3.9
 43
3.9
 50
180.0
  0
INSERT
  5
7850
330
76E6
100
AcDbEntity
  8
寸法線
 62
     0
370
    -2
100
AcDbBlockReference
  2
_DotSmall
 10
91.94064480228467
 20
91.39320324598477
 30
0.0
 41
3.9
 42
3.9
 43
3.9
  0
MTEXT
  5
7851
330
76E6
100
AcDbEntity
  8
寸法線
 62
     7
100
AcDbMText
 10
97.46507662046651
 20
93.54320324598479
 30
0.0
 40
2.5
 41
0.0
 71
     5
 72
     1
  1
3
 73
     1
 44
1.0
1001
ACAD
1000
MTEXTBEGIN
1070
    73
1070
     1
1070
    44
1040
1.0
1070
    74
1070
     0
1000
MTEXTEND
  0
POINT
  5
7852
330
76E6
100
AcDbEntity
  8
Defpoints
 62
     0
100
AcDbPoint
 10
88.94064480228479
 20
71.39320324598478
 30
0.0
  0
POINT
  5
7853
330
76E6
100
AcDbEntity
  8
Defpoints
 62
     0
100
AcDbPoint
 10
91.94064480228467
 20
71.39320324598478
 30
0.0
  0
POINT
  5
7854
330
76E6
100
AcDbEntity
  8
Defpoints
 62
     0
100
AcDbPoint
 10
91.94064480228467
 20
91.39320324598477
 30
0.0
  0
ENDBLK
  5
76E8
330
76E6
100
AcDbEntity
  8
0
100
AcDbBlockEnd
  0
BLOCK
  5
76F4
330
76F3
100
AcDbEntity
  8
0
100
AcDbBlockBegin
  2
*D8
 70
     1
 10
0.0
 20
0.0
 30
0.0
  3
*D8
  1

  0
LINE
  5
7855
330
76F3
100
AcDbEntity
  8
寸法線
 62
     0
370
    -2
100
AcDbLine
 10
79.94064480228468
 20
73.49320324598477
 30
0.0
 11
79.94064480228468
 21
91.39320324598477
 31
0.0
  0
LINE
  5
7856
330
76F3
100
AcDbEntity
  8
寸法線
 62
     0
370
    -2
100
AcDbLine
 10
88.94064480228479
 20
73.49320324598477
 30
0.0
 11
88.94064480228479
 21
91.39320324598477
 31
0.0
  0
LINE
  5
7857
330
76F3
100
AcDbEntity
  8
寸法線
 62
     0
370
    -2
100
AcDbLine
 10
79.94064480228468
 20
91.39320324598477
 30
0.0
 11
88.94064480228479
 21
91.39320324598477
 31
0.0
  0
INSERT
  5
7858
330
76F3
100
AcDbEntity
  8
寸法線
 62
     0
370
    -2
100
AcDbBlockReference
  2
_DotSmall
 10
79.94064480228468
 20
91.39320324598477
 30
0.0
 41
3.9
 42
3.9
 43
3.9
 50
180.0
  0
INSERT
  5
7859
330
76F3
100
AcDbEntity
  8
寸法線
 62
     0
370
    -2
100
AcDbBlockReference
  2
_DotSmall
 10
88.94064480228479
 20
91.39320324598477
 30
0.0
 41
3.9
 42
3.9
 43
3.9
  0
MTEXT
  5
785A
330
76F3
100
AcDbEntity
  8
寸法線
 62
     7
100
AcDbMText
 10
84.44064480228474
 20
93.54320324598479
 30
0.0
 40
2.5
 41
0.0
 71
     5
 72
     1
  1
9
 73
     1
 44
1.0
1001
ACAD
1000
MTEXTBEGIN
1070
    73
1070
     1
1070
    44
1040
1.0
1070
    74
1070
     0
1000
MTEXTEND
  0
POINT
  5
785B
330
76F3
100
AcDbEntity
  8
Defpoints
 62
     0
100
AcDbPoint
 10
79.94064480228468
 20
71.39320324598478
 30
0.0
  0
POINT
  5
785C
330
76F3
100
AcDbEntity
  8
Defpoints
 62
     0
100
AcDbPoint
 10
88.94064480228479
 20
71.39320324598478
 30
0.0
  0
POINT
  5
785D
330
76F3
100
AcDbEntity
  8
Defpoints
 62
     0
100
AcDbPoint
 10
88.94064480228479
 20
91.39320324598477
 30
0.0
  0
ENDBLK
  5
76F5
330
76F3
100
AcDbEntity
  8
0
100
AcDbBlockEnd
  0
BLOCK
  5
7700
330
76FF
100
AcDbEntity
  8
0
100
AcDbBlockBegin
  2
*D9
 70
     1
 10
0.0
 20
0.0
 30
0.0
  3
*D9
  1

  0
LINE
  5
785E
330
76FF
100
AcDbEntity
  8
寸法線
 62
     0
370
    -2
100
AcDbLine
 10
91.04064480228478
 20
70.39320324598484
 30
0.0
 11
111.9406448022846
 21
70.39320324598482
 31
0.0
  0
LINE
  5
785F
330
76FF
100
AcDbEntity
  8
寸法線
 62
     0
370
    -2
100
AcDbLine
 10
91.04064480228478
 20
60.39320324598484
 30
0.0
 11
111.9406448022846
 21
60.39320324598484
 31
0.0
  0
LINE
  5
7860
330
76FF
100
AcDbEntity
  8
寸法線
 62
     0
370
    -2
100
AcDbLine
 10
111.9406448022846
 20
70.39320324598482
 30
0.0
 11
111.9406448022846
 21
60.39320324598484
 31
0.0
  0
INSERT
  5
7861
330
76FF
100
AcDbEntity
  8
寸法線
 62
     0
370
    -2
100
AcDbBlockReference
  2
_DotSmall
 10
111.9406448022846
 20
70.39320324598482
 30
0.0
 41
3.9
 42
3.9
 43
3.9
 50
90.0
  0
INSERT
  5
7862
330
76FF
100
AcDbEntity
  8
寸法線
 62
     0
370
    -2
100
AcDbBlockReference
  2
_DotSmall
 10
111.9406448022846
 20
60.39320324598484
 30
0.0
 41
3.9
 42
3.9
 43
3.9
 50
270.0
  0
MTEXT
  5
7863
330
76FF
100
AcDbEntity
  8
寸法線
 62
     7
100
AcDbMText
 10
109.4142243477392
 20
65.39320324598485
 30
0.0
 40
2.5
 41
0.0
 71
     5
 72
     1
  1
\U+03C610
 11
0.0000000000000001
 21
1.0
 31
0.0
 73
     1
 44
1.0
1001
ACAD
1000
MTEXTBEGIN
1070
    73
1070
     1
1070
    44
1040
1.0
1070
    74
1070
     0
1000
MTEXTEND
  0
POINT
  5
7864
330
76FF
100
AcDbEntity
  8
Defpoints
 62
     0
100
AcDbPoint
 10
88.94064480228479
 20
70.39320324598484
 30
0.0
  0
POINT
  5
7865
330
76FF
100
AcDbEntity
  8
Defpoints
 62
     0
100
AcDbPoint
 10
88.94064480228479
 20
60.39320324598484
 30
0.0
  0
POINT
  5
7866
330
76FF
100
AcDbEntity
  8
Defpoints
 62
     0
100
AcDbPoint
 10
111.9406448022846
 20
60.39320324598484
 30
0.0
  0
ENDBLK
  5
7701
330
76FF
100
AcDbEntity
  8
0
100
AcDbBlockEnd
  0
BLOCK
  5
770C
330
770B
100
AcDbEntity
  8
0
100
AcDbBlockBegin
  2
*D10
 70
     1
 10
0.0
 20
0.0
 30
0.0
  3
*D10
  1

  0
LINE
  5
7867
330
770B
100
AcDbEntity
  8
寸法線
 62
     0
370
    -2
100
AcDbLine
 10
131.4726330922595
 20
63.29320324598477
 30
0.0
 11
131.4726330922595
 21
39.39320324598478
 31
0.0
  0
LINE
  5
7868
330
770B
100
AcDbEntity
  8
寸法線
 62
     0
370
    -2
100
AcDbLine
 10
136.9726330922596
 20
63.29320324598477
 30
0.0
 11
136.9726330922596
 21
39.39320324598478
 31
0.0
  0
LINE
  5
7869
330
770B
100
AcDbEntity
  8
寸法線
 62
     0
370
    -2
100
AcDbLine
 10
131.4726330922595
 20
39.39320324598478
 30
0.0
 11
136.9726330922596
 21
39.39320324598478
 31
0.0
  0
LINE
  5
786A
330
770B
100
AcDbEntity
  8
寸法線
 62
     0
370
    -2
100
AcDbLine
 10
136.9726330922596
 20
39.39320324598478
 30
0.0
 11
149.7607012740777
 21
39.39320324598478
 31
0.0
  0
INSERT
  5
786B
330
770B
100
AcDbEntity
  8
寸法線
 62
     0
370
    -2
100
AcDbBlockReference
  2
_DotSmall
 10
131.4726330922595
 20
39.39320324598478
 30
0.0
 41
3.9
 42
3.9
 43
3.9
 50
180.0
  0
INSERT
  5
786C
330
770B
100
AcDbEntity
  8
寸法線
 62
     0
370
    -2
100
AcDbBlockReference
  2
_DotSmall
 10
136.9726330922596
 20
39.39320324598478
 30
0.0
 41
3.9
 42
3.9
 43
3.9
  0
MTEXT
  5
786D
330
770B
100
AcDbEntity
  8
寸法線
 62
     7
100
AcDbMText
 10
145.3166671831687
 20
41.91962370053023
 30
0.0
 40
2.5
 41
0.0
 71
     5
 72
     1
  1
\U+03C65.5
 73
     1
 44
1.0
1001
ACAD
1000
MTEXTBEGIN
1070
    73
1070
     1
1070
    44
1040
1.0
1070
    74
1070
     0
1000
MTEXTEND
  0
POINT
  5
786E
330
770B
100
AcDbEntity
  8
Defpoints
 62
     0
100
AcDbPoint
 10
131.4726330922595
 20
65.39320324598477
 30
0.0
  0
POINT
  5
786F
330
770B
100
AcDbEntity
  8
Defpoints
 62
     0
100
AcDbPoint
 10
136.9726330922596
 20
65.39320324598477
 30
0.0
  0
POINT
  5
7870
330
770B
100
AcDbEntity
  8
Defpoints
 62
     0
100
AcDbPoint
 10
136.9726330922596
 20
39.39320324598478
 30
0.0
  0
ENDBLK
  5
770D
330
770B
100
AcDbEntity
  8
0
100
AcDbBlockEnd
  0
BLOCK
  5
7719
330
7718
100
AcDbEntity
  8
0
100
AcDbBlockBegin
  2
*D11
 70
     1
 10
0.0
 20
0.0
 30
0.0
  3
*D11
  1

  0
LINE
  5
7871
330
7718
100
AcDbEntity
  8
寸法線
 62
     0
370
    -2
100
AcDbLine
 10
91.94064480228467
 20
57.29320324598478
 30
0.0
 11
91.94064480228467
 21
39.39320324598478
 31
0.0
  0
LINE
  5
7872
330
7718
100
AcDbEntity
  8
寸法線
 62
     0
370
    -2
100
AcDbLine
 10
68.44064480228468
 20
57.29320324598478
 30
0.0
 11
68.44064480228468
 21
39.39320324598478
 31
0.0
  0
LINE
  5
7873
330
7718
100
AcDbEntity
  8
寸法線
 62
     0
370
    -2
100
AcDbLine
 10
91.94064480228467
 20
39.39320324598478
 30
0.0
 11
68.44064480228468
 21
39.39320324598478
 31
0.0
  0
INSERT
  5
7874
330
7718
100
AcDbEntity
  8
寸法線
 62
     0
370
    -2
100
AcDbBlockReference
  2
_DotSmall
 10
91.94064480228467
 20
39.39320324598478
 30
0.0
 41
3.9
 42
3.9
 43
3.9
  0
INSERT
  5
7875
330
7718
100
AcDbEntity
  8
寸法線
 62
     0
370
    -2
100
AcDbBlockReference
  2
_DotSmall
 10
68.44064480228468
 20
39.39320324598478
 30
0.0
 41
3.9
 42
3.9
 43
3.9
 50
180.0
  0
MTEXT
  5
7876
330
7718
100
AcDbEntity
  8
寸法線
 62
     7
100
AcDbMText
 10
80.19064480228468
 20
41.54320324598478
 30
0.0
 40
2.5
 41
0.0
 71
     5
 72
     1
  1
23.5
 73
     1
 44
1.0
1001
ACAD
1000
MTEXTBEGIN
1070
    73
1070
     1
1070
    44
1040
1.0
1070
    74
1070
     0
1000
MTEXTEND
  0
POINT
  5
7877
330
7718
100
AcDbEntity
  8
Defpoints
 62
     0
100
AcDbPoint
 10
91.94064480228467
 20
59.39320324598478
 30
0.0
  0
POINT
  5
7878
330
7718
100
AcDbEntity
  8
Defpoints
 62
     0
100
AcDbPoint
 10
68.44064480228468
 20
59.39320324598478
 30
0.0
  0
POINT
  5
7879
330
7718
100
AcDbEntity
  8
Defpoints
 62
     0
100
AcDbPoint
 10
68.44064480228468
 20
39.39320324598478
 30
0.0
  0
ENDBLK
  5
771A
330
7718
100
AcDbEntity
  8
0
100
AcDbBlockEnd
  0
BLOCK
  5
7725
330
7724
100
AcDbEntity
  8
0
100
AcDbBlockBegin
  2
*D12
 70
     1
 10
0.0
 20
0.0
 30
0.0
  3
*D12
  1

  0
LINE
  5
787A
330
7724
100
AcDbEntity
  8
寸法線
 62
     0
370
    -2
100
AcDbLine
 10
68.44064480228468
 20
73.49320324598477
 30
0.0
 11
68.44064480228468
 21
91.39320324598477
 31
0.0
  0
LINE
  5
787B
330
7724
100
AcDbEntity
  8
寸法線
 62
     0
370
    -2
100
AcDbLine
 10
79.94064480228468
 20
73.49320324598477
 30
0.0
 11
79.94064480228468
 21
91.39320324598477
 31
0.0
  0
LINE
  5
787C
330
7724
100
AcDbEntity
  8
寸法線
 62
     0
370
    -2
100
AcDbLine
 10
68.44064480228468
 20
91.39320324598477
 30
0.0
 11
79.94064480228468
 21
91.39320324598477
 31
0.0
  0
INSERT
  5
787D
330
7724
100
AcDbEntity
  8
寸法線
 62
     0
370
    -2
100
AcDbBlockReference
  2
_DotSmall
 10
68.44064480228468
 20
91.39320324598477
 30
0.0
 41
3.9
 42
3.9
 43
3.9
 50
180.0
  0
INSERT
  5
787E
330
7724
100
AcDbEntity
  8
寸法線
 62
     0
370
    -2
100
AcDbBlockReference
  2
_DotSmall
 10
79.94064480228468
 20
91.39320324598477
 30
0.0
 41
3.9
 42
3.9
 43
3.9
  0
MTEXT
  5
787F
330
7724
100
AcDbEntity
  8
寸法線
 62
     7
100
AcDbMText
 10
74.19064480228468
 20
93.54320324598479
 30
0.0
 40
2.5
 41
0.0
 71
     5
 72
     1
  1
11.5
 73
     1
 44
1.0
1001
ACAD
1000
MTEXTBEGIN
1070
    73
1070
     1
1070
    44
1040
1.0
1070
    74
1070
     0
1000
MTEXTEND
  0
POINT
  5
7880
330
7724
100
AcDbEntity
  8
Defpoints
 62
     0
100
AcDbPoint
 10
68.44064480228468
 20
71.39320324598478
 30
0.0
  0
POINT
  5
7881
330
7724
100
AcDbEntity
  8
Defpoints
 62
     0
100
AcDbPoint
 10
79.94064480228468
 20
71.39320324598478
 30
0.0
  0
POINT
  5
7882
330
7724
100
AcDbEntity
  8
Defpoints
 62
     0
100
AcDbPoint
 10
79.94064480228468
 20
91.39320324598477
 30
0.0
  0
ENDBLK
  5
7726
330
7724
100
AcDbEntity
  8
0
100
AcDbBlockEnd
  0
BLOCK
  5
7731
330
7730
100
AcDbEntity
  8
0
100
AcDbBlockBegin
  2
*D13
 70
     1
 10
0.0
 20
0.0
 30
0.0
  3
*D13
  1

  0
LINE
  5
7883
330
7730
100
AcDbEntity
  8
寸法線
 62
     0
370
    -2
100
AcDbLine
 10
94.84316519121472
 20
147.1520674631189
 30
0.0
 11
94.84316519121472
 21
119.2520674631189
 31
0.0
  0
LINE
  5
7884
330
7730
100
AcDbEntity
  8
寸法線
 62
     0
370
    -2
100
AcDbLine
 10
111.0431651912147
 20
147.1520674631189
 30
0.0
 11
111.0431651912147
 21
119.2520674631189
 31
0.0
  0
LINE
  5
7885
330
7730
100
AcDbEntity
  8
寸法線
 62
     0
370
    -2
100
AcDbLine
 10
94.84316519121472
 20
119.2520674631189
 30
0.0
 11
111.0431651912147
 21
119.2520674631189
 31
0.0
  0
INSERT
  5
7886
330
7730
100
AcDbEntity
  8
寸法線
 62
     0
370
    -2
100
AcDbBlockReference
  2
_DotSmall
 10
94.84316519121472
 20
119.2520674631189
 30
0.0
 41
3.9
 42
3.9
 43
3.9
 50
180.0
  0
INSERT
  5
7887
330
7730
100
AcDbEntity
  8
寸法線
 62
     0
370
    -2
100
AcDbBlockReference
  2
_DotSmall
 10
111.0431651912147
 20
119.2520674631189
 30
0.0
 41
3.9
 42
3.9
 43
3.9
  0
MTEXT
  5
7888
330
7730
100
AcDbEntity
  8
寸法線
 62
     7
100
AcDbMText
 10
102.9431651912147
 20
121.7784879176644
 30
0.0
 40
2.5
 41
0.0
 71
     5
 72
     1
  1
\U+03C616.2
 73
     1
 44
1.0
1001
ACAD
1000
MTEXTBEGIN
1070
    73
1070
     1
1070
    44
1040
1.0
1070
    74
1070
     0
1000
MTEXTEND
  0
POINT
  5
7889
330
7730
100
AcDbEntity
  8
Defpoints
 62
     0
100
AcDbPoint
 10
94.84316519121472
 20
149.2520674631189
 30
0.0
  0
POINT
  5
788A
330
7730
100
AcDbEntity
  8
Defpoints
 62
     0
100
AcDbPoint
 10
111.0431651912147
 20
149.2520674631189
 30
0.0
  0
POINT
  5
788B
330
7730
100
AcDbEntity
  8
Defpoints
 62
     0
100
AcDbPoint
 10
111.0431651912147
 20
119.2520674631189
 30
0.0
  0
ENDBLK
  5
7732
330
7730
100
AcDbEntity
  8
0
100
AcDbBlockEnd
  0
BLOCK
  5
773D
330
773C
100
AcDbEntity
  8
0
100
AcDbBlockBegin
  2
*D14
 70
     1
 10
0.0
 20
0.0
 30
0.0
  3
*D14
  1

  0
LINE
  5
788C
330
773C
100
AcDbEntity
  8
寸法線
 62
     0
370
    -2
100
AcDbLine
 10
111.0431651912147
 20
147.1520674631189
 30
0.0
 11
111.0431651912147
 21
119.2520674631189
 31
0.0
  0
LINE
  5
788D
330
773C
100
AcDbEntity
  8
寸法線
 62
     0
370
    -2
100
AcDbLine
 10
112.9431651912147
 20
147.1520674631189
 30
0.0
 11
112.9431651912147
 21
119.2520674631189
 31
0.0
  0
LINE
  5
788E
330
773C
100
AcDbEntity
  8
寸法線
 62
     0
370
    -2
100
AcDbLine
 10
111.0431651912147
 20
119.2520674631189
 30
0.0
 11
112.9431651912147
 21
119.2520674631189
 31
0.0
  0
LINE
  5
788F
330
773C
100
AcDbEntity
  8
寸法線
 62
     0
370
    -2
100
AcDbLine
 10
112.9431651912147
 20
119.2520674631189
 30
0.0
 11
122.4357788275784
 21
119.2520674631189
 31
0.0
  0
INSERT
  5
7890
330
773C
100
AcDbEntity
  8
寸法線
 62
     0
370
    -2
100
AcDbBlockReference
  2
_DotSmall
 10
111.0431651912147
 20
119.2520674631189
 30
0.0
 41
3.9
 42
3.9
 43
3.9
 50
180.0
  0
INSERT
  5
7891
330
773C
100
AcDbEntity
  8
寸法線
 62
     0
370
    -2
100
AcDbBlockReference
  2
_DotSmall
 10
112.9431651912147
 20
119.2520674631189
 30
0.0
 41
3.9
 42
3.9
 43
3.9
  0
MTEXT
  5
7892
330
773C
100
AcDbEntity
  8
寸法線
 62
     7
100
AcDbMText
 10
119.6394720093965
 20
121.4020674631189
 30
0.0
 40
2.5
 41
0.0
 71
     5
 72
     1
  1
1.9
 73
     1
 44
1.0
1001
ACAD
1000
MTEXTBEGIN
1070
    73
1070
     1
1070
    44
1040
1.0
1070
    74
1070
     0
1000
MTEXTEND
  0
POINT
  5
7893
330
773C
100
AcDbEntity
  8
Defpoints
 62
     0
100
AcDbPoint
 10
111.0431651912147
 20
149.2520674631189
 30
0.0
  0
POINT
  5
7894
330
773C
100
AcDbEntity
  8
Defpoints
 62
     0
100
AcDbPoint
 10
112.9431651912147
 20
149.2520674631189
 30
0.0
  0
POINT
  5
7895
330
773C
100
AcDbEntity
  8
Defpoints
 62
     0
100
AcDbPoint
 10
112.9431651912147
 20
119.2520674631189
 30
0.0
  0
ENDBLK
  5
773E
330
773C
100
AcDbEntity
  8
0
100
AcDbBlockEnd
  0
ENDSEC
  0
SECTION
  2
ENTITIES
  0
MTEXT
  5
5ACC
330
1F
100
AcDbEntity
  8
図面枠
 62
     0
100
AcDbMText
 10
62.7299999999999
 20
26.22999999999911
 30
0.0
 40
2.999999999999961
 41
0.0
 71
     4
 72
     5
  1
ﾚｰﾘﾝｸﾞｼｽﾃﾑ　LINERO　ﾎﾙﾀﾞｰ　\U+03C616mmﾚｰﾙ用
 73
     1
 44
1.0
1001
ACAD
1000
MTEXTBEGIN
1070
    73
1070
     1
1070
    44
1040
1.0
1070
    74
1070
     0
1000
MTEXTEND
  0
MTEXT
  5
5AD1
330
1F
100
AcDbEntity
  8
図面枠
 62
     0
100
AcDbMText
 10
62.7299999999999
 20
18.22999999999911
 30
0.0
 40
2.999999999999961
 41
0.0
 71
     4
 72
     5
  1
Art.No. 521.16.257
 73
     1
 44
1.0
1001
ACAD
1000
MTEXTBEGIN
1070
    73
1070
     1
1070
    44
1040
1.0
1070
    74
1070
     0
1000
MTEXTEND
  0
LINE
  5
7607
330
1F
100
AcDbEntity
  8
実線  太
100
AcDbLine
 10
228.4973177505017
 20
94.33509001670245
 30
0.0
 11
226.6223177505017
 21
94.33509001670245
 31
0.0
  0
ARC
  5
7608
330
1F
100
AcDbEntity
  8
実線  太
100
AcDbCircle
 10
230.3723177505016
 20
83.08509001670257
 30
0.0
 40
2.812499999999978
100
AcDbArc
 50
180.0
 51
270.0
  0
ARC
  5
7609
330
1F
100
AcDbEntity
  8
実線  太
100
AcDbCircle
 10
230.3723177505016
 20
83.08509001670257
 30
0.0
 40
1.874999999999978
100
AcDbArc
 50
180.0
 51
270.0
  0
ARC
  5
760A
330
1F
100
AcDbEntity
  8
実線  太
100
AcDbCircle
 10
230.3723177505016
 20
83.08509001670257
 30
0.0
 40
3.75
100
AcDbArc
 50
180.0
 51
270.0
  0
LINE
  5
760B
330
1F
100
AcDbEntity
  8
実線  太
100
AcDbLine
 10
226.6223177505017
 20
83.08509001670257
 30
0.0
 11
226.6223177505017
 21
94.33509001670245
 31
0.0
  0
LINE
  5
760C
330
1F
100
AcDbEntity
  8
実線  太
100
AcDbLine
 10
228.4973177505017
 20
83.08509001670257
 30
0.0
 11
228.4973177505017
 21
94.33509001670245
 31
0.0
  0
LINE
  5
760D
330
1F
100
AcDbEntity
  8
実線  太
100
AcDbLine
 10
227.5598177505017
 20
83.08509001670257
 30
0.0
 11
227.5598177505017
 21
94.33509001670245
 31
0.0
  0
LINE
  5
760E
330
1F
100
AcDbEntity
  8
実線  太
100
AcDbLine
 10
269.3723177505017
 20
79.33509001670256
 30
0.0
 11
269.3723177505017
 21
81.21009001670257
 31
0.0
  0
LINE
  5
760F
330
1F
100
AcDbEntity
  8
実線  太
100
AcDbLine
 10
251.6275915722262
 20
45.5418919575585
 30
0.0
 11
250.928805358743
 21
45.86774132031885
 31
0.0
  0
LINE
  5
7610
330
1F
100
AcDbEntity
  8
実線  太
100
AcDbLine
 10
251.6275915722262
 20
44.75914851205004
 30
0.0
 11
250.8775915722262
 21
45.10887925566627
 31
0.0
  0
LINE
  5
7611
330
1F
100
AcDbEntity
  8
実線  太
100
AcDbLine
 10
250.8775915722262
 20
45.10887925566627
 30
0.0
 11
251.6275915722262
 21
45.5418919575585
 31
0.0
  0
LINE
  5
7612
330
1F
100
AcDbEntity
  8
実線  太
100
AcDbLine
 10
251.6275915722262
 20
43.19366162103304
 30
0.0
 11
250.8775915722262
 21
43.54339236464935
 31
0.0
  0
LINE
  5
7613
330
1F
100
AcDbEntity
  8
実線  太
100
AcDbLine
 10
250.8775915722262
 20
42.76064891914081
 30
0.0
 11
251.6275915722262
 21
43.19366162103304
 31
0.0
  0
LINE
  5
7614
330
1F
100
AcDbEntity
  8
実線  太
100
AcDbLine
 10
251.6275915722262
 20
43.97640506654153
 30
0.0
 11
250.8775915722262
 21
44.32613581015781
 31
0.0
  0
LINE
  5
7615
330
1F
100
AcDbEntity
  8
実線  太
100
AcDbLine
 10
250.8775915722262
 20
43.54339236464929
 30
0.0
 11
251.6275915722262
 21
43.97640506654153
 31
0.0
  0
LINE
  5
7616
330
1F
100
AcDbEntity
  8
実線  太
100
AcDbLine
 10
250.8775915722262
 20
41.97790547363235
 30
0.0
 11
251.6275915722262
 21
42.41091817552458
 31
0.0
  0
LINE
  5
7617
330
1F
100
AcDbEntity
  8
実線  太
100
AcDbLine
 10
250.8775915722262
 20
41.19516202812383
 30
0.0
 11
251.6275915722262
 21
41.62817473001607
 31
0.0
  0
LINE
  5
7618
330
1F
100
AcDbEntity
  8
実線  太
100
AcDbLine
 10
251.6275915722262
 20
41.62817473001607
 30
0.0
 11
250.8775915722262
 21
41.97790547363235
 31
0.0
  0
LINE
  5
7619
330
1F
100
AcDbEntity
  8
実線  太
100
AcDbLine
 10
251.6275915722262
 20
40.84543128450758
 30
0.0
 11
250.8775915722262
 21
41.19516202812383
 31
0.0
  0
LINE
  5
761A
330
1F
100
AcDbEntity
  8
実線  太
100
AcDbLine
 10
250.8775915722262
 20
40.41241858261535
 30
0.0
 11
251.6275915722262
 21
40.84543128450758
 31
0.0
  0
LINE
  5
761B
330
1F
100
AcDbEntity
  8
実線  太
100
AcDbLine
 10
251.6275915722262
 20
42.41091817552458
 30
0.0
 11
250.8775915722262
 21
42.76064891914081
 31
0.0
  0
LINE
  5
761C
330
1F
100
AcDbEntity
  8
実線  太
100
AcDbLine
 10
250.8775915722262
 20
40.41241858261535
 30
0.0
 11
250.389916927461
 21
39.56774132031887
 31
0.0
  0
LINE
  5
761D
330
1F
100
AcDbEntity
  8
実線  太
100
AcDbLine
 10
250.8775915722262
 20
44.32613581015781
 30
0.0
 11
251.6275915722262
 21
44.75914851205004
 31
0.0
  0
LINE
  5
761E
330
1F
100
AcDbEntity
  8
実線  太
100
AcDbLine
 10
246.5275915722262
 20
45.51104701483692
 30
0.0
 11
246.5275915722262
 21
45.86774132031885
 31
0.0
  0
LINE
  5
761F
330
1F
100
AcDbEntity
  8
実線  太
100
AcDbLine
 10
245.7775915722263
 20
45.03008327593187
 30
0.0
 11
246.5275915722262
 21
44.72830356932854
 31
0.0
  0
LINE
  5
7620
330
1F
100
AcDbEntity
  8
実線  太
100
AcDbLine
 10
246.5275915722262
 20
45.511047014837
 30
0.0
 11
245.7775915722263
 21
45.03008327593187
 31
0.0
  0
LINE
  5
7621
330
1F
100
AcDbEntity
  8
実線  太
100
AcDbLine
 10
245.7775915722263
 20
43.46459638491492
 30
0.0
 11
246.5275915722262
 21
43.16281667831154
 31
0.0
  0
LINE
  5
7622
330
1F
100
AcDbEntity
  8
実線  太
100
AcDbLine
 10
246.5275915722262
 20
43.16281667831154
 30
0.0
 11
245.7775915722262
 21
42.68185293940641
 31
0.0
  0
LINE
  5
7623
330
1F
100
AcDbEntity
  8
実線  太
100
AcDbLine
 10
246.5275915722262
 20
43.94556012381999
 30
0.0
 11
245.7775915722263
 21
43.46459638491492
 31
0.0
  0
LINE
  5
7624
330
1F
100
AcDbEntity
  8
実線  太
100
AcDbLine
 10
245.7775915722263
 20
44.24733983042338
 30
0.0
 11
246.5275915722262
 21
43.94556012381999
 31
0.0
  0
LINE
  5
7625
330
1F
100
AcDbEntity
  8
実線  太
100
AcDbLine
 10
246.5275915722262
 20
42.38007323280302
 30
0.0
 11
245.7775915722262
 21
41.89910949389792
 31
0.0
  0
LINE
  5
7626
330
1F
100
AcDbEntity
  8
実線  太
100
AcDbLine
 10
245.7775915722262
 20
41.89910949389792
 30
0.0
 11
246.5275915722261
 21
41.59732978729453
 31
0.0
  0
LINE
  5
7627
330
1F
100
AcDbEntity
  8
実線  太
100
AcDbLine
 10
246.5275915722262
 20
41.59732978729453
 30
0.0
 11
245.7775915722262
 21
41.11636604838946
 31
0.0
  0
LINE
  5
7628
330
1F
100
AcDbEntity
  8
実線  太
100
AcDbLine
 10
245.7775915722262
 20
41.11636604838946
 30
0.0
 11
246.5275915722261
 21
40.81458634178608
 31
0.0
  0
LINE
  5
7629
330
1F
100
AcDbEntity
  8
実線  太
100
AcDbLine
 10
245.7775915722262
 20
40.33362260288092
 30
0.0
 11
246.5275915722261
 21
40.03184289627756
 31
0.0
  0
LINE
  5
762A
330
1F
100
AcDbEntity
  8
実線  太
100
AcDbLine
 10
246.5275915722262
 20
40.81458634178608
 30
0.0
 11
245.7775915722262
 21
40.33362260288092
 31
0.0
  0
LINE
  5
762B
330
1F
100
AcDbEntity
  8
実線  太
100
AcDbLine
 10
245.7775915722262
 20
42.68185293940641
 30
0.0
 11
246.5275915722261
 21
42.38007323280308
 31
0.0
  0
LINE
  5
762C
330
1F
100
AcDbEntity
  8
実線  太
100
AcDbLine
 10
246.5275915722262
 20
40.03184289627756
 30
0.0
 11
246.7955407420372
 21
39.56774132031887
 31
0.0
  0
LINE
  5
762D
330
1F
100
AcDbEntity
  8
実線  太
100
AcDbLine
 10
246.5275915722262
 20
44.72830356932848
 30
0.0
 11
245.7775915722263
 21
44.24733983042338
 31
0.0
  0
LINE
  5
762E
330
1F
100
AcDbEntity
  8
実線  太
100
AcDbLine
 10
246.7955407420371
 20
39.56774132031882
 30
0.0
 11
250.389916927461
 21
39.56774132031887
 31
0.0
  0
LINE
  5
762F
330
1F
100
AcDbEntity
  8
実線  太
100
AcDbLine
 10
246.5275915722262
 20
45.511047014837
 30
0.0
 11
250.6046261399815
 21
45.86774132031885
 31
0.0
  0
LINE
  5
7630
330
1F
100
AcDbEntity
  8
実線  太
100
AcDbLine
 10
246.5275915722262
 20
43.16281667831154
 30
0.0
 11
250.8775915722262
 21
43.54339236464929
 31
0.0
  0
LINE
  5
7631
330
1F
100
AcDbEntity
  8
実線  太
100
AcDbLine
 10
245.7775915722262
 20
41.89910949389792
 30
0.0
 11
251.6275915722262
 21
42.41091817552458
 31
0.0
  0
LINE
  5
7632
330
1F
100
AcDbEntity
  8
実線  太
100
AcDbLine
 10
246.5275915722262
 20
42.38007323280302
 30
0.0
 11
250.8775915722262
 21
42.76064891914081
 31
0.0
  0
LINE
  5
7633
330
1F
100
AcDbEntity
  8
実線  太
100
AcDbLine
 10
245.7775915722262
 20
42.68185293940641
 30
0.0
 11
251.6275915722262
 21
43.19366162103304
 31
0.0
  0
LINE
  5
7634
330
1F
100
AcDbEntity
  8
実線  太
100
AcDbLine
 10
245.7775915722262
 20
41.11636604838946
 30
0.0
 11
251.6275915722262
 21
41.62817473001607
 31
0.0
  0
LINE
  5
7635
330
1F
100
AcDbEntity
  8
実線  太
100
AcDbLine
 10
246.5275915722262
 20
41.59732978729453
 30
0.0
 11
250.8775915722262
 21
41.97790547363235
 31
0.0
  0
LINE
  5
7636
330
1F
100
AcDbEntity
  8
実線  太
100
AcDbLine
 10
246.5275915722262
 20
40.81458634178608
 30
0.0
 11
250.8775915722262
 21
41.1951620281238
 31
0.0
  0
LINE
  5
7637
330
1F
100
AcDbEntity
  8
実線  太
100
AcDbLine
 10
245.7775915722262
 20
40.33362260288092
 30
0.0
 11
251.6275915722262
 21
40.84543128450758
 31
0.0
  0
LINE
  5
7638
330
1F
100
AcDbEntity
  8
実線  太
100
AcDbLine
 10
246.5275915722262
 20
43.94556012381999
 30
0.0
 11
250.8775915722262
 21
44.32613581015781
 31
0.0
  0
LINE
  5
7639
330
1F
100
AcDbEntity
  8
実線  太
100
AcDbLine
 10
245.7775915722263
 20
43.46459638491492
 30
0.0
 11
251.6275915722262
 21
43.97640506654153
 31
0.0
  0
LINE
  5
763A
330
1F
100
AcDbEntity
  8
実線  太
100
AcDbLine
 10
246.5275915722262
 20
44.72830356932848
 30
0.0
 11
250.8775915722262
 21
45.10887925566627
 31
0.0
  0
LINE
  5
763B
330
1F
100
AcDbEntity
  8
実線  太
100
AcDbLine
 10
245.7775915722263
 20
44.24733983042338
 30
0.0
 11
251.6275915722262
 21
44.75914851205004
 31
0.0
  0
LINE
  5
763C
330
1F
100
AcDbEntity
  8
実線  太
100
AcDbLine
 10
245.7775915722263
 20
45.03008327593187
 30
0.0
 11
251.6275915722262
 21
45.5418919575585
 31
0.0
  0
LINE
  5
763D
330
1F
100
AcDbEntity
  8
実線  太
100
AcDbLine
 10
246.5275915722261
 20
40.03184289627756
 30
0.0
 11
250.8775915722262
 21
40.41241858261535
 31
0.0
  0
LINE
  5
763E
330
1F
100
AcDbEntity
  8
実線  太
100
AcDbLine
 10
246.5275915722262
 20
45.86774132031885
 30
0.0
 11
250.9288053587429
 21
45.86774132031885
 31
0.0
  0
LINE
  5
763F
330
1F
100
AcDbEntity
  8
実線  太
100
AcDbLine
 10
269.3723177505017
 20
80.27259001670245
 30
0.0
 11
230.3723177505016
 21
80.27259001670245
 31
0.0
  0
LINE
  5
7640
330
1F
100
AcDbEntity
  8
実線  太
100
AcDbLine
 10
269.3723177505017
 20
81.21009001670257
 30
0.0
 11
230.3723177505017
 21
81.21009001670257
 31
0.0
  0
LINE
  5
7641
330
1F
100
AcDbEntity
  8
実線  太
100
AcDbLine
 10
269.3723177505017
 20
79.33509001670256
 30
0.0
 11
230.3723177505016
 21
79.33509001670256
 31
0.0
  0
LINE
  5
7642
330
1F
100
AcDbEntity
  8
実線  太
 48
3.0
100
AcDbLine
 10
154.6077877667359
 20
157.3520674631188
 30
0.0
 11
149.5077877667358
 21
157.3520674631188
 31
0.0
  0
LINE
  5
7643
330
1F
100
AcDbEntity
  8
実線  太
 48
3.0
100
AcDbLine
 10
152.7077877667358
 20
147.2520674631189
 30
0.0
 11
153.6077877667359
 21
147.2520674631189
 31
0.0
  0
LINE
  5
7644
330
1F
100
AcDbEntity
  8
実線  太
 48
3.0
100
AcDbLine
 10
152.7077877667358
 20
151.2520674631189
 30
0.0
 11
153.6077877667359
 21
151.2520674631189
 31
0.0
  0
ARC
  5
7645
330
1F
100
AcDbEntity
  8
実線  太
100
AcDbCircle
 10
142.8077877667351
 20
149.2520674631189
 30
0.0
 40
10.10000000000067
100
AcDbArc
 50
348.5788137250024
 51
11.42118627499763
  0
ARC
  5
7646
330
1F
100
AcDbEntity
  8
実線  太
 48
3.0
100
AcDbCircle
 10
153.6077877667359
 20
152.2520674631189
 30
0.0
 40
1.0
100
AcDbArc
 50
270.0
 51
0.0
  0
ARC
  5
7647
330
1F
100
AcDbEntity
  8
実線  太
 48
3.0
100
AcDbCircle
 10
153.6077877667359
 20
146.2520674631189
 30
0.0
 40
1.0
100
AcDbArc
 50
0.0
 51
90.0
  0
LINE
  5
7648
330
1F
100
AcDbEntity
  8
実線  太
 48
3.0
100
AcDbLine
 10
154.6077877667359
 20
157.3520674631188
 30
0.0
 11
154.6077877667359
 21
152.2520674631189
 31
0.0
  0
LINE
  5
7649
330
1F
100
AcDbEntity
  8
実線  太
100
AcDbLine
 10
150.0077877667358
 20
142.1520674631189
 30
0.0
 11
150.0077877667358
 21
143.5520674631189
 31
0.0
  0
ARC
  5
764A
330
1F
100
AcDbEntity
  8
実線  太
100
AcDbCircle
 10
151.0077877667358
 20
142.1520674631189
 30
0.0
 40
1.0
100
AcDbArc
 50
179.9999999999967
 51
270.0
  0
LINE
  5
764B
330
1F
100
AcDbEntity
  8
実線  太
 48
3.0
100
AcDbLine
 10
154.6077877667359
 20
141.1520674631189
 30
0.0
 11
151.0077877667358
 21
141.1520674631189
 31
0.0
  0
LINE
  5
764C
330
1F
100
AcDbEntity
  8
実線  太
 48
3.0
100
AcDbLine
 10
154.6077877667359
 20
146.2520674631189
 30
0.0
 11
154.6077877667359
 21
141.1520674631189
 31
0.0
  0
LINE
  5
764D
330
1F
100
AcDbEntity
  8
実線  太
100
AcDbLine
 10
156.507787766736
 20
159.2520674631188
 30
0.0
 11
156.507787766736
 21
139.2520674631189
 31
0.0
  0
DIMENSION
  5
764E
330
1F
100
AcDbEntity
  8
寸法線
100
AcDbDimension
  2
*D3
 10
176.507787766736
 20
139.2520674631189
 30
0.0
 11
174.357787766736
 21
149.2520674631189
 31
0.0
 70
    32
 71
     5
 42
19.99999999999988
  3
ISO-25
100
AcDbAlignedDimension
 13
156.507787766736
 23
159.2520674631188
 33
0.0
 14
156.507787766736
 24
139.2520674631189
 34
0.0
 50
90.0
100
AcDbRotatedDimension
  0
LINE
  5
764F
330
1F
100
AcDbEntity
  8
実線  太
 48
3.0
100
AcDbLine
 10
148.5077877667358
 20
155.4520674631189
 30
0.0
 11
148.5077877667358
 21
156.3520674631188
 31
0.0
  0
LINE
  5
7650
330
1F
100
AcDbEntity
  8
実線  太
 48
3.0
100
AcDbLine
 10
144.5077877667358
 20
155.4520674631189
 30
0.0
 11
144.5077877667358
 21
156.3520674631189
 31
0.0
  0
ARC
  5
7651
330
1F
100
AcDbEntity
  8
実線  太
 48
3.0
100
AcDbCircle
 10
143.5077877667358
 20
156.3520674631189
 30
0.0
 40
1.0
100
AcDbArc
 50
0.0
 51
90.0
  0
ARC
  5
7652
330
1F
100
AcDbEntity
  8
実線  太
100
AcDbCircle
 10
146.5077877667358
 20
145.5520674631181
 30
0.0
 40
10.10000000000067
100
AcDbArc
 50
78.57881372500091
 51
101.4211862749991
  0
LINE
  5
7653
330
1F
100
AcDbEntity
  8
通り芯
 48
0.4
100
AcDbLine
 10
146.507787766736
 20
151.2520674631189
 30
0.0
 11
146.507787766736
 21
147.2520674631189
 31
0.0
  0
LINE
  5
7654
330
1F
100
AcDbEntity
  8
通り芯
 48
0.4
100
AcDbLine
 10
148.507787766736
 20
149.2520674631189
 30
0.0
 11
144.507787766736
 21
149.2520674631189
 31
0.0
  0
ARC
  5
7655
330
1F
100
AcDbEntity
  8
実線  太
100
AcDbCircle
 10
150.2077877667367
 20
149.2520674631189
 30
0.0
 40
10.10000000000067
100
AcDbArc
 50
168.5788137250016
 51
191.4211862749972
  0
LINE
  5
7656
330
1F
100
AcDbEntity
  8
実線  太
 48
3.0
100
AcDbLine
 10
140.307787766736
 20
151.2520674631189
 30
0.0
 11
139.4077877667359
 21
151.2520674631189
 31
0.0
  0
LINE
  5
7657
330
1F
100
AcDbEntity
  8
実線  太
 48
3.0
100
AcDbLine
 10
140.307787766736
 20
147.2520674631189
 30
0.0
 11
139.4077877667359
 21
147.2520674631189
 31
0.0
  0
ARC
  5
7658
330
1F
100
AcDbEntity
  8
実線  太
 48
3.0
100
AcDbCircle
 10
139.4077877667359
 20
152.2520674631189
 30
0.0
 40
1.0
100
AcDbArc
 50
180.0
 51
270.0
  0
ARC
  5
7659
330
1F
100
AcDbEntity
  8
実線  太
 48
3.0
100
AcDbCircle
 10
139.4077877667359
 20
146.2520674631189
 30
0.0
 40
1.0
100
AcDbArc
 50
90.0
 51
180.0
  0
LINE
  5
765A
330
1F
100
AcDbEntity
  8
実線  太
 48
3.0
100
AcDbLine
 10
138.4077877667359
 20
157.3520674631188
 30
0.0
 11
138.4077877667359
 21
152.2520674631189
 31
0.0
  0
LINE
  5
765B
330
1F
100
AcDbEntity
  8
実線  太
 48
3.0
100
AcDbLine
 10
143.5077877667358
 20
157.3520674631189
 30
0.0
 11
138.4077877667359
 21
157.3520674631188
 31
0.0
  0
LINE
  5
765C
330
1F
100
AcDbEntity
  8
実線  太
100
AcDbLine
 10
143.0077877667358
 20
142.1520674631189
 30
0.0
 11
143.0077877667358
 21
143.5520674631189
 31
0.0
  0
ARC
  5
765D
330
1F
100
AcDbEntity
  8
実線  太
100
AcDbCircle
 10
142.0077877667358
 20
142.1520674631189
 30
0.0
 40
1.0
100
AcDbArc
 50
270.0
 51
0.0
  0
LINE
  5
765E
330
1F
100
AcDbEntity
  8
破線
 48
0.1
100
AcDbLine
 10
144.507787766736
 20
143.0745703728451
 30
0.0
 11
144.507787766736
 21
139.2520674631189
 31
0.0
  0
LINE
  5
765F
330
1F
100
AcDbEntity
  8
破線
 48
0.1
100
AcDbLine
 10
148.507787766736
 20
143.0745703728451
 30
0.0
 11
148.507787766736
 21
139.2520674631189
 31
0.0
  0
LINE
  5
7660
330
1F
100
AcDbEntity
  8
実線  太
 48
3.0
100
AcDbLine
 10
142.0077877667358
 20
141.1520674631189
 30
0.0
 11
138.4077877667359
 21
141.1520674631189
 31
0.0
  0
LINE
  5
7661
330
1F
100
AcDbEntity
  8
実線  太
 48
3.0
100
AcDbLine
 10
138.4077877667359
 20
146.2520674631189
 30
0.0
 11
138.4077877667359
 21
141.1520674631189
 31
0.0
  0
LINE
  5
7662
330
1F
100
AcDbEntity
  8
実線  太
100
AcDbLine
 10
136.5077877667359
 20
159.2520674631189
 30
0.0
 11
136.5077877667359
 21
139.2520674631189
 31
0.0
  0
LINE
  5
7663
330
1F
100
AcDbEntity
  8
通り芯
 48
0.4
100
AcDbLine
 10
102.8931651912146
 20
151.2520674631189
 30
0.0
 11
102.8931651912146
 21
147.2520674631189
 31
0.0
  0
LINE
  5
7664
330
1F
100
AcDbEntity
  8
通り芯
 48
0.4
100
AcDbLine
 10
104.8931651912146
 20
149.2520674631189
 30
0.0
 11
100.8931651912146
 21
149.2520674631189
 31
0.0
  0
LINE
  5
7665
330
1F
100
AcDbEntity
  8
破線
 48
0.1
100
AcDbLine
 10
96.94316519121475
 20
143.2181297852767
 30
0.0
 11
96.94316519121475
 21
139.2520674631189
 31
0.0
  0
LINE
  5
7666
330
1F
100
AcDbEntity
  8
破線
 48
0.1
100
AcDbLine
 10
92.94316519121474
 20
142.9750636297287
 30
0.0
 11
92.94316519121474
 21
139.2520674631189
 31
0.0
  0
CIRCLE
  5
7667
330
1F
100
AcDbEntity
  8
実線  太
100
AcDbCircle
 10
102.9431651912147
 20
149.2520674631189
 30
0.0
 40
8.099999999999999
  0
ARC
  5
7668
330
1F
100
AcDbEntity
  8
実線  太
100
AcDbCircle
 10
102.9431651912147
 20
149.2520674631189
 30
0.0
 40
10.0
100
AcDbArc
 50
270.0
 51
90.0
  0
LINE
  5
7669
330
1F
100
AcDbEntity
  8
実線  太
100
AcDbLine
 10
136.5077877667359
 20
139.2520674631189
 30
0.0
 11
156.507787766736
 21
139.2520674631189
 31
0.0
  0
LINE
  5
766A
330
1F
100
AcDbEntity
  8
実線  太
100
AcDbLine
 10
136.5077877667359
 20
159.2520674631188
 30
0.0
 11
156.507787766736
 21
159.2520674631188
 31
0.0
  0
DIMENSION
  5
766B
330
1F
100
AcDbEntity
  8
寸法線
100
AcDbDimension
  2
*D4
 10
156.507787766736
 20
179.2520674631189
 30
0.0
 11
146.507787766736
 21
181.4020674631189
 31
0.0
 70
    32
 71
     5
 42
20.00000000000011
  3
ISO-25
100
AcDbAlignedDimension
 13
136.5077877667359
 23
159.2520674631189
 33
0.0
 14
156.507787766736
 24
159.2520674631188
 34
0.0
100
AcDbRotatedDimension
  0
ARC
  5
766C
330
1F
100
AcDbEntity
  8
実線  太
 48
3.0
100
AcDbCircle
 10
149.5077877667358
 20
156.3520674631188
 30
0.0
 40
1.0
100
AcDbArc
 50
90.0
 51
180.0
  0
ARC
  5
766D
330
1F
100
AcDbEntity
  8
実線  太
100
AcDbCircle
 10
146.5077877667358
 20
151.9521150154303
 30
0.0
 40
9.100043894459677
100
AcDbArc
 50
247.3802502055368
 51
292.6197497944632
  0
MTEXT
  5
766E
330
1F
100
AcDbEntity
  8
図面枠
 62
     0
100
AcDbMText
 10
17.73000000000019
 20
183.8966666666666
 30
0.0
 40
3.6
 41
0.0
 71
     4
 72
     1
  1
ﾎﾙﾀﾞｰ･･･1
 73
     1
 44
1.0
1001
ACAD
1000
MTEXTBEGIN
1070
    73
1070
     1
1070
    44
1040
1.0
1070
    74
1070
     0
1000
MTEXTEND
  0
LINE
  5
766F
330
1F
100
AcDbEntity
  8
破線
 48
0.1
100
AcDbLine
 10
79.94316519121475
 20
142.1850986241978
 30
0.0
 11
79.94316519121475
 21
139.2520674631189
 31
0.0
  0
LINE
  5
7670
330
1F
100
AcDbEntity
  8
破線
 48
0.1
100
AcDbLine
 10
75.94316519121474
 20
141.9420324686498
 30
0.0
 11
75.94316519121474
 21
139.2520674631189
 31
0.0
  0
LINE
  5
7671
330
1F
100
AcDbEntity
  8
実線  太
100
AcDbLine
 10
62.94316519121474
 20
139.7520674631189
 30
0.0
 11
63.86684405715488
 21
139.2520674631189
 31
0.0
  0
LINE
  5
7672
330
1F
100
AcDbEntity
  8
実線  太
100
AcDbLine
 10
62.94316519121474
 20
159.2520674631189
 30
0.0
 11
62.94316519121474
 21
139.7520674631189
 31
0.0
  0
LINE
  5
7673
330
1F
100
AcDbEntity
  8
実線  太
100
AcDbLine
 10
62.94316519121474
 20
159.2520674631189
 30
0.0
 11
102.9431651912147
 21
159.2520674631189
 31
0.0
  0
LINE
  5
7674
330
1F
100
AcDbEntity
  8
実線  太
100
AcDbLine
 10
63.86684405715488
 20
139.2520674631189
 30
0.0
 11
102.9431651912147
 21
139.2520674631189
 31
0.0
  0
DIMENSION
  5
7675
330
1F
100
AcDbEntity
  8
寸法線
100
AcDbDimension
  2
*D5
 10
112.9431651912147
 20
179.2520674631189
 30
0.0
 11
87.94316519121474
 21
181.4020674631189
 31
0.0
 70
    32
 71
     5
 42
50.0
  3
ISO-25
100
AcDbAlignedDimension
 13
62.94316519121474
 23
159.2520674631189
 33
0.0
 14
112.9431651912147
 24
149.2520674631189
 34
0.0
100
AcDbRotatedDimension
  0
LINE
  5
7676
330
1F
100
AcDbEntity
  8
破線
 48
0.2
100
AcDbLine
 10
62.94316519121474
 20
157.3520674631189
 30
0.0
 11
102.9431651912147
 21
157.3520674631189
 31
0.0
  0
LINE
  5
7677
330
1F
100
AcDbEntity
  8
破線
 48
0.2
100
AcDbLine
 10
62.94316519121474
 20
141.1520674631189
 30
0.0
 11
97.50165804704961
 21
143.2520674631189
 31
0.0
  0
LINE
  5
7678
330
1F
100
AcDbEntity
  8
通り芯
 48
0.4
100
AcDbLine
 10
125.2226330922595
 20
65.39320324598477
 30
0.0
 11
143.2226330922596
 21
65.39320324598477
 31
0.0
  0
DIMENSION
  5
7679
330
1F
100
AcDbEntity
  8
寸法線
100
AcDbDimension
  2
*D6
 10
140.2226330922596
 20
91.39320324598477
 30
0.0
 11
134.2226330922595
 21
93.91962370053024
 31
0.0
 70
    32
  1
\U+03C612
 71
     5
 42
12.00000000000011
  3
ISO-25
100
AcDbAlignedDimension
 13
128.2226330922595
 23
65.39320324598477
 33
0.0
 14
140.2226330922596
 24
65.39320324598477
 34
0.0
100
AcDbRotatedDimension
  0
CIRCLE
  5
767A
330
1F
100
AcDbEntity
  8
破線
 48
0.2
100
AcDbCircle
 10
134.2226330922595
 20
65.39320324598477
 30
0.0
 40
5.000000000000028
  0
CIRCLE
  5
767B
330
1F
100
AcDbEntity
  8
実線  太
100
AcDbCircle
 10
134.2226330922595
 20
65.39320324598477
 30
0.0
 40
2.75
  0
CIRCLE
  5
767C
330
1F
100
AcDbEntity
  8
実線  太
100
AcDbCircle
 10
134.2226330922595
 20
65.39320324598477
 30
0.0
 40
6.0
  0
LINE
  5
767D
330
1F
100
AcDbEntity
  8
通り芯
 48
0.4
100
AcDbLine
 10
134.2226330922595
 20
56.39320324598478
 30
0.0
 11
134.2226330922595
 21
74.39320324598478
 31
0.0
  0
CIRCLE
  5
767E
330
1F
100
AcDbEntity
  8
実線  細
100
AcDbCircle
 10
134.2226330922595
 20
65.39320324598477
 30
0.0
 40
5.25
  0
LINE
  5
767F
330
1F
100
AcDbEntity
  8
破線
 48
0.1
100
AcDbLine
 10
91.94064480228467
 20
70.64320324598478
 30
0.0
 11
88.94064480228479
 21
68.14320324598478
 31
0.0
  0
LINE
  5
7680
330
1F
100
AcDbEntity
  8
実線  太
100
AcDbLine
 10
88.94064480228479
 20
71.39320324598478
 30
0.0
 11
91.94064480228467
 21
71.39320324598478
 31
0.0
  0
LINE
  5
7681
330
1F
100
AcDbEntity
  8
実線  太
100
AcDbLine
 10
79.94064480228468
 20
70.39320324598484
 30
0.0
 11
88.94064480228479
 21
70.39320324598484
 31
0.0
  0
DIMENSION
  5
7682
330
1F
100
AcDbEntity
  8
寸法線
100
AcDbDimension
  2
*D7
 10
91.94064480228467
 20
91.39320324598477
 30
0.0
 11
97.46507662046651
 21
93.54320324598479
 31
0.0
 70
    32
 71
     5
 42
2.999999999999886
  3
ISO-25
100
AcDbAlignedDimension
 13
88.94064480228479
 23
71.39320324598478
 33
0.0
 14
91.94064480228467
 24
71.39320324598478
 34
0.0
100
AcDbRotatedDimension
  0
DIMENSION
  5
7683
330
1F
100
AcDbEntity
  8
寸法線
100
AcDbDimension
  2
*D8
 10
88.94064480228479
 20
91.39320324598477
 30
0.0
 11
84.44064480228474
 21
93.54320324598479
 31
0.0
 70
    32
 71
     5
 42
9.000000000000113
  3
ISO-25
100
AcDbAlignedDimension
 13
79.94064480228468
 23
71.39320324598478
 33
0.0
 14
88.94064480228479
 24
71.39320324598478
 34
0.0
100
AcDbRotatedDimension
  0
LINE
  5
7684
330
1F
100
AcDbEntity
  8
実線  太
100
AcDbLine
 10
91.94064480228467
 20
59.39320324598478
 30
0.0
 11
88.94064480228479
 21
59.39320324598478
 31
0.0
  0
LINE
  5
7685
330
1F
100
AcDbEntity
  8
破線
 48
0.1
100
AcDbLine
 10
91.94064480228467
 20
60.14320324598478
 30
0.0
 11
88.94064480228479
 21
62.64320324598478
 31
0.0
  0
LINE
  5
7686
330
1F
100
AcDbEntity
  8
実線  太
100
AcDbLine
 10
88.94064480228479
 20
60.39320324598484
 30
0.0
 11
79.94064480228468
 21
60.39320324598484
 31
0.0
  0
DIMENSION
  5
7687
330
1F
100
AcDbEntity
  8
寸法線
100
AcDbDimension
  2
*D9
 10
111.9406448022846
 20
60.39320324598484
 30
0.0
 11
109.4142243477392
 21
65.39320324598485
 31
0.0
 70
    32
  1
\U+03C6<>
 71
     5
 42
9.999999999999992
  3
ISO-25
100
AcDbAlignedDimension
 13
88.94064480228479
 23
70.39320324598484
 33
0.0
 14
88.94064480228479
 24
60.39320324598484
 34
0.0
 50
90.0
100
AcDbRotatedDimension
  0
LINE
  5
7688
330
1F
100
AcDbEntity
  8
実線  太
100
AcDbLine
 10
79.94064480228468
 20
71.39320324598478
 30
0.0
 11
79.94064480228468
 21
59.39320324598478
 31
0.0
  0
LINE
  5
7689
330
1F
100
AcDbEntity
  8
実線  太
100
AcDbLine
 10
88.94064480228479
 20
71.39320324598478
 30
0.0
 11
88.94064480228479
 21
59.39320324598478
 31
0.0
  0
LINE
  5
768A
330
1F
100
AcDbEntity
  8
実線  太
100
AcDbLine
 10
91.94064480228467
 20
71.39320324598478
 30
0.0
 11
91.94064480228467
 21
59.39320324598478
 31
0.0
  0
DIMENSION
  5
768B
330
1F
100
AcDbEntity
  8
寸法線
100
AcDbDimension
  2
*D10
 10
136.9726330922596
 20
39.39320324598478
 30
0.0
 11
145.3166671831687
 21
41.91962370053023
 31
0.0
 70
    32
  1
\U+03C65.5
 71
     5
 42
5.500000000000113
  3
ISO-25
100
AcDbAlignedDimension
 13
131.4726330922595
 23
65.39320324598477
 33
0.0
 14
136.9726330922596
 24
65.39320324598477
 34
0.0
100
AcDbRotatedDimension
  0
MTEXT
  5
768C
330
1F
100
AcDbEntity
  8
図面枠
 62
     0
100
AcDbMText
 10
17.73000000000019
 20
103.2299999999996
 30
0.0
 40
3.6
 41
0.0
 71
     4
 72
     1
  1
ｻﾎﾟｰﾄﾌﾞﾗｹｯﾄ･･･1
 73
     1
 44
1.0
1001
ACAD
1000
MTEXTBEGIN
1070
    73
1070
     1
1070
    44
1040
1.0
1070
    74
1070
     0
1000
MTEXTEND
  0
LINE
  5
768D
330
1F
100
AcDbEntity
  8
実線  太
100
AcDbLine
 10
68.44064480228468
 20
71.39320324598478
 30
0.0
 11
68.44064480228468
 21
59.39320324598478
 31
0.0
  0
DIMENSION
  5
768E
330
1F
100
AcDbEntity
  8
寸法線
100
AcDbDimension
  2
*D11
 10
68.44064480228468
 20
39.39320324598478
 30
0.0
 11
80.19064480228468
 21
41.54320324598478
 31
0.0
 70
    32
 71
     5
 42
23.5
  3
ISO-25
100
AcDbAlignedDimension
 13
91.94064480228467
 23
59.39320324598478
 33
0.0
 14
68.44064480228468
 24
59.39320324598478
 34
0.0
100
AcDbRotatedDimension
  0
DIMENSION
  5
768F
330
1F
100
AcDbEntity
  8
寸法線
100
AcDbDimension
  2
*D12
 10
79.94064480228468
 20
91.39320324598477
 30
0.0
 11
74.19064480228468
 21
93.54320324598479
 31
0.0
 70
    32
 71
     5
 42
11.5
  3
ISO-25
100
AcDbAlignedDimension
 13
68.44064480228468
 23
71.39320324598478
 33
0.0
 14
79.94064480228468
 24
71.39320324598478
 34
0.0
100
AcDbRotatedDimension
  0
LINE
  5
7690
330
1F
100
AcDbEntity
  8
破線
 48
0.2
100
AcDbLine
 10
68.44064480228468
 20
62.64320324598478
 30
0.0
 11
88.94064480228479
 21
62.64320324598478
 31
0.0
  0
LINE
  5
7691
330
1F
100
AcDbEntity
  8
破線
 48
0.2
100
AcDbLine
 10
68.44064480228468
 20
68.14320324598478
 30
0.0
 11
88.94064480228479
 21
68.14320324598478
 31
0.0
  0
LINE
  5
7692
330
1F
100
AcDbEntity
  8
実線  太
100
AcDbLine
 10
79.94064480228468
 20
59.39320324598478
 30
0.0
 11
68.44064480228468
 21
59.39320324598478
 31
0.0
  0
LINE
  5
7693
330
1F
100
AcDbEntity
  8
通り芯
 48
0.4
100
AcDbLine
 10
67.94064480228468
 20
65.39320324598477
 30
0.0
 11
94.94064480228468
 21
65.39320324598477
 31
0.0
  0
LINE
  5
7694
330
1F
100
AcDbEntity
  8
実線  太
100
AcDbLine
 10
68.44064480228468
 20
71.39320324598478
 30
0.0
 11
79.94064480228468
 21
71.39320324598478
 31
0.0
  0
LINE
  5
7695
330
1F
100
AcDbEntity
  8
図面枠
  6
DASHEDX2
 48
10.0
100
AcDbLine
 10
292.7300000000001
 20
110.2299999999996
 30
0.0
 11
12.7300000000003
 21
110.2299999999996
 31
0.0
  0
DIMENSION
  5
7696
330
1F
100
AcDbEntity
  8
寸法線
100
AcDbDimension
  2
*D13
 10
111.0431651912147
 20
119.2520674631189
 30
0.0
 11
102.9431651912147
 21
121.7784879176644
 31
0.0
 70
    32
  1
\U+03C616.2
 71
     5
 42
16.20000000000004
  3
ISO-25
100
AcDbAlignedDimension
 13
94.84316519121472
 23
149.2520674631189
 33
0.0
 14
111.0431651912147
 24
149.2520674631189
 34
0.0
100
AcDbRotatedDimension
  0
DIMENSION
  5
7697
330
1F
100
AcDbEntity
  8
寸法線
100
AcDbDimension
  2
*D14
 10
112.9431651912147
 20
119.2520674631189
 30
0.0
 11
119.6394720093965
 21
121.4020674631189
 31
0.0
 70
    32
 71
     5
 42
1.899999999999977
  3
ISO-25
100
AcDbAlignedDimension
 13
111.0431651912147
 23
149.2520674631189
 33
0.0
 14
112.9431651912147
 24
149.2520674631189
 34
0.0
100
AcDbRotatedDimension
  0
LINE
  5
7698
330
1F
100
AcDbEntity
  8
図面枠
  6
DASHEDX2
 48
10.0
100
AcDbLine
 10
200.896666666666
 20
110.2299999999996
 30
0.0
 11
200.896666666666
 21
30.22999999999962
 31
0.0
  0
LINE
  5
7699
330
1F
100
AcDbEntity
  8
図面枠
  6
DASHEDX2
 48
10.0
100
AcDbLine
 10
200.896666666666
 20
70.22999999999962
 30
0.0
 11
292.7300000000001
 21
70.22999999999962
 31
0.0
  0
MTEXT
  5
769A
330
1F
100
AcDbEntity
  8
図面枠
 62
     0
100
AcDbMText
 10
205.8966666666659
 20
103.2299999999996
 30
0.0
 40
3.6
 41
0.0
 71
     4
 72
     1
  1
SW2.5ﾈｼﾞ用六角ﾚﾝﾁ･･･1
 73
     1
 44
1.0
1001
ACAD
1000
MTEXTBEGIN
1070
    73
1070
     1
1070
    44
1040
1.0
1070
    74
1070
     0
1000
MTEXTEND
  0
MTEXT
  5
769B
330
1F
100
AcDbEntity
  8
図面枠
 62
     0
100
AcDbMText
 10
205.896666666666
 20
63.22999999999962
 30
0.0
 40
3.6
 41
0.0
 71
     4
 72
     1
  1
SW2.5ﾈｼﾞ･･･2
 73
     1
 44
1.0
1001
ACAD
1000
MTEXTBEGIN
1070
    73
1070
     1
1070
    44
1040
1.0
1070
    74
1070
     0
1000
MTEXTEND
  0
VIEWPORT
  5
283B
102
{ACAD_XDICTIONARY
360
79DA
102
}
330
23
100
AcDbEntity
 67
     1
  8
0
100
AcDbViewport
 10
144.2296600341797
 20
100.75333070755
 30
0.0
 40
387.3721909720035
 41
222.1517806396485
 68
     1
 69
     1
 12
144.2296600341797
 22
100.75333070755
 13
0.0
 23
0.0
 14
10.0
 24
10.0
 15
10.0
 25
10.0
 16
0.0
 26
0.0
 36
1.0
 17
0.0
 27
0.0
 37
0.0
 42
50.0
 43
0.0
 44
0.0
 45
222.1517806396485
 50
0.0
 51
0.0
 72
 20000
 90
    32800
  1

281
     0
 71
     1
 74
     0
110
0.0
120
0.0
130
0.0
111
1.0
121
0.0
131
0.0
112
0.0
122
1.0
132
0.0
 79
     0
146
0.0
  0
VIEWPORT
  5
283D
102
{ACAD_XDICTIONARY
360
79DC
102
}
330
23
100
AcDbEntity
 67
     1
  8
実線  太
100
AcDbViewport
 10
144.2296578884125
 20
100.7533361911773
 30
0.0
 40
230.7674526214599
 41
161.2053379058837
 68
     2
 69
     2
 12
144.2273710473552
 22
92.63739313986013
 13
0.0
 23
0.0
 14
10.0
 24
10.0
 15
10.0
 25
10.0
 16
0.0
 26
0.0
 36
1.0
 17
0.0
 27
0.0
 37
0.0
 42
50.0
 43
0.0
 44
0.0
 45
237.262888478563
 50
0.0
 51
0.0
 72
 20000
 90
    32768
  1

281
     0
 71
     1
 74
     0
110
0.0
120
0.0
130
0.0
111
1.0
121
0.0
131
0.0
112
0.0
122
1.0
132
0.0
 79
     0
146
0.0
  0
ENDSEC
  0
SECTION
  2
OBJECTS
  0
DICTIONARY
  5
C
330
0
100
AcDbDictionary
281
     1
  3
ACAD_CIP_PREVIOUS_PRODUCT_INFO
350
63D8
  3
ACAD_COLOR
350
63BB
  3
ACAD_GROUP
350
D
  3
ACAD_LAYOUT
350
1A
  3
ACAD_MATERIAL
350
6389
  3
ACAD_MLEADERSTYLE
350
63D0
  3
ACAD_MLINESTYLE
350
17
  3
ACAD_PLOTSETTINGS
350
19
  3
ACAD_PLOTSTYLENAME
350
E
  3
ACAD_SCALELIST
350
63BE
  3
ACAD_TABLESTYLE
350
63BC
  3
ACAD_VISUALSTYLE
350
63A2
  3
AcadDim
350
6353
  3
ACDB_RECOMPOSE_DATA
350
79CF
  3
AcDbVariableDictionary
350
5AA
  3
DWGPROPS
350
79D0
  0
DICTIONARY
  5
6755
330
8
100
AcDbDictionary
280
     1
281
     1
  0
DICTIONARY
  5
322F
330
2
100
AcDbDictionary
280
     1
281
     1
  3
ACAD_LAYERFILTERS
360
40B9
  3
ACAD_LAYERSTATES
360
3230
  0
DICTIONARY
  5
6806
330
10
100
AcDbDictionary
280
     1
281
     1
  3
ADSK_XREC_LAYER_RECONCILED
360
6807
  0
DICTIONARY
  5
6808
330
35
100
AcDbDictionary
280
     1
281
     1
  3
ADSK_XREC_LAYER_RECONCILED
360
6809
  0
DICTIONARY
  5
680A
330
36
100
AcDbDictionary
280
     1
281
     1
  3
ADSK_XREC_LAYER_RECONCILED
360
680B
  0
DICTIONARY
  5
680C
330
37
100
AcDbDictionary
280
     1
281
     1
  3
ADSK_XREC_LAYER_RECONCILED
360
680D
  0
DICTIONARY
  5
680E
330
38
100
AcDbDictionary
280
     1
281
     1
  3
ADSK_XREC_LAYER_RECONCILED
360
680F
  0
DICTIONARY
  5
6810
330
261
100
AcDbDictionary
280
     1
281
     1
  3
ADSK_XREC_LAYER_RECONCILED
360
6811
  0
DICTIONARY
  5
6812
330
262
100
AcDbDictionary
280
     1
281
     1
  3
ADSK_XREC_LAYER_RECONCILED
360
6813
  0
DICTIONARY
  5
6814
330
263
100
AcDbDictionary
280
     1
281
     1
  3
ADSK_XREC_LAYER_RECONCILED
360
6815
  0
DICTIONARY
  5
6816
330
FA1
100
AcDbDictionary
280
     1
281
     1
  3
ADSK_XREC_LAYER_RECONCILED
360
6817
  0
DICTIONARY
  5
6818
330
243E
100
AcDbDictionary
280
     1
281
     1
  3
ADSK_XREC_LAYER_RECONCILED
360
6819
  0
DICTIONARY
  5
6430
330
1F
100
AcDbDictionary
280
     1
281
     1
  3
ACAD_SORTENTS
360
6431
  0
DICTIONARY
  5
79D6
330
2835
100
AcDbDictionary
280
     1
281
     1
  3
ACAD_XREC_ROUNDTRIP
360
79D7
  0
DICTIONARY
  5
79D8
330
2837
100
AcDbDictionary
280
     1
281
     1
  3
ACAD_XREC_ROUNDTRIP
360
79D9
  0
DICTIONARY
  5
79DA
330
283B
100
AcDbDictionary
280
     1
281
     1
  3
ACAD_XREC_ROUNDTRIP
360
79DB
  0
DICTIONARY
  5
79DC
330
283D
100
AcDbDictionary
280
     1
281
     1
  3
ACAD_XREC_ROUNDTRIP
360
79DD
  0
XRECORD
  5
63D8
102
{ACAD_REACTORS
330
C
102
}
330
C
100
AcDbXrecord
280
     1
300
ACDLT
300
2012
300
ACDLT_F_S
  0
DICTIONARY
  5
63BB
102
{ACAD_REACTORS
330
C
102
}
330
C
100
AcDbDictionary
281
     1
  0
DICTIONARY
  5
D
102
{ACAD_REACTORS
330
C
102
}
330
C
100
AcDbDictionary
281
     1
  0
DICTIONARY
  5
1A
102
{ACAD_REACTORS
330
C
102
}
330
C
100
AcDbDictionary
281
     1
  3
Model
350
22
  3
ﾚｲｱｳﾄ1
350
1E
  3
ﾚｲｱｳﾄ2
350
26
  0
DICTIONARY
  5
6389
102
{ACAD_REACTORS
330
C
102
}
330
C
100
AcDbDictionary
281
     1
  3
ByBlock
350
6392
  3
ByLayer
350
638A
  3
Global
350
639A
  0
DICTIONARY
  5
63D0
102
{ACAD_REACTORS
330
C
102
}
330
C
100
AcDbDictionary
281
     1
  3
Standard
350
63D1
  0
DICTIONARY
  5
17
102
{ACAD_REACTORS
330
C
102
}
330
C
100
AcDbDictionary
281
     1
  3
Standard
350
18
  0
DICTIONARY
  5
19
102
{ACAD_REACTORS
330
C
102
}
330
C
100
AcDbDictionary
281
     1
  0
ACDBDICTIONARYWDFLT
  5
E
102
{ACAD_REACTORS
330
C
102
}
330
C
100
AcDbDictionary
281
     1
  3
Normal
350
F
100
AcDbDictionaryWithDefault
340
F
  0
DICTIONARY
  5
63BE
102
{ACAD_REACTORS
330
C
102
}
330
C
100
AcDbDictionary
281
     1
  3
A0
350
63BF
  3
A1
350
63C0
  3
A2
350
63C1
  3
A3
350
63C2
  3
A4
350
63C3
  3
A5
350
63C4
  3
A6
350
63C5
  3
A7
350
63C6
  3
A8
350
63C7
  3
A9
350
63C8
  3
B0
350
63C9
  3
B1
350
63CA
  3
B2
350
63CB
  3
B3
350
63CC
  3
B4
350
63CD
  3
B5
350
63CE
  3
B6
350
63CF
  0
DICTIONARY
  5
63BC
102
{ACAD_REACTORS
330
C
102
}
330
C
100
AcDbDictionary
281
     1
  3
Standard
350
63BD
  0
DICTIONARY
  5
63A2
102
{ACAD_REACTORS
330
C
102
}
330
C
100
AcDbDictionary
281
     1
  3
2dWireframe
350
63A8
  3
Basic
350
63A7
  3
Brighten
350
63AE
  3
ColorChange
350
63B2
  3
Conceptual
350
63AB
  3
Dim
350
63AD
  3
EdgeColorOff
350
63BA
  3
Facepattern
350
63B1
  3
Flat
350
63A3
  3
FlatWithEdges
350
63A4
  3
Gouraud
350
63A5
  3
GouraudWithEdges
350
63A6
  3
Hidden
350
63AA
  3
JitterOff
350
63B8
  3
Linepattern
350
63B0
  3
OverhangOff
350
63B9
  3
Realistic
350
63AC
  3
Shaded
350
63B7
  3
Shaded with edges
350
63B6
  3
Shades of Gray
350
63B3
  3
Sketchy
350
63B4
  3
Thicken
350
63AF
  3
Wireframe
350
63A9
  3
X-Ray
350
63B5
  0
XRECORD
  5
6353
102
{ACAD_REACTORS
330
C
102
}
330
C
100
AcDbXrecord
280
     1
 90
   990106
  3

 60
     0
 61
     0
 62
     1
 63
     3
 64
     0
 65
     0
 66
     0
 67
     3
 68
     1
 69
     0
 70
     0
 71
     0
 72
     0
 40
0.0
170
     0
340
0
  0
XRECORD
  5
79CF
102
{ACAD_REACTORS
330
C
102
}
330
C
100
AcDbXrecord
280
     1
 90
        1
330
63BD
  0
DICTIONARY
  5
5AA
102
{ACAD_REACTORS
330
C
102
}
330
C
100
AcDbDictionary
281
     1
  3
CANNOSCALE
350
679E
  3
CMLEADERSTYLE
350
679D
  3
CTABLESTYLE
350
679C
  3
DIMASSOC
350
5AB
  3
INDEXCTL
350
67A0
  3
LAYEREVAL
350
79A7
  3
LAYERNOTIFY
350
79A8
  3
LIGHTINGUNITS
350
79A6
  3
MSLTSCALE
350
79A5
  3
SORTENTS
350
679F
  3
XCLIPFRAME
350
79CB
  0
XRECORD
  5
79D0
102
{ACAD_REACTORS
330
C
102
}
330
C
100
AcDbXrecord
280
     1
  1
DWGPROPS COOKIE
  2

  3

  4

  6

  7

  8
SaitoK
  9

300
=
301
=
302
=
303
=
304
=
305
=
306
=
307
=
308
=
309
=
 40
0.878516875
 41
2452626.479274549
 42
2456820.682636713
  1

 90
        0
  0
DICTIONARY
  5
40B9
102
{ACAD_REACTORS
330
322F
102
}
330
322F
100
AcDbDictionary
280
     1
281
     1
  0
DICTIONARY
  5
3230
102
{ACAD_REACTORS
330
322F
102
}
330
322F
100
AcDbDictionary
281
     1
  0
XRECORD
  5
6807
102
{ACAD_REACTORS
330
6806
102
}
330
6806
100
AcDbXrecord
280
     1
290
     1
  0
XRECORD
  5
6809
102
{ACAD_REACTORS
330
6808
102
}
330
6808
100
AcDbXrecord
280
     1
290
     1
  0
XRECORD
  5
680B
102
{ACAD_REACTORS
330
680A
102
}
330
680A
100
AcDbXrecord
280
     1
290
     1
  0
XRECORD
  5
680D
102
{ACAD_REACTORS
330
680C
102
}
330
680C
100
AcDbXrecord
280
     1
290
     1
  0
XRECORD
  5
680F
102
{ACAD_REACTORS
330
680E
102
}
330
680E
100
AcDbXrecord
280
     1
290
     1
  0
XRECORD
  5
6811
102
{ACAD_REACTORS
330
6810
102
}
330
6810
100
AcDbXrecord
280
     1
290
     1
  0
XRECORD
  5
6813
102
{ACAD_REACTORS
330
6812
102
}
330
6812
100
AcDbXrecord
280
     1
290
     1
  0
XRECORD
  5
6815
102
{ACAD_REACTORS
330
6814
102
}
330
6814
100
AcDbXrecord
280
     1
290
     1
  0
XRECORD
  5
6817
102
{ACAD_REACTORS
330
6816
102
}
330
6816
100
AcDbXrecord
280
     1
290
     1
  0
XRECORD
  5
6819
102
{ACAD_REACTORS
330
6818
102
}
330
6818
100
AcDbXrecord
280
     1
290
     1
  0
SORTENTSTABLE
  5
6431
102
{ACAD_REACTORS
330
6430
102
}
330
6430
100
AcDbSortentsTable
330
1F
331
5AD1
  5
5AD1
331
5ACC
  5
5ACC
  0
XRECORD
  5
79D7
102
{ACAD_REACTORS
330
79D6
102
}
330
79D6
100
AcDbXrecord
280
     1
102
SHADEPLOT
 70
     0
  0
XRECORD
  5
79D9
102
{ACAD_REACTORS
330
79D8
102
}
330
79D8
100
AcDbXrecord
280
     1
102
SHADEPLOT
 70
     0
  0
XRECORD
  5
79DB
102
{ACAD_REACTORS
330
79DA
102
}
330
79DA
100
AcDbXrecord
280
     1
102
SHADEPLOT
 70
     0
  0
XRECORD
  5
79DD
102
{ACAD_REACTORS
330
79DC
102
}
330
79DC
100
AcDbXrecord
280
     1
102
SHADEPLOT
 70
     0
  0
LAYOUT
  5
22
102
{ACAD_XDICTIONARY
360
79A1
102
}
102
{ACAD_REACTORS
330
1A
102
}
330
1A
100
AcDbPlotSettings
  1

  2
\\HJA-ISS\HP LaserJet 8150 PCL 6
  4
A4
  6

 40
4.233333110809326
 41
4.233341693878173
 42
4.233322143554687
 43
4.23333740234375
 44
209.9733276367187
 45
296.9259948730469
 46
0.0
 47
0.0
 48
0.0
 49
0.0
140
288.4599999999998
141
201.5099999999999
142
1.0
143
1.000016513684662
 70
 11952
 72
     1
 73
     1
 74
     4
  7

 75
     0
147
0.9999834865880345
148
0.0
149
0.0
100
AcDbLayout
  1
Model
 70
     1
 71
     0
 10
0.0
 20
0.0
 11
12.0
 21
9.0
 12
0.0
 22
0.0
 32
0.0
 14
0.0
 24
0.0
 34
0.0
 15
0.0
 25
0.0
 35
0.0
146
0.0
 13
0.0
 23
0.0
 33
0.0
 16
1.0
 26
0.0
 36
0.0
 17
0.0
 27
1.0
 37
0.0
 76
     0
330
1F
331
6387
  0
LAYOUT
  5
1E
102
{ACAD_XDICTIONARY
360
79D1
102
}
102
{ACAD_REACTORS
330
1A
102
}
330
1A
100
AcDbPlotSettings
  1

  2
\\HJA-ISS\HP LaserJet 8150 PCL 6
  4
A4
  6

 40
4.233333110809326
 41
4.233341693878173
 42
4.233322143554687
 43
4.23333740234375
 44
209.9733276367187
 45
296.9259948730469
 46
0.0
 47
0.0
 48
49.94588226953315
 49
38.8311605353754
140
240.1884225297883
141
167.9243128548342
142
1.0
143
0.6595125546489263
 70
   688
 72
     1
 73
     1
 74
     4
  7

 75
     0
147
1.516271362767799
148
-49.94588226953315
149
-38.8311605353754
100
AcDbLayout
  1
ﾚｲｱｳﾄ1
 70
     1
 71
     1
 10
47.15394310462258
 20
36.03922420078566
 11
242.9803645250197
 21
174.519269918614
 12
0.0
 22
0.0
 32
0.0
 14
28.82629495675951
 24
20.13505625693949
 34
-0.0015258207003583
 15
259.6353157326059
 25
181.3786474074919
 35
0.0000000349246037
146
0.0
 13
0.0
 23
0.0
 33
0.0
 16
1.0
 26
0.0
 36
0.0
 17
0.0
 27
1.0
 37
0.0
 76
     0
330
1B
331
2835
  0
LAYOUT
  5
26
102
{ACAD_XDICTIONARY
360
79D4
102
}
102
{ACAD_REACTORS
330
1A
102
}
330
1A
100
AcDbPlotSettings
  1

  2
\\HJA-ISS\HP LaserJet 8150 PCL 6
  4
A4
  6

 40
4.233333110809326
 41
4.233341693878173
 42
4.233322143554687
 43
4.23333740234375
 44
209.9733276367187
 45
296.9259948730469
 46
0.0
 47
0.0
 48
0.0
 49
0.0
140
0.0
141
0.0
142
1.0
143
1.0
 70
   688
 72
     1
 73
     1
 74
     5
  7

 75
    16
147
1.0
148
0.0
149
0.0
100
AcDbLayout
  1
ﾚｲｱｳﾄ2
 70
     1
 71
     2
 10
-4.23333740234375
 20
-4.233333110809326
 11
292.6926574707031
 21
205.7399945259094
 12
0.0
 22
0.0
 32
0.0
 14
28.84593157768251
 24
20.15066723823549
 34
0.0
 15
259.6133841991425
 25
181.3560051441192
 35
0.0
146
0.0
 13
0.0
 23
0.0
 33
0.0
 16
1.0
 26
0.0
 36
0.0
 17
0.0
 27
1.0
 37
0.0
 76
     0
330
23
331
283B
  0
MATERIAL
  5
6392
102
{ACAD_XDICTIONARY
360
6393
102
}
102
{ACAD_REACTORS
330
6389
102
}
330
6389
100
AcDbMaterial
  1
ByBlock
 72
     0
 43
0.0008202099737533
 43
0.0
 43
0.0
 43
0.0
 43
0.0
 43
0.0008202099737533
 43
0.0
 43
0.0
 43
0.0
 43
0.0
 43
1.0
 43
0.0
 43
0.0
 43
0.0
 43
0.0
 43
1.0
 77
     0
 47
0.0008202099737533
 47
0.0
 47
0.0
 47
0.0
 47
0.0
 47
0.0008202099737533
 47
0.0
 47
0.0
 47
0.0
 47
0.0
 47
1.0
 47
0.0
 47
0.0
 47
0.0
 47
0.0
 47
1.0
171
     0
 49
0.0008202099737533
 49
0.0
 49
0.0
 49
0.0
 49
0.0
 49
0.0008202099737533
 49
0.0
 49
0.0
 49
0.0
 49
0.0
 49
1.0
 49
0.0
 49
0.0
 49
0.0
 49
0.0
 49
1.0
175
     0
142
0.0008202099737533
142
0.0
142
0.0
142
0.0
142
0.0
142
0.0008202099737533
142
0.0
142
0.0
142
0.0
142
0.0
142
1.0
142
0.0
142
0.0
142
0.0
142
0.0
142
1.0
179
     0
144
0.0008202099737533
144
0.0
144
0.0
144
0.0
144
0.0
144
0.0008202099737533
144
0.0
144
0.0
144
0.0
144
0.0
144
1.0
144
0.0
144
0.0
144
0.0
144
0.0
144
1.0
147
0.0008202099737533
147
0.0
147
0.0
147
0.0
147
0.0
147
0.0008202099737533
147
0.0
147
0.0
147
0.0
147
0.0
147
1.0
147
0.0
147
0.0
147
0.0
147
0.0
147
1.0
  0
MATERIAL
  5
638A
102
{ACAD_XDICTIONARY
360
638B
102
}
102
{ACAD_REACTORS
330
6389
102
}
330
6389
100
AcDbMaterial
  1
ByLayer
 72
     0
 43
0.0008202099737533
 43
0.0
 43
0.0
 43
0.0
 43
0.0
 43
0.0008202099737533
 43
0.0
 43
0.0
 43
0.0
 43
0.0
 43
1.0
 43
0.0
 43
0.0
 43
0.0
 43
0.0
 43
1.0
 77
     0
 47
0.0008202099737533
 47
0.0
 47
0.0
 47
0.0
 47
0.0
 47
0.0008202099737533
 47
0.0
 47
0.0
 47
0.0
 47
0.0
 47
1.0
 47
0.0
 47
0.0
 47
0.0
 47
0.0
 47
1.0
171
     0
 49
0.0008202099737533
 49
0.0
 49
0.0
 49
0.0
 49
0.0
 49
0.0008202099737533
 49
0.0
 49
0.0
 49
0.0
 49
0.0
 49
1.0
 49
0.0
 49
0.0
 49
0.0
 49
0.0
 49
1.0
175
     0
142
0.0008202099737533
142
0.0
142
0.0
142
0.0
142
0.0
142
0.0008202099737533
142
0.0
142
0.0
142
0.0
142
0.0
142
1.0
142
0.0
142
0.0
142
0.0
142
0.0
142
1.0
179
     0
144
0.0008202099737533
144
0.0
144
0.0
144
0.0
144
0.0
144
0.0008202099737533
144
0.0
144
0.0
144
0.0
144
0.0
144
1.0
144
0.0
144
0.0
144
0.0
144
0.0
144
1.0
147
0.0008202099737533
147
0.0
147
0.0
147
0.0
147
0.0
147
0.0008202099737533
147
0.0
147
0.0
147
0.0
147
0.0
147
1.0
147
0.0
147
0.0
147
0.0
147
0.0
147
1.0
  0
MATERIAL
  5
639A
102
{ACAD_XDICTIONARY
360
639B
102
}
102
{ACAD_REACTORS
330
6389
102
}
330
6389
100
AcDbMaterial
  1
Global
 72
     0
 43
0.0008202099737533
 43
0.0
 43
0.0
 43
0.0
 43
0.0
 43
0.0008202099737533
 43
0.0
 43
0.0
 43
0.0
 43
0.0
 43
1.0
 43
0.0
 43
0.0
 43
0.0
 43
0.0
 43
1.0
 77
     0
 47
0.0008202099737533
 47
0.0
 47
0.0
 47
0.0
 47
0.0
 47
0.0008202099737533
 47
0.0
 47
0.0
 47
0.0
 47
0.0
 47
1.0
 47
0.0
 47
0.0
 47
0.0
 47
0.0
 47
1.0
171
     0
 49
0.0008202099737533
 49
0.0
 49
0.0
 49
0.0
 49
0.0
 49
0.0008202099737533
 49
0.0
 49
0.0
 49
0.0
 49
0.0
 49
1.0
 49
0.0
 49
0.0
 49
0.0
 49
0.0
 49
1.0
175
     0
142
0.0008202099737533
142
0.0
142
0.0
142
0.0
142
0.0
142
0.0008202099737533
142
0.0
142
0.0
142
0.0
142
0.0
142
1.0
142
0.0
142
0.0
142
0.0
142
0.0
142
1.0
179
     0
144
0.0008202099737533
144
0.0
144
0.0
144
0.0
144
0.0
144
0.0008202099737533
144
0.0
144
0.0
144
0.0
144
0.0
144
1.0
144
0.0
144
0.0
144
0.0
144
0.0
144
1.0
147
0.0008202099737533
147
0.0
147
0.0
147
0.0
147
0.0
147
0.0008202099737533
147
0.0
147
0.0
147
0.0
147
0.0
147
1.0
147
0.0
147
0.0
147
0.0
147
0.0
147
1.0
  0
MLEADERSTYLE
  5
63D1
102
{ACAD_XDICTIONARY
360
79CD
102
}
102
{ACAD_REACTORS
330
63D0
102
}
330
63D0
100
AcDbMLeaderStyle
170
     2
171
     1
172
     0
 90
        2
 40
0.0
 41
0.0
173
     1
 91
-1056964608
340
14
 92
       -2
290
     1
 42
2.0
291
     1
 43
0.36
  3
Standard
 44
4.0
300

342
11
174
     1
178
     6
175
     1
176
     0
 93
-1056964608
 45
4.0
292
     0
297
     0
 46
4.0
 94
-1056964608
 47
1.0
 49
1.0
140
1.0
293
     1
141
0.0
294
     1
177
     0
142
1.0
295
     0
296
     0
143
0.125
1001
ACAD_MLEADERVER
1070
     2
  0
MLINESTYLE
  5
18
102
{ACAD_REACTORS
330
17
102
}
330
17
100
AcDbMlineStyle
  2
STANDARD
 70
     0
  3

 62
   256
 51
90.0
 52
90.0
 71
     2
 49
0.5
 62
   256
  6
BYLAYER
 49
-0.5
 62
   256
  6
BYLAYER
  0
ACDBPLACEHOLDER
  5
F
102
{ACAD_REACTORS
330
E
102
}
330
E
  0
SCALE
  5
63BF
102
{ACAD_REACTORS
330
63BE
102
}
330
63BE
100
AcDbScale
 70
     0
300
1:1
140
1.0
141
1.0
290
     1
  0
SCALE
  5
63C0
102
{ACAD_REACTORS
330
63BE
102
}
330
63BE
100
AcDbScale
 70
     0
300
1:2
140
1.0
141
2.0
290
     0
  0
SCALE
  5
63C1
102
{ACAD_REACTORS
330
63BE
102
}
330
63BE
100
AcDbScale
 70
     0
300
1:4
140
1.0
141
4.0
290
     0
  0
SCALE
  5
63C2
102
{ACAD_REACTORS
330
63BE
102
}
330
63BE
100
AcDbScale
 70
     0
300
1:5
140
1.0
141
5.0
290
     0
  0
SCALE
  5
63C3
102
{ACAD_REACTORS
330
63BE
102
}
330
63BE
100
AcDbScale
 70
     0
300
1:8
140
1.0
141
8.0
290
     0
  0
SCALE
  5
63C4
102
{ACAD_REACTORS
330
63BE
102
}
330
63BE
100
AcDbScale
 70
     0
300
1:10
140
1.0
141
10.0
290
     0
  0
SCALE
  5
63C5
102
{ACAD_REACTORS
330
63BE
102
}
330
63BE
100
AcDbScale
 70
     0
300
1:16
140
1.0
141
16.0
290
     0
  0
SCALE
  5
63C6
102
{ACAD_REACTORS
330
63BE
102
}
330
63BE
100
AcDbScale
 70
     0
300
1:20
140
1.0
141
20.0
290
     0
  0
SCALE
  5
63C7
102
{ACAD_REACTORS
330
63BE
102
}
330
63BE
100
AcDbScale
 70
     0
300
1:30
140
1.0
141
30.0
290
     0
  0
SCALE
  5
63C8
102
{ACAD_REACTORS
330
63BE
102
}
330
63BE
100
AcDbScale
 70
     0
300
1:40
140
1.0
141
40.0
290
     0
  0
SCALE
  5
63C9
102
{ACAD_REACTORS
330
63BE
102
}
330
63BE
100
AcDbScale
 70
     0
300
1:50
140
1.0
141
50.0
290
     0
  0
SCALE
  5
63CA
102
{ACAD_REACTORS
330
63BE
102
}
330
63BE
100
AcDbScale
 70
     0
300
1:100
140
1.0
141
100.0
290
     0
  0
SCALE
  5
63CB
102
{ACAD_REACTORS
330
63BE
102
}
330
63BE
100
AcDbScale
 70
     0
300
2:1
140
2.0
141
1.0
290
     0
  0
SCALE
  5
63CC
102
{ACAD_REACTORS
330
63BE
102
}
330
63BE
100
AcDbScale
 70
     0
300
4:1
140
4.0
141
1.0
290
     0
  0
SCALE
  5
63CD
102
{ACAD_REACTORS
330
63BE
102
}
330
63BE
100
AcDbScale
 70
     0
300
8:1
140
8.0
141
1.0
290
     0
  0
SCALE
  5
63CE
102
{ACAD_REACTORS
330
63BE
102
}
330
63BE
100
AcDbScale
 70
     0
300
10:1
140
10.0
141
1.0
290
     0
  0
SCALE
  5
63CF
102
{ACAD_REACTORS
330
63BE
102
}
330
63BE
100
AcDbScale
 70
     0
300
100:1
140
100.0
141
1.0
290
     0
  0
TABLESTYLE
  5
63BD
102
{ACAD_XDICTIONARY
360
674F
102
}
102
{ACAD_REACTORS
330
63BC
102
}
330
63BC
100
AcDbTableStyle
  3
Standard
 70
     0
 71
     0
 40
1.5
 41
1.5
280
     0
281
     0
  7
Standard
140
4.5
170
     2
 62
     0
 63
     7
283
     0
274
    -2
284
     1
 64
     0
275
    -2
285
     1
 65
     0
276
    -2
286
     1
 66
     0
277
    -2
287
     1
 67
     0
278
    -2
288
     1
 68
     0
279
    -2
289
     1
 69
     0
  7
Standard
140
6.0
170
     5
 62
     0
 63
     7
283
     0
274
    -2
284
     1
 64
     0
275
    -2
285
     1
 65
     0
276
    -2
286
     1
 66
     0
277
    -2
287
     1
 67
     0
278
    -2
288
     1
 68
     0
279
    -2
289
     1
 69
     0
  7
Standard
140
4.5
170
     5
 62
     0
 63
     7
283
     0
274
    -2
284
     1
 64
     0
275
    -2
285
     1
 65
     0
276
    -2
286
     1
 66
     0
277
    -2
287
     1
 67
     0
278
    -2
288
     1
 68
     0
279
    -2
289
     1
 69
     0
  0
VISUALSTYLE
  5
63A8
102
{ACAD_XDICTIONARY
360
79EB
102
}
102
{ACAD_REACTORS
330
63A2
102
}
330
63A2
100
AcDbVisualStyle
  2
2dWireframe
 70
     4
 71
     0
 72
     2
 73
     0
 90
        0
 40
-0.6
 41
-30.0
 62
     5
 63
     7
 74
     1
 91
        4
 64
     7
 65
   257
 75
     1
175
     1
 42
1.0
 92
        0
 66
   257
 43
1.0
 76
     1
 77
     6
 78
     2
 67
     7
 79
     5
170
     0
171
     0
290
     0
174
     0
 93
        1
 44
0.0
173
     0
291
     0
 45
0.0
1001
ACAD
1000
AcDbSavedByObjectVersion
1070
     0
  0
VISUALSTYLE
  5
63A7
102
{ACAD_XDICTIONARY
360
79E9
102
}
102
{ACAD_REACTORS
330
63A2
102
}
330
63A2
100
AcDbVisualStyle
  2
Basic
 70
     7
 71
     1
 72
     0
 73
     1
 90
        0
 40
-0.6
 41
-30.0
 62
     5
 63
     7
 74
     0
 91
        4
 64
     7
 65
   257
 75
     1
175
     1
 42
1.0
 92
        8
 66
     7
 43
1.0
 76
     1
 77
     6
 78
     2
 67
     7
 79
     5
170
     0
171
     0
290
     0
174
     0
 93
        1
 44
0.0
173
     0
291
     1
 45
0.0
1001
ACAD
1000
AcDbSavedByObjectVersion
1070
     0
  0
VISUALSTYLE
  5
63AE
102
{ACAD_XDICTIONARY
360
79F7
102
}
102
{ACAD_REACTORS
330
63A2
102
}
330
63A2
100
AcDbVisualStyle
  2
Brighten
 70
    12
 71
     2
 72
     2
 73
     0
 90
        0
 40
-0.6
 41
-30.0
 62
     5
 63
     7
 74
     1
 91
        4
 64
     7
 65
   257
 75
     1
175
     1
 42
1.0
 92
        8
 66
     7
 43
1.0
 76
     1
 77
     6
 78
     2
 67
     7
 79
     5
170
     0
171
     0
290
     0
174
     0
 93
        1
 44
50.0
173
     0
291
     1
 45
0.0
1001
ACAD
1000
AcDbSavedByObjectVersion
1070
     0
  0
VISUALSTYLE
  5
63B2
102
{ACAD_XDICTIONARY
360
79FF
102
}
102
{ACAD_REACTORS
330
63A2
102
}
330
63A2
100
AcDbVisualStyle
  2
ColorChange
 70
    16
 71
     2
 72
     2
 73
     3
 90
        0
 40
-0.6
 41
-30.0
 62
     5
 63
     8
 74
     1
 91
        4
 64
     7
 65
   257
 75
     1
175
     1
 42
1.0
 92
        8
 66
     8
 43
1.0
 76
     1
 77
     6
 78
     2
 67
     7
 79
     5
170
     0
171
     0
290
     0
174
     0
 93
        1
 44
0.0
173
     0
291
     1
 45
0.0
1001
ACAD
1000
AcDbSavedByObjectVersion
1070
     0
  0
VISUALSTYLE
  5
63AB
102
{ACAD_XDICTIONARY
360
79F1
102
}
102
{ACAD_REACTORS
330
63A2
102
}
330
63A2
100
AcDbVisualStyle
  2
Conceptual
 70
     9
 71
     3
 72
     2
 73
     0
 90
        0
 40
-0.6
 41
-30.0
 62
     5
 63
     7
 74
     2
 91
        2
 64
     7
 65
   257
 75
     1
175
     1
 42
179.0
 92
        8
 66
     7
 43
1.0
 76
     1
 77
     6
 78
     2
 67
     7
 79
     3
170
     0
171
     0
290
     0
174
     0
 93
        1
 44
0.0
173
     0
291
     0
 45
0.0
1001
ACAD
1000
AcDbSavedByObjectVersion
1070
     0
  0
VISUALSTYLE
  5
63AD
102
{ACAD_XDICTIONARY
360
79F5
102
}
102
{ACAD_REACTORS
330
63A2
102
}
330
63A2
100
AcDbVisualStyle
  2
Dim
 70
    11
 71
     2
 72
     2
 73
     0
 90
        0
 40
-0.6
 41
-30.0
 62
     5
 63
     7
 74
     1
 91
        4
 64
     7
 65
   257
 75
     1
175
     1
 42
1.0
 92
        8
 66
     7
 43
1.0
 76
     1
 77
     6
 78
     2
 67
     7
 79
     5
170
     0
171
     0
290
     0
174
     0
 93
        1
 44
-50.0
173
     0
291
     1
 45
0.0
1001
ACAD
1000
AcDbSavedByObjectVersion
1070
     0
  0
VISUALSTYLE
  5
63BA
102
{ACAD_XDICTIONARY
360
7A0F
102
}
102
{ACAD_REACTORS
330
63A2
102
}
330
63A2
100
AcDbVisualStyle
  2
EdgeColorOff
 70
    22
 71
     2
 72
     2
 73
     0
 90
        0
 40
-0.6
 41
-30.0
 62
     5
 63
     7
 74
     1
 91
        4
 64
     7
 65
   257
 75
     1
175
     1
 42
1.0
 92
        8
 66
     7
 43
1.0
 76
     1
 77
     6
 78
     2
 67
     7
 79
     5
170
     0
171
     0
290
     0
174
     0
 93
        1
 44
0.0
173
     0
291
     1
 45
0.0
1001
ACAD
1000
AcDbSavedByObjectVersion
1070
     0
  0
VISUALSTYLE
  5
63B1
102
{ACAD_XDICTIONARY
360
79FD
102
}
102
{ACAD_REACTORS
330
63A2
102
}
330
63A2
100
AcDbVisualStyle
  2
Facepattern
 70
    15
 71
     2
 72
     2
 73
     0
 90
        0
 40
-0.6
 41
-30.0
 62
     5
 63
     7
 74
     1
 91
        4
 64
     7
 65
   257
 75
     1
175
     1
 42
1.0
 92
        8
 66
     7
 43
1.0
 76
     1
 77
     6
 78
     2
 67
     7
 79
     5
170
     0
171
     0
290
     0
174
     0
 93
        1
 44
0.0
173
     0
291
     1
 45
0.0
1001
ACAD
1000
AcDbSavedByObjectVersion
1070
     0
  0
VISUALSTYLE
  5
63A3
102
{ACAD_XDICTIONARY
360
79E1
102
}
102
{ACAD_REACTORS
330
63A2
102
}
330
63A2
100
AcDbVisualStyle
  2
Flat
 70
     0
 71
     2
 72
     1
 73
     1
 90
        2
 40
-0.6
 41
30.0
 62
     5
 63
     7
 74
     0
 91
        0
 64
     7
 65
   257
 75
     1
175
     1
 42
1.0
 92
        8
 66
     7
 43
1.0
 76
     1
 77
     6
 78
     2
 67
     7
 79
     5
170
     0
171
     0
290
     0
174
     0
 93
       13
 44
0.0
173
     0
291
     1
 45
0.0
1001
ACAD
1000
AcDbSavedByObjectVersion
1070
     0
  0
VISUALSTYLE
  5
63A4
102
{ACAD_XDICTIONARY
360
79E3
102
}
102
{ACAD_REACTORS
330
63A2
102
}
330
63A2
100
AcDbVisualStyle
  2
FlatWithEdges
 70
     1
 71
     2
 72
     1
 73
     1
 90
        2
 40
-0.6
 41
30.0
 62
     5
 63
     7
 74
     1
 91
        0
 64
     7
 65
   257
 75
     1
175
     1
 42
1.0
 92
        0
 66
   257
 43
1.0
 76
     1
 77
     6
 78
     2
 67
     7
 79
     5
170
     0
171
     0
290
     0
174
     0
 93
       13
 44
0.0
173
     0
291
     1
 45
0.0
1001
ACAD
1000
AcDbSavedByObjectVersion
1070
     0
  0
VISUALSTYLE
  5
63A5
102
{ACAD_XDICTIONARY
360
79E5
102
}
102
{ACAD_REACTORS
330
63A2
102
}
330
63A2
100
AcDbVisualStyle
  2
Gouraud
 70
     2
 71
     2
 72
     2
 73
     1
 90
        2
 40
-0.6
 41
30.0
 62
     5
 63
     7
 74
     0
 91
        0
 64
     7
 65
   257
 75
     1
175
     1
 42
1.0
 92
        0
 66
     7
 43
1.0
 76
     1
 77
     6
 78
     2
 67
     7
 79
     5
170
     0
171
     0
290
     0
174
     0
 93
       13
 44
0.0
173
     0
291
     1
 45
0.0
1001
ACAD
1000
AcDbSavedByObjectVersion
1070
     0
  0
VISUALSTYLE
  5
63A6
102
{ACAD_XDICTIONARY
360
79E7
102
}
102
{ACAD_REACTORS
330
63A2
102
}
330
63A2
100
AcDbVisualStyle
  2
GouraudWithEdges
 70
     3
 71
     2
 72
     2
 73
     1
 90
        2
 40
-0.6
 41
30.0
 62
     5
 63
     7
 74
     1
 91
        0
 64
     7
 65
   257
 75
     1
175
     1
 42
1.0
 92
        0
 66
   257
 43
1.0
 76
     1
 77
     6
 78
     2
 67
     7
 79
     5
170
     0
171
     0
290
     0
174
     0
 93
       13
 44
0.0
173
     0
291
     1
 45
0.0
1001
ACAD
1000
AcDbSavedByObjectVersion
1070
     0
  0
VISUALSTYLE
  5
63AA
102
{ACAD_XDICTIONARY
360
79EF
102
}
102
{ACAD_REACTORS
330
63A2
102
}
330
63A2
100
AcDbVisualStyle
  2
Hidden
 70
     6
 71
     1
 72
     2
 73
     2
 90
        0
 40
-0.6
 41
-30.0
 62
     5
 63
     7
 74
     2
 91
        2
 64
     7
 65
   257
 75
     2
175
     1
 42
40.0
 92
        0
 66
   257
 43
1.0
 76
     1
 77
     6
 78
     2
 67
     7
 79
     3
170
     0
171
     0
290
     0
174
     0
 93
        1
 44
0.0
173
     0
291
     0
 45
0.0
1001
ACAD
1000
AcDbSavedByObjectVersion
1070
     0
  0
VISUALSTYLE
  5
63B8
102
{ACAD_XDICTIONARY
360
7A0B
102
}
102
{ACAD_REACTORS
330
63A2
102
}
330
63A2
100
AcDbVisualStyle
  2
JitterOff
 70
    20
 71
     2
 72
     2
 73
     0
 90
        0
 40
-0.6
 41
-30.0
 62
     5
 63
     7
 74
     1
 91
        4
 64
     7
 65
   257
 75
     1
175
     1
 42
1.0
 92
       10
 66
     7
 43
1.0
 76
     1
 77
     6
 78
     2
 67
     7
 79
     5
170
     0
171
     0
290
     0
174
     0
 93
        1
 44
0.0
173
     0
291
     1
 45
0.0
1001
ACAD
1000
AcDbSavedByObjectVersion
1070
     0
  0
VISUALSTYLE
  5
63B0
102
{ACAD_XDICTIONARY
360
79FB
102
}
102
{ACAD_REACTORS
330
63A2
102
}
330
63A2
100
AcDbVisualStyle
  2
Linepattern
 70
    14
 71
     2
 72
     2
 73
     0
 90
        0
 40
-0.6
 41
-30.0
 62
     5
 63
     7
 74
     1
 91
        4
 64
     7
 65
   257
 75
     7
175
     7
 42
1.0
 92
        8
 66
     7
 43
1.0
 76
     1
 77
     6
 78
     2
 67
     7
 79
     5
170
     0
171
     0
290
     0
174
     0
 93
        1
 44
0.0
173
     0
291
     1
 45
0.0
1001
ACAD
1000
AcDbSavedByObjectVersion
1070
     0
  0
VISUALSTYLE
  5
63B9
102
{ACAD_XDICTIONARY
360
7A0D
102
}
102
{ACAD_REACTORS
330
63A2
102
}
330
63A2
100
AcDbVisualStyle
  2
OverhangOff
 70
    21
 71
     2
 72
     2
 73
     0
 90
        0
 40
-0.6
 41
-30.0
 62
     5
 63
     7
 74
     1
 91
        4
 64
     7
 65
   257
 75
     1
175
     1
 42
1.0
 92
        9
 66
     7
 43
1.0
 76
     1
 77
     6
 78
     2
 67
     7
 79
     5
170
     0
171
     0
290
     0
174
     0
 93
        1
 44
0.0
173
     0
291
     1
 45
0.0
1001
ACAD
1000
AcDbSavedByObjectVersion
1070
     0
  0
VISUALSTYLE
  5
63AC
102
{ACAD_XDICTIONARY
360
79F3
102
}
102
{ACAD_REACTORS
330
63A2
102
}
330
63A2
100
AcDbVisualStyle
  2
Realistic
 70
     8
 71
     2
 72
     2
 73
     0
 90
        2
 40
-0.6
 41
30.0
 62
     5
 63
     7
 74
     0
 91
        0
 64
     7
 65
   257
 75
     1
175
     1
 42
1.0
 92
        8
 66
   257
 43
1.0
 76
     1
 77
     6
 78
     2
 67
     7
 79
     3
170
     0
171
     0
290
     0
174
     0
 93
       13
 44
0.0
173
     0
291
     0
 45
0.0
1001
ACAD
1000
AcDbSavedByObjectVersion
1070
     0
  0
VISUALSTYLE
  5
63B7
102
{ACAD_XDICTIONARY
360
7A09
102
}
102
{ACAD_REACTORS
330
63A2
102
}
330
63A2
100
AcDbVisualStyle
  2
Shaded
 70
    27
 71
     2
 72
     2
 73
     1
 90
        2
 40
-0.6
 41
30.0
 62
     5
 63
     7
 74
     0
 91
        4
 64
     7
 65
   257
 75
     1
175
     1
 42
1.0
 92
        8
 66
   257
 43
1.0
 76
     1
 77
     6
 78
     2
 67
     8
 79
     3
170
     0
171
     0
290
     0
174
     0
 93
        5
 44
0.0
173
     0
291
     0
 45
0.0
1001
ACAD
1000
AcDbSavedByObjectVersion
1070
     0
  0
VISUALSTYLE
  5
63B6
102
{ACAD_XDICTIONARY
360
7A07
102
}
102
{ACAD_REACTORS
330
63A2
102
}
330
63A2
100
AcDbVisualStyle
  2
Shaded with edges
 70
    26
 71
     2
 72
     2
 73
     1
 90
        2
 40
-0.6
 41
30.0
 62
     5
 63
     7
 74
     1
 91
       10
 64
     7
 65
   257
 75
     2
175
     1
 42
1.0
 92
        8
 66
   257
 43
1.0
 76
     1
 77
     6
 78
     2
 67
     7
 79
     3
170
     0
171
     0
290
     0
174
     0
 93
        5
 44
0.0
173
     0
291
     0
 45
0.0
1001
ACAD
1000
AcDbSavedByObjectVersion
1070
     0
  0
VISUALSTYLE
  5
63B3
102
{ACAD_XDICTIONARY
360
7A01
102
}
102
{ACAD_REACTORS
330
63A2
102
}
330
63A2
100
AcDbVisualStyle
  2
Shades of Gray
 70
    23
 71
     2
 72
     2
 73
     3
 90
        0
 40
-0.6
 41
-30.0
 62
     5
 63
     7
 74
     2
 91
        2
 64
     7
 65
     7
 75
     1
175
     1
 42
40.0
 92
        8
 66
     7
 43
1.0
 76
     1
 77
     6
 78
     2
 67
     7
 79
     3
170
     0
171
     0
290
     0
174
     0
 93
        1
 44
0.0
173
     0
291
     0
 45
0.0
1001
ACAD
1000
AcDbSavedByObjectVersion
1070
     0
  0
VISUALSTYLE
  5
63B4
102
{ACAD_XDICTIONARY
360
7A03
102
}
102
{ACAD_REACTORS
330
63A2
102
}
330
63A2
100
AcDbVisualStyle
  2
Sketchy
 70
    24
 71
     1
 72
     2
 73
     2
 90
        0
 40
-0.6
 41
-30.0
 62
     5
 63
     7
 74
     2
 91
        2
 64
     7
 65
     7
 75
     1
175
     1
 42
40.0
 92
       11
 66
     7
 43
1.0
 76
     1
 77
     6
 78
     2
 67
     7
 79
     6
170
     0
171
     0
290
     0
174
     0
 93
        1
 44
0.0
173
     0
291
     0
 45
0.0
1001
ACAD
1000
AcDbSavedByObjectVersion
1070
     0
  0
VISUALSTYLE
  5
63AF
102
{ACAD_XDICTIONARY
360
79F9
102
}
102
{ACAD_REACTORS
330
63A2
102
}
330
63A2
100
AcDbVisualStyle
  2
Thicken
 70
    13
 71
     2
 72
     2
 73
     0
 90
        0
 40
-0.6
 41
-30.0
 62
     5
 63
     7
 74
     1
 91
        4
 64
     7
 65
   257
 75
     1
175
     1
 42
1.0
 92
       12
 66
     7
 43
1.0
 76
     1
 77
     6
 78
     2
 67
     7
 79
     5
170
     0
171
     0
290
     0
174
     0
 93
        1
 44
0.0
173
     0
291
     1
 45
0.0
1001
ACAD
1000
AcDbSavedByObjectVersion
1070
     0
  0
VISUALSTYLE
  5
63A9
102
{ACAD_XDICTIONARY
360
79ED
102
}
102
{ACAD_REACTORS
330
63A2
102
}
330
63A2
100
AcDbVisualStyle
  2
Wireframe
 70
     5
 71
     0
 72
     2
 73
     0
 90
        0
 40
-0.6
 41
-30.0
 62
     5
 63
     7
 74
     1
 91
        4
 64
     7
 65
   257
 75
     1
175
     1
 42
1.0
 92
        0
 66
   257
 43
1.0
 76
     1
 77
     6
 78
     2
 67
     7
 79
     3
170
     0
171
     0
290
     0
174
     0
 93
        1
 44
0.0
173
     0
291
     0
 45
0.0
1001
ACAD
1000
AcDbSavedByObjectVersion
1070
     0
  0
VISUALSTYLE
  5
63B5
102
{ACAD_XDICTIONARY
360
7A05
102
}
102
{ACAD_REACTORS
330
63A2
102
}
330
63A2
100
AcDbVisualStyle
  2
X-Ray
 70
    25
 71
     2
 72
     2
 73
     1
 90
        1
 40
0.5
 41
-30.0
 62
     5
 63
     7
 74
     1
 91
        0
 64
     7
 65
   257
 75
     1
175
     1
 42
1.0
 92
        8
 66
     7
 43
1.0
 76
     1
 77
     6
 78
     2
 67
     7
 79
     3
170
     0
171
     0
290
     0
174
     0
 93
       13
 44
0.0
173
     0
291
     0
 45
0.0
1001
ACAD
1000
AcDbSavedByObjectVersion
1070
     0
  0
DICTIONARYVAR
  5
679E
102
{ACAD_REACTORS
330
5AA
102
}
330
5AA
100
DictionaryVariables
280
     0
  1
1:1
  0
DICTIONARYVAR
  5
679D
102
{ACAD_REACTORS
330
5AA
102
}
330
5AA
100
DictionaryVariables
280
     0
  1
STANDARD
  0
DICTIONARYVAR
  5
679C
102
{ACAD_REACTORS
330
5AA
102
}
330
5AA
100
DictionaryVariables
280
     0
  1
STANDARD
  0
DICTIONARYVAR
  5
5AB
102
{ACAD_REACTORS
330
5AA
102
}
330
5AA
100
DictionaryVariables
280
     0
  1
1
  0
DICTIONARYVAR
  5
67A0
102
{ACAD_REACTORS
330
5AA
102
}
330
5AA
100
DictionaryVariables
280
     0
  1
0
  0
DICTIONARYVAR
  5
79A7
102
{ACAD_REACTORS
330
5AA
102
}
330
5AA
100
DictionaryVariables
280
     0
  1
1
  0
DICTIONARYVAR
  5
79A8
102
{ACAD_REACTORS
330
5AA
102
}
330
5AA
100
DictionaryVariables
280
     0
  1
15
  0
DICTIONARYVAR
  5
79A6
102
{ACAD_REACTORS
330
5AA
102
}
330
5AA
100
DictionaryVariables
280
     0
  1
0
  0
DICTIONARYVAR
  5
79A5
102
{ACAD_REACTORS
330
5AA
102
}
330
5AA
100
DictionaryVariables
280
     0
  1
0
  0
DICTIONARYVAR
  5
679F
102
{ACAD_REACTORS
330
5AA
102
}
330
5AA
100
DictionaryVariables
280
     0
  1
127
  0
DICTIONARYVAR
  5
79CB
102
{ACAD_REACTORS
330
5AA
102
}
330
5AA
100
DictionaryVariables
280
     0
  1
2
  0
DICTIONARY
  5
79A1
330
22
100
AcDbDictionary
280
     1
281
     1
  3
ACAD_XREC_ROUNDTRIP
360
79D3
  3
ADSK_XREC_LAYOUTTHUMBNAIL
360
79A2
  0
DICTIONARY
  5
79D1
330
1E
100
AcDbDictionary
280
     1
281
     1
  3
ACAD_XREC_ROUNDTRIP
360
79D2
  0
DICTIONARY
  5
79D4
330
26
100
AcDbDictionary
280
     1
281
     1
  3
ACAD_XREC_ROUNDTRIP
360
79D5
  0
DICTIONARY
  5
6393
330
6392
100
AcDbDictionary
280
     1
281
     1
  3
ACAD_XREC_ROUNDTRIP
360
79DF
  3
BUMPTILE
360
6395
  3
DIFFUSETILE
360
6394
  3
OPACITYTILE
360
6398
  3
REFLECTIONTILE
360
6397
  3
REFRACTIONTILE
360
6399
  3
SPECULARTILE
360
6396
  0
DICTIONARY
  5
638B
330
638A
100
AcDbDictionary
280
     1
281
     1
  3
ACAD_XREC_ROUNDTRIP
360
79DE
  3
BUMPTILE
360
638D
  3
DIFFUSETILE
360
638C
  3
OPACITYTILE
360
6390
  3
REFLECTIONTILE
360
638F
  3
REFRACTIONTILE
360
6391
  3
SPECULARTILE
360
638E
  0
DICTIONARY
  5
639B
330
639A
100
AcDbDictionary
280
     1
281
     1
  3
ACAD_XREC_ROUNDTRIP
360
79E0
  3
BUMPTILE
360
639D
  3
DIFFUSETILE
360
639C
  3
OPACITYTILE
360
63A0
  3
REFLECTIONTILE
360
639F
  3
REFRACTIONTILE
360
63A1
  3
SPECULARTILE
360
639E
  0
DICTIONARY
  5
79CD
330
63D1
100
AcDbDictionary
280
     1
281
     1
  3
ACAD_XREC_ROUNDTRIP
360
79CE
  0
DICTIONARY
  5
674F
330
63BD
100
AcDbDictionary
280
     1
281
     1
  3
ACAD_ROUNDTRIP_2008_TABLESTYLE_CELLSTYLEMAP
360
79CC
  3
ACAD_XREC_ROUNDTRIP
360
7A11
  0
DICTIONARY
  5
79EB
330
63A8
100
AcDbDictionary
280
     1
281
     1
  3
ACAD_XREC_ROUNDTRIP
360
79EC
  0
DICTIONARY
  5
79E9
330
63A7
100
AcDbDictionary
280
     1
281
     1
  3
ACAD_XREC_ROUNDTRIP
360
79EA
  0
DICTIONARY
  5
79F7
330
63AE
100
AcDbDictionary
280
     1
281
     1
  3
ACAD_XREC_ROUNDTRIP
360
79F8
  0
DICTIONARY
  5
79FF
330
63B2
100
AcDbDictionary
280
     1
281
     1
  3
ACAD_XREC_ROUNDTRIP
360
7A00
  0
DICTIONARY
  5
79F1
330
63AB
100
AcDbDictionary
280
     1
281
     1
  3
ACAD_XREC_ROUNDTRIP
360
79F2
  0
DICTIONARY
  5
79F5
330
63AD
100
AcDbDictionary
280
     1
281
     1
  3
ACAD_XREC_ROUNDTRIP
360
79F6
  0
DICTIONARY
  5
7A0F
330
63BA
100
AcDbDictionary
280
     1
281
     1
  3
ACAD_XREC_ROUNDTRIP
360
7A10
  0
DICTIONARY
  5
79FD
330
63B1
100
AcDbDictionary
280
     1
281
     1
  3
ACAD_XREC_ROUNDTRIP
360
79FE
  0
DICTIONARY
  5
79E1
330
63A3
100
AcDbDictionary
280
     1
281
     1
  3
ACAD_XREC_ROUNDTRIP
360
79E2
  0
DICTIONARY
  5
79E3
330
63A4
100
AcDbDictionary
280
     1
281
     1
  3
ACAD_XREC_ROUNDTRIP
360
79E4
  0
DICTIONARY
  5
79E5
330
63A5
100
AcDbDictionary
280
     1
281
     1
  3
ACAD_XREC_ROUNDTRIP
360
79E6
  0
DICTIONARY
  5
79E7
330
63A6
100
AcDbDictionary
280
     1
281
     1
  3
ACAD_XREC_ROUNDTRIP
360
79E8
  0
DICTIONARY
  5
79EF
330
63AA
100
AcDbDictionary
280
     1
281
     1
  3
ACAD_XREC_ROUNDTRIP
360
79F0
  0
DICTIONARY
  5
7A0B
330
63B8
100
AcDbDictionary
280
     1
281
     1
  3
ACAD_XREC_ROUNDTRIP
360
7A0C
  0
DICTIONARY
  5
79FB
330
63B0
100
AcDbDictionary
280
     1
281
     1
  3
ACAD_XREC_ROUNDTRIP
360
79FC
  0
DICTIONARY
  5
7A0D
330
63B9
100
AcDbDictionary
280
     1
281
     1
  3
ACAD_XREC_ROUNDTRIP
360
7A0E
  0
DICTIONARY
  5
79F3
330
63AC
100
AcDbDictionary
280
     1
281
     1
  3
ACAD_XREC_ROUNDTRIP
360
79F4
  0
DICTIONARY
  5
7A09
330
63B7
100
AcDbDictionary
280
     1
281
     1
  3
ACAD_XREC_ROUNDTRIP
360
7A0A
  0
DICTIONARY
  5
7A07
330
63B6
100
AcDbDictionary
280
     1
281
     1
  3
ACAD_XREC_ROUNDTRIP
360
7A08
  0
DICTIONARY
  5
7A01
330
63B3
100
AcDbDictionary
280
     1
281
     1
  3
ACAD_XREC_ROUNDTRIP
360
7A02
  0
DICTIONARY
  5
7A03
330
63B4
100
AcDbDictionary
280
     1
281
     1
  3
ACAD_XREC_ROUNDTRIP
360
7A04
  0
DICTIONARY
  5
79F9
330
63AF
100
AcDbDictionary
280
     1
281
     1
  3
ACAD_XREC_ROUNDTRIP
360
79FA
  0
DICTIONARY
  5
79ED
330
63A9
100
AcDbDictionary
280
     1
281
     1
  3
ACAD_XREC_ROUNDTRIP
360
79EE
  0
DICTIONARY
  5
7A05
330
63B5
100
AcDbDictionary
280
     1
281
     1
  3
ACAD_XREC_ROUNDTRIP
360
7A06
  0
XRECORD
  5
79D3
102
{ACAD_REACTORS
330
79A1
102
}
330
79A1
100
AcDbXrecord
280
     1
102
SHADEPLOT
 70
     0
102
SHADEPLOTRESLEVEL
 70
     2
102
SHADEPLOTCUSTOMDPI
 70
   300
  0
XRECORD
  5
79A2
102
{ACAD_REACTORS
330
79A1
102
}
330
79A1
100
AcDbXrecord
280
     1
310
280000000001000075000000010008000000000000750000000000000000000000010000000000003028210000000000C8C8C8000000000000000000000000000000000000000000000000000000000000000000330000006600000099000000CC000000FF00000000330000333300006633000099330000CC330000FF3300
310
0000660000336600006666000099660000CC660000FF66000000990000339900006699000099990000CC990000FF99000000CC000033CC000066CC000099CC0000CCCC0000FFCC000000FF000033FF000066FF000099FF0000CCFF0000FFFF000000003300330033006600330099003300CC003300FF003300003333003333
310
33006633330099333300CC333300FF33330000663300336633006666330099663300CC663300FF66330000993300339933006699330099993300CC993300FF99330000CC330033CC330066CC330099CC3300CCCC3300FFCC330000FF330033FF330066FF330099FF3300CCFF3300FFFF330000006600330066006600660099
310
006600CC006600FF00660000336600333366006633660099336600CC336600FF33660000666600336666006666660099666600CC666600FF66660000996600339966006699660099996600CC996600FF99660000CC660033CC660066CC660099CC6600CCCC6600FFCC660000FF660033FF660066FF660099FF6600CCFF6600
310
FFFF660000009900330099006600990099009900CC009900FF00990000339900333399006633990099339900CC339900FF33990000669900336699006666990099669900CC669900FF66990000999900339999006699990099999900CC999900FF99990000CC990033CC990066CC990099CC9900CCCC9900FFCC990000FF99
310
0033FF990066FF990099FF9900CCFF9900FFFF99000000CC003300CC006600CC009900CC00CC00CC00FF00CC000033CC003333CC006633CC009933CC00CC33CC00FF33CC000066CC003366CC006666CC009966CC00CC66CC00FF66CC000099CC003399CC006699CC009999CC00CC99CC00FF99CC0000CCCC0033CCCC0066CC
310
CC0099CCCC00CCCCCC00FFCCCC0000FFCC0033FFCC0066FFCC0099FFCC00CCFFCC00FFFFCC000000FF003300FF006600FF009900FF00CC00FF00FF00FF000033FF003333FF006633FF009933FF00CC33FF00FF33FF000066FF003366FF006666FF009966FF00CC66FF00FF66FF000099FF003399FF006699FF009999FF00CC
310
99FF00FF99FF0000CCFF0033CCFF0066CCFF0099CCFF00CCCCFF00FFCCFF0000FFFF0033FFFF0066FFFF0099FFFF00CCFFFF00FFFFFF00000000000D0D0D001A1A1A00282828003535350043434300505050005D5D5D006B6B6B00787878008686860093939300A1A1A100AEAEAE00BBBBBB00C9C9C900D6D6D600E4E4E400
310
F1F1F100FFFFFF000000000000000000000000000000000000000000000000000000000000000000000000000000000000000000000000000000000000000000000000000000000000000000000000000000000000000000000000000000000000000000000000000000000000000000000000000000000000000000000000
310
00000000000000000000000000000000000000000000000000000000000000000000000000000000000000000000000000000000000000000000000000000000000000000000000000000000000000000000000000000000000000000000000000000000000000000000000000000000000000000000000000000000000000
310
00000000000000000000000000000000000000000000000000000000000000000000000000000000000000000000000000000000000000000000000000000000000000000000000000000000000000000000000000000000000000000000000000000000000000000000000000000000000000000000000000000000000000
310
00000000000000000000000000000000000000000000000000000000000000000000000000000000000000000000000000000000000000000000000000000000000000000000000000000000000000000000000000000000000000000000000000000000000000000000000000000000000000000000000000000000000000
310
00000000000000000000000000000000000000000000000000000000000000000000000000000000000000000000000000000000000000000000000000000000000000000000000000000000000000000000000000000000000000000000000000000000000000000000000000000000000000000000000000000000000000
310
00000000000000000000000000000000000000000000000000000000000000000000000000000000000000000000000000000000000000000000000000000000000000000000000000000000000000000000000000000000000000000000000000000000000000000000000000000000000000000000000000000000000000
310
00000000000000000000000000000000000000000000000000000000000000000000000000000000000000000000000000000000000000000000000000000000000000000000000000000000000000000000000000000000000000000000000000000000000000000000000000000000000000000000000000000000000000
310
00000000000000000000000000000000000000000000000000000000000000000000000000000000000000000000000000000000000000000000000000000000000000000000000000000000000000000000000000000000000000000000000000000000000000000000000000000000000000000000000000000000000000
310
00000000000000000000000000000000000000000000000000000000000000000000000000000000000000000000000000000000000000000000000000000000000000000000000000000000000000000000000000000000000000000000000000000000000000000000000000000000000000000000000000000000000000
310
00000000000000000000000000000000000000000000000000000000000000000000000000000000000000000000000000000000000000000000000000000000000000000000000000000000000000000000000000000000000000000000000000000000000000000000000000000000000000000000000000000000000000
310
00000000000000000000000000000000000000000000000000000000000000000000000000000000000000000000000000000000000000000000000000000000000000000000000000000000000000000000000000000000000000000000000000000000000000000000000000000000000000000000000000000000000000
310
00000000000000000000000000000000000000000000000000000000000000000000000000000000000000000000000000000000000000000000000000000000000000000000000000000000000000000000000000000000000000000000000000000000000000000000000000000000000000000000000000000000000000
310
00000000000000000000000000000000000000000000000000000000000000000000000000000000000000000000000000000000000000000000000000000000000000000000000000000000000000000000000000000000000000000000000000000000000000000000000000000000000000000000000000000000000000
310
00000000000000000000000000000000000000000000000000000000000000000000000000000000000000000000000000000000000000000000000000000000000000000000000000000000000000000000000000000000000000000000000000000000000000000000000000000000000000000000000000000000000000
310
00000000000000000000000000000000000000000000000000000000000000000000000000000000000000000000000000000000000000000000000000000000000000000000000000000000000000000000000000000000000000000000000000000000000000000000000000000000000000000000000000000000000000
310
00000000000000000000000000000000000000000000000000000000000000000000000000000000000000000000000000000000000000000000000000000000000000000000000000000000000000000000000000000000000000000000000000000000000000000000000000000000000000000000000000000000000000
310
00000000000000000000000000000000000000000000000000000000000000000000000000000000000000000000000000000000000000000000000000000000000000000000000000000000000000000000000000000000000000000000000000000000000000000000000000000000000000000000000000000000000000
310
00000000000000000000000000000000000000000000000000000000000000000000000000000000000000000000000000000000000000000000000000000000000000000000000000000000000000000000000000000000000000000000000000000000000000000000000000000000000000000000000000000000000000
310
00000000000000000000000000000000000000000000000000000000000000000000000000000000000000000000000000000000000000000000000000000000000000000000000000000000000000000000000000000000000000000000000000000000000000000000000000000000000000000000000000000000000000
310
00000000000000000000000000000000000000000000000000000000000000000000000000000000000000000000000000000000000000000000000000000000000000000000000000000000000000000000000000000000000000000000000000000000000000000000000000000000000000000000000000000000000000
310
00000000000000000000000000000000000000000000000000000000000000000000000000000000000000000000000000000000000000000000000000000000000000000000000000000000000000000000000000000000000000000000000000000000000000000000000000000000000000000000000000000000000000
310
00000000000000000000000000000000000000000000000000000000000000000000000000000000000000000000000000000000000000000000000000000000000000000000000000000000000000000000000000000000000000000000000000000000000000000000000000000000000000000000000000000000000000
310
00000000000000000000000000000000000000000000000000000000000000000000000000000000000000000000000000000000000000000000000000000000000000000000000000000000000000000000000000000000000000000000000000000000000000000000000000000000000000000000000000000000000000
310
00000000000000000000000000000000000000000000000000000000000000000000000000000000000000000000000000000000000000000000000000000000000000000000000000000000000000000000000000000000000000000000000000000000000000000000000000000000000000000000000000000000000000
310
00000000000000000000000000000000000000000000000000000000000000000000000000000000000000000000000000000000000000000000000000000000000000000000000000000000000000000000000000000000000000000000000000000000000000000000000000000000000000000000000000000000000000
310
00000000000000000000000000000000000000000000000000000000000000000000000000000000000000000000000000000000000000000000000000000000000000000000000000000000000000000000000000000000000000000000000000000000000000000000000000000000000000000000000000000000000000
310
00000000000000000000000000000000000000000000000000000000000000000000000000000000000000000000000000000000000000000000000000000000000000000000000000000000000000000000000000000000000000000000000000000000000000000000000000000000000000000000000000000000000000
310
00000000000000000000000000000000000000000000000000000000000000000000000000000000000000000000000000000000000000000000000000000000000000000000000000000000000000000000000000000000000000000000000000000000000000000000000000000000000000000000000000000000000000
310
00000000000000000000000000000000000000000000000000000000000000000000000000000000000000000000000000000000000000000000000000000000000000000000000000000000000000000000000000000000000000000000000000000000000000000000000000000000000000000000000000000000000000
310
00000000000000000000000000000000000000000000000000000000000000000000000000000000000000000000000000000000000000000000000000000000000000000000000000000000000000000000000000000000000000000000000000000000000000000000000000000000000000000000000000000000000000
310
00000000000000000000000000000000000000000000000000000000000000000000000000000000000000000000000000000000000000000000000000000000000000000000000000000000000000000000000000000000000000000000000000000000000000000000000000000000000000000000000000000000000000
310
00000000000000000000000000000000000000000000000000000000000000000000000000000000000000000000000000000000000000000000000000000000000000000000000000000000000000000000000000000000000000000000000000000000000000000000000000000000000000000000000000000000000000
310
00000000000000000000000000000000000000000000000000000000000000000000000000000000000000000000000000000000000000000000000000000000000000000000000000000000000000000000000000000000000000000000000000000000000000000000000000000000000000000000000000000000000000
310
00000000000000000000000000000000000000000000000000000000000000000000000000000000000000000000000000000000000000000000000000000000000000000000000000000000000000000000000000000000000000000000000000000000000000000000000000000000000000000000000000000000000000
310
00000000000000000000000000000000000000000000000000000000000000000000000000000000000000000000000000000000000000000000000000000000000000000000000000000000000000000000000000000000000000000000000000000000000000000000000000000000000000000000000000000000000000
310
00000000000000000000000000000000000000000000000000000000000000000000000000000000000000000000000000000000000000000000000000000000000000000000000000000000000000000000000000000000000000000000000000000000000000000000000000000000000000000000000000000000000000
310
00000000000000000000000000000000000000000000000000000000000000000000000000000000000000000000000000000000000000000000000000000000000000000000000000000000000000000000000000000000000000000000000000000000000000000000000000000000000000000000000000000000000000
310
00000000000000000000000000000000000000000000000000000000000000000000000000000000000000000000000000000000000000000000000000000000000000000000000000000000000000000000000000000000000000000000000000000000000000000000000000000000000000000000000000000000000000
310
00000000000000000000000000000000000000000000000000000000000000000000000000000000000000000000000000000000000000000000000000000000000000000000000000000000000000000000000000000000000000000000000000000000000000000000000000000000000000000000000000000000000000
310
00000000000000000000000000000000000000000000000000000000000000000000000000000000000000000000000000000000000000000000000000000000000000000000000000000000000000000000000000000000000000000000000000000000000000000000000000000000000000000000000000000000000000
310
00000000000000000000000000000000000000000000000000000000000000000000000000000000000000000000000000000000000000000000000000000000000000000000000000000000000000000000000000000000000000000000000000000000000000000000000000000000000000000000000000000000000000
310
00000000000000000000000000000000000000000000000000000000000000000000000000000000000000000000000000000000000000000000000000000000000000000000000000000000000000000000000000000000000000000000000000000000000000000000000000000000000000000000000000000000000000
310
00000000000000000000000000000000000000000000000000000000000000000000000000000000000000000000000000000000000000000000000000000000000000000000000000000000000000000000000000000000000000000000000000000000000000000000000000000000000000000000000000000000000000
310
00000000000000000000000000000000000000000000000000000000000000000000000000000000000000000000000000000000000000000000000000000000000000000000000000000000000000000000000000000000000000000000000000000000000000000000000000000000000000000000000000000000000000
310
00000000000000000000000000000000000000000000000000000000000000000000000000000000000000000000000000000000000000000000000000000000000000000000000000000000000000000000000000000000000000000000000000000000000000000000000000000000000000000000000000000000000000
310
00000000000000000000000000000000000000000000000000000000000000000000000000000000000000000000000000000000000000000000000000000000000000000000000000000000000000000000000000000000000000000000000000000000000000000000000000000000000000000000000000000000000000
310
00000000000000000000000000000000000000000000000000000000000000000000000000000000000000000000000000000000000000000000000000000000000000000000000000000000000000000000000000000000000000000000000000000000000000000000000000000000000000000000000000000000000000
310
00000000000000000000000000000000000000000000000000000000000000000000000000000000000000000000000000000000000000000000000000000000000000000000000000000000000000000000000000000000000000000000000000000000000000000000000000000000000000000000000000000000000000
310
00000000000000000000000000000000000000000000000000000000000000000000000000000000000000000000000000000000000000000000000000000000000000000000000000000000000000000000000000000000000000000000000000000000000000000000000000000000000000000000000000000000000000
310
00000000000000000000000000000000000000000000000000000000000000000000000000000000000000000000000000000000000000000000000000000000000000000000000000000000000000000000000000000000000000000000000000000000000000000000000000000000000000000000000000000000000000
310
00000000000000000000000000000000000000000000000000000000000000000000000000000000000000000000000000000000000000000000000000000000000000000000000000000000000000000000000000000000000000000000000000000000000000000000000000000000000000000000000000000000000000
310
00000000000000000000000000000000000000000000000000000000000000000000000000000000000000000000000000000000000000000000000000000000000000000000000000000000000000000000000000000000000000000000000000000000000000000000000000000000000000000000000000000000000000
310
00000000000000000000000000000000000000000000000000000000000000000000000000000000000000000000000000000000000000000000000000000000000000000000000000000000000000000000000000000000000000000000000000000000000000000000000000000000000000000000000000000000000000
310
0000000000000000000000000000000000000000000000000000000000000000000000000000000000000000000000000000000000000000000000000000000000F0F0F0F0F0F0F0F0F0F0F0F0F0F0F0F0F0F0F0F0F0F0F0F0F0F0F0F0F0F0F0F0F0F0F0F0F0F0F0F0F0F0F0F0F0F0F0F0F0F0F0F0F0F0F0F0F0F0F0F0F0F0
310
F0F0F000000000000000000000000000000000000000000000000000000000000000000000000000000000000000000000000000000000000000000000000000000000000000000000000000000000000000000000000000000000000000000000000000000000000000000000000000000000000000000000000000000000
310
00000000000000000000000000000000000000000000000000000000000000000000000000000000000000000000000000000000000000000000000000000000000000F0000000F5F5F5000000F0F5F5F5F5F5F5F5F5F5F5F5F5000000000000000000000000F000F5F5F5F5F50000F0000000F5F500000000F0000000F5F5
310
00000000F00000000000000000000000000000000000000000000000000000000000000000000000000000000000000000000000000000000000000000000000000000000000000000000000000000000000000000000000000000000000000000000000000000000000000000000000000000000000000000000000000000
310
000000000000000000000000000000000000000000000000000000000000000000000000000000000000000000000000000000000000000000000000000000000000000000F0F0F0F0F0F0F0F0F0F0F0F0F0F0F0F0F0F0F0F0F0F0F0F0F0F0F0F0F0F0F0F0F0F0F0F0F0F0F0F0F0F0F0F0F0F0F0F0F0F0F0F0F0F0F0F0F0F0
310
F0F0F0F0F0F0F0000000000000000000000000000000000000000000000000000000000000000000000000000000000000000000000000000000000000000000000000000000000000000000000000000000000000000000000000000000000000000000000000000000000000000000000000000000000000000000000000
310
0000000000000000000000000000000000000000000000000000000000000000000000000000000000000000000000000000000000000000000000000000000000000000000000F0000000F5F5F5000000F0F5F5F5F5F5F5F5F5F5F5F500000000000000000000000000F000F5F5F5F5F50000F0000000F5F500000000F000
310
0000F5F500000000F000000000000000000000000000000000000000000000000000000000000000000000000000000000000000000000000000000000000000000000000000000000000000000000000000000000000000000000000000000000000000000000000000000000000000000000000000000000000000000000
310
00000000000000000000000000000000000000000000000000000000000000000000000000000000000000000000000000000000000000000000000000000000000000000000000000F0000000000000000000F0000000000000000000000000000000000000000000000000F00000000000000000F0000000000000000000
310
F0000000000000000000F00000000000000000000000000000000000000000000000000000000000000000000000000000000000000000000000000000000000000000000000000000000000000000000000000000000000000000000000000000000000000000000000000000000000000000000000000000000000000000
310
000000000000000000000000000000000000000000000000000000000000000000000000000000000000000000000000000000000000000000000000000000000000000000000000000000F0F0F0F0F5F5F5F0F0F0F0F5F5F5F5F5F5F5F5F5F5F5F5F5F5F5F5F0F0F0F0F0F0F0F0F0F0F5F5F5F5F5F0F0F0F0F0F0F5F5F0F0
310
F0F0F0F0F0F0F5F5F0F0F0F0F000000000000000000000000000000000000000000000F0F0F0F0F0F0F0F0F0F0F0F0F0F0F0F0F0F0F0F0F0F0F0F0F0F0F0F0F0F0F0F0F0F0F0F0F0F0F0F0F0F0F0F0F0F0F0F0F0F0F0F0F0F0F0F0F0F0F0F00000000000000000000000000000000000000000000000000000000000000000
310
0000000000000000000000000000000000000000000000000000000000000000000000000000000000000000000000000000000000000000000000000000000000000000000000000000000000F0000000000000000000F0000000000000000000000000000000000000000000000000F00000000000000000F00000000000
310
00000000F0000000000000000000F000000000000000000000000000000000000000000000F00000000000000000000000000000000000000000000000000000000000000000000000000000F0000000000000000000F0000000000000000000F0000000000000000000000000000000000000000000000000000000000000
310
00000000000000000000000000000000000000000000000000000000000000000000000000000000000000000000000000000000000000000000000000000000000000000000000000000000000000F0F0F0F0F5F5F5F0F0F0F0F5F5F5F5F5F5F5F5F5F5F0F0F0F0F0F0F0F0F0F0F0F0F0F0F0F0F5F5F5F5F5F0F0F0F0F0F0
310
F5F5F0F0F0F0F0F0F0F0F5F5F0F0F0F0F000000000000000000000000000000000000000000000F0F5F5F5F5F5F5F0F0F0F0F0F0F0F0F0F0F0F0F0F0F0F0F0F0F0F0F0F0F0F0F0F0F0F0F0F0F0F0F0F0F5F5F5F5F5F5F0F0F0F0F0F0F0F0F0F0F0F0F000000000000000000000000000000000000000000000000000000000
310
000000000000000000000000000000000000000000000000000000000000000000000000000000000000000000000000000000000000000000000000000000000000000000000000000000000000000000F0000000F5F5F5000000F0F5F5F5F5F5F5F5F5F5F50000000000000000000000000000F000F5F5F5F5F50000F000
310
0000F5F500000000F0000000F5F500000000F000000000000000000000000000000000000000000000F0F5F5F5F5F5F50000000000000000000000000000000000000000000000000000000000000000F000F5F5F5F5F5F50000F0000000000000000000F00000000000000000000000000000000000000000000000000000
310
0000000000000000000000000000000000000000000000000000000000000000000000000000000000000000000000000000000000000000000000000000000000000000000000000000000000000000000000F0F0F0F0F0F0F0F0F0F0F0F0F0F0F0F0F0F0F0F0F0F0F0F0F0F0F0F0F0F0F0F0F0F0F0F0F0F0F0F0F0F0F0F0
310
F0F0F0F0F0F0F0F0F0F0F0F0F0F0F0F0F0F0F0F0F000000000000000000000000000000000000000000000F0F0F0F0F0F0F0F0F0F0F0F0F0F0F0F0F0F0F0F0F0F0F0F0F0F0F0F0F0F0F0F0F0F0F0F0F0F0F0F0F0F0F0F5F5F5F0F0F0F0F0F0F0F0F0F0F0F0F0F0000000000000000000000000000000000000000000000000
310
00000000000000000000000000000000000000000000000000000000000000000000000000000000000000000000000000000000000000000000000000000000000000000000000000000000000000000000000000F0000000F5F5F5000000F0F5F5F5F5F5F5F5F5F5F5F500000000000000000000000000F000F5F5F5F5F5
310
0000F0000000F5F500000000F0000000F5F500000000F000000000000000000000000000000000000000000000F0F5F5F5F5F5F5F5F5F50000000000000000000000000000000000000000000000000000000000F0000000F5F5F5000000F0000000000000000000F000000000000000000000000000000000000000000000
310
000000000000000000000000000000000000000000000000000000000000000000000000000000000000000000000000000000000000000000000000000000000000000000000000000000000000000000000000000000F0000000000000000000F0000000000000000000000000000000000000000000000000F000000000
310
00000000F0000000000000000000F0000000000000000000F000000000000000000000000000000000000000000000F00000000000000000000000000000000000000000000000000000000000000000000000000000F0000000000000000000F0000000000000000000F00000000000000000000000000000000000000000
310
0000000000000000000000000000000000000000000000000000000000000000000000000000000000000000000000000000000000000000000000000000000000000000000000000000000000000000000000000000000000F0F0F0F0F5F5F5F0F0F0F0F0F0F0F0F0F0F0F0F0F5F5F5F5F5F0F0F0F0F0F0F0F0F0F0F0F0F0
310
F5F5F5F0F0F0F0F5F5F5F5F5F5F5F5F5F0F0F0F0F5F5F5F0F0F0F000000000000000000000000000000000000000000000F0F0F0F0F0F0F0F0F0F0F0F0F0F0F0F0F0F5F5F5F5F5F0F0F0F0F0F0F0F0F0F0F0F0F0F0F0F0F0F0F0F0F0F5F5F0F0F0F0F0F5F5F5F5F5F5F5F0F0F0000000000000000000000000000000000000
310
00000000000000000000000000000000000000000000000000000000000000000000000000000000000000000000000000000000000000000000000000000000000000000000000000000000000000000000000000000000000000F0000000F5F5F5000000F0000000000000000000F5F5F5F5F500000000000000000000F0
310
0000F5F5F5000000F0F5F5F5F5F5F5F5F5F5F0000000F5F5F5000000F000000000000000000000000000000000000000000000F000000000000000000000000000000000F5F5F5F5F50000000000000000000000000000000000F0000000F5F500000000F0F5F5F5F5F5F5F50000F000000000000000000000000000000000
310
000000000000000000000000000000000000000000000000000000000000000000000000000000000000000000000000000000000000000000000000000000000000000000000000000000000000000000000000000000000000000000F0F0F0F0F0F0F0F0F0F0F0F0F0F0F0F0F0F0F0F0F0F0F0F0F0F0F0F0F0F0F0F0F0F0
310
F0F0F0F0F0F0F0F0F0F0F0F0F0F0F0F0F0F0F0F0F0F0F0F0F0F0F0F0F0F0F0F0F0F0F0F0F0F0F0F0F0F0F0F0F0F0F0F0F0F0F0F0F0F0F0F0F0F0F0F0F0F0F0F0F0F0F0F0F0F0F0F0F0F0F0F0F0F0F0F0F0F0F0F0F0F0F0F0F0F0F0F0F0F0F0F0F0F0F0F0F0F0F0F0F0F0F0F0F0F0F0F0F00000000000000000000000000000
310
0000000000000000000000000000000000000000000000000000000000000000000000000000000000000000000000000000000000000000000000000000000000000000000000000000000000000000000000000000000000000000000000F000000000000000000000000000000000000000000000000000000000000000
310
000000000000000000000000000000000000000000000000000000000000000000000000000000000000000000000000000000000000000000000000000000000000000000000000000000000000000000000000000000000000000000000000000000000000000000000000000000000000F0000000000000000000000000
310
00000000000000000000000000000000000000000000000000000000000000000000000000000000000000000000000000000000000000000000000000000000000000000000000000000000000000000000000000000000000000000000000000F00000000000000000000000000000000000000000000000000000000000
310
0000000000000000000000000000000000000000000000000000000000000000000000000000000000000000000000000000000000000000000000000000000000000000000000000000000000000000000000000000000000000000000000000000000000000000000000000000000000000000F000000000000000000000
310
000000000000000000000000000000000000000000000000000000000000000000000000000000000000000000000000000000000000000000000000000000000000000000000000000000000000000000000000000000000000000000000000000000F0000000000000000000000000000000000000000000000000000000
310
00000000000000000000000000000000000000000000000000000000000000000000000000000000000000000000000000000000000000000000000000000000000000000000000000000000000000000000000000000000000000000000000000000000000000000000000000000000000000000000F00000000000000000
310
0000000000000000000000000000000000000000000000000000000000000000000000000000000000000000000000000000000000000000000000000000000000000000000000000000000000000000000000000000000000000000000000000000000000F000000000000000000000000000000000000000000000000000
310
000000000000000000000000000000000000000000000000000000000000000000000000000000000000000000000000000000000000000000000000000000000000000000000000000000000000000000000000000000000000000000000000000000000000000000000000000000000000000000000000F0000000000000
310
00000000000000000000000000000000000000000000000000000000000000000000000000000000000000000000000000000000000000000000000000000000000000000000000000000000000000000000000000000000000000000000000000000000000000F0000000000F0FF5F5F5F5F5F5F5F5F5F5F5F5F5F5F5F5F5
310
0F0F0F0F0F0F0F0F0F0F0F0F0F0F0F0F0F0F0F0F0F0F0F0F0F0F0F0F0F0F0F0F0F0F0F0F0F0F0F0F0F0F0F0F0F0F0F0F0F0F0F0F0F0F0F0F0F0F0F0F0F0F0F0F0F0F0F0F0FF5F50F0F0F0F0F0F0F0F0F0F0F0F0F0F0F0F0F0F0F0F0F0F0F0F0F0F0F0F0F0F0F0F0F0F0F0F0F0F0F0F0F0F0F0F0F0F0F00000000F000000000
310
000000000000000000000000000000000000000000000000000000000000000000000000000000000000000000000000000000000000000000000000000000000000000000000000000000000000000000000000000000000000000000000000000000000000000000F0000000000F00000000000000000000000000000000
310
0000000000000FF5F5F5F5F5F5F5F5F5F5F5F5F5F5F5F5F5000000000000000F00F5F5F5F5F5F5F5F5F5F5F5F5F500000F0000F5F5F5F5F5F5F5F5F50000000FF5F5F5F5F5000FF5F5000000000000000000000000000000000F000000000000000F0000000000000F0000000000000F000000000000000F00000000F00000
310
0000000000000000000000000000000000000000000000000000000000000000000000000000000000000000000000000000000000000000000000000000000000000000000000000000000000000000000000000000000000000000000000000000000000000000000000F0000000000F00F5F5F5F5F5F5F5F5F5F5F5F5F5
310
F5F5F5F5F5F500000FF5F5F5F5F5F5F5F5F5F5F5F5F5F5F5F5F5000000000000000F00F5F5F5F5F5F5F5F5F5F5F5F5F500000F0000F5F5F5F5F5F5F5F5F50000000FF5F5F5F5F5000FF5F5000000000000000000000000000000000F00F5F5F5F5F5000FF5F5F5F5F5000FF5F5F5F5F5000F000000000000000F00000000F0
310
00000000000000000000000000000000000000000000000000000000000000000000000000000000000000000000000000000000000000000000000000000000000000000000000000000000000000000000000000000000000000000000000000000000000000000000000000F0000000000F00F5F5F5F5F5F5F5F5F5F5F5
310
F5F500000000000000000F0000000000000000000000000000000000000000000000000F000000000000000000000000000000000F00000000000000000000000000000F0000000000000F0000000000000000000000000000000000000F00F5F5F5F5F5000FF5F5F5F5F5000FF5F5F5F5F5000F000000000000000F000000
310
00F000000000000000000000000000000000000000000000000000000000000000000000000000000000000000000000000000000000000000000000000000000000000000000000000000000000000000000000000000000000000000000000000000000000000000000000000000F0000000000F00F5F5F5F5F500F5F5F5
310
0000F5F5F5F5F5F5F5F5F5000F0F0F0F0F0F0F0F0F0F0F0F0F0F0F0F0F0F0F0F0F0F0F0F0F0F0F0F0F0F0F0F0F0F0F0F0F0F0F0F0F0F0F0F0F0F0F0F0F0F0F0F0F0F0F0F0F0F0F0F0F0F0F0F0F0F0F0F0F0F0F0F0F0F0F0F0F0F0F0F0F0F0F0F000000000000000F0000000000000F0000000000000F000000000000000F00
310
000000F000000000000000000000000000000000000000000000000000000000000000000000000000000000000000000000000000000000000000000000000000000000000000000000000000000000000000000000000000000000000000000000000000000000000000000000000000F0000000000F00F5F5F5F5F5F5F5
310
F5F50000F5F5F5F5F5F5F5F5F5000FF5F5F5F5F5F5F5F5F5F5F5F5F5F5F5F5F5F5F5F5F5F5F5F5F5F5F5F5F5F5F5F5F5F5F5F5F5F5F5F5F5F500000000000000000000000000000FF5F5F5F5F5000FF5F5F5F5F5F5F5F5000000000000000000000F000000000000000F0000000000000F0000000000000F00000000000000
310
0F00000000F000000000000000000000000000000000000000000000000000000000000000000000000000000000000000000000000000000000000000000000000000000000000000000000000000000000000000000000000000000000000000000000000000000000000000000000000000F0000000000F00F5F5F5F5F5
310
F5F5F5F5F5F5F5F5F5F500F5F5F5F5000FF5F5F5F5F5F5F5F5F5F5F5F5F5F5F5F5F5F5F5F5F5F5F5F5F5F5F5F5F5F5F5F5F5F5F5F5F5F5F5F5F5F500000000000000000000000000000FF5F5F5F5F5000FF5F5F5F5F5F5F5F5000000000000000000000F0F0FF5F5F50F0F0F0F0F0F0F0FF50FF50F0F0F0F0F0F0F0FF5F5F5
310
0F0F0F00000000F000000000000000000000000000000000000000000000000000000000000000000000000000000000000000000000000000000000000000000000000000000000000000000000000000000000000000000000000000000000000000000000000000000000000000000000000000F0000000000F00F5F5F5
310
F5F5F5F5F5F5F5F5F5F5F5F500F5F5F5F5000F00000000000000000000000000000000000000000000000000000000000000000000000000000000000000000000000000000000000000000F0000000000000F0000000000000000000000000000000000000F0000F5F5F500000F0000000000F5F5F500000000000F0000F5
310
F5F500000F00000000F000000000000000000000000000000000000000000000000000000000000000000000000000000000000000000000000000000000000000000000000000000000000000000000000000000000000000000000000000000000000000000000000000000000000000000000000000F0000000000F0F0F
310
0F0F0F0F0F0F0F0F0F0F0F0F0F0F0F0F0F0F0F0F0F0F0F0F0F0F0F0F0F0F0F0F0F0F0F0F0F0F0F0F0F0F0F0F0F0F0F0F0F0F0F0F0F0F0F0F0F0F0F0F0F0F0F0F0F0F0F0F0F0F0F0F0F0F0F0F0F0F0F0F0F0F0F0F0F0F0F0F0F0F0F0F0F0F0F0F0F0F0F0F0F0F0F0F0F0F0F0F0F0F0F0F0F0F0F0F0F0F0F0F0F0F0F0F0F0F0F
310
0F0F0F0F0F0F0F00000000F000000000000000000000000000000000000000000000000000000000000000000000000000000000000000000000000000000000000000000000000000000000000000000000000000000000000000000000000000000000000000000000000000000000000000000000000000F0000000000F
310
000000000000000000000000000000000000000000000000000000000000000000000000000000000000000000000000000000000000000000000000000000000000000000000000000000000000000000000000000000000000000F0000000000000000000000000000000000000000000000000000000000000000000000
310
00000000000000000F00000000F000000000000000000000000000000000000000000000000000000000000000000000000000000000000000000000000000000000000000000000000000000000000000000000000000000000000000000000000000000000000000000000000000000000000000000000000000F0000000
310
000F000000000000000000000000000000000000000000000000000000000000000000000000000000000000000000000000000000000000000000000000000000000000000000000000000000000000000000000000000000000000000F000000000000000000000000000000000000000000000000000000000000000000
310
000000000000000000000F00000000F000000000000000000000000000000000000000000000000000000000000000000000000000000000000000000000000000000000000000000000000000000000000000000000000000000000000000000000000000000000000000000000000000000000000000000000000000F000
310
0000000F000000000000000000000000000000000000000000000000000000000000000000000000000000000000000000000000000000000000000000000000000000000000000000000000000000000000000000000000000000000000000F00000000000000000000000000000000000000000000000000000000000000
310
0000000000000000000000000F00000000F000000000000000000000000000000000000000000000000000000000000000000000000000000000000000000000000000000000000000000000000000000000000000000000000000000000000000000000000000000000000000000000000000000000000000000000000000
310
F0000000000F0000000000000000000000000000000000000000000000000000C4C4C4C4C4C4C4C4C4C4C4C4000000000000000000000000000000000000C4C4C4C4C4C4C4C4C4C4C40000000000000000000000000000000000000000000000000F000000000000000000000000000000000000000000F5F5F50000000000
310
00000000000000000000000000000F00000000F00000000000000000000000000000000000000000000000000000000000000000000000000000000000000000000000000000000000000000000000000000000000000000000000000000000000000000000000000000000000000000000000000000000000000000000000
310
0000F0000000000F0000000000000000000000000000000000000000000000000000C4000000F5F5F500000000C4000000000000000000000000000000000000C4C400C400F5F5F5F5000000000000000000000000000000000000000000000000000000000000000000000000000000000000000000000000F5F5F5000000
310
000000000000000000000000000000000F00000000F0000000000000000000000000000000000000000000000000000000000000000000000000000000000000000000000000000000000000000000000000000000000000000000000000000000000000000000000000000000000000000000000000000000000000000000
310
00000000F0000000000F0000000000000000000000000000000000000000000000000000C400000000000000000000C400000000000000000000000000000000000000C400C400F5F5F5F500000000000000000000000000000000000000000000000000000F000000000000000000000000000000000000000000F5F5F500
310
0000000000000000000000000000000000000F00000000F000000000000000000000000000000000000000000000000000000000000000000000000000000000000000000000000000000000000000000000000000000000000000000000000000000000000000000000000000000000000000000000000000000000000000
310
000000000000F0000000000F0000000000000000000000000000000000000000000000000000C400000000000000000000C400000000000000000000000000000000000000C400C4000000000000000000000000000000000000000000000000000000000000000F000000000000000000000000000000000000000000F5F5
310
F5000000000000000000000000000000000000000F00000000F00000000000000000000000000000000000000000000000000000000000000000000000000000000000000000000000000000000000000000000000000000000000000000000000000000000000000000000000000000000000000000000000000000000000
310
0000000000000000F0000000000F0000000000000000000000000000000000000000000000000000C400000000000000000000C400000000000000000000000000000000000000C400C4000000000000000000000000000000000000000000000000000000000000000F000000000000000000000000000000000000000000
310
000000000000000000000000000000000000000000000F00000000F0000000000000000000000000000000000000000000000000000000000000000000000000000000000000000000000000000000000000000000000000000000000000000000000000000000000000000000000000000000000000000000000000000000
310
00000000000000000000F0000000000F0000000000000000000000000000000000000000000000000000C400000000000000000000C400000000000000000000000000000000000000C400C4000000000000000000000000000000000000000000000000000000000000000F00000000000000000000000000000000000000
310
0000000000000000000000000000000000000000000000000F00000000F000000000000000000000000000000000000000000000000000000000000000000000000000000000000000000000000000000000000000000000000000000000000000000000000000000000000000000000000000000000000000000000000000
310
000000000000000000000000F0000000000F0000000000000000000000000000000000000000000000000000C400000000000000000000C400000000000000000000000000000000000000C400C4000000000000000000000000000000000000000000000000000000000000000F0000000000000000000000000000000000
310
00000000000000000000000000000000000000000000000000000F00000000F00000000000000000000000000000000000000000000000000000000000000000000000000000000000000000000000000000000000000000000000000000000000000000000000000000000000000000000000000000000000000000000000
310
0000000000000000000000000000F0000000000F0000000000000000000000000000000000000000000000000000C400000000000000000000C400000000000000000000000000000000000000C400C4000000000000000000000000000000000000000000000000000000000000000F000000000000000000000000000000
310
000000000000000000000000000000000000000000000000000000000F00000000F0000000000000000000000000000000000000000000000000000000000000000000000000000000000000000000000000000000000000000000000000000000000000000000000000000000000000000000000000000000000000000000
310
00000000000000000000000000000000F0000000000F0000000000000000000000000000000000000000000000000000C400000000000000000000C400000000000000000000000000000000000000C400C4000000000000000000000000000000000000000000000000000000000000000000000000000000000000000000
310
0000000000000000000000000000000000000000000000000000000000000F00000000F000000000000000000000000000000000000000000000000000000000000000000000000000000000000000000000000000000000000000000000000000000000000000000000000000000000000000000000000000000000000000
310
000000000000000000000000000000000000F0000000000F0000000000000000000000000000000000000000000000000000C400000000000000000000C400000000000000000000000000000000000000C470C4000000000000000000000000000000000000000000000000000000000000000F0000000000000000000000
310
00000000000000000000000000000000000000000000000000000000000000000F00000000F00000000000000000000000000000000000000000000000000000000000000000000000000000000000000000000000000000000000000000000000000000000000000000000000000000000000000000000000000000000000
310
0000000000000000000000000000000000000000F0000000000F0000000000000000000000000000000000000000000000000000F5F5F5F5F5F500000000F5C4000000000000000000C40000000000000000F5C46FC4000000000000000000000000000000000000000000000000000000000000000F000000000000000000
310
000000000000000000000000000000000000000000000000000000000000000000000F00000000F0000000000000000000000000000000000000000000000000000000000000000000000000000000000000000000000000000000000000000000000000000000000000000000000000000000000000000000000000000000
310
00000000000000000000000000000000000000000000F0000000000F0000000000000000000000000000000000000000000000000000F500000000F5F5F5F5F5F5F5C4C4C4C4C4C4C4F5F5C400000000000000F56FC470C46F0000000000000000000000000000000000000000000000000000000000000F00F5F5F5F5F5F5
310
F5F5F5F5F5F5F5F5F50000000000000000000000000000000000000000000000000000000F00000000F000000000000000000000000000000000000000000000000000000000000000000000000000000000000000000000000000000000000000000000000000000000000000000000000000000000000000000000000000
310
000000000000000000000000000000000000000000000000F0000000000F0000000000000000000000000000000000000000000000000000CECE00CECEF5CECE00CECEF500000000000000F5F5C4000000000000006F6FC470C46FF500000000000000000000000000000000000000000000000000000000000F00F5F5F5F5
310
F5F5F5F5F5F5F5F5F5F5F50000000000000000000000000000000000000000000000000000000F00000000F00000000000000000000000000000000000000000000000000000000000000000000000000000000000000000000000000000000000000000000000000000000000000000000000000000000000000000000000
310
0000000000000000000000000000000000000000000000000000F0000000000F000000000000000000000000000000000000000000000000000070707070707070707070707070700000000000F5F5C4000000000000706FCEC470C46F6F70000000000000000000000000000000000000000000000000000000000F000000
310
000000000000000000000000000000000000000000000000000000000000000000000000000000000F00000000F0000000000000000000000000000000000000000000000000000000000000000000000000000000000000000000000000000000000000000000000000000000000000000000000000000000000000000000
310
00000000000000000000000000000000000000000000000000000000F0000000000F0000000000000000000000000000000000000000000000000000CECE00CECEF5CECE00CECEF500000000000000F5F5C4000000000000006F6FF570F56FF500000000000000000000000000000000000000000000000000000000000F00
310
0000000000000000000000000000000000000000000000000000000000000000000000000000000000000F00000000F000000000000000000000000000000000000000000000000000000000000000000000000000000000000000000000000000000000000000000000000000000000000000000000000000000000000000
310
000000000000000000000000000000000000000000000000000000000000F0000000000F0000000000000000000000000000000000000000000000000000F500000000F5F5F5F5F5F5F5C4C4C4C4C4C4C4C4C4C400000000000000C46F6F6F6F6FC40000000000000000000000000000000000000000000000000000000000
310
0F0F0F00000F0F0F0F0F0F000F0F0F0F0F0F00000F0F0F0F0F0F000F0F0F0F0F0F000F0F0F0F0F0F00000F0F0F0F000000F00000000000000000000000000000000000000000000000000000000000000000000000000000000000000000000000000000000000000000000000000000000000000000000000000000000000
310
0000000000000000000000000000000000000000000000000000000000000000F0000000000F0000000000000000000000000000000000000000000000000000F5F5F5F5F5F500000000F5F5000000000000000000C400000000000000C400F56FF500C4000000000000000000000000000000000000000000000000000000
310
000000000000000000000000000000000000000000000000000000000000000000000000000000000000000000000F00000000F0000000000000000000000000000000000000000000000000000000000000000000000000000000000000000000000000000000000000000000000000000000000000000000000000000000
310
00000000000000000000000000000000000000000000000000000000000000000000F0000000000F0000000000000000000000000000000000000000000000000000C400000000C400000000C4C40000000000000000000000000000000000C40000700000C400000000000000000000000000000000000000000000000000
310
000000000F000000000000000000000000000000000000000000000000000000000000000000000000000000000000000F00000000F000000000000000000000000000000000000000000000000000000000000000000000000000000000000000000000000000000000000000000000000000000000000000000000000000
310
000000000000000000000000000000000000000000000000000000000000000000000000F0000000000F0000000000000000000000000000000000000000000000000000C400000000C400000000C4C40000000000000000000000000000000000C40000000000C40000000000000000000000000000000000000000000000
310
0000000000000F000000000000000000000000000000000000000000000000000000000000000000000000000000000000000F00000000F00000000000000000000000000000000000000000000000000000000000000000000000000000000000000000000000000000000000000000000000000000000000000000000000
310
0000000000000000000000000000000000000000000000000000000000000000000000000000F0000000000F0000000000000000000000000000000000000000000000000000C400000000C400000000C4C40000000000000000000000000000000000C40000000000C4000000000000000000000000000000000000000000
310
00000000000000000F000000000000000000000000000000000000000000000000000000000000000000000000000000000000000F00000000F0000000000000000000000000000000000000000000000000000000000000000000000000000000000000000000000000000000000000000000000000000000000000000000
310
00000000000000000000000000000000000000000000000000000000000000000000000000000000F0000000000F0000000000000000000000000000000000000000000000000000C400000000C400000000C4C40000000000000000000000000000000000C40000000000C400000000000000000000000000000000000000
310
000000000000000000000F000000000000000000000000F5F5F5F5F5F5F5F5F5F5F5F5F5F5F5F5F5F5F5F5F5000000000000000000000F00000000F000000000000000000000000000000000000000000000000000000000000000000000000000000000000000000000000000000000000000000000000000000000000000
310
000000000000000000000000000000000000000000000000000000000000000000000000000000000000F0000000000F0000000000000000000000000000000000000000000000000000C400000000C400000000C4C40000000000000000000000000000000000C40000000000C40000000000000000000000000000000000
310
0000000000000000000000000F0000000000000000000000F5F5F5F5F5F5F5F5F5F5F5F5F5F5F5F5F5F5F5F5F5F5000000000000000000000F00000000F00000000000000000000000000000000000000000000000000000000000000000000000000000000000000000000000000000000000000000000000000000000000
310
0000000000000000000000000000000000000000000000000000000000000000000000000000000000000000F0000000000F0000000000000000000000000000000000000000000000000000C400000000C400000000C4C40000000000000000000000000000000000C40000000000C4000000000000000000000000000000
310
0000000000000000000000000000000000000000000000000000F5F50000000000000000000000000000000000000000000000000000000000000F00000000F0000000000000000000000000000000000000000000000000000000000000000000000000000000000000000000000000000000000000000000000000000000
310
00000000000000000000000000000000000000000000000000000000000000000000000000000000000000000000F0000000000F0000000000000000000000000000000000000000000000000000C400000000C400000000C4C40000000000000000000000000000000000C40000000000C400000000000000000000000000
310
00000000000000000000000000000000000000000000000000000000F5F50000000000000000000000000000000000000000000000000000000000000F00000000F000000000000000000000000000000000000000000000000000000000000000000000000000000000000000000000000000000000000000000000000000
310
000000000000000000000000000000000000000000000000000000000000000000000000000000000000000000000000F0000000000F0000000000000000000000000000000000000000000000000000C400000000C400000000C4C40000000000000000000000000000000000C40000000000C40000000000000000000000
310
0000000000000000000000000000000000000F0000000000000000000000F5F50000000000000000000000000000000000000000000000000000000000000F00000000F00000000000000000000000000000000000000000000000000000000000000000000000000000000000000000000000000000000000000000000000
310
0000000000000000000000000000000000000000000000000000000000000000000000000000000000000000000000000000F0000000000F0000000000000000000000000000000000000000000000000000C400000000C4C4F5F500C4C400F5F50000000000000000000000000000C40000000000C4000000000000000000
310
00000000000000000000000000000000000000000F0000000000000000000000F5F50000000000000000000000000000000000000000000000000000000000000F00000000F0000000000000000000000000000000000000000000000000000000000000000000000000000000000000000000000000000000000000000000
310
00000000000000000000000000000000000000000000000000000000000000000000000000000000000000000000000000000000F0000000000F0000000000000000000000000000000000000000000000000000C4F5F5F5C4C4C4F5F5C4C4C4C4F5F5C400000000000000000000000000C4F5F5F5F5C4C400000000000000
310
000000000000000000000000000000000000000000000F0000000000000000000000F5F50000000000000000000000000000000000000000000000000000000000000F00000000F000000000000000000000000000000000000000000000000000000000000000000000000000000000000000000000000000000000000000
310
000000000000000000000000000000000000000000000000000000000000000000000000000000000000000000000000000000000000F0000000000F000000000000000000000000000000000000000000000000000000F5F5F50000000000000000000000000000000000000000000000000000F5F5F5F500000000000000
310
0000000000000000000000000000000000000000000000000F0000000000000000000000F5F50000000000000000000000000000000000000000000000000000000000000F00000000F00000000000000000000000000000000000000000000000000000000000000000000000000000000000000000000000000000000000
310
0000000000000000000000000000000000000000000000000000000000000000000000000000000000000000000000000000000000000000F0000000000F0000000000000000000000000000000000000000000000000000000000000000000000000000000000000000000000000000000000000000000000000000000000
310
00000000000000000000000000000000000000000000000000000F000000000000000000000000000000000000000000000000000000000000000000000000000000000000000F00000000F0000000000000000000000000000000000000000000000000000000000000000000000000000000000000000000000000000000
310
00000000000000000000000000000000000000000000000000000000000000000000000000000000000000000000000000000000000000000000F0000000000F000000000000000000000000000000000000000000000000000000000000000000000000000000000000000000000000000000000000000000000000000000
310
000000000000000000000000000000000000000000000000000000000F000000000000000000000000000000000000000000000000000000000000000000000000000000000000000F00000000F000000000000000000000000000000000000000000000000000000000000000000000000000000000000000000000000000
310
000000000000000000000000000000000000000000000000000000000000000000000000000000000000000000000000000000000000000000000000F0000000000F00F5F5F5F5F5F5F5F5F5F5F5F5F5F5F5F5F5F5F50000000000000000000000000000000000000000000000000000000000000000000000000000000000
310
0000000000000000000000000000000000000000000000000000000000000000F5F5F5F5F5F5F5F5F5F5F5F5F5F5F5F5F5F5F5F5F5F5F5F5F5F5F50000000000000000000000000000000F00000000F00000000000000000000000000000000000000000000000000000000000000000000000000000000000000000000000
310
0000000000000000000000000000000000000000000000000000000000000000000000000000000000000000000000000000000000000000000000000000F0000000000F00F5F5F5F5F5F5F5F5F5F5F5F5F5F5F5F5F5F5F5000000000000000000000000000000000000000000000000000000000000000000000000000000
310
00000000000000000000000000000000000000000000000000000000000000000F00F5F5F5F5F5F5F5F5F5F5F5F5F5F5F5F5F5F5F5F5F5F5F5F5F5F5F50000000000000000000000000000000F00000000F0000000000000000000000000000000000000000000000000000000000000000000000000000000000000000000
310
00000000000000000000000000000000000000000000000000000000000000000000000000000000000000000000000000000000000000000000000000000000F0000000000F00F5F5F5F5F5F5F5F5F5F5F5F5F5F5F5F5F5F5F500000000000000000000000000000000000000000000000000000000000000000000000000
310
000000000000000000000000000000000000000000000000000000000000000000000F00F5F5F5F5F5F5F5F5F5F5F5F5F5F5F5F5F5F5F5F5F5F5F5F5F5F5F50000000000000000000000000000000F00000000F000000000000000000000000000000000000000000000000000000000000000000000000000000000000000
310
000000000000000000000000000000000000000000000000000000000000000000000000000000000000000000000000000000000000000000000000000000000000F0000000000F00000000000000000000000000000000000000000000000000000000000000000000000000000000000000000000000000000000000000
310
0000000000000000000000000000000000000000000000000000000000000000000000000F000000000000000000000000000000000000000000000000000000000000000000000000000000000000000F00000000F00000000000000000000000000000000000000000000000000000000000000000000000000000000000
310
0000000000000000000000000000000000000000000000000000000000000000000000000000000000000000000000000000000000000000000000000000000000000000F0000000000F0000000000000000000000000000000000000000000000000000000000000000000000000000000000000000000000000000000000
310
00000000000000000000000000000000000000000000000000000000000000000000000000000F000000000000000000000000000000000000000000000000000000000000000000000000000000000000000F00000000F0000000000000000000000000000000000000000000000000000000000000000000000000000000
310
00000000000000000000000000000000000000000000000000000000000000000000000000000000000000000000000000000000000000000000000000000000000000000000F00000000F0F0F0F0F0F00000F0F0F0F0F0F000F0F0F0F0F0F00000F0F0F0F0F00000F0F0F0F0F0F000F0F0F0F0F0F00000F0F0F0F0F00000F
310
0F0F0F0F0F000F0F0F0F0F0F00000F0F0F0F0F00000F0F0F0F0F0F000F0F0F0F0F0F00000F0F0F0F0F00000F0F0F0F0F0F000F0F0F0F0F0F00000F0F0F0F0F0F000F0F0F0F0F0F000F0F0F0F0F0F00000F0F0F0F0F0F000000F000000000000000000000000000000000000000000000000000000000000000000000000000
310
000000000000000000000000000000000000000000000000000000000000000000000000000000000000000000000000000000000000000000000000000000000000000000000000F0000000000F00000000000000000000000000000000000000000000000000000000000000000000000000000000000000000000000000
310
00000000000000000000000000000000000000000000000000000000000000000000000000000000000000000000000000000000000000000000000000000000000000000000000000000000000000000000000000000F00000000F00000000000000000000000000000000000000000000000000000000000000000000000
310
0000000000000000000000000000000000000000000000000000000000000000000000000000000000000000000000000000000000000000000000000000000000000000000000000000F0000000000F0000000000000000000000000000000000000000000000000000000000000000000000000000000000000000000000
310
000000000000000000000000000000000000000000000000000000000000000000000000000000000000000000000000000000000000000000000000000000000000000000000000000000000000000000000000000000000F00000000F0000000000000000000000000000000000000000000000000000000000000000000
310
00000000000000000000000000000000000000000000000000000000000000000000000000000000000000000000000000000000000000000000000000000000000000000000000000000000F0000000000F000000000000000000000000000000000000000000000000000000000000000000000000000000000000000000
310
0000000000000000000000000000000000000000000000000000000000000000000000000000000000000000000000000000000000000000000000000000000000000000000000000000000000000000000000000000000000000F00000000F000000000000000000000000000000000000000000000000000000000000000
310
000000000000000000000000000000000000000000000000000000000000000000000000000000000000000000000000000000000000000000000000000000000000000000000000000000000000F0000000000F0000000000000000000000000000000000000000000000000000000000000000000000000000C4C4C4C4C4
310
C4C4C4C4C4C4C4F5F5C4000000000000000000000000000000000000000000000000000000000000000000000000000000000000000000000000000000000000000000000000000000000000000000000000000000000000000000000F00000000F00000000000000000000000000000000000000000000000000000000000
310
0000000000000000000000000000000000000000000000000000000000000000000000000000000000000000000000000000000000000000000000000000000000000000000000000000000000000000F0000000000F000000000000000000000000000000000000000000000000000000000000000000000000000000C4F5
310
F5F5F5F50000C4C400F5F500000000000000000000000000000000000000000000000000000000000000000000000000000000000000000000000000000000000000000000000000000000000000000000000000000000000000000000000F00000000F0000000000000000000000000000000000000000000000000000000
310
00000000000000000000000000000000000000000000000000000000000000000000000000000000000000000000000000000000000000000000000000000000000000000000000000000000000000000000F0000000000F000000000000000000000000000000000000000000000000000000000000000000000000000000
310
C400000000000000C4C400000000000000000000000000000000000000000000000000000000000000000000000000000000000000000000000000000000000000000000000000000000000000000000000000000000000000000000000000000F00000000F000000000000000000000000000000000000000000000000000
310
000000000000000000000000000000000000000000000000000000000000000000000000000000000000000000000000000000000000000000000000000000000000000000000000000000000000000000000000F0000000000F00000000000000000000000000000000000000000000000000000000000000000000000000
310
0000C400000000000000C4C400000000000000000000000000000000000000000000000000000000000000000000000000000000000000000000000000000000000000000000000000000000000000000000000000000000000000000000000000000F00000000F00000000000000000000000000000000000000000000000
310
0000000000000000000000000000000000000000000000000000000000000000000000000000000000000000000000000000000000000000000000000000000000000000000000000000000000000000000000000000F0000000000F0000000000000000000000000000000000000000000000000000000000000000000000
310
00000000C400000000000000C4C400000000000000000000000000000000000000000000000000000000000000000000000000000000000000000000000000000000000000000000000000000000000000000000000000000000000000000000000000000F00000000F0000000000000000000000000000000000000000000
310
00000000000000000000000000000000000000000000000000000000000000000000000000000000000000000000000000000000000000000000000000000000000000000000000000000000000000000000000000000000F0000000000F000000000000000000000000000000000000000000000000000000000000000000
310
000000000000C400000000000000C4C400000000000000000000000000000000000000000000000000000000000000000000000000000000000000000000000000000000000000000000000000000000000000000000000000000000000000000000000000000F00000000F000000000000000000000000000000000000000
310
000000000000000000000000000000000000000000000000000000000000000000000000000000000000000000000000000000000000000000000000000000000000000000000000000000000000000000000000000000000000F0000000000F00000000000000000000000000000000000000000000000000000000000000
310
0000000000000000C400000000000000C4C400000000000000000000000000000000000000000000000000000000000000000000000000000000000000000000000000000000000000000000000000000000000000000000000000000000000000000000000000000F00000000F00000000000000000000000000000000000
310
0000000000000000000000000000000000000000000000000000000000000000000000000000000000000000000000000000000000000000000000000000000000000000000000000000000000000000000000000000000000000000F0000000000F0000000000000000000000000000000000000000000000000000000000
310
00000000000000000000C400000000000000C4C400000000000000000000000000000000000000000000000000000000000000000000000000000000000000000000000000000000000000000000000000000000000000000000000000000000000000000000000000000F00000000F0000000000000000000000000000000
310
00000000000000000000000000000000000000000000000000000000000000000000000000000000000000000000000000000000000000000000000000000000000000000000000000000000000000000000000000000000000000000000F0000000000F000000000000000000000000000000000000000000000000000000
310
000000000000000000000000C400000000000000C4C400000000000000000000000000000000000000000000000000000000000000000000000000000000000000000000000000000000000000000000000000000000000000000000000000000000000000000000000000000F00000000F000000000000000000000000000
310
000000000000000000000000000000000000000000000000000000000000000000000000000000000000000000000000000000000000000000000000000000000000000000000000000000000000000000000000000000000000000000000000F0000000000F00000000000000000000000000000000000000000000000000
310
0000000000000000000000000000C400000000000000C4C400000000000000000000000000000000000000000000000000000000000000000000000000000000000000000000000000000000000000000000000000000000000000000000000000000000000000000000000000000F00000000F00000000000000000000000
310
0000000000000000000000000000000000000000000000000000000000000000000000000000000000000000000000000000000000000000000000000000000000000000000000000000000000000000000000000000000000000000000000000000F0000000000F0000000000000000000000000000000000000000000000
310
F5F5F5F5F5F5F5F5F5F5F5F5F5F5F5F5C4F5F5F5F5F5F500C4C400000000000000000000F5F5F5F5F5F5F5F5F5F5F5C4C4C4C4C4C4C4C4C4C4000000000000000000000000000000000000000000000000000000000000000000000000000000000000000000000000000000000000000F00000000F0000000000000000000
310
00000000000000000000000000000000000000000000000000000000000000000000000000000000000000000000000000000000000000000000000000000000000000000000000000000000000000000000000000000000000000000000000000000000F0000000000F000000000000000000000000000000000000000000
310
0000CECECE00CECECECECECECECE000000CEC4F5F5F5F5F5F5F5C4C400000000000000000000F5F5F5F5CE00CEF5F5F5F5000000000000000000C4000000000000000000000000000000000000000000000000000000000000000000000000000000000000000000000000000000000000000F00000000F000000000000000
310
000000000000000000000000000000000000000000000000000000000000000000000000000000000000000000000000000000000000000000000000000000000000000000000000000000000000000000000000000000000000000000000000000000000000F0000000000F00000000000000000000000000000000000000
310
00000000F50000000000000000000000CECECECEC4CE00000000F5F5C4C400000000000000000000F5F500F5F5F5F5F500F5F5000000000000000000C4000000000000000000000000000000000000000000000000000000000000000000000000000000000000000000000000000000000000000F00000000F00000000000
310
0000000000000000000000000000000000000000000000000000000000000000000000000000000000000000000000000000000000000000000000000000000000000000000000000000000000000000000000000000000000000000000000000000000000000000F0000000000F0000000000000000000000000000000000
310
000000000000F5000000000000000000000000000000C4000000000000F5C4C400000000000000000000F5F500000000000000F5F5000000000000000000C4000000000000000000000000000000000000000000000000000000000000000000000000000000000000000000000000000000000000000F00000000F0000000
310
00000000000000000000000000000000000000000000000000000000000000000000000000000000000000000000000000000000000000000000000000000000000000000000000000000000000000000000000000000000000000000000000000000000000000000000F0000000000F000000000000000000000000000000
310
0000000000000000F5000000000000000000000000000000C4000000700000F5C4C400000000000000000000F5F5F50000700000F5F5F500000000000000F500C4000000000000000000000000000000000000000000000000000000000000000000000000000000000000000000000000000000000000000F00000000F000
310
000000000000000000000000000000000000000000000000000000000000000000000000000000000000000000000000000000000000000000000000000000000000000000000000000000000000000000000000000000000000000000000000000000000000000000000000F0000000000F00000000000000000000000000
310
00000000000000000000F5000000000000000000000000000000C400007070700000C4C400000000000000000000F500F50070707000F500F500000000000000F500C4000000000000000000000000000000000000000000000000000000000000000000000000000000000000000000000000000000000000000F00000000
310
F000000000000000000000000000000000000000000000000000000000000000000000000000000000000000000000000000000000000000000000000000000000000000000000000000000000000000000000000000000000000000000000000000000000000000000000000000F0000000000F0000000000000000000000
310
000000000000000000000000F5000000000000000000000000000000F5000000700000F5F5C400000000000000000000F5F5F50000700000F5F5F5000000000000000000C4000000000000000000000000000000000000000000000000000000000000000000000000000000000000000000000000000000000000000F0000
310
0000F000000000000000000000000000000000000000000000000000000000000000000000000000000000000000000000000000000000000000000000000000000000000000000000000000000000000000000000000000000000000000000000000000000000000000000000000000F0000000000F000000000000000000
310
0000000000000000000000000000F5000000000000000000000000000000F5F50000000000F5F5C400000000000000000000F5F500000000000000F5F5000000000000000000C4000000000000000000000000000000000000000000000000000000000000000000000000000000000000000000000000000000000000000F
310
00000000F000000000000000000000000000000000000000000000000000000000000000000000000000000000000000000000000000000000000000000000000000000000000000000000000000000000000000000000000000000000000000000000000000000000000000000000000000F0000000000F00000000000000
310
00000000000000000000000000000000F500000000000000000000000000000000F5F50000F5F5F5F5C400000000000000000000F5F50000F5F5F50000F5F5000000000000000000C4000000000000000000000000000000000000000000000000000000000000000000000000000000000000000000000000000000000000
310
000F00000000F000000000000000000000000000000000000000000000000000000000000000000000000000000000000000000000000000000000000000000000000000000000000000000000000000000000000000000000000000000000000000000000000000000000000000000000000000F0000000000F0000000000
310
000000000000000000000000000000000000CECECECECECECECECECECE00CECE00CECE00CECECEF5F5F500C400000000000000000000F5F5F5F5F500F5F5F5F5F50000000000000000C4C400000000000000000000000000000000000000000000000000000000000000000000000000000000000000000000000000000000
310
0000000F00000000F000000000000000000000000000000000000000000000000000000000000000000000000000000000000000000000000000000000000000000000000000000000000000000000000000000000000000000000000000000000000000000000000000000000000000000000000000F0000000000F000000
310
0000000000000000000000000000000000000000C4F5F5F5F5F5F5F5F5F5F5F5F5F5F5F5F5F5F5F5F5F5000000C400000000000000000000C4F5F5F5F5F5F5F5F5F5C4C4C4C4C4C4C4C4C4C4C40000000000000000000000000000000000000000000000000000000000000000000000000000000000000000000000000000
310
00000000000F00000000F00000000000000000000000000000000000
  0
XRECORD
  5
79D2
102
{ACAD_REACTORS
330
79D1
102
}
330
79D1
100
AcDbXrecord
280
     1
102
SHADEPLOT
 70
     0
102
SHADEPLOTRESLEVEL
 70
     2
102
SHADEPLOTCUSTOMDPI
 70
   300
  0
XRECORD
  5
79D5
102
{ACAD_REACTORS
330
79D4
102
}
330
79D4
100
AcDbXrecord
280
     1
102
SHADEPLOT
 70
     0
102
SHADEPLOTRESLEVEL
 70
     2
102
SHADEPLOTCUSTOMDPI
 70
   300
  0
XRECORD
  5
79DF
102
{ACAD_REACTORS
330
6393
102
}
330
6393
100
AcDbXrecord
280
     1
102
MATERIAL
148
0.0
149
0.0
149
0.0
 93
        0
 94
      127
282
     0
 72
     0
 77
     0
171
     0
175
     0
179
     0
273
     0
  0
XRECORD
  5
6395
102
{ACAD_REACTORS
330
6393
102
}
330
6393
100
AcDbXrecord
280
     1
270
     1
271
     1
  0
XRECORD
  5
6394
102
{ACAD_REACTORS
330
6393
102
}
330
6393
100
AcDbXrecord
280
     1
270
     1
271
     1
  0
XRECORD
  5
6398
102
{ACAD_REACTORS
330
6393
102
}
330
6393
100
AcDbXrecord
280
     1
270
     1
271
     1
  0
XRECORD
  5
6397
102
{ACAD_REACTORS
330
6393
102
}
330
6393
100
AcDbXrecord
280
     1
270
     1
271
     1
  0
XRECORD
  5
6399
102
{ACAD_REACTORS
330
6393
102
}
330
6393
100
AcDbXrecord
280
     1
270
     1
271
     1
  0
XRECORD
  5
6396
102
{ACAD_REACTORS
330
6393
102
}
330
6393
100
AcDbXrecord
280
     1
270
     1
271
     1
  0
XRECORD
  5
79DE
102
{ACAD_REACTORS
330
638B
102
}
330
638B
100
AcDbXrecord
280
     1
102
MATERIAL
148
0.0
149
0.0
149
0.0
 93
        0
 94
      127
282
     0
 72
     0
 77
     0
171
     0
175
     0
179
     0
273
     0
  0
XRECORD
  5
638D
102
{ACAD_REACTORS
330
638B
102
}
330
638B
100
AcDbXrecord
280
     1
270
     1
271
     1
  0
XRECORD
  5
638C
102
{ACAD_REACTORS
330
638B
102
}
330
638B
100
AcDbXrecord
280
     1
270
     1
271
     1
  0
XRECORD
  5
6390
102
{ACAD_REACTORS
330
638B
102
}
330
638B
100
AcDbXrecord
280
     1
270
     1
271
     1
  0
XRECORD
  5
638F
102
{ACAD_REACTORS
330
638B
102
}
330
638B
100
AcDbXrecord
280
     1
270
     1
271
     1
  0
XRECORD
  5
6391
102
{ACAD_REACTORS
330
638B
102
}
330
638B
100
AcDbXrecord
280
     1
270
     1
271
     1
  0
XRECORD
  5
638E
102
{ACAD_REACTORS
330
638B
102
}
330
638B
100
AcDbXrecord
280
     1
270
     1
271
     1
  0
XRECORD
  5
79E0
102
{ACAD_REACTORS
330
639B
102
}
330
639B
100
AcDbXrecord
280
     1
102
MATERIAL
148
0.0
149
0.0
149
0.0
 93
        0
 94
      127
282
     0
 72
     0
 77
     0
171
     0
175
     0
179
     0
273
     0
  0
XRECORD
  5
639D
102
{ACAD_REACTORS
330
639B
102
}
330
639B
100
AcDbXrecord
280
     1
270
     1
271
     1
  0
XRECORD
  5
639C
102
{ACAD_REACTORS
330
639B
102
}
330
639B
100
AcDbXrecord
280
     1
270
     1
271
     1
  0
XRECORD
  5
63A0
102
{ACAD_REACTORS
330
639B
102
}
330
639B
100
AcDbXrecord
280
     1
270
     1
271
     1
  0
XRECORD
  5
639F
102
{ACAD_REACTORS
330
639B
102
}
330
639B
100
AcDbXrecord
280
     1
270
     1
271
     1
  0
XRECORD
  5
63A1
102
{ACAD_REACTORS
330
639B
102
}
330
639B
100
AcDbXrecord
280
     1
270
     1
271
     1
  0
XRECORD
  5
639E
102
{ACAD_REACTORS
330
639B
102
}
330
639B
100
AcDbXrecord
280
     1
270
     1
271
     1
  0
XRECORD
  5
79CE
102
{ACAD_REACTORS
330
79CD
102
}
330
79CD
100
AcDbXrecord
280
     1
102
ACAD_ROUNDTRIP_2012_MLEADER_STYLE
298
     1
  0
CELLSTYLEMAP
  5
79CC
102
{ACAD_REACTORS
330
674F
102
}
330
674F
100
AcDbCellStyleMap
 90
        3
300
CELLSTYLE
  1
TABLEFORMAT_BEGIN
 90
        5
170
     1
 91
        0
 92
    32768
 62
   257
 93
        1
300
CONTENTFORMAT
  1
CONTENTFORMAT_BEGIN
 90
        0
 91
        0
 92
      512
 93
        0
300

 40
0.0
140
1.0
 94
        5
 62
     0
340
11
144
6.0
309
CONTENTFORMAT_END
171
     1
301
MARGIN
  1
CELLMARGIN_BEGIN
 40
1.5
 40
1.5
 40
1.5
 40
1.5
 40
4.5
 40
4.5
309
CELLMARGIN_END
 94
        6
 95
        1
302
GRIDFORMAT
  1
GRIDFORMAT_BEGIN
 90
        0
 91
        1
 62
     0
 92
       -2
340
0
 93
        0
 40
1.125
309
GRIDFORMAT_END
 95
        2
302
GRIDFORMAT
  1
GRIDFORMAT_BEGIN
 90
        0
 91
        1
 62
     0
 92
       -2
340
0
 93
        0
 40
1.125
309
GRIDFORMAT_END
 95
        4
302
GRIDFORMAT
  1
GRIDFORMAT_BEGIN
 90
        0
 91
        1
 62
     0
 92
       -2
340
0
 93
        0
 40
1.125
309
GRIDFORMAT_END
 95
        8
302
GRIDFORMAT
  1
GRIDFORMAT_BEGIN
 90
        0
 91
        1
 62
     0
 92
       -2
340
0
 93
        0
 40
1.125
309
GRIDFORMAT_END
 95
       16
302
GRIDFORMAT
  1
GRIDFORMAT_BEGIN
 90
        0
 91
        1
 62
     0
 92
       -2
340
0
 93
        0
 40
1.125
309
GRIDFORMAT_END
 95
       32
302
GRIDFORMAT
  1
GRIDFORMAT_BEGIN
 90
        0
 91
        1
 62
     0
 92
       -2
340
0
 93
        0
 40
1.125
309
GRIDFORMAT_END
309
TABLEFORMAT_END
  1
CELLSTYLE_BEGIN
 90
        1
 91
        1
300
_TITLE
309
CELLSTYLE_END
300
CELLSTYLE
  1
TABLEFORMAT_BEGIN
 90
        5
170
     1
 91
        0
 92
        0
 62
   257
 93
        1
300
CONTENTFORMAT
  1
CONTENTFORMAT_BEGIN
 90
        0
 91
        0
 92
      512
 93
        0
300

 40
0.0
140
1.0
 94
        5
 62
     0
340
11
144
4.5
309
CONTENTFORMAT_END
171
     1
301
MARGIN
  1
CELLMARGIN_BEGIN
 40
1.5
 40
1.5
 40
1.5
 40
1.5
 40
4.5
 40
4.5
309
CELLMARGIN_END
 94
        6
 95
        1
302
GRIDFORMAT
  1
GRIDFORMAT_BEGIN
 90
        0
 91
        1
 62
     0
 92
       -2
340
0
 93
        0
 40
1.125
309
GRIDFORMAT_END
 95
        2
302
GRIDFORMAT
  1
GRIDFORMAT_BEGIN
 90
        0
 91
        1
 62
     0
 92
       -2
340
0
 93
        0
 40
1.125
309
GRIDFORMAT_END
 95
        4
302
GRIDFORMAT
  1
GRIDFORMAT_BEGIN
 90
        0
 91
        1
 62
     0
 92
       -2
340
0
 93
        0
 40
1.125
309
GRIDFORMAT_END
 95
        8
302
GRIDFORMAT
  1
GRIDFORMAT_BEGIN
 90
        0
 91
        1
 62
     0
 92
       -2
340
0
 93
        0
 40
1.125
309
GRIDFORMAT_END
 95
       16
302
GRIDFORMAT
  1
GRIDFORMAT_BEGIN
 90
        0
 91
        1
 62
     0
 92
       -2
340
0
 93
        0
 40
1.125
309
GRIDFORMAT_END
 95
       32
302
GRIDFORMAT
  1
GRIDFORMAT_BEGIN
 90
        0
 91
        1
 62
     0
 92
       -2
340
0
 93
        0
 40
1.125
309
GRIDFORMAT_END
309
TABLEFORMAT_END
  1
CELLSTYLE_BEGIN
 90
        2
 91
        1
300
_HEADER
309
CELLSTYLE_END
300
CELLSTYLE
  1
TABLEFORMAT_BEGIN
 90
        5
170
     1
 91
        0
 92
        0
 62
   257
 93
        1
300
CONTENTFORMAT
  1
CONTENTFORMAT_BEGIN
 90
        0
 91
        0
 92
      512
 93
        0
300

 40
0.0
140
1.0
 94
        2
 62
     0
340
11
144
4.5
309
CONTENTFORMAT_END
171
     1
301
MARGIN
  1
CELLMARGIN_BEGIN
 40
1.5
 40
1.5
 40
1.5
 40
1.5
 40
4.5
 40
4.5
309
CELLMARGIN_END
 94
        6
 95
        1
302
GRIDFORMAT
  1
GRIDFORMAT_BEGIN
 90
        0
 91
        1
 62
     0
 92
       -2
340
0
 93
        0
 40
1.125
309
GRIDFORMAT_END
 95
        2
302
GRIDFORMAT
  1
GRIDFORMAT_BEGIN
 90
        0
 91
        1
 62
     0
 92
       -2
340
0
 93
        0
 40
1.125
309
GRIDFORMAT_END
 95
        4
302
GRIDFORMAT
  1
GRIDFORMAT_BEGIN
 90
        0
 91
        1
 62
     0
 92
       -2
340
0
 93
        0
 40
1.125
309
GRIDFORMAT_END
 95
        8
302
GRIDFORMAT
  1
GRIDFORMAT_BEGIN
 90
        0
 91
        1
 62
     0
 92
       -2
340
0
 93
        0
 40
1.125
309
GRIDFORMAT_END
 95
       16
302
GRIDFORMAT
  1
GRIDFORMAT_BEGIN
 90
        0
 91
        1
 62
     0
 92
       -2
340
0
 93
        0
 40
1.125
309
GRIDFORMAT_END
 95
       32
302
GRIDFORMAT
  1
GRIDFORMAT_BEGIN
 90
        0
 91
        1
 62
     0
 92
       -2
340
0
 93
        0
 40
1.125
309
GRIDFORMAT_END
309
TABLEFORMAT_END
  1
CELLSTYLE_BEGIN
 90
        3
 91
        2
300
_DATA
309
CELLSTYLE_END
  0
XRECORD
  5
7A11
102
{ACAD_REACTORS
330
674F
102
}
330
674F
100
AcDbXrecord
280
     1
102
ACAD_ROUNDTRIP_PRE2007_TABLESTYLE
 90
      512
 91
        0
  1

 92
      512
 93
        0
  2

 94
      512
 95
        0
  3

  0
XRECORD
  5
79EC
102
{ACAD_REACTORS
330
79EB
102
}
330
79EB
100
AcDbXrecord
280
     1
102
RTVSPropertyOp0
 70
     1
102
RTVSPropertyOp1
 70
     1
102
RTVSPropertyOp2
 70
     1
102
RTVSPropertyOp3
 70
     1
102
RTVSPropertyOp4
 70
     1
102
RTVSPropertyOp5
 70
     1
102
RTVSPropertyOp6
 70
     1
102
RTVSPropertyOp7
 70
     1
102
RTVSPropertyOp8
 70
     1
102
RTVSPropertyOp9
 70
     1
102
RTVSPropertyOp10
 70
     1
102
RTVSPropertyOp11
 70
     1
102
RTVSPropertyOp12
 70
     1
102
RTVSPropertyOp13
 70
     1
102
RTVSPropertyOp14
 70
     1
102
RTVSPropertyOp15
 70
     1
102
RTVSPropertyOp16
 70
     1
102
RTVSPropertyOp17
 70
     1
102
RTVSPropertyOp18
 70
     1
102
RTVSPropertyOp19
 70
     1
102
RTVSPropertyOp20
 70
     1
102
RTVSPropertyOp21
 70
     1
102
RTVSPropertyOp22
 70
     1
102
RTVSPropertyOp23
 70
     1
102
RTVSPropertyOp24
 70
     1
102
RTVSPropertyOp25
 70
     1
102
RTVSPropertyOp26
 70
     1
102
RTVSPropertyOp27
 70
     1
102
RTVSPropertyOp28
 70
     1
102
RTVSPropertyOp29
 70
     1
102
RTVSPropertyOp30
 70
     1
102
RTVSPropertyOp31
 70
     1
102
RTVSPropertyOp32
 70
     1
  0
XRECORD
  5
79EA
102
{ACAD_REACTORS
330
79E9
102
}
330
79E9
100
AcDbXrecord
280
     1
102
RTVSPropertyOp0
 70
     1
102
RTVSPropertyOp1
 70
     1
102
RTVSPropertyOp2
 70
     1
102
RTVSPropertyOp3
 70
     1
102
RTVSPropertyOp4
 70
     1
102
RTVSPropertyOp5
 70
     1
102
RTVSPropertyOp6
 70
     1
102
RTVSPropertyOp7
 70
     1
102
RTVSPropertyOp8
 70
     1
102
RTVSPropertyOp9
 70
     1
102
RTVSPropertyOp10
 70
     1
102
RTVSPropertyOp11
 70
     1
102
RTVSPropertyOp12
 70
     1
102
RTVSPropertyOp13
 70
     1
102
RTVSPropertyOp14
 70
     1
102
RTVSPropertyOp15
 70
     1
102
RTVSPropertyOp16
 70
     1
102
RTVSPropertyOp17
 70
     1
102
RTVSPropertyOp18
 70
     1
102
RTVSPropertyOp19
 70
     1
102
RTVSPropertyOp20
 70
     1
102
RTVSPropertyOp21
 70
     1
102
RTVSPropertyOp22
 70
     1
102
RTVSPropertyOp23
 70
     1
102
RTVSPropertyOp24
 70
     1
102
RTVSPropertyOp25
 70
     1
102
RTVSPropertyOp26
 70
     1
102
RTVSPropertyOp27
 70
     1
102
RTVSPropertyOp28
 70
     1
102
RTVSPropertyOp29
 70
     1
102
RTVSPropertyOp30
 70
     1
102
RTVSPropertyOp31
 70
     1
102
RTVSPropertyOp32
 70
     1
  0
XRECORD
  5
79F8
102
{ACAD_REACTORS
330
79F7
102
}
330
79F7
100
AcDbXrecord
280
     1
102
RTVSPropertyOp0
 70
     1
102
RTVSPropertyOp1
 70
     1
102
RTVSPropertyOp2
 70
     1
102
RTVSPropertyOp3
 70
     1
102
RTVSPropertyOp4
 70
     1
102
RTVSPropertyOp5
 70
     1
102
RTVSPropertyOp6
 70
     1
102
RTVSPropertyOp7
 70
     1
102
RTVSPropertyOp8
 70
     1
102
RTVSPropertyOp9
 70
     1
102
RTVSPropertyOp10
 70
     1
102
RTVSPropertyOp11
 70
     1
102
RTVSPropertyOp12
 70
     1
102
RTVSPropertyOp13
 70
     1
102
RTVSPropertyOp14
 70
     1
102
RTVSPropertyOp15
 70
     1
102
RTVSPropertyOp16
 70
     1
102
RTVSPropertyOp17
 70
     1
102
RTVSPropertyOp18
 70
     1
102
RTVSPropertyOp19
 70
     1
102
RTVSPropertyOp20
 70
     1
102
RTVSPropertyOp21
 70
     1
102
RTVSPropertyOp22
 70
     1
102
RTVSPropertyOp23
 70
     1
102
RTVSPropertyOp24
 70
     1
102
RTVSPropertyOp25
 70
     1
102
RTVSPropertyOp26
 70
     1
102
RTVSPropertyOp27
 70
     1
102
RTVSPropertyOp28
 70
     1
102
RTVSPropertyOp29
 70
     1
102
RTVSPropertyOp30
 70
     1
102
RTVSPropertyOp31
 70
     1
102
RTVSPropertyOp32
 70
     1
  0
XRECORD
  5
7A00
102
{ACAD_REACTORS
330
79FF
102
}
330
79FF
100
AcDbXrecord
280
     1
102
RTVSPropertyOp0
 70
     1
102
RTVSPropertyOp1
 70
     1
102
RTVSPropertyOp2
 70
     1
102
RTVSPropertyOp3
 70
     1
102
RTVSPropertyOp4
 70
     1
102
RTVSPropertyOp5
 70
     1
102
RTVSPropertyOp6
 70
     1
102
RTVSPropertyOp7
 70
     1
102
RTVSPropertyOp8
 70
     1
102
RTVSPropertyOp9
 70
     1
102
RTVSPropertyOp10
 70
     1
102
RTVSPropertyOp11
 70
     1
102
RTVSPropertyOp12
 70
     1
102
RTVSPropertyOp13
 70
     1
102
RTVSPropertyOp14
 70
     1
102
RTVSPropertyOp15
 70
     1
102
RTVSPropertyOp16
 70
     1
102
RTVSPropertyOp17
 70
     1
102
RTVSPropertyOp18
 70
     1
102
RTVSPropertyOp19
 70
     1
102
RTVSPropertyOp20
 70
     1
102
RTVSPropertyOp21
 70
     1
102
RTVSPropertyOp22
 70
     1
102
RTVSPropertyOp23
 70
     1
102
RTVSPropertyOp24
 70
     1
102
RTVSPropertyOp25
 70
     1
102
RTVSPropertyOp26
 70
     1
102
RTVSPropertyOp27
 70
     1
102
RTVSPropertyOp28
 70
     1
102
RTVSPropertyOp29
 70
     1
102
RTVSPropertyOp30
 70
     1
102
RTVSPropertyOp31
 70
     1
102
RTVSPropertyOp32
 70
     1
  0
XRECORD
  5
79F2
102
{ACAD_REACTORS
330
79F1
102
}
330
79F1
100
AcDbXrecord
280
     1
102
RTVSPropertyOp0
 70
     1
102
RTVSPropertyOp1
 70
     1
102
RTVSPropertyOp2
 70
     1
102
RTVSPropertyOp3
 70
     1
102
RTVSPropertyOp4
 70
     1
102
RTVSPropertyOp5
 70
     1
102
RTVSPropertyOp6
 70
     1
102
RTVSPropertyOp7
 70
     1
102
RTVSPropertyOp8
 70
     1
102
RTVSPropertyOp9
 70
     1
102
RTVSPropertyOp10
 70
     1
102
RTVSPropertyOp11
 70
     1
102
RTVSPropertyOp12
 70
     1
102
RTVSPropertyOp13
 70
     1
102
RTVSPropertyOp14
 70
     1
102
RTVSPropertyOp15
 70
     1
102
RTVSPropertyOp16
 70
     1
102
RTVSPropertyOp17
 70
     1
102
RTVSPropertyOp18
 70
     1
102
RTVSPropertyOp19
 70
     1
102
RTVSPropertyOp20
 70
     1
102
RTVSPropertyOp21
 70
     1
102
RTVSPropertyOp22
 70
     1
102
RTVSPropertyOp23
 70
     1
102
RTVSPropertyOp24
 70
     1
102
RTVSPropertyOp25
 70
     1
102
RTVSPropertyOp26
 70
     1
102
RTVSPropertyOp27
 70
     1
102
RTVSPropertyOp28
 70
     1
102
RTVSPropertyOp29
 70
     1
102
RTVSPropertyOp30
 70
     1
102
RTVSPropertyOp31
 70
     1
102
RTVSPropertyOp32
 70
     1
  0
XRECORD
  5
79F6
102
{ACAD_REACTORS
330
79F5
102
}
330
79F5
100
AcDbXrecord
280
     1
102
RTVSPropertyOp0
 70
     1
102
RTVSPropertyOp1
 70
     1
102
RTVSPropertyOp2
 70
     1
102
RTVSPropertyOp3
 70
     1
102
RTVSPropertyOp4
 70
     1
102
RTVSPropertyOp5
 70
     1
102
RTVSPropertyOp6
 70
     1
102
RTVSPropertyOp7
 70
     1
102
RTVSPropertyOp8
 70
     1
102
RTVSPropertyOp9
 70
     1
102
RTVSPropertyOp10
 70
     1
102
RTVSPropertyOp11
 70
     1
102
RTVSPropertyOp12
 70
     1
102
RTVSPropertyOp13
 70
     1
102
RTVSPropertyOp14
 70
     1
102
RTVSPropertyOp15
 70
     1
102
RTVSPropertyOp16
 70
     1
102
RTVSPropertyOp17
 70
     1
102
RTVSPropertyOp18
 70
     1
102
RTVSPropertyOp19
 70
     1
102
RTVSPropertyOp20
 70
     1
102
RTVSPropertyOp21
 70
     1
102
RTVSPropertyOp22
 70
     1
102
RTVSPropertyOp23
 70
     1
102
RTVSPropertyOp24
 70
     1
102
RTVSPropertyOp25
 70
     1
102
RTVSPropertyOp26
 70
     1
102
RTVSPropertyOp27
 70
     1
102
RTVSPropertyOp28
 70
     1
102
RTVSPropertyOp29
 70
     1
102
RTVSPropertyOp30
 70
     1
102
RTVSPropertyOp31
 70
     1
102
RTVSPropertyOp32
 70
     1
  0
XRECORD
  5
7A10
102
{ACAD_REACTORS
330
7A0F
102
}
330
7A0F
100
AcDbXrecord
280
     1
102
RTVSPropertyOp0
 70
     0
102
RTVSPropertyOp1
 70
     0
102
RTVSPropertyOp2
 70
     0
102
RTVSPropertyOp3
 70
     0
102
RTVSPropertyOp4
 70
     0
102
RTVSPropertyOp5
 70
     0
102
RTVSPropertyOp6
 70
     0
102
RTVSPropertyOp7
 70
     0
102
RTVSPropertyOp8
 70
     0
102
RTVSPropertyOp9
 70
     0
102
RTVSPropertyOp10
 70
     0
102
RTVSPropertyOp11
 70
     0
102
RTVSPropertyOp12
 70
     0
102
RTVSPropertyOp13
 70
     0
102
RTVSPropertyOp14
 70
     2
102
RTVSPropertyOp15
 70
     0
102
RTVSPropertyOp16
 70
     0
102
RTVSPropertyOp17
 70
     0
102
RTVSPropertyOp18
 70
     0
102
RTVSPropertyOp19
 70
     0
102
RTVSPropertyOp20
 70
     0
102
RTVSPropertyOp21
 70
     0
102
RTVSPropertyOp22
 70
     0
102
RTVSPropertyOp23
 70
     0
102
RTVSPropertyOp24
 70
     0
102
RTVSPropertyOp25
 70
     0
102
RTVSPropertyOp26
 70
     0
102
RTVSPropertyOp27
 70
     0
102
RTVSPropertyOp28
 70
     1
102
RTVSPropertyOp29
 70
     1
102
RTVSPropertyOp30
 70
     1
102
RTVSPropertyOp31
 70
     1
102
RTVSPropertyOp32
 70
     1
  0
XRECORD
  5
79FE
102
{ACAD_REACTORS
330
79FD
102
}
330
79FD
100
AcDbXrecord
280
     1
102
RTVSPropertyOp0
 70
     1
102
RTVSPropertyOp1
 70
     1
102
RTVSPropertyOp2
 70
     1
102
RTVSPropertyOp3
 70
     1
102
RTVSPropertyOp4
 70
     1
102
RTVSPropertyOp5
 70
     1
102
RTVSPropertyOp6
 70
     1
102
RTVSPropertyOp7
 70
     1
102
RTVSPropertyOp8
 70
     1
102
RTVSPropertyOp9
 70
     1
102
RTVSPropertyOp10
 70
     1
102
RTVSPropertyOp11
 70
     1
102
RTVSPropertyOp12
 70
     1
102
RTVSPropertyOp13
 70
     1
102
RTVSPropertyOp14
 70
     1
102
RTVSPropertyOp15
 70
     1
102
RTVSPropertyOp16
 70
     1
102
RTVSPropertyOp17
 70
     1
102
RTVSPropertyOp18
 70
     1
102
RTVSPropertyOp19
 70
     1
102
RTVSPropertyOp20
 70
     1
102
RTVSPropertyOp21
 70
     1
102
RTVSPropertyOp22
 70
     1
102
RTVSPropertyOp23
 70
     1
102
RTVSPropertyOp24
 70
     1
102
RTVSPropertyOp25
 70
     1
102
RTVSPropertyOp26
 70
     1
102
RTVSPropertyOp27
 70
     1
102
RTVSPropertyOp28
 70
     1
102
RTVSPropertyOp29
 70
     1
102
RTVSPropertyOp30
 70
     1
102
RTVSPropertyOp31
 70
     1
102
RTVSPropertyOp32
 70
     1
  0
XRECORD
  5
79E2
102
{ACAD_REACTORS
330
79E1
102
}
330
79E1
100
AcDbXrecord
280
     1
102
RTVSPropertyOp0
 70
     1
102
RTVSPropertyOp1
 70
     1
102
RTVSPropertyOp2
 70
     1
102
RTVSPropertyOp3
 70
     1
102
RTVSPropertyOp4
 70
     1
102
RTVSPropertyOp5
 70
     1
102
RTVSPropertyOp6
 70
     1
102
RTVSPropertyOp7
 70
     1
102
RTVSPropertyOp8
 70
     1
102
RTVSPropertyOp9
 70
     1
102
RTVSPropertyOp10
 70
     1
102
RTVSPropertyOp11
 70
     1
102
RTVSPropertyOp12
 70
     1
102
RTVSPropertyOp13
 70
     1
102
RTVSPropertyOp14
 70
     1
102
RTVSPropertyOp15
 70
     1
102
RTVSPropertyOp16
 70
     1
102
RTVSPropertyOp17
 70
     1
102
RTVSPropertyOp18
 70
     1
102
RTVSPropertyOp19
 70
     1
102
RTVSPropertyOp20
 70
     1
102
RTVSPropertyOp21
 70
     1
102
RTVSPropertyOp22
 70
     1
102
RTVSPropertyOp23
 70
     1
102
RTVSPropertyOp24
 70
     1
102
RTVSPropertyOp25
 70
     1
102
RTVSPropertyOp26
 70
     1
102
RTVSPropertyOp27
 70
     1
102
RTVSPropertyOp28
 70
     1
102
RTVSPropertyOp29
 70
     1
102
RTVSPropertyOp30
 70
     1
102
RTVSPropertyOp31
 70
     1
102
RTVSPropertyOp32
 70
     1
  0
XRECORD
  5
79E4
102
{ACAD_REACTORS
330
79E3
102
}
330
79E3
100
AcDbXrecord
280
     1
102
RTVSPropertyOp0
 70
     1
102
RTVSPropertyOp1
 70
     1
102
RTVSPropertyOp2
 70
     1
102
RTVSPropertyOp3
 70
     1
102
RTVSPropertyOp4
 70
     1
102
RTVSPropertyOp5
 70
     1
102
RTVSPropertyOp6
 70
     1
102
RTVSPropertyOp7
 70
     1
102
RTVSPropertyOp8
 70
     1
102
RTVSPropertyOp9
 70
     1
102
RTVSPropertyOp10
 70
     1
102
RTVSPropertyOp11
 70
     1
102
RTVSPropertyOp12
 70
     1
102
RTVSPropertyOp13
 70
     1
102
RTVSPropertyOp14
 70
     1
102
RTVSPropertyOp15
 70
     1
102
RTVSPropertyOp16
 70
     1
102
RTVSPropertyOp17
 70
     1
102
RTVSPropertyOp18
 70
     1
102
RTVSPropertyOp19
 70
     1
102
RTVSPropertyOp20
 70
     1
102
RTVSPropertyOp21
 70
     1
102
RTVSPropertyOp22
 70
     1
102
RTVSPropertyOp23
 70
     1
102
RTVSPropertyOp24
 70
     1
102
RTVSPropertyOp25
 70
     1
102
RTVSPropertyOp26
 70
     1
102
RTVSPropertyOp27
 70
     1
102
RTVSPropertyOp28
 70
     1
102
RTVSPropertyOp29
 70
     1
102
RTVSPropertyOp30
 70
     1
102
RTVSPropertyOp31
 70
     1
102
RTVSPropertyOp32
 70
     1
  0
XRECORD
  5
79E6
102
{ACAD_REACTORS
330
79E5
102
}
330
79E5
100
AcDbXrecord
280
     1
102
RTVSPropertyOp0
 70
     1
102
RTVSPropertyOp1
 70
     1
102
RTVSPropertyOp2
 70
     1
102
RTVSPropertyOp3
 70
     1
102
RTVSPropertyOp4
 70
     1
102
RTVSPropertyOp5
 70
     1
102
RTVSPropertyOp6
 70
     1
102
RTVSPropertyOp7
 70
     1
102
RTVSPropertyOp8
 70
     1
102
RTVSPropertyOp9
 70
     1
102
RTVSPropertyOp10
 70
     1
102
RTVSPropertyOp11
 70
     1
102
RTVSPropertyOp12
 70
     1
102
RTVSPropertyOp13
 70
     1
102
RTVSPropertyOp14
 70
     1
102
RTVSPropertyOp15
 70
     1
102
RTVSPropertyOp16
 70
     1
102
RTVSPropertyOp17
 70
     1
102
RTVSPropertyOp18
 70
     1
102
RTVSPropertyOp19
 70
     1
102
RTVSPropertyOp20
 70
     1
102
RTVSPropertyOp21
 70
     1
102
RTVSPropertyOp22
 70
     1
102
RTVSPropertyOp23
 70
     1
102
RTVSPropertyOp24
 70
     1
102
RTVSPropertyOp25
 70
     1
102
RTVSPropertyOp26
 70
     1
102
RTVSPropertyOp27
 70
     1
102
RTVSPropertyOp28
 70
     1
102
RTVSPropertyOp29
 70
     1
102
RTVSPropertyOp30
 70
     1
102
RTVSPropertyOp31
 70
     1
102
RTVSPropertyOp32
 70
     1
  0
XRECORD
  5
79E8
102
{ACAD_REACTORS
330
79E7
102
}
330
79E7
100
AcDbXrecord
280
     1
102
RTVSPropertyOp0
 70
     1
102
RTVSPropertyOp1
 70
     1
102
RTVSPropertyOp2
 70
     1
102
RTVSPropertyOp3
 70
     1
102
RTVSPropertyOp4
 70
     1
102
RTVSPropertyOp5
 70
     1
102
RTVSPropertyOp6
 70
     1
102
RTVSPropertyOp7
 70
     1
102
RTVSPropertyOp8
 70
     1
102
RTVSPropertyOp9
 70
     1
102
RTVSPropertyOp10
 70
     1
102
RTVSPropertyOp11
 70
     1
102
RTVSPropertyOp12
 70
     1
102
RTVSPropertyOp13
 70
     1
102
RTVSPropertyOp14
 70
     1
102
RTVSPropertyOp15
 70
     1
102
RTVSPropertyOp16
 70
     1
102
RTVSPropertyOp17
 70
     1
102
RTVSPropertyOp18
 70
     1
102
RTVSPropertyOp19
 70
     1
102
RTVSPropertyOp20
 70
     1
102
RTVSPropertyOp21
 70
     1
102
RTVSPropertyOp22
 70
     1
102
RTVSPropertyOp23
 70
     1
102
RTVSPropertyOp24
 70
     1
102
RTVSPropertyOp25
 70
     1
102
RTVSPropertyOp26
 70
     1
102
RTVSPropertyOp27
 70
     1
102
RTVSPropertyOp28
 70
     1
102
RTVSPropertyOp29
 70
     1
102
RTVSPropertyOp30
 70
     1
102
RTVSPropertyOp31
 70
     1
102
RTVSPropertyOp32
 70
     1
  0
XRECORD
  5
79F0
102
{ACAD_REACTORS
330
79EF
102
}
330
79EF
100
AcDbXrecord
280
     1
102
RTVSPropertyOp0
 70
     1
102
RTVSPropertyOp1
 70
     1
102
RTVSPropertyOp2
 70
     1
102
RTVSPropertyOp3
 70
     1
102
RTVSPropertyOp4
 70
     1
102
RTVSPropertyOp5
 70
     1
102
RTVSPropertyOp6
 70
     1
102
RTVSPropertyOp7
 70
     1
102
RTVSPropertyOp8
 70
     1
102
RTVSPropertyOp9
 70
     1
102
RTVSPropertyOp10
 70
     1
102
RTVSPropertyOp11
 70
     1
102
RTVSPropertyOp12
 70
     1
102
RTVSPropertyOp13
 70
     1
102
RTVSPropertyOp14
 70
     1
102
RTVSPropertyOp15
 70
     1
102
RTVSPropertyOp16
 70
     1
102
RTVSPropertyOp17
 70
     1
102
RTVSPropertyOp18
 70
     1
102
RTVSPropertyOp19
 70
     1
102
RTVSPropertyOp20
 70
     1
102
RTVSPropertyOp21
 70
     1
102
RTVSPropertyOp22
 70
     1
102
RTVSPropertyOp23
 70
     1
102
RTVSPropertyOp24
 70
     1
102
RTVSPropertyOp25
 70
     1
102
RTVSPropertyOp26
 70
     1
102
RTVSPropertyOp27
 70
     1
102
RTVSPropertyOp28
 70
     1
102
RTVSPropertyOp29
 70
     1
102
RTVSPropertyOp30
 70
     1
102
RTVSPropertyOp31
 70
     1
102
RTVSPropertyOp32
 70
     1
  0
XRECORD
  5
7A0C
102
{ACAD_REACTORS
330
7A0B
102
}
330
7A0B
100
AcDbXrecord
280
     1
102
RTVSPropertyOp0
 70
     0
102
RTVSPropertyOp1
 70
     0
102
RTVSPropertyOp2
 70
     0
102
RTVSPropertyOp3
 70
     0
102
RTVSPropertyOp4
 70
     0
102
RTVSPropertyOp5
 70
     0
102
RTVSPropertyOp6
 70
     0
102
RTVSPropertyOp7
 70
     0
102
RTVSPropertyOp8
 70
     0
102
RTVSPropertyOp9
 70
     0
102
RTVSPropertyOp10
 70
     0
102
RTVSPropertyOp11
 70
     0
102
RTVSPropertyOp12
 70
     0
102
RTVSPropertyOp13
 70
     0
102
RTVSPropertyOp14
 70
     2
102
RTVSPropertyOp15
 70
     0
102
RTVSPropertyOp16
 70
     0
102
RTVSPropertyOp17
 70
     0
102
RTVSPropertyOp18
 70
     0
102
RTVSPropertyOp19
 70
     0
102
RTVSPropertyOp20
 70
     0
102
RTVSPropertyOp21
 70
     0
102
RTVSPropertyOp22
 70
     0
102
RTVSPropertyOp23
 70
     0
102
RTVSPropertyOp24
 70
     0
102
RTVSPropertyOp25
 70
     0
102
RTVSPropertyOp26
 70
     0
102
RTVSPropertyOp27
 70
     0
102
RTVSPropertyOp28
 70
     1
102
RTVSPropertyOp29
 70
     1
102
RTVSPropertyOp30
 70
     1
102
RTVSPropertyOp31
 70
     1
102
RTVSPropertyOp32
 70
     1
  0
XRECORD
  5
79FC
102
{ACAD_REACTORS
330
79FB
102
}
330
79FB
100
AcDbXrecord
280
     1
102
RTVSPropertyOp0
 70
     1
102
RTVSPropertyOp1
 70
     1
102
RTVSPropertyOp2
 70
     1
102
RTVSPropertyOp3
 70
     1
102
RTVSPropertyOp4
 70
     1
102
RTVSPropertyOp5
 70
     1
102
RTVSPropertyOp6
 70
     1
102
RTVSPropertyOp7
 70
     1
102
RTVSPropertyOp8
 70
     1
102
RTVSPropertyOp9
 70
     1
102
RTVSPropertyOp10
 70
     1
102
RTVSPropertyOp11
 70
     1
102
RTVSPropertyOp12
 70
     1
102
RTVSPropertyOp13
 70
     1
102
RTVSPropertyOp14
 70
     1
102
RTVSPropertyOp15
 70
     1
102
RTVSPropertyOp16
 70
     1
102
RTVSPropertyOp17
 70
     1
102
RTVSPropertyOp18
 70
     1
102
RTVSPropertyOp19
 70
     1
102
RTVSPropertyOp20
 70
     1
102
RTVSPropertyOp21
 70
     1
102
RTVSPropertyOp22
 70
     1
102
RTVSPropertyOp23
 70
     1
102
RTVSPropertyOp24
 70
     1
102
RTVSPropertyOp25
 70
     1
102
RTVSPropertyOp26
 70
     1
102
RTVSPropertyOp27
 70
     1
102
RTVSPropertyOp28
 70
     1
102
RTVSPropertyOp29
 70
     1
102
RTVSPropertyOp30
 70
     1
102
RTVSPropertyOp31
 70
     1
102
RTVSPropertyOp32
 70
     1
  0
XRECORD
  5
7A0E
102
{ACAD_REACTORS
330
7A0D
102
}
330
7A0D
100
AcDbXrecord
280
     1
102
RTVSPropertyOp0
 70
     0
102
RTVSPropertyOp1
 70
     0
102
RTVSPropertyOp2
 70
     0
102
RTVSPropertyOp3
 70
     0
102
RTVSPropertyOp4
 70
     0
102
RTVSPropertyOp5
 70
     0
102
RTVSPropertyOp6
 70
     0
102
RTVSPropertyOp7
 70
     0
102
RTVSPropertyOp8
 70
     0
102
RTVSPropertyOp9
 70
     0
102
RTVSPropertyOp10
 70
     0
102
RTVSPropertyOp11
 70
     0
102
RTVSPropertyOp12
 70
     0
102
RTVSPropertyOp13
 70
     0
102
RTVSPropertyOp14
 70
     2
102
RTVSPropertyOp15
 70
     0
102
RTVSPropertyOp16
 70
     0
102
RTVSPropertyOp17
 70
     0
102
RTVSPropertyOp18
 70
     0
102
RTVSPropertyOp19
 70
     0
102
RTVSPropertyOp20
 70
     0
102
RTVSPropertyOp21
 70
     0
102
RTVSPropertyOp22
 70
     0
102
RTVSPropertyOp23
 70
     0
102
RTVSPropertyOp24
 70
     0
102
RTVSPropertyOp25
 70
     0
102
RTVSPropertyOp26
 70
     0
102
RTVSPropertyOp27
 70
     0
102
RTVSPropertyOp28
 70
     1
102
RTVSPropertyOp29
 70
     1
102
RTVSPropertyOp30
 70
     1
102
RTVSPropertyOp31
 70
     1
102
RTVSPropertyOp32
 70
     1
  0
XRECORD
  5
79F4
102
{ACAD_REACTORS
330
79F3
102
}
330
79F3
100
AcDbXrecord
280
     1
102
RTVSPropertyOp0
 70
     1
102
RTVSPropertyOp1
 70
     1
102
RTVSPropertyOp2
 70
     1
102
RTVSPropertyOp3
 70
     1
102
RTVSPropertyOp4
 70
     1
102
RTVSPropertyOp5
 70
     1
102
RTVSPropertyOp6
 70
     1
102
RTVSPropertyOp7
 70
     1
102
RTVSPropertyOp8
 70
     1
102
RTVSPropertyOp9
 70
     1
102
RTVSPropertyOp10
 70
     1
102
RTVSPropertyOp11
 70
     1
102
RTVSPropertyOp12
 70
     1
102
RTVSPropertyOp13
 70
     1
102
RTVSPropertyOp14
 70
     1
102
RTVSPropertyOp15
 70
     1
102
RTVSPropertyOp16
 70
     1
102
RTVSPropertyOp17
 70
     1
102
RTVSPropertyOp18
 70
     1
102
RTVSPropertyOp19
 70
     1
102
RTVSPropertyOp20
 70
     1
102
RTVSPropertyOp21
 70
     1
102
RTVSPropertyOp22
 70
     1
102
RTVSPropertyOp23
 70
     1
102
RTVSPropertyOp24
 70
     1
102
RTVSPropertyOp25
 70
     1
102
RTVSPropertyOp26
 70
     1
102
RTVSPropertyOp27
 70
     1
102
RTVSPropertyOp28
 70
     1
102
RTVSPropertyOp29
 70
     1
102
RTVSPropertyOp30
 70
     1
102
RTVSPropertyOp31
 70
     1
102
RTVSPropertyOp32
 70
     1
  0
XRECORD
  5
7A0A
102
{ACAD_REACTORS
330
7A09
102
}
330
7A09
100
AcDbXrecord
280
     1
102
RTVSPropertyOp0
 70
     1
102
RTVSPropertyOp1
 70
     1
102
RTVSPropertyOp2
 70
     1
102
RTVSPropertyOp3
 70
     1
102
RTVSPropertyOp4
 70
     1
102
RTVSPropertyOp5
 70
     1
102
RTVSPropertyOp6
 70
     1
102
RTVSPropertyOp7
 70
     1
102
RTVSPropertyOp8
 70
     1
102
RTVSPropertyOp9
 70
     1
102
RTVSPropertyOp10
 70
     1
102
RTVSPropertyOp11
 70
     1
102
RTVSPropertyOp12
 70
     1
102
RTVSPropertyOp13
 70
     1
102
RTVSPropertyOp14
 70
     1
102
RTVSPropertyOp15
 70
     1
102
RTVSPropertyOp16
 70
     1
102
RTVSPropertyOp17
 70
     1
102
RTVSPropertyOp18
 70
     1
102
RTVSPropertyOp19
 70
     1
102
RTVSPropertyOp20
 70
     1
102
RTVSPropertyOp21
 70
     1
102
RTVSPropertyOp22
 70
     1
102
RTVSPropertyOp23
 70
     1
102
RTVSPropertyOp24
 70
     1
102
RTVSPropertyOp25
 70
     1
102
RTVSPropertyOp26
 70
     1
102
RTVSPropertyOp27
 70
     1
102
RTVSPropertyOp28
 70
     1
102
RTVSPropertyOp29
 70
     1
102
RTVSPropertyOp30
 70
     1
102
RTVSPropertyOp31
 70
     1
102
RTVSPropertyOp32
 70
     1
  0
XRECORD
  5
7A08
102
{ACAD_REACTORS
330
7A07
102
}
330
7A07
100
AcDbXrecord
280
     1
102
RTVSPropertyOp0
 70
     1
102
RTVSPropertyOp1
 70
     1
102
RTVSPropertyOp2
 70
     1
102
RTVSPropertyOp3
 70
     1
102
RTVSPropertyOp4
 70
     1
102
RTVSPropertyOp5
 70
     1
102
RTVSPropertyOp6
 70
     1
102
RTVSPropertyOp7
 70
     1
102
RTVSPropertyOp8
 70
     1
102
RTVSPropertyOp9
 70
     1
102
RTVSPropertyOp10
 70
     1
102
RTVSPropertyOp11
 70
     1
102
RTVSPropertyOp12
 70
     1
102
RTVSPropertyOp13
 70
     1
102
RTVSPropertyOp14
 70
     1
102
RTVSPropertyOp15
 70
     1
102
RTVSPropertyOp16
 70
     1
102
RTVSPropertyOp17
 70
     1
102
RTVSPropertyOp18
 70
     1
102
RTVSPropertyOp19
 70
     1
102
RTVSPropertyOp20
 70
     1
102
RTVSPropertyOp21
 70
     1
102
RTVSPropertyOp22
 70
     1
102
RTVSPropertyOp23
 70
     1
102
RTVSPropertyOp24
 70
     1
102
RTVSPropertyOp25
 70
     1
102
RTVSPropertyOp26
 70
     1
102
RTVSPropertyOp27
 70
     1
102
RTVSPropertyOp28
 70
     1
102
RTVSPropertyOp29
 70
     1
102
RTVSPropertyOp30
 70
     1
102
RTVSPropertyOp31
 70
     1
102
RTVSPropertyOp32
 70
     1
  0
XRECORD
  5
7A02
102
{ACAD_REACTORS
330
7A01
102
}
330
7A01
100
AcDbXrecord
280
     1
102
RTVSPropertyOp0
 70
     1
102
RTVSPropertyOp1
 70
     1
102
RTVSPropertyOp2
 70
     1
102
RTVSPropertyOp3
 70
     1
102
RTVSPropertyOp4
 70
     1
102
RTVSPropertyOp5
 70
     1
102
RTVSPropertyOp6
 70
     1
102
RTVSPropertyOp7
 70
     1
102
RTVSPropertyOp8
 70
     1
102
RTVSPropertyOp9
 70
     1
102
RTVSPropertyOp10
 70
     1
102
RTVSPropertyOp11
 70
     1
102
RTVSPropertyOp12
 70
     1
102
RTVSPropertyOp13
 70
     1
102
RTVSPropertyOp14
 70
     1
102
RTVSPropertyOp15
 70
     1
102
RTVSPropertyOp16
 70
     1
102
RTVSPropertyOp17
 70
     1
102
RTVSPropertyOp18
 70
     1
102
RTVSPropertyOp19
 70
     1
102
RTVSPropertyOp20
 70
     1
102
RTVSPropertyOp21
 70
     1
102
RTVSPropertyOp22
 70
     1
102
RTVSPropertyOp23
 70
     1
102
RTVSPropertyOp24
 70
     1
102
RTVSPropertyOp25
 70
     1
102
RTVSPropertyOp26
 70
     1
102
RTVSPropertyOp27
 70
     1
102
RTVSPropertyOp28
 70
     1
102
RTVSPropertyOp29
 70
     1
102
RTVSPropertyOp30
 70
     1
102
RTVSPropertyOp31
 70
     1
102
RTVSPropertyOp32
 70
     1
  0
XRECORD
  5
7A04
102
{ACAD_REACTORS
330
7A03
102
}
330
7A03
100
AcDbXrecord
280
     1
102
RTVSPropertyOp0
 70
     1
102
RTVSPropertyOp1
 70
     1
102
RTVSPropertyOp2
 70
     1
102
RTVSPropertyOp3
 70
     1
102
RTVSPropertyOp4
 70
     1
102
RTVSPropertyOp5
 70
     1
102
RTVSPropertyOp6
 70
     1
102
RTVSPropertyOp7
 70
     1
102
RTVSPropertyOp8
 70
     1
102
RTVSPropertyOp9
 70
     1
102
RTVSPropertyOp10
 70
     1
102
RTVSPropertyOp11
 70
     1
102
RTVSPropertyOp12
 70
     1
102
RTVSPropertyOp13
 70
     1
102
RTVSPropertyOp14
 70
     1
102
RTVSPropertyOp15
 70
     1
102
RTVSPropertyOp16
 70
     1
102
RTVSPropertyOp17
 70
     1
102
RTVSPropertyOp18
 70
     1
102
RTVSPropertyOp19
 70
     1
102
RTVSPropertyOp20
 70
     1
102
RTVSPropertyOp21
 70
     1
102
RTVSPropertyOp22
 70
     1
102
RTVSPropertyOp23
 70
     1
102
RTVSPropertyOp24
 70
     1
102
RTVSPropertyOp25
 70
     1
102
RTVSPropertyOp26
 70
     1
102
RTVSPropertyOp27
 70
     1
102
RTVSPropertyOp28
 70
     1
102
RTVSPropertyOp29
 70
     1
102
RTVSPropertyOp30
 70
     1
102
RTVSPropertyOp31
 70
     1
102
RTVSPropertyOp32
 70
     1
  0
XRECORD
  5
79FA
102
{ACAD_REACTORS
330
79F9
102
}
330
79F9
100
AcDbXrecord
280
     1
102
RTVSPropertyOp0
 70
     1
102
RTVSPropertyOp1
 70
     1
102
RTVSPropertyOp2
 70
     1
102
RTVSPropertyOp3
 70
     1
102
RTVSPropertyOp4
 70
     1
102
RTVSPropertyOp5
 70
     1
102
RTVSPropertyOp6
 70
     1
102
RTVSPropertyOp7
 70
     1
102
RTVSPropertyOp8
 70
     1
102
RTVSPropertyOp9
 70
     1
102
RTVSPropertyOp10
 70
     1
102
RTVSPropertyOp11
 70
     1
102
RTVSPropertyOp12
 70
     1
102
RTVSPropertyOp13
 70
     1
102
RTVSPropertyOp14
 70
     1
102
RTVSPropertyOp15
 70
     1
102
RTVSPropertyOp16
 70
     1
102
RTVSPropertyOp17
 70
     1
102
RTVSPropertyOp18
 70
     1
102
RTVSPropertyOp19
 70
     1
102
RTVSPropertyOp20
 70
     1
102
RTVSPropertyOp21
 70
     1
102
RTVSPropertyOp22
 70
     1
102
RTVSPropertyOp23
 70
     1
102
RTVSPropertyOp24
 70
     1
102
RTVSPropertyOp25
 70
     1
102
RTVSPropertyOp26
 70
     1
102
RTVSPropertyOp27
 70
     1
102
RTVSPropertyOp28
 70
     1
102
RTVSPropertyOp29
 70
     1
102
RTVSPropertyOp30
 70
     1
102
RTVSPropertyOp31
 70
     1
102
RTVSPropertyOp32
 70
     1
  0
XRECORD
  5
79EE
102
{ACAD_REACTORS
330
79ED
102
}
330
79ED
100
AcDbXrecord
280
     1
102
RTVSPropertyOp0
 70
     1
102
RTVSPropertyOp1
 70
     1
102
RTVSPropertyOp2
 70
     1
102
RTVSPropertyOp3
 70
     1
102
RTVSPropertyOp4
 70
     1
102
RTVSPropertyOp5
 70
     1
102
RTVSPropertyOp6
 70
     1
102
RTVSPropertyOp7
 70
     1
102
RTVSPropertyOp8
 70
     1
102
RTVSPropertyOp9
 70
     1
102
RTVSPropertyOp10
 70
     1
102
RTVSPropertyOp11
 70
     1
102
RTVSPropertyOp12
 70
     1
102
RTVSPropertyOp13
 70
     1
102
RTVSPropertyOp14
 70
     1
102
RTVSPropertyOp15
 70
     1
102
RTVSPropertyOp16
 70
     1
102
RTVSPropertyOp17
 70
     1
102
RTVSPropertyOp18
 70
     1
102
RTVSPropertyOp19
 70
     1
102
RTVSPropertyOp20
 70
     1
102
RTVSPropertyOp21
 70
     1
102
RTVSPropertyOp22
 70
     1
102
RTVSPropertyOp23
 70
     1
102
RTVSPropertyOp24
 70
     1
102
RTVSPropertyOp25
 70
     1
102
RTVSPropertyOp26
 70
     1
102
RTVSPropertyOp27
 70
     1
102
RTVSPropertyOp28
 70
     1
102
RTVSPropertyOp29
 70
     1
102
RTVSPropertyOp30
 70
     1
102
RTVSPropertyOp31
 70
     1
102
RTVSPropertyOp32
 70
     1
  0
XRECORD
  5
7A06
102
{ACAD_REACTORS
330
7A05
102
}
330
7A05
100
AcDbXrecord
280
     1
102
RTVSPropertyOp0
 70
     1
102
RTVSPropertyOp1
 70
     1
102
RTVSPropertyOp2
 70
     1
102
RTVSPropertyOp3
 70
     1
102
RTVSPropertyOp4
 70
     1
102
RTVSPropertyOp5
 70
     1
102
RTVSPropertyOp6
 70
     1
102
RTVSPropertyOp7
 70
     1
102
RTVSPropertyOp8
 70
     1
102
RTVSPropertyOp9
 70
     1
102
RTVSPropertyOp10
 70
     1
102
RTVSPropertyOp11
 70
     1
102
RTVSPropertyOp12
 70
     1
102
RTVSPropertyOp13
 70
     1
102
RTVSPropertyOp14
 70
     1
102
RTVSPropertyOp15
 70
     1
102
RTVSPropertyOp16
 70
     1
102
RTVSPropertyOp17
 70
     1
102
RTVSPropertyOp18
 70
     1
102
RTVSPropertyOp19
 70
     1
102
RTVSPropertyOp20
 70
     1
102
RTVSPropertyOp21
 70
     1
102
RTVSPropertyOp22
 70
     1
102
RTVSPropertyOp23
 70
     1
102
RTVSPropertyOp24
 70
     1
102
RTVSPropertyOp25
 70
     1
102
RTVSPropertyOp26
 70
     1
102
RTVSPropertyOp27
 70
     1
102
RTVSPropertyOp28
 70
     1
102
RTVSPropertyOp29
 70
     1
102
RTVSPropertyOp30
 70
     1
102
RTVSPropertyOp31
 70
     1
102
RTVSPropertyOp32
 70
     1
  0
ENDSEC
  0
EOF
