  0
SECTION
  2
HEADER
  9
$ACADVER
  1
AC1015
  9
$ACADMAINTVER
 70
    20
  9
$DWGCODEPAGE
  3
ANSI_932
  9
$INSBASE
 10
0.0
 20
0.0
 30
0.0
  9
$EXTMIN
 10
73.01539837180847
 20
5.68465909090644
 30
0.0
  9
$EXTMAX
 10
741.8444524653567
 20
533.6172876331622
 30
0.0
  9
$LIMMIN
 10
0.0
 20
0.0
  9
$LIMMAX
 10
420.0
 20
297.0
  9
$ORTHOMODE
 70
     0
  9
$REGENMODE
 70
     1
  9
$FILLMODE
 70
     1
  9
$QTEXTMODE
 70
     0
  9
$MIRRTEXT
 70
     1
  9
$LTSCALE
 40
1.0
  9
$ATTMODE
 70
     1
  9
$TEXTSIZE
 40
2.5
  9
$TRACEWID
 40
1.0
  9
$TEXTSTYLE
  7
Standard
  9
$CLAYER
  8
実線  太
  9
$CELTYPE
  6
ByLayer
  9
$CECOLOR
 62
   256
  9
$CELTSCALE
 40
1.0
  9
$DISPSILH
 70
     0
  9
$DIMSCALE
 40
3.0
  9
$DIMASZ
 40
3.9
  9
$DIMEXO
 40
2.1
  9
$DIMDLI
 40
0.0
  9
$DIMRND
 40
0.0
  9
$DIMDLE
 40
0.0
  9
$DIMEXE
 40
0.0
  9
$DIMTP
 40
0.0
  9
$DIMTM
 40
0.0
  9
$DIMTXT
 40
2.5
  9
$DIMCEN
 40
2.5
  9
$DIMTSZ
 40
0.0
  9
$DIMTOL
 70
     0
  9
$DIMLIM
 70
     0
  9
$DIMTIH
 70
     0
  9
$DIMTOH
 70
     0
  9
$DIMSE1
 70
     0
  9
$DIMSE2
 70
     0
  9
$DIMTAD
 70
     1
  9
$DIMZIN
 70
     9
  9
$DIMBLK
  1
DotSmall
  9
$DIMASO
 70
     1
  9
$DIMSHO
 70
     1
  9
$DIMPOST
  1

  9
$DIMAPOST
  1

  9
$DIMALT
 70
     0
  9
$DIMALTD
 70
     3
  9
$DIMALTF
 40
0.03937007874016
  9
$DIMLFAC
 40
1.0
  9
$DIMTOFL
 70
     1
  9
$DIMTVP
 40
0.0
  9
$DIMTIX
 70
     0
  9
$DIMSOXD
 70
     0
  9
$DIMSAH
 70
     0
  9
$DIMBLK1
  1

  9
$DIMBLK2
  1

  9
$DIMSTYLE
  2
ISO-25_3
  9
$DIMCLRD
 70
     0
  9
$DIMCLRE
 70
     0
  9
$DIMCLRT
 70
     7
  9
$DIMTFAC
 40
1.0
  9
$DIMGAP
 40
0.9
  9
$DIMJUST
 70
     0
  9
$DIMSD1
 70
     0
  9
$DIMSD2
 70
     0
  9
$DIMTOLJ
 70
     0
  9
$DIMTZIN
 70
     8
  9
$DIMALTZ
 70
     0
  9
$DIMALTTZ
 70
     0
  9
$DIMUPT
 70
     0
  9
$DIMDEC
 70
     1
  9
$DIMTDEC
 70
     1
  9
$DIMALTU
 70
     2
  9
$DIMALTTD
 70
     3
  9
$DIMTXSTY
  7
Standard
  9
$DIMAUNIT
 70
     0
  9
$DIMADEC
 70
     0
  9
$DIMALTRND
 40
0.0
  9
$DIMAZIN
 70
     0
  9
$DIMDSEP
 70
    46
  9
$DIMATFIT
 70
     3
  9
$DIMFRAC
 70
     0
  9
$DIMLDRBLK
  1

  9
$DIMLUNIT
 70
     2
  9
$DIMLWD
 70
    -2
  9
$DIMLWE
 70
    -2
  9
$DIMTMOVE
 70
     0
  9
$LUNITS
 70
     2
  9
$LUPREC
 70
     4
  9
$SKETCHINC
 40
1.0
  9
$FILLETRAD
 40
1.0
  9
$AUNITS
 70
     0
  9
$AUPREC
 70
     0
  9
$MENU
  1
.
  9
$ELEVATION
 40
0.0
  9
$PELEVATION
 40
0.0
  9
$THICKNESS
 40
0.0
  9
$LIMCHECK
 70
     0
  9
$CHAMFERA
 40
0.0
  9
$CHAMFERB
 40
0.0
  9
$CHAMFERC
 40
20.0
  9
$CHAMFERD
 40
0.0
  9
$SKPOLY
 70
     0
  9
$TDCREATE
 40
2452626.479274549
  9
$TDUCREATE
 40
2452626.104274548
  9
$TDUPDATE
 40
2456750.722229907
  9
$TDUUPDATE
 40
2456750.347229907
  9
$TDINDWG
 40
0.9569121181
  9
$TDUSRTIMER
 40
0.9569120602
  9
$USRTIMER
 70
     1
  9
$ANGBASE
 50
0.0
  9
$ANGDIR
 70
     0
  9
$PDMODE
 70
    99
  9
$PDSIZE
 40
-2.0
  9
$PLINEWID
 40
0.0
  9
$SPLFRAME
 70
     0
  9
$SPLINETYPE
 70
     6
  9
$SPLINESEGS
 70
     8
  9
$HANDSEED
  5
8107
  9
$SURFTAB1
 70
     6
  9
$SURFTAB2
 70
     6
  9
$SURFTYPE
 70
     6
  9
$SURFU
 70
     6
  9
$SURFV
 70
     6
  9
$UCSBASE
  2

  9
$UCSNAME
  2

  9
$UCSORG
 10
0.0
 20
0.0
 30
0.0
  9
$UCSXDIR
 10
1.0
 20
0.0
 30
0.0
  9
$UCSYDIR
 10
0.0
 20
1.0
 30
0.0
  9
$UCSORTHOREF
  2

  9
$UCSORTHOVIEW
 70
     0
  9
$UCSORGTOP
 10
0.0
 20
0.0
 30
0.0
  9
$UCSORGBOTTOM
 10
0.0
 20
0.0
 30
0.0
  9
$UCSORGLEFT
 10
0.0
 20
0.0
 30
0.0
  9
$UCSORGRIGHT
 10
0.0
 20
0.0
 30
0.0
  9
$UCSORGFRONT
 10
0.0
 20
0.0
 30
0.0
  9
$UCSORGBACK
 10
0.0
 20
0.0
 30
0.0
  9
$PUCSBASE
  2

  9
$PUCSNAME
  2

  9
$PUCSORG
 10
0.0
 20
0.0
 30
0.0
  9
$PUCSXDIR
 10
1.0
 20
0.0
 30
0.0
  9
$PUCSYDIR
 10
0.0
 20
1.0
 30
0.0
  9
$PUCSORTHOREF
  2

  9
$PUCSORTHOVIEW
 70
     0
  9
$PUCSORGTOP
 10
0.0
 20
0.0
 30
0.0
  9
$PUCSORGBOTTOM
 10
0.0
 20
0.0
 30
0.0
  9
$PUCSORGLEFT
 10
0.0
 20
0.0
 30
0.0
  9
$PUCSORGRIGHT
 10
0.0
 20
0.0
 30
0.0
  9
$PUCSORGFRONT
 10
0.0
 20
0.0
 30
0.0
  9
$PUCSORGBACK
 10
0.0
 20
0.0
 30
0.0
  9
$USERI1
 70
     0
  9
$USERI2
 70
     0
  9
$USERI3
 70
     0
  9
$USERI4
 70
     0
  9
$USERI5
 70
     0
  9
$USERR1
 40
0.0
  9
$USERR2
 40
0.0
  9
$USERR3
 40
0.0
  9
$USERR4
 40
0.0
  9
$USERR5
 40
0.0
  9
$WORLDVIEW
 70
     1
  9
$SHADEDGE
 70
     3
  9
$SHADEDIF
 70
    70
  9
$TILEMODE
 70
     1
  9
$MAXACTVP
 70
    64
  9
$PINSBASE
 10
0.0
 20
0.0
 30
0.0
  9
$PLIMCHECK
 70
     0
  9
$PEXTMIN
 10
28.84593157768251
 20
20.15066723823549
 30
0.0
  9
$PEXTMAX
 10
259.6133841991425
 20
181.3560051441192
 30
0.0
  9
$PLIMMIN
 10
-4.23333740234375
 20
-4.233333110809326
  9
$PLIMMAX
 10
292.6926574707031
 20
205.7399945259094
  9
$UNITMODE
 70
     0
  9
$VISRETAIN
 70
     1
  9
$PLINEGEN
 70
     0
  9
$PSLTSCALE
 70
     1
  9
$TREEDEPTH
 70
  3020
  9
$CMLSTYLE
  2
Standard
  9
$CMLJUST
 70
     0
  9
$CMLSCALE
 40
20.0
  9
$PROXYGRAPHICS
 70
     1
  9
$MEASUREMENT
 70
     1
  9
$CELWEIGHT
370
    -1
  9
$ENDCAPS
280
     0
  9
$JOINSTYLE
280
     0
  9
$LWDISPLAY
290
     0
  9
$INSUNITS
 70
     4
  9
$HYPERLINKBASE
  1

  9
$STYLESHEET
  1
MONOCHROME.CTB
  9
$XEDIT
290
     1
  9
$CEPSNTYPE
380
     0
  9
$PSTYLEMODE
290
     1
  9
$FINGERPRINTGUID
  2
{AEAF812E-8D80-486D-9611-5903FAC53DCD}
  9
$VERSIONGUID
  2
{BC6C0874-E6BD-45AD-8404-AE1A1846A6B1}
  9
$EXTNAMES
290
     1
  9
$PSVPSCALE
 40
0.0
  9
$OLESTARTUP
290
     0
  0
ENDSEC
  0
SECTION
  2
CLASSES
  0
CLASS
  1
ACDBDICTIONARYWDFLT
  2
AcDbDictionaryWithDefault
  3
ObjectDBX Classes
 90
        0
280
     0
281
     0
  0
CLASS
  1
ACDBPLACEHOLDER
  2
AcDbPlaceHolder
  3
ObjectDBX Classes
 90
        0
280
     0
281
     0
  0
CLASS
  1
LAYOUT
  2
AcDbLayout
  3
ObjectDBX Classes
 90
        0
280
     0
281
     0
  0
CLASS
  1
DICTIONARYVAR
  2
AcDbDictionaryVar
  3
ObjectDBX Classes
 90
        0
280
     0
281
     0
  0
CLASS
  1
MATERIAL
  2
AcDbMaterial
  3
ObjectDBX Classes
 90
     1153
280
     0
281
     0
  0
CLASS
  1
VISUALSTYLE
  2
AcDbVisualStyle
  3
ObjectDBX Classes
 90
     4095
280
     0
281
     0
  0
CLASS
  1
TABLESTYLE
  2
AcDbTableStyle
  3
ObjectDBX Classes
 90
     4095
280
     0
281
     0
  0
CLASS
  1
SCALE
  2
AcDbScale
  3
ObjectDBX Classes
 90
     1153
280
     0
281
     0
  0
CLASS
  1
MLEADERSTYLE
  2
AcDbMLeaderStyle
  3
ACDB_MLEADERSTYLE_CLASS
 90
     4095
280
     0
281
     0
  0
CLASS
  1
CELLSTYLEMAP
  2
AcDbCellStyleMap
  3
ObjectDBX Classes
 90
     1152
280
     0
281
     0
  0
CLASS
  1
SORTENTSTABLE
  2
AcDbSortentsTable
  3
ObjectDBX Classes
 90
        0
280
     0
281
     0
  0
CLASS
  1
ACDBASSOCACTION
  2
AcDbAssocAction
  3
ObjectDBX Classes
 90
    33793
280
     0
281
     0
  0
CLASS
  1
ACDBASSOCARRAYACTIONBODY
  2
AcDbAssocArrayActionBody
  3
ObjectDBX Classes
 90
    33793
280
     0
281
     0
  0
CLASS
  1
ACDBASSOCVERTEXACTIONPARAM
  2
AcDbAssocVertexActionParam
  3
ObjectDBX Classes
 90
    33793
280
     0
281
     0
  0
CLASS
  1
ACDBASSOCDEPENDENCY
  2
AcDbAssocDependency
  3
ObjectDBX Classes
 90
    33793
280
     0
281
     0
  0
CLASS
  1
ACDBASSOCARRAYPOLARPARAMETERS
  2
AcDbAssocArrayPolarParameters
  3
ObjectDBX Classes
 90
    33793
280
     0
281
     0
  0
CLASS
  1
ACDBASSOCNETWORK
  2
AcDbAssocNetwork
  3
ObjectDBX Classes
 90
    33793
280
     0
281
     0
  0
ENDSEC
  0
SECTION
  2
TABLES
  0
TABLE
  2
VPORT
  5
8
102
{ACAD_XDICTIONARY
360
6912
102
}
330
0
100
AcDbSymbolTable
 70
     1
  0
VPORT
  5
6387
330
8
100
AcDbSymbolTableRecord
100
AcDbViewportTableRecord
  2
*Active
 70
     0
 10
0.0
 20
0.0
 11
1.0
 21
1.0
 12
220.3121787315634
 22
22.4737203497001
 13
0.0
 23
0.0
 14
10.0
 24
10.0
 15
10.0
 25
10.0
 16
0.0
 26
0.0
 36
1.0
 17
0.0
 27
0.0
 37
0.0
 40
73.26579168618605
 41
3.862595419847328
 42
50.0
 43
0.0
 44
0.0
 50
0.0
 51
0.0
 71
     0
 72
 20000
 73
     1
 74
     0
 75
     0
 76
     0
 77
     0
 78
     0
281
     0
 65
     1
110
0.0
120
0.0
130
0.0
111
1.0
121
0.0
131
0.0
112
0.0
122
1.0
132
0.0
 79
     0
146
0.0
1001
ACAD_NAV_VCDISPLAY
1070
     3
  0
ENDTAB
  0
TABLE
  2
LTYPE
  5
5
330
0
100
AcDbSymbolTable
 70
     4
  0
LTYPE
  5
14
330
5
100
AcDbSymbolTableRecord
100
AcDbLinetypeTableRecord
  2
ByBlock
 70
     0
  3

 72
    65
 73
     0
 40
0.0
  0
LTYPE
  5
15
330
5
100
AcDbSymbolTableRecord
100
AcDbLinetypeTableRecord
  2
ByLayer
 70
     0
  3

 72
    65
 73
     0
 40
0.0
  0
LTYPE
  5
16
330
5
100
AcDbSymbolTableRecord
100
AcDbLinetypeTableRecord
  2
Continuous
 70
     0
  3
Solid line
 72
    65
 73
     0
 40
0.0
  0
LTYPE
  5
260
330
5
100
AcDbSymbolTableRecord
100
AcDbLinetypeTableRecord
  2
ACAD_ISO10W100
 70
     0
  3
ISO dash dot __ . __ . __ . __ . __ . __ . __ .
 72
    65
 73
     4
 40
18.0
 49
12.0
 74
     0
 49
-3.0
 74
     0
 49
0.0
 74
     0
 49
-3.0
 74
     0
  0
LTYPE
  5
2205
330
5
100
AcDbSymbolTableRecord
100
AcDbLinetypeTableRecord
  2
ACAD_ISO03W100
 70
     0
  3
ISO dash space __    __    __    __    __    __
 72
    65
 73
     2
 40
30.0
 49
12.0
 74
     0
 49
-18.0
 74
     0
  0
ENDTAB
  0
TABLE
  2
LAYER
  5
2
102
{ACAD_XDICTIONARY
360
322F
102
}
330
0
100
AcDbSymbolTable
 70
    10
  0
LAYER
  5
10
102
{ACAD_XDICTIONARY
360
6966
102
}
330
2
100
AcDbSymbolTableRecord
100
AcDbLayerTableRecord
  2
0
 70
     0
 62
     9
  6
Continuous
290
     0
370
    -3
390
F
  0
LAYER
  5
35
102
{ACAD_XDICTIONARY
360
6968
102
}
330
2
100
AcDbSymbolTableRecord
100
AcDbLayerTableRecord
  2
図面枠
 70
     0
 62
     5
  6
Continuous
370
    20
390
F
  0
LAYER
  5
37
102
{ACAD_XDICTIONARY
360
696C
102
}
330
2
100
AcDbSymbolTableRecord
100
AcDbLayerTableRecord
  2
寸法線
 70
     0
 62
    20
  6
Continuous
370
    13
390
F
  0
LAYER
  5
38
102
{ACAD_XDICTIONARY
360
696E
102
}
330
2
100
AcDbSymbolTableRecord
100
AcDbLayerTableRecord
  2
破線
 70
     0
 62
   221
  6
ACAD_ISO03W100
370
     5
390
F
  0
LAYER
  5
261
102
{ACAD_XDICTIONARY
360
6970
102
}
330
2
100
AcDbSymbolTableRecord
100
AcDbLayerTableRecord
  2
実線  太
 70
     0
 62
     7
  6
Continuous
370
    18
390
F
  0
LAYER
  5
262
102
{ACAD_XDICTIONARY
360
6972
102
}
330
2
100
AcDbSymbolTableRecord
100
AcDbLayerTableRecord
  2
通り芯
 70
     0
 62
    70
  6
ACAD_ISO10W100
370
     9
390
F
  0
LAYER
  5
263
102
{ACAD_XDICTIONARY
360
6974
102
}
330
2
100
AcDbSymbolTableRecord
100
AcDbLayerTableRecord
  2
実線  細
 70
     0
 62
   141
  6
Continuous
370
     5
390
F
  0
LAYER
  5
491
330
2
100
AcDbSymbolTableRecord
100
AcDbLayerTableRecord
  2
Defpoints
 70
     0
 62
     7
  6
Continuous
290
     0
370
    -3
390
F
  0
LAYER
  5
FA1
102
{ACAD_XDICTIONARY
360
6976
102
}
330
2
100
AcDbSymbolTableRecord
100
AcDbLayerTableRecord
  2
HAFELE
 70
     0
 62
   240
  6
Continuous
370
     0
390
F
  0
LAYER
  5
7791
330
2
100
AcDbSymbolTableRecord
100
AcDbLayerTableRecord
  2
用紙枠
 70
     0
 62
   204
  6
Continuous
290
     0
370
    -3
390
F
  0
ENDTAB
  0
TABLE
  2
STYLE
  5
3
330
0
100
AcDbSymbolTable
 70
     4
  0
STYLE
  5
11
330
3
100
AcDbSymbolTableRecord
100
AcDbTextStyleTableRecord
  2
Standard
 70
     0
 40
0.0
 41
1.0
 50
0.0
 71
     0
 42
2.5
  3

  4

1001
ACAD
1000
MS PGothic
1071
    32818
  0
STYLE
  5
39
330
3
100
AcDbSymbolTableRecord
100
AcDbTextStyleTableRecord
  2
CITYBLUEPRINT
 70
     0
 40
4.0
 41
1.5
 50
0.0
 71
     0
 42
4.0
  3
cityb___.ttf
  4

1001
ACAD
1000
CityBlueprint
1071
      514
  0
STYLE
  5
D18
330
3
100
AcDbSymbolTableRecord
100
AcDbTextStyleTableRecord
  2
STD
 70
     0
 40
0.0
 41
1.0
 50
0.0
 71
     0
 42
0.0
  3
txt
  4

  0
STYLE
  5
1880
330
3
100
AcDbSymbolTableRecord
100
AcDbTextStyleTableRecord
  2

 70
     1
 40
0.0
 41
1.0
 50
0.0
 71
     0
 42
2.5
  3
ltypeshp.shx
  4

  0
ENDTAB
  0
TABLE
  2
VIEW
  5
6
330
0
100
AcDbSymbolTable
 70
     0
  0
ENDTAB
  0
TABLE
  2
UCS
  5
7
330
0
100
AcDbSymbolTable
 70
     0
  0
ENDTAB
  0
TABLE
  2
APPID
  5
9
330
0
100
AcDbSymbolTable
 70
     9
  0
APPID
  5
12
330
9
100
AcDbSymbolTableRecord
100
AcDbRegAppTableRecord
  2
ACAD
 70
     0
  0
APPID
  5
63D9
330
9
100
AcDbSymbolTableRecord
100
AcDbRegAppTableRecord
  2
ACAD_NAV_VCDISPLAY
 70
     0
  0
APPID
  5
6654
330
9
100
AcDbSymbolTableRecord
100
AcDbRegAppTableRecord
  2
ACAD_EXEMPT_FROM_CAD_STANDARDS
 70
     0
  0
APPID
  5
68A8
330
9
100
AcDbSymbolTableRecord
100
AcDbRegAppTableRecord
  2
ACAD_DSTYLE_DIMJAG
 70
     0
  0
APPID
  5
68A9
330
9
100
AcDbSymbolTableRecord
100
AcDbRegAppTableRecord
  2
ACAD_DSTYLE_DIMBREAK
 70
     0
  0
APPID
  5
68AA
330
9
100
AcDbSymbolTableRecord
100
AcDbRegAppTableRecord
  2
ACAD_DSTYLE_DIMTALN
 70
     0
  0
APPID
  5
6958
330
9
100
AcDbSymbolTableRecord
100
AcDbRegAppTableRecord
  2
ACAD_MLEADERVER
 70
     0
  0
APPID
  5
6F1E
330
9
100
AcDbSymbolTableRecord
100
AcDbRegAppTableRecord
  2
AcAecLayerStandard
 70
     0
  0
APPID
  5
6F1F
330
9
100
AcDbSymbolTableRecord
100
AcDbRegAppTableRecord
  2
AcCmTransparency
 70
     0
  0
ENDTAB
  0
TABLE
  2
DIMSTYLE
  5
A
330
0
100
AcDbSymbolTable
 70
     2
100
AcDbDimStyleTable
 71
     2
340
69D0
340
27
  0
DIMSTYLE
105
27
102
{ACAD_REACTORS
330
7D2E
330
7D35
330
7D36
330
7D37
330
7D38
330
7D39
330
7D3A
330
7D3B
330
7D50
330
7D51
330
7D52
330
7DEF
102
}
330
A
100
AcDbSymbolTableRecord
100
AcDbDimStyleTableRecord
  2
ISO-25
 70
     0
 41
3.9
 42
2.1
 43
0.0
 44
0.0
 73
     0
 74
     0
 77
     1
 78
     9
140
2.5
141
2.5
143
0.03937007874016
147
0.9
171
     3
172
     1
178
     7
271
     1
272
     1
274
     3
283
     0
284
     8
340
11
342
2B
  0
DIMSTYLE
105
69D0
330
A
100
AcDbSymbolTableRecord
100
AcDbDimStyleTableRecord
  2
ISO-25_3
 70
     0
 40
3.0
 41
3.9
 42
2.1
 43
0.0
 44
0.0
 73
     0
 74
     0
 77
     1
 78
     9
140
2.5
141
2.5
143
0.03937007874016
147
0.9
171
     3
172
     1
178
     7
271
     1
272
     1
274
     3
283
     0
284
     8
340
11
342
2B
1001
ACAD_DSTYLE_DIMBREAK
1070
   391
1040
3.75
1001
ACAD_DSTYLE_DIMJAG
1070
   388
1040
1.5
1001
ACAD_DSTYLE_DIMTALN
1070
   392
1070
     0
  0
ENDTAB
  0
TABLE
  2
BLOCK_RECORD
  5
1
330
0
100
AcDbSymbolTable
 70
    52
  0
BLOCK_RECORD
  5
1F
102
{ACAD_XDICTIONARY
360
6430
102
}
330
1
100
AcDbSymbolTableRecord
100
AcDbBlockTableRecord
  2
*Model_Space
340
22
  0
BLOCK_RECORD
  5
23
330
1
100
AcDbSymbolTableRecord
100
AcDbBlockTableRecord
  2
*Paper_Space
340
26
  0
BLOCK_RECORD
  5
1B
330
1
100
AcDbSymbolTableRecord
100
AcDbBlockTableRecord
  2
*Paper_Space0
340
1E
  0
BLOCK_RECORD
  5
2B
330
1
100
AcDbSymbolTableRecord
100
AcDbBlockTableRecord
  2
_DotSmall
340
0
102
{BLKREFS
331
7706
331
7707
331
7712
331
7713
331
771E
331
771F
331
772A
331
772B
331
7736
331
7737
331
7742
331
7743
331
774E
331
774F
331
775A
331
775B
331
7766
331
7767
331
7772
331
7773
331
777E
331
777F
331
778A
331
778B
331
7EF7
331
7EF8
331
7C40
331
7C4B
331
7C4C
331
7C57
331
7C58
331
7F7E
331
7F7F
331
7F87
331
7F88
331
7F90
331
7F91
331
7F99
331
7F9A
331
7FA2
331
7FA3
331
7FAB
331
7FAC
331
7FB4
331
7FB5
331
7FBD
331
7FBE
331
7FC6
331
7FC7
331
7BD3
331
7BD4
331
7BDF
331
7BE0
331
7BEB
331
7BEC
331
7BF7
331
7BF8
331
7C03
331
7C04
331
7C0F
331
7C10
331
7C1B
331
7C1C
331
7C27
331
7C28
331
7C33
331
7C34
331
7C3F
331
7F00
331
7F01
331
7F09
331
7F0A
331
7F12
331
7F13
331
7F1B
331
7F1C
331
7F24
331
7F25
331
7F2D
331
7F2E
331
7F36
331
7F37
331
7F3F
331
7F40
331
7F48
331
7F49
331
7F51
331
7F52
331
7F5A
331
7F5B
331
7F63
331
7F64
331
7F6C
331
7F6D
331
7F75
331
7F76
102
}
  0
BLOCK_RECORD
  5
2F
330
1
100
AcDbSymbolTableRecord
100
AcDbBlockTableRecord
  2
DOT
340
0
310
2800000020000000200000000100080000000000000400000000000000000000000000000000000000000000000080000080000000808000800000008000800080800000C0C0C000C0DCC000F0CAA6000020400000206000002080000020A0000020C0000020E00000400000004020000040400000406000004080000040A0
310
000040C0000040E00000600000006020000060400000606000006080000060A0000060C0000060E00000800000008020000080400000806000008080000080A0000080C0000080E00000A0000000A0200000A0400000A0600000A0800000A0A00000A0C00000A0E00000C0000000C0200000C0400000C0600000C0800000C0
310
A00000C0C00000C0E00000E0000000E0200000E0400000E0600000E0800000E0A00000E0C00000E0E00040000000400020004000400040006000400080004000A0004000C0004000E00040200000402020004020400040206000402080004020A0004020C0004020E000404000004040200040404000404060004040800040
310
40A0004040C0004040E00040600000406020004060400040606000406080004060A0004060C0004060E00040800000408020004080400040806000408080004080A0004080C0004080E00040A0000040A0200040A0400040A0600040A0800040A0A00040A0C00040A0E00040C0000040C0200040C0400040C0600040C08000
310
40C0A00040C0C00040C0E00040E0000040E0200040E0400040E0600040E0800040E0A00040E0C00040E0E00080000000800020008000400080006000800080008000A0008000C0008000E00080200000802020008020400080206000802080008020A0008020C0008020E00080400000804020008040400080406000804080
310
008040A0008040C0008040E00080600000806020008060400080606000806080008060A0008060C0008060E00080800000808020008080400080806000808080008080A0008080C0008080E00080A0000080A0200080A0400080A0600080A0800080A0A00080A0C00080A0E00080C0000080C0200080C0400080C0600080C0
310
800080C0A00080C0C00080C0E00080E0000080E0200080E0400080E0600080E0800080E0A00080E0C00080E0E000C0000000C0002000C0004000C0006000C0008000C000A000C000C000C000E000C0200000C0202000C0204000C0206000C0208000C020A000C020C000C020E000C0400000C0402000C0404000C0406000C0
310
408000C040A000C040C000C040E000C0600000C0602000C0604000C0606000C0608000C060A000C060C000C060E000C0800000C0802000C0804000C0806000C0808000C080A000C080C000C080E000C0A00000C0A02000C0A04000C0A06000C0A08000C0A0A000C0A0C000C0A0E000C0C00000C0C02000C0C04000C0C06000
310
C0C08000C0C0A000F0FBFF00A4A0A000808080000000FF0000FF000000FFFF00FF000000FF00FF00FFFF0000FFFFFF00FFFFFFFFFFFFFFFFFFFFFFFFFFFFFFFFFFFFFFFFFFFFFFFFFFFFFFFFFFFFFFFFFFFFFFFFFFFFFFFFFFFFFFFFFFFFFFFFFFFFFFFFFFFFFFFFFFFFFFFFFFFFFFFFFFFFFFFFFFFFFFFFFFFFFFFFFFFFFF
310
FFFFFFFFFFFFFFFFFF00FFFFFFFFFFFFFFFFFFFFFFFFFFFFFFFFFFFFFFFFFFFFFFFFFFFFFFFFFFFF000000FFFFFFFFFFFFFFFFFFFFFFFFFFFFFFFFFFFFFFFFFFFFFFFFFFFFFFFF00FF00FF00FFFFFFFFFFFFFFFFFFFFFFFFFFFFFFFFFFFFFFFFFFFFFFFFFFFF00FFFF00FFFF00FFFFFFFFFFFFFFFFFFFFFFFFFFFFFFFFFFFF
310
FFFFFFFFFFFF00FFFFFF00FFFFFF00FFFFFFFFFFFFFFFFFFFFFFFFFFFFFFFFFFFFFFFFFFFF00FFFFFFFF00FFFFFFFF00FFFFFFFFFFFFFFFFFFFFFFFFFFFFFFFFFFFFFFFF00FFFFFFFFFF00FFFFFFFFFF00FFFFFFFFFFFFFFFFFFFFFFFFFFFFFFFFFFFF00FFFFFFFFFFFF00FFFFFFFFFFFF00FFFFFFFFFFFFFFFFFFFFFFFFFF
310
FFFFFF00FFFFFFFFFFFFFF00FFFFFFFFFFFFFFFFFFFFFFFFFFFFFFFFFFFFFFFFFFFF00FFFFFFFFFFFFFFFF00FFFFFFFFFFFFFFFFFFFFFFFFFFFFFFFFFFFFFFFFFF00FFFFFFFFFFFFFFFFFF00FFFFFFFFFFFFFFFFFFFFFFFFFFFFFFFFFFFFFFFF00FFFFFFFFFFFFFFFFFFFF00FFFFFFFFFFFFFFFFFFFFFFFFFFFFFFFFFFFFFF
310
00FFFFFFFFFFFFFFFFFFFF000000FFFFFFFFFFFFFFFFFFFFFFFFFFFFFFFFFF00FFFFFFFFFFFFFFFFFFFF00000000000000000000FF0000000000000000000000000000000000000000000000000000FFFFFFFFFFFFFFFFFFFFFFFFFFFFFFFF00FFFFFFFFFFFFFFFFFFFFFF000000FFFFFFFFFFFFFFFFFFFFFFFFFFFFFFFFFF
310
FF00FFFFFFFFFFFFFFFFFFFFFF00FFFFFFFFFFFFFFFFFFFFFFFFFFFFFFFFFFFFFFFF00FFFFFFFFFFFFFFFFFFFF00FFFFFFFFFFFFFFFFFFFFFFFFFFFFFFFFFFFFFFFFFF00FFFFFFFFFFFFFFFFFF00FFFFFFFFFFFFFFFFFFFFFFFFFFFFFFFFFFFFFFFFFFFF00FFFFFFFFFFFFFFFF00FFFFFFFFFFFFFFFFFFFFFFFFFFFFFFFFFF
310
FFFFFFFFFFFF0000FFFFFFFFFFFF00FFFFFFFFFFFF00FFFFFFFFFFFFFFFFFFFFFFFFFFFFFFFFFFFF00FFFFFFFFFF00FFFFFFFFFF00FFFFFFFFFFFFFFFFFFFFFFFFFFFFFFFFFFFFFFFF00FFFFFFFF00FFFFFFFF00FFFFFFFFFFFFFFFFFFFFFFFFFFFFFFFFFFFFFFFFFFFF00FFFFFF00FFFFFF00FFFFFFFFFFFFFFFFFFFFFFFF
310
FFFFFFFFFFFFFFFFFFFFFFFF00FFFF00FFFF00FFFFFFFFFFFFFFFFFFFFFFFFFFFFFFFFFFFFFFFFFFFFFFFFFFFF00FF00FF00FFFFFFFFFFFFFFFFFFFFFFFFFFFFFFFFFFFFFFFFFFFFFFFFFFFFFFFF000000FFFFFFFFFFFFFFFFFFFFFFFFFFFFFFFFFFFFFFFFFFFFFFFFFFFFFFFFFFFF00FFFFFFFFFFFFFFFFFFFFFFFFFFFFFF
310
FFFFFFFFFFFFFFFFFFFFFFFFFFFFFFFFFFFFFFFFFFFFFFFFFFFFFFFFFFFFFFFFFFFFFFFFFFFFFFFFFFFFFFFFFFFFFFFFFFFFFFFFFFFFFFFF
  0
BLOCK_RECORD
  5
7348
330
1
100
AcDbSymbolTableRecord
100
AcDbBlockTableRecord
  2
*U3
340
0
  0
BLOCK_RECORD
  5
7701
330
1
100
AcDbSymbolTableRecord
100
AcDbBlockTableRecord
  2
*D4
340
0
  0
BLOCK_RECORD
  5
770D
330
1
100
AcDbSymbolTableRecord
100
AcDbBlockTableRecord
  2
*D5
340
0
  0
BLOCK_RECORD
  5
7719
330
1
100
AcDbSymbolTableRecord
100
AcDbBlockTableRecord
  2
*D6
340
0
  0
BLOCK_RECORD
  5
7725
330
1
100
AcDbSymbolTableRecord
100
AcDbBlockTableRecord
  2
*D7
340
0
  0
BLOCK_RECORD
  5
7731
330
1
100
AcDbSymbolTableRecord
100
AcDbBlockTableRecord
  2
*D8
340
0
  0
BLOCK_RECORD
  5
773D
330
1
100
AcDbSymbolTableRecord
100
AcDbBlockTableRecord
  2
*D9
340
0
  0
BLOCK_RECORD
  5
7749
330
1
100
AcDbSymbolTableRecord
100
AcDbBlockTableRecord
  2
*D10
340
0
  0
BLOCK_RECORD
  5
7755
330
1
100
AcDbSymbolTableRecord
100
AcDbBlockTableRecord
  2
*D11
340
0
  0
BLOCK_RECORD
  5
7761
330
1
100
AcDbSymbolTableRecord
100
AcDbBlockTableRecord
  2
*D12
340
0
  0
BLOCK_RECORD
  5
776D
330
1
100
AcDbSymbolTableRecord
100
AcDbBlockTableRecord
  2
*D13
340
0
  0
BLOCK_RECORD
  5
7779
330
1
100
AcDbSymbolTableRecord
100
AcDbBlockTableRecord
  2
*D14
340
0
  0
BLOCK_RECORD
  5
7785
330
1
100
AcDbSymbolTableRecord
100
AcDbBlockTableRecord
  2
*D15
340
0
  0
BLOCK_RECORD
  5
7AD2
330
1
100
AcDbSymbolTableRecord
100
AcDbBlockTableRecord
  2
*D16
340
0
  0
BLOCK_RECORD
  5
7ADE
330
1
100
AcDbSymbolTableRecord
100
AcDbBlockTableRecord
  2
*D17
340
0
  0
BLOCK_RECORD
  5
7AEA
330
1
100
AcDbSymbolTableRecord
100
AcDbBlockTableRecord
  2
*D18
340
0
  0
BLOCK_RECORD
  5
7AF6
330
1
100
AcDbSymbolTableRecord
100
AcDbBlockTableRecord
  2
*D19
340
0
  0
BLOCK_RECORD
  5
7B02
330
1
100
AcDbSymbolTableRecord
100
AcDbBlockTableRecord
  2
*D20
340
0
  0
BLOCK_RECORD
  5
7B0E
330
1
100
AcDbSymbolTableRecord
100
AcDbBlockTableRecord
  2
*D21
340
0
  0
BLOCK_RECORD
  5
7B1A
330
1
100
AcDbSymbolTableRecord
100
AcDbBlockTableRecord
  2
*D22
340
0
  0
BLOCK_RECORD
  5
7B26
330
1
100
AcDbSymbolTableRecord
100
AcDbBlockTableRecord
  2
*D23
340
0
  0
BLOCK_RECORD
  5
7B32
330
1
100
AcDbSymbolTableRecord
100
AcDbBlockTableRecord
  2
*D24
340
0
  0
BLOCK_RECORD
  5
7B3E
330
1
100
AcDbSymbolTableRecord
100
AcDbBlockTableRecord
  2
*D25
340
0
  0
BLOCK_RECORD
  5
7B4A
330
1
100
AcDbSymbolTableRecord
100
AcDbBlockTableRecord
  2
*D26
340
0
  0
BLOCK_RECORD
  5
7B56
330
1
100
AcDbSymbolTableRecord
100
AcDbBlockTableRecord
  2
*D27
340
0
  0
BLOCK_RECORD
  5
7BCE
330
1
100
AcDbSymbolTableRecord
100
AcDbBlockTableRecord
  2
*D28
340
0
  0
BLOCK_RECORD
  5
7BDA
330
1
100
AcDbSymbolTableRecord
100
AcDbBlockTableRecord
  2
*D29
340
0
  0
BLOCK_RECORD
  5
7BE6
330
1
100
AcDbSymbolTableRecord
100
AcDbBlockTableRecord
  2
*D30
340
0
  0
BLOCK_RECORD
  5
7BF2
330
1
100
AcDbSymbolTableRecord
100
AcDbBlockTableRecord
  2
*D31
340
0
  0
BLOCK_RECORD
  5
7BFE
330
1
100
AcDbSymbolTableRecord
100
AcDbBlockTableRecord
  2
*D32
340
0
  0
BLOCK_RECORD
  5
7C0A
330
1
100
AcDbSymbolTableRecord
100
AcDbBlockTableRecord
  2
*D33
340
0
  0
BLOCK_RECORD
  5
7C16
330
1
100
AcDbSymbolTableRecord
100
AcDbBlockTableRecord
  2
*D34
340
0
  0
BLOCK_RECORD
  5
7C22
330
1
100
AcDbSymbolTableRecord
100
AcDbBlockTableRecord
  2
*D35
340
0
  0
BLOCK_RECORD
  5
7C2E
330
1
100
AcDbSymbolTableRecord
100
AcDbBlockTableRecord
  2
*D36
340
0
  0
BLOCK_RECORD
  5
7C3A
330
1
100
AcDbSymbolTableRecord
100
AcDbBlockTableRecord
  2
*D37
340
0
  0
BLOCK_RECORD
  5
7C46
330
1
100
AcDbSymbolTableRecord
100
AcDbBlockTableRecord
  2
*D38
340
0
  0
BLOCK_RECORD
  5
7C52
330
1
100
AcDbSymbolTableRecord
100
AcDbBlockTableRecord
  2
*D39
340
0
  0
BLOCK_RECORD
  5
7DF8
330
1
100
AcDbSymbolTableRecord
100
AcDbBlockTableRecord
  2
*D40
340
0
  0
BLOCK_RECORD
  5
7E04
330
1
100
AcDbSymbolTableRecord
100
AcDbBlockTableRecord
  2
*D41
340
0
  0
BLOCK_RECORD
  5
7E10
330
1
100
AcDbSymbolTableRecord
100
AcDbBlockTableRecord
  2
*D42
340
0
  0
BLOCK_RECORD
  5
7E1C
330
1
100
AcDbSymbolTableRecord
100
AcDbBlockTableRecord
  2
*D43
340
0
  0
BLOCK_RECORD
  5
7E28
330
1
100
AcDbSymbolTableRecord
100
AcDbBlockTableRecord
  2
*D44
340
0
  0
BLOCK_RECORD
  5
7E34
330
1
100
AcDbSymbolTableRecord
100
AcDbBlockTableRecord
  2
*D45
340
0
  0
BLOCK_RECORD
  5
7E40
330
1
100
AcDbSymbolTableRecord
100
AcDbBlockTableRecord
  2
*D46
340
0
  0
BLOCK_RECORD
  5
7E4C
330
1
100
AcDbSymbolTableRecord
100
AcDbBlockTableRecord
  2
*D47
340
0
  0
BLOCK_RECORD
  5
7E58
330
1
100
AcDbSymbolTableRecord
100
AcDbBlockTableRecord
  2
*D48
340
0
  0
BLOCK_RECORD
  5
7E64
330
1
100
AcDbSymbolTableRecord
100
AcDbBlockTableRecord
  2
*D49
340
0
  0
BLOCK_RECORD
  5
7E70
330
1
100
AcDbSymbolTableRecord
100
AcDbBlockTableRecord
  2
*D50
340
0
  0
BLOCK_RECORD
  5
7E7C
330
1
100
AcDbSymbolTableRecord
100
AcDbBlockTableRecord
  2
*D51
340
0
  0
ENDTAB
  0
ENDSEC
  0
SECTION
  2
BLOCKS
  0
BLOCK
  5
20
330
1F
100
AcDbEntity
  8
0
100
AcDbBlockBegin
  2
*Model_Space
 70
     0
 10
0.0
 20
0.0
 30
0.0
  3
*Model_Space
  1

  0
ENDBLK
  5
21
330
1F
100
AcDbEntity
  8
0
100
AcDbBlockEnd
  0
BLOCK
  5
24
330
23
100
AcDbEntity
 67
     1
  8
0
100
AcDbBlockBegin
  2
*Paper_Space
 70
     0
 10
0.0
 20
0.0
 30
0.0
  3
*Paper_Space
  1

  0
ENDBLK
  5
25
330
23
100
AcDbEntity
 67
     1
  8
0
100
AcDbBlockEnd
  0
BLOCK
  5
1C
330
1B
100
AcDbEntity
 67
     1
  8
0
100
AcDbBlockBegin
  2
*Paper_Space0
 70
     0
 10
0.0
 20
0.0
 30
0.0
  3
*Paper_Space0
  1

  0
VIEWPORT
  5
2835
102
{ACAD_XDICTIONARY
360
80CE
102
}
330
1B
100
AcDbEntity
 67
     1
  8
0
100
AcDbViewport
 10
145.0671538148211
 20
105.2792470596998
 30
0.0
 40
255.4768232678978
 41
146.5118883694624
 68
     0
 69
     0
 12
145.0671538148211
 22
105.2792470596998
 13
0.0
 23
0.0
 14
10.0
 24
10.0
 15
10.0
 25
10.0
 16
0.0
 26
0.0
 36
1.0
 17
0.0
 27
0.0
 37
0.0
 42
50.0
 43
0.0
 44
0.0
 45
146.5118883694624
 50
0.0
 51
0.0
 72
 20000
 90
    32800
  1

281
     0
 71
     1
 74
     0
110
0.0
120
0.0
130
0.0
111
1.0
121
0.0
131
0.0
112
0.0
122
1.0
132
0.0
 79
     0
146
0.0
  0
VIEWPORT
  5
2837
102
{ACAD_XDICTIONARY
360
80D0
102
}
330
1B
100
AcDbEntity
 67
     1
  8
実線  太
100
AcDbViewport
 10
144.2296578884125
 20
100.7533361911773
 30
0.0
 40
230.7674526214599
 41
161.2053379058837
 68
     0
 69
     0
 12
144.2273710473552
 22
92.63739313986013
 13
0.0
 23
0.0
 14
10.0
 24
10.0
 15
10.0
 25
10.0
 16
0.0
 26
0.0
 36
1.0
 17
0.0
 27
0.0
 37
0.0
 42
50.0
 43
0.0
 44
0.0
 45
237.262888478563
 50
0.0
 51
0.0
 72
 20000
 90
    32768
  1

281
     0
 71
     1
 74
     0
110
0.0
120
0.0
130
0.0
111
1.0
121
0.0
131
0.0
112
0.0
122
1.0
132
0.0
 79
     0
146
0.0
  0
ENDBLK
  5
1D
330
1B
100
AcDbEntity
 67
     1
  8
0
100
AcDbBlockEnd
  0
BLOCK
  5
2D
330
2B
100
AcDbEntity
  8
0
370
    18
100
AcDbBlockBegin
  2
_DotSmall
 70
     0
 10
0.0
 20
0.0
 30
0.0
  3
_DotSmall
  1

  0
LWPOLYLINE
  5
2C
330
2B
100
AcDbEntity
  8
0
 62
     0
370
    18
100
AcDbPolyline
 90
        2
 70
     1
 43
0.5
 10
-0.0625
 20
0.0
 42
1.0
 10
0.0625
 20
0.0
 42
1.0
  0
ENDBLK
  5
2E
330
2B
100
AcDbEntity
  8
0
370
    18
100
AcDbBlockEnd
  0
BLOCK
  5
32
330
2F
100
AcDbEntity
  8
0
100
AcDbBlockBegin
  2
DOT
 70
     0
 10
0.0
 20
0.0
 30
0.0
  3
DOT
  1

  0
LWPOLYLINE
  5
30
330
2F
100
AcDbEntity
  8
破線
  6
ByBlock
 62
     0
100
AcDbPolyline
 90
        2
 70
     1
 43
0.5
 10
-0.25
 20
0.0
 42
1.0
 10
0.25
 20
0.0
 42
1.0
  0
LINE
  5
31
330
2F
100
AcDbEntity
  8
破線
  6
ByBlock
 62
     0
100
AcDbLine
 10
-0.5
 20
0.0
 30
0.0
 11
-1.0
 21
0.0
 31
0.0
  0
ENDBLK
  5
33
330
2F
100
AcDbEntity
  8
0
100
AcDbBlockEnd
  0
BLOCK
  5
7349
330
7348
100
AcDbEntity
  8
0
100
AcDbBlockBegin
  2
*U3
 70
     1
 10
0.0
 20
0.0
 30
0.0
  3
*U3
  1

  0
CIRCLE
  5
734A
330
7348
100
AcDbEntity
  8
実線  太
100
AcDbCircle
 10
0.0000000000000284
 20
0.0
 30
0.0
 40
0.75
  0
ENDBLK
  5
734B
330
7348
100
AcDbEntity
  8
0
100
AcDbBlockEnd
  0
BLOCK
  5
7702
330
7701
100
AcDbEntity
  8
0
100
AcDbBlockBegin
  2
*D4
 70
     1
 10
0.0
 20
0.0
 30
0.0
  3
*D4
  1

  0
LINE
  5
7703
330
7701
100
AcDbEntity
  8
寸法線
 62
     0
370
    -2
100
AcDbLine
 10
143.4803983718096
 20
498.2322876331616
 30
0.0
 11
106.78039837181
 21
498.2322876331616
 31
0.0
  0
LINE
  5
7704
330
7701
100
AcDbEntity
  8
寸法線
 62
     0
370
    -2
100
AcDbLine
 10
146.4803983718099
 20
413.2332905349867
 30
0.0
 11
106.7803983718099
 21
413.2332905349867
 31
0.0
  0
LINE
  5
7705
330
7701
100
AcDbEntity
  8
寸法線
 62
     0
370
    -2
100
AcDbLine
 10
106.78039837181
 20
498.2322876331616
 30
0.0
 11
106.7803983718099
 21
413.2332905349867
 31
0.0
  0
INSERT
  5
7706
330
7701
100
AcDbEntity
  8
寸法線
 62
     0
370
    -2
100
AcDbBlockReference
  2
_DotSmall
 10
106.78039837181
 20
498.2322876331616
 30
0.0
 41
11.7
 42
11.7
 43
11.7
 50
90.0
  0
INSERT
  5
7707
330
7701
100
AcDbEntity
  8
寸法線
 62
     0
370
    -2
100
AcDbBlockReference
  2
_DotSmall
 10
106.7803983718099
 20
413.2332905349867
 30
0.0
 41
11.7
 42
11.7
 43
11.7
 50
270.0
  0
MTEXT
  5
7708
330
7701
100
AcDbEntity
  8
寸法線
 62
     7
100
AcDbMText
 10
100.3303983718099
 20
455.7327890840743
 30
0.0
 40
7.5
 41
0.0
 71
     5
 72
     1
  1
85
 11
0.0000000000000001
 21
1.0
 31
0.0
 73
     1
 44
1.0
1001
ACAD
1000
MTEXTBEGIN
1070
    73
1070
     1
1070
    44
1040
1.0
1070
    74
1070
     0
1000
MTEXTEND
  0
POINT
  5
7709
330
7701
100
AcDbEntity
  8
Defpoints
 62
     0
100
AcDbPoint
 10
149.7803983718097
 20
498.2322876331616
 30
0.0
  0
POINT
  5
770A
330
7701
100
AcDbEntity
  8
Defpoints
 62
     0
100
AcDbPoint
 10
152.7803983718099
 20
413.2332905349867
 30
0.0
  0
POINT
  5
770B
330
7701
100
AcDbEntity
  8
Defpoints
 62
     0
100
AcDbPoint
 10
106.7803983718099
 20
413.2332905349867
 30
0.0
  0
ENDBLK
  5
770C
330
7701
100
AcDbEntity
  8
0
100
AcDbBlockEnd
  0
BLOCK
  5
770E
330
770D
100
AcDbEntity
  8
0
100
AcDbBlockBegin
  2
*D5
 70
     1
 10
0.0
 20
0.0
 30
0.0
  3
*D5
  1

  0
LINE
  5
770F
330
770D
100
AcDbEntity
  8
寸法線
 62
     0
370
    -2
100
AcDbLine
 10
149.7803983718097
 20
489.5332905349866
 30
0.0
 11
149.7803983718097
 21
534.2322876331617
 31
0.0
  0
LINE
  5
7710
330
770D
100
AcDbEntity
  8
寸法線
 62
     0
370
    -2
100
AcDbLine
 10
485.7803983718101
 20
489.5332905349866
 30
0.0
 11
485.7803983718101
 21
534.2322876331617
 31
0.0
  0
LINE
  5
7711
330
770D
100
AcDbEntity
  8
寸法線
 62
     0
370
    -2
100
AcDbLine
 10
149.7803983718097
 20
534.2322876331617
 30
0.0
 11
485.7803983718101
 21
534.2322876331617
 31
0.0
  0
INSERT
  5
7712
330
770D
100
AcDbEntity
  8
寸法線
 62
     0
370
    -2
100
AcDbBlockReference
  2
_DotSmall
 10
149.7803983718097
 20
534.2322876331617
 30
0.0
 41
11.7
 42
11.7
 43
11.7
 50
180.0
  0
INSERT
  5
7713
330
770D
100
AcDbEntity
  8
寸法線
 62
     0
370
    -2
100
AcDbBlockReference
  2
_DotSmall
 10
485.7803983718101
 20
534.2322876331617
 30
0.0
 41
11.7
 42
11.7
 43
11.7
  0
MTEXT
  5
7714
330
770D
100
AcDbEntity
  8
寸法線
 62
     7
100
AcDbMText
 10
317.78039837181
 20
540.6822876331616
 30
0.0
 40
7.5
 41
0.0
 71
     5
 72
     1
  1
336
 73
     1
 44
1.0
1001
ACAD
1000
MTEXTBEGIN
1070
    73
1070
     1
1070
    44
1040
1.0
1070
    74
1070
     0
1000
MTEXTEND
  0
POINT
  5
7715
330
770D
100
AcDbEntity
  8
Defpoints
 62
     0
100
AcDbPoint
 10
149.7803983718097
 20
483.2332905349866
 30
0.0
  0
POINT
  5
7716
330
770D
100
AcDbEntity
  8
Defpoints
 62
     0
100
AcDbPoint
 10
485.7803983718101
 20
483.2332905349866
 30
0.0
  0
POINT
  5
7717
330
770D
100
AcDbEntity
  8
Defpoints
 62
     0
100
AcDbPoint
 10
485.7803983718101
 20
534.2322876331617
 30
0.0
  0
ENDBLK
  5
7718
330
770D
100
AcDbEntity
  8
0
100
AcDbBlockEnd
  0
BLOCK
  5
771A
330
7719
100
AcDbEntity
  8
0
100
AcDbBlockBegin
  2
*D6
 70
     1
 10
0.0
 20
0.0
 30
0.0
  3
*D6
  1

  0
LINE
  5
771B
330
7719
100
AcDbEntity
  8
寸法線
 62
     0
370
    -2
100
AcDbLine
 10
143.4803983718099
 20
385.1675764187912
 30
0.0
 11
106.78039837181
 21
385.1675764187913
 31
0.0
  0
LINE
  5
771C
330
7719
100
AcDbEntity
  8
寸法線
 62
     0
370
    -2
100
AcDbLine
 10
143.4803983718099
 20
111.1675764187912
 30
0.0
 11
106.7803983718099
 21
111.1675764187912
 31
0.0
  0
LINE
  5
771D
330
7719
100
AcDbEntity
  8
寸法線
 62
     0
370
    -2
100
AcDbLine
 10
106.78039837181
 20
385.1675764187913
 30
0.0
 11
106.7803983718099
 21
111.1675764187912
 31
0.0
  0
INSERT
  5
771E
330
7719
100
AcDbEntity
  8
寸法線
 62
     0
370
    -2
100
AcDbBlockReference
  2
_DotSmall
 10
106.78039837181
 20
385.1675764187913
 30
0.0
 41
11.7
 42
11.7
 43
11.7
 50
90.0
  0
INSERT
  5
771F
330
7719
100
AcDbEntity
  8
寸法線
 62
     0
370
    -2
100
AcDbBlockReference
  2
_DotSmall
 10
106.7803983718099
 20
111.1675764187912
 30
0.0
 41
11.7
 42
11.7
 43
11.7
 50
270.0
  0
MTEXT
  5
7720
330
7719
100
AcDbEntity
  8
寸法線
 62
     7
100
AcDbMText
 10
100.3303983718099
 20
248.1675764187913
 30
0.0
 40
7.5
 41
0.0
 71
     5
 72
     1
  1
274
 11
0.0000000000000001
 21
1.0
 31
0.0
 73
     1
 44
1.0
1001
ACAD
1000
MTEXTBEGIN
1070
    73
1070
     1
1070
    44
1040
1.0
1070
    74
1070
     0
1000
MTEXTEND
  0
POINT
  5
7721
330
7719
100
AcDbEntity
  8
Defpoints
 62
     0
100
AcDbPoint
 10
149.7803983718099
 20
385.1675764187912
 30
0.0
  0
POINT
  5
7722
330
7719
100
AcDbEntity
  8
Defpoints
 62
     0
100
AcDbPoint
 10
149.7803983718099
 20
111.1675764187912
 30
0.0
  0
POINT
  5
7723
330
7719
100
AcDbEntity
  8
Defpoints
 62
     0
100
AcDbPoint
 10
106.7803983718099
 20
111.1675764187912
 30
0.0
  0
ENDBLK
  5
7724
330
7719
100
AcDbEntity
  8
0
100
AcDbBlockEnd
  0
BLOCK
  5
7726
330
7725
100
AcDbEntity
  8
0
100
AcDbBlockBegin
  2
*D7
 70
     1
 10
0.0
 20
0.0
 30
0.0
  3
*D7
  1

  0
LINE
  5
7727
330
7725
100
AcDbEntity
  8
寸法線
 62
     0
370
    -2
100
AcDbLine
 10
469.0803983718098
 20
171.1675764187912
 30
0.0
 11
528.7803983718098
 21
171.1675764187912
 31
0.0
  0
LINE
  5
7728
330
7725
100
AcDbEntity
  8
寸法線
 62
     0
370
    -2
100
AcDbLine
 10
469.0803983718098
 20
291.1675764187912
 30
0.0
 11
528.7803983718098
 21
291.1675764187912
 31
0.0
  0
LINE
  5
7729
330
7725
100
AcDbEntity
  8
寸法線
 62
     0
370
    -2
100
AcDbLine
 10
528.7803983718098
 20
171.1675764187912
 30
0.0
 11
528.7803983718098
 21
291.1675764187912
 31
0.0
  0
INSERT
  5
772A
330
7725
100
AcDbEntity
  8
寸法線
 62
     0
370
    -2
100
AcDbBlockReference
  2
_DotSmall
 10
528.7803983718098
 20
171.1675764187912
 30
0.0
 41
11.7
 42
11.7
 43
11.7
 50
270.0
  0
INSERT
  5
772B
330
7725
100
AcDbEntity
  8
寸法線
 62
     0
370
    -2
100
AcDbBlockReference
  2
_DotSmall
 10
528.7803983718098
 20
291.1675764187912
 30
0.0
 41
11.7
 42
11.7
 43
11.7
 50
90.0
  0
MTEXT
  5
772C
330
7725
100
AcDbEntity
  8
寸法線
 62
     7
100
AcDbMText
 10
522.3303983718096
 20
231.1675764187913
 30
0.0
 40
7.5
 41
0.0
 71
     5
 72
     1
  1
120
 11
0.0000000000000001
 21
1.0
 31
0.0
 73
     1
 44
1.0
1001
ACAD
1000
MTEXTBEGIN
1070
    73
1070
     1
1070
    44
1040
1.0
1070
    74
1070
     0
1000
MTEXTEND
  0
POINT
  5
772D
330
7725
100
AcDbEntity
  8
Defpoints
 62
     0
100
AcDbPoint
 10
462.7803983718098
 20
171.1675764187912
 30
0.0
  0
POINT
  5
772E
330
7725
100
AcDbEntity
  8
Defpoints
 62
     0
100
AcDbPoint
 10
462.7803983718098
 20
291.1675764187912
 30
0.0
  0
POINT
  5
772F
330
7725
100
AcDbEntity
  8
Defpoints
 62
     0
100
AcDbPoint
 10
528.7803983718098
 20
291.1675764187912
 30
0.0
  0
ENDBLK
  5
7730
330
7725
100
AcDbEntity
  8
0
100
AcDbBlockEnd
  0
BLOCK
  5
7732
330
7731
100
AcDbEntity
  8
0
100
AcDbBlockBegin
  2
*D8
 70
     1
 10
0.0
 20
0.0
 30
0.0
  3
*D8
  1

  0
LINE
  5
7733
330
7731
100
AcDbEntity
  8
寸法線
 62
     0
370
    -2
100
AcDbLine
 10
716.3719524653586
 20
243.1675764187912
 30
0.0
 11
762.0719524653581
 21
243.1675764187912
 31
0.0
  0
LINE
  5
7734
330
7731
100
AcDbEntity
  8
寸法線
 62
     0
370
    -2
100
AcDbLine
 10
716.3719524653581
 20
258.1675764187912
 30
0.0
 11
762.0719524653583
 21
258.1675764187912
 31
0.0
  0
LINE
  5
7735
330
7731
100
AcDbEntity
  8
寸法線
 62
     0
370
    -2
100
AcDbLine
 10
762.0719524653581
 20
243.1675764187912
 30
0.0
 11
762.0719524653583
 21
258.1675764187912
 31
0.0
  0
INSERT
  5
7736
330
7731
100
AcDbEntity
  8
寸法線
 62
     0
370
    -2
100
AcDbBlockReference
  2
_DotSmall
 10
762.0719524653581
 20
243.1675764187912
 30
0.0
 41
11.7
 42
11.7
 43
11.7
 50
270.0
  0
INSERT
  5
7737
330
7731
100
AcDbEntity
  8
寸法線
 62
     0
370
    -2
100
AcDbBlockReference
  2
_DotSmall
 10
762.0719524653583
 20
258.1675764187912
 30
0.0
 41
11.7
 42
11.7
 43
11.7
 50
90.0
  0
MTEXT
  5
7738
330
7731
100
AcDbEntity
  8
寸法線
 62
     7
100
AcDbMText
 10
755.6219524653579
 20
250.6675764187913
 30
0.0
 40
7.5
 41
0.0
 71
     5
 72
     1
  1
15
 11
0.0000000000000001
 21
1.0
 31
0.0
 73
     1
 44
1.0
1001
ACAD
1000
MTEXTBEGIN
1070
    73
1070
     1
1070
    44
1040
1.0
1070
    74
1070
     0
1000
MTEXTEND
  0
POINT
  5
7739
330
7731
100
AcDbEntity
  8
Defpoints
 62
     0
100
AcDbPoint
 10
710.0719524653587
 20
243.1675764187912
 30
0.0
  0
POINT
  5
773A
330
7731
100
AcDbEntity
  8
Defpoints
 62
     0
100
AcDbPoint
 10
710.0719524653583
 20
258.1675764187912
 30
0.0
  0
POINT
  5
773B
330
7731
100
AcDbEntity
  8
Defpoints
 62
     0
100
AcDbPoint
 10
762.0719524653583
 20
258.1675764187912
 30
0.0
  0
ENDBLK
  5
773C
330
7731
100
AcDbEntity
  8
0
100
AcDbBlockEnd
  0
BLOCK
  5
773E
330
773D
100
AcDbEntity
  8
0
100
AcDbBlockBegin
  2
*D9
 70
     1
 10
0.0
 20
0.0
 30
0.0
  3
*D9
  1

  0
LINE
  5
773F
330
773D
100
AcDbEntity
  8
寸法線
 62
     0
370
    -2
100
AcDbLine
 10
716.3719524653581
 20
138.1675764187912
 30
0.0
 11
762.0719524653583
 21
138.1675764187912
 31
0.0
  0
LINE
  5
7740
330
773D
100
AcDbEntity
  8
寸法線
 62
     0
370
    -2
100
AcDbLine
 10
716.3719524653586
 20
243.1675764187912
 30
0.0
 11
762.0719524653583
 21
243.1675764187912
 31
0.0
  0
LINE
  5
7741
330
773D
100
AcDbEntity
  8
寸法線
 62
     0
370
    -2
100
AcDbLine
 10
762.0719524653583
 20
138.1675764187912
 30
0.0
 11
762.0719524653583
 21
243.1675764187912
 31
0.0
  0
INSERT
  5
7742
330
773D
100
AcDbEntity
  8
寸法線
 62
     0
370
    -2
100
AcDbBlockReference
  2
_DotSmall
 10
762.0719524653583
 20
138.1675764187912
 30
0.0
 41
11.7
 42
11.7
 43
11.7
 50
270.0
  0
INSERT
  5
7743
330
773D
100
AcDbEntity
  8
寸法線
 62
     0
370
    -2
100
AcDbBlockReference
  2
_DotSmall
 10
762.0719524653583
 20
243.1675764187912
 30
0.0
 41
11.7
 42
11.7
 43
11.7
 50
90.0
  0
MTEXT
  5
7744
330
773D
100
AcDbEntity
  8
寸法線
 62
     7
100
AcDbMText
 10
755.6219524653581
 20
190.6675764187913
 30
0.0
 40
7.5
 41
0.0
 71
     5
 72
     1
  1
105
 11
0.0000000000000001
 21
1.0
 31
0.0
 73
     1
 44
1.0
1001
ACAD
1000
MTEXTBEGIN
1070
    73
1070
     1
1070
    44
1040
1.0
1070
    74
1070
     0
1000
MTEXTEND
  0
POINT
  5
7745
330
773D
100
AcDbEntity
  8
Defpoints
 62
     0
100
AcDbPoint
 10
710.0719524653583
 20
138.1675764187912
 30
0.0
  0
POINT
  5
7746
330
773D
100
AcDbEntity
  8
Defpoints
 62
     0
100
AcDbPoint
 10
710.0719524653587
 20
243.1675764187912
 30
0.0
  0
POINT
  5
7747
330
773D
100
AcDbEntity
  8
Defpoints
 62
     0
100
AcDbPoint
 10
762.0719524653583
 20
243.1675764187912
 30
0.0
  0
ENDBLK
  5
7748
330
773D
100
AcDbEntity
  8
0
100
AcDbBlockEnd
  0
BLOCK
  5
774A
330
7749
100
AcDbEntity
  8
0
100
AcDbBlockBegin
  2
*D10
 70
     1
 10
0.0
 20
0.0
 30
0.0
  3
*D10
  1

  0
LINE
  5
774B
330
7749
100
AcDbEntity
  8
寸法線
 62
     0
370
    -2
100
AcDbLine
 10
716.3719524653581
 20
123.1675764187912
 30
0.0
 11
762.0719524653583
 21
123.1675764187912
 31
0.0
  0
LINE
  5
774C
330
7749
100
AcDbEntity
  8
寸法線
 62
     0
370
    -2
100
AcDbLine
 10
726.3719524653581
 20
108.1675764187912
 30
0.0
 11
762.0719524653583
 21
108.1675764187912
 31
0.0
  0
LINE
  5
774D
330
7749
100
AcDbEntity
  8
寸法線
 62
     0
370
    -2
100
AcDbLine
 10
762.0719524653583
 20
123.1675764187912
 30
0.0
 11
762.0719524653583
 21
108.1675764187912
 31
0.0
  0
INSERT
  5
774E
330
7749
100
AcDbEntity
  8
寸法線
 62
     0
370
    -2
100
AcDbBlockReference
  2
_DotSmall
 10
762.0719524653583
 20
123.1675764187912
 30
0.0
 41
11.7
 42
11.7
 43
11.7
 50
90.0
  0
INSERT
  5
774F
330
7749
100
AcDbEntity
  8
寸法線
 62
     0
370
    -2
100
AcDbBlockReference
  2
_DotSmall
 10
762.0719524653583
 20
108.1675764187912
 30
0.0
 41
11.7
 42
11.7
 43
11.7
 50
270.0
  0
MTEXT
  5
7750
330
7749
100
AcDbEntity
  8
寸法線
 62
     7
100
AcDbMText
 10
755.6219524653581
 20
115.6675764187913
 30
0.0
 40
7.5
 41
0.0
 71
     5
 72
     1
  1
15
 11
0.0000000000000001
 21
1.0
 31
0.0
 73
     1
 44
1.0
1001
ACAD
1000
MTEXTBEGIN
1070
    73
1070
     1
1070
    44
1040
1.0
1070
    74
1070
     0
1000
MTEXTEND
  0
POINT
  5
7751
330
7749
100
AcDbEntity
  8
Defpoints
 62
     0
100
AcDbPoint
 10
710.0719524653583
 20
123.1675764187912
 30
0.0
  0
POINT
  5
7752
330
7749
100
AcDbEntity
  8
Defpoints
 62
     0
100
AcDbPoint
 10
720.0719524653583
 20
108.1675764187912
 30
0.0
  0
POINT
  5
7753
330
7749
100
AcDbEntity
  8
Defpoints
 62
     0
100
AcDbPoint
 10
762.0719524653583
 20
108.1675764187912
 30
0.0
  0
ENDBLK
  5
7754
330
7749
100
AcDbEntity
  8
0
100
AcDbBlockEnd
  0
BLOCK
  5
7756
330
7755
100
AcDbEntity
  8
0
100
AcDbBlockBegin
  2
*D11
 70
     1
 10
0.0
 20
0.0
 30
0.0
  3
*D11
  1

  0
LINE
  5
7757
330
7755
100
AcDbEntity
  8
寸法線
 62
     0
370
    -2
100
AcDbLine
 10
703.0719524653583
 20
114.8675764187912
 30
0.0
 11
703.0719524653583
 21
78.1675764187912
 31
0.0
  0
LINE
  5
7758
330
7755
100
AcDbEntity
  8
寸法線
 62
     0
370
    -2
100
AcDbLine
 10
641.0719524653583
 20
116.8675764187912
 30
0.0
 11
641.0719524653583
 21
78.1675764187912
 31
0.0
  0
LINE
  5
7759
330
7755
100
AcDbEntity
  8
寸法線
 62
     0
370
    -2
100
AcDbLine
 10
703.0719524653583
 20
78.1675764187912
 30
0.0
 11
641.0719524653583
 21
78.1675764187912
 31
0.0
  0
INSERT
  5
775A
330
7755
100
AcDbEntity
  8
寸法線
 62
     0
370
    -2
100
AcDbBlockReference
  2
_DotSmall
 10
703.0719524653583
 20
78.1675764187912
 30
0.0
 41
11.7
 42
11.7
 43
11.7
  0
INSERT
  5
775B
330
7755
100
AcDbEntity
  8
寸法線
 62
     0
370
    -2
100
AcDbBlockReference
  2
_DotSmall
 10
641.0719524653583
 20
78.1675764187912
 30
0.0
 41
11.7
 42
11.7
 43
11.7
 50
180.0
  0
MTEXT
  5
775C
330
7755
100
AcDbEntity
  8
寸法線
 62
     7
100
AcDbMText
 10
672.071952465358
 20
84.61757641879122
 30
0.0
 40
7.5
 41
0.0
 71
     5
 72
     1
  1
62
 73
     1
 44
1.0
1001
ACAD
1000
MTEXTBEGIN
1070
    73
1070
     1
1070
    44
1040
1.0
1070
    74
1070
     0
1000
MTEXTEND
  0
POINT
  5
775D
330
7755
100
AcDbEntity
  8
Defpoints
 62
     0
100
AcDbPoint
 10
703.0719524653583
 20
121.1675764187912
 30
0.0
  0
POINT
  5
775E
330
7755
100
AcDbEntity
  8
Defpoints
 62
     0
100
AcDbPoint
 10
641.0719524653583
 20
123.1675764187912
 30
0.0
  0
POINT
  5
775F
330
7755
100
AcDbEntity
  8
Defpoints
 62
     0
100
AcDbPoint
 10
641.0719524653583
 20
78.1675764187912
 30
0.0
  0
ENDBLK
  5
7760
330
7755
100
AcDbEntity
  8
0
100
AcDbBlockEnd
  0
BLOCK
  5
7762
330
7761
100
AcDbEntity
  8
0
100
AcDbBlockBegin
  2
*D12
 70
     1
 10
0.0
 20
0.0
 30
0.0
  3
*D12
  1

  0
LINE
  5
7763
330
7761
100
AcDbEntity
  8
寸法線
 62
     0
370
    -2
100
AcDbLine
 10
703.0719524653583
 20
114.8675764187912
 30
0.0
 11
703.0719524653583
 21
78.1675764187912
 31
0.0
  0
LINE
  5
7764
330
7761
100
AcDbEntity
  8
寸法線
 62
     0
370
    -2
100
AcDbLine
 10
726.071952465358
 20
107.8675764187912
 30
0.0
 11
726.071952465358
 21
78.1675764187912
 31
0.0
  0
LINE
  5
7765
330
7761
100
AcDbEntity
  8
寸法線
 62
     0
370
    -2
100
AcDbLine
 10
703.0719524653583
 20
78.1675764187912
 30
0.0
 11
726.071952465358
 21
78.1675764187912
 31
0.0
  0
INSERT
  5
7766
330
7761
100
AcDbEntity
  8
寸法線
 62
     0
370
    -2
100
AcDbBlockReference
  2
_DotSmall
 10
703.0719524653583
 20
78.1675764187912
 30
0.0
 41
11.7
 42
11.7
 43
11.7
 50
180.0
  0
INSERT
  5
7767
330
7761
100
AcDbEntity
  8
寸法線
 62
     0
370
    -2
100
AcDbBlockReference
  2
_DotSmall
 10
726.071952465358
 20
78.1675764187912
 30
0.0
 41
11.7
 42
11.7
 43
11.7
  0
MTEXT
  5
7768
330
7761
100
AcDbEntity
  8
寸法線
 62
     7
100
AcDbMText
 10
714.5719524653583
 20
84.61757641879122
 30
0.0
 40
7.5
 41
0.0
 71
     5
 72
     1
  1
23
 73
     1
 44
1.0
1001
ACAD
1000
MTEXTBEGIN
1070
    73
1070
     1
1070
    44
1040
1.0
1070
    74
1070
     0
1000
MTEXTEND
  0
POINT
  5
7769
330
7761
100
AcDbEntity
  8
Defpoints
 62
     0
100
AcDbPoint
 10
703.0719524653583
 20
121.1675764187912
 30
0.0
  0
POINT
  5
776A
330
7761
100
AcDbEntity
  8
Defpoints
 62
     0
100
AcDbPoint
 10
726.071952465358
 20
114.1675764187912
 30
0.0
  0
POINT
  5
776B
330
7761
100
AcDbEntity
  8
Defpoints
 62
     0
100
AcDbPoint
 10
726.071952465358
 20
78.1675764187912
 30
0.0
  0
ENDBLK
  5
776C
330
7761
100
AcDbEntity
  8
0
100
AcDbBlockEnd
  0
BLOCK
  5
776E
330
776D
100
AcDbEntity
  8
0
100
AcDbBlockBegin
  2
*D13
 70
     1
 10
0.0
 20
0.0
 30
0.0
  3
*D13
  1

  0
LINE
  5
776F
330
776D
100
AcDbEntity
  8
寸法線
 62
     0
370
    -2
100
AcDbLine
 10
469.0803983718098
 20
171.1675764187912
 30
0.0
 11
528.7803983718098
 21
171.1675764187912
 31
0.0
  0
LINE
  5
7770
330
776D
100
AcDbEntity
  8
寸法線
 62
     0
370
    -2
100
AcDbLine
 10
492.08039837181
 20
108.1675764187912
 30
0.0
 11
528.7803983718098
 21
108.1675764187912
 31
0.0
  0
LINE
  5
7771
330
776D
100
AcDbEntity
  8
寸法線
 62
     0
370
    -2
100
AcDbLine
 10
528.7803983718098
 20
171.1675764187912
 30
0.0
 11
528.7803983718098
 21
108.1675764187912
 31
0.0
  0
INSERT
  5
7772
330
776D
100
AcDbEntity
  8
寸法線
 62
     0
370
    -2
100
AcDbBlockReference
  2
_DotSmall
 10
528.7803983718098
 20
171.1675764187912
 30
0.0
 41
11.7
 42
11.7
 43
11.7
 50
90.0
  0
INSERT
  5
7773
330
776D
100
AcDbEntity
  8
寸法線
 62
     0
370
    -2
100
AcDbBlockReference
  2
_DotSmall
 10
528.7803983718098
 20
108.1675764187912
 30
0.0
 41
11.7
 42
11.7
 43
11.7
 50
270.0
  0
MTEXT
  5
7774
330
776D
100
AcDbEntity
  8
寸法線
 62
     7
100
AcDbMText
 10
522.3303983718097
 20
139.6675764187913
 30
0.0
 40
7.5
 41
0.0
 71
     5
 72
     1
  1
63
 11
0.0000000000000001
 21
1.0
 31
0.0
 73
     1
 44
1.0
1001
ACAD
1000
MTEXTBEGIN
1070
    73
1070
     1
1070
    44
1040
1.0
1070
    74
1070
     0
1000
MTEXTEND
  0
POINT
  5
7775
330
776D
100
AcDbEntity
  8
Defpoints
 62
     0
100
AcDbPoint
 10
462.7803983718098
 20
171.1675764187912
 30
0.0
  0
POINT
  5
7776
330
776D
100
AcDbEntity
  8
Defpoints
 62
     0
100
AcDbPoint
 10
485.7803983718098
 20
108.1675764187912
 30
0.0
  0
POINT
  5
7777
330
776D
100
AcDbEntity
  8
Defpoints
 62
     0
100
AcDbPoint
 10
528.7803983718098
 20
108.1675764187912
 30
0.0
  0
ENDBLK
  5
7778
330
776D
100
AcDbEntity
  8
0
100
AcDbBlockEnd
  0
BLOCK
  5
777A
330
7779
100
AcDbEntity
  8
0
100
AcDbBlockBegin
  2
*D14
 70
     1
 10
0.0
 20
0.0
 30
0.0
  3
*D14
  1

  0
LINE
  5
777B
330
7779
100
AcDbEntity
  8
寸法線
 62
     0
370
    -2
100
AcDbLine
 10
142.7803983718099
 20
113.8675764187912
 30
0.0
 11
142.7803983718099
 21
78.1675764187912
 31
0.0
  0
LINE
  5
777C
330
7779
100
AcDbEntity
  8
寸法線
 62
     0
370
    -2
100
AcDbLine
 10
492.7803983718098
 20
113.8675764187912
 30
0.0
 11
492.7803983718098
 21
78.1675764187912
 31
0.0
  0
LINE
  5
777D
330
7779
100
AcDbEntity
  8
寸法線
 62
     0
370
    -2
100
AcDbLine
 10
142.7803983718099
 20
78.1675764187912
 30
0.0
 11
492.7803983718098
 21
78.1675764187912
 31
0.0
  0
INSERT
  5
777E
330
7779
100
AcDbEntity
  8
寸法線
 62
     0
370
    -2
100
AcDbBlockReference
  2
_DotSmall
 10
142.7803983718099
 20
78.1675764187912
 30
0.0
 41
11.7
 42
11.7
 43
11.7
 50
180.0
  0
INSERT
  5
777F
330
7779
100
AcDbEntity
  8
寸法線
 62
     0
370
    -2
100
AcDbBlockReference
  2
_DotSmall
 10
492.7803983718098
 20
78.1675764187912
 30
0.0
 41
11.7
 42
11.7
 43
11.7
  0
MTEXT
  5
7780
330
7779
100
AcDbEntity
  8
寸法線
 62
     7
100
AcDbMText
 10
317.78039837181
 20
84.61757641879122
 30
0.0
 40
7.5
 41
0.0
 71
     5
 72
     1
  1
350
 73
     1
 44
1.0
1001
ACAD
1000
MTEXTBEGIN
1070
    73
1070
     1
1070
    44
1040
1.0
1070
    74
1070
     0
1000
MTEXTEND
  0
POINT
  5
7781
330
7779
100
AcDbEntity
  8
Defpoints
 62
     0
100
AcDbPoint
 10
142.7803983718099
 20
120.1675764187912
 30
0.0
  0
POINT
  5
7782
330
7779
100
AcDbEntity
  8
Defpoints
 62
     0
100
AcDbPoint
 10
492.7803983718098
 20
120.1675764187912
 30
0.0
  0
POINT
  5
7783
330
7779
100
AcDbEntity
  8
Defpoints
 62
     0
100
AcDbPoint
 10
492.7803983718098
 20
78.1675764187912
 30
0.0
  0
ENDBLK
  5
7784
330
7779
100
AcDbEntity
  8
0
100
AcDbBlockEnd
  0
BLOCK
  5
7786
330
7785
100
AcDbEntity
  8
0
100
AcDbBlockBegin
  2
*D15
 70
     1
 10
0.0
 20
0.0
 30
0.0
  3
*D15
  1

  0
LINE
  5
7787
330
7785
100
AcDbEntity
  8
寸法線
 62
     0
370
    -2
100
AcDbLine
 10
716.3719524653581
 20
123.1675764187912
 30
0.0
 11
762.0719524653583
 21
123.1675764187912
 31
0.0
  0
LINE
  5
7788
330
7785
100
AcDbEntity
  8
寸法線
 62
     0
370
    -2
100
AcDbLine
 10
716.3719524653581
 20
138.1675764187912
 30
0.0
 11
762.0719524653583
 21
138.1675764187912
 31
0.0
  0
LINE
  5
7789
330
7785
100
AcDbEntity
  8
寸法線
 62
     0
370
    -2
100
AcDbLine
 10
762.0719524653583
 20
123.1675764187912
 30
0.0
 11
762.0719524653583
 21
138.1675764187912
 31
0.0
  0
INSERT
  5
778A
330
7785
100
AcDbEntity
  8
寸法線
 62
     0
370
    -2
100
AcDbBlockReference
  2
_DotSmall
 10
762.0719524653583
 20
123.1675764187912
 30
0.0
 41
11.7
 42
11.7
 43
11.7
 50
270.0
  0
INSERT
  5
778B
330
7785
100
AcDbEntity
  8
寸法線
 62
     0
370
    -2
100
AcDbBlockReference
  2
_DotSmall
 10
762.0719524653583
 20
138.1675764187912
 30
0.0
 41
11.7
 42
11.7
 43
11.7
 50
90.0
  0
MTEXT
  5
778C
330
7785
100
AcDbEntity
  8
寸法線
 62
     7
100
AcDbMText
 10
755.6219524653581
 20
130.6675764187913
 30
0.0
 40
7.5
 41
0.0
 71
     5
 72
     1
  1
15
 11
0.0000000000000001
 21
1.0
 31
0.0
 73
     1
 44
1.0
1001
ACAD
1000
MTEXTBEGIN
1070
    73
1070
     1
1070
    44
1040
1.0
1070
    74
1070
     0
1000
MTEXTEND
  0
POINT
  5
778D
330
7785
100
AcDbEntity
  8
Defpoints
 62
     0
100
AcDbPoint
 10
710.0719524653583
 20
123.1675764187912
 30
0.0
  0
POINT
  5
778E
330
7785
100
AcDbEntity
  8
Defpoints
 62
     0
100
AcDbPoint
 10
710.0719524653583
 20
138.1675764187912
 30
0.0
  0
POINT
  5
778F
330
7785
100
AcDbEntity
  8
Defpoints
 62
     0
100
AcDbPoint
 10
762.0719524653583
 20
138.1675764187912
 30
0.0
  0
ENDBLK
  5
7790
330
7785
100
AcDbEntity
  8
0
100
AcDbBlockEnd
  0
BLOCK
  5
7AD3
330
7AD2
100
AcDbEntity
  8
0
100
AcDbBlockBegin
  2
*D16
 70
     1
 10
0.0
 20
0.0
 30
0.0
  3
*D16
  1

  0
LINE
  5
7FC3
330
7AD2
100
AcDbEntity
  8
寸法線
 62
     0
370
    -2
100
AcDbLine
 10
1599.477567185945
 20
157.2331189037591
 30
0.0
 11
1659.177567185945
 21
157.233118903759
 31
0.0
  0
LINE
  5
7FC4
330
7AD2
100
AcDbEntity
  8
寸法線
 62
     0
370
    -2
100
AcDbLine
 10
1599.477567185945
 20
277.2331189037591
 30
0.0
 11
1659.177567185945
 21
277.2331189037591
 31
0.0
  0
LINE
  5
7FC5
330
7AD2
100
AcDbEntity
  8
寸法線
 62
     0
370
    -2
100
AcDbLine
 10
1659.177567185945
 20
157.233118903759
 30
0.0
 11
1659.177567185945
 21
277.2331189037591
 31
0.0
  0
INSERT
  5
7FC6
330
7AD2
100
AcDbEntity
  8
寸法線
 62
     0
370
    -2
100
AcDbBlockReference
  2
_DotSmall
 10
1659.177567185945
 20
157.233118903759
 30
0.0
 41
11.7
 42
11.7
 43
11.7
 50
270.0
  0
INSERT
  5
7FC7
330
7AD2
100
AcDbEntity
  8
寸法線
 62
     0
370
    -2
100
AcDbBlockReference
  2
_DotSmall
 10
1659.177567185945
 20
277.2331189037591
 30
0.0
 41
11.7
 42
11.7
 43
11.7
 50
90.0
  0
MTEXT
  5
7FC8
330
7AD2
100
AcDbEntity
  8
寸法線
 62
     7
100
AcDbMText
 10
1652.727567185945
 20
217.2331189037593
 30
0.0
 40
7.5
 41
0.0
 71
     5
 72
     1
  1
120
 11
0.0000000000000001
 21
1.0
 31
0.0
 73
     1
 44
1.0
1001
ACAD
1000
MTEXTBEGIN
1070
    73
1070
     1
1070
    44
1040
1.0
1070
    74
1070
     0
1000
MTEXTEND
  0
POINT
  5
7FC9
330
7AD2
100
AcDbEntity
  8
Defpoints
 62
     0
100
AcDbPoint
 10
1593.177567185945
 20
157.2331189037591
 30
0.0
  0
POINT
  5
7FCA
330
7AD2
100
AcDbEntity
  8
Defpoints
 62
     0
100
AcDbPoint
 10
1593.177567185945
 20
277.2331189037591
 30
0.0
  0
POINT
  5
7FCB
330
7AD2
100
AcDbEntity
  8
Defpoints
 62
     0
100
AcDbPoint
 10
1659.177567185945
 20
277.2331189037591
 30
0.0
  0
ENDBLK
  5
7AD4
330
7AD2
100
AcDbEntity
  8
0
100
AcDbBlockEnd
  0
BLOCK
  5
7ADF
330
7ADE
100
AcDbEntity
  8
0
100
AcDbBlockBegin
  2
*D17
 70
     1
 10
0.0
 20
0.0
 30
0.0
  3
*D17
  1

  0
LINE
  5
7FBA
330
7ADE
100
AcDbEntity
  8
寸法線
 62
     0
370
    -2
100
AcDbLine
 10
1846.769121279494
 20
229.2331189037591
 30
0.0
 11
1892.469121279494
 21
229.233118903759
 31
0.0
  0
LINE
  5
7FBB
330
7ADE
100
AcDbEntity
  8
寸法線
 62
     0
370
    -2
100
AcDbLine
 10
1846.769121279493
 20
244.2331189037591
 30
0.0
 11
1892.469121279494
 21
244.2331189037591
 31
0.0
  0
LINE
  5
7FBC
330
7ADE
100
AcDbEntity
  8
寸法線
 62
     0
370
    -2
100
AcDbLine
 10
1892.469121279494
 20
229.233118903759
 30
0.0
 11
1892.469121279494
 21
244.2331189037591
 31
0.0
  0
INSERT
  5
7FBD
330
7ADE
100
AcDbEntity
  8
寸法線
 62
     0
370
    -2
100
AcDbBlockReference
  2
_DotSmall
 10
1892.469121279494
 20
229.233118903759
 30
0.0
 41
11.7
 42
11.7
 43
11.7
 50
270.0
  0
INSERT
  5
7FBE
330
7ADE
100
AcDbEntity
  8
寸法線
 62
     0
370
    -2
100
AcDbBlockReference
  2
_DotSmall
 10
1892.469121279494
 20
244.2331189037591
 30
0.0
 41
11.7
 42
11.7
 43
11.7
 50
90.0
  0
MTEXT
  5
7FBF
330
7ADE
100
AcDbEntity
  8
寸法線
 62
     7
100
AcDbMText
 10
1886.019121279494
 20
236.7331189037594
 30
0.0
 40
7.5
 41
0.0
 71
     5
 72
     1
  1
15
 11
0.0000000000000001
 21
1.0
 31
0.0
 73
     1
 44
1.0
1001
ACAD
1000
MTEXTBEGIN
1070
    73
1070
     1
1070
    44
1040
1.0
1070
    74
1070
     0
1000
MTEXTEND
  0
POINT
  5
7FC0
330
7ADE
100
AcDbEntity
  8
Defpoints
 62
     0
100
AcDbPoint
 10
1840.469121279494
 20
229.2331189037591
 30
0.0
  0
POINT
  5
7FC1
330
7ADE
100
AcDbEntity
  8
Defpoints
 62
     0
100
AcDbPoint
 10
1840.469121279493
 20
244.2331189037591
 30
0.0
  0
POINT
  5
7FC2
330
7ADE
100
AcDbEntity
  8
Defpoints
 62
     0
100
AcDbPoint
 10
1892.469121279494
 20
244.2331189037591
 30
0.0
  0
ENDBLK
  5
7AE0
330
7ADE
100
AcDbEntity
  8
0
100
AcDbBlockEnd
  0
BLOCK
  5
7AEB
330
7AEA
100
AcDbEntity
  8
0
100
AcDbBlockBegin
  2
*D18
 70
     1
 10
0.0
 20
0.0
 30
0.0
  3
*D18
  1

  0
LINE
  5
7FB1
330
7AEA
100
AcDbEntity
  8
寸法線
 62
     0
370
    -2
100
AcDbLine
 10
1846.769121279493
 20
124.233118903759
 30
0.0
 11
1892.469121279494
 21
124.233118903759
 31
0.0
  0
LINE
  5
7FB2
330
7AEA
100
AcDbEntity
  8
寸法線
 62
     0
370
    -2
100
AcDbLine
 10
1846.769121279494
 20
229.2331189037591
 30
0.0
 11
1892.469121279494
 21
229.233118903759
 31
0.0
  0
LINE
  5
7FB3
330
7AEA
100
AcDbEntity
  8
寸法線
 62
     0
370
    -2
100
AcDbLine
 10
1892.469121279494
 20
124.233118903759
 30
0.0
 11
1892.469121279494
 21
229.233118903759
 31
0.0
  0
INSERT
  5
7FB4
330
7AEA
100
AcDbEntity
  8
寸法線
 62
     0
370
    -2
100
AcDbBlockReference
  2
_DotSmall
 10
1892.469121279494
 20
124.233118903759
 30
0.0
 41
11.7
 42
11.7
 43
11.7
 50
270.0
  0
INSERT
  5
7FB5
330
7AEA
100
AcDbEntity
  8
寸法線
 62
     0
370
    -2
100
AcDbBlockReference
  2
_DotSmall
 10
1892.469121279494
 20
229.233118903759
 30
0.0
 41
11.7
 42
11.7
 43
11.7
 50
90.0
  0
MTEXT
  5
7FB6
330
7AEA
100
AcDbEntity
  8
寸法線
 62
     7
100
AcDbMText
 10
1886.019121279494
 20
176.7331189037593
 30
0.0
 40
7.5
 41
0.0
 71
     5
 72
     1
  1
105
 11
0.0000000000000001
 21
1.0
 31
0.0
 73
     1
 44
1.0
1001
ACAD
1000
MTEXTBEGIN
1070
    73
1070
     1
1070
    44
1040
1.0
1070
    74
1070
     0
1000
MTEXTEND
  0
POINT
  5
7FB7
330
7AEA
100
AcDbEntity
  8
Defpoints
 62
     0
100
AcDbPoint
 10
1840.469121279493
 20
124.233118903759
 30
0.0
  0
POINT
  5
7FB8
330
7AEA
100
AcDbEntity
  8
Defpoints
 62
     0
100
AcDbPoint
 10
1840.469121279494
 20
229.2331189037591
 30
0.0
  0
POINT
  5
7FB9
330
7AEA
100
AcDbEntity
  8
Defpoints
 62
     0
100
AcDbPoint
 10
1892.469121279494
 20
229.233118903759
 30
0.0
  0
ENDBLK
  5
7AEC
330
7AEA
100
AcDbEntity
  8
0
100
AcDbBlockEnd
  0
BLOCK
  5
7AF7
330
7AF6
100
AcDbEntity
  8
0
100
AcDbBlockBegin
  2
*D19
 70
     1
 10
0.0
 20
0.0
 30
0.0
  3
*D19
  1

  0
LINE
  5
7FA8
330
7AF6
100
AcDbEntity
  8
寸法線
 62
     0
370
    -2
100
AcDbLine
 10
1846.769121279493
 20
109.2331189037591
 30
0.0
 11
1892.469121279494
 21
109.233118903759
 31
0.0
  0
LINE
  5
7FA9
330
7AF6
100
AcDbEntity
  8
寸法線
 62
     0
370
    -2
100
AcDbLine
 10
1856.769121279494
 20
94.23311890375908
 30
0.0
 11
1892.469121279494
 21
94.23311890375906
 31
0.0
  0
LINE
  5
7FAA
330
7AF6
100
AcDbEntity
  8
寸法線
 62
     0
370
    -2
100
AcDbLine
 10
1892.469121279494
 20
109.233118903759
 30
0.0
 11
1892.469121279494
 21
94.23311890375906
 31
0.0
  0
INSERT
  5
7FAB
330
7AF6
100
AcDbEntity
  8
寸法線
 62
     0
370
    -2
100
AcDbBlockReference
  2
_DotSmall
 10
1892.469121279494
 20
109.233118903759
 30
0.0
 41
11.7
 42
11.7
 43
11.7
 50
90.0
  0
INSERT
  5
7FAC
330
7AF6
100
AcDbEntity
  8
寸法線
 62
     0
370
    -2
100
AcDbBlockReference
  2
_DotSmall
 10
1892.469121279494
 20
94.23311890375906
 30
0.0
 41
11.7
 42
11.7
 43
11.7
 50
270.0
  0
MTEXT
  5
7FAD
330
7AF6
100
AcDbEntity
  8
寸法線
 62
     7
100
AcDbMText
 10
1886.019121279494
 20
101.7331189037594
 30
0.0
 40
7.5
 41
0.0
 71
     5
 72
     1
  1
15
 11
0.0000000000000001
 21
1.0
 31
0.0
 73
     1
 44
1.0
1001
ACAD
1000
MTEXTBEGIN
1070
    73
1070
     1
1070
    44
1040
1.0
1070
    74
1070
     0
1000
MTEXTEND
  0
POINT
  5
7FAE
330
7AF6
100
AcDbEntity
  8
Defpoints
 62
     0
100
AcDbPoint
 10
1840.469121279493
 20
109.2331189037591
 30
0.0
  0
POINT
  5
7FAF
330
7AF6
100
AcDbEntity
  8
Defpoints
 62
     0
100
AcDbPoint
 10
1850.469121279494
 20
94.23311890375908
 30
0.0
  0
POINT
  5
7FB0
330
7AF6
100
AcDbEntity
  8
Defpoints
 62
     0
100
AcDbPoint
 10
1892.469121279494
 20
94.23311890375906
 30
0.0
  0
ENDBLK
  5
7AF8
330
7AF6
100
AcDbEntity
  8
0
100
AcDbBlockEnd
  0
BLOCK
  5
7B03
330
7B02
100
AcDbEntity
  8
0
100
AcDbBlockBegin
  2
*D20
 70
     1
 10
0.0
 20
0.0
 30
0.0
  3
*D20
  1

  0
LINE
  5
7F9F
330
7B02
100
AcDbEntity
  8
寸法線
 62
     0
370
    -2
100
AcDbLine
 10
1833.469121279494
 20
100.9331189037591
 30
0.0
 11
1833.469121279494
 21
64.23311890375908
 31
0.0
  0
LINE
  5
7FA0
330
7B02
100
AcDbEntity
  8
寸法線
 62
     0
370
    -2
100
AcDbLine
 10
1771.469121279494
 20
102.9331189037591
 30
0.0
 11
1771.469121279494
 21
64.23311890375908
 31
0.0
  0
LINE
  5
7FA1
330
7B02
100
AcDbEntity
  8
寸法線
 62
     0
370
    -2
100
AcDbLine
 10
1833.469121279494
 20
64.23311890375908
 30
0.0
 11
1771.469121279494
 21
64.23311890375908
 31
0.0
  0
INSERT
  5
7FA2
330
7B02
100
AcDbEntity
  8
寸法線
 62
     0
370
    -2
100
AcDbBlockReference
  2
_DotSmall
 10
1833.469121279494
 20
64.23311890375908
 30
0.0
 41
11.7
 42
11.7
 43
11.7
  0
INSERT
  5
7FA3
330
7B02
100
AcDbEntity
  8
寸法線
 62
     0
370
    -2
100
AcDbBlockReference
  2
_DotSmall
 10
1771.469121279494
 20
64.23311890375908
 30
0.0
 41
11.7
 42
11.7
 43
11.7
 50
180.0
  0
MTEXT
  5
7FA4
330
7B02
100
AcDbEntity
  8
寸法線
 62
     7
100
AcDbMText
 10
1802.469121279494
 20
70.68311890375908
 30
0.0
 40
7.5
 41
0.0
 71
     5
 72
     1
  1
62
 73
     1
 44
1.0
1001
ACAD
1000
MTEXTBEGIN
1070
    73
1070
     1
1070
    44
1040
1.0
1070
    74
1070
     0
1000
MTEXTEND
  0
POINT
  5
7FA5
330
7B02
100
AcDbEntity
  8
Defpoints
 62
     0
100
AcDbPoint
 10
1833.469121279494
 20
107.2331189037591
 30
0.0
  0
POINT
  5
7FA6
330
7B02
100
AcDbEntity
  8
Defpoints
 62
     0
100
AcDbPoint
 10
1771.469121279494
 20
109.2331189037591
 30
0.0
  0
POINT
  5
7FA7
330
7B02
100
AcDbEntity
  8
Defpoints
 62
     0
100
AcDbPoint
 10
1771.469121279494
 20
64.23311890375908
 30
0.0
  0
ENDBLK
  5
7B04
330
7B02
100
AcDbEntity
  8
0
100
AcDbBlockEnd
  0
BLOCK
  5
7B0F
330
7B0E
100
AcDbEntity
  8
0
100
AcDbBlockBegin
  2
*D21
 70
     1
 10
0.0
 20
0.0
 30
0.0
  3
*D21
  1

  0
LINE
  5
7F96
330
7B0E
100
AcDbEntity
  8
寸法線
 62
     0
370
    -2
100
AcDbLine
 10
1833.469121279494
 20
100.9331189037591
 30
0.0
 11
1833.469121279494
 21
64.23311890375908
 31
0.0
  0
LINE
  5
7F97
330
7B0E
100
AcDbEntity
  8
寸法線
 62
     0
370
    -2
100
AcDbLine
 10
1856.469121279493
 20
93.93311890375908
 30
0.0
 11
1856.469121279493
 21
64.23311890375908
 31
0.0
  0
LINE
  5
7F98
330
7B0E
100
AcDbEntity
  8
寸法線
 62
     0
370
    -2
100
AcDbLine
 10
1833.469121279494
 20
64.23311890375908
 30
0.0
 11
1856.469121279493
 21
64.23311890375908
 31
0.0
  0
INSERT
  5
7F99
330
7B0E
100
AcDbEntity
  8
寸法線
 62
     0
370
    -2
100
AcDbBlockReference
  2
_DotSmall
 10
1833.469121279494
 20
64.23311890375908
 30
0.0
 41
11.7
 42
11.7
 43
11.7
 50
180.0
  0
INSERT
  5
7F9A
330
7B0E
100
AcDbEntity
  8
寸法線
 62
     0
370
    -2
100
AcDbBlockReference
  2
_DotSmall
 10
1856.469121279493
 20
64.23311890375908
 30
0.0
 41
11.7
 42
11.7
 43
11.7
  0
MTEXT
  5
7F9B
330
7B0E
100
AcDbEntity
  8
寸法線
 62
     7
100
AcDbMText
 10
1844.969121279494
 20
70.68311890375908
 30
0.0
 40
7.5
 41
0.0
 71
     5
 72
     1
  1
23
 73
     1
 44
1.0
1001
ACAD
1000
MTEXTBEGIN
1070
    73
1070
     1
1070
    44
1040
1.0
1070
    74
1070
     0
1000
MTEXTEND
  0
POINT
  5
7F9C
330
7B0E
100
AcDbEntity
  8
Defpoints
 62
     0
100
AcDbPoint
 10
1833.469121279494
 20
107.2331189037591
 30
0.0
  0
POINT
  5
7F9D
330
7B0E
100
AcDbEntity
  8
Defpoints
 62
     0
100
AcDbPoint
 10
1856.469121279493
 20
100.233118903759
 30
0.0
  0
POINT
  5
7F9E
330
7B0E
100
AcDbEntity
  8
Defpoints
 62
     0
100
AcDbPoint
 10
1856.469121279493
 20
64.23311890375908
 30
0.0
  0
ENDBLK
  5
7B10
330
7B0E
100
AcDbEntity
  8
0
100
AcDbBlockEnd
  0
BLOCK
  5
7B1B
330
7B1A
100
AcDbEntity
  8
0
100
AcDbBlockBegin
  2
*D22
 70
     1
 10
0.0
 20
0.0
 30
0.0
  3
*D22
  1

  0
LINE
  5
7F8D
330
7B1A
100
AcDbEntity
  8
寸法線
 62
     0
370
    -2
100
AcDbLine
 10
1599.477567185945
 20
157.2331189037591
 30
0.0
 11
1659.177567185945
 21
157.233118903759
 31
0.0
  0
LINE
  5
7F8E
330
7B1A
100
AcDbEntity
  8
寸法線
 62
     0
370
    -2
100
AcDbLine
 10
1622.477567185945
 20
94.23311890375908
 30
0.0
 11
1659.177567185945
 21
94.23311890375906
 31
0.0
  0
LINE
  5
7F8F
330
7B1A
100
AcDbEntity
  8
寸法線
 62
     0
370
    -2
100
AcDbLine
 10
1659.177567185945
 20
157.233118903759
 30
0.0
 11
1659.177567185945
 21
94.23311890375906
 31
0.0
  0
INSERT
  5
7F90
330
7B1A
100
AcDbEntity
  8
寸法線
 62
     0
370
    -2
100
AcDbBlockReference
  2
_DotSmall
 10
1659.177567185945
 20
157.233118903759
 30
0.0
 41
11.7
 42
11.7
 43
11.7
 50
90.0
  0
INSERT
  5
7F91
330
7B1A
100
AcDbEntity
  8
寸法線
 62
     0
370
    -2
100
AcDbBlockReference
  2
_DotSmall
 10
1659.177567185945
 20
94.23311890375906
 30
0.0
 41
11.7
 42
11.7
 43
11.7
 50
270.0
  0
MTEXT
  5
7F92
330
7B1A
100
AcDbEntity
  8
寸法線
 62
     7
100
AcDbMText
 10
1652.727567185945
 20
125.7331189037593
 30
0.0
 40
7.5
 41
0.0
 71
     5
 72
     1
  1
63
 11
0.0000000000000001
 21
1.0
 31
0.0
 73
     1
 44
1.0
1001
ACAD
1000
MTEXTBEGIN
1070
    73
1070
     1
1070
    44
1040
1.0
1070
    74
1070
     0
1000
MTEXTEND
  0
POINT
  5
7F93
330
7B1A
100
AcDbEntity
  8
Defpoints
 62
     0
100
AcDbPoint
 10
1593.177567185945
 20
157.2331189037591
 30
0.0
  0
POINT
  5
7F94
330
7B1A
100
AcDbEntity
  8
Defpoints
 62
     0
100
AcDbPoint
 10
1616.177567185945
 20
94.23311890375908
 30
0.0
  0
POINT
  5
7F95
330
7B1A
100
AcDbEntity
  8
Defpoints
 62
     0
100
AcDbPoint
 10
1659.177567185945
 20
94.23311890375906
 30
0.0
  0
ENDBLK
  5
7B1C
330
7B1A
100
AcDbEntity
  8
0
100
AcDbBlockEnd
  0
BLOCK
  5
7B27
330
7B26
100
AcDbEntity
  8
0
100
AcDbBlockBegin
  2
*D23
 70
     1
 10
0.0
 20
0.0
 30
0.0
  3
*D23
  1

  0
LINE
  5
7F84
330
7B26
100
AcDbEntity
  8
寸法線
 62
     0
370
    -2
100
AcDbLine
 10
1273.177567185945
 20
99.93311890375908
 30
0.0
 11
1273.177567185945
 21
64.23311890375908
 31
0.0
  0
LINE
  5
7F85
330
7B26
100
AcDbEntity
  8
寸法線
 62
     0
370
    -2
100
AcDbLine
 10
1623.177567185945
 20
99.93311890375908
 30
0.0
 11
1623.177567185945
 21
64.23311890375908
 31
0.0
  0
LINE
  5
7F86
330
7B26
100
AcDbEntity
  8
寸法線
 62
     0
370
    -2
100
AcDbLine
 10
1273.177567185945
 20
64.23311890375908
 30
0.0
 11
1623.177567185945
 21
64.23311890375908
 31
0.0
  0
INSERT
  5
7F87
330
7B26
100
AcDbEntity
  8
寸法線
 62
     0
370
    -2
100
AcDbBlockReference
  2
_DotSmall
 10
1273.177567185945
 20
64.23311890375908
 30
0.0
 41
11.7
 42
11.7
 43
11.7
 50
180.0
  0
INSERT
  5
7F88
330
7B26
100
AcDbEntity
  8
寸法線
 62
     0
370
    -2
100
AcDbBlockReference
  2
_DotSmall
 10
1623.177567185945
 20
64.23311890375908
 30
0.0
 41
11.7
 42
11.7
 43
11.7
  0
MTEXT
  5
7F89
330
7B26
100
AcDbEntity
  8
寸法線
 62
     7
100
AcDbMText
 10
1448.177567185945
 20
70.68311890375908
 30
0.0
 40
7.5
 41
0.0
 71
     5
 72
     1
  1
350
 73
     1
 44
1.0
1001
ACAD
1000
MTEXTBEGIN
1070
    73
1070
     1
1070
    44
1040
1.0
1070
    74
1070
     0
1000
MTEXTEND
  0
POINT
  5
7F8A
330
7B26
100
AcDbEntity
  8
Defpoints
 62
     0
100
AcDbPoint
 10
1273.177567185945
 20
106.2331189037591
 30
0.0
  0
POINT
  5
7F8B
330
7B26
100
AcDbEntity
  8
Defpoints
 62
     0
100
AcDbPoint
 10
1623.177567185945
 20
106.2331189037591
 30
0.0
  0
POINT
  5
7F8C
330
7B26
100
AcDbEntity
  8
Defpoints
 62
     0
100
AcDbPoint
 10
1623.177567185945
 20
64.23311890375908
 30
0.0
  0
ENDBLK
  5
7B28
330
7B26
100
AcDbEntity
  8
0
100
AcDbBlockEnd
  0
BLOCK
  5
7B33
330
7B32
100
AcDbEntity
  8
0
100
AcDbBlockBegin
  2
*D24
 70
     1
 10
0.0
 20
0.0
 30
0.0
  3
*D24
  1

  0
LINE
  5
7F7B
330
7B32
100
AcDbEntity
  8
寸法線
 62
     0
370
    -2
100
AcDbLine
 10
1273.877567185945
 20
484.2978301181296
 30
0.0
 11
1237.177567185945
 21
484.2978301181296
 31
0.0
  0
LINE
  5
7F7C
330
7B32
100
AcDbEntity
  8
寸法線
 62
     0
370
    -2
100
AcDbLine
 10
1276.877567185945
 20
399.2988330199546
 30
0.0
 11
1237.177567185945
 21
399.2988330199546
 31
0.0
  0
LINE
  5
7F7D
330
7B32
100
AcDbEntity
  8
寸法線
 62
     0
370
    -2
100
AcDbLine
 10
1237.177567185945
 20
484.2978301181296
 30
0.0
 11
1237.177567185945
 21
399.2988330199546
 31
0.0
  0
INSERT
  5
7F7E
330
7B32
100
AcDbEntity
  8
寸法線
 62
     0
370
    -2
100
AcDbBlockReference
  2
_DotSmall
 10
1237.177567185945
 20
484.2978301181296
 30
0.0
 41
11.7
 42
11.7
 43
11.7
 50
90.0
  0
INSERT
  5
7F7F
330
7B32
100
AcDbEntity
  8
寸法線
 62
     0
370
    -2
100
AcDbBlockReference
  2
_DotSmall
 10
1237.177567185945
 20
399.2988330199546
 30
0.0
 41
11.7
 42
11.7
 43
11.7
 50
270.0
  0
MTEXT
  5
7F80
330
7B32
100
AcDbEntity
  8
寸法線
 62
     7
100
AcDbMText
 10
1230.727567185945
 20
441.7983315690422
 30
0.0
 40
7.5
 41
0.0
 71
     5
 72
     1
  1
85
 11
0.0000000000000001
 21
1.0
 31
0.0
 73
     1
 44
1.0
1001
ACAD
1000
MTEXTBEGIN
1070
    73
1070
     1
1070
    44
1040
1.0
1070
    74
1070
     0
1000
MTEXTEND
  0
POINT
  5
7F81
330
7B32
100
AcDbEntity
  8
Defpoints
 62
     0
100
AcDbPoint
 10
1280.177567185945
 20
484.2978301181296
 30
0.0
  0
POINT
  5
7F82
330
7B32
100
AcDbEntity
  8
Defpoints
 62
     0
100
AcDbPoint
 10
1283.177567185945
 20
399.2988330199546
 30
0.0
  0
POINT
  5
7F83
330
7B32
100
AcDbEntity
  8
Defpoints
 62
     0
100
AcDbPoint
 10
1237.177567185945
 20
399.2988330199546
 30
0.0
  0
ENDBLK
  5
7B34
330
7B32
100
AcDbEntity
  8
0
100
AcDbBlockEnd
  0
BLOCK
  5
7B3F
330
7B3E
100
AcDbEntity
  8
0
100
AcDbBlockBegin
  2
*D25
 70
     1
 10
0.0
 20
0.0
 30
0.0
  3
*D25
  1

  0
LINE
  5
7F72
330
7B3E
100
AcDbEntity
  8
寸法線
 62
     0
370
    -2
100
AcDbLine
 10
1280.177567185945
 20
475.5988330199545
 30
0.0
 11
1280.177567185945
 21
520.2978301181294
 31
0.0
  0
LINE
  5
7F73
330
7B3E
100
AcDbEntity
  8
寸法線
 62
     0
370
    -2
100
AcDbLine
 10
1616.177567185945
 20
475.5988330199545
 30
0.0
 11
1616.177567185945
 21
520.2978301181294
 31
0.0
  0
LINE
  5
7F74
330
7B3E
100
AcDbEntity
  8
寸法線
 62
     0
370
    -2
100
AcDbLine
 10
1280.177567185945
 20
520.2978301181294
 30
0.0
 11
1616.177567185945
 21
520.2978301181294
 31
0.0
  0
INSERT
  5
7F75
330
7B3E
100
AcDbEntity
  8
寸法線
 62
     0
370
    -2
100
AcDbBlockReference
  2
_DotSmall
 10
1280.177567185945
 20
520.2978301181294
 30
0.0
 41
11.7
 42
11.7
 43
11.7
 50
180.0
  0
INSERT
  5
7F76
330
7B3E
100
AcDbEntity
  8
寸法線
 62
     0
370
    -2
100
AcDbBlockReference
  2
_DotSmall
 10
1616.177567185945
 20
520.2978301181294
 30
0.0
 41
11.7
 42
11.7
 43
11.7
  0
MTEXT
  5
7F77
330
7B3E
100
AcDbEntity
  8
寸法線
 62
     7
100
AcDbMText
 10
1448.177567185945
 20
526.7478301181296
 30
0.0
 40
7.5
 41
0.0
 71
     5
 72
     1
  1
336
 73
     1
 44
1.0
1001
ACAD
1000
MTEXTBEGIN
1070
    73
1070
     1
1070
    44
1040
1.0
1070
    74
1070
     0
1000
MTEXTEND
  0
POINT
  5
7F78
330
7B3E
100
AcDbEntity
  8
Defpoints
 62
     0
100
AcDbPoint
 10
1280.177567185945
 20
469.2988330199543
 30
0.0
  0
POINT
  5
7F79
330
7B3E
100
AcDbEntity
  8
Defpoints
 62
     0
100
AcDbPoint
 10
1616.177567185945
 20
469.2988330199543
 30
0.0
  0
POINT
  5
7F7A
330
7B3E
100
AcDbEntity
  8
Defpoints
 62
     0
100
AcDbPoint
 10
1616.177567185945
 20
520.2978301181294
 30
0.0
  0
ENDBLK
  5
7B40
330
7B3E
100
AcDbEntity
  8
0
100
AcDbBlockEnd
  0
BLOCK
  5
7B4B
330
7B4A
100
AcDbEntity
  8
0
100
AcDbBlockBegin
  2
*D26
 70
     1
 10
0.0
 20
0.0
 30
0.0
  3
*D26
  1

  0
LINE
  5
7F69
330
7B4A
100
AcDbEntity
  8
寸法線
 62
     0
370
    -2
100
AcDbLine
 10
1273.877567185945
 20
371.2331189037592
 30
0.0
 11
1237.177567185945
 21
371.2331189037592
 31
0.0
  0
LINE
  5
7F6A
330
7B4A
100
AcDbEntity
  8
寸法線
 62
     0
370
    -2
100
AcDbLine
 10
1273.877567185945
 20
97.23311890375908
 30
0.0
 11
1237.177567185945
 21
97.2331189037591
 31
0.0
  0
LINE
  5
7F6B
330
7B4A
100
AcDbEntity
  8
寸法線
 62
     0
370
    -2
100
AcDbLine
 10
1237.177567185945
 20
371.2331189037592
 30
0.0
 11
1237.177567185945
 21
97.2331189037591
 31
0.0
  0
INSERT
  5
7F6C
330
7B4A
100
AcDbEntity
  8
寸法線
 62
     0
370
    -2
100
AcDbBlockReference
  2
_DotSmall
 10
1237.177567185945
 20
371.2331189037592
 30
0.0
 41
11.7
 42
11.7
 43
11.7
 50
90.0
  0
INSERT
  5
7F6D
330
7B4A
100
AcDbEntity
  8
寸法線
 62
     0
370
    -2
100
AcDbBlockReference
  2
_DotSmall
 10
1237.177567185945
 20
97.2331189037591
 30
0.0
 41
11.7
 42
11.7
 43
11.7
 50
270.0
  0
MTEXT
  5
7F6E
330
7B4A
100
AcDbEntity
  8
寸法線
 62
     7
100
AcDbMText
 10
1230.727567185945
 20
234.2331189037593
 30
0.0
 40
7.5
 41
0.0
 71
     5
 72
     1
  1
274
 11
0.0000000000000001
 21
1.0
 31
0.0
 73
     1
 44
1.0
1001
ACAD
1000
MTEXTBEGIN
1070
    73
1070
     1
1070
    44
1040
1.0
1070
    74
1070
     0
1000
MTEXTEND
  0
POINT
  5
7F6F
330
7B4A
100
AcDbEntity
  8
Defpoints
 62
     0
100
AcDbPoint
 10
1280.177567185945
 20
371.2331189037592
 30
0.0
  0
POINT
  5
7F70
330
7B4A
100
AcDbEntity
  8
Defpoints
 62
     0
100
AcDbPoint
 10
1280.177567185945
 20
97.23311890375908
 30
0.0
  0
POINT
  5
7F71
330
7B4A
100
AcDbEntity
  8
Defpoints
 62
     0
100
AcDbPoint
 10
1237.177567185945
 20
97.2331189037591
 30
0.0
  0
ENDBLK
  5
7B4C
330
7B4A
100
AcDbEntity
  8
0
100
AcDbBlockEnd
  0
BLOCK
  5
7B57
330
7B56
100
AcDbEntity
  8
0
100
AcDbBlockBegin
  2
*D27
 70
     1
 10
0.0
 20
0.0
 30
0.0
  3
*D27
  1

  0
LINE
  5
7F60
330
7B56
100
AcDbEntity
  8
寸法線
 62
     0
370
    -2
100
AcDbLine
 10
1846.769121279493
 20
109.2331189037591
 30
0.0
 11
1892.469121279494
 21
109.233118903759
 31
0.0
  0
LINE
  5
7F61
330
7B56
100
AcDbEntity
  8
寸法線
 62
     0
370
    -2
100
AcDbLine
 10
1846.769121279493
 20
124.233118903759
 30
0.0
 11
1892.469121279494
 21
124.233118903759
 31
0.0
  0
LINE
  5
7F62
330
7B56
100
AcDbEntity
  8
寸法線
 62
     0
370
    -2
100
AcDbLine
 10
1892.469121279494
 20
109.233118903759
 30
0.0
 11
1892.469121279494
 21
124.233118903759
 31
0.0
  0
INSERT
  5
7F63
330
7B56
100
AcDbEntity
  8
寸法線
 62
     0
370
    -2
100
AcDbBlockReference
  2
_DotSmall
 10
1892.469121279494
 20
109.233118903759
 30
0.0
 41
11.7
 42
11.7
 43
11.7
 50
270.0
  0
INSERT
  5
7F64
330
7B56
100
AcDbEntity
  8
寸法線
 62
     0
370
    -2
100
AcDbBlockReference
  2
_DotSmall
 10
1892.469121279494
 20
124.233118903759
 30
0.0
 41
11.7
 42
11.7
 43
11.7
 50
90.0
  0
MTEXT
  5
7F65
330
7B56
100
AcDbEntity
  8
寸法線
 62
     7
100
AcDbMText
 10
1886.019121279494
 20
116.7331189037593
 30
0.0
 40
7.5
 41
0.0
 71
     5
 72
     1
  1
15
 11
0.0000000000000001
 21
1.0
 31
0.0
 73
     1
 44
1.0
1001
ACAD
1000
MTEXTBEGIN
1070
    73
1070
     1
1070
    44
1040
1.0
1070
    74
1070
     0
1000
MTEXTEND
  0
POINT
  5
7F66
330
7B56
100
AcDbEntity
  8
Defpoints
 62
     0
100
AcDbPoint
 10
1840.469121279493
 20
109.2331189037591
 30
0.0
  0
POINT
  5
7F67
330
7B56
100
AcDbEntity
  8
Defpoints
 62
     0
100
AcDbPoint
 10
1840.469121279493
 20
124.233118903759
 30
0.0
  0
POINT
  5
7F68
330
7B56
100
AcDbEntity
  8
Defpoints
 62
     0
100
AcDbPoint
 10
1892.469121279494
 20
124.233118903759
 30
0.0
  0
ENDBLK
  5
7B58
330
7B56
100
AcDbEntity
  8
0
100
AcDbBlockEnd
  0
BLOCK
  5
7BCF
330
7BCE
100
AcDbEntity
  8
0
100
AcDbBlockBegin
  2
*D28
 70
     1
 10
0.0
 20
0.0
 30
0.0
  3
*D28
  1

  0
LINE
  5
7BD0
330
7BCE
100
AcDbEntity
  8
寸法線
 62
     0
370
    -2
100
AcDbLine
 10
1595.277567185945
 20
157.2331189037591
 30
0.0
 11
1659.177567185945
 21
157.233118903759
 31
0.0
  0
LINE
  5
7BD1
330
7BCE
100
AcDbEntity
  8
寸法線
 62
     0
370
    -2
100
AcDbLine
 10
1595.277567185945
 20
277.2331189037591
 30
0.0
 11
1659.177567185945
 21
277.2331189037591
 31
0.0
  0
LINE
  5
7BD2
330
7BCE
100
AcDbEntity
  8
寸法線
 62
     0
370
    -2
100
AcDbLine
 10
1659.177567185945
 20
157.233118903759
 30
0.0
 11
1659.177567185945
 21
277.2331189037591
 31
0.0
  0
INSERT
  5
7BD3
330
7BCE
100
AcDbEntity
  8
寸法線
 62
     0
370
    -2
100
AcDbBlockReference
  2
_DotSmall
 10
1659.177567185945
 20
157.233118903759
 30
0.0
 41
3.9
 42
3.9
 43
3.9
 50
270.0
  0
INSERT
  5
7BD4
330
7BCE
100
AcDbEntity
  8
寸法線
 62
     0
370
    -2
100
AcDbBlockReference
  2
_DotSmall
 10
1659.177567185945
 20
277.2331189037591
 30
0.0
 41
3.9
 42
3.9
 43
3.9
 50
90.0
  0
MTEXT
  5
7BD5
330
7BCE
100
AcDbEntity
  8
寸法線
 62
     7
100
AcDbMText
 10
1657.027567185945
 20
217.2331189037593
 30
0.0
 40
2.5
 41
0.0
 71
     5
 72
     1
  1
120
 11
0.0000000000000001
 21
1.0
 31
0.0
 73
     1
 44
1.0
1001
ACAD
1000
MTEXTBEGIN
1070
    73
1070
     1
1070
    44
1040
1.0
1070
    74
1070
     0
1000
MTEXTEND
  0
POINT
  5
7BD6
330
7BCE
100
AcDbEntity
  8
Defpoints
 62
     0
100
AcDbPoint
 10
1593.177567185945
 20
157.2331189037591
 30
0.0
  0
POINT
  5
7BD7
330
7BCE
100
AcDbEntity
  8
Defpoints
 62
     0
100
AcDbPoint
 10
1593.177567185945
 20
277.2331189037591
 30
0.0
  0
POINT
  5
7BD8
330
7BCE
100
AcDbEntity
  8
Defpoints
 62
     0
100
AcDbPoint
 10
1659.177567185945
 20
277.2331189037591
 30
0.0
  0
ENDBLK
  5
7BD9
330
7BCE
100
AcDbEntity
  8
0
100
AcDbBlockEnd
  0
BLOCK
  5
7BDB
330
7BDA
100
AcDbEntity
  8
0
100
AcDbBlockBegin
  2
*D29
 70
     1
 10
0.0
 20
0.0
 30
0.0
  3
*D29
  1

  0
LINE
  5
7BDC
330
7BDA
100
AcDbEntity
  8
寸法線
 62
     0
370
    -2
100
AcDbLine
 10
1842.569121279494
 20
229.2331189037591
 30
0.0
 11
1892.469121279494
 21
229.233118903759
 31
0.0
  0
LINE
  5
7BDD
330
7BDA
100
AcDbEntity
  8
寸法線
 62
     0
370
    -2
100
AcDbLine
 10
1842.569121279494
 20
244.2331189037591
 30
0.0
 11
1892.469121279494
 21
244.2331189037591
 31
0.0
  0
LINE
  5
7BDE
330
7BDA
100
AcDbEntity
  8
寸法線
 62
     0
370
    -2
100
AcDbLine
 10
1892.469121279494
 20
229.233118903759
 30
0.0
 11
1892.469121279494
 21
244.2331189037591
 31
0.0
  0
INSERT
  5
7BDF
330
7BDA
100
AcDbEntity
  8
寸法線
 62
     0
370
    -2
100
AcDbBlockReference
  2
_DotSmall
 10
1892.469121279494
 20
229.233118903759
 30
0.0
 41
3.9
 42
3.9
 43
3.9
 50
270.0
  0
INSERT
  5
7BE0
330
7BDA
100
AcDbEntity
  8
寸法線
 62
     0
370
    -2
100
AcDbBlockReference
  2
_DotSmall
 10
1892.469121279494
 20
244.2331189037591
 30
0.0
 41
3.9
 42
3.9
 43
3.9
 50
90.0
  0
MTEXT
  5
7BE1
330
7BDA
100
AcDbEntity
  8
寸法線
 62
     7
100
AcDbMText
 10
1890.319121279494
 20
236.7331189037594
 30
0.0
 40
2.5
 41
0.0
 71
     5
 72
     1
  1
15
 11
0.0000000000000001
 21
1.0
 31
0.0
 73
     1
 44
1.0
1001
ACAD
1000
MTEXTBEGIN
1070
    73
1070
     1
1070
    44
1040
1.0
1070
    74
1070
     0
1000
MTEXTEND
  0
POINT
  5
7BE2
330
7BDA
100
AcDbEntity
  8
Defpoints
 62
     0
100
AcDbPoint
 10
1840.469121279494
 20
229.2331189037591
 30
0.0
  0
POINT
  5
7BE3
330
7BDA
100
AcDbEntity
  8
Defpoints
 62
     0
100
AcDbPoint
 10
1840.469121279493
 20
244.2331189037591
 30
0.0
  0
POINT
  5
7BE4
330
7BDA
100
AcDbEntity
  8
Defpoints
 62
     0
100
AcDbPoint
 10
1892.469121279494
 20
244.2331189037591
 30
0.0
  0
ENDBLK
  5
7BE5
330
7BDA
100
AcDbEntity
  8
0
100
AcDbBlockEnd
  0
BLOCK
  5
7BE7
330
7BE6
100
AcDbEntity
  8
0
100
AcDbBlockBegin
  2
*D30
 70
     1
 10
0.0
 20
0.0
 30
0.0
  3
*D30
  1

  0
LINE
  5
7BE8
330
7BE6
100
AcDbEntity
  8
寸法線
 62
     0
370
    -2
100
AcDbLine
 10
1842.569121279494
 20
124.233118903759
 30
0.0
 11
1892.469121279494
 21
124.233118903759
 31
0.0
  0
LINE
  5
7BE9
330
7BE6
100
AcDbEntity
  8
寸法線
 62
     0
370
    -2
100
AcDbLine
 10
1842.569121279494
 20
229.2331189037591
 30
0.0
 11
1892.469121279494
 21
229.233118903759
 31
0.0
  0
LINE
  5
7BEA
330
7BE6
100
AcDbEntity
  8
寸法線
 62
     0
370
    -2
100
AcDbLine
 10
1892.469121279494
 20
124.233118903759
 30
0.0
 11
1892.469121279494
 21
229.233118903759
 31
0.0
  0
INSERT
  5
7BEB
330
7BE6
100
AcDbEntity
  8
寸法線
 62
     0
370
    -2
100
AcDbBlockReference
  2
_DotSmall
 10
1892.469121279494
 20
124.233118903759
 30
0.0
 41
3.9
 42
3.9
 43
3.9
 50
270.0
  0
INSERT
  5
7BEC
330
7BE6
100
AcDbEntity
  8
寸法線
 62
     0
370
    -2
100
AcDbBlockReference
  2
_DotSmall
 10
1892.469121279494
 20
229.233118903759
 30
0.0
 41
3.9
 42
3.9
 43
3.9
 50
90.0
  0
MTEXT
  5
7BED
330
7BE6
100
AcDbEntity
  8
寸法線
 62
     7
100
AcDbMText
 10
1890.319121279494
 20
176.7331189037593
 30
0.0
 40
2.5
 41
0.0
 71
     5
 72
     1
  1
105
 11
0.0000000000000001
 21
1.0
 31
0.0
 73
     1
 44
1.0
1001
ACAD
1000
MTEXTBEGIN
1070
    73
1070
     1
1070
    44
1040
1.0
1070
    74
1070
     0
1000
MTEXTEND
  0
POINT
  5
7BEE
330
7BE6
100
AcDbEntity
  8
Defpoints
 62
     0
100
AcDbPoint
 10
1840.469121279493
 20
124.233118903759
 30
0.0
  0
POINT
  5
7BEF
330
7BE6
100
AcDbEntity
  8
Defpoints
 62
     0
100
AcDbPoint
 10
1840.469121279494
 20
229.2331189037591
 30
0.0
  0
POINT
  5
7BF0
330
7BE6
100
AcDbEntity
  8
Defpoints
 62
     0
100
AcDbPoint
 10
1892.469121279494
 20
229.233118903759
 30
0.0
  0
ENDBLK
  5
7BF1
330
7BE6
100
AcDbEntity
  8
0
100
AcDbBlockEnd
  0
BLOCK
  5
7BF3
330
7BF2
100
AcDbEntity
  8
0
100
AcDbBlockBegin
  2
*D31
 70
     1
 10
0.0
 20
0.0
 30
0.0
  3
*D31
  1

  0
LINE
  5
7BF4
330
7BF2
100
AcDbEntity
  8
寸法線
 62
     0
370
    -2
100
AcDbLine
 10
1842.569121279494
 20
109.2331189037591
 30
0.0
 11
1892.469121279494
 21
109.233118903759
 31
0.0
  0
LINE
  5
7BF5
330
7BF2
100
AcDbEntity
  8
寸法線
 62
     0
370
    -2
100
AcDbLine
 10
1852.569121279493
 20
94.23311890375908
 30
0.0
 11
1892.469121279494
 21
94.23311890375906
 31
0.0
  0
LINE
  5
7BF6
330
7BF2
100
AcDbEntity
  8
寸法線
 62
     0
370
    -2
100
AcDbLine
 10
1892.469121279494
 20
109.233118903759
 30
0.0
 11
1892.469121279494
 21
94.23311890375906
 31
0.0
  0
INSERT
  5
7BF7
330
7BF2
100
AcDbEntity
  8
寸法線
 62
     0
370
    -2
100
AcDbBlockReference
  2
_DotSmall
 10
1892.469121279494
 20
109.233118903759
 30
0.0
 41
3.9
 42
3.9
 43
3.9
 50
90.0
  0
INSERT
  5
7BF8
330
7BF2
100
AcDbEntity
  8
寸法線
 62
     0
370
    -2
100
AcDbBlockReference
  2
_DotSmall
 10
1892.469121279494
 20
94.23311890375906
 30
0.0
 41
3.9
 42
3.9
 43
3.9
 50
270.0
  0
MTEXT
  5
7BF9
330
7BF2
100
AcDbEntity
  8
寸法線
 62
     7
100
AcDbMText
 10
1890.319121279494
 20
101.7331189037594
 30
0.0
 40
2.5
 41
0.0
 71
     5
 72
     1
  1
15
 11
0.0000000000000001
 21
1.0
 31
0.0
 73
     1
 44
1.0
1001
ACAD
1000
MTEXTBEGIN
1070
    73
1070
     1
1070
    44
1040
1.0
1070
    74
1070
     0
1000
MTEXTEND
  0
POINT
  5
7BFA
330
7BF2
100
AcDbEntity
  8
Defpoints
 62
     0
100
AcDbPoint
 10
1840.469121279493
 20
109.2331189037591
 30
0.0
  0
POINT
  5
7BFB
330
7BF2
100
AcDbEntity
  8
Defpoints
 62
     0
100
AcDbPoint
 10
1850.469121279494
 20
94.23311890375908
 30
0.0
  0
POINT
  5
7BFC
330
7BF2
100
AcDbEntity
  8
Defpoints
 62
     0
100
AcDbPoint
 10
1892.469121279494
 20
94.23311890375906
 30
0.0
  0
ENDBLK
  5
7BFD
330
7BF2
100
AcDbEntity
  8
0
100
AcDbBlockEnd
  0
BLOCK
  5
7BFF
330
7BFE
100
AcDbEntity
  8
0
100
AcDbBlockBegin
  2
*D32
 70
     1
 10
0.0
 20
0.0
 30
0.0
  3
*D32
  1

  0
LINE
  5
7C00
330
7BFE
100
AcDbEntity
  8
寸法線
 62
     0
370
    -2
100
AcDbLine
 10
1833.469121279494
 20
105.1331189037591
 30
0.0
 11
1833.469121279494
 21
64.23311890375908
 31
0.0
  0
LINE
  5
7C01
330
7BFE
100
AcDbEntity
  8
寸法線
 62
     0
370
    -2
100
AcDbLine
 10
1771.469121279494
 20
107.1331189037591
 30
0.0
 11
1771.469121279494
 21
64.23311890375908
 31
0.0
  0
LINE
  5
7C02
330
7BFE
100
AcDbEntity
  8
寸法線
 62
     0
370
    -2
100
AcDbLine
 10
1833.469121279494
 20
64.23311890375908
 30
0.0
 11
1771.469121279494
 21
64.23311890375908
 31
0.0
  0
INSERT
  5
7C03
330
7BFE
100
AcDbEntity
  8
寸法線
 62
     0
370
    -2
100
AcDbBlockReference
  2
_DotSmall
 10
1833.469121279494
 20
64.23311890375908
 30
0.0
 41
3.9
 42
3.9
 43
3.9
  0
INSERT
  5
7C04
330
7BFE
100
AcDbEntity
  8
寸法線
 62
     0
370
    -2
100
AcDbBlockReference
  2
_DotSmall
 10
1771.469121279494
 20
64.23311890375908
 30
0.0
 41
3.9
 42
3.9
 43
3.9
 50
180.0
  0
MTEXT
  5
7C05
330
7BFE
100
AcDbEntity
  8
寸法線
 62
     7
100
AcDbMText
 10
1802.469121279494
 20
66.38311890375908
 30
0.0
 40
2.5
 41
0.0
 71
     5
 72
     1
  1
62
 73
     1
 44
1.0
1001
ACAD
1000
MTEXTBEGIN
1070
    73
1070
     1
1070
    44
1040
1.0
1070
    74
1070
     0
1000
MTEXTEND
  0
POINT
  5
7C06
330
7BFE
100
AcDbEntity
  8
Defpoints
 62
     0
100
AcDbPoint
 10
1833.469121279494
 20
107.2331189037591
 30
0.0
  0
POINT
  5
7C07
330
7BFE
100
AcDbEntity
  8
Defpoints
 62
     0
100
AcDbPoint
 10
1771.469121279494
 20
109.2331189037591
 30
0.0
  0
POINT
  5
7C08
330
7BFE
100
AcDbEntity
  8
Defpoints
 62
     0
100
AcDbPoint
 10
1771.469121279494
 20
64.23311890375908
 30
0.0
  0
ENDBLK
  5
7C09
330
7BFE
100
AcDbEntity
  8
0
100
AcDbBlockEnd
  0
BLOCK
  5
7C0B
330
7C0A
100
AcDbEntity
  8
0
100
AcDbBlockBegin
  2
*D33
 70
     1
 10
0.0
 20
0.0
 30
0.0
  3
*D33
  1

  0
LINE
  5
7C0C
330
7C0A
100
AcDbEntity
  8
寸法線
 62
     0
370
    -2
100
AcDbLine
 10
1833.469121279494
 20
105.1331189037591
 30
0.0
 11
1833.469121279494
 21
64.23311890375908
 31
0.0
  0
LINE
  5
7C0D
330
7C0A
100
AcDbEntity
  8
寸法線
 62
     0
370
    -2
100
AcDbLine
 10
1856.469121279493
 20
98.13311890375908
 30
0.0
 11
1856.469121279493
 21
64.23311890375908
 31
0.0
  0
LINE
  5
7C0E
330
7C0A
100
AcDbEntity
  8
寸法線
 62
     0
370
    -2
100
AcDbLine
 10
1833.469121279494
 20
64.23311890375908
 30
0.0
 11
1856.469121279493
 21
64.23311890375908
 31
0.0
  0
INSERT
  5
7C0F
330
7C0A
100
AcDbEntity
  8
寸法線
 62
     0
370
    -2
100
AcDbBlockReference
  2
_DotSmall
 10
1833.469121279494
 20
64.23311890375908
 30
0.0
 41
3.9
 42
3.9
 43
3.9
 50
180.0
  0
INSERT
  5
7C10
330
7C0A
100
AcDbEntity
  8
寸法線
 62
     0
370
    -2
100
AcDbBlockReference
  2
_DotSmall
 10
1856.469121279493
 20
64.23311890375908
 30
0.0
 41
3.9
 42
3.9
 43
3.9
  0
MTEXT
  5
7C11
330
7C0A
100
AcDbEntity
  8
寸法線
 62
     7
100
AcDbMText
 10
1844.969121279494
 20
66.38311890375908
 30
0.0
 40
2.5
 41
0.0
 71
     5
 72
     1
  1
23
 73
     1
 44
1.0
1001
ACAD
1000
MTEXTBEGIN
1070
    73
1070
     1
1070
    44
1040
1.0
1070
    74
1070
     0
1000
MTEXTEND
  0
POINT
  5
7C12
330
7C0A
100
AcDbEntity
  8
Defpoints
 62
     0
100
AcDbPoint
 10
1833.469121279494
 20
107.2331189037591
 30
0.0
  0
POINT
  5
7C13
330
7C0A
100
AcDbEntity
  8
Defpoints
 62
     0
100
AcDbPoint
 10
1856.469121279493
 20
100.233118903759
 30
0.0
  0
POINT
  5
7C14
330
7C0A
100
AcDbEntity
  8
Defpoints
 62
     0
100
AcDbPoint
 10
1856.469121279493
 20
64.23311890375908
 30
0.0
  0
ENDBLK
  5
7C15
330
7C0A
100
AcDbEntity
  8
0
100
AcDbBlockEnd
  0
BLOCK
  5
7C17
330
7C16
100
AcDbEntity
  8
0
100
AcDbBlockBegin
  2
*D34
 70
     1
 10
0.0
 20
0.0
 30
0.0
  3
*D34
  1

  0
LINE
  5
7C18
330
7C16
100
AcDbEntity
  8
寸法線
 62
     0
370
    -2
100
AcDbLine
 10
1595.277567185945
 20
157.2331189037591
 30
0.0
 11
1659.177567185945
 21
157.233118903759
 31
0.0
  0
LINE
  5
7C19
330
7C16
100
AcDbEntity
  8
寸法線
 62
     0
370
    -2
100
AcDbLine
 10
1618.277567185945
 20
94.23311890375908
 30
0.0
 11
1659.177567185945
 21
94.23311890375906
 31
0.0
  0
LINE
  5
7C1A
330
7C16
100
AcDbEntity
  8
寸法線
 62
     0
370
    -2
100
AcDbLine
 10
1659.177567185945
 20
157.233118903759
 30
0.0
 11
1659.177567185945
 21
94.23311890375906
 31
0.0
  0
INSERT
  5
7C1B
330
7C16
100
AcDbEntity
  8
寸法線
 62
     0
370
    -2
100
AcDbBlockReference
  2
_DotSmall
 10
1659.177567185945
 20
157.233118903759
 30
0.0
 41
3.9
 42
3.9
 43
3.9
 50
90.0
  0
INSERT
  5
7C1C
330
7C16
100
AcDbEntity
  8
寸法線
 62
     0
370
    -2
100
AcDbBlockReference
  2
_DotSmall
 10
1659.177567185945
 20
94.23311890375906
 30
0.0
 41
3.9
 42
3.9
 43
3.9
 50
270.0
  0
MTEXT
  5
7C1D
330
7C16
100
AcDbEntity
  8
寸法線
 62
     7
100
AcDbMText
 10
1657.027567185945
 20
125.7331189037593
 30
0.0
 40
2.5
 41
0.0
 71
     5
 72
     1
  1
63
 11
0.0000000000000001
 21
1.0
 31
0.0
 73
     1
 44
1.0
1001
ACAD
1000
MTEXTBEGIN
1070
    73
1070
     1
1070
    44
1040
1.0
1070
    74
1070
     0
1000
MTEXTEND
  0
POINT
  5
7C1E
330
7C16
100
AcDbEntity
  8
Defpoints
 62
     0
100
AcDbPoint
 10
1593.177567185945
 20
157.2331189037591
 30
0.0
  0
POINT
  5
7C1F
330
7C16
100
AcDbEntity
  8
Defpoints
 62
     0
100
AcDbPoint
 10
1616.177567185945
 20
94.23311890375908
 30
0.0
  0
POINT
  5
7C20
330
7C16
100
AcDbEntity
  8
Defpoints
 62
     0
100
AcDbPoint
 10
1659.177567185945
 20
94.23311890375906
 30
0.0
  0
ENDBLK
  5
7C21
330
7C16
100
AcDbEntity
  8
0
100
AcDbBlockEnd
  0
BLOCK
  5
7C23
330
7C22
100
AcDbEntity
  8
0
100
AcDbBlockBegin
  2
*D35
 70
     1
 10
0.0
 20
0.0
 30
0.0
  3
*D35
  1

  0
LINE
  5
7C24
330
7C22
100
AcDbEntity
  8
寸法線
 62
     0
370
    -2
100
AcDbLine
 10
1273.177567185945
 20
104.1331189037591
 30
0.0
 11
1273.177567185945
 21
64.23311890375908
 31
0.0
  0
LINE
  5
7C25
330
7C22
100
AcDbEntity
  8
寸法線
 62
     0
370
    -2
100
AcDbLine
 10
1623.177567185945
 20
104.1331189037591
 30
0.0
 11
1623.177567185945
 21
64.23311890375908
 31
0.0
  0
LINE
  5
7C26
330
7C22
100
AcDbEntity
  8
寸法線
 62
     0
370
    -2
100
AcDbLine
 10
1273.177567185945
 20
64.23311890375908
 30
0.0
 11
1623.177567185945
 21
64.23311890375908
 31
0.0
  0
INSERT
  5
7C27
330
7C22
100
AcDbEntity
  8
寸法線
 62
     0
370
    -2
100
AcDbBlockReference
  2
_DotSmall
 10
1273.177567185945
 20
64.23311890375908
 30
0.0
 41
3.9
 42
3.9
 43
3.9
 50
180.0
  0
INSERT
  5
7C28
330
7C22
100
AcDbEntity
  8
寸法線
 62
     0
370
    -2
100
AcDbBlockReference
  2
_DotSmall
 10
1623.177567185945
 20
64.23311890375908
 30
0.0
 41
3.9
 42
3.9
 43
3.9
  0
MTEXT
  5
7C29
330
7C22
100
AcDbEntity
  8
寸法線
 62
     7
100
AcDbMText
 10
1448.177567185945
 20
66.38311890375908
 30
0.0
 40
2.5
 41
0.0
 71
     5
 72
     1
  1
350
 73
     1
 44
1.0
1001
ACAD
1000
MTEXTBEGIN
1070
    73
1070
     1
1070
    44
1040
1.0
1070
    74
1070
     0
1000
MTEXTEND
  0
POINT
  5
7C2A
330
7C22
100
AcDbEntity
  8
Defpoints
 62
     0
100
AcDbPoint
 10
1273.177567185945
 20
106.2331189037591
 30
0.0
  0
POINT
  5
7C2B
330
7C22
100
AcDbEntity
  8
Defpoints
 62
     0
100
AcDbPoint
 10
1623.177567185945
 20
106.2331189037591
 30
0.0
  0
POINT
  5
7C2C
330
7C22
100
AcDbEntity
  8
Defpoints
 62
     0
100
AcDbPoint
 10
1623.177567185945
 20
64.23311890375908
 30
0.0
  0
ENDBLK
  5
7C2D
330
7C22
100
AcDbEntity
  8
0
100
AcDbBlockEnd
  0
BLOCK
  5
7C2F
330
7C2E
100
AcDbEntity
  8
0
100
AcDbBlockBegin
  2
*D36
 70
     1
 10
0.0
 20
0.0
 30
0.0
  3
*D36
  1

  0
LINE
  5
7C30
330
7C2E
100
AcDbEntity
  8
寸法線
 62
     0
370
    -2
100
AcDbLine
 10
1278.077567185945
 20
484.2978301181296
 30
0.0
 11
1237.177567185945
 21
484.2978301181296
 31
0.0
  0
LINE
  5
7C31
330
7C2E
100
AcDbEntity
  8
寸法線
 62
     0
370
    -2
100
AcDbLine
 10
1281.077567185946
 20
399.2988330199546
 30
0.0
 11
1237.177567185945
 21
399.2988330199546
 31
0.0
  0
LINE
  5
7C32
330
7C2E
100
AcDbEntity
  8
寸法線
 62
     0
370
    -2
100
AcDbLine
 10
1237.177567185945
 20
484.2978301181296
 30
0.0
 11
1237.177567185945
 21
399.2988330199546
 31
0.0
  0
INSERT
  5
7C33
330
7C2E
100
AcDbEntity
  8
寸法線
 62
     0
370
    -2
100
AcDbBlockReference
  2
_DotSmall
 10
1237.177567185945
 20
484.2978301181296
 30
0.0
 41
3.9
 42
3.9
 43
3.9
 50
90.0
  0
INSERT
  5
7C34
330
7C2E
100
AcDbEntity
  8
寸法線
 62
     0
370
    -2
100
AcDbBlockReference
  2
_DotSmall
 10
1237.177567185945
 20
399.2988330199546
 30
0.0
 41
3.9
 42
3.9
 43
3.9
 50
270.0
  0
MTEXT
  5
7C35
330
7C2E
100
AcDbEntity
  8
寸法線
 62
     7
100
AcDbMText
 10
1235.027567185945
 20
441.7983315690422
 30
0.0
 40
2.5
 41
0.0
 71
     5
 72
     1
  1
85
 11
0.0000000000000001
 21
1.0
 31
0.0
 73
     1
 44
1.0
1001
ACAD
1000
MTEXTBEGIN
1070
    73
1070
     1
1070
    44
1040
1.0
1070
    74
1070
     0
1000
MTEXTEND
  0
POINT
  5
7C36
330
7C2E
100
AcDbEntity
  8
Defpoints
 62
     0
100
AcDbPoint
 10
1280.177567185945
 20
484.2978301181296
 30
0.0
  0
POINT
  5
7C37
330
7C2E
100
AcDbEntity
  8
Defpoints
 62
     0
100
AcDbPoint
 10
1283.177567185945
 20
399.2988330199546
 30
0.0
  0
POINT
  5
7C38
330
7C2E
100
AcDbEntity
  8
Defpoints
 62
     0
100
AcDbPoint
 10
1237.177567185945
 20
399.2988330199546
 30
0.0
  0
ENDBLK
  5
7C39
330
7C2E
100
AcDbEntity
  8
0
100
AcDbBlockEnd
  0
BLOCK
  5
7C3B
330
7C3A
100
AcDbEntity
  8
0
100
AcDbBlockBegin
  2
*D37
 70
     1
 10
0.0
 20
0.0
 30
0.0
  3
*D37
  1

  0
LINE
  5
7C3C
330
7C3A
100
AcDbEntity
  8
寸法線
 62
     0
370
    -2
100
AcDbLine
 10
1280.177567185945
 20
471.3988330199545
 30
0.0
 11
1280.177567185945
 21
520.2978301181294
 31
0.0
  0
LINE
  5
7C3D
330
7C3A
100
AcDbEntity
  8
寸法線
 62
     0
370
    -2
100
AcDbLine
 10
1616.177567185945
 20
471.3988330199545
 30
0.0
 11
1616.177567185945
 21
520.2978301181294
 31
0.0
  0
LINE
  5
7C3E
330
7C3A
100
AcDbEntity
  8
寸法線
 62
     0
370
    -2
100
AcDbLine
 10
1280.177567185945
 20
520.2978301181294
 30
0.0
 11
1616.177567185945
 21
520.2978301181294
 31
0.0
  0
INSERT
  5
7C3F
330
7C3A
100
AcDbEntity
  8
寸法線
 62
     0
370
    -2
100
AcDbBlockReference
  2
_DotSmall
 10
1280.177567185945
 20
520.2978301181294
 30
0.0
 41
3.9
 42
3.9
 43
3.9
 50
180.0
  0
INSERT
  5
7C40
330
7C3A
100
AcDbEntity
  8
寸法線
 62
     0
370
    -2
100
AcDbBlockReference
  2
_DotSmall
 10
1616.177567185945
 20
520.2978301181294
 30
0.0
 41
3.9
 42
3.9
 43
3.9
  0
MTEXT
  5
7C41
330
7C3A
100
AcDbEntity
  8
寸法線
 62
     7
100
AcDbMText
 10
1448.177567185945
 20
522.4478301181294
 30
0.0
 40
2.5
 41
0.0
 71
     5
 72
     1
  1
336
 73
     1
 44
1.0
1001
ACAD
1000
MTEXTBEGIN
1070
    73
1070
     1
1070
    44
1040
1.0
1070
    74
1070
     0
1000
MTEXTEND
  0
POINT
  5
7C42
330
7C3A
100
AcDbEntity
  8
Defpoints
 62
     0
100
AcDbPoint
 10
1280.177567185945
 20
469.2988330199543
 30
0.0
  0
POINT
  5
7C43
330
7C3A
100
AcDbEntity
  8
Defpoints
 62
     0
100
AcDbPoint
 10
1616.177567185945
 20
469.2988330199543
 30
0.0
  0
POINT
  5
7C44
330
7C3A
100
AcDbEntity
  8
Defpoints
 62
     0
100
AcDbPoint
 10
1616.177567185945
 20
520.2978301181294
 30
0.0
  0
ENDBLK
  5
7C45
330
7C3A
100
AcDbEntity
  8
0
100
AcDbBlockEnd
  0
BLOCK
  5
7C47
330
7C46
100
AcDbEntity
  8
0
100
AcDbBlockBegin
  2
*D38
 70
     1
 10
0.0
 20
0.0
 30
0.0
  3
*D38
  1

  0
LINE
  5
7C48
330
7C46
100
AcDbEntity
  8
寸法線
 62
     0
370
    -2
100
AcDbLine
 10
1278.077567185945
 20
371.2331189037592
 30
0.0
 11
1237.177567185945
 21
371.2331189037592
 31
0.0
  0
LINE
  5
7C49
330
7C46
100
AcDbEntity
  8
寸法線
 62
     0
370
    -2
100
AcDbLine
 10
1278.077567185945
 20
97.23311890375908
 30
0.0
 11
1237.177567185945
 21
97.2331189037591
 31
0.0
  0
LINE
  5
7C4A
330
7C46
100
AcDbEntity
  8
寸法線
 62
     0
370
    -2
100
AcDbLine
 10
1237.177567185945
 20
371.2331189037592
 30
0.0
 11
1237.177567185945
 21
97.2331189037591
 31
0.0
  0
INSERT
  5
7C4B
330
7C46
100
AcDbEntity
  8
寸法線
 62
     0
370
    -2
100
AcDbBlockReference
  2
_DotSmall
 10
1237.177567185945
 20
371.2331189037592
 30
0.0
 41
3.9
 42
3.9
 43
3.9
 50
90.0
  0
INSERT
  5
7C4C
330
7C46
100
AcDbEntity
  8
寸法線
 62
     0
370
    -2
100
AcDbBlockReference
  2
_DotSmall
 10
1237.177567185945
 20
97.2331189037591
 30
0.0
 41
3.9
 42
3.9
 43
3.9
 50
270.0
  0
MTEXT
  5
7C4D
330
7C46
100
AcDbEntity
  8
寸法線
 62
     7
100
AcDbMText
 10
1235.027567185945
 20
234.2331189037593
 30
0.0
 40
2.5
 41
0.0
 71
     5
 72
     1
  1
274
 11
0.0000000000000001
 21
1.0
 31
0.0
 73
     1
 44
1.0
1001
ACAD
1000
MTEXTBEGIN
1070
    73
1070
     1
1070
    44
1040
1.0
1070
    74
1070
     0
1000
MTEXTEND
  0
POINT
  5
7C4E
330
7C46
100
AcDbEntity
  8
Defpoints
 62
     0
100
AcDbPoint
 10
1280.177567185945
 20
371.2331189037592
 30
0.0
  0
POINT
  5
7C4F
330
7C46
100
AcDbEntity
  8
Defpoints
 62
     0
100
AcDbPoint
 10
1280.177567185945
 20
97.23311890375908
 30
0.0
  0
POINT
  5
7C50
330
7C46
100
AcDbEntity
  8
Defpoints
 62
     0
100
AcDbPoint
 10
1237.177567185945
 20
97.2331189037591
 30
0.0
  0
ENDBLK
  5
7C51
330
7C46
100
AcDbEntity
  8
0
100
AcDbBlockEnd
  0
BLOCK
  5
7C53
330
7C52
100
AcDbEntity
  8
0
100
AcDbBlockBegin
  2
*D39
 70
     1
 10
0.0
 20
0.0
 30
0.0
  3
*D39
  1

  0
LINE
  5
7C54
330
7C52
100
AcDbEntity
  8
寸法線
 62
     0
370
    -2
100
AcDbLine
 10
1842.569121279494
 20
109.2331189037591
 30
0.0
 11
1892.469121279494
 21
109.233118903759
 31
0.0
  0
LINE
  5
7C55
330
7C52
100
AcDbEntity
  8
寸法線
 62
     0
370
    -2
100
AcDbLine
 10
1842.569121279494
 20
124.233118903759
 30
0.0
 11
1892.469121279494
 21
124.233118903759
 31
0.0
  0
LINE
  5
7C56
330
7C52
100
AcDbEntity
  8
寸法線
 62
     0
370
    -2
100
AcDbLine
 10
1892.469121279494
 20
109.233118903759
 30
0.0
 11
1892.469121279494
 21
124.233118903759
 31
0.0
  0
INSERT
  5
7C57
330
7C52
100
AcDbEntity
  8
寸法線
 62
     0
370
    -2
100
AcDbBlockReference
  2
_DotSmall
 10
1892.469121279494
 20
109.233118903759
 30
0.0
 41
3.9
 42
3.9
 43
3.9
 50
270.0
  0
INSERT
  5
7C58
330
7C52
100
AcDbEntity
  8
寸法線
 62
     0
370
    -2
100
AcDbBlockReference
  2
_DotSmall
 10
1892.469121279494
 20
124.233118903759
 30
0.0
 41
3.9
 42
3.9
 43
3.9
 50
90.0
  0
MTEXT
  5
7C59
330
7C52
100
AcDbEntity
  8
寸法線
 62
     7
100
AcDbMText
 10
1890.319121279494
 20
116.7331189037593
 30
0.0
 40
2.5
 41
0.0
 71
     5
 72
     1
  1
15
 11
0.0000000000000001
 21
1.0
 31
0.0
 73
     1
 44
1.0
1001
ACAD
1000
MTEXTBEGIN
1070
    73
1070
     1
1070
    44
1040
1.0
1070
    74
1070
     0
1000
MTEXTEND
  0
POINT
  5
7C5A
330
7C52
100
AcDbEntity
  8
Defpoints
 62
     0
100
AcDbPoint
 10
1840.469121279493
 20
109.2331189037591
 30
0.0
  0
POINT
  5
7C5B
330
7C52
100
AcDbEntity
  8
Defpoints
 62
     0
100
AcDbPoint
 10
1840.469121279493
 20
124.233118903759
 30
0.0
  0
POINT
  5
7C5C
330
7C52
100
AcDbEntity
  8
Defpoints
 62
     0
100
AcDbPoint
 10
1892.469121279494
 20
124.233118903759
 30
0.0
  0
ENDBLK
  5
7C5D
330
7C52
100
AcDbEntity
  8
0
100
AcDbBlockEnd
  0
BLOCK
  5
7DF9
330
7DF8
100
AcDbEntity
  8
0
100
AcDbBlockBegin
  2
*D40
 70
     1
 10
0.0
 20
0.0
 30
0.0
  3
*D40
  1

  0
LINE
  5
7F57
330
7DF8
100
AcDbEntity
  8
寸法線
 62
     0
370
    -2
100
AcDbLine
 10
447.3903983718084
 20
158.4775764187917
 30
0.0
 11
507.0903983718085
 21
158.4775764187917
 31
0.0
  0
LINE
  5
7F58
330
7DF8
100
AcDbEntity
  8
寸法線
 62
     0
370
    -2
100
AcDbLine
 10
447.3903983718084
 20
278.4775764187917
 30
0.0
 11
507.0903983718085
 21
278.4775764187917
 31
0.0
  0
LINE
  5
7F59
330
7DF8
100
AcDbEntity
  8
寸法線
 62
     0
370
    -2
100
AcDbLine
 10
507.0903983718085
 20
158.4775764187917
 30
0.0
 11
507.0903983718085
 21
278.4775764187917
 31
0.0
  0
INSERT
  5
7F5A
330
7DF8
100
AcDbEntity
  8
寸法線
 62
     0
370
    -2
100
AcDbBlockReference
  2
_DotSmall
 10
507.0903983718085
 20
158.4775764187917
 30
0.0
 41
11.7
 42
11.7
 43
11.7
 50
270.0
  0
INSERT
  5
7F5B
330
7DF8
100
AcDbEntity
  8
寸法線
 62
     0
370
    -2
100
AcDbBlockReference
  2
_DotSmall
 10
507.0903983718085
 20
278.4775764187917
 30
0.0
 41
11.7
 42
11.7
 43
11.7
 50
90.0
  0
MTEXT
  5
7F5C
330
7DF8
100
AcDbEntity
  8
寸法線
 62
     7
100
AcDbMText
 10
500.6403983718085
 20
218.4775764187918
 30
0.0
 40
7.5
 41
0.0
 71
     5
 72
     1
  1
120
 11
0.0000000000000001
 21
1.0
 31
0.0
 73
     1
 44
1.0
1001
ACAD
1000
MTEXTBEGIN
1070
    73
1070
     1
1070
    44
1040
1.0
1070
    74
1070
     0
1000
MTEXTEND
  0
POINT
  5
7F5D
330
7DF8
100
AcDbEntity
  8
Defpoints
 62
     0
100
AcDbPoint
 10
441.0903983718085
 20
158.4775764187917
 30
0.0
  0
POINT
  5
7F5E
330
7DF8
100
AcDbEntity
  8
Defpoints
 62
     0
100
AcDbPoint
 10
441.0903983718085
 20
278.4775764187917
 30
0.0
  0
POINT
  5
7F5F
330
7DF8
100
AcDbEntity
  8
Defpoints
 62
     0
100
AcDbPoint
 10
507.0903983718085
 20
278.4775764187917
 30
0.0
  0
ENDBLK
  5
7DFA
330
7DF8
100
AcDbEntity
  8
0
100
AcDbBlockEnd
  0
BLOCK
  5
7E05
330
7E04
100
AcDbEntity
  8
0
100
AcDbBlockBegin
  2
*D41
 70
     1
 10
0.0
 20
0.0
 30
0.0
  3
*D41
  1

  0
LINE
  5
7F4E
330
7E04
100
AcDbEntity
  8
寸法線
 62
     0
370
    -2
100
AcDbLine
 10
694.681952465357
 20
230.4775764187917
 30
0.0
 11
740.3819524653568
 21
230.4775764187917
 31
0.0
  0
LINE
  5
7F4F
330
7E04
100
AcDbEntity
  8
寸法線
 62
     0
370
    -2
100
AcDbLine
 10
694.6819524653567
 20
245.4775764187917
 30
0.0
 11
740.3819524653568
 21
245.4775764187917
 31
0.0
  0
LINE
  5
7F50
330
7E04
100
AcDbEntity
  8
寸法線
 62
     0
370
    -2
100
AcDbLine
 10
740.3819524653568
 20
230.4775764187917
 30
0.0
 11
740.3819524653568
 21
245.4775764187917
 31
0.0
  0
INSERT
  5
7F51
330
7E04
100
AcDbEntity
  8
寸法線
 62
     0
370
    -2
100
AcDbBlockReference
  2
_DotSmall
 10
740.3819524653568
 20
230.4775764187917
 30
0.0
 41
11.7
 42
11.7
 43
11.7
 50
270.0
  0
INSERT
  5
7F52
330
7E04
100
AcDbEntity
  8
寸法線
 62
     0
370
    -2
100
AcDbBlockReference
  2
_DotSmall
 10
740.3819524653568
 20
245.4775764187917
 30
0.0
 41
11.7
 42
11.7
 43
11.7
 50
90.0
  0
MTEXT
  5
7F53
330
7E04
100
AcDbEntity
  8
寸法線
 62
     7
100
AcDbMText
 10
733.9319524653567
 20
237.9775764187918
 30
0.0
 40
7.5
 41
0.0
 71
     5
 72
     1
  1
15
 11
0.0000000000000001
 21
1.0
 31
0.0
 73
     1
 44
1.0
1001
ACAD
1000
MTEXTBEGIN
1070
    73
1070
     1
1070
    44
1040
1.0
1070
    74
1070
     0
1000
MTEXTEND
  0
POINT
  5
7F54
330
7E04
100
AcDbEntity
  8
Defpoints
 62
     0
100
AcDbPoint
 10
688.3819524653572
 20
230.4775764187917
 30
0.0
  0
POINT
  5
7F55
330
7E04
100
AcDbEntity
  8
Defpoints
 62
     0
100
AcDbPoint
 10
688.3819524653567
 20
245.4775764187917
 30
0.0
  0
POINT
  5
7F56
330
7E04
100
AcDbEntity
  8
Defpoints
 62
     0
100
AcDbPoint
 10
740.3819524653568
 20
245.4775764187917
 30
0.0
  0
ENDBLK
  5
7E06
330
7E04
100
AcDbEntity
  8
0
100
AcDbBlockEnd
  0
BLOCK
  5
7E11
330
7E10
100
AcDbEntity
  8
0
100
AcDbBlockBegin
  2
*D42
 70
     1
 10
0.0
 20
0.0
 30
0.0
  3
*D42
  1

  0
LINE
  5
7F45
330
7E10
100
AcDbEntity
  8
寸法線
 62
     0
370
    -2
100
AcDbLine
 10
694.6819524653567
 20
125.4775764187917
 30
0.0
 11
740.3819524653568
 21
125.4775764187917
 31
0.0
  0
LINE
  5
7F46
330
7E10
100
AcDbEntity
  8
寸法線
 62
     0
370
    -2
100
AcDbLine
 10
694.681952465357
 20
230.4775764187917
 30
0.0
 11
740.3819524653568
 21
230.4775764187917
 31
0.0
  0
LINE
  5
7F47
330
7E10
100
AcDbEntity
  8
寸法線
 62
     0
370
    -2
100
AcDbLine
 10
740.3819524653568
 20
125.4775764187917
 30
0.0
 11
740.3819524653568
 21
230.4775764187917
 31
0.0
  0
INSERT
  5
7F48
330
7E10
100
AcDbEntity
  8
寸法線
 62
     0
370
    -2
100
AcDbBlockReference
  2
_DotSmall
 10
740.3819524653568
 20
125.4775764187917
 30
0.0
 41
11.7
 42
11.7
 43
11.7
 50
270.0
  0
INSERT
  5
7F49
330
7E10
100
AcDbEntity
  8
寸法線
 62
     0
370
    -2
100
AcDbBlockReference
  2
_DotSmall
 10
740.3819524653568
 20
230.4775764187917
 30
0.0
 41
11.7
 42
11.7
 43
11.7
 50
90.0
  0
MTEXT
  5
7F4A
330
7E10
100
AcDbEntity
  8
寸法線
 62
     7
100
AcDbMText
 10
733.9319524653567
 20
177.9775764187918
 30
0.0
 40
7.5
 41
0.0
 71
     5
 72
     1
  1
105
 11
0.0000000000000001
 21
1.0
 31
0.0
 73
     1
 44
1.0
1001
ACAD
1000
MTEXTBEGIN
1070
    73
1070
     1
1070
    44
1040
1.0
1070
    74
1070
     0
1000
MTEXTEND
  0
POINT
  5
7F4B
330
7E10
100
AcDbEntity
  8
Defpoints
 62
     0
100
AcDbPoint
 10
688.3819524653567
 20
125.4775764187917
 30
0.0
  0
POINT
  5
7F4C
330
7E10
100
AcDbEntity
  8
Defpoints
 62
     0
100
AcDbPoint
 10
688.3819524653572
 20
230.4775764187917
 30
0.0
  0
POINT
  5
7F4D
330
7E10
100
AcDbEntity
  8
Defpoints
 62
     0
100
AcDbPoint
 10
740.3819524653568
 20
230.4775764187917
 30
0.0
  0
ENDBLK
  5
7E12
330
7E10
100
AcDbEntity
  8
0
100
AcDbBlockEnd
  0
BLOCK
  5
7E1D
330
7E1C
100
AcDbEntity
  8
0
100
AcDbBlockBegin
  2
*D43
 70
     1
 10
0.0
 20
0.0
 30
0.0
  3
*D43
  1

  0
LINE
  5
7F3C
330
7E1C
100
AcDbEntity
  8
寸法線
 62
     0
370
    -2
100
AcDbLine
 10
694.6819524653567
 20
110.4775764187917
 30
0.0
 11
740.3819524653568
 21
110.4775764187917
 31
0.0
  0
LINE
  5
7F3D
330
7E1C
100
AcDbEntity
  8
寸法線
 62
     0
370
    -2
100
AcDbLine
 10
704.6819524653567
 20
95.4775764187917
 30
0.0
 11
740.3819524653568
 21
95.4775764187917
 31
0.0
  0
LINE
  5
7F3E
330
7E1C
100
AcDbEntity
  8
寸法線
 62
     0
370
    -2
100
AcDbLine
 10
740.3819524653568
 20
110.4775764187917
 30
0.0
 11
740.3819524653568
 21
95.4775764187917
 31
0.0
  0
INSERT
  5
7F3F
330
7E1C
100
AcDbEntity
  8
寸法線
 62
     0
370
    -2
100
AcDbBlockReference
  2
_DotSmall
 10
740.3819524653568
 20
110.4775764187917
 30
0.0
 41
11.7
 42
11.7
 43
11.7
 50
90.0
  0
INSERT
  5
7F40
330
7E1C
100
AcDbEntity
  8
寸法線
 62
     0
370
    -2
100
AcDbBlockReference
  2
_DotSmall
 10
740.3819524653568
 20
95.4775764187917
 30
0.0
 41
11.7
 42
11.7
 43
11.7
 50
270.0
  0
MTEXT
  5
7F41
330
7E1C
100
AcDbEntity
  8
寸法線
 62
     7
100
AcDbMText
 10
733.9319524653567
 20
102.9775764187918
 30
0.0
 40
7.5
 41
0.0
 71
     5
 72
     1
  1
15
 11
0.0000000000000001
 21
1.0
 31
0.0
 73
     1
 44
1.0
1001
ACAD
1000
MTEXTBEGIN
1070
    73
1070
     1
1070
    44
1040
1.0
1070
    74
1070
     0
1000
MTEXTEND
  0
POINT
  5
7F42
330
7E1C
100
AcDbEntity
  8
Defpoints
 62
     0
100
AcDbPoint
 10
688.3819524653567
 20
110.4775764187917
 30
0.0
  0
POINT
  5
7F43
330
7E1C
100
AcDbEntity
  8
Defpoints
 62
     0
100
AcDbPoint
 10
698.3819524653568
 20
95.4775764187917
 30
0.0
  0
POINT
  5
7F44
330
7E1C
100
AcDbEntity
  8
Defpoints
 62
     0
100
AcDbPoint
 10
740.3819524653568
 20
95.4775764187917
 30
0.0
  0
ENDBLK
  5
7E1E
330
7E1C
100
AcDbEntity
  8
0
100
AcDbBlockEnd
  0
BLOCK
  5
7E29
330
7E28
100
AcDbEntity
  8
0
100
AcDbBlockBegin
  2
*D44
 70
     1
 10
0.0
 20
0.0
 30
0.0
  3
*D44
  1

  0
LINE
  5
7F33
330
7E28
100
AcDbEntity
  8
寸法線
 62
     0
370
    -2
100
AcDbLine
 10
681.3819524653568
 20
102.1775764187917
 30
0.0
 11
681.3819524653568
 21
65.47757641879172
 31
0.0
  0
LINE
  5
7F34
330
7E28
100
AcDbEntity
  8
寸法線
 62
     0
370
    -2
100
AcDbLine
 10
619.3819524653568
 20
104.1775764187917
 30
0.0
 11
619.3819524653568
 21
65.47757641879172
 31
0.0
  0
LINE
  5
7F35
330
7E28
100
AcDbEntity
  8
寸法線
 62
     0
370
    -2
100
AcDbLine
 10
681.3819524653568
 20
65.47757641879172
 30
0.0
 11
619.3819524653568
 21
65.47757641879172
 31
0.0
  0
INSERT
  5
7F36
330
7E28
100
AcDbEntity
  8
寸法線
 62
     0
370
    -2
100
AcDbBlockReference
  2
_DotSmall
 10
681.3819524653568
 20
65.47757641879172
 30
0.0
 41
11.7
 42
11.7
 43
11.7
  0
INSERT
  5
7F37
330
7E28
100
AcDbEntity
  8
寸法線
 62
     0
370
    -2
100
AcDbBlockReference
  2
_DotSmall
 10
619.3819524653568
 20
65.47757641879172
 30
0.0
 41
11.7
 42
11.7
 43
11.7
 50
180.0
  0
MTEXT
  5
7F38
330
7E28
100
AcDbEntity
  8
寸法線
 62
     7
100
AcDbMText
 10
650.3819524653567
 20
71.92757641879173
 30
0.0
 40
7.5
 41
0.0
 71
     5
 72
     1
  1
62
 73
     1
 44
1.0
1001
ACAD
1000
MTEXTBEGIN
1070
    73
1070
     1
1070
    44
1040
1.0
1070
    74
1070
     0
1000
MTEXTEND
  0
POINT
  5
7F39
330
7E28
100
AcDbEntity
  8
Defpoints
 62
     0
100
AcDbPoint
 10
681.3819524653568
 20
108.4775764187917
 30
0.0
  0
POINT
  5
7F3A
330
7E28
100
AcDbEntity
  8
Defpoints
 62
     0
100
AcDbPoint
 10
619.3819524653568
 20
110.4775764187917
 30
0.0
  0
POINT
  5
7F3B
330
7E28
100
AcDbEntity
  8
Defpoints
 62
     0
100
AcDbPoint
 10
619.3819524653568
 20
65.47757641879172
 30
0.0
  0
ENDBLK
  5
7E2A
330
7E28
100
AcDbEntity
  8
0
100
AcDbBlockEnd
  0
BLOCK
  5
7E35
330
7E34
100
AcDbEntity
  8
0
100
AcDbBlockBegin
  2
*D45
 70
     1
 10
0.0
 20
0.0
 30
0.0
  3
*D45
  1

  0
LINE
  5
7F2A
330
7E34
100
AcDbEntity
  8
寸法線
 62
     0
370
    -2
100
AcDbLine
 10
681.3819524653568
 20
102.1775764187917
 30
0.0
 11
681.3819524653568
 21
65.47757641879172
 31
0.0
  0
LINE
  5
7F2B
330
7E34
100
AcDbEntity
  8
寸法線
 62
     0
370
    -2
100
AcDbLine
 10
704.3819524653567
 20
95.17757641879171
 30
0.0
 11
704.3819524653567
 21
65.47757641879172
 31
0.0
  0
LINE
  5
7F2C
330
7E34
100
AcDbEntity
  8
寸法線
 62
     0
370
    -2
100
AcDbLine
 10
681.3819524653568
 20
65.47757641879172
 30
0.0
 11
704.3819524653567
 21
65.47757641879172
 31
0.0
  0
INSERT
  5
7F2D
330
7E34
100
AcDbEntity
  8
寸法線
 62
     0
370
    -2
100
AcDbBlockReference
  2
_DotSmall
 10
681.3819524653568
 20
65.47757641879172
 30
0.0
 41
11.7
 42
11.7
 43
11.7
 50
180.0
  0
INSERT
  5
7F2E
330
7E34
100
AcDbEntity
  8
寸法線
 62
     0
370
    -2
100
AcDbBlockReference
  2
_DotSmall
 10
704.3819524653567
 20
65.47757641879172
 30
0.0
 41
11.7
 42
11.7
 43
11.7
  0
MTEXT
  5
7F2F
330
7E34
100
AcDbEntity
  8
寸法線
 62
     7
100
AcDbMText
 10
692.8819524653568
 20
71.92757641879173
 30
0.0
 40
7.5
 41
0.0
 71
     5
 72
     1
  1
23
 73
     1
 44
1.0
1001
ACAD
1000
MTEXTBEGIN
1070
    73
1070
     1
1070
    44
1040
1.0
1070
    74
1070
     0
1000
MTEXTEND
  0
POINT
  5
7F30
330
7E34
100
AcDbEntity
  8
Defpoints
 62
     0
100
AcDbPoint
 10
681.3819524653568
 20
108.4775764187917
 30
0.0
  0
POINT
  5
7F31
330
7E34
100
AcDbEntity
  8
Defpoints
 62
     0
100
AcDbPoint
 10
704.3819524653567
 20
101.4775764187917
 30
0.0
  0
POINT
  5
7F32
330
7E34
100
AcDbEntity
  8
Defpoints
 62
     0
100
AcDbPoint
 10
704.3819524653567
 20
65.47757641879172
 30
0.0
  0
ENDBLK
  5
7E36
330
7E34
100
AcDbEntity
  8
0
100
AcDbBlockEnd
  0
BLOCK
  5
7E41
330
7E40
100
AcDbEntity
  8
0
100
AcDbBlockBegin
  2
*D46
 70
     1
 10
0.0
 20
0.0
 30
0.0
  3
*D46
  1

  0
LINE
  5
7F21
330
7E40
100
AcDbEntity
  8
寸法線
 62
     0
370
    -2
100
AcDbLine
 10
447.3903983718084
 20
158.4775764187917
 30
0.0
 11
507.0903983718086
 21
158.4775764187917
 31
0.0
  0
LINE
  5
7F22
330
7E40
100
AcDbEntity
  8
寸法線
 62
     0
370
    -2
100
AcDbLine
 10
470.3903983718085
 20
95.4775764187917
 30
0.0
 11
507.0903983718085
 21
95.4775764187917
 31
0.0
  0
LINE
  5
7F23
330
7E40
100
AcDbEntity
  8
寸法線
 62
     0
370
    -2
100
AcDbLine
 10
507.0903983718086
 20
158.4775764187917
 30
0.0
 11
507.0903983718085
 21
95.4775764187917
 31
0.0
  0
INSERT
  5
7F24
330
7E40
100
AcDbEntity
  8
寸法線
 62
     0
370
    -2
100
AcDbBlockReference
  2
_DotSmall
 10
507.0903983718086
 20
158.4775764187917
 30
0.0
 41
11.7
 42
11.7
 43
11.7
 50
90.0
  0
INSERT
  5
7F25
330
7E40
100
AcDbEntity
  8
寸法線
 62
     0
370
    -2
100
AcDbBlockReference
  2
_DotSmall
 10
507.0903983718085
 20
95.4775764187917
 30
0.0
 41
11.7
 42
11.7
 43
11.7
 50
270.0
  0
MTEXT
  5
7F26
330
7E40
100
AcDbEntity
  8
寸法線
 62
     7
100
AcDbMText
 10
500.6403983718085
 20
126.9775764187918
 30
0.0
 40
7.5
 41
0.0
 71
     5
 72
     1
  1
63
 11
0.0000000000000001
 21
1.0
 31
0.0
 73
     1
 44
1.0
1001
ACAD
1000
MTEXTBEGIN
1070
    73
1070
     1
1070
    44
1040
1.0
1070
    74
1070
     0
1000
MTEXTEND
  0
POINT
  5
7F27
330
7E40
100
AcDbEntity
  8
Defpoints
 62
     0
100
AcDbPoint
 10
441.0903983718085
 20
158.4775764187917
 30
0.0
  0
POINT
  5
7F28
330
7E40
100
AcDbEntity
  8
Defpoints
 62
     0
100
AcDbPoint
 10
464.0903983718084
 20
95.4775764187917
 30
0.0
  0
POINT
  5
7F29
330
7E40
100
AcDbEntity
  8
Defpoints
 62
     0
100
AcDbPoint
 10
507.0903983718085
 20
95.4775764187917
 30
0.0
  0
ENDBLK
  5
7E42
330
7E40
100
AcDbEntity
  8
0
100
AcDbBlockEnd
  0
BLOCK
  5
7E4D
330
7E4C
100
AcDbEntity
  8
0
100
AcDbBlockBegin
  2
*D47
 70
     1
 10
0.0
 20
0.0
 30
0.0
  3
*D47
  1

  0
LINE
  5
7F18
330
7E4C
100
AcDbEntity
  8
寸法線
 62
     0
370
    -2
100
AcDbLine
 10
121.0903983718085
 20
101.1775764187917
 30
0.0
 11
121.0903983718085
 21
65.47757641879172
 31
0.0
  0
LINE
  5
7F19
330
7E4C
100
AcDbEntity
  8
寸法線
 62
     0
370
    -2
100
AcDbLine
 10
471.0903983718084
 20
101.1775764187917
 30
0.0
 11
471.0903983718084
 21
65.47757641879172
 31
0.0
  0
LINE
  5
7F1A
330
7E4C
100
AcDbEntity
  8
寸法線
 62
     0
370
    -2
100
AcDbLine
 10
121.0903983718085
 20
65.47757641879172
 30
0.0
 11
471.0903983718084
 21
65.47757641879172
 31
0.0
  0
INSERT
  5
7F1B
330
7E4C
100
AcDbEntity
  8
寸法線
 62
     0
370
    -2
100
AcDbBlockReference
  2
_DotSmall
 10
121.0903983718085
 20
65.47757641879172
 30
0.0
 41
11.7
 42
11.7
 43
11.7
 50
180.0
  0
INSERT
  5
7F1C
330
7E4C
100
AcDbEntity
  8
寸法線
 62
     0
370
    -2
100
AcDbBlockReference
  2
_DotSmall
 10
471.0903983718084
 20
65.47757641879172
 30
0.0
 41
11.7
 42
11.7
 43
11.7
  0
MTEXT
  5
7F1D
330
7E4C
100
AcDbEntity
  8
寸法線
 62
     7
100
AcDbMText
 10
296.0903983718085
 20
71.92757641879173
 30
0.0
 40
7.5
 41
0.0
 71
     5
 72
     1
  1
350
 73
     1
 44
1.0
1001
ACAD
1000
MTEXTBEGIN
1070
    73
1070
     1
1070
    44
1040
1.0
1070
    74
1070
     0
1000
MTEXTEND
  0
POINT
  5
7F1E
330
7E4C
100
AcDbEntity
  8
Defpoints
 62
     0
100
AcDbPoint
 10
121.0903983718085
 20
107.4775764187917
 30
0.0
  0
POINT
  5
7F1F
330
7E4C
100
AcDbEntity
  8
Defpoints
 62
     0
100
AcDbPoint
 10
471.0903983718084
 20
107.4775764187917
 30
0.0
  0
POINT
  5
7F20
330
7E4C
100
AcDbEntity
  8
Defpoints
 62
     0
100
AcDbPoint
 10
471.0903983718084
 20
65.47757641879172
 30
0.0
  0
ENDBLK
  5
7E4E
330
7E4C
100
AcDbEntity
  8
0
100
AcDbBlockEnd
  0
BLOCK
  5
7E59
330
7E58
100
AcDbEntity
  8
0
100
AcDbBlockBegin
  2
*D48
 70
     1
 10
0.0
 20
0.0
 30
0.0
  3
*D48
  1

  0
LINE
  5
7F0F
330
7E58
100
AcDbEntity
  8
寸法線
 62
     0
370
    -2
100
AcDbLine
 10
121.7903983718083
 20
485.5422876331623
 30
0.0
 11
85.09039837180855
 21
485.5422876331623
 31
0.0
  0
LINE
  5
7F10
330
7E58
100
AcDbEntity
  8
寸法線
 62
     0
370
    -2
100
AcDbLine
 10
124.7903983718085
 20
400.5432905349874
 30
0.0
 11
85.09039837180853
 21
400.5432905349874
 31
0.0
  0
LINE
  5
7F11
330
7E58
100
AcDbEntity
  8
寸法線
 62
     0
370
    -2
100
AcDbLine
 10
85.09039837180855
 20
485.5422876331623
 30
0.0
 11
85.09039837180853
 21
400.5432905349874
 31
0.0
  0
INSERT
  5
7F12
330
7E58
100
AcDbEntity
  8
寸法線
 62
     0
370
    -2
100
AcDbBlockReference
  2
_DotSmall
 10
85.09039837180855
 20
485.5422876331623
 30
0.0
 41
11.7
 42
11.7
 43
11.7
 50
90.0
  0
INSERT
  5
7F13
330
7E58
100
AcDbEntity
  8
寸法線
 62
     0
370
    -2
100
AcDbBlockReference
  2
_DotSmall
 10
85.09039837180853
 20
400.5432905349874
 30
0.0
 41
11.7
 42
11.7
 43
11.7
 50
270.0
  0
MTEXT
  5
7F14
330
7E58
100
AcDbEntity
  8
寸法線
 62
     7
100
AcDbMText
 10
78.64039837180847
 20
443.0427890840746
 30
0.0
 40
7.5
 41
0.0
 71
     5
 72
     1
  1
85
 11
0.0000000000000001
 21
1.0
 31
0.0
 73
     1
 44
1.0
1001
ACAD
1000
MTEXTBEGIN
1070
    73
1070
     1
1070
    44
1040
1.0
1070
    74
1070
     0
1000
MTEXTEND
  0
POINT
  5
7F15
330
7E58
100
AcDbEntity
  8
Defpoints
 62
     0
100
AcDbPoint
 10
128.0903983718083
 20
485.5422876331622
 30
0.0
  0
POINT
  5
7F16
330
7E58
100
AcDbEntity
  8
Defpoints
 62
     0
100
AcDbPoint
 10
131.0903983718085
 20
400.5432905349872
 30
0.0
  0
POINT
  5
7F17
330
7E58
100
AcDbEntity
  8
Defpoints
 62
     0
100
AcDbPoint
 10
85.09039837180853
 20
400.5432905349874
 30
0.0
  0
ENDBLK
  5
7E5A
330
7E58
100
AcDbEntity
  8
0
100
AcDbBlockEnd
  0
BLOCK
  5
7E65
330
7E64
100
AcDbEntity
  8
0
100
AcDbBlockBegin
  2
*D49
 70
     1
 10
0.0
 20
0.0
 30
0.0
  3
*D49
  1

  0
LINE
  5
7F06
330
7E64
100
AcDbEntity
  8
寸法線
 62
     0
370
    -2
100
AcDbLine
 10
128.0903983718083
 20
476.8432905349871
 30
0.0
 11
128.0903983718083
 21
521.5422876331621
 31
0.0
  0
LINE
  5
7F07
330
7E64
100
AcDbEntity
  8
寸法線
 62
     0
370
    -2
100
AcDbLine
 10
464.0903983718088
 20
476.8432905349871
 30
0.0
 11
464.0903983718088
 21
521.5422876331621
 31
0.0
  0
LINE
  5
7F08
330
7E64
100
AcDbEntity
  8
寸法線
 62
     0
370
    -2
100
AcDbLine
 10
128.0903983718083
 20
521.5422876331621
 30
0.0
 11
464.0903983718088
 21
521.5422876331621
 31
0.0
  0
INSERT
  5
7F09
330
7E64
100
AcDbEntity
  8
寸法線
 62
     0
370
    -2
100
AcDbBlockReference
  2
_DotSmall
 10
128.0903983718083
 20
521.5422876331621
 30
0.0
 41
11.7
 42
11.7
 43
11.7
 50
180.0
  0
INSERT
  5
7F0A
330
7E64
100
AcDbEntity
  8
寸法線
 62
     0
370
    -2
100
AcDbBlockReference
  2
_DotSmall
 10
464.0903983718088
 20
521.5422876331621
 30
0.0
 41
11.7
 42
11.7
 43
11.7
  0
MTEXT
  5
7F0B
330
7E64
100
AcDbEntity
  8
寸法線
 62
     7
100
AcDbMText
 10
296.0903983718085
 20
527.9922876331623
 30
0.0
 40
7.5
 41
0.0
 71
     5
 72
     1
  1
336
 73
     1
 44
1.0
1001
ACAD
1000
MTEXTBEGIN
1070
    73
1070
     1
1070
    44
1040
1.0
1070
    74
1070
     0
1000
MTEXTEND
  0
POINT
  5
7F0C
330
7E64
100
AcDbEntity
  8
Defpoints
 62
     0
100
AcDbPoint
 10
128.0903983718083
 20
470.543290534987
 30
0.0
  0
POINT
  5
7F0D
330
7E64
100
AcDbEntity
  8
Defpoints
 62
     0
100
AcDbPoint
 10
464.0903983718088
 20
470.543290534987
 30
0.0
  0
POINT
  5
7F0E
330
7E64
100
AcDbEntity
  8
Defpoints
 62
     0
100
AcDbPoint
 10
464.0903983718088
 20
521.5422876331621
 30
0.0
  0
ENDBLK
  5
7E66
330
7E64
100
AcDbEntity
  8
0
100
AcDbBlockEnd
  0
BLOCK
  5
7E71
330
7E70
100
AcDbEntity
  8
0
100
AcDbBlockBegin
  2
*D50
 70
     1
 10
0.0
 20
0.0
 30
0.0
  3
*D50
  1

  0
LINE
  5
7EFD
330
7E70
100
AcDbEntity
  8
寸法線
 62
     0
370
    -2
100
AcDbLine
 10
121.7903983718085
 20
372.4775764187918
 30
0.0
 11
85.09039837180859
 21
372.4775764187918
 31
0.0
  0
LINE
  5
7EFE
330
7E70
100
AcDbEntity
  8
寸法線
 62
     0
370
    -2
100
AcDbLine
 10
121.7903983718085
 20
98.47757641879171
 30
0.0
 11
85.09039837180853
 21
98.47757641879177
 31
0.0
  0
LINE
  5
7EFF
330
7E70
100
AcDbEntity
  8
寸法線
 62
     0
370
    -2
100
AcDbLine
 10
85.09039837180859
 20
372.4775764187918
 30
0.0
 11
85.09039837180853
 21
98.47757641879177
 31
0.0
  0
INSERT
  5
7F00
330
7E70
100
AcDbEntity
  8
寸法線
 62
     0
370
    -2
100
AcDbBlockReference
  2
_DotSmall
 10
85.09039837180859
 20
372.4775764187918
 30
0.0
 41
11.7
 42
11.7
 43
11.7
 50
90.0
  0
INSERT
  5
7F01
330
7E70
100
AcDbEntity
  8
寸法線
 62
     0
370
    -2
100
AcDbBlockReference
  2
_DotSmall
 10
85.09039837180853
 20
98.47757641879177
 30
0.0
 41
11.7
 42
11.7
 43
11.7
 50
270.0
  0
MTEXT
  5
7F02
330
7E70
100
AcDbEntity
  8
寸法線
 62
     7
100
AcDbMText
 10
78.64039837180851
 20
235.4775764187918
 30
0.0
 40
7.5
 41
0.0
 71
     5
 72
     1
  1
274
 11
0.0000000000000001
 21
1.0
 31
0.0
 73
     1
 44
1.0
1001
ACAD
1000
MTEXTBEGIN
1070
    73
1070
     1
1070
    44
1040
1.0
1070
    74
1070
     0
1000
MTEXTEND
  0
POINT
  5
7F03
330
7E70
100
AcDbEntity
  8
Defpoints
 62
     0
100
AcDbPoint
 10
128.0903983718085
 20
372.4775764187918
 30
0.0
  0
POINT
  5
7F04
330
7E70
100
AcDbEntity
  8
Defpoints
 62
     0
100
AcDbPoint
 10
128.0903983718085
 20
98.47757641879171
 30
0.0
  0
POINT
  5
7F05
330
7E70
100
AcDbEntity
  8
Defpoints
 62
     0
100
AcDbPoint
 10
85.09039837180853
 20
98.47757641879177
 30
0.0
  0
ENDBLK
  5
7E72
330
7E70
100
AcDbEntity
  8
0
100
AcDbBlockEnd
  0
BLOCK
  5
7E7D
330
7E7C
100
AcDbEntity
  8
0
100
AcDbBlockBegin
  2
*D51
 70
     1
 10
0.0
 20
0.0
 30
0.0
  3
*D51
  1

  0
LINE
  5
7EF4
330
7E7C
100
AcDbEntity
  8
寸法線
 62
     0
370
    -2
100
AcDbLine
 10
694.6819524653567
 20
110.4775764187917
 30
0.0
 11
740.3819524653568
 21
110.4775764187917
 31
0.0
  0
LINE
  5
7EF5
330
7E7C
100
AcDbEntity
  8
寸法線
 62
     0
370
    -2
100
AcDbLine
 10
694.6819524653567
 20
125.4775764187917
 30
0.0
 11
740.3819524653568
 21
125.4775764187917
 31
0.0
  0
LINE
  5
7EF6
330
7E7C
100
AcDbEntity
  8
寸法線
 62
     0
370
    -2
100
AcDbLine
 10
740.3819524653568
 20
110.4775764187917
 30
0.0
 11
740.3819524653568
 21
125.4775764187917
 31
0.0
  0
INSERT
  5
7EF7
330
7E7C
100
AcDbEntity
  8
寸法線
 62
     0
370
    -2
100
AcDbBlockReference
  2
_DotSmall
 10
740.3819524653568
 20
110.4775764187917
 30
0.0
 41
11.7
 42
11.7
 43
11.7
 50
270.0
  0
INSERT
  5
7EF8
330
7E7C
100
AcDbEntity
  8
寸法線
 62
     0
370
    -2
100
AcDbBlockReference
  2
_DotSmall
 10
740.3819524653568
 20
125.4775764187917
 30
0.0
 41
11.7
 42
11.7
 43
11.7
 50
90.0
  0
MTEXT
  5
7EF9
330
7E7C
100
AcDbEntity
  8
寸法線
 62
     7
100
AcDbMText
 10
733.9319524653567
 20
117.9775764187918
 30
0.0
 40
7.5
 41
0.0
 71
     5
 72
     1
  1
15
 11
0.0000000000000001
 21
1.0
 31
0.0
 73
     1
 44
1.0
1001
ACAD
1000
MTEXTBEGIN
1070
    73
1070
     1
1070
    44
1040
1.0
1070
    74
1070
     0
1000
MTEXTEND
  0
POINT
  5
7EFA
330
7E7C
100
AcDbEntity
  8
Defpoints
 62
     0
100
AcDbPoint
 10
688.3819524653567
 20
110.4775764187917
 30
0.0
  0
POINT
  5
7EFB
330
7E7C
100
AcDbEntity
  8
Defpoints
 62
     0
100
AcDbPoint
 10
688.3819524653567
 20
125.4775764187917
 30
0.0
  0
POINT
  5
7EFC
330
7E7C
100
AcDbEntity
  8
Defpoints
 62
     0
100
AcDbPoint
 10
740.3819524653568
 20
125.4775764187917
 30
0.0
  0
ENDBLK
  5
7E7E
330
7E7C
100
AcDbEntity
  8
0
100
AcDbBlockEnd
  0
ENDSEC
  0
SECTION
  2
ENTITIES
  0
MTEXT
  5
6C5B
330
1F
100
AcDbEntity
  8
図面枠
 62
     0
100
AcDbMText
 10
145.4999999999986
 20
35.99999999999727
 30
0.0
 40
8.999999999999886
 41
0.0
 71
     4
 72
     5
  1
ﾚｰﾘﾝｸﾞｼｽﾃﾑ　LINERO　調味料置き　2段ﾀｲﾌﾟ
 73
     1
 44
1.0
1001
ACAD
1000
MTEXTBEGIN
1070
    73
1070
     1
1070
    44
1040
1.0
1070
    74
1070
     0
1000
MTEXTEND
  0
MTEXT
  5
6C60
330
1F
100
AcDbEntity
  8
図面枠
 62
     0
100
AcDbMText
 10
145.4999999999986
 20
11.99999999999727
 30
0.0
 40
8.999999999999886
 41
0.0
 71
     4
 72
     5
  1
Art.No. 521.19.221
 73
     1
 44
1.0
1001
ACAD
1000
MTEXTBEGIN
1070
    73
1070
     1
1070
    44
1040
1.0
1070
    74
1070
     0
1000
MTEXTEND
  0
DIMENSION
  5
7D2E
330
1F
100
AcDbEntity
  8
寸法線
100
AcDbDimension
  2
*D40
 10
507.0903983718085
 20
278.4775764187917
 30
0.0
 11
500.6403983718085
 21
218.4775764187918
 31
0.0
 70
    32
 71
     5
 42
120.0
  3
ISO-25
100
AcDbAlignedDimension
 13
441.0903983718085
 23
158.4775764187917
 33
0.0
 14
441.0903983718085
 24
278.4775764187917
 34
0.0
 50
90.0
100
AcDbRotatedDimension
1001
ACAD
1000
DSTYLE
1002
{
1070
    40
1040
3.0
1002
}
  0
LINE
  5
7D2F
330
1F
100
AcDbEntity
  8
実線  太
100
AcDbLine
 10
461.0903983718085
 20
101.4775764187917
 30
0.0
 11
461.0903983718085
 21
107.4775764187917
 31
0.0
  0
LINE
  5
7D30
330
1F
100
AcDbEntity
  8
実線  太
100
AcDbLine
 10
467.0903983718084
 20
101.4775764187917
 30
0.0
 11
467.0903983718084
 21
107.4775764187917
 31
0.0
  0
LINE
  5
7D31
330
1F
100
AcDbEntity
  8
実線  太
100
AcDbLine
 10
471.0903983718084
 20
107.4775764187917
 30
0.0
 11
471.0903983718084
 21
125.4775764187917
 31
0.0
  0
ARC
  5
7D32
330
1F
100
AcDbEntity
  8
実線  太
100
AcDbCircle
 10
464.0903983718084
 20
101.4775764187917
 30
0.0
 40
5.999999999999971
100
AcDbArc
 50
120.0000000000005
 51
59.99999999999944
  0
ARC
  5
7D33
330
1F
100
AcDbEntity
  8
実線  太
100
AcDbCircle
 10
464.0903983718084
 20
101.4775764187917
 30
0.0
 40
3.0
100
AcDbArc
 50
180.0
 51
0.0
  0
ARC
  5
7D34
330
1F
100
AcDbEntity
  8
実線  細
100
AcDbCircle
 10
464.0903983718084
 20
101.4775764187917
 30
0.0
 40
3.5
100
AcDbArc
 50
148.9972808661285
 51
31.00271913387147
  0
DIMENSION
  5
7D35
330
1F
100
AcDbEntity
  8
寸法線
100
AcDbDimension
  2
*D41
 10
740.3819524653568
 20
245.4775764187917
 30
0.0
 11
733.9319524653567
 21
237.9775764187918
 31
0.0
 70
    32
 71
     5
 42
15.0
  3
ISO-25
100
AcDbAlignedDimension
 13
688.3819524653572
 23
230.4775764187917
 33
0.0
 14
688.3819524653567
 24
245.4775764187917
 34
0.0
 50
90.0
100
AcDbRotatedDimension
1001
ACAD
1000
DSTYLE
1002
{
1070
    40
1040
3.0
1002
}
  0
DIMENSION
  5
7D36
330
1F
100
AcDbEntity
  8
寸法線
100
AcDbDimension
  2
*D42
 10
740.3819524653568
 20
230.4775764187917
 30
0.0
 11
733.9319524653567
 21
177.9775764187918
 31
0.0
 70
    32
 71
     5
 42
105.0
  3
ISO-25
100
AcDbAlignedDimension
 13
688.3819524653567
 23
125.4775764187917
 33
0.0
 14
688.3819524653572
 24
230.4775764187917
 34
0.0
 50
90.0
100
AcDbRotatedDimension
1001
ACAD
1000
DSTYLE
1002
{
1070
    40
1040
3.0
1002
}
  0
DIMENSION
  5
7D37
330
1F
100
AcDbEntity
  8
寸法線
100
AcDbDimension
  2
*D43
 10
740.3819524653568
 20
95.4775764187917
 30
0.0
 11
733.9319524653567
 21
102.9775764187918
 31
0.0
 70
    32
 71
     5
 42
15.0
  3
ISO-25
100
AcDbAlignedDimension
 13
688.3819524653567
 23
110.4775764187917
 33
0.0
 14
698.3819524653568
 24
95.4775764187917
 34
0.0
 50
90.0
100
AcDbRotatedDimension
1001
ACAD
1000
DSTYLE
1002
{
1070
    40
1040
3.0
1002
}
  0
DIMENSION
  5
7D38
330
1F
100
AcDbEntity
  8
寸法線
100
AcDbDimension
  2
*D44
 10
619.3819524653568
 20
65.47757641879172
 30
0.0
 11
650.3819524653567
 21
71.92757641879173
 31
0.0
 70
    32
 71
     5
 42
62.0
  3
ISO-25
100
AcDbAlignedDimension
 13
681.3819524653568
 23
108.4775764187917
 33
0.0
 14
619.3819524653568
 24
110.4775764187917
 34
0.0
100
AcDbRotatedDimension
1001
ACAD
1000
DSTYLE
1002
{
1070
    40
1040
3.0
1002
}
  0
DIMENSION
  5
7D39
330
1F
100
AcDbEntity
  8
寸法線
100
AcDbDimension
  2
*D45
 10
704.3819524653567
 20
65.47757641879172
 30
0.0
 11
692.8819524653568
 21
71.92757641879173
 31
0.0
 70
    32
 71
     5
 42
23.0
  3
ISO-25
100
AcDbAlignedDimension
 13
681.3819524653568
 23
108.4775764187917
 33
0.0
 14
704.3819524653567
 24
101.4775764187917
 34
0.0
100
AcDbRotatedDimension
1001
ACAD
1000
DSTYLE
1002
{
1070
    40
1040
3.0
1002
}
  0
DIMENSION
  5
7D3A
330
1F
100
AcDbEntity
  8
寸法線
100
AcDbDimension
  2
*D46
 10
507.0903983718085
 20
95.4775764187917
 30
0.0
 11
500.6403983718085
 21
126.9775764187918
 31
0.0
 70
    32
 71
     5
 42
62.99999999999998
  3
ISO-25
100
AcDbAlignedDimension
 13
441.0903983718085
 23
158.4775764187917
 33
0.0
 14
464.0903983718084
 24
95.4775764187917
 34
0.0
 50
90.0
100
AcDbRotatedDimension
1001
ACAD
1000
DSTYLE
1002
{
1070
    40
1040
3.0
1002
}
  0
DIMENSION
  5
7D3B
330
1F
100
AcDbEntity
  8
寸法線
100
AcDbDimension
  2
*D47
 10
471.0903983718084
 20
65.47757641879172
 30
0.0
 11
296.0903983718085
 21
71.92757641879173
 31
0.0
 70
    32
 71
     5
 42
350.0
  3
ISO-25
100
AcDbAlignedDimension
 13
121.0903983718085
 23
107.4775764187917
 33
0.0
 14
471.0903983718084
 24
107.4775764187917
 34
0.0
100
AcDbRotatedDimension
1001
ACAD
1000
DSTYLE
1002
{
1070
    40
1040
3.0
1002
}
  0
LINE
  5
7D3C
330
1F
100
AcDbEntity
  8
実線  太
100
AcDbLine
 10
461.0903983718085
 20
456.1890418460517
 30
0.0
 11
461.0903983718085
 21
465.543290534987
 31
0.0
  0
LINE
  5
7D3D
330
1F
100
AcDbEntity
  8
実線  太
100
AcDbLine
 10
461.0903983718085
 20
468.5432905349871
 30
0.0
 11
461.0903983718085
 21
469.543290534987
 31
0.0
  0
LINE
  5
7D3E
330
1F
100
AcDbEntity
  8
破線
 48
0.1
100
AcDbLine
 10
461.0903983718086
 20
469.543290534987
 30
0.0
 11
461.0903983718086
 21
483.043290534987
 31
0.0
  0
LINE
  5
7D3F
330
1F
100
AcDbEntity
  8
実線  太
100
AcDbLine
 10
460.5903983718087
 20
469.543290534987
 30
0.0
 11
458.0903983718086
 21
479.543290534987
 31
0.0
  0
LINE
  5
7D40
330
1F
100
AcDbEntity
  8
実線  太
100
AcDbLine
 10
461.0903983718085
 20
429.543290534987
 30
0.0
 11
461.0903983718085
 21
453.543290534987
 31
0.0
  0
LINE
  5
7D41
330
1F
100
AcDbEntity
  8
実線  太
100
AcDbLine
 10
467.0903983718084
 20
456.1890418460517
 30
0.0
 11
467.0903983718084
 21
469.543290534987
 31
0.0
  0
LINE
  5
7D42
330
1F
100
AcDbEntity
  8
実線  太
100
AcDbLine
 10
467.0903983718084
 20
469.5432905349871
 30
0.0
 11
471.0903983718084
 21
469.5432905349871
 31
0.0
  0
LINE
  5
7D43
330
1F
100
AcDbEntity
  8
破線
 48
0.1
100
AcDbLine
 10
467.0903983718087
 20
469.543290534987
 30
0.0
 11
467.0903983718087
 21
483.043290534987
 31
0.0
  0
LINE
  5
7D44
330
1F
100
AcDbEntity
  8
実線  太
100
AcDbLine
 10
467.5903983718087
 20
469.543290534987
 30
0.0
 11
470.0903983718086
 21
479.543290534987
 31
0.0
  0
LINE
  5
7D45
330
1F
100
AcDbEntity
  8
実線  太
100
AcDbLine
 10
466.9951358814641
 20
428.7932905349872
 30
0.0
 11
467.0903983718084
 21
428.7932905349872
 31
0.0
  0
LINE
  5
7D46
330
1F
100
AcDbEntity
  8
実線  太
100
AcDbLine
 10
471.0903983718084
 20
410.5432905349871
 30
0.0
 11
471.0903983718084
 21
469.5432905349871
 31
0.0
  0
LINE
  5
7D47
330
1F
100
AcDbEntity
  8
実線  太
100
AcDbLine
 10
467.0903983718084
 20
410.5432905349871
 30
0.0
 11
467.0903983718084
 21
453.543290534987
 31
0.0
  0
ARC
  5
7D48
330
1F
100
AcDbEntity
  8
実線  太
100
AcDbCircle
 10
464.0903983718084
 20
429.543290534987
 30
0.0
 40
3.0
100
AcDbArc
 50
180.0
 51
0.0
  0
ARC
  5
7D49
330
1F
100
AcDbEntity
  8
実線  太
100
AcDbCircle
 10
464.0903983718084
 20
453.543290534987
 30
0.0
 40
4.0
100
AcDbArc
 50
318.5903778907302
 51
221.4096221092697
  0
ARC
  5
7D4A
330
1F
100
AcDbEntity
  8
実線  太
100
AcDbCircle
 10
464.0903983718084
 20
453.543290534987
 30
0.0
 40
3.0
100
AcDbArc
 50
0.0
 51
180.0
  0
LINE
  5
7D4B
330
1F
100
AcDbEntity
  8
実線  太
100
AcDbLine
 10
467.5903983718087
 20
469.543290534987
 30
0.0
 11
460.5903983718087
 21
469.543290534987
 31
0.0
  0
ARC
  5
7D4C
330
1F
100
AcDbEntity
  8
実線  太
100
AcDbCircle
 10
464.0903983718084
 20
465.543290534987
 30
0.0
 40
3.0
100
AcDbArc
 50
0.0
 51
180.0
  0
ARC
  5
7D4D
330
1F
100
AcDbEntity
  8
実線  太
100
AcDbCircle
 10
464.0903983718088
 20
479.543290534987
 30
0.0
 40
6.0
100
AcDbArc
 50
0.0
 51
180.0
  0
LINE
  5
7D4E
330
1F
100
AcDbEntity
  8
実線  細
100
AcDbLine
 10
458.0903983718086
 20
479.543290534987
 30
0.0
 11
470.0903983718086
 21
479.543290534987
 31
0.0
  0
LINE
  5
7D4F
330
1F
100
AcDbEntity
  8
破線
 48
0.1
100
AcDbLine
 10
461.0903983718086
 20
483.043290534987
 30
0.0
 11
467.0903983718087
 21
483.043290534987
 31
0.0
  0
DIMENSION
  5
7D50
330
1F
100
AcDbEntity
  8
寸法線
100
AcDbDimension
  2
*D48
 10
85.09039837180853
 20
400.5432905349874
 30
0.0
 11
78.64039837180847
 21
443.0427890840746
 31
0.0
 70
    32
 71
     5
 42
84.99899709817498
  3
ISO-25
100
AcDbAlignedDimension
 13
128.0903983718083
 23
485.5422876331622
 33
0.0
 14
131.0903983718085
 24
400.5432905349872
 34
0.0
 50
90.0
100
AcDbRotatedDimension
1001
ACAD
1000
DSTYLE
1002
{
1070
    40
1040
3.0
1002
}
  0
DIMENSION
  5
7D51
330
1F
100
AcDbEntity
  8
寸法線
100
AcDbDimension
  2
*D49
 10
464.0903983718088
 20
521.5422876331621
 30
0.0
 11
296.0903983718085
 21
527.9922876331623
 31
0.0
 70
    32
 71
     5
 42
336.0000000000005
  3
ISO-25
100
AcDbAlignedDimension
 13
128.0903983718083
 23
470.543290534987
 33
0.0
 14
464.0903983718088
 24
470.543290534987
 34
0.0
100
AcDbRotatedDimension
1001
ACAD
1000
DSTYLE
1002
{
1070
    40
1040
3.0
1002
}
  0
DIMENSION
  5
7D52
330
1F
100
AcDbEntity
  8
寸法線
100
AcDbDimension
  2
*D50
 10
85.09039837180853
 20
98.47757641879177
 30
0.0
 11
78.64039837180851
 21
235.4775764187918
 31
0.0
 70
    32
 71
     5
 42
274.0
  3
ISO-25
100
AcDbAlignedDimension
 13
128.0903983718085
 23
372.4775764187918
 33
0.0
 14
128.0903983718085
 24
98.47757641879171
 34
0.0
 50
90.0
100
AcDbRotatedDimension
1001
ACAD
1000
DSTYLE
1002
{
1070
    40
1040
3.0
1002
}
  0
LINE
  5
7D53
330
1F
100
AcDbEntity
  8
実線  太
100
AcDbLine
 10
687.3819524653567
 20
108.4775764187914
 30
0.0
 11
687.3819524653567
 21
110.4775764187917
 31
0.0
  0
LINE
  5
7D54
330
1F
100
AcDbEntity
  8
実線  太
100
AcDbLine
 10
681.3819524653568
 20
110.4775764187917
 30
0.0
 11
681.3819524653568
 21
108.4775764187909
 31
0.0
  0
CIRCLE
  5
7D55
330
1F
100
AcDbEntity
  8
破線
 48
0.1
100
AcDbCircle
 10
684.381952465357
 20
158.4775764187917
 30
0.0
 40
3.0
  0
CIRCLE
  5
7D56
330
1F
100
AcDbEntity
  8
破線
 48
0.1
100
AcDbCircle
 10
684.381952465357
 20
278.4775764187917
 30
0.0
 40
3.0
  0
LINE
  5
7D57
330
1F
100
AcDbEntity
  8
実線  太
100
AcDbLine
 10
677.1066973367482
 20
230.4775764187917
 30
0.0
 11
688.3819524653567
 21
230.4775764187917
 31
0.0
  0
LINE
  5
7D58
330
1F
100
AcDbEntity
  8
実線  太
100
AcDbLine
 10
662.1066973367483
 20
230.4775764187917
 30
0.0
 11
674.6572075939653
 21
230.4775764187917
 31
0.0
  0
LINE
  5
7D59
330
1F
100
AcDbEntity
  8
実線  太
100
AcDbLine
 10
647.1066973367483
 20
230.4775764187917
 30
0.0
 11
659.6572075939652
 21
230.4775764187917
 31
0.0
  0
LINE
  5
7D5A
330
1F
100
AcDbEntity
  8
実線  太
100
AcDbLine
 10
677.1066973367482
 20
110.4775764187917
 30
0.0
 11
688.3819524653567
 21
110.4775764187917
 31
0.0
  0
LINE
  5
7D5B
330
1F
100
AcDbEntity
  8
実線  太
100
AcDbLine
 10
662.1066973367483
 20
110.4775764187917
 30
0.0
 11
674.6572075939653
 21
110.4775764187917
 31
0.0
  0
LINE
  5
7D5C
330
1F
100
AcDbEntity
  8
実線  太
100
AcDbLine
 10
647.1066973367483
 20
110.4775764187917
 30
0.0
 11
659.6572075939652
 21
110.4775764187917
 31
0.0
  0
LINE
  5
7D5D
330
1F
100
AcDbEntity
  8
実線  太
100
AcDbLine
 10
688.3819524653567
 20
125.4775764187917
 30
0.0
 11
688.3819524653567
 21
110.4775764187917
 31
0.0
  0
CIRCLE
  5
7D5E
330
1F
100
AcDbEntity
  8
実線  太
100
AcDbCircle
 10
675.8819524653567
 20
109.2275764187917
 30
0.0
 40
1.75
  0
CIRCLE
  5
7D5F
330
1F
100
AcDbEntity
  8
実線  太
100
AcDbCircle
 10
660.8819524653568
 20
109.2275764187917
 30
0.0
 40
1.75
  0
CIRCLE
  5
7D60
330
1F
100
AcDbEntity
  8
実線  太
100
AcDbCircle
 10
645.8819524653567
 20
109.2275764187917
 30
0.0
 40
1.75
  0
CIRCLE
  5
7D61
330
1F
100
AcDbEntity
  8
実線  太
100
AcDbCircle
 10
630.8819524653568
 20
109.2275764187917
 30
0.0
 40
1.75
  0
LINE
  5
7D62
330
1F
100
AcDbEntity
  8
実線  太
100
AcDbLine
 10
632.1066973367483
 20
110.4775764187917
 30
0.0
 11
644.6572075939652
 21
110.4775764187917
 31
0.0
  0
LINE
  5
7D63
330
1F
100
AcDbEntity
  8
実線  太
100
AcDbLine
 10
619.3819524653568
 20
110.4775764187917
 30
0.0
 11
619.3819524653568
 21
125.4775764187917
 31
0.0
  0
LINE
  5
7D64
330
1F
100
AcDbEntity
  8
実線  太
100
AcDbLine
 10
619.3819524653568
 20
125.4775764187917
 30
0.0
 11
688.3819524653567
 21
125.4775764187917
 31
0.0
  0
LINE
  5
7D65
330
1F
100
AcDbEntity
  8
実線  太
100
AcDbLine
 10
619.3819524653568
 20
110.4775764187917
 30
0.0
 11
629.6572075939653
 21
110.4775764187917
 31
0.0
  0
CIRCLE
  5
7D66
330
1F
100
AcDbEntity
  8
実線  太
100
AcDbCircle
 10
675.8819524653567
 20
229.2275764187917
 30
0.0
 40
1.75
  0
CIRCLE
  5
7D67
330
1F
100
AcDbEntity
  8
実線  太
100
AcDbCircle
 10
660.8819524653568
 20
229.2275764187917
 30
0.0
 40
1.75
  0
CIRCLE
  5
7D68
330
1F
100
AcDbEntity
  8
実線  太
100
AcDbCircle
 10
645.8819524653567
 20
229.2275764187917
 30
0.0
 40
1.75
  0
LINE
  5
7D69
330
1F
100
AcDbEntity
  8
実線  太
100
AcDbLine
 10
632.1066973367483
 20
230.4775764187917
 30
0.0
 11
644.6572075939652
 21
230.4775764187917
 31
0.0
  0
LINE
  5
7D6A
330
1F
100
AcDbEntity
  8
実線  太
100
AcDbLine
 10
687.381952465357
 20
230.4775764187917
 30
0.0
 11
687.3819524653567
 21
125.4775764187917
 31
0.0
  0
LINE
  5
7D6B
330
1F
100
AcDbEntity
  8
実線  太
100
AcDbLine
 10
681.3819524653569
 20
230.4775764187917
 30
0.0
 11
681.3819524653568
 21
125.4775764187917
 31
0.0
  0
LINE
  5
7D6C
330
1F
100
AcDbEntity
  8
実線  太
100
AcDbLine
 10
688.3819524653567
 20
245.4775764187917
 30
0.0
 11
688.3819524653567
 21
230.4775764187917
 31
0.0
  0
LINE
  5
7D6D
330
1F
100
AcDbEntity
  8
実線  太
100
AcDbLine
 10
619.3819524653568
 20
230.4775764187917
 30
0.0
 11
629.6572075939653
 21
230.4775764187917
 31
0.0
  0
CIRCLE
  5
7D6E
330
1F
100
AcDbEntity
  8
実線  太
100
AcDbCircle
 10
630.8819524653568
 20
229.2275764187917
 30
0.0
 40
1.75
  0
LINE
  5
7D6F
330
1F
100
AcDbEntity
  8
実線  太
100
AcDbLine
 10
619.3819524653568
 20
230.4775764187917
 30
0.0
 11
619.3819524653568
 21
245.4775764187917
 31
0.0
  0
LINE
  5
7D70
330
1F
100
AcDbEntity
  8
実線  太
100
AcDbLine
 10
619.3819524653568
 20
245.4775764187917
 30
0.0
 11
688.3819524653567
 21
245.4775764187917
 31
0.0
  0
LINE
  5
7D71
330
1F
100
AcDbEntity
  8
実線  太
100
AcDbLine
 10
687.381952465357
 20
289.7141204515011
 30
0.0
 11
687.3819524653567
 21
245.4775764187917
 31
0.0
  0
LINE
  5
7D72
330
1F
100
AcDbEntity
  8
実線  太
100
AcDbLine
 10
681.3819524653569
 20
289.7141204515011
 30
0.0
 11
681.3819524653568
 21
245.4775764187917
 31
0.0
  0
ARC
  5
7D73
330
1F
100
AcDbEntity
  8
実線  太
100
AcDbCircle
 10
464.0903983718084
 20
369.4775764187917
 30
0.0
 40
3.0
100
AcDbArc
 50
0.0
 51
180.0
  0
LINE
  5
7D74
330
1F
100
AcDbEntity
  8
実線  太
100
AcDbLine
 10
460.0903983718084
 20
360.4775764187917
 30
0.0
 11
461.0903983718085
 21
360.4775764187917
 31
0.0
  0
ARC
  5
7D75
330
1F
100
AcDbEntity
  8
実線  太
100
AcDbCircle
 10
464.0903983718084
 20
347.4775764187918
 30
0.0
 40
4.0
100
AcDbArc
 50
180.0
 51
221.4096221092697
  0
LINE
  5
7D76
330
1F
100
AcDbEntity
  8
実線  太
100
AcDbLine
 10
460.0903983718084
 20
360.4775764187917
 30
0.0
 11
460.0903983718084
 21
347.4775764187918
 31
0.0
  0
LINE
  5
7D77
330
1F
100
AcDbEntity
  8
実線  太
100
AcDbLine
 10
467.0903983718084
 20
360.4775764187917
 30
0.0
 11
468.0903983718084
 21
360.4775764187917
 31
0.0
  0
ARC
  5
7D78
330
1F
100
AcDbEntity
  8
実線  太
100
AcDbCircle
 10
464.0903983718084
 20
347.4775764187918
 30
0.0
 40
4.0
100
AcDbArc
 50
318.5903778907302
 51
0.0
  0
LINE
  5
7D79
330
1F
100
AcDbEntity
  8
実線  太
100
AcDbLine
 10
468.0903983718084
 20
360.4775764187917
 30
0.0
 11
468.0903983718084
 21
347.4775764187918
 31
0.0
  0
LINE
  5
7D7A
330
1F
100
AcDbEntity
  8
実線  太
100
AcDbLine
 10
471.0903983718084
 20
245.4775764187917
 30
0.0
 11
471.0903983718084
 21
227.4775764187917
 31
0.0
  0
LINE
  5
7D7B
330
1F
100
AcDbEntity
  8
実線  太
100
AcDbLine
 10
467.0903983718084
 20
125.4775764187917
 30
0.0
 11
467.0903983718084
 21
227.4775764187917
 31
0.0
  0
LINE
  5
7D7C
330
1F
100
AcDbEntity
  8
実線  太
100
AcDbLine
 10
461.0903983718085
 20
125.4775764187917
 30
0.0
 11
461.0903983718085
 21
227.4775764187917
 31
0.0
  0
LINE
  5
7D7D
330
1F
100
AcDbEntity
  8
実線  太
100
AcDbLine
 10
467.0903983718084
 20
245.4775764187917
 30
0.0
 11
467.0903983718084
 21
369.4775764187917
 31
0.0
  0
LINE
  5
7D7E
330
1F
100
AcDbEntity
  8
実線  太
100
AcDbLine
 10
461.0903983718085
 20
245.4775764187917
 30
0.0
 11
461.0903983718085
 21
369.4775764187917
 31
0.0
  0
LINE
  5
7D7F
330
1F
100
AcDbEntity
  8
実線  太
100
AcDbLine
 10
131.0903983718085
 20
155.4775764187917
 30
0.0
 11
461.0903983718085
 21
155.4775764187917
 31
0.0
  0
LINE
  5
7D80
330
1F
100
AcDbEntity
  8
実線  太
100
AcDbLine
 10
131.0903983718085
 20
161.4775764187917
 30
0.0
 11
461.0903983718085
 21
161.4775764187917
 31
0.0
  0
LINE
  5
7D81
330
1F
100
AcDbEntity
  8
実線  太
100
AcDbLine
 10
131.0903983718085
 20
275.4775764187917
 30
0.0
 11
461.0903983718085
 21
275.4775764187917
 31
0.0
  0
LINE
  5
7D82
330
1F
100
AcDbEntity
  8
実線  太
100
AcDbLine
 10
131.0903983718085
 20
281.4775764187917
 30
0.0
 11
461.0903983718085
 21
281.4775764187917
 31
0.0
  0
LINE
  5
7D83
330
1F
100
AcDbEntity
  8
実線  太
100
AcDbLine
 10
131.0903983718085
 20
245.4775764187917
 30
0.0
 11
131.0903983718085
 21
369.4775764187917
 31
0.0
  0
LINE
  5
7D84
330
1F
100
AcDbEntity
  8
実線  太
100
AcDbLine
 10
125.0903983718085
 20
245.4775764187917
 30
0.0
 11
125.0903983718085
 21
369.4775764187917
 31
0.0
  0
LINE
  5
7D85
330
1F
100
AcDbEntity
  8
実線  太
100
AcDbLine
 10
121.0903983718085
 20
245.4775764187917
 30
0.0
 11
121.0903983718085
 21
227.4775764187917
 31
0.0
  0
LINE
  5
7D86
330
1F
100
AcDbEntity
  8
実線  太
100
AcDbLine
 10
121.0903983718085
 20
227.4775764187917
 30
0.0
 11
471.0903983718084
 21
227.4775764187917
 31
0.0
  0
LINE
  5
7D87
330
1F
100
AcDbEntity
  8
実線  太
100
AcDbLine
 10
121.0903983718085
 20
230.4775764187917
 30
0.0
 11
471.0903983718084
 21
230.4775764187917
 31
0.0
  0
LINE
  5
7D88
330
1F
100
AcDbEntity
  8
実線  太
100
AcDbLine
 10
121.0903983718085
 20
245.4775764187917
 30
0.0
 11
471.0903983718084
 21
245.4775764187917
 31
0.0
  0
LINE
  5
7D89
330
1F
100
AcDbEntity
  8
実線  太
100
AcDbLine
 10
131.0903983718085
 20
125.4775764187917
 30
0.0
 11
131.0903983718085
 21
227.4775764187917
 31
0.0
  0
LINE
  5
7D8A
330
1F
100
AcDbEntity
  8
実線  太
100
AcDbLine
 10
125.0903983718085
 20
125.4775764187917
 30
0.0
 11
125.0903983718085
 21
227.4775764187917
 31
0.0
  0
LINE
  5
7D8B
330
1F
100
AcDbEntity
  8
実線  太
100
AcDbLine
 10
121.0903983718085
 20
125.4775764187917
 30
0.0
 11
471.0903983718084
 21
125.4775764187917
 31
0.0
  0
LINE
  5
7D8C
330
1F
100
AcDbEntity
  8
実線  太
100
AcDbLine
 10
121.0903983718085
 20
107.4775764187917
 30
0.0
 11
121.0903983718085
 21
125.4775764187917
 31
0.0
  0
LINE
  5
7D8D
330
1F
100
AcDbEntity
  8
実線  太
100
AcDbLine
 10
121.0903983718085
 20
110.4775764187917
 30
0.0
 11
471.0903983718084
 21
110.4775764187917
 31
0.0
  0
LINE
  5
7D8E
330
1F
100
AcDbEntity
  8
実線  太
100
AcDbLine
 10
121.0903983718085
 20
107.4775764187917
 30
0.0
 11
471.0903983718084
 21
107.4775764187917
 31
0.0
  0
LINE
  5
7D8F
330
1F
100
AcDbEntity
  8
実線  太
100
AcDbLine
 10
461.1856608621527
 20
428.7932905349872
 30
0.0
 11
130.9951358814642
 21
428.7932905349872
 31
0.0
  0
LINE
  5
7D90
330
1F
100
AcDbEntity
  8
実線  太
100
AcDbLine
 10
125.1856608621529
 20
428.7932905349872
 30
0.0
 11
125.0903983718085
 21
428.7932905349872
 31
0.0
  0
LINE
  5
7D91
330
1F
100
AcDbEntity
  8
実線  太
100
AcDbLine
 10
460.493524729324
 20
455.2932905349871
 30
0.0
 11
131.687272014293
 21
455.2932905349871
 31
0.0
  0
LINE
  5
7D92
330
1F
100
AcDbEntity
  8
実線  太
100
AcDbLine
 10
461.0903983718085
 20
458.7932905349871
 30
0.0
 11
131.0903983718085
 21
458.7932905349871
 31
0.0
  0
LINE
  5
7D93
330
1F
100
AcDbEntity
  8
実線  太
100
AcDbLine
 10
467.0903983718084
 20
425.2932905349871
 30
0.0
 11
125.0903983718085
 21
425.2932905349871
 31
0.0
  0
LINE
  5
7D94
330
1F
100
AcDbEntity
  8
実線  太
100
AcDbLine
 10
461.0903983718085
 20
443.793290534987
 30
0.0
 11
131.0903983718085
 21
443.793290534987
 31
0.0
  0
LINE
  5
7D95
330
1F
100
AcDbEntity
  8
実線  太
100
AcDbLine
 10
461.0903983718085
 20
440.293290534987
 30
0.0
 11
131.0903983718085
 21
440.2932905349872
 31
0.0
  0
LINE
  5
7D96
330
1F
100
AcDbEntity
  8
実線  太
100
AcDbLine
 10
467.0851877759494
 20
410.2932905349872
 30
0.0
 11
125.0956089676676
 21
410.2932905349873
 31
0.0
  0
LINE
  5
7D97
330
1F
100
AcDbEntity
  8
実線  太
100
AcDbLine
 10
467.0903983718084
 20
413.7932905349871
 30
0.0
 11
125.0903983718085
 21
413.7932905349871
 31
0.0
  0
LINE
  5
7D98
330
1F
100
AcDbEntity
  8
実線  太
100
AcDbLine
 10
131.0903983718085
 20
468.5432905349871
 30
0.0
 11
131.0903983718085
 21
469.543290534987
 31
0.0
  0
LINE
  5
7D99
330
1F
100
AcDbEntity
  8
実線  太
100
AcDbLine
 10
131.0903983718085
 20
462.543290534987
 30
0.0
 11
461.0903983718085
 21
462.543290534987
 31
0.0
  0
LINE
  5
7D9A
330
1F
100
AcDbEntity
  8
実線  太
100
AcDbLine
 10
128.0903983718085
 20
468.5432905349871
 30
0.0
 11
464.0903983718084
 21
468.5432905349871
 31
0.0
  0
LINE
  5
7D9B
330
1F
100
AcDbEntity
  8
実線  太
100
AcDbLine
 10
125.0903983718085
 20
469.5432905349871
 30
0.0
 11
121.0903983718085
 21
469.5432905349871
 31
0.0
  0
LINE
  5
7D9C
330
1F
100
AcDbEntity
  8
実線  太
100
AcDbLine
 10
461.0903983718085
 20
404.5432905349872
 30
0.0
 11
131.0903983718085
 21
404.5432905349872
 31
0.0
  0
ARC
  5
7D9D
330
1F
100
AcDbEntity
  8
破線
 48
0.1
100
AcDbCircle
 10
660.3819524653568
 20
357.4775764187917
 30
0.0
 40
15.0
100
AcDbArc
 50
0.0
 51
9.594068226864806
  0
ARC
  5
7D9E
330
1F
100
AcDbEntity
  8
破線
 48
0.1
100
AcDbCircle
 10
660.3819524653568
 20
357.4775764187917
 30
0.0
 40
9.0
100
AcDbArc
 50
0.0
 51
16.12762021316308
  0
LINE
  5
7D9F
330
1F
100
AcDbEntity
  8
実線  太
100
AcDbLine
 10
676.3819524653568
 20
359.9775764187918
 30
0.0
 11
668.3819524653568
 21
359.9775764187918
 31
0.0
  0
LINE
  5
7DA0
330
1F
100
AcDbEntity
  8
実線  太
100
AcDbLine
 10
673.4426126206231
 20
343.9169162470117
 30
0.0
 11
675.7961660277299
 21
346.2704696376051
 31
0.0
  0
ARC
  5
7DA1
330
1F
100
AcDbEntity
  8
実線  太
100
AcDbCircle
 10
674.3819524653567
 20
347.6846831999782
 30
0.0
 40
2.0
100
AcDbArc
 50
315.0000000000092
 51
0.0
  0
LINE
  5
7DA2
330
1F
100
AcDbEntity
  8
実線  太
100
AcDbLine
 10
671.3212922770635
 20
343.9169162470117
 30
0.0
 11
668.9677389029838
 21
346.2704696376051
 31
0.0
  0
ARC
  5
7DA3
330
1F
100
AcDbEntity
  8
実線  太
100
AcDbCircle
 10
670.3819524653567
 20
347.6846831999782
 30
0.0
 40
2.0
100
AcDbArc
 50
180.0
 51
224.9999999999908
  0
ARC
  5
7DA4
330
1F
100
AcDbEntity
  8
実線  太
100
AcDbCircle
 10
672.3819524488432
 20
344.9775764187917
 30
0.0
 40
1.5
100
AcDbArc
 50
225.0000000000092
 51
314.9999999999908
  0
LINE
  5
7DA5
330
1F
100
AcDbEntity
  8
破線
 48
0.1
100
AcDbLine
 10
669.3819524653568
 20
346.9775764187917
 30
0.0
 11
675.3819524653567
 21
346.9775764187917
 31
0.0
  0
LINE
  5
7DA6
330
1F
100
AcDbEntity
  8
実線  太
100
AcDbLine
 10
668.3819524653568
 20
359.9775764187918
 30
0.0
 11
668.3819524653568
 21
347.6846831999782
 31
0.0
  0
LINE
  5
7DA7
330
1F
100
AcDbEntity
  8
実線  太
100
AcDbLine
 10
676.3819524653568
 20
359.9775764187918
 30
0.0
 11
676.3819524653568
 21
347.6846831999782
 31
0.0
  0
LINE
  5
7DA8
330
1F
100
AcDbEntity
  8
破線
 48
0.1
100
AcDbLine
 10
669.3819524653568
 20
357.4775764187917
 30
0.0
 11
669.3819524653568
 21
346.9775764187917
 31
0.0
  0
LINE
  5
7DA9
330
1F
100
AcDbEntity
  8
破線
 48
0.1
100
AcDbLine
 10
675.3819524653567
 20
357.4775764187917
 30
0.0
 11
675.3819524653567
 21
346.9775764187917
 31
0.0
  0
ARC
  5
7DAA
330
1F
100
AcDbEntity
  8
実線  太
100
AcDbCircle
 10
669.881952465357
 20
289.7141204515011
 30
0.0
 40
17.5
100
AcDbArc
 50
0.0
 51
45.00000000000921
  0
ARC
  5
7DAB
330
1F
100
AcDbEntity
  8
実線  太
100
AcDbCircle
 10
669.881952465357
 20
289.7141204515011
 30
0.0
 40
11.5
100
AcDbArc
 50
0.0
 51
45.00000000000921
  0
LINE
  5
7DAC
330
1F
100
AcDbEntity
  8
実線  太
100
AcDbLine
 10
651.3819524653568
 20
357.4775764187917
 30
0.0
 11
651.3819524653568
 21
337.7263137603208
 31
0.0
  0
LINE
  5
7DAD
330
1F
100
AcDbEntity
  8
実線  太
100
AcDbLine
 10
645.3819524653567
 20
357.4775764187917
 30
0.0
 11
645.3819524653567
 21
337.726313760321
 31
0.0
  0
ARC
  5
7DAE
330
1F
100
AcDbEntity
  8
実線  太
100
AcDbCircle
 10
662.8819524653567
 20
337.726313760321
 30
0.0
 40
17.5
100
AcDbArc
 50
180.0
 51
225.0000000000092
  0
ARC
  5
7DAF
330
1F
100
AcDbEntity
  8
実線  太
100
AcDbCircle
 10
662.8819524653567
 20
337.726313760321
 30
0.0
 40
11.5
100
AcDbArc
 50
180.0
 51
225.0000000000092
  0
ARC
  5
7DB0
330
1F
100
AcDbEntity
  8
実線  太
100
AcDbCircle
 10
660.3819524653568
 20
357.4775764187917
 30
0.0
 40
15.0
100
AcDbArc
 50
9.594068226864806
 51
180.0
  0
ARC
  5
7DB1
330
1F
100
AcDbEntity
  8
実線  太
100
AcDbCircle
 10
660.3819524653568
 20
357.4775764187917
 30
0.0
 40
9.0
100
AcDbArc
 50
16.12762021316308
 51
180.0
  0
LINE
  5
7DB2
330
1F
100
AcDbEntity
  8
実線  太
100
AcDbLine
 10
682.2563211361214
 20
302.0884891222655
 30
0.0
 11
654.7502244817113
 21
329.5945857766755
 31
0.0
  0
LINE
  5
7DB3
330
1F
100
AcDbEntity
  8
実線  太
100
AcDbLine
 10
678.013680449002
 20
297.8458484351464
 30
0.0
 11
650.5075837945923
 21
325.3519450895561
 31
0.0
  0
LINE
  5
7DB4
330
1F
100
AcDbEntity
  8
破線
 48
0.1
100
AcDbLine
 10
701.8819524653568
 20
104.4775764187917
 30
0.0
 11
701.8819524653568
 21
98.47757641879171
 31
0.0
  0
ARC
  5
7DB5
330
1F
100
AcDbEntity
  8
実線  太
100
AcDbCircle
 10
691.3819524653567
 20
108.4775764187917
 30
0.0
 40
4.0
100
AcDbArc
 50
180.0
 51
235.8701082506556
  0
LINE
  5
7DB6
330
1F
100
AcDbEntity
  8
実線  太
100
AcDbLine
 10
688.3819524653567
 20
104.9775764187917
 30
0.0
 11
698.3819524653568
 21
107.4775764187917
 31
0.0
  0
ARC
  5
7DB7
330
1F
100
AcDbEntity
  8
破線
 48
0.1
100
AcDbCircle
 10
691.3819524653567
 20
108.4775764187917
 30
0.0
 40
4.0
100
AcDbArc
 50
235.8701082506556
 51
270.0
  0
LINE
  5
7DB8
330
1F
100
AcDbEntity
  8
実線  太
100
AcDbLine
 10
688.3819524653567
 20
97.97757641879172
 30
0.0
 11
698.3819524653568
 21
95.4775764187917
 31
0.0
  0
LINE
  5
7DB9
330
1F
100
AcDbEntity
  8
実線  細
100
AcDbLine
 10
698.3819524653568
 20
107.4775764187917
 30
0.0
 11
698.3819524653568
 21
95.4775764187917
 31
0.0
  0
LINE
  5
7DBA
330
1F
100
AcDbEntity
  8
実線  太
100
AcDbLine
 10
688.3819524653567
 20
97.97757641879172
 30
0.0
 11
688.3819524653567
 21
104.9775764187917
 31
0.0
  0
ARC
  5
7DBB
330
1F
100
AcDbEntity
  8
破線
 48
0.1
100
AcDbCircle
 10
691.3819524653567
 20
108.4775764187917
 30
0.0
 40
10.0
100
AcDbArc
 50
252.5423968762799
 51
270.0
  0
ARC
  5
7DBC
330
1F
100
AcDbEntity
  8
実線  太
100
AcDbCircle
 10
691.3819524653567
 20
108.4775764187917
 30
0.0
 40
10.0
100
AcDbArc
 50
180.0
 51
252.5423968762799
  0
LINE
  5
7DBD
330
1F
100
AcDbEntity
  8
破線
 48
0.1
100
AcDbLine
 10
691.3819524653567
 20
104.4775764187917
 30
0.0
 11
701.8819524653568
 21
104.4775764187917
 31
0.0
  0
LINE
  5
7DBE
330
1F
100
AcDbEntity
  8
破線
 48
0.1
100
AcDbLine
 10
691.3819524653567
 20
98.47757641879171
 30
0.0
 11
701.8819524653568
 21
98.47757641879171
 31
0.0
  0
ARC
  5
7DBF
330
1F
100
AcDbEntity
  8
実線  太
100
AcDbCircle
 10
698.3819524653568
 20
101.4775764187917
 30
0.0
 40
6.0
100
AcDbArc
 50
270.0
 51
90.0
  0
LINE
  5
7DC0
330
1F
100
AcDbEntity
  8
破線
 48
0.1
100
AcDbLine
 10
131.0903983718083
 20
483.043290534987
 30
0.0
 11
125.0903983718083
 21
483.043290534987
 31
0.0
  0
LINE
  5
7DC1
330
1F
100
AcDbEntity
  8
実線  細
100
AcDbLine
 10
134.0903983718083
 20
479.543290534987
 30
0.0
 11
122.0903983718083
 21
479.543290534987
 31
0.0
  0
ARC
  5
7DC2
330
1F
100
AcDbEntity
  8
実線  太
100
AcDbCircle
 10
128.0903983718083
 20
479.543290534987
 30
0.0
 40
6.0
100
AcDbArc
 50
0.0
 51
180.0
  0
ARC
  5
7DC3
330
1F
100
AcDbEntity
  8
実線  太
100
AcDbCircle
 10
128.0903983718085
 20
465.543290534987
 30
0.0
 40
3.0
100
AcDbArc
 50
0.0
 51
180.0
  0
LINE
  5
7DC4
330
1F
100
AcDbEntity
  8
実線  太
100
AcDbLine
 10
124.5903983718083
 20
469.543290534987
 30
0.0
 11
131.5903983718083
 21
469.543290534987
 31
0.0
  0
LINE
  5
7DC5
330
1F
100
AcDbEntity
  8
実線  太
100
AcDbLine
 10
124.5903983718083
 20
469.543290534987
 30
0.0
 11
122.0903983718083
 21
479.543290534987
 31
0.0
  0
LINE
  5
7DC6
330
1F
100
AcDbEntity
  8
破線
 48
0.1
100
AcDbLine
 10
125.0903983718083
 20
469.543290534987
 30
0.0
 11
125.0903983718083
 21
483.043290534987
 31
0.0
  0
LINE
  5
7DC7
330
1F
100
AcDbEntity
  8
実線  太
100
AcDbLine
 10
131.5903983718083
 20
469.543290534987
 30
0.0
 11
134.0903983718083
 21
479.543290534987
 31
0.0
  0
LINE
  5
7DC8
330
1F
100
AcDbEntity
  8
破線
 48
0.1
100
AcDbLine
 10
131.0903983718083
 20
469.543290534987
 30
0.0
 11
131.0903983718083
 21
483.043290534987
 31
0.0
  0
ARC
  5
7DC9
330
1F
100
AcDbEntity
  8
実線  太
100
AcDbCircle
 10
128.0903983718085
 20
369.4775764187917
 30
0.0
 40
3.0
100
AcDbArc
 50
0.0
 51
180.0
  0
ARC
  5
7DCA
330
1F
100
AcDbEntity
  8
実線  太
100
AcDbCircle
 10
128.0903983718085
 20
453.543290534987
 30
0.0
 40
3.0
100
AcDbArc
 50
0.0
 51
180.0
  0
ARC
  5
7DCB
330
1F
100
AcDbEntity
  8
実線  太
100
AcDbCircle
 10
128.0903983718085
 20
453.543290534987
 30
0.0
 40
4.0
100
AcDbArc
 50
318.5903778907302
 51
221.4096221092697
  0
ARC
  5
7DCC
330
1F
100
AcDbEntity
  8
実線  太
100
AcDbCircle
 10
128.0903983718085
 20
429.543290534987
 30
0.0
 40
3.0
100
AcDbArc
 50
180.0
 51
0.0
  0
LINE
  5
7DCD
330
1F
100
AcDbEntity
  8
実線  太
100
AcDbLine
 10
125.0903983718085
 20
410.5432905349871
 30
0.0
 11
125.0903983718085
 21
453.543290534987
 31
0.0
  0
LINE
  5
7DCE
330
1F
100
AcDbEntity
  8
実線  太
100
AcDbLine
 10
131.0903983718085
 20
429.543290534987
 30
0.0
 11
131.0903983718085
 21
453.543290534987
 31
0.0
  0
LINE
  5
7DCF
330
1F
100
AcDbEntity
  8
実線  太
100
AcDbLine
 10
132.0903983718085
 20
360.4775764187917
 30
0.0
 11
131.0903983718085
 21
360.4775764187917
 31
0.0
  0
LINE
  5
7DD0
330
1F
100
AcDbEntity
  8
実線  太
100
AcDbLine
 10
125.0903983718085
 20
360.4775764187917
 30
0.0
 11
124.0903983718085
 21
360.4775764187917
 31
0.0
  0
ARC
  5
7DD1
330
1F
100
AcDbEntity
  8
実線  太
100
AcDbCircle
 10
128.0903983718085
 20
347.4775764187918
 30
0.0
 40
4.0
100
AcDbArc
 50
318.5903778907302
 51
0.0
  0
ARC
  5
7DD2
330
1F
100
AcDbEntity
  8
実線  太
100
AcDbCircle
 10
128.0903983718085
 20
347.4775764187918
 30
0.0
 40
4.0
100
AcDbArc
 50
180.0
 51
221.4096221092697
  0
LINE
  5
7DD3
330
1F
100
AcDbEntity
  8
実線  太
100
AcDbLine
 10
132.0903983718085
 20
360.4775764187917
 30
0.0
 11
132.0903983718085
 21
347.4775764187918
 31
0.0
  0
LINE
  5
7DD4
330
1F
100
AcDbEntity
  8
実線  太
100
AcDbLine
 10
124.0903983718085
 20
360.4775764187917
 30
0.0
 11
124.0903983718085
 21
347.4775764187918
 31
0.0
  0
LINE
  5
7DD5
330
1F
100
AcDbEntity
  8
実線  細
100
AcDbLine
 10
131.0903983718085
 20
294.4775764187917
 30
0.0
 11
125.0903983718085
 21
294.4775764187917
 31
0.0
  0
LINE
  5
7DD6
330
1F
100
AcDbEntity
  8
実線  太
100
AcDbLine
 10
125.0903983718085
 20
101.4775764187917
 30
0.0
 11
125.0903983718085
 21
107.4775764187917
 31
0.0
  0
LINE
  5
7DD7
330
1F
100
AcDbEntity
  8
実線  太
100
AcDbLine
 10
125.0903983718085
 20
456.1890418460517
 30
0.0
 11
125.0903983718085
 21
469.543290534987
 31
0.0
  0
LINE
  5
7DD8
330
1F
100
AcDbEntity
  8
実線  太
100
AcDbLine
 10
131.0903983718085
 20
456.1890418460517
 30
0.0
 11
131.0903983718085
 21
465.543290534987
 31
0.0
  0
ARC
  5
7DD9
330
1F
100
AcDbEntity
  8
実線  細
100
AcDbCircle
 10
128.0903983718085
 20
101.4775764187917
 30
0.0
 40
3.5
100
AcDbArc
 50
148.9972808661285
 51
31.00271913387147
  0
ARC
  5
7DDA
330
1F
100
AcDbEntity
  8
実線  太
100
AcDbCircle
 10
128.0903983718085
 20
101.4775764187917
 30
0.0
 40
3.0
100
AcDbArc
 50
180.0
 51
0.0
  0
ARC
  5
7DDB
330
1F
100
AcDbEntity
  8
実線  太
100
AcDbCircle
 10
128.0903983718085
 20
101.4775764187917
 30
0.0
 40
5.999999999999971
100
AcDbArc
 50
120.0000000000005
 51
59.99999999999944
  0
LINE
  5
7DDC
330
1F
100
AcDbEntity
  8
実線  太
100
AcDbLine
 10
131.0903983718085
 20
101.4775764187917
 30
0.0
 11
131.0903983718085
 21
107.4775764187917
 31
0.0
  0
LINE
  5
7DDD
330
1F
100
AcDbEntity
  8
実線  太
100
AcDbLine
 10
461.0903983718085
 20
400.5432905349872
 30
0.0
 11
131.0903983718085
 21
400.5432905349872
 31
0.0
  0
LINE
  5
7DDE
330
1F
100
AcDbEntity
  8
実線  太
100
AcDbLine
 10
121.0903983718085
 20
410.5432905349871
 30
0.0
 11
121.0903983718085
 21
469.5432905349871
 31
0.0
  0
DIMENSION
  5
7DEF
330
1F
100
AcDbEntity
  8
寸法線
100
AcDbDimension
  2
*D51
 10
740.3819524653568
 20
125.4775764187917
 30
0.0
 11
733.9319524653567
 21
117.9775764187918
 31
0.0
 70
    32
 71
     5
 42
15.0
  3
ISO-25
100
AcDbAlignedDimension
 13
688.3819524653567
 23
110.4775764187917
 33
0.0
 14
688.3819524653567
 24
125.4775764187917
 34
0.0
 50
90.0
100
AcDbRotatedDimension
1001
ACAD
1000
DSTYLE
1002
{
1070
    40
1040
3.0
1002
}
  0
MTEXT
  5
7DF0
330
1F
100
AcDbEntity
  8
寸法線
 62
     7
100
AcDbMText
 10
353.084316764294
 20
320.2514679218936
 30
0.0
 40
7.5
 41
0.0
 71
     4
 72
     1
  1
\U+03C66
 73
     1
 44
1.0
1001
ACAD
1000
MTEXTBEGIN
1070
    73
1070
     1
1070
    44
1040
1.0
1070
    74
1070
     0
1000
MTEXTEND
  0
LEADER
  5
7DF1
330
1F
100
AcDbEntity
  8
寸法線
100
AcDbLeader
  3
ISO-25
 76
     3
 10
312.381528892839
 20
281.4775764187917
 30
0.0
 10
330.4620914372062
 20
320.2514679218936
 30
0.0
 10
351.084316764294
 20
320.2514679218936
 30
0.0
211
1.0
221
0.0000000000000001
231
0.0
210
0.0
220
0.0
230
-1.0
213
-0.0000000000000002
223
3.75
233
0.0
1001
ACAD
1000
DSTYLE
1002
{
1070
    40
1040
3.0
1070
   147
1040
2.7
1070
    77
1070
     0
1002
}
  0
MTEXT
  5
7DF2
330
1F
100
AcDbEntity
  8
寸法線
 62
     7
100
AcDbMText
 10
618.0663514783016
 20
190.4536849156898
 30
0.0
 40
7.5
 41
0.0
 71
     6
 72
     1
  1
\U+03C63
 73
     1
 44
1.0
1001
ACAD
1000
MTEXTBEGIN
1070
    73
1070
     1
1070
    44
1040
1.0
1070
    74
1070
     0
1000
MTEXTEND
  0
LEADER
  5
7DF3
330
1F
100
AcDbEntity
  8
寸法線
100
AcDbLeader
  3
ISO-25
 76
     3
 10
660.1423705073107
 20
227.6415377914775
 30
0.0
 10
642.8013899209895
 20
190.4536849156898
 30
0.0
 10
622.1791645939017
 20
190.4536849156898
 30
0.0
211
-1.0
221
-0.0000000000000001
231
0.0
210
0.0
220
0.0
230
-1.0
213
0.0000000000000002
223
-3.75
233
0.0
1001
ACAD
1000
DSTYLE
1002
{
1070
    40
1040
3.0
1070
   147
1040
2.7
1070
    77
1070
     0
1002
}
  0
ARC
  5
7DF4
330
1F
100
AcDbEntity
  8
実線  太
100
AcDbCircle
 10
131.0903983718085
 20
410.5432905349871
 30
0.0
 40
10.0
100
AcDbArc
 50
180.0
 51
270.0
  0
ARC
  5
7DF5
330
1F
100
AcDbEntity
  8
実線  太
100
AcDbCircle
 10
131.0903983718085
 20
410.5432905349871
 30
0.0
 40
6.0
100
AcDbArc
 50
180.0
 51
270.0
  0
ARC
  5
7DF6
330
1F
100
AcDbEntity
  8
実線  太
100
AcDbCircle
 10
461.0903983718085
 20
410.5432905349871
 30
0.0
 40
10.0
100
AcDbArc
 50
270.0
 51
0.0
  0
ARC
  5
7DF7
330
1F
100
AcDbEntity
  8
実線  太
100
AcDbCircle
 10
461.0903983718085
 20
410.5432905349871
 30
0.0
 40
6.0
100
AcDbArc
 50
270.0
 51
0.0
  0
VIEWPORT
  5
283B
102
{ACAD_XDICTIONARY
360
80D2
102
}
330
23
100
AcDbEntity
 67
     1
  8
0
100
AcDbViewport
 10
144.2296600341797
 20
100.75333070755
 30
0.0
 40
387.3721909720035
 41
222.1517806396485
 68
     1
 69
     1
 12
144.2296600341797
 22
100.75333070755
 13
0.0
 23
0.0
 14
10.0
 24
10.0
 15
10.0
 25
10.0
 16
0.0
 26
0.0
 36
1.0
 17
0.0
 27
0.0
 37
0.0
 42
50.0
 43
0.0
 44
0.0
 45
222.1517806396485
 50
0.0
 51
0.0
 72
 20000
 90
    32800
  1

281
     0
 71
     1
 74
     0
110
0.0
120
0.0
130
0.0
111
1.0
121
0.0
131
0.0
112
0.0
122
1.0
132
0.0
 79
     0
146
0.0
  0
VIEWPORT
  5
283D
102
{ACAD_XDICTIONARY
360
80D4
102
}
330
23
100
AcDbEntity
 67
     1
  8
実線  太
100
AcDbViewport
 10
144.2296578884125
 20
100.7533361911773
 30
0.0
 40
230.7674526214599
 41
161.2053379058837
 68
     2
 69
     2
 12
144.2273710473552
 22
92.63739313986013
 13
0.0
 23
0.0
 14
10.0
 24
10.0
 15
10.0
 25
10.0
 16
0.0
 26
0.0
 36
1.0
 17
0.0
 27
0.0
 37
0.0
 42
50.0
 43
0.0
 44
0.0
 45
237.262888478563
 50
0.0
 51
0.0
 72
 20000
 90
    32768
  1

281
     0
 71
     1
 74
     0
110
0.0
120
0.0
130
0.0
111
1.0
121
0.0
131
0.0
112
0.0
122
1.0
132
0.0
 79
     0
146
0.0
  0
ENDSEC
  0
SECTION
  2
OBJECTS
  0
DICTIONARY
  5
C
330
0
100
AcDbDictionary
281
     1
  3
ACAD_CIP_PREVIOUS_PRODUCT_INFO
350
63D8
  3
ACAD_COLOR
350
63BB
  3
ACAD_GROUP
350
D
  3
ACAD_LAYOUT
350
1A
  3
ACAD_MATERIAL
350
6389
  3
ACAD_MLEADERSTYLE
350
63D0
  3
ACAD_MLINESTYLE
350
17
  3
ACAD_PLOTSETTINGS
350
19
  3
ACAD_PLOTSTYLENAME
350
E
  3
ACAD_SCALELIST
350
63BE
  3
ACAD_TABLESTYLE
350
63BC
  3
ACAD_VISUALSTYLE
350
63A2
  3
AcadDim
350
6353
  3
ACDB_RECOMPOSE_DATA
350
80C7
  3
AcDbVariableDictionary
350
5AA
  3
DWGPROPS
350
80C8
  0
DICTIONARY
  5
6912
330
8
100
AcDbDictionary
280
     1
281
     1
  0
DICTIONARY
  5
322F
330
2
100
AcDbDictionary
280
     1
281
     1
  3
ACAD_LAYERFILTERS
360
40B9
  3
ACAD_LAYERSTATES
360
3230
  0
DICTIONARY
  5
6966
330
10
100
AcDbDictionary
280
     1
281
     1
  3
ADSK_XREC_LAYER_RECONCILED
360
6967
  0
DICTIONARY
  5
6968
330
35
100
AcDbDictionary
280
     1
281
     1
  3
ADSK_XREC_LAYER_RECONCILED
360
6969
  0
DICTIONARY
  5
696C
330
37
100
AcDbDictionary
280
     1
281
     1
  3
ADSK_XREC_LAYER_RECONCILED
360
696D
  0
DICTIONARY
  5
696E
330
38
100
AcDbDictionary
280
     1
281
     1
  3
ADSK_XREC_LAYER_RECONCILED
360
696F
  0
DICTIONARY
  5
6970
330
261
100
AcDbDictionary
280
     1
281
     1
  3
ADSK_XREC_LAYER_RECONCILED
360
6971
  0
DICTIONARY
  5
6972
330
262
100
AcDbDictionary
280
     1
281
     1
  3
ADSK_XREC_LAYER_RECONCILED
360
6973
  0
DICTIONARY
  5
6974
330
263
100
AcDbDictionary
280
     1
281
     1
  3
ADSK_XREC_LAYER_RECONCILED
360
6975
  0
DICTIONARY
  5
6976
330
FA1
100
AcDbDictionary
280
     1
281
     1
  3
ADSK_XREC_LAYER_RECONCILED
360
6977
  0
DICTIONARY
  5
6430
330
1F
100
AcDbDictionary
280
     1
281
     1
  3
ACAD_SORTENTS
360
6431
  0
DICTIONARY
  5
80CE
330
2835
100
AcDbDictionary
280
     1
281
     1
  3
ACAD_XREC_ROUNDTRIP
360
80CF
  0
DICTIONARY
  5
80D0
330
2837
100
AcDbDictionary
280
     1
281
     1
  3
ACAD_XREC_ROUNDTRIP
360
80D1
  0
DICTIONARY
  5
80D2
330
283B
100
AcDbDictionary
280
     1
281
     1
  3
ACAD_XREC_ROUNDTRIP
360
80D3
  0
DICTIONARY
  5
80D4
330
283D
100
AcDbDictionary
280
     1
281
     1
  3
ACAD_XREC_ROUNDTRIP
360
80D5
  0
XRECORD
  5
63D8
102
{ACAD_REACTORS
330
C
102
}
330
C
100
AcDbXrecord
280
     1
300
ACDLT
300
2012
300
ACDLT_F_S
  0
DICTIONARY
  5
63BB
102
{ACAD_REACTORS
330
C
102
}
330
C
100
AcDbDictionary
281
     1
  0
DICTIONARY
  5
D
102
{ACAD_REACTORS
330
C
102
}
330
C
100
AcDbDictionary
281
     1
  0
DICTIONARY
  5
1A
102
{ACAD_REACTORS
330
C
102
}
330
C
100
AcDbDictionary
281
     1
  3
Model
350
22
  3
ﾚｲｱｳﾄ1
350
1E
  3
ﾚｲｱｳﾄ2
350
26
  0
DICTIONARY
  5
6389
102
{ACAD_REACTORS
330
C
102
}
330
C
100
AcDbDictionary
281
     1
  3
ByBlock
350
6392
  3
ByLayer
350
638A
  3
Global
350
639A
  0
DICTIONARY
  5
63D0
102
{ACAD_REACTORS
330
C
102
}
330
C
100
AcDbDictionary
281
     1
  3
Standard
350
63D1
  0
DICTIONARY
  5
17
102
{ACAD_REACTORS
330
C
102
}
330
C
100
AcDbDictionary
281
     1
  3
Standard
350
18
  0
DICTIONARY
  5
19
102
{ACAD_REACTORS
330
C
102
}
330
C
100
AcDbDictionary
281
     1
  0
ACDBDICTIONARYWDFLT
  5
E
102
{ACAD_REACTORS
330
C
102
}
330
C
100
AcDbDictionary
281
     1
  3
Normal
350
F
100
AcDbDictionaryWithDefault
340
F
  0
DICTIONARY
  5
63BE
102
{ACAD_REACTORS
330
C
102
}
330
C
100
AcDbDictionary
281
     1
  3
A0
350
63BF
  3
A1
350
63C0
  3
A2
350
63C1
  3
A3
350
63C2
  3
A4
350
63C3
  3
A5
350
63C4
  3
A6
350
63C5
  3
A7
350
63C6
  3
A8
350
63C7
  3
A9
350
63C8
  3
B0
350
63C9
  3
B1
350
63CA
  3
B2
350
63CB
  3
B3
350
63CC
  3
B4
350
63CD
  3
B5
350
63CE
  3
B6
350
63CF
  0
DICTIONARY
  5
63BC
102
{ACAD_REACTORS
330
C
102
}
330
C
100
AcDbDictionary
281
     1
  3
Standard
350
63BD
  0
DICTIONARY
  5
63A2
102
{ACAD_REACTORS
330
C
102
}
330
C
100
AcDbDictionary
281
     1
  3
2dWireframe
350
63A8
  3
Basic
350
63A7
  3
Brighten
350
63AE
  3
ColorChange
350
63B2
  3
Conceptual
350
63AB
  3
Dim
350
63AD
  3
EdgeColorOff
350
63BA
  3
Facepattern
350
63B1
  3
Flat
350
63A3
  3
FlatWithEdges
350
63A4
  3
Gouraud
350
63A5
  3
GouraudWithEdges
350
63A6
  3
Hidden
350
63AA
  3
JitterOff
350
63B8
  3
Linepattern
350
63B0
  3
OverhangOff
350
63B9
  3
Realistic
350
63AC
  3
Shaded
350
63B7
  3
Shaded with edges
350
63B6
  3
Shades of Gray
350
63B3
  3
Sketchy
350
63B4
  3
Thicken
350
63AF
  3
Wireframe
350
63A9
  3
X-Ray
350
63B5
  0
XRECORD
  5
6353
102
{ACAD_REACTORS
330
C
102
}
330
C
100
AcDbXrecord
280
     1
 90
   990106
  3

 60
     0
 61
     0
 62
     1
 63
     3
 64
     0
 65
     0
 66
     0
 67
     3
 68
     1
 69
     0
 70
     0
 71
     0
 72
     0
 40
0.0
170
     0
340
0
  0
XRECORD
  5
80C7
102
{ACAD_REACTORS
330
C
102
}
330
C
100
AcDbXrecord
280
     1
 90
        1
330
63BD
  0
DICTIONARY
  5
5AA
102
{ACAD_REACTORS
330
C
102
}
330
C
100
AcDbDictionary
281
     1
  3
CANNOSCALE
350
695B
  3
CMLEADERSTYLE
350
695A
  3
CTABLESTYLE
350
6959
  3
DIMASSOC
350
5AB
  3
INDEXCTL
350
695D
  3
LAYEREVAL
350
76E0
  3
LAYERNOTIFY
350
76E1
  3
LIGHTINGUNITS
350
76DF
  3
MSLTSCALE
350
76DE
  3
SORTENTS
350
695C
  3
XCLIPFRAME
350
80C3
  0
XRECORD
  5
80C8
102
{ACAD_REACTORS
330
C
102
}
330
C
100
AcDbXrecord
280
     1
  1
DWGPROPS COOKIE
  2

  3

  4

  6

  7

  8
SaitoK
  9

300
=
301
=
302
=
303
=
304
=
305
=
306
=
307
=
308
=
309
=
 40
0.9569112847222221
 41
2452626.479274549
 42
2456750.722229907
  1

 90
        0
  0
DICTIONARY
  5
40B9
102
{ACAD_REACTORS
330
322F
102
}
330
322F
100
AcDbDictionary
280
     1
281
     1
  0
DICTIONARY
  5
3230
102
{ACAD_REACTORS
330
322F
102
}
330
322F
100
AcDbDictionary
281
     1
  0
XRECORD
  5
6967
102
{ACAD_REACTORS
330
6966
102
}
330
6966
100
AcDbXrecord
280
     1
290
     1
  0
XRECORD
  5
6969
102
{ACAD_REACTORS
330
6968
102
}
330
6968
100
AcDbXrecord
280
     1
290
     1
  0
XRECORD
  5
696D
102
{ACAD_REACTORS
330
696C
102
}
330
696C
100
AcDbXrecord
280
     1
290
     1
  0
XRECORD
  5
696F
102
{ACAD_REACTORS
330
696E
102
}
330
696E
100
AcDbXrecord
280
     1
290
     1
  0
XRECORD
  5
6971
102
{ACAD_REACTORS
330
6970
102
}
330
6970
100
AcDbXrecord
280
     1
290
     1
  0
XRECORD
  5
6973
102
{ACAD_REACTORS
330
6972
102
}
330
6972
100
AcDbXrecord
280
     1
290
     1
  0
XRECORD
  5
6975
102
{ACAD_REACTORS
330
6974
102
}
330
6974
100
AcDbXrecord
280
     1
290
     1
  0
XRECORD
  5
6977
102
{ACAD_REACTORS
330
6976
102
}
330
6976
100
AcDbXrecord
280
     1
290
     1
  0
SORTENTSTABLE
  5
6431
102
{ACAD_REACTORS
330
6430
102
}
330
6430
100
AcDbSortentsTable
330
1F
331
6C5B
  5
6C5B
331
6C60
  5
6C60
  0
XRECORD
  5
80CF
102
{ACAD_REACTORS
330
80CE
102
}
330
80CE
100
AcDbXrecord
280
     1
102
SHADEPLOT
 70
     0
  0
XRECORD
  5
80D1
102
{ACAD_REACTORS
330
80D0
102
}
330
80D0
100
AcDbXrecord
280
     1
102
SHADEPLOT
 70
     0
  0
XRECORD
  5
80D3
102
{ACAD_REACTORS
330
80D2
102
}
330
80D2
100
AcDbXrecord
280
     1
102
SHADEPLOT
 70
     0
  0
XRECORD
  5
80D5
102
{ACAD_REACTORS
330
80D4
102
}
330
80D4
100
AcDbXrecord
280
     1
102
SHADEPLOT
 70
     0
  0
LAYOUT
  5
22
102
{ACAD_XDICTIONARY
360
76C1
102
}
102
{ACAD_REACTORS
330
1A
102
}
330
1A
100
AcDbPlotSettings
  1

  2
\\HJA-ISS\HP LaserJet 8150 PCL 6
  4
A4
  6

 40
4.233333110809326
 41
4.233341693878172
 42
4.233322143554686
 43
4.23333740234375
 44
209.9733276367186
 45
296.9259948730469
 46
0.0
 47
0.0
 48
0.0
 49
0.0
140
288.4599999999998
141
201.5099999999999
142
1.0
143
1.000016513684661
 70
 11952
 72
     1
 73
     1
 74
     4
  7
monochrome.ctb
 75
     0
147
0.9999834865880343
148
0.0
149
0.0
100
AcDbLayout
  1
Model
 70
     1
 71
     0
 10
0.0
 20
0.0
 11
12.0
 21
9.0
 12
0.0
 22
0.0
 32
0.0
 14
0.0
 24
0.0
 34
0.0
 15
0.0
 25
0.0
 35
0.0
146
0.0
 13
0.0
 23
0.0
 33
0.0
 16
1.0
 26
0.0
 36
0.0
 17
0.0
 27
1.0
 37
0.0
 76
     0
330
1F
331
6387
  0
LAYOUT
  5
1E
102
{ACAD_XDICTIONARY
360
80C9
102
}
102
{ACAD_REACTORS
330
1A
102
}
330
1A
100
AcDbPlotSettings
  1

  2
\\HJA-ISS\HP LaserJet 8150 PCL 6
  4
A4
  6

 40
4.233333110809326
 41
4.233341693878172
 42
4.233322143554686
 43
4.23333740234375
 44
209.9733276367186
 45
296.9259948730469
 46
0.0
 47
0.0
 48
49.94588226953315
 49
38.8311605353754
140
240.1884225297883
141
167.9243128548342
142
1.0
143
0.6595125546489263
 70
   688
 72
     1
 73
     1
 74
     4
  7
monochrome.ctb
 75
     0
147
1.516271362767799
148
-49.94588226953315
149
-38.8311605353754
100
AcDbLayout
  1
ﾚｲｱｳﾄ1
 70
     1
 71
     1
 10
47.15394310462257
 20
36.03922420078566
 11
242.9803645250197
 21
174.519269918614
 12
0.0
 22
0.0
 32
0.0
 14
28.82629495675951
 24
20.13505625693949
 34
-0.0015258207003583
 15
259.6353157326059
 25
181.3786474074919
 35
0.0000000349246037
146
0.0
 13
0.0
 23
0.0
 33
0.0
 16
1.0
 26
0.0
 36
0.0
 17
0.0
 27
1.0
 37
0.0
 76
     0
330
1B
331
2835
  0
LAYOUT
  5
26
102
{ACAD_XDICTIONARY
360
80CC
102
}
102
{ACAD_REACTORS
330
1A
102
}
330
1A
100
AcDbPlotSettings
  1

  2
\\HJA-ISS\HP LaserJet 8150 PCL 6
  4
A4
  6

 40
4.233333110809326
 41
4.233341693878172
 42
4.233322143554686
 43
4.23333740234375
 44
209.9733276367186
 45
296.9259948730469
 46
0.0
 47
0.0
 48
0.0
 49
0.0
140
0.0
141
0.0
142
1.0
143
1.0
 70
   688
 72
     1
 73
     1
 74
     5
  7
monochrome.ctb
 75
    16
147
1.0
148
0.0
149
0.0
100
AcDbLayout
  1
ﾚｲｱｳﾄ2
 70
     1
 71
     2
 10
-4.23333740234375
 20
-4.233333110809326
 11
292.6926574707031
 21
205.7399945259094
 12
0.0
 22
0.0
 32
0.0
 14
28.84593157768251
 24
20.15066723823549
 34
0.0
 15
259.6133841991425
 25
181.3560051441192
 35
0.0
146
0.0
 13
0.0
 23
0.0
 33
0.0
 16
1.0
 26
0.0
 36
0.0
 17
0.0
 27
1.0
 37
0.0
 76
     0
330
23
331
283B
  0
MATERIAL
  5
6392
102
{ACAD_XDICTIONARY
360
6393
102
}
102
{ACAD_REACTORS
330
6389
102
}
330
6389
100
AcDbMaterial
  1
ByBlock
 72
     0
 43
0.0008202099737533
 43
0.0
 43
0.0
 43
0.0
 43
0.0
 43
0.0008202099737533
 43
0.0
 43
0.0
 43
0.0
 43
0.0
 43
1.0
 43
0.0
 43
0.0
 43
0.0
 43
0.0
 43
1.0
 77
     0
 47
0.0008202099737533
 47
0.0
 47
0.0
 47
0.0
 47
0.0
 47
0.0008202099737533
 47
0.0
 47
0.0
 47
0.0
 47
0.0
 47
1.0
 47
0.0
 47
0.0
 47
0.0
 47
0.0
 47
1.0
171
     0
 49
0.0008202099737533
 49
0.0
 49
0.0
 49
0.0
 49
0.0
 49
0.0008202099737533
 49
0.0
 49
0.0
 49
0.0
 49
0.0
 49
1.0
 49
0.0
 49
0.0
 49
0.0
 49
0.0
 49
1.0
175
     0
142
0.0008202099737533
142
0.0
142
0.0
142
0.0
142
0.0
142
0.0008202099737533
142
0.0
142
0.0
142
0.0
142
0.0
142
1.0
142
0.0
142
0.0
142
0.0
142
0.0
142
1.0
179
     0
144
0.0008202099737533
144
0.0
144
0.0
144
0.0
144
0.0
144
0.0008202099737533
144
0.0
144
0.0
144
0.0
144
0.0
144
1.0
144
0.0
144
0.0
144
0.0
144
0.0
144
1.0
147
0.0008202099737533
147
0.0
147
0.0
147
0.0
147
0.0
147
0.0008202099737533
147
0.0
147
0.0
147
0.0
147
0.0
147
1.0
147
0.0
147
0.0
147
0.0
147
0.0
147
1.0
  0
MATERIAL
  5
638A
102
{ACAD_XDICTIONARY
360
638B
102
}
102
{ACAD_REACTORS
330
6389
102
}
330
6389
100
AcDbMaterial
  1
ByLayer
 72
     0
 43
0.0008202099737533
 43
0.0
 43
0.0
 43
0.0
 43
0.0
 43
0.0008202099737533
 43
0.0
 43
0.0
 43
0.0
 43
0.0
 43
1.0
 43
0.0
 43
0.0
 43
0.0
 43
0.0
 43
1.0
 77
     0
 47
0.0008202099737533
 47
0.0
 47
0.0
 47
0.0
 47
0.0
 47
0.0008202099737533
 47
0.0
 47
0.0
 47
0.0
 47
0.0
 47
1.0
 47
0.0
 47
0.0
 47
0.0
 47
0.0
 47
1.0
171
     0
 49
0.0008202099737533
 49
0.0
 49
0.0
 49
0.0
 49
0.0
 49
0.0008202099737533
 49
0.0
 49
0.0
 49
0.0
 49
0.0
 49
1.0
 49
0.0
 49
0.0
 49
0.0
 49
0.0
 49
1.0
175
     0
142
0.0008202099737533
142
0.0
142
0.0
142
0.0
142
0.0
142
0.0008202099737533
142
0.0
142
0.0
142
0.0
142
0.0
142
1.0
142
0.0
142
0.0
142
0.0
142
0.0
142
1.0
179
     0
144
0.0008202099737533
144
0.0
144
0.0
144
0.0
144
0.0
144
0.0008202099737533
144
0.0
144
0.0
144
0.0
144
0.0
144
1.0
144
0.0
144
0.0
144
0.0
144
0.0
144
1.0
147
0.0008202099737533
147
0.0
147
0.0
147
0.0
147
0.0
147
0.0008202099737533
147
0.0
147
0.0
147
0.0
147
0.0
147
1.0
147
0.0
147
0.0
147
0.0
147
0.0
147
1.0
  0
MATERIAL
  5
639A
102
{ACAD_XDICTIONARY
360
639B
102
}
102
{ACAD_REACTORS
330
6389
102
}
330
6389
100
AcDbMaterial
  1
Global
 72
     0
 43
0.0008202099737533
 43
0.0
 43
0.0
 43
0.0
 43
0.0
 43
0.0008202099737533
 43
0.0
 43
0.0
 43
0.0
 43
0.0
 43
1.0
 43
0.0
 43
0.0
 43
0.0
 43
0.0
 43
1.0
 77
     0
 47
0.0008202099737533
 47
0.0
 47
0.0
 47
0.0
 47
0.0
 47
0.0008202099737533
 47
0.0
 47
0.0
 47
0.0
 47
0.0
 47
1.0
 47
0.0
 47
0.0
 47
0.0
 47
0.0
 47
1.0
171
     0
 49
0.0008202099737533
 49
0.0
 49
0.0
 49
0.0
 49
0.0
 49
0.0008202099737533
 49
0.0
 49
0.0
 49
0.0
 49
0.0
 49
1.0
 49
0.0
 49
0.0
 49
0.0
 49
0.0
 49
1.0
175
     0
142
0.0008202099737533
142
0.0
142
0.0
142
0.0
142
0.0
142
0.0008202099737533
142
0.0
142
0.0
142
0.0
142
0.0
142
1.0
142
0.0
142
0.0
142
0.0
142
0.0
142
1.0
179
     0
144
0.0008202099737533
144
0.0
144
0.0
144
0.0
144
0.0
144
0.0008202099737533
144
0.0
144
0.0
144
0.0
144
0.0
144
1.0
144
0.0
144
0.0
144
0.0
144
0.0
144
1.0
147
0.0008202099737533
147
0.0
147
0.0
147
0.0
147
0.0
147
0.0008202099737533
147
0.0
147
0.0
147
0.0
147
0.0
147
1.0
147
0.0
147
0.0
147
0.0
147
0.0
147
1.0
  0
MLEADERSTYLE
  5
63D1
102
{ACAD_XDICTIONARY
360
80C5
102
}
102
{ACAD_REACTORS
330
63D0
102
}
330
63D0
100
AcDbMLeaderStyle
170
     2
171
     1
172
     0
 90
        2
 40
0.0
 41
0.0
173
     1
 91
-1056964608
340
14
 92
       -2
290
     1
 42
2.0
291
     1
 43
0.36
  3
Standard
 44
4.0
300

342
11
174
     1
178
     6
175
     1
176
     0
 93
-1056964608
 45
4.0
292
     0
297
     0
 46
4.0
 94
-1056964608
 47
1.0
 49
1.0
140
1.0
293
     1
141
0.0
294
     1
177
     0
142
1.0
295
     0
296
     0
143
0.125
1001
ACAD_MLEADERVER
1070
     2
  0
MLINESTYLE
  5
18
102
{ACAD_REACTORS
330
17
102
}
330
17
100
AcDbMlineStyle
  2
STANDARD
 70
     0
  3

 62
   256
 51
90.0
 52
90.0
 71
     2
 49
0.5
 62
   256
  6
BYLAYER
 49
-0.5
 62
   256
  6
BYLAYER
  0
ACDBPLACEHOLDER
  5
F
102
{ACAD_REACTORS
330
E
102
}
330
E
  0
SCALE
  5
63BF
102
{ACAD_REACTORS
330
63BE
102
}
330
63BE
100
AcDbScale
 70
     0
300
1:1
140
1.0
141
1.0
290
     1
  0
SCALE
  5
63C0
102
{ACAD_REACTORS
330
63BE
102
}
330
63BE
100
AcDbScale
 70
     0
300
1:2
140
1.0
141
2.0
290
     0
  0
SCALE
  5
63C1
102
{ACAD_REACTORS
330
63BE
102
}
330
63BE
100
AcDbScale
 70
     0
300
1:4
140
1.0
141
4.0
290
     0
  0
SCALE
  5
63C2
102
{ACAD_REACTORS
330
63BE
102
}
330
63BE
100
AcDbScale
 70
     0
300
1:5
140
1.0
141
5.0
290
     0
  0
SCALE
  5
63C3
102
{ACAD_REACTORS
330
63BE
102
}
330
63BE
100
AcDbScale
 70
     0
300
1:8
140
1.0
141
8.0
290
     0
  0
SCALE
  5
63C4
102
{ACAD_REACTORS
330
63BE
102
}
330
63BE
100
AcDbScale
 70
     0
300
1:10
140
1.0
141
10.0
290
     0
  0
SCALE
  5
63C5
102
{ACAD_REACTORS
330
63BE
102
}
330
63BE
100
AcDbScale
 70
     0
300
1:16
140
1.0
141
16.0
290
     0
  0
SCALE
  5
63C6
102
{ACAD_REACTORS
330
63BE
102
}
330
63BE
100
AcDbScale
 70
     0
300
1:20
140
1.0
141
20.0
290
     0
  0
SCALE
  5
63C7
102
{ACAD_REACTORS
330
63BE
102
}
330
63BE
100
AcDbScale
 70
     0
300
1:30
140
1.0
141
30.0
290
     0
  0
SCALE
  5
63C8
102
{ACAD_REACTORS
330
63BE
102
}
330
63BE
100
AcDbScale
 70
     0
300
1:40
140
1.0
141
40.0
290
     0
  0
SCALE
  5
63C9
102
{ACAD_REACTORS
330
63BE
102
}
330
63BE
100
AcDbScale
 70
     0
300
1:50
140
1.0
141
50.0
290
     0
  0
SCALE
  5
63CA
102
{ACAD_REACTORS
330
63BE
102
}
330
63BE
100
AcDbScale
 70
     0
300
1:100
140
1.0
141
100.0
290
     0
  0
SCALE
  5
63CB
102
{ACAD_REACTORS
330
63BE
102
}
330
63BE
100
AcDbScale
 70
     0
300
2:1
140
2.0
141
1.0
290
     0
  0
SCALE
  5
63CC
102
{ACAD_REACTORS
330
63BE
102
}
330
63BE
100
AcDbScale
 70
     0
300
4:1
140
4.0
141
1.0
290
     0
  0
SCALE
  5
63CD
102
{ACAD_REACTORS
330
63BE
102
}
330
63BE
100
AcDbScale
 70
     0
300
8:1
140
8.0
141
1.0
290
     0
  0
SCALE
  5
63CE
102
{ACAD_REACTORS
330
63BE
102
}
330
63BE
100
AcDbScale
 70
     0
300
10:1
140
10.0
141
1.0
290
     0
  0
SCALE
  5
63CF
102
{ACAD_REACTORS
330
63BE
102
}
330
63BE
100
AcDbScale
 70
     0
300
100:1
140
100.0
141
1.0
290
     0
  0
TABLESTYLE
  5
63BD
102
{ACAD_XDICTIONARY
360
690C
102
}
102
{ACAD_REACTORS
330
63BC
102
}
330
63BC
100
AcDbTableStyle
  3
Standard
 70
     0
 71
     0
 40
1.5
 41
1.5
280
     0
281
     0
  7
Standard
140
4.5
170
     2
 62
     0
 63
     7
283
     0
274
    -2
284
     1
 64
     0
275
    -2
285
     1
 65
     0
276
    -2
286
     1
 66
     0
277
    -2
287
     1
 67
     0
278
    -2
288
     1
 68
     0
279
    -2
289
     1
 69
     0
  7
Standard
140
6.0
170
     5
 62
     0
 63
     7
283
     0
274
    -2
284
     1
 64
     0
275
    -2
285
     1
 65
     0
276
    -2
286
     1
 66
     0
277
    -2
287
     1
 67
     0
278
    -2
288
     1
 68
     0
279
    -2
289
     1
 69
     0
  7
Standard
140
4.5
170
     5
 62
     0
 63
     7
283
     0
274
    -2
284
     1
 64
     0
275
    -2
285
     1
 65
     0
276
    -2
286
     1
 66
     0
277
    -2
287
     1
 67
     0
278
    -2
288
     1
 68
     0
279
    -2
289
     1
 69
     0
  0
VISUALSTYLE
  5
63A8
102
{ACAD_XDICTIONARY
360
80E0
102
}
102
{ACAD_REACTORS
330
63A2
102
}
330
63A2
100
AcDbVisualStyle
  2

 70
     4
 71
     0
 72
     2
 73
     0
 90
        0
 40
-0.6
 41
-30.0
 62
     5
 63
     7
 74
     1
 91
        4
 64
     7
 65
   257
 75
     1
175
     1
 42
1.0
 92
        0
 66
   257
 43
1.0
 76
     1
 77
     6
 78
     2
 67
     7
 79
     5
170
     0
171
     0
290
     0
174
     0
 93
        1
 44
0.0
173
     0
291
     0
 45
0.0
1001
ACAD
1000
AcDbSavedByObjectVersion
1070
     0
  0
VISUALSTYLE
  5
63A7
102
{ACAD_XDICTIONARY
360
80DE
102
}
102
{ACAD_REACTORS
330
63A2
102
}
330
63A2
100
AcDbVisualStyle
  2

 70
     7
 71
     1
 72
     0
 73
     1
 90
        0
 40
-0.6
 41
-30.0
 62
     5
 63
     7
 74
     0
 91
        4
 64
     7
 65
   257
 75
     1
175
     1
 42
1.0
 92
        8
 66
     7
 43
1.0
 76
     1
 77
     6
 78
     2
 67
     7
 79
     5
170
     0
171
     0
290
     0
174
     0
 93
        1
 44
0.0
173
     0
291
     1
 45
0.0
1001
ACAD
1000
AcDbSavedByObjectVersion
1070
     0
  0
VISUALSTYLE
  5
63AE
102
{ACAD_XDICTIONARY
360
80EC
102
}
102
{ACAD_REACTORS
330
63A2
102
}
330
63A2
100
AcDbVisualStyle
  2

 70
    12
 71
     2
 72
     2
 73
     0
 90
        0
 40
-0.6
 41
-30.0
 62
     5
 63
     7
 74
     1
 91
        4
 64
     7
 65
   257
 75
     1
175
     1
 42
1.0
 92
        8
 66
     7
 43
1.0
 76
     1
 77
     6
 78
     2
 67
     7
 79
     5
170
     0
171
     0
290
     0
174
     0
 93
        1
 44
50.0
173
     0
291
     1
 45
0.0
1001
ACAD
1000
AcDbSavedByObjectVersion
1070
     0
  0
VISUALSTYLE
  5
63B2
102
{ACAD_XDICTIONARY
360
80F4
102
}
102
{ACAD_REACTORS
330
63A2
102
}
330
63A2
100
AcDbVisualStyle
  2

 70
    16
 71
     2
 72
     2
 73
     3
 90
        0
 40
-0.6
 41
-30.0
 62
     5
 63
     8
 74
     1
 91
        4
 64
     7
 65
   257
 75
     1
175
     1
 42
1.0
 92
        8
 66
     8
 43
1.0
 76
     1
 77
     6
 78
     2
 67
     7
 79
     5
170
     0
171
     0
290
     0
174
     0
 93
        1
 44
0.0
173
     0
291
     1
 45
0.0
1001
ACAD
1000
AcDbSavedByObjectVersion
1070
     0
  0
VISUALSTYLE
  5
63AB
102
{ACAD_XDICTIONARY
360
80E6
102
}
102
{ACAD_REACTORS
330
63A2
102
}
330
63A2
100
AcDbVisualStyle
  2

 70
     9
 71
     3
 72
     2
 73
     0
 90
        0
 40
-0.6
 41
-30.0
 62
     5
 63
     7
 74
     2
 91
        2
 64
     7
 65
   257
 75
     1
175
     1
 42
179.0
 92
        8
 66
     7
 43
1.0
 76
     1
 77
     6
 78
     2
 67
     7
 79
     3
170
     0
171
     0
290
     0
174
     0
 93
        1
 44
0.0
173
     0
291
     0
 45
0.0
1001
ACAD
1000
AcDbSavedByObjectVersion
1070
     0
  0
VISUALSTYLE
  5
63AD
102
{ACAD_XDICTIONARY
360
80EA
102
}
102
{ACAD_REACTORS
330
63A2
102
}
330
63A2
100
AcDbVisualStyle
  2

 70
    11
 71
     2
 72
     2
 73
     0
 90
        0
 40
-0.6
 41
-30.0
 62
     5
 63
     7
 74
     1
 91
        4
 64
     7
 65
   257
 75
     1
175
     1
 42
1.0
 92
        8
 66
     7
 43
1.0
 76
     1
 77
     6
 78
     2
 67
     7
 79
     5
170
     0
171
     0
290
     0
174
     0
 93
        1
 44
-50.0
173
     0
291
     1
 45
0.0
1001
ACAD
1000
AcDbSavedByObjectVersion
1070
     0
  0
VISUALSTYLE
  5
63BA
102
{ACAD_XDICTIONARY
360
8104
102
}
102
{ACAD_REACTORS
330
63A2
102
}
330
63A2
100
AcDbVisualStyle
  2

 70
    22
 71
     2
 72
     2
 73
     0
 90
        0
 40
-0.6
 41
-30.0
 62
     5
 63
     7
 74
     1
 91
        4
 64
     7
 65
   257
 75
     1
175
     1
 42
1.0
 92
        8
 66
     7
 43
1.0
 76
     1
 77
     6
 78
     2
 67
     7
 79
     5
170
     0
171
     0
290
     0
174
     0
 93
        1
 44
0.0
173
     0
291
     1
 45
0.0
1001
ACAD
1000
AcDbSavedByObjectVersion
1070
     0
  0
VISUALSTYLE
  5
63B1
102
{ACAD_XDICTIONARY
360
80F2
102
}
102
{ACAD_REACTORS
330
63A2
102
}
330
63A2
100
AcDbVisualStyle
  2

 70
    15
 71
     2
 72
     2
 73
     0
 90
        0
 40
-0.6
 41
-30.0
 62
     5
 63
     7
 74
     1
 91
        4
 64
     7
 65
   257
 75
     1
175
     1
 42
1.0
 92
        8
 66
     7
 43
1.0
 76
     1
 77
     6
 78
     2
 67
     7
 79
     5
170
     0
171
     0
290
     0
174
     0
 93
        1
 44
0.0
173
     0
291
     1
 45
0.0
1001
ACAD
1000
AcDbSavedByObjectVersion
1070
     0
  0
VISUALSTYLE
  5
63A3
102
{ACAD_XDICTIONARY
360
80D6
102
}
102
{ACAD_REACTORS
330
63A2
102
}
330
63A2
100
AcDbVisualStyle
  2

 70
     0
 71
     2
 72
     1
 73
     1
 90
        2
 40
-0.6
 41
30.0
 62
     5
 63
     7
 74
     0
 91
        0
 64
     7
 65
   257
 75
     1
175
     1
 42
1.0
 92
        8
 66
     7
 43
1.0
 76
     1
 77
     6
 78
     2
 67
     7
 79
     5
170
     0
171
     0
290
     0
174
     0
 93
       13
 44
0.0
173
     0
291
     1
 45
0.0
1001
ACAD
1000
AcDbSavedByObjectVersion
1070
     0
  0
VISUALSTYLE
  5
63A4
102
{ACAD_XDICTIONARY
360
80D8
102
}
102
{ACAD_REACTORS
330
63A2
102
}
330
63A2
100
AcDbVisualStyle
  2

 70
     1
 71
     2
 72
     1
 73
     1
 90
        2
 40
-0.6
 41
30.0
 62
     5
 63
     7
 74
     1
 91
        0
 64
     7
 65
   257
 75
     1
175
     1
 42
1.0
 92
        0
 66
   257
 43
1.0
 76
     1
 77
     6
 78
     2
 67
     7
 79
     5
170
     0
171
     0
290
     0
174
     0
 93
       13
 44
0.0
173
     0
291
     1
 45
0.0
1001
ACAD
1000
AcDbSavedByObjectVersion
1070
     0
  0
VISUALSTYLE
  5
63A5
102
{ACAD_XDICTIONARY
360
80DA
102
}
102
{ACAD_REACTORS
330
63A2
102
}
330
63A2
100
AcDbVisualStyle
  2

 70
     2
 71
     2
 72
     2
 73
     1
 90
        2
 40
-0.6
 41
30.0
 62
     5
 63
     7
 74
     0
 91
        0
 64
     7
 65
   257
 75
     1
175
     1
 42
1.0
 92
        0
 66
     7
 43
1.0
 76
     1
 77
     6
 78
     2
 67
     7
 79
     5
170
     0
171
     0
290
     0
174
     0
 93
       13
 44
0.0
173
     0
291
     1
 45
0.0
1001
ACAD
1000
AcDbSavedByObjectVersion
1070
     0
  0
VISUALSTYLE
  5
63A6
102
{ACAD_XDICTIONARY
360
80DC
102
}
102
{ACAD_REACTORS
330
63A2
102
}
330
63A2
100
AcDbVisualStyle
  2

 70
     3
 71
     2
 72
     2
 73
     1
 90
        2
 40
-0.6
 41
30.0
 62
     5
 63
     7
 74
     1
 91
        0
 64
     7
 65
   257
 75
     1
175
     1
 42
1.0
 92
        0
 66
   257
 43
1.0
 76
     1
 77
     6
 78
     2
 67
     7
 79
     5
170
     0
171
     0
290
     0
174
     0
 93
       13
 44
0.0
173
     0
291
     1
 45
0.0
1001
ACAD
1000
AcDbSavedByObjectVersion
1070
     0
  0
VISUALSTYLE
  5
63AA
102
{ACAD_XDICTIONARY
360
80E4
102
}
102
{ACAD_REACTORS
330
63A2
102
}
330
63A2
100
AcDbVisualStyle
  2

 70
     6
 71
     1
 72
     2
 73
     2
 90
        0
 40
-0.6
 41
-30.0
 62
     5
 63
     7
 74
     2
 91
        2
 64
     7
 65
   257
 75
     2
175
     1
 42
40.0
 92
        0
 66
   257
 43
1.0
 76
     1
 77
     6
 78
     2
 67
     7
 79
     3
170
     0
171
     0
290
     0
174
     0
 93
        1
 44
0.0
173
     0
291
     0
 45
0.0
1001
ACAD
1000
AcDbSavedByObjectVersion
1070
     0
  0
VISUALSTYLE
  5
63B8
102
{ACAD_XDICTIONARY
360
8100
102
}
102
{ACAD_REACTORS
330
63A2
102
}
330
63A2
100
AcDbVisualStyle
  2

 70
    20
 71
     2
 72
     2
 73
     0
 90
        0
 40
-0.6
 41
-30.0
 62
     5
 63
     7
 74
     1
 91
        4
 64
     7
 65
   257
 75
     1
175
     1
 42
1.0
 92
       10
 66
     7
 43
1.0
 76
     1
 77
     6
 78
     2
 67
     7
 79
     5
170
     0
171
     0
290
     0
174
     0
 93
        1
 44
0.0
173
     0
291
     1
 45
0.0
1001
ACAD
1000
AcDbSavedByObjectVersion
1070
     0
  0
VISUALSTYLE
  5
63B0
102
{ACAD_XDICTIONARY
360
80F0
102
}
102
{ACAD_REACTORS
330
63A2
102
}
330
63A2
100
AcDbVisualStyle
  2

 70
    14
 71
     2
 72
     2
 73
     0
 90
        0
 40
-0.6
 41
-30.0
 62
     5
 63
     7
 74
     1
 91
        4
 64
     7
 65
   257
 75
     7
175
     7
 42
1.0
 92
        8
 66
     7
 43
1.0
 76
     1
 77
     6
 78
     2
 67
     7
 79
     5
170
     0
171
     0
290
     0
174
     0
 93
        1
 44
0.0
173
     0
291
     1
 45
0.0
1001
ACAD
1000
AcDbSavedByObjectVersion
1070
     0
  0
VISUALSTYLE
  5
63B9
102
{ACAD_XDICTIONARY
360
8102
102
}
102
{ACAD_REACTORS
330
63A2
102
}
330
63A2
100
AcDbVisualStyle
  2

 70
    21
 71
     2
 72
     2
 73
     0
 90
        0
 40
-0.6
 41
-30.0
 62
     5
 63
     7
 74
     1
 91
        4
 64
     7
 65
   257
 75
     1
175
     1
 42
1.0
 92
        9
 66
     7
 43
1.0
 76
     1
 77
     6
 78
     2
 67
     7
 79
     5
170
     0
171
     0
290
     0
174
     0
 93
        1
 44
0.0
173
     0
291
     1
 45
0.0
1001
ACAD
1000
AcDbSavedByObjectVersion
1070
     0
  0
VISUALSTYLE
  5
63AC
102
{ACAD_XDICTIONARY
360
80E8
102
}
102
{ACAD_REACTORS
330
63A2
102
}
330
63A2
100
AcDbVisualStyle
  2

 70
     8
 71
     2
 72
     2
 73
     0
 90
        2
 40
-0.6
 41
30.0
 62
     5
 63
     7
 74
     0
 91
        0
 64
     7
 65
   257
 75
     1
175
     1
 42
1.0
 92
        8
 66
   257
 43
1.0
 76
     1
 77
     6
 78
     2
 67
     7
 79
     3
170
     0
171
     0
290
     0
174
     0
 93
       13
 44
0.0
173
     0
291
     0
 45
0.0
1001
ACAD
1000
AcDbSavedByObjectVersion
1070
     0
  0
VISUALSTYLE
  5
63B7
102
{ACAD_XDICTIONARY
360
80FE
102
}
102
{ACAD_REACTORS
330
63A2
102
}
330
63A2
100
AcDbVisualStyle
  2

 70
    27
 71
     2
 72
     2
 73
     1
 90
        2
 40
-0.6
 41
30.0
 62
     5
 63
     7
 74
     0
 91
        4
 64
     7
 65
   257
 75
     1
175
     1
 42
1.0
 92
        8
 66
   257
 43
1.0
 76
     1
 77
     6
 78
     2
 67
     8
 79
     3
170
     0
171
     0
290
     0
174
     0
 93
        5
 44
0.0
173
     0
291
     0
 45
0.0
1001
ACAD
1000
AcDbSavedByObjectVersion
1070
     0
  0
VISUALSTYLE
  5
63B6
102
{ACAD_XDICTIONARY
360
80FC
102
}
102
{ACAD_REACTORS
330
63A2
102
}
330
63A2
100
AcDbVisualStyle
  2

 70
    26
 71
     2
 72
     2
 73
     1
 90
        2
 40
-0.6
 41
30.0
 62
     5
 63
     7
 74
     1
 91
       10
 64
     7
 65
   257
 75
     2
175
     1
 42
1.0
 92
        8
 66
   257
 43
1.0
 76
     1
 77
     6
 78
     2
 67
     7
 79
     3
170
     0
171
     0
290
     0
174
     0
 93
        5
 44
0.0
173
     0
291
     0
 45
0.0
1001
ACAD
1000
AcDbSavedByObjectVersion
1070
     0
  0
VISUALSTYLE
  5
63B3
102
{ACAD_XDICTIONARY
360
80F6
102
}
102
{ACAD_REACTORS
330
63A2
102
}
330
63A2
100
AcDbVisualStyle
  2

 70
    23
 71
     2
 72
     2
 73
     3
 90
        0
 40
-0.6
 41
-30.0
 62
     5
 63
     7
 74
     2
 91
        2
 64
     7
 65
     7
 75
     1
175
     1
 42
40.0
 92
        8
 66
     7
 43
1.0
 76
     1
 77
     6
 78
     2
 67
     7
 79
     3
170
     0
171
     0
290
     0
174
     0
 93
        1
 44
0.0
173
     0
291
     0
 45
0.0
1001
ACAD
1000
AcDbSavedByObjectVersion
1070
     0
  0
VISUALSTYLE
  5
63B4
102
{ACAD_XDICTIONARY
360
80F8
102
}
102
{ACAD_REACTORS
330
63A2
102
}
330
63A2
100
AcDbVisualStyle
  2

 70
    24
 71
     1
 72
     2
 73
     2
 90
        0
 40
-0.6
 41
-30.0
 62
     5
 63
     7
 74
     2
 91
        2
 64
     7
 65
     7
 75
     1
175
     1
 42
40.0
 92
       11
 66
     7
 43
1.0
 76
     1
 77
     6
 78
     2
 67
     7
 79
     6
170
     0
171
     0
290
     0
174
     0
 93
        1
 44
0.0
173
     0
291
     0
 45
0.0
1001
ACAD
1000
AcDbSavedByObjectVersion
1070
     0
  0
VISUALSTYLE
  5
63AF
102
{ACAD_XDICTIONARY
360
80EE
102
}
102
{ACAD_REACTORS
330
63A2
102
}
330
63A2
100
AcDbVisualStyle
  2

 70
    13
 71
     2
 72
     2
 73
     0
 90
        0
 40
-0.6
 41
-30.0
 62
     5
 63
     7
 74
     1
 91
        4
 64
     7
 65
   257
 75
     1
175
     1
 42
1.0
 92
       12
 66
     7
 43
1.0
 76
     1
 77
     6
 78
     2
 67
     7
 79
     5
170
     0
171
     0
290
     0
174
     0
 93
        1
 44
0.0
173
     0
291
     1
 45
0.0
1001
ACAD
1000
AcDbSavedByObjectVersion
1070
     0
  0
VISUALSTYLE
  5
63A9
102
{ACAD_XDICTIONARY
360
80E2
102
}
102
{ACAD_REACTORS
330
63A2
102
}
330
63A2
100
AcDbVisualStyle
  2

 70
     5
 71
     0
 72
     2
 73
     0
 90
        0
 40
-0.6
 41
-30.0
 62
     5
 63
     7
 74
     1
 91
        4
 64
     7
 65
   257
 75
     1
175
     1
 42
1.0
 92
        0
 66
   257
 43
1.0
 76
     1
 77
     6
 78
     2
 67
     7
 79
     3
170
     0
171
     0
290
     0
174
     0
 93
        1
 44
0.0
173
     0
291
     0
 45
0.0
1001
ACAD
1000
AcDbSavedByObjectVersion
1070
     0
  0
VISUALSTYLE
  5
63B5
102
{ACAD_XDICTIONARY
360
80FA
102
}
102
{ACAD_REACTORS
330
63A2
102
}
330
63A2
100
AcDbVisualStyle
  2

 70
    25
 71
     2
 72
     2
 73
     1
 90
        1
 40
0.5
 41
-30.0
 62
     5
 63
     7
 74
     1
 91
        0
 64
     7
 65
   257
 75
     1
175
     1
 42
1.0
 92
        8
 66
     7
 43
1.0
 76
     1
 77
     6
 78
     2
 67
     7
 79
     3
170
     0
171
     0
290
     0
174
     0
 93
       13
 44
0.0
173
     0
291
     0
 45
0.0
1001
ACAD
1000
AcDbSavedByObjectVersion
1070
     0
  0
DICTIONARYVAR
  5
695B
102
{ACAD_REACTORS
330
5AA
102
}
330
5AA
100
DictionaryVariables
280
     0
  1
1:1
  0
DICTIONARYVAR
  5
695A
102
{ACAD_REACTORS
330
5AA
102
}
330
5AA
100
DictionaryVariables
280
     0
  1
STANDARD
  0
DICTIONARYVAR
  5
6959
102
{ACAD_REACTORS
330
5AA
102
}
330
5AA
100
DictionaryVariables
280
     0
  1
STANDARD
  0
DICTIONARYVAR
  5
5AB
102
{ACAD_REACTORS
330
5AA
102
}
330
5AA
100
DictionaryVariables
280
     0
  1
1
  0
DICTIONARYVAR
  5
695D
102
{ACAD_REACTORS
330
5AA
102
}
330
5AA
100
DictionaryVariables
280
     0
  1
0
  0
DICTIONARYVAR
  5
76E0
102
{ACAD_REACTORS
330
5AA
102
}
330
5AA
100
DictionaryVariables
280
     0
  1
1
  0
DICTIONARYVAR
  5
76E1
102
{ACAD_REACTORS
330
5AA
102
}
330
5AA
100
DictionaryVariables
280
     0
  1
15
  0
DICTIONARYVAR
  5
76DF
102
{ACAD_REACTORS
330
5AA
102
}
330
5AA
100
DictionaryVariables
280
     0
  1
0
  0
DICTIONARYVAR
  5
76DE
102
{ACAD_REACTORS
330
5AA
102
}
330
5AA
100
DictionaryVariables
280
     0
  1
0
  0
DICTIONARYVAR
  5
695C
102
{ACAD_REACTORS
330
5AA
102
}
330
5AA
100
DictionaryVariables
280
     0
  1
127
  0
DICTIONARYVAR
  5
80C3
102
{ACAD_REACTORS
330
5AA
102
}
330
5AA
100
DictionaryVariables
280
     0
  1
2
  0
DICTIONARY
  5
76C1
330
22
100
AcDbDictionary
280
     1
281
     1
  3
ACAD_XREC_ROUNDTRIP
360
80CB
  3
ADSK_XREC_LAYOUTTHUMBNAIL
360
76C2
  0
DICTIONARY
  5
80C9
330
1E
100
AcDbDictionary
280
     1
281
     1
  3
ACAD_XREC_ROUNDTRIP
360
80CA
  0
DICTIONARY
  5
80CC
330
26
100
AcDbDictionary
280
     1
281
     1
  3
ACAD_XREC_ROUNDTRIP
360
80CD
  0
DICTIONARY
  5
6393
330
6392
100
AcDbDictionary
280
     1
281
     1
  3
ACAD_XREC_ROUNDTRIP
360
8084
  3
BUMPTILE
360
6395
  3
DIFFUSETILE
360
6394
  3
OPACITYTILE
360
6398
  3
REFLECTIONTILE
360
6397
  3
REFRACTIONTILE
360
6399
  3
SPECULARTILE
360
6396
  0
DICTIONARY
  5
638B
330
638A
100
AcDbDictionary
280
     1
281
     1
  3
ACAD_XREC_ROUNDTRIP
360
8083
  3
BUMPTILE
360
638D
  3
DIFFUSETILE
360
638C
  3
OPACITYTILE
360
6390
  3
REFLECTIONTILE
360
638F
  3
REFRACTIONTILE
360
6391
  3
SPECULARTILE
360
638E
  0
DICTIONARY
  5
639B
330
639A
100
AcDbDictionary
280
     1
281
     1
  3
ACAD_XREC_ROUNDTRIP
360
8085
  3
BUMPTILE
360
639D
  3
DIFFUSETILE
360
639C
  3
OPACITYTILE
360
63A0
  3
REFLECTIONTILE
360
639F
  3
REFRACTIONTILE
360
63A1
  3
SPECULARTILE
360
639E
  0
DICTIONARY
  5
80C5
330
63D1
100
AcDbDictionary
280
     1
281
     1
  3
ACAD_XREC_ROUNDTRIP
360
80C6
  0
DICTIONARY
  5
690C
330
63BD
100
AcDbDictionary
280
     1
281
     1
  3
ACAD_ROUNDTRIP_2008_TABLESTYLE_CELLSTYLEMAP
360
80C4
  3
ACAD_XREC_ROUNDTRIP
360
8106
  0
DICTIONARY
  5
80E0
330
63A8
100
AcDbDictionary
280
     1
281
     1
  3
ACAD_XREC_ROUNDTRIP
360
80E1
  0
DICTIONARY
  5
80DE
330
63A7
100
AcDbDictionary
280
     1
281
     1
  3
ACAD_XREC_ROUNDTRIP
360
80DF
  0
DICTIONARY
  5
80EC
330
63AE
100
AcDbDictionary
280
     1
281
     1
  3
ACAD_XREC_ROUNDTRIP
360
80ED
  0
DICTIONARY
  5
80F4
330
63B2
100
AcDbDictionary
280
     1
281
     1
  3
ACAD_XREC_ROUNDTRIP
360
80F5
  0
DICTIONARY
  5
80E6
330
63AB
100
AcDbDictionary
280
     1
281
     1
  3
ACAD_XREC_ROUNDTRIP
360
80E7
  0
DICTIONARY
  5
80EA
330
63AD
100
AcDbDictionary
280
     1
281
     1
  3
ACAD_XREC_ROUNDTRIP
360
80EB
  0
DICTIONARY
  5
8104
330
63BA
100
AcDbDictionary
280
     1
281
     1
  3
ACAD_XREC_ROUNDTRIP
360
8105
  0
DICTIONARY
  5
80F2
330
63B1
100
AcDbDictionary
280
     1
281
     1
  3
ACAD_XREC_ROUNDTRIP
360
80F3
  0
DICTIONARY
  5
80D6
330
63A3
100
AcDbDictionary
280
     1
281
     1
  3
ACAD_XREC_ROUNDTRIP
360
80D7
  0
DICTIONARY
  5
80D8
330
63A4
100
AcDbDictionary
280
     1
281
     1
  3
ACAD_XREC_ROUNDTRIP
360
80D9
  0
DICTIONARY
  5
80DA
330
63A5
100
AcDbDictionary
280
     1
281
     1
  3
ACAD_XREC_ROUNDTRIP
360
80DB
  0
DICTIONARY
  5
80DC
330
63A6
100
AcDbDictionary
280
     1
281
     1
  3
ACAD_XREC_ROUNDTRIP
360
80DD
  0
DICTIONARY
  5
80E4
330
63AA
100
AcDbDictionary
280
     1
281
     1
  3
ACAD_XREC_ROUNDTRIP
360
80E5
  0
DICTIONARY
  5
8100
330
63B8
100
AcDbDictionary
280
     1
281
     1
  3
ACAD_XREC_ROUNDTRIP
360
8101
  0
DICTIONARY
  5
80F0
330
63B0
100
AcDbDictionary
280
     1
281
     1
  3
ACAD_XREC_ROUNDTRIP
360
80F1
  0
DICTIONARY
  5
8102
330
63B9
100
AcDbDictionary
280
     1
281
     1
  3
ACAD_XREC_ROUNDTRIP
360
8103
  0
DICTIONARY
  5
80E8
330
63AC
100
AcDbDictionary
280
     1
281
     1
  3
ACAD_XREC_ROUNDTRIP
360
80E9
  0
DICTIONARY
  5
80FE
330
63B7
100
AcDbDictionary
280
     1
281
     1
  3
ACAD_XREC_ROUNDTRIP
360
80FF
  0
DICTIONARY
  5
80FC
330
63B6
100
AcDbDictionary
280
     1
281
     1
  3
ACAD_XREC_ROUNDTRIP
360
80FD
  0
DICTIONARY
  5
80F6
330
63B3
100
AcDbDictionary
280
     1
281
     1
  3
ACAD_XREC_ROUNDTRIP
360
80F7
  0
DICTIONARY
  5
80F8
330
63B4
100
AcDbDictionary
280
     1
281
     1
  3
ACAD_XREC_ROUNDTRIP
360
80F9
  0
DICTIONARY
  5
80EE
330
63AF
100
AcDbDictionary
280
     1
281
     1
  3
ACAD_XREC_ROUNDTRIP
360
80EF
  0
DICTIONARY
  5
80E2
330
63A9
100
AcDbDictionary
280
     1
281
     1
  3
ACAD_XREC_ROUNDTRIP
360
80E3
  0
DICTIONARY
  5
80FA
330
63B5
100
AcDbDictionary
280
     1
281
     1
  3
ACAD_XREC_ROUNDTRIP
360
80FB
  0
XRECORD
  5
80CB
102
{ACAD_REACTORS
330
76C1
102
}
330
76C1
100
AcDbXrecord
280
     1
102
SHADEPLOT
 70
     0
102
SHADEPLOTRESLEVEL
 70
     2
102
SHADEPLOTCUSTOMDPI
 70
   300
  0
XRECORD
  5
76C2
102
{ACAD_REACTORS
330
76C1
102
}
330
76C1
100
AcDbXrecord
280
     1
310
280000000001000081000000010008000000000000810000000000000000000000010000000000003028210000000000C8C8C8000000000000000000000000000000000000000000000000000000000000000000330000006600000099000000CC000000FF00000000330000333300006633000099330000CC330000FF3300
310
0000660000336600006666000099660000CC660000FF66000000990000339900006699000099990000CC990000FF99000000CC000033CC000066CC000099CC0000CCCC0000FFCC000000FF000033FF000066FF000099FF0000CCFF0000FFFF000000003300330033006600330099003300CC003300FF003300003333003333
310
33006633330099333300CC333300FF33330000663300336633006666330099663300CC663300FF66330000993300339933006699330099993300CC993300FF99330000CC330033CC330066CC330099CC3300CCCC3300FFCC330000FF330033FF330066FF330099FF3300CCFF3300FFFF330000006600330066006600660099
310
006600CC006600FF00660000336600333366006633660099336600CC336600FF33660000666600336666006666660099666600CC666600FF66660000996600339966006699660099996600CC996600FF99660000CC660033CC660066CC660099CC6600CCCC6600FFCC660000FF660033FF660066FF660099FF6600CCFF6600
310
FFFF660000009900330099006600990099009900CC009900FF00990000339900333399006633990099339900CC339900FF33990000669900336699006666990099669900CC669900FF66990000999900339999006699990099999900CC999900FF99990000CC990033CC990066CC990099CC9900CCCC9900FFCC990000FF99
310
0033FF990066FF990099FF9900CCFF9900FFFF99000000CC003300CC006600CC009900CC00CC00CC00FF00CC000033CC003333CC006633CC009933CC00CC33CC00FF33CC000066CC003366CC006666CC009966CC00CC66CC00FF66CC000099CC003399CC006699CC009999CC00CC99CC00FF99CC0000CCCC0033CCCC0066CC
310
CC0099CCCC00CCCCCC00FFCCCC0000FFCC0033FFCC0066FFCC0099FFCC00CCFFCC00FFFFCC000000FF003300FF006600FF009900FF00CC00FF00FF00FF000033FF003333FF006633FF009933FF00CC33FF00FF33FF000066FF003366FF006666FF009966FF00CC66FF00FF66FF000099FF003399FF006699FF009999FF00CC
310
99FF00FF99FF0000CCFF0033CCFF0066CCFF0099CCFF00CCCCFF00FFCCFF0000FFFF0033FFFF0066FFFF0099FFFF00CCFFFF00FFFFFF00000000000D0D0D001A1A1A00282828003535350043434300505050005D5D5D006B6B6B00787878008686860093939300A1A1A100AEAEAE00BBBBBB00C9C9C900D6D6D600E4E4E400
310
F1F1F100FFFFFF000000000000000000000000000000000000000000000000000000000000000000000000000000000000000000000000000000000000000000000000000000000000000000000000000000000000000000000000000000000000000000000000000000000000000000000000000000000000000000000000
310
00000000000000000000000000000000000000000000000000000000000000000000000000000000000000000000000000000000000000000000000000000000000000000000000000000000000000000000000000000000000000000000000000000000000000000000000000000000000000000000000000000000000000
310
00000000000000000000000000000000000000000000000000000000000000000000000000000000000000000000000000000000000000000000000000000000000000000000000000000000000000000000000000000000000000000000000000000000000000000000000000000000000000000000000000000000000000
310
00000000000000000000000000000000000000000000000000000000000000000000000000000000000000000000000000000000000000000000000000000000000000000000000000000000000000000000000000000000000000000000000000000000000000000000000000000000000000000000000000000000000000
310
00000000000000000000000000000000000000000000000000000000000000000000000000000000000000000000000000000000000000000000000000000000000000000000000000000000000000000000000000000000000000000000000000000000000000000000000000000000000000000000000000000000000000
310
00000000000000000000000000000000000000000000000000000000000000000000000000000000000000000000000000000000000000000000000000000000000000000000000000000000000000000000000000000000000000000000000000000000000000000000000000000000000000000000000000000000000000
310
00000000000000000000000000000000000000000000000000000000000000000000000000000000000000000000000000000000000000000000000000000000000000000000000000000000000000000000000000000000000000000000000000000000000000000000000000000000000000000000000000000000000000
310
00000000000000000000000000000000000000000000000000000000000000000000000000000000000000000000000000000000000000000000000000000000000000000000000000000000000000000000000000000000000000000000000000000000000000000000000000000000000000000000000000000000000000
310
00000000000000000000000000000000000000000000000000000000000000000000000000000000000000000000000000000000000000000000000000000000000000000000000000000000000000000000000000000000000000000000000000000000000000000000000000000000000000000000000000000000000000
310
00000000000000000000000000000000000000000000000000000000000000000000000000000000000000000000000000000000000000000000000000000000000000000000000000000000000000000000000000000000000000000000000000000000000000000000000000000000000000000000000000000000000000
310
00000000000000000000000000000000000000000000000000000000000000000000000000000000000000000000000000000000000000000000000000000000000000000000000000000000000000000000000000000000000000000000000000000000000000000000000000000000000000000000000000000000000000
310
00000000000000000000000000000000000000000000000000000000000000000000000000000000000000000000000000000000000000000000000000000000000000000000000000000000000000000000000000000000000000000000000000000000000000000000000000000000000000000000000000000000000000
310
00000000000000000000000000000000000000000000000000000000000000000000000000000000000000000000000000000000000000000000000000000000000000000000000000000000000000000000000000000000000000000000000000000000000000000000000000000000000000000000000000000000000000
310
00000000000000000000000000000000000000000000000000000000000000000000000000000000000000000000000000000000000000000000000000000000000000000000000000000000000000000000000000000000000000000000000000000000000000000000000000000000000000000000000000000000000000
310
00000000000000000000000000000000000000000000000000000000000000000000000000000000000000000000000000000000000000000000000000000000000000000000000000000000000000000000000000000000000000000000000000000000000000000000000000000000000000000000000000000000000000
310
00000000000000000000000000000000000000000000000000000000000000000000000000000000000000000000000000000000000000000000000000000000000000000000000000000000000000000000000000000000000000000000000000000000000000000000000000000000000000000000000000000000000000
310
00000000000000000000000000000000000000000000000000000000000000000000000000000000000000000000000000000000000000000000000000000000000000000000000000000000000000000000000000000000000000000000000000000000000000000000000000000000000000000000000000000000000000
310
00000000000000000000000000000000000000000000000000000000000000000000000000000000000000000000000000000000000000000000000000000000000000000000000000000000000000000000000000000000000000000000000000000000000000000000000000000000000000000000000000000000000000
310
00000000000000000000000000000000000000000000000000000000000000000000000000000000000000000000000000000000000000000000000000000000000000000000000000000000000000000000000000000000000000000000000000000000000000000000000000000000000000000000000000000000000000
310
00000000000000000000000000000000000000000000000000000000000000000000000000000000000000000000000000000000000000000000000000000000000000000000000000000000000000000000000000000000000000000000000000000000000000000000000000000000000000000000000000000000000000
310
00000000000000000000000000000000000000000000000000000000000000000000000000000000000000000000000000000000000000000000000000000000000000000000000000000000000000000000000000000000000000000000000000000000000000000000000000000000000000000000000000000000000000
310
00000000000000000000000000000000000000000000000000000000000000000000000000000000000000000000000000000000000000000000000000000000000000000000000000000000000000000000000000000000000000000000000000000000000000000000000000000000000000000000000000000000000000
310
00000000000000000000000000000000000000000000000000000000000000000000000000000000000000000000000000000000000000000000000000000000000000000000000000000000000000000000000000000000000000000000000000000000000000000000000000000000000000000000000000000000000000
310
0000000000000000F0F0F0F0F0F0F0F0F0F0F0F0F0F0F0F0F0F0F0F0F0F0F0F0F0F0F0F0F0F0F0F0F0F0F0F0F0F0F0F0F0F0F0F0F0F0F0F0F0F0F0F0F0F0F0F0F0F0F0F0F0F0F0F0F0F0F000000000000000000000000000000000000000000000F0F0F0F0F0F0F0F0F0F0F0F0F0F0F0F0F0F0F0F0F0F0F0F0F0F0F0F0F0F0
310
F0F0F0F0F0F0F0F0F0F0F0F0F0F0F0F0F0F0F0F0F0F0F0F0F0F0F0F0F0F0F0F00000000000000000000000000000000000000000000000000000000000000000000000000000000000000000000000000000000000000000000000000000000000000000000000000000000000000000000000000000000000000000000000
310
00000000000000000000F0000000000000000000F0000000000000000000000000000000000000000000000000F0000000000000000000F0000000000000000000F000000000000000000000F000000000000000000000000000000000000000000000F0000000000000000000000000000000000000000000000000000000
310
00000000000000000000000000F0000000000000000000F0000000000000000000F0000000000000000000000000000000000000000000000000000000000000000000000000000000000000000000000000000000000000000000000000000000000000000000000000000000000000000000000000000000000000000000
310
000000000000000000000000F0F0F0F0F0F0F0F0F0F0F0F0F0F0F0F0F0F0F0F0F0F0F0F0F0F0F0F0F0F0F0F0F0F0F0F0F0F0F0F0F0F0F0F0F0F0F0F0F0F0F0F0F0F0F0F0F0F0F0F0F0F0F0F0F0F0F000000000000000000000000000000000000000000000F0F0F0F0F0F0F0F0F0F0F0F0F0F0F0F0F0F0F0F0F0F0F0F0F0F0
310
F0F0F0F0F0F0F0F0F0F0F0F0F0F0F0F0F0F0F0F0F0F0F0F0F0F0F0F0F0F0F0F0F0F0F0F000000000000000000000000000000000000000000000000000000000000000000000000000000000000000000000000000000000000000000000000000000000000000000000000000000000000000000000000000000000000000
310
0000000000000000000000000000F0000000000000000000F0000000000000000000000000000000000000000000000000F0000000000000000000F0000000000000000000F000000000000000000000F000000000000000000000000000000000000000000000F000F5F5F5F5F5F500000000000000000000000000000000
310
0000000000000000000000000000000000F0000000F5F500000000F0000000000000000000F00000000000000000000000000000000000000000000000000000000000000000000000000000000000000000000000000000000000000000000000000000000000000000000000000000000000000000000000000000000000
310
00000000000000000000000000000000F0000000000000000000F0000000000000000000000000000000000000000000000000F0000000000000000000F0000000000000000000F000000000000000000000F000000000000000000000000000000000000000000000F0000000000000000000000000000000000000000000
310
00000000000000000000000000000000000000F0000000000000000000F0000000000000000000F0000000000000000000000000000000000000000000000000000000000000000000000000000000000000000000000000000000000000000000000000000000000000000000000000000000000000000000000000000000
310
000000000000000000000000000000000000F0F0F0F5F5F5F0F0F0F0F0F5F0F0F0F0F0F0F0F0F0F0F0F0F0F0F0F0F0F0F0F0F0F0F0F0F0F0F0F0F5F0F0F0F0F0F5F5F5F5F5F5F5F5F5F0F0F0F0F5F5F5F0F0F0F0F000000000000000000000000000000000000000000000F0F0F5F5F5F5F5F5F5F5F5F0F0F0F0F0F0F0F0F0
310
F0F0F0F0F0F0F0F0F0F0F0F0F0F0F0F0F0F0F0F0F0F0F0F0F5F5F5F5F0F0F0F0F0F0F0F0F0F0F0F0F0F000000000000000000000000000000000000000000000000000000000000000000000000000000000000000000000000000000000000000000000000000000000000000000000000000000000000000000000000000
310
0000000000000000000000000000000000000000F00000F5F5F500000000F0F50000000000000000000000000000000000000000000000F000000000F500000000F0F5F5F5F5F5F5F5F5F5F0000000F5F5F500000000F000000000000000000000000000000000000000000000F000F5F5F5F5F5F5F5F5F500000000000000
310
0000000000000000000000000000000000000000000000F00000F5F5F5F5000000F0000000000000000000F00000000000000000000000000000000000000000000000000000000000000000000000000000000000000000000000000000000000000000000000000000000000000000000000000000000000000000000000
310
00000000000000000000000000000000000000000000F0F0F0F0F0F0F0F0F0F0F0F0F0F0F0F0F0F0F0F0F0F0F0F0F0F0F0F0F0F0F0F0F0F0F0F0F0F0F0F0F0F0F0F0F0F0F0F0F0F0F0F0F0F0F0F0F0F0F0F0F0F0F0F0F0F0F000000000000000000000000000000000000000000000F0F0F0F0F0F0F0F0F0F0F0F0F0F0F0F0
310
F0F0F0F0F0F0F0F0F0F0F0F0F0F0F0F0F0F0F0F0F0F0F0F0F0F0F0F0F0F0F0F0F0F0F0F0F0F0F0F0F0F0F0F0F0F0000000000000000000000000000000000000000000000000000000000000000000000000000000000000000000000000000000000000000000000000000000000000000000000000000000000000000000
310
000000000000000000000000000000000000000000000000F00000F5F5F500000000F0000000000000000000F5F5F5F5F500000000000000000000F0000000F5F5F5000000F0F5F5F5F5F5F5F5F5F5F0000000F5F5F500000000F000000000000000000000000000000000000000000000F000000000000000000000000000
310
00000000F5F5F5F5F5F50000000000000000000000000000000000F0000000F5F5F5000000F000F5F5F5F5F5F5F500F000000000000000000000000000000000000000000000000000000000000000000000000000000000000000000000000000000000000000000000000000000000000000000000000000000000000000
310
0000000000000000000000000000000000000000000000000000F0000000000000000000F0000000000000000000000000000000000000000000000000F0000000000000000000F0000000000000000000F000000000000000000000F000000000000000000000000000000000000000000000F00000000000000000000000
310
0000000000000000000000000000000000000000000000000000000000F0000000000000000000F0000000000000000000F00000000000000000000000000000000000000000000000000000000000000000000000000000000000000000000000000000000000000000000000000000000000000000000000000000000000
310
00000000000000000000000000000000000000000000000000000000F0F0F0F0F0F0F0F0F0F0F0F0F0F0F0F0F0F0F0F0F0F0F0F0F0F0F0F0F0F0F0F0F0F0F0F0F0F0F0F0F0F0F0F0F0F0F0F0F0F0F0F0F0F0F0F0F0F0F0F0F0F0F0F0F0F0F0F0F0F0F0F0F0F0F0F0F0F0F0F0F0F0F0F0F0F0F0F0F0F0F0F0F0F0F0F0F0F0F0
310
F0F0F0F0F0F0F0F0F0F0F0F0F0F0F0F0F0F0F0F0F0F0F0F0F0F0F0F0F0F0F0F0F0F0F0F0F0F0F0F0F0F0F0F0F0F0F0F0F0F0F0F0000000000000000000000000000000000000000000000000000000000000000000000000000000000000000000000000000000000000000000000000000000000000000000000000000000
310
000000000000000000000000000000000000000000000000000000000000F0000000000000000000000000000000000000000000000000000000000000000000000000000000000000000000000000000000000000000000000000000000000000000000000000000000000000000000000000000000000000000000000000
310
0000000000000000000000000000000000000000000000000000000000000000000000000000000000000000000000000000000000F000000000000000000000000000000000000000000000000000000000000000000000000000000000000000000000000000000000000000000000000000000000000000000000000000
310
0000000000000000000000000000000000000000000000000000000000000000F000000000000000000000000000000000000000000000000000000000000000000000000000000000000000000000000000000000000000000000000000000000000000000000000000000000000000000000000000000000000000000000
310
00000000000000000000000000000000000000000000000000000000000000000000000000000000000000000000000000000000000000F00000000000000000000000000000000000000000000000000000000000000000000000000000000000000000000000000000000000000000000000000000000000000000000000
310
00000000000000000000000000000000000000000000000000000000000000000000F00000000000000000000000000000000000000000000000000000000000000000000000000000000000000000000000000000000000000000000000000000000000000000000000000000000000000000000000000000000000000000
310
000000000000000000000000000000000000000000000000000000000000000000000000000000000000000000000000000000000000000000F0000000000000000000000000000000000000000000000000000000000000000000000000000000000000000000000000000000000000000000000000000000000000000000
310
000000000000000000000000000000000000000000000000000000000000000000000000F0000000000000000000000000000000000000000000000000000000000000000000000000000000000000000000000000000000000000000000000000000000000000000000000000000000000000000000000000000000000000
310
0000000000000000000000000000000000000000000000000000000000000000000000000000000000000000000000000000000000000000000000F000000000000000000000000000000000000000000000000000000000000000000000000000000000000000000000000000000000000000000000000000000000000000
310
0000000000000000000000000000000000000000000000000000000000000000000000000000F0000000000FF5F5F5F5F5F5F5F5F5F5F5F5F5F5F5F5F5F5F50F0F0F0F0F0F0F0F0F0F0F0F0F0F0F0F0F0F0F0F0F0F0F0F0F0F0F0F0F0F0F0F0F0F0F0F0F0F0F0F0F0F0F0F0F0F0F0F0F0F0F0F0F0F0F0F0F0F0F0F0F0F0F0F
310
0F0F0F0F0F0F0F0F0F0F0F0F0F0F0F0F0F0F0F0F0F0F0F0F0F0F0F0F0F0F0F0F0F0F0F0F0F0F0F0F0F0F0F0F0F0F0F0F0F0F0F0F0F0F0F0F0F00000000F00000000000000000000000000000000000000000000000000000000000000000000000000000000000000000000000000000000000000000000000000000000000
310
00000000000000000000000000000000000000000000000000000000000000000000000000000000F0000000000FF5F5F5F5F5F5F5F5F5F5F5F5F5F5F5F5F5F5F5F5000000F5F5F5F5F5F5F5F5F5F5F5F5F5F5F5F5F500000000000000000F00F5F5F5F5F5F5F5F5F5F5F5F5F5F500000F0000F5F5F5F5F5F5F5F5F5000000
310
0FF5F5F5F5F5F5000FF5F5F5000000000000000000000000000000000F0000000000000F000000000000000F000000000000000F0000000000000F00000000F0000000000000000000000000000000000000000000000000000000000000000000000000000000000000000000000000000000000000000000000000000000
310
000000000000000000000000000000000000000000000000000000000000000000000000000000000000F0000000000F0000000000000000000000000000000000000000000000F5F5F5F5F5F5F5F5F5F5F5F5F5F5F5F5F500000000000000000F00F5F5F5F5F5F5F5F5F5F5F5F5F5F500000F0000F5F5F5F5F5F5F5F5F500
310
00000FF5F5F5F5F5F5000FF5F5F5000000000000000000000000000000000FF5F5F5F5F500F5F5F5F5F5F5F5F50FF5F5F5F5F500000F0000000000000F00000000F000000000000000000000000000000000000000000000000000000000000000000000000000000000000000000000000000000000000000000000000000
310
0000000000000000000000000000000000000000000000000000000000000000000000000000000000000000F0000000000FF5F5F5F5F5F5F5F5F5F5F5F5F5F50000000000000000000F0000000000000000000000000000000000000000000000000F00000000000000000000000000000000000F00000000000000000000
310
000000000F000000000000000F000000000000000000000000000000000000000FF5F5F5F5F500F5F5F5F5F5F5F5F50FF5F5F5F5F500000F0000000000000F00000000F00000000000000000000000000000000000000000000000000000000000000000000000000000000000000000000000000000000000000000000000
310
00000000000000000000000000000000000000000000000000000000000000000000000000000000000000000000F0000000000FF5F500F5F5F500F5F5F500F5F5F5F5F5F5F5F5F5F500000F0F0F0F0F0F0F0F0F0F0F0F0F0F0F0F0F0F0F0F0F0F0F0F0F0F0F0F0F0F0F0F0F0F0F0F0F0F0F0F0F0F0F0F0F0F0F0F0F0F0F0F
310
0F0F0F0F0F0F0F0F0F0F0F0F0F0F0F0F0F0F0F0F0F0F0F0F0F0F0F0F0F0F0F0F0F0F0F0000000000000F000000000000000F000000000000000F0000000000000F00000000F0000000000000000000000000000000000000000000000000000000000000000000000000000000000000000000000000000000000000000000
310
000000000000000000000000000000000000000000000000000000000000000000000000000000000000000000000000F0000000000FF5F5F5F5F5F5F5F5F5F5F5F5F5F5F5F5F5F5F5F5F50000F5F5F5F5F5F5F5F5F5F5F5F5F5F5F5F5F5F5F5F5F5F5F5F5F5F5F5F5F5000000000000000000000000000000000000000000
310
00000000000000000FF5F5F5F5F5F5000FF5F5F5000000000000000000000000000000000F0000000000000F000000000000000F000000000000000F0000000000000F00000000F000000000000000000000000000000000000000000000000000000000000000000000000000000000000000000000000000000000000000
310
0000000000000000000000000000000000000000000000000000000000000000000000000000000000000000000000000000F0000000000FF5F5F5F5F5F5F5F5F5F5F5F5F5F5F5F500F5F5F5F50000F5F5F5F5F5F5F5F5F5F5F5F5F5F5F5F5F5F5F5F5F5F5F5F5F5F5F5F5F500000000000000000000000000000000000000
310
000000000000000000000FF5F5F5F5F5F5000FF5F5F5000000000000000000000000000000000F0FF5F5F50F0F0F0F0F0F0F0F0FF50FF50F0F0F0F0F0F0F0FF5F5F50F0F0F00000000F00000000000000000000000000000000000000000000000000000000000000000000000000000000000000000000000000000000000
310
00000000000000000000000000000000000000000000000000000000000000000000000000000000000000000000000000000000F0000000000FF5F500F5F5F5F5F5F5F5F5F5F5F5F5F500F5F5F5F500000F000000000000000000000000000000000000000000000000000000000000000000000000000000000000000000
310
0000000000000000000000000F000000000000000F000000000000000000000000000000000000000F00F5F5F500000F000000000000F5F5F50000000000000F00F5F5F500000F00000000F0000000000000000000000000000000000000000000000000000000000000000000000000000000000000000000000000000000
310
000000000000000000000000000000000000000000000000000000000000000000000000000000000000000000000000000000000000F0000000000F0F0F0F0F0F0F0F0F0F0F0F0F0F0F0F0F0F0F0F0F0F0F0F0F0F0F0F0F0F0F0F0F0F0F0F0F0F0F0F0F0F0F0F0F0F0F0F0F0F0F0F0F0F0F0F0F0F0F0F0F0F0F0F0F0F0F0F
310
0F0F0F0F0F0F0F0F0F0F0F0F0F0F0F0F0F0F0F0F0F0F0F0F0F0F0F0F0F0F0F0F0F0F0F0F0F0F0F0F0F0F0F0F0F0F0F0F0F0F0F0F0F0F0F0F0F0F0F0F0F0F0F0F0F0F0F0F0F0F0F0F0F00000000F000000000000000000000000000000000000000000000000000000000000000000000000000000000000000000000000000
310
0000000000000000000000000000000000000000000000000000000000000000000000000000000000000000000000000000000000000000F0000000000F0000000000000000000000000000000000000000000000000000000000000000000000000000000000000000000000000000000000000000000000000000000000
310
00000000000000000000000000000000000000000000000000000000000000000000000000000000000000000000000000000000000000000000000000000000000000000000000000000F00000000F00000000000000000000000000000000000000000000000000000000000000000000000000000000000000000000000
310
00000000000000000000000000000000000000000000000000000000000000000000000000000000000000000000000000000000000000000000F0000000000F000000000000000000000000000000000000000000000000000000000000000000000000000000000000000000000000000000000000000000000000000000
310
000000000000000000000000000000000000000000000000000000000000000000000000000000000000000000000000000000000000000000000000000000000000000000000000000000000F00000000F0000000000000000000000000000000000000000000000000000000000000000000000000000000000000000000
310
000000000000000000000000000000000000000000000000000000000000000000000000000000000000000000000000000000000000000000000000F0000000000F00000000000000000000000000000000000000000000000000000000000000000000000000000000000000000000000000000000000000000000000000
310
0000000000000000000000000000000000000000000000000000000000000000000000000000000000000000000000000000000000000000000000000000000000000000000000000000000000000F00000000F000000000000000000000000000000000000000000000000000000000000000000000000000000000000000
310
0000000000000000000000000000000000000000000000000000000000000000000000000000000000000000000000000000000000000000000000000000F0000000000F0000000000000000000000000000000000000000000000000000000000000000000000000000000000000000000000000000000000000000000000
310
00000000000000000000000000000000000000000000000000000000000000000000000000000000000000000000000000000000000000000000000000000000000000000000000000000000000000000F00000000F00000000000000000000000000000000000000000000000000000000000000000000000000000000000
310
00000000000000000000000000000000000000000000000000000000000000000000000000000000000000000000000000000000000000000000000000000000F0000000000F000000000000000000000000000000000000000000000000000000000000000000000000000000000000000000000000000000000000000000
310
000000000000000000000000000000000000000000000000000000000000000000000000000000000000000000000000000000000000000000000000000000000000000000000000000000000000000000000F00000000F0000000000000000000000000000000000000000000000000000000000000000000000000000000
310
000000000000000000000000000000000000000000000000000000000000000000000000000000000000000000000000000000000000000000000000000000000000F0000000000F00000000000000000000000000000000000000000000000000000000000000000000000000000000000000000000000000000000000000
310
0000000000000000000000000000000000000000000000000000000000000000000000000000000000000000000000000000000000000000000000000000000000000000000000000000000000000000000000000F00000000F000000000000000000000000000000000000000000000000000000000000000000000000000
310
0000000000000000000000000000000000000000000000000000000000000000000000000000000000000000000000000000000000000000000000000000000000000000F0000000000F0000000000000000000000000000000000000000000000000000000000000000000000000000000000000000000000000000000000
310
00000000000000000000000000000000000000000000000000000000000000000000000000000000000000000000000000000000000000000000000000000000000000000000000000000000000000000000000000000F00000000F00000000000000000000000000000000000000000000000000000000000000000000000
310
00000000000000000000000000000000000000000000000000000000000000000000000000000000000000000000000000000000000000000000000000000000000000000000F0000000000F000000000000000000000000000000000000000000000000000000000000000000000000000000000000000000000000000000
310
000000000000000000000000000000000000000000000000000000000000000000000000000000000000000000000000000000000000000000000000000000000000000000000000000000000000000000000000000000000F00000000F0000000000000000000000000000000000000000000000000000000000000000000
310
000000000000000000000000000000000000000000000000000000000000000000000000000000000000000000000000000000000000000000000000000000000000000000000000F0000000000F00000000000000000000000000000000000000000000000000000000000000000000000000000000000000000000000000
310
0000000000000000000000000000000000000000000000000000000000000000000000000000000000000000000000000000000000000000000000000000000000000000000000000000000000000000000000000000000000000F00000000F000000000000000000000000000000000000000000000000000000000000000
310
0000000000000000000000000000000000000000000000000000000000000000000000000000000000000000000000000000000000000000000000000000000000000000000000000000F0000000000F0000000000000000000000000000000000000000000000000000000000000000000000000000000000000000000000
310
00000000000000000000000000000000000000000000000000000000000000000000000000000000000000000000000000000000000000000000000000000000000000000000000000000000000000000000000000000000000000000F00000000F00000000000000000000000000000000000000000000000000000000000
310
00000000000000000000000000000000000000000000000000000000000000000000000000000000000000000000000000000000000000000000000000000000000000000000000000000000F0000000000F000000000000000000000000000000000000000000000000000000000000000000000000000000000000000000
310
000000000000000000000000000000000000000000000000000000000000000000000000000000000000000000000000000000000000000000000000000000000000000000000000000000000000000000000000000000000000000000000F00000000F0000000000000000000000000000000000000000000000000000000
310
000000000000000000000000000000000000000000000000000000000000000000000000000000000000000000000000000000000000000000000000000000000000000000000000000000000000F0000000000F00000000000000000000000000000000000000000000000000000000000000000000000000000000000000
310
0000000000000000000000000000000000000000000000000000000000000000000000000000000000000000000000000000000000000000000000000000000000000000000000000000000000000000000000000000000000000000000000000F00000000F000000000000000000000000000000000000000000000000000
310
0000000000000000000000000000000000000000000000000000000000000000000000000000000000000000000000000000000000000000000000000000000000000000000000000000000000000000F0000000000F0000000000000000000000000000000000000000000000000000000000000000000000000000000000
310
00000000000000000000000000000000000000000000000000000000000000000000000000000000000000000000000000000000000000000000000000000000000000000000000000000000000000000000000000000000000000000000000000000F00000000F00000000000000000000000000000000000000000000000
310
00000000000000000000000000000000000000000000000000000000000000000000000000000000000000000000000000000000000000000000000000000000000000000000000000000000000000000000F0000000000F000000000000000000000000000000000000000000000000000000000000000000000000000000
310
000000000000000000000000000000000000000000000000000000000000000000000000000000000000000000000000000000000000000000000000000000000000000000000000000000000000000000000000000000000000000000000000000000000F00000000F0000000000000000000000000000000000000000000
310
000000000000000000000000000000000000000000000000000000000000000000000000000000000000000000000000000000000000000000000000000000000000000000000000000000000000000000000000F0000000000F00000000000000000000000000000000000000000000000000000000000000000000000000
310
0000000000000000000000000000000000000000000000000000000000000000000000000000000000000000000000000000000000000000000000000000000000000000000000000000000000000000000000000000000000000000000000000000000000000F00000000F000000000000000000000000000000000000000
310
0000000000000000000000000000000000000000000000000000000000000000000000000000000000000000000000000000000000000000000000000000000000000000000000000000000000000000000000000000F0000000000F0000000000000000000000000000000000000000000000000000000000000000000000
310
00000000000000000000000000000000000000000000000000000000000000000000000000000000000000000000000000000000000000000000000000000000000000000000000000000000000000000000000000000000000000000000000000000000000000000F00000000F00000000000000000000000000000000000
310
00000000000000000000000000000000000000000000000000000000000000000000000000000000000000000000000000000000000000000000000000000000000000000000000000000000000000000000000000000000F0000000000F000000000000000000000000000000000000000000000000000000000000000000
310
000000000000000000000000000000000000000000000000000000000000000000000000000000000000000000000000000000000000000000000000000000000000000000000000000000000000000000000000000000000000000000000000000000000000000000000F00000000F0000000000000000000000000000000
310
000000000000000000000000000000000000000000000000000000000000000000000000000000000000000000000000000000000000000000000000000000000000000000000000000000000000000000000000000000000000F0000000000F00000000000000000000000000000000000000000000000000000000000000
310
0000000000000000000000000000000000000000000000000000000000000000000000000000000000000000000000000000000000000000000000000000000000000000000000000000000000000000000000000000000000000000000000000000000000000000000000000F00000000F000000000000000000000000000
310
0000000000000000000000000000000000000000000000000000000000000000000000000000000000000000000000000000000000000000000000000000000000000000000000000000000000000000000000000000000000000000F0000000000F0000000000000000000000000000000000000000000000000000000000
310
00000000000000000000000000000000000000000000000000000000000000000000000000000000000000000000000000000000000000000000000000000000000000000000000000000000000000000000000000000000000000000000000000000000000000000000000000000F00000000F00000000000000000000000
310
00000000000000000000000000000000000000000000000000000000000000000000000000000000000000000000000000000000000000000000000000000000000000000000000000000000000000000000000000000000000000000000F0000000000F000000000000000000000000000000000000000000000000000000
310
000000000000000000000000000000000000000000000000000000000000000000000000000000000000000000000000000000000000000000000000000000000000000000000000000000000000000000000000000000000000000000000000000000000000000000000000000000000F00000000F0000000000000000000
310
000000000000000000000000000000000000000000000000000000000000000000000000000000000000000000000000000000000000000000000000000000000000000000000000000000000000000000000000000000000000000000000000F0000000000F00000000000000000000000000000000000000000000000000
310
0000000000000000000000000000000000000000000000000000000000000000000000000000000000000000000000000000000000000000000000000000000000000000000000000000000000000000000000000000000000000000000000000000000000000000000000000000000000000F00000000F000000000000000
310
0000000000000000000000000000000000000000000000000000000000000000000000000000000000000000000000000000000000000000000000000000000000000000000000000000000000000000000000000000000000000000000000000000F0000000000F0000000000000000000000000000000000000000000000
310
00000000000000000000000000000000000000000000000000000000000000000000000000000000000000000000000000000000000000000000000000000000000000000000000000000000000000000000000000000000000000000000000000000000000000000000000000000000000000000F00000000F00000000000
310
00000000000000000000000000000000000000000000000000000000000000000000000000000000000000000000000000000000000000000000000000000000000000000000000000000000000000000000000000000000000000000000000000000000F0000000000F000000000000000000000000000000000000000000
310
000000000000000000000000000000000000000000000000000000000000000000000000000000000000000000000000000000000000000000000000000000000000000000000000000000000000000000000000000000000000000000000000000000000000000000000000000000000000000000000F00000000F0000000
310
000000000000000000000000000000000000000000000000000000000000000000000000000000000000000000000000000000000000000000000000000000000000000000000000000000000000000000000000000000000000000000000000000000000000F0000000000F00000000000000000000000000000000000000
310
0000000000000000000000000000000000000000000000000000000000000000000000000000000000000000000000000000000000000000000000000000000000000000000000000000000000000000000000000000000000000000000000000000000000000000000000000000000000000000000000000F00000000F000
310
0000000000000000000000000000000000000000000000000000000000000000000000000000000000000000000000000000000000000000000000000000000000000000000000000000000000000000000000000000000000000000000000000000000000000000F0000000000F0000000000000000000000000000000000
310
00000000000000000000000000000000000000000000000000000000000000000000000000000000000000000000000000000000000000000000000000000000000000000000000000000000000000000000000000000000000000000000000000000000000000000000000000000000000000000000000000000F00000000
310
F0000000000000000000000000000000000000000000000000000000000000000000000000000000000000000000000000000000000000000000000000000000000000000000000000000000000000000000000000000000000000000000000000000000000000000000F0000000000F000000000000000000000000000000
310
000000000000000000000000000000000000000000000000000000000000000000000000000000000000000000000000000000000000000000000000000000000000000000000000000000000000000000000000000000000000000000000000000000000000000000000000000000000000000000000000000000000F0000
310
0000F0000000000000000000000000000000000000000000000000000000000000000000000000000000000000000000000000000000000000000000000000000000000000000000000000000000000000000000000000000000000000000000000000000000000000000000F0000000000F00000000000000000000000000
310
0000000000000000000000000000000000000000000000000000000000000000000000000000000000000000000000000000000000000000000000000000000000000000000000000000000000000000000000000000000000000000000000000000000000000000000000000000000000000000000000000000000000000F
310
00000000F0000000000000000000000000000000000000000000000000000000000000000000000000000000000000000000000000000000000000000000000000000000000000000000000000000000000000000000000000000000000000000000000000000000000000000000F0000000000F0000000000000000000000
310
00000000000000000000000000000000000000000000000000000000000000000000000000000000000000000000000000000000000000000000000000000000000000000000000000000000000000000000000000000000000000000000000000000000000000000000000000000000000000000000000000000000000000
310
000F00000000F0000000000000000000000000000000000000000000000000000000000000000000000000000000000000000000000000000000000000000000000000000000000000000000000000000000000000000000000000000000000000000000000000000000000000000000F0000000000F000000000000000000
310
00000000000000000000000000000000000000000000000000000000000000000000000000000000000000000000000000000000000000000000000000000000000000000000000000000000000000000000000000000000000000000000000000000000000000000000000000000000000000000000000000000000000000
310
0000000F00000000F0000000000000000000000000000000000000000000000000000000000000000000000000000000000000000000000000000000000000000000000000000000000000000000000000000000000000000000000000000000000000000000000000000000000000000000F0000000000F00000000000000
310
00000000000000000000000000000000000000000000000000000000000000000000000000000000000000000000000000000000000000000000000000000000000000000000000000000000000000000000000000000000000000000000000000000000000000000000000000000000000000000000000000000000000000
310
00000000000F00000000F0000000000000000000000000000000000000000000000000000000000000000000000000000000000000000000000000000000000000000000000000000000000000000000000000000000000000000000000000000000000000000000000000000000000000000000F0000000000F0000000000
310
00000000000000000000000000000000000000000000000000000000000000000000000000000000000000000000000000000000000000000000000000000000000000000000000000000000000000000000000000000000000000000000000000000000000000000000000000000000000000000000000000000000000000
310
000000000000000F00000000F0000000000000000000000000000000000000000000000000000000000000000000000000000000000000000000000000000000000000000000000000000000000000000000000000000000000000000000000000000000000000000000000000000000000000000000F0000000000F000000
310
00000000000000000000000000000000000000000000000000000000000000000000000000000000000000000000000000000000000000000000000000000000000000000000000000000000000000000000000000000000000000000000000000000000000000000000000000000000000000000000000000000000000000
310
0000000000000000000F00000000F0000000000000000000000000000000000000000000000000000000000000000000000000000000000000000000000000000000000000000000000000000000000000000000000000000000000000000000000000000000000000000000000000000000000000000000F0000000000F00
310
00000000000000000000000000000000000000000000000000000000000000000000000000000000000000000000000000000000000000000000000000000000000000000000000000000000000000000000000000000000000000000000000000000000000000000000000000000000000000000000000000000000000000
310
00000000000000000000000F00000000F0000000000000000000000000000000000000000000000000000000000000000000000000000000000000000000000000000000000000000000000000000000000000000000000000000000000000000000000000000000000000000000000000000000000000000000F000000000
310
0F000000000000000000000000000000000000000000000000000000000000000000000000000000000000000000000000000000000000000000000000000000000000000000000000000000000000000000000000000000000000000000000000000000000000000000000000000000000000000000000000000000000000
310
000000000000000000000000000F00000000F0000000000000000000000000000000000000000000000000000000000000000000000000000000000000000000000000000000000000000000000000000000000000000000000000000000000000000000000000000000000000000000000000000000000000000000F00000
310
00000F00000000000000000000000000000000000000000000000000000000000000000000000000000000000000000000000000000000000000000000000000000000000000000000000000000000000000000000000000000000000000000000000000000000000000000000000000000000000000000000000000000000
310
0000000000000000000000000000000F00000000F0000000000000000000000000000000000000000000000000000000000000000000000000000000000000000000000000000000000000000000000000000000000000000000000000000000000000000000000000000000000000000000000000000000000000000000F0
310
000000000F0000000000000000000000000000000000000000000000000000000000000000000000000000000000000000000000000000000000000000000000000000000000000000000000000000000000000000000000000000000000000000000000000000000000000000000000000000000000000000000000000000
310
00000000000000000000000000000000000F00000000F00000000000000000000000000000000000000000000000000000000000000000000000000000000000000000000000000000000000000000000000000000000000000000000000000000000000000000000000000000000000000000000000000000000000000000
310
00F0000000000F000000000000000000000000000000000000000000000000000000000000000000000000000000000000000000000000000000000000000000000000000000000000000000000000000000000000000000000000000000000000000000000000000000000000000000000000000000000000000000000000
310
000000000000000000000000000000000000000F00000000F0000000000000000000000000000000000000000000000000000000000000000000000000000000000000000000000000000000000000000000000000000000000000000000000000000000000000000000000000000000000000000000000000000000000000
310
000000F0000000000F00000000000000000000000000000000000000000000000000000000000000000000000000000000000000000000000000000000000000000000000000000000000000000000000000000000000000000000000000000000000000000000000000000000000000000000000000000000000000000000
310
0000000000000000000000000000000000000000000F00000000F000000000000000000000000000000000000000000000000000000000000000000000000000000000000000000000000000000000000000000000000000000000000000000000000000000000000000000000000000000000000000000000000000000000
310
0000000000F0000000000F0000000000000000000000000000000000000000000000000000000000000000000000000000000000000000000000000000000000000000000000000000000000000000000000000000000000000000000000000000000000000000000000000000000000000000000000000000000000000000
310
00000000000000000000000000000000000000000000000F00000000F00000000000000000000000000000000000000000000000000000000000000000000000000000000000000000000000000000000000000000000000000000000000000000000000000000000000000000000000000000000000000000000000000000
310
00000000000000F0000000000F000000000000000000000000000000000000000000000000000000000000000000000000000000000000000000000000000000000000000000000000000000000000000000000000000000000000000000000000000000000000000000000000000000000000000000000000000000000000
310
000000000000000000000000000000000000000000000000000F00000000F0000000000000000000000000000000000000000000000000000000000000000000000000000000000000000000000000000000000000000000000000000000000000000000000000000000000000000000000000000000000000000000000000
310
000000000000000000F0000000000F00000000000000000000000000000000000000000000000000000000000000000000000000000000000000000000000000000000000000000000000000000000000000000000000000000000000000000000000000000000000000000000000000000000000000000000000000000000
310
0000000000000000000000000000000000000000000000000000000F00000000F000000000000000000000000000000000000000000000000000000000000000000000000000000000000000000000000000000000000000000000000000000000000000000000000000000000000000000000000000000000000000000000
310
0000000000000000000000F0000000000F0000000000000000000000000000000000000000000000000000000000000000000000000000000000000000000000000000000000000000000000000000000000000000000000000000000000000000000000000000000000000000000000000000000000000000000000000000
310
00000000000000000000000000000000000000000000000000000000000F00000000F00000000000000000000000000000000000000000000000000000000000000000000000000000000000000000000000000000000000000000000000000000000000000000000000000000000000000000000000000000000000000000
310
00000000000000000000000000F0000000000F000000000000000000000000000000000000000000000000000000000000000000000000000000000000000000000000000000000000000000000000000000000000000000000000000000000000000000000000000000000000000000000000000000000000000000000000
310
000000000000000000000000000000000000000000000000000000000000000F00000000F0000000000000000000000000000000000000000000000000000000000000000000000000000000000000000000000000000000000000000000000000000000000000000000000000000000000000000000000000000000000000
310
000000000000000000000000000000F0000000000F00000000000000000000000000000000000000000000000000000000000000000000000000000000000000000000000000000000000000000000000000000000000000000000000000000000000000000000000000000000000000000000000000000000000000000000
310
0000000000000000000000000000000000000000000000000000000000000000000F00000000F000000000000000000000000000000000000000000000000000000000000000000000000000000000000000000000000000000000000000000000000000000000000000000000000000000000000000000000000000000000
310
0000000000000000000000000000000000F0000000000F0000000000000000000000000000000000000000000000000000000000000000000000000000000000000000000000000000000000000000000000000000000000000000000000000000000000000000000000000000000000000000000000000000000000000000
310
00000000000000000000000000000000000000000000000000000000000000000000000F00000000F00000000000000000000000000000000000000000000000000000000000000000000000000000000000000000000000000000000000000000000000000000000000000000000000000000000000000000000000000000
310
00000000000000000000000000000000000000F0000000000F000000000000000000000000000000000000000000000000000000000000000000000000000000000000000000000000000000000000000000000000000000000000000000000000000000000000000000000000000000000000000000000000000000000000
310
000000000000000000000000000000000000000000000000000000000000000000000000000F00000000F0000000000000000000000000000000000000000000000000000000000000000000000000000000000000000000000000000000000000000000000000000000000000000000000000000000000000000000000000
310
000000000000000000000000000000000000000000F0000000000F00000000000000000000000000000000000000000000000000000000000000000000000000000000000000000000000000000000000000000000000000000000000000000000000000000000000000000000000000000000000000000000000000000000
310
0000000000000000000000000000000000000000000000000000000000000000000000000000000F00000000F000000000000000000000000000000000000000000000000000000000000000000000000000000000000000000000000000000000000000000000000000000000000000000000000000000000000000000000
310
0000000000000000000000000000000000000000000000F0000000000F0000000000000000000000000000000000000000000000000000000000000000000000000000000000000000000000000000000000000000000000000000000000000000000000000000000000000000000000000000000000000000000000000000
310
00000000000000000000000000000000000000000000000000000000000000000000000000000000000F00000000F00000000000000000000000000000000000000000000000000000000000000000000000000000000000000000000000000000000000000000000000000000000000000000000000000000000000000000
310
00000000000000000000000000000000000000000000000000F0000000000F000000000000000000000000000000000000000000000000000000000000000000000000000000000000000000000000000000000000000000000000000000000000000000000000000000000000000000000000000000000000000000000000
310
000000000000000000000000000000000000000000000000000000000000000000000000000000000000000F00000000F0000000000000000000000000000000000000000000000000000000000000000000000000000000000000000000000000000000000000000000000000000000000000000000000000000000000000
310
000000000000000000000000000000000000000000000000000000F0000000000F00000000000000000000000000000000000000000000000000000000000000000000000000000000000000000000000000000000000000000000000000000000000000000000000000000000000000000000000000000000000000000000
310
0000000000000000000000000000000000000000000000000000000000000000000000000000000000000000000F00000000F000000000000000000000000000000000000000000000000000000000000000000000000000000000000000000000000000000000000000000000000000000000000000000000000000000000
310
0000000000000000000000000000000000000000000000000000000000F0000000000F0000000000000000000000000000000000000000000000000000000000000000000000000000000000000000000000000000000000000000000000000000000000000000000000000000000000000000000000000000000000000000
310
00000000000000000000000000000000000000000000000000000000000000000000000000000000000000000000000F00000000F00000000000000000000000000000000000000000000000000000000000000000000000000000000000000000000000000000000000000000000000000000000000000000000000000000
310
00000000000000000000000000000000000000000000000000000000000000F0000000000F000000000000000000000000000000000000000000000000000000000000000000000000000000000000000000000000000000000000000000000000000000000000000000000000000000000000000000000000000000000000
310
000000000000000000000000000000000000000000000000000000000000000000000000000000000000000000000000000F00000000F0000000000000000000000000000000000000000000000000000000000000000000000000000000000000000000000000000000000000000000000000000000000000000000000000
310
000000000000000000000000000000000000000000000000000000000000000000F0000000000F00000000000000000000000000000000000000000000000000000000000000000000000000000000000000000000000000000000000000000000000000000000000000000000000000000000000000000000000000000000
310
0000000000000000000000000000000000000000000000000000000000000000000000000000000000000000000000000000000F00000000F000000000000000000000000000000000000000000000000000000000000000000000000000000000000000000000000000000000000000000000000000000000000000000000
310
0000000000000000000000000000000000000000000000000000000000000000000000F0000000000F0000000000000000000000000000000000000000000000000000000000000000000000000000000000000000000000000000000000000000000000000000000000000000000000000000000000000000000000000000
310
00000000000000000000000000000000000000000000000000000000000000000000000000000000000000000000000000000000000F00000000F00000000000000000000000000000000000000000000000000000000000000000000000000000000000000000000000000000000000000000000000000000000000000000
310
00000000000000000000000000000000000000000000000000000000000000000000000000F0000000000F000000000000000000000000000000000000000000000000000000000000000000000000000000000000000000000000000000000000000000000000000000000000000000000000000000000000000000000000
310
000000000000000000000000000000000000000000000000000000000000000000000000000000000000000000000000000000000000000F00000000F0000000000000000000000000000000000000000000000000000000000000000000000000000000000000000000000000000000000000000000000000000000000000
310
000000000000000000000000000000000000000000000000000000000000000000000000000000F0000000000F00000000000000000000000000000000000000000000000000000000000000000000000000000000000000000000000000000000000000000000000000000000000000000000000000000000000000000000
310
0000000000000000000000000000000000000000000000000000000000000000000000000000000000000000000000000000000000000000000F00000000F000000000000000000000000000000000000000000000000000000000000000000000000000000000000000000000000000000000000000000000000000000000
310
0000000000000000000000000000000000000000000000000000000000000000000000000000000000F0000000000F0000000000000000000000000000000000000000000000000000000000000000000000000000000000000000000000000000000000000000000000000000000000000000000000000000000000000000
310
00000000000000000000000000000000000000000000000000000000000000000000000000000000000000000000000000000000000000000000000F00000000F00000000000000000000000000000000000000000000000000000000000000000000000000000000000000000000000000000000000000000000000000000
310
00000000000000000000000000000000000000000000000000000000000000000000000000000000000000F0000000000F000000000000000000000000000000000000000000000000000000000000000000000000000000000000000000000000000000000000000000000000000000000000000000000000000000000000
310
000000000000000000000000000000000000000000000000000000000000000000000000000000000000000000000000000000000000000000000000000F00000000F0000000000000000000000000000000000000000000000000000000000000000000000000000000000000000000000000000000000000000000000000
310
000000000000000000000000000000000000000000000000000000000000000000000000000000000000000000F0000000000F00000000000000000000000000000000000000000000000000000000000000000000000000000000000000000000000000000000000000000000000000000000000000000000000000000000
310
0000000000000000000000000000000000000000000000000000000000000000000000000000000000000000000000000000000000000000000000000000000F00000000F000000000000000000000000000000000000000000000000000000000000000000000000000000000000000000000000000000000000000000000
310
0000000000000000000000000000000000000000000000000000000000000000000000000000000000000000000000F0000000000F0000000000000000000000000000000000000000000000000000000000000000000000000000000000000000000000000000000000000000000000000000000000000000000000000000
310
00000000000000000000000000000000000000000000000000000000000000000000000000000000000000000000000000000000000000000000000000000000000F00000000F00000000000000000000000000000000000000000000000000000000000000000000000000000000000000000000000000000000000000000
310
00000000000000000000000000000000000000000000000000000000000000000000000000000000000000000000000000F0000000000F000000000000000000000000000000000000000000000000000000000000000000000000000000000000000000000000000000000000000000000000000000000000000000000000
310
000000000000000000000000000000000000000000000000000000000000000000000000000000000000000000000000000000000000000000000000000000000000000F00000000F0000000000000000000000000000000000000000000000000000000000000000000000000000000000000000000000000000000000000
310
000000000000000000000000000000000000000000000000000000000000000000000000000000000000000000000000000000F0000000000F00000000000000000000000000000000000000000000000000000000000000000000000000000000000000000000000000000000000000000000000000000000000000000000
310
0000000000000000000000000000000000000000000000000000000000000000000000000000000000000000000000000000000000000000000000000000000000000000000F00000000F000000000000000000000000000000000000000000000000000000000000000000000000000000000000000000000000000000000
310
0000000000000000000000000000000000000000000000000000000000000000000000000000000000000000000000000000000000F0000000000F0000000000000000000000000000000000000000000000000000000000000000000000000000000000000000000000000000000000000000000000000000000000000000
310
00000000000000000000000000000000000000000000000000000000000000000000000000000000000000000000000000000000000000000000000000000000000000000000000F00000000F00000000000000000000000000000000000000000000000000000000000000000000000000000000000000000000000000000
310
00000000000000000000000000000000000000000000000000000000000000000000000000000000000000000000000000000000000000F0000000000F000000000000000000000000000000000000000000000000000000000000000000000000000000000000000000000000000000000000000000000000000000000000
310
000000000000000000000000000000000000000000000000000000000000000000000000000000000000000000000000000000000000000000000000000000000000000000000000000F00000000F0000000000000000000000000000000000000000000000000000000000000000000000000000000000000000000000000
310
000000000000000000000000000000000000000000000000000000000000000000000000000000000000000000000000000000000000000000F0000000000F00000000000000000000000000000000000000000000000000000000000000000000000000000000000000000000000000000000000000000000000000000000
310
0000000000000000000000000000000000000000000000000000000000000000000000000000000000000000000000000000000000000000000000000000000000000000000000000000000F00000000F000000000000000000000000000000000000000000000000000000000000000000000000000000000000000000000
310
0000000000000000000000000000000000000000000000000000000000000000000000000000000000000000000000000000000000000000000000F0000000000F0000000000000000000000000000000000000000000000000000000000000000000000000000000000000000000000000000000000000000000000000000
310
00000000000000000000000000000000000000000000000000000000000000000000000000000000000000000000000000000000000000000000000000000000000000000000000000000000000F00000000F00000000000000000000000000000000000000000000000000000000000000000000000000000000000000000
310
00000000000000000000000000000000000000000000000000000000000000000000000000000000000000000000000000000000000000000000000000F0000000000F000000000000000000000000000000000000000000000000000000000000000000000000000000000000000000000000000000000000000000000000
310
000000000000000000000000000000000000000000000000000000000000000000000000000000000000000000000000000000000000000000000000000000000000000000000000000000000000000F00000000F0000000000000000000000000000000000000000000000000000000000000000000000000000000000000
310
000000000000000000000000000000000000000000000000000000000000000000000000000000000000000000000000000000000000000000000000000000F0000000000F00000000000000000000000000000000000000000000000000000000000000000000000000000000000000000000000000000000000000000000
310
0000000000000000000000000000000000000000000000000000000000000000000000000000000000000000000000000000000000000000000000000000000000000000000000000000000000000000000F00000000F000000000000000000000000000000000000000000000000000000000000000000000000000000000
310
0000000000000000000000000000000000000000000000000000000000000000000000000000000000000000000000000000000000000000000000000000000000F0000000000F0000000000000000000000000000000000000000000000000000000000000000000000000000000000000000000000000000000000000000
310
00000000000000000000000000000000000000000000000000000000000000000000000000000000000000000000000000000000000000000000000000000000000000000000000000000000000000000000000F00000000F00000000000000000000000000000000000000000000000000000000000000000000000000000
310
00000000000000000000000000000000000000000000000000000000000000000000000000000000000000000000000000000000000000000000000000000000000000F0000000000F000000000000000000000000000000000000000000000000000000000000000000000000000000000000000000000000000000000000
310
000000000000000000000000000000000000000000000000000000000000000000000000000000000000000000000000000000000000000000000000000000000000000000000000000000000000000000000000000F00000000F0000000000000000000000000000000000000000000000000000000000000000000000000
310
000000000000000000000000000000000000000000000000000000000000000000000000000000000000000000000000000000000000000000000000000000000000000000F0000000000F00000000000000000000000000000000000000000000000000000000000000000000000000000000000000000000000000000000
310
0000000000000000000000000000000000000000000000000000000000000000000000000000000000000000000000000000000000000000000000000000000000000000000000000000000000000000000000000000000F00000000F000000000000000000000000000000000000000000000000000000000000000000000
310
0000000000000000000000000000000000000000000000000000000000000000000000000000000000000000000000000000000000000000000000000000000000000000000000F0000000000F0000000000000000000000000000000000000000000000000000000000000000000000000000000000000000000000000000
310
00000000000000000000000000000000000000000000000000000000000000000000000000000000000000000000000000000000000000000000000000000000000000000000000000000000000000000000000000000000000F00000000F00000000000000000000000000000000000000000000000000000000000000000
310
00000000000000000000000000000000000000000000000000000000000000000000000000000000000000000000000000000000000000000000000000000000000000000000000000F0000000000F000000000000000000000000000000000000000000000000000000000000000000000000000000000000000000000000
310
000000000000000000000000000000000000000000000000000000000000000000000000000000000000000000000000000000000000000000000000000000000000000000000000000000000000000000000000000000000000000F00000000F0000000000000000000000000000000000000000000000000000000000000
310
000000000000000000000000000000000000000000000000000000000000000000000000000000000000000000000000000000000000000000000000000000000000000000000000000000F0000000000F00000000000000000000000000000000000000000000000000000000000000000000000000000000000000000000
310
0000000000000000000000000000000000000000000000000000000000000000000000000000000000000000000000000000000000000000000000000000000000000000000000000000000000000000000000000000000000000000000F00000000F000000000000000000000000000000000000000000000000000000000
310
0000000000000000000000000000000000000000000000000000000000000000000000000000000000000000000000000000000000000000000000000000000000000000000000000000000000F0000000000F0000000000000000000000000000000000000000000000000000000000000000000000000000000000000000
310
00000000000000000000000000000000000000000000000000000000000000000000000000000000000000000000000000000000000000000000000000000000000000000000000000000000000000000000000000000000000000000000000F00000000F00000000000000000000000000000000000000000000000000000
310
00000000000000000000000000000000000000000000000000000000000000000000000000000000000000000000000000000000000000000000000000000000000000000000000000000000000000F0000000000F000000000000000000000000000000000000000000000000000000000000000000000000000000000000
310
000000000000000000000000000000000000000000000000000000000000000000000000000000000000000000000000000000000000000000000000000000000000000000000000000000000000000000000000000000000000000000000000000F00000000F0000000000000000000000000000000000000000000000000
310
000000000000000000000000000000000000000000000000000000000000000000000000000000000000000000000000000000000000000000000000000000000000000000000000000000000000000000F0000000000F00000000000000000000000000000000000000000000000000000000000000000000000000000000
310
0000000000000000000000000000000000000000000000000000000000000000000000000000000000000000000000000000000000000000000000000000000000000000000000000000000000000000000000000000000000000000000000000000000F00000000F000000000000000000000000000000000000000000000
310
0000000000000000000000000000000000000000000000000000000000000000000000000000000000000000000000000000000000000000000000000000000000000000000000000000000000000000000000F0000000000F0000000000000000000000000000000000000000000000000000000000000000000000000000
310
00000000000000000000000000000000000000000000000000000000000000000000000000000000000000000000000000000000000000000000000000000000000000000000000000000000000000000000000000000000000000000000000000000000000F00000000F00000000000000000000000000000000000000000
310
00000000000000000000000000000000000000000000000000000000000000000000000000000000000000000000000000000000000000000000000000000000000000000000000000000000000000000000000000F0000000000F000000000000000000000000000000000000000000000000000000000000000000000000
310
000000000000000000000000000000000000000000000000000000000000000000000000000000000000000000000000000000000000000000000000000000000000000000000000000000000000000000000000000000000000000000000000000000000000000F00000000F0000000000000000000000000000000000000
310
000000000000000000000000000000000000000000000000000000000000000000000000000000000000000000000000000000000000000000000000000000000000000000000000000000000000000000000000000000F0000000000F00000000000000000000000000000000000000000000000000000000000000000000
310
0000000000000000000000000000000000000000000000000000000000000000000000000000000000000000000000000000000000000000000000000000000000000000000000000000000000000000000000000000000000000000000000000000000000000000000F00000000F000000000000000000000000000000000
310
0000000000000000000000000000000000000000000000000000000000000000000000000000000000000000000000000000000000000000000000000000000000000000000000000000000000000000000000000000000000F0000000000F0F0FF50F0F0F0F0F0F0F0F0F0F0F0F0F0F0F0F0F0F0F0F0F0F0F0F0F00000000
310
00000000000000000000000000000000000000000000000000000000000000000000000000000000000000000000000000000000000000000000000000000000000000000000000000000000000000000000000000000000000000000000000000000000000000000000000F00000000F00000000000000000000000000000
310
00000000000000000000000000000000000000000000000000000000000000000000000000000000000000000000000000000000000000000000000000000000000000000000000000000000000000000000000000000000000000F000000000F5F5F500000000000000000F000000000000000F00000000000000000F0000
310
000000000000000000000000000000000000000000000000000000000000000000000000000000000000000000000000000000000000000000000000000000000000000000000000000000000000000000000000000000000000000000000000000000000000000000000000000F00000000F0000000000000000000000000
310
000000000000000000000000000000000000000000000000000000000000000000000000000000000000000000000000000000000000000000000000000000000000000000000000000000000000000000000000000000000000000000F000000000F5F5F5F50F0F0F0F0F0F0F0F0F0F0F0F0F0F0F0F0F0F0F0F0F0F0F0F0F
310
0000000000000000000000000000000000000000000000000000000000000000000000000000000000000000000000000000000000000000000000000000000000000000000000000000000000000000000000000000000000000000000000000000000000000000000000000000000F00000000F000000000000000000000
310
0000000000000000000000000000000000000000000000000000000000000000000000000000000000000000000000000000000000000000000000000000000000000000000000000000000000000000000000000000000000000000000000F000000000F5F5F50F0F0F0F0F0F0F0F0F0F0F0F0F0F0F0F0F0F0F0F0F0F0F0F
310
0F0F0000000000000000000000000000000000000000000000000000000000000000000000000000000000000000000000000000000000000000000000000000000000000000000000000000000000000000000000000000000000000000000000000000000000000000000000000000000F00000000F00000000000000000
310
00000000000000000000000000000000000000000000000000000000000000000000000000000000000000000000000000000000000000000000000000000000000000000000000000000000000000000000000000000000000000000000000000F000000000F5F5F5F5000000000000000F000000000000000F0000000000
310
0000000F0000000000000000000000000000000000000000000000000000000000000000000000000000000000000000000000000000000000000000000000000000000000000000000000000000000000000000000000000000000000000000000000000000000000000000000000000000000F00000000F0000000000000
310
000000000000000000000000000000000000000000000000000000000000000000000000000000000000000000000000000000000000000000000000000000000000000000000000000000000000000000000000000000000000000000000000000000F0000000000F000F0F0FF5F5F50F0F0F0F0FF5F5F5F50F0F0F0F0FF5
310
F5F50F0F0F0F0000000000000000000000000000000000000000000000000000000000000000000000000000000000000000000000000000000000000000000000000000000000000000000000000000000000000000000000000000000000000000000000000000000000000000000000000000000F00000000F000000000
310
0000000000000000000000000000000000000000000000000000000000000000000000000000000000000000000000000000000000000000000000000000000000000000000000000000000000000000000000000000000000000000000000000000000000F0000000000F000F00000000000000000F000000000000000F00
310
000000000000000F0000000000000000000000000000000000000000000000000000000000000000000000000000000000000000000000000000000000000000000000000000000000000000000000000000000000000000000000000000000000000000000000000000000000000000000000000000000F00000000F00000
310
00000000000000000000000000000000000000000000000000000000000000000000000000000000000000000000000000000000000000000000000000000000000000000000000000000000000000000000000000000000000000000000000000000000000000F0000000000F0F0F0F0F0F0F0F0F0F0F0F0F0F0F0F0F0F0F
310
0F0F0F0F0F0F0F0F0F0F0F0F0F0F0F0F0F0F0F0F0F0F0F0F0F0F0F0F0F0F0F0F0F0F0F0F0F0F0F0F0F0F0F0F0F0F0F0F0F0F0F0F0F0F0F0F0F0F0F0F0F0F0F0F0F0F0F0F0F0F0F0F0F0F0F0F0F0F0F0F0F0F0F0F0F0F0F0F0F0F0F0F0F0F0F0F0F0F0F0F0F0F0F0F0F0F0F0F0F0F0F0F0F0F0F0F0F0F0F0F0F0F00000000F0
310
000000000000000000000000000000000000000000000000000000000000000000000000000000000000000000000000000000000000000000000000000000000000000000000000000000000000000000000000000000000000000000000000000000000000000000F0000000000000000000000000000000000000000000
310
00000000000000000000000000000000000000000000000000000000000000000000000000000000000000000000000000000000000000000000000000000000000000000000000000000000000000000000000000000000000000000000000000000000000000000000000000000000000000000000000000000000000000
310
00F0000000000000000000000000000000000000000000000000000000000000000000000000000000000000000000000000000000000000000000000000000000000000000000000000000000000000000000000000000000000000000000000000000000000000000000F000000000000000000000000000000000000000
310
00000000000000000000000000000000000000000000000000000000000000000000000000000000000000000000000000000000000000000000000000000000000000000000000000000000000000000000000000000000000000000000000000000000000000000000000000000000000000000000000000000000000000
310
000000F0000000000000000000000000000000000000000000000000000000000000000000000000000000000000000000000000000000000000000000000000000000000000000000000000000000000000000000000000000000000000000000000000000000000000000000F00000000000000000000000000000000000
310
00000000000000000000000000000000000000000000000000000000000000000000000000000000000000000000000000000000000000000000000000000000000000000000000000000000000000000000000000000000000000000000000000000000000000000000000000000000000000000000000000000000000000
310
0000000000F0000000000000000000000000000000000000000000000000000000000000000000000000000000000000000000000000000000000000000000000000000000000000000000000000000000000000000000000000000000000000000000000000000000000000000000F0000000000000000000000000000000
310
00000000000000000000000000000000000000000000000000000000000000000000000000000000000000000000000000000000000000000000000000000000000000000000000000000000000000000000000000000000000000000000000000000000000000000000000000000000000000000000000000000000000000
310
00000000000000F0000000000000000000000000000000000000000000000000000000000000000000000000000000000000000000000000000000000000000000000000000000000000000000000000000000000000000000000000000000000000000000000000000000000000000000F0F0F0F0F0F0F0F0F0F0F0F0F0F0
310
F0F0F0F0F0F0F0F0F0F0F0F0F0F0F0F0F0F0F0F0F0F0F0F0F0F0F0F0F0F0F0F0F0F0F0F0F0F0F0F0F0F0F0F0F0F0F0F0F0F0F0F0F0F0F0F0F0F0F0F0F0F0F0F0F0F0F0F0F0F0F0F0F0F0F0F0F0F0F0F0F0F0F0F0F0F0F0F0F0F0F0F0F0F0F0F0F0F0F0F0F0F0F0F0F0F0F0F0F0F0F0F0F0F0F0F0F0F0F0F0F0F0F0F0F0F0F0
310
F0F0F0F0F0F0F0F0F0F0000000000000000000000000000000000000000000000000000000000000000000000000000000000000000000000000000000000000000000000000000000000000000000000000000000000000000000000000000000000000000000000000000000000000000000000000000000000000000000
310
00000000000000000000000000000000000000000000000000000000000000000000000000000000000000000000000000000000000000000000000000000000000000000000000000000000000000000000000000000000000000000000000000000000000000000000000000000000000000000000000000000000000000
310
00000000000000000000000000000000000000000000000000000000000000000000000000000000000000000000000000000000
  0
XRECORD
  5
80CA
102
{ACAD_REACTORS
330
80C9
102
}
330
80C9
100
AcDbXrecord
280
     1
102
SHADEPLOT
 70
     0
102
SHADEPLOTRESLEVEL
 70
     2
102
SHADEPLOTCUSTOMDPI
 70
   300
  0
XRECORD
  5
80CD
102
{ACAD_REACTORS
330
80CC
102
}
330
80CC
100
AcDbXrecord
280
     1
102
SHADEPLOT
 70
     0
102
SHADEPLOTRESLEVEL
 70
     2
102
SHADEPLOTCUSTOMDPI
 70
   300
  0
XRECORD
  5
8084
102
{ACAD_REACTORS
330
6393
102
}
330
6393
100
AcDbXrecord
280
     1
102
MATERIAL
148
0.0
149
0.0
149
0.0
 93
        0
 94
      127
282
     0
 72
     0
 77
     0
171
     0
175
     0
179
     0
273
     0
  0
XRECORD
  5
6395
102
{ACAD_REACTORS
330
6393
102
}
330
6393
100
AcDbXrecord
280
     1
270
     1
271
     1
  0
XRECORD
  5
6394
102
{ACAD_REACTORS
330
6393
102
}
330
6393
100
AcDbXrecord
280
     1
270
     1
271
     1
  0
XRECORD
  5
6398
102
{ACAD_REACTORS
330
6393
102
}
330
6393
100
AcDbXrecord
280
     1
270
     1
271
     1
  0
XRECORD
  5
6397
102
{ACAD_REACTORS
330
6393
102
}
330
6393
100
AcDbXrecord
280
     1
270
     1
271
     1
  0
XRECORD
  5
6399
102
{ACAD_REACTORS
330
6393
102
}
330
6393
100
AcDbXrecord
280
     1
270
     1
271
     1
  0
XRECORD
  5
6396
102
{ACAD_REACTORS
330
6393
102
}
330
6393
100
AcDbXrecord
280
     1
270
     1
271
     1
  0
XRECORD
  5
8083
102
{ACAD_REACTORS
330
638B
102
}
330
638B
100
AcDbXrecord
280
     1
102
MATERIAL
148
0.0
149
0.0
149
0.0
 93
        0
 94
      127
282
     0
 72
     0
 77
     0
171
     0
175
     0
179
     0
273
     0
  0
XRECORD
  5
638D
102
{ACAD_REACTORS
330
638B
102
}
330
638B
100
AcDbXrecord
280
     1
270
     1
271
     1
  0
XRECORD
  5
638C
102
{ACAD_REACTORS
330
638B
102
}
330
638B
100
AcDbXrecord
280
     1
270
     1
271
     1
  0
XRECORD
  5
6390
102
{ACAD_REACTORS
330
638B
102
}
330
638B
100
AcDbXrecord
280
     1
270
     1
271
     1
  0
XRECORD
  5
638F
102
{ACAD_REACTORS
330
638B
102
}
330
638B
100
AcDbXrecord
280
     1
270
     1
271
     1
  0
XRECORD
  5
6391
102
{ACAD_REACTORS
330
638B
102
}
330
638B
100
AcDbXrecord
280
     1
270
     1
271
     1
  0
XRECORD
  5
638E
102
{ACAD_REACTORS
330
638B
102
}
330
638B
100
AcDbXrecord
280
     1
270
     1
271
     1
  0
XRECORD
  5
8085
102
{ACAD_REACTORS
330
639B
102
}
330
639B
100
AcDbXrecord
280
     1
102
MATERIAL
148
0.0
149
0.0
149
0.0
 93
        0
 94
      127
282
     0
 72
     0
 77
     0
171
     0
175
     0
179
     0
273
     0
  0
XRECORD
  5
639D
102
{ACAD_REACTORS
330
639B
102
}
330
639B
100
AcDbXrecord
280
     1
270
     1
271
     1
  0
XRECORD
  5
639C
102
{ACAD_REACTORS
330
639B
102
}
330
639B
100
AcDbXrecord
280
     1
270
     1
271
     1
  0
XRECORD
  5
63A0
102
{ACAD_REACTORS
330
639B
102
}
330
639B
100
AcDbXrecord
280
     1
270
     1
271
     1
  0
XRECORD
  5
639F
102
{ACAD_REACTORS
330
639B
102
}
330
639B
100
AcDbXrecord
280
     1
270
     1
271
     1
  0
XRECORD
  5
63A1
102
{ACAD_REACTORS
330
639B
102
}
330
639B
100
AcDbXrecord
280
     1
270
     1
271
     1
  0
XRECORD
  5
639E
102
{ACAD_REACTORS
330
639B
102
}
330
639B
100
AcDbXrecord
280
     1
270
     1
271
     1
  0
XRECORD
  5
80C6
102
{ACAD_REACTORS
330
80C5
102
}
330
80C5
100
AcDbXrecord
280
     1
102
ACAD_ROUNDTRIP_2012_MLEADER_STYLE
298
     1
  0
CELLSTYLEMAP
  5
80C4
102
{ACAD_REACTORS
330
690C
102
}
330
690C
100
AcDbCellStyleMap
 90
        3
300
CELLSTYLE
  1
TABLEFORMAT_BEGIN
 90
        5
170
     1
 91
        0
 92
    32768
 62
   257
 93
        1
300
CONTENTFORMAT
  1
CONTENTFORMAT_BEGIN
 90
        0
 91
        0
 92
      512
 93
        0
300

 40
0.0
140
1.0
 94
        5
 62
     0
340
11
144
6.0
309
CONTENTFORMAT_END
171
     1
301
MARGIN
  1
CELLMARGIN_BEGIN
 40
1.5
 40
1.5
 40
1.5
 40
1.5
 40
0.18
 40
0.18
309
CELLMARGIN_END
 94
        6
 95
        1
302
GRIDFORMAT
  1
GRIDFORMAT_BEGIN
 90
        0
 91
        1
 62
     0
 92
       -2
340
0
 93
        0
 40
1.125
309
GRIDFORMAT_END
 95
        2
302
GRIDFORMAT
  1
GRIDFORMAT_BEGIN
 90
        0
 91
        1
 62
     0
 92
       -2
340
0
 93
        0
 40
1.125
309
GRIDFORMAT_END
 95
        4
302
GRIDFORMAT
  1
GRIDFORMAT_BEGIN
 90
        0
 91
        1
 62
     0
 92
       -2
340
0
 93
        0
 40
1.125
309
GRIDFORMAT_END
 95
        8
302
GRIDFORMAT
  1
GRIDFORMAT_BEGIN
 90
        0
 91
        1
 62
     0
 92
       -2
340
0
 93
        0
 40
1.125
309
GRIDFORMAT_END
 95
       16
302
GRIDFORMAT
  1
GRIDFORMAT_BEGIN
 90
        0
 91
        1
 62
     0
 92
       -2
340
0
 93
        0
 40
1.125
309
GRIDFORMAT_END
 95
       32
302
GRIDFORMAT
  1
GRIDFORMAT_BEGIN
 90
        0
 91
        1
 62
     0
 92
       -2
340
0
 93
        0
 40
1.125
309
GRIDFORMAT_END
309
TABLEFORMAT_END
  1
CELLSTYLE_BEGIN
 90
        1
 91
        1
300
_TITLE
309
CELLSTYLE_END
300
CELLSTYLE
  1
TABLEFORMAT_BEGIN
 90
        5
170
     1
 91
        0
 92
        0
 62
   257
 93
        1
300
CONTENTFORMAT
  1
CONTENTFORMAT_BEGIN
 90
        0
 91
        0
 92
      512
 93
        0
300

 40
0.0
140
1.0
 94
        5
 62
     0
340
11
144
4.5
309
CONTENTFORMAT_END
171
     1
301
MARGIN
  1
CELLMARGIN_BEGIN
 40
1.5
 40
1.5
 40
1.5
 40
1.5
 40
0.18
 40
0.18
309
CELLMARGIN_END
 94
        6
 95
        1
302
GRIDFORMAT
  1
GRIDFORMAT_BEGIN
 90
        0
 91
        1
 62
     0
 92
       -2
340
0
 93
        0
 40
1.125
309
GRIDFORMAT_END
 95
        2
302
GRIDFORMAT
  1
GRIDFORMAT_BEGIN
 90
        0
 91
        1
 62
     0
 92
       -2
340
0
 93
        0
 40
1.125
309
GRIDFORMAT_END
 95
        4
302
GRIDFORMAT
  1
GRIDFORMAT_BEGIN
 90
        0
 91
        1
 62
     0
 92
       -2
340
0
 93
        0
 40
1.125
309
GRIDFORMAT_END
 95
        8
302
GRIDFORMAT
  1
GRIDFORMAT_BEGIN
 90
        0
 91
        1
 62
     0
 92
       -2
340
0
 93
        0
 40
1.125
309
GRIDFORMAT_END
 95
       16
302
GRIDFORMAT
  1
GRIDFORMAT_BEGIN
 90
        0
 91
        1
 62
     0
 92
       -2
340
0
 93
        0
 40
1.125
309
GRIDFORMAT_END
 95
       32
302
GRIDFORMAT
  1
GRIDFORMAT_BEGIN
 90
        0
 91
        1
 62
     0
 92
       -2
340
0
 93
        0
 40
1.125
309
GRIDFORMAT_END
309
TABLEFORMAT_END
  1
CELLSTYLE_BEGIN
 90
        2
 91
        1
300
_HEADER
309
CELLSTYLE_END
300
CELLSTYLE
  1
TABLEFORMAT_BEGIN
 90
        5
170
     1
 91
        0
 92
        0
 62
   257
 93
        1
300
CONTENTFORMAT
  1
CONTENTFORMAT_BEGIN
 90
        0
 91
        0
 92
      512
 93
        0
300

 40
0.0
140
1.0
 94
        2
 62
     0
340
11
144
4.5
309
CONTENTFORMAT_END
171
     1
301
MARGIN
  1
CELLMARGIN_BEGIN
 40
1.5
 40
1.5
 40
1.5
 40
1.5
 40
0.18
 40
0.18
309
CELLMARGIN_END
 94
        6
 95
        1
302
GRIDFORMAT
  1
GRIDFORMAT_BEGIN
 90
        0
 91
        1
 62
     0
 92
       -2
340
0
 93
        0
 40
1.125
309
GRIDFORMAT_END
 95
        2
302
GRIDFORMAT
  1
GRIDFORMAT_BEGIN
 90
        0
 91
        1
 62
     0
 92
       -2
340
0
 93
        0
 40
1.125
309
GRIDFORMAT_END
 95
        4
302
GRIDFORMAT
  1
GRIDFORMAT_BEGIN
 90
        0
 91
        1
 62
     0
 92
       -2
340
0
 93
        0
 40
1.125
309
GRIDFORMAT_END
 95
        8
302
GRIDFORMAT
  1
GRIDFORMAT_BEGIN
 90
        0
 91
        1
 62
     0
 92
       -2
340
0
 93
        0
 40
1.125
309
GRIDFORMAT_END
 95
       16
302
GRIDFORMAT
  1
GRIDFORMAT_BEGIN
 90
        0
 91
        1
 62
     0
 92
       -2
340
0
 93
        0
 40
1.125
309
GRIDFORMAT_END
 95
       32
302
GRIDFORMAT
  1
GRIDFORMAT_BEGIN
 90
        0
 91
        1
 62
     0
 92
       -2
340
0
 93
        0
 40
1.125
309
GRIDFORMAT_END
309
TABLEFORMAT_END
  1
CELLSTYLE_BEGIN
 90
        3
 91
        2
300
_DATA
309
CELLSTYLE_END
  0
XRECORD
  5
8106
102
{ACAD_REACTORS
330
690C
102
}
330
690C
100
AcDbXrecord
280
     1
102
ACAD_ROUNDTRIP_PRE2007_TABLESTYLE
 90
      512
 91
        0
  1

 92
      512
 93
        0
  2

 94
      512
 95
        0
  3

  0
XRECORD
  5
80E1
102
{ACAD_REACTORS
330
80E0
102
}
330
80E0
100
AcDbXrecord
280
     1
102
RTVSPropertyOp0
 70
     1
102
RTVSPropertyOp1
 70
     1
102
RTVSPropertyOp2
 70
     1
102
RTVSPropertyOp3
 70
     1
102
RTVSPropertyOp4
 70
     1
102
RTVSPropertyOp5
 70
     1
102
RTVSPropertyOp6
 70
     1
102
RTVSPropertyOp7
 70
     1
102
RTVSPropertyOp8
 70
     1
102
RTVSPropertyOp9
 70
     1
102
RTVSPropertyOp10
 70
     1
102
RTVSPropertyOp11
 70
     1
102
RTVSPropertyOp12
 70
     1
102
RTVSPropertyOp13
 70
     1
102
RTVSPropertyOp14
 70
     1
102
RTVSPropertyOp15
 70
     1
102
RTVSPropertyOp16
 70
     1
102
RTVSPropertyOp17
 70
     1
102
RTVSPropertyOp18
 70
     1
102
RTVSPropertyOp19
 70
     1
102
RTVSPropertyOp20
 70
     1
102
RTVSPropertyOp21
 70
     1
102
RTVSPropertyOp22
 70
     1
102
RTVSPropertyOp23
 70
     1
102
RTVSPropertyOp24
 70
     1
102
RTVSPropertyOp25
 70
     1
102
RTVSPropertyOp26
 70
     1
102
RTVSPropertyOp27
 70
     1
102
RTVSPropertyOp28
 70
     1
102
RTVSPropertyOp29
 70
     1
102
RTVSPropertyOp30
 70
     1
102
RTVSPropertyOp31
 70
     1
102
RTVSPropertyOp32
 70
     1
  0
XRECORD
  5
80DF
102
{ACAD_REACTORS
330
80DE
102
}
330
80DE
100
AcDbXrecord
280
     1
102
RTVSPropertyOp0
 70
     1
102
RTVSPropertyOp1
 70
     1
102
RTVSPropertyOp2
 70
     1
102
RTVSPropertyOp3
 70
     1
102
RTVSPropertyOp4
 70
     1
102
RTVSPropertyOp5
 70
     1
102
RTVSPropertyOp6
 70
     1
102
RTVSPropertyOp7
 70
     1
102
RTVSPropertyOp8
 70
     1
102
RTVSPropertyOp9
 70
     1
102
RTVSPropertyOp10
 70
     1
102
RTVSPropertyOp11
 70
     1
102
RTVSPropertyOp12
 70
     1
102
RTVSPropertyOp13
 70
     1
102
RTVSPropertyOp14
 70
     1
102
RTVSPropertyOp15
 70
     1
102
RTVSPropertyOp16
 70
     1
102
RTVSPropertyOp17
 70
     1
102
RTVSPropertyOp18
 70
     1
102
RTVSPropertyOp19
 70
     1
102
RTVSPropertyOp20
 70
     1
102
RTVSPropertyOp21
 70
     1
102
RTVSPropertyOp22
 70
     1
102
RTVSPropertyOp23
 70
     1
102
RTVSPropertyOp24
 70
     1
102
RTVSPropertyOp25
 70
     1
102
RTVSPropertyOp26
 70
     1
102
RTVSPropertyOp27
 70
     1
102
RTVSPropertyOp28
 70
     1
102
RTVSPropertyOp29
 70
     1
102
RTVSPropertyOp30
 70
     1
102
RTVSPropertyOp31
 70
     1
102
RTVSPropertyOp32
 70
     1
  0
XRECORD
  5
80ED
102
{ACAD_REACTORS
330
80EC
102
}
330
80EC
100
AcDbXrecord
280
     1
102
RTVSPropertyOp0
 70
     1
102
RTVSPropertyOp1
 70
     1
102
RTVSPropertyOp2
 70
     1
102
RTVSPropertyOp3
 70
     1
102
RTVSPropertyOp4
 70
     1
102
RTVSPropertyOp5
 70
     1
102
RTVSPropertyOp6
 70
     1
102
RTVSPropertyOp7
 70
     1
102
RTVSPropertyOp8
 70
     1
102
RTVSPropertyOp9
 70
     1
102
RTVSPropertyOp10
 70
     1
102
RTVSPropertyOp11
 70
     1
102
RTVSPropertyOp12
 70
     1
102
RTVSPropertyOp13
 70
     1
102
RTVSPropertyOp14
 70
     1
102
RTVSPropertyOp15
 70
     1
102
RTVSPropertyOp16
 70
     1
102
RTVSPropertyOp17
 70
     1
102
RTVSPropertyOp18
 70
     1
102
RTVSPropertyOp19
 70
     1
102
RTVSPropertyOp20
 70
     1
102
RTVSPropertyOp21
 70
     1
102
RTVSPropertyOp22
 70
     1
102
RTVSPropertyOp23
 70
     1
102
RTVSPropertyOp24
 70
     1
102
RTVSPropertyOp25
 70
     1
102
RTVSPropertyOp26
 70
     1
102
RTVSPropertyOp27
 70
     1
102
RTVSPropertyOp28
 70
     1
102
RTVSPropertyOp29
 70
     1
102
RTVSPropertyOp30
 70
     1
102
RTVSPropertyOp31
 70
     1
102
RTVSPropertyOp32
 70
     1
  0
XRECORD
  5
80F5
102
{ACAD_REACTORS
330
80F4
102
}
330
80F4
100
AcDbXrecord
280
     1
102
RTVSPropertyOp0
 70
     1
102
RTVSPropertyOp1
 70
     1
102
RTVSPropertyOp2
 70
     1
102
RTVSPropertyOp3
 70
     1
102
RTVSPropertyOp4
 70
     1
102
RTVSPropertyOp5
 70
     1
102
RTVSPropertyOp6
 70
     1
102
RTVSPropertyOp7
 70
     1
102
RTVSPropertyOp8
 70
     1
102
RTVSPropertyOp9
 70
     1
102
RTVSPropertyOp10
 70
     1
102
RTVSPropertyOp11
 70
     1
102
RTVSPropertyOp12
 70
     1
102
RTVSPropertyOp13
 70
     1
102
RTVSPropertyOp14
 70
     1
102
RTVSPropertyOp15
 70
     1
102
RTVSPropertyOp16
 70
     1
102
RTVSPropertyOp17
 70
     1
102
RTVSPropertyOp18
 70
     1
102
RTVSPropertyOp19
 70
     1
102
RTVSPropertyOp20
 70
     1
102
RTVSPropertyOp21
 70
     1
102
RTVSPropertyOp22
 70
     1
102
RTVSPropertyOp23
 70
     1
102
RTVSPropertyOp24
 70
     1
102
RTVSPropertyOp25
 70
     1
102
RTVSPropertyOp26
 70
     1
102
RTVSPropertyOp27
 70
     1
102
RTVSPropertyOp28
 70
     1
102
RTVSPropertyOp29
 70
     1
102
RTVSPropertyOp30
 70
     1
102
RTVSPropertyOp31
 70
     1
102
RTVSPropertyOp32
 70
     1
  0
XRECORD
  5
80E7
102
{ACAD_REACTORS
330
80E6
102
}
330
80E6
100
AcDbXrecord
280
     1
102
RTVSPropertyOp0
 70
     1
102
RTVSPropertyOp1
 70
     1
102
RTVSPropertyOp2
 70
     1
102
RTVSPropertyOp3
 70
     1
102
RTVSPropertyOp4
 70
     1
102
RTVSPropertyOp5
 70
     1
102
RTVSPropertyOp6
 70
     1
102
RTVSPropertyOp7
 70
     1
102
RTVSPropertyOp8
 70
     1
102
RTVSPropertyOp9
 70
     1
102
RTVSPropertyOp10
 70
     1
102
RTVSPropertyOp11
 70
     1
102
RTVSPropertyOp12
 70
     1
102
RTVSPropertyOp13
 70
     1
102
RTVSPropertyOp14
 70
     1
102
RTVSPropertyOp15
 70
     1
102
RTVSPropertyOp16
 70
     1
102
RTVSPropertyOp17
 70
     1
102
RTVSPropertyOp18
 70
     1
102
RTVSPropertyOp19
 70
     1
102
RTVSPropertyOp20
 70
     1
102
RTVSPropertyOp21
 70
     1
102
RTVSPropertyOp22
 70
     1
102
RTVSPropertyOp23
 70
     1
102
RTVSPropertyOp24
 70
     1
102
RTVSPropertyOp25
 70
     1
102
RTVSPropertyOp26
 70
     1
102
RTVSPropertyOp27
 70
     1
102
RTVSPropertyOp28
 70
     1
102
RTVSPropertyOp29
 70
     1
102
RTVSPropertyOp30
 70
     1
102
RTVSPropertyOp31
 70
     1
102
RTVSPropertyOp32
 70
     1
  0
XRECORD
  5
80EB
102
{ACAD_REACTORS
330
80EA
102
}
330
80EA
100
AcDbXrecord
280
     1
102
RTVSPropertyOp0
 70
     1
102
RTVSPropertyOp1
 70
     1
102
RTVSPropertyOp2
 70
     1
102
RTVSPropertyOp3
 70
     1
102
RTVSPropertyOp4
 70
     1
102
RTVSPropertyOp5
 70
     1
102
RTVSPropertyOp6
 70
     1
102
RTVSPropertyOp7
 70
     1
102
RTVSPropertyOp8
 70
     1
102
RTVSPropertyOp9
 70
     1
102
RTVSPropertyOp10
 70
     1
102
RTVSPropertyOp11
 70
     1
102
RTVSPropertyOp12
 70
     1
102
RTVSPropertyOp13
 70
     1
102
RTVSPropertyOp14
 70
     1
102
RTVSPropertyOp15
 70
     1
102
RTVSPropertyOp16
 70
     1
102
RTVSPropertyOp17
 70
     1
102
RTVSPropertyOp18
 70
     1
102
RTVSPropertyOp19
 70
     1
102
RTVSPropertyOp20
 70
     1
102
RTVSPropertyOp21
 70
     1
102
RTVSPropertyOp22
 70
     1
102
RTVSPropertyOp23
 70
     1
102
RTVSPropertyOp24
 70
     1
102
RTVSPropertyOp25
 70
     1
102
RTVSPropertyOp26
 70
     1
102
RTVSPropertyOp27
 70
     1
102
RTVSPropertyOp28
 70
     1
102
RTVSPropertyOp29
 70
     1
102
RTVSPropertyOp30
 70
     1
102
RTVSPropertyOp31
 70
     1
102
RTVSPropertyOp32
 70
     1
  0
XRECORD
  5
8105
102
{ACAD_REACTORS
330
8104
102
}
330
8104
100
AcDbXrecord
280
     1
102
RTVSPropertyOp0
 70
     0
102
RTVSPropertyOp1
 70
     0
102
RTVSPropertyOp2
 70
     0
102
RTVSPropertyOp3
 70
     0
102
RTVSPropertyOp4
 70
     0
102
RTVSPropertyOp5
 70
     0
102
RTVSPropertyOp6
 70
     0
102
RTVSPropertyOp7
 70
     0
102
RTVSPropertyOp8
 70
     0
102
RTVSPropertyOp9
 70
     0
102
RTVSPropertyOp10
 70
     0
102
RTVSPropertyOp11
 70
     0
102
RTVSPropertyOp12
 70
     0
102
RTVSPropertyOp13
 70
     0
102
RTVSPropertyOp14
 70
     2
102
RTVSPropertyOp15
 70
     0
102
RTVSPropertyOp16
 70
     0
102
RTVSPropertyOp17
 70
     0
102
RTVSPropertyOp18
 70
     0
102
RTVSPropertyOp19
 70
     0
102
RTVSPropertyOp20
 70
     0
102
RTVSPropertyOp21
 70
     0
102
RTVSPropertyOp22
 70
     0
102
RTVSPropertyOp23
 70
     0
102
RTVSPropertyOp24
 70
     0
102
RTVSPropertyOp25
 70
     0
102
RTVSPropertyOp26
 70
     0
102
RTVSPropertyOp27
 70
     0
102
RTVSPropertyOp28
 70
     1
102
RTVSPropertyOp29
 70
     1
102
RTVSPropertyOp30
 70
     1
102
RTVSPropertyOp31
 70
     1
102
RTVSPropertyOp32
 70
     1
  0
XRECORD
  5
80F3
102
{ACAD_REACTORS
330
80F2
102
}
330
80F2
100
AcDbXrecord
280
     1
102
RTVSPropertyOp0
 70
     1
102
RTVSPropertyOp1
 70
     1
102
RTVSPropertyOp2
 70
     1
102
RTVSPropertyOp3
 70
     1
102
RTVSPropertyOp4
 70
     1
102
RTVSPropertyOp5
 70
     1
102
RTVSPropertyOp6
 70
     1
102
RTVSPropertyOp7
 70
     1
102
RTVSPropertyOp8
 70
     1
102
RTVSPropertyOp9
 70
     1
102
RTVSPropertyOp10
 70
     1
102
RTVSPropertyOp11
 70
     1
102
RTVSPropertyOp12
 70
     1
102
RTVSPropertyOp13
 70
     1
102
RTVSPropertyOp14
 70
     1
102
RTVSPropertyOp15
 70
     1
102
RTVSPropertyOp16
 70
     1
102
RTVSPropertyOp17
 70
     1
102
RTVSPropertyOp18
 70
     1
102
RTVSPropertyOp19
 70
     1
102
RTVSPropertyOp20
 70
     1
102
RTVSPropertyOp21
 70
     1
102
RTVSPropertyOp22
 70
     1
102
RTVSPropertyOp23
 70
     1
102
RTVSPropertyOp24
 70
     1
102
RTVSPropertyOp25
 70
     1
102
RTVSPropertyOp26
 70
     1
102
RTVSPropertyOp27
 70
     1
102
RTVSPropertyOp28
 70
     1
102
RTVSPropertyOp29
 70
     1
102
RTVSPropertyOp30
 70
     1
102
RTVSPropertyOp31
 70
     1
102
RTVSPropertyOp32
 70
     1
  0
XRECORD
  5
80D7
102
{ACAD_REACTORS
330
80D6
102
}
330
80D6
100
AcDbXrecord
280
     1
102
RTVSPropertyOp0
 70
     1
102
RTVSPropertyOp1
 70
     1
102
RTVSPropertyOp2
 70
     1
102
RTVSPropertyOp3
 70
     1
102
RTVSPropertyOp4
 70
     1
102
RTVSPropertyOp5
 70
     1
102
RTVSPropertyOp6
 70
     1
102
RTVSPropertyOp7
 70
     1
102
RTVSPropertyOp8
 70
     1
102
RTVSPropertyOp9
 70
     1
102
RTVSPropertyOp10
 70
     1
102
RTVSPropertyOp11
 70
     1
102
RTVSPropertyOp12
 70
     1
102
RTVSPropertyOp13
 70
     1
102
RTVSPropertyOp14
 70
     1
102
RTVSPropertyOp15
 70
     1
102
RTVSPropertyOp16
 70
     1
102
RTVSPropertyOp17
 70
     1
102
RTVSPropertyOp18
 70
     1
102
RTVSPropertyOp19
 70
     1
102
RTVSPropertyOp20
 70
     1
102
RTVSPropertyOp21
 70
     1
102
RTVSPropertyOp22
 70
     1
102
RTVSPropertyOp23
 70
     1
102
RTVSPropertyOp24
 70
     1
102
RTVSPropertyOp25
 70
     1
102
RTVSPropertyOp26
 70
     1
102
RTVSPropertyOp27
 70
     1
102
RTVSPropertyOp28
 70
     1
102
RTVSPropertyOp29
 70
     1
102
RTVSPropertyOp30
 70
     1
102
RTVSPropertyOp31
 70
     1
102
RTVSPropertyOp32
 70
     1
  0
XRECORD
  5
80D9
102
{ACAD_REACTORS
330
80D8
102
}
330
80D8
100
AcDbXrecord
280
     1
102
RTVSPropertyOp0
 70
     1
102
RTVSPropertyOp1
 70
     1
102
RTVSPropertyOp2
 70
     1
102
RTVSPropertyOp3
 70
     1
102
RTVSPropertyOp4
 70
     1
102
RTVSPropertyOp5
 70
     1
102
RTVSPropertyOp6
 70
     1
102
RTVSPropertyOp7
 70
     1
102
RTVSPropertyOp8
 70
     1
102
RTVSPropertyOp9
 70
     1
102
RTVSPropertyOp10
 70
     1
102
RTVSPropertyOp11
 70
     1
102
RTVSPropertyOp12
 70
     1
102
RTVSPropertyOp13
 70
     1
102
RTVSPropertyOp14
 70
     1
102
RTVSPropertyOp15
 70
     1
102
RTVSPropertyOp16
 70
     1
102
RTVSPropertyOp17
 70
     1
102
RTVSPropertyOp18
 70
     1
102
RTVSPropertyOp19
 70
     1
102
RTVSPropertyOp20
 70
     1
102
RTVSPropertyOp21
 70
     1
102
RTVSPropertyOp22
 70
     1
102
RTVSPropertyOp23
 70
     1
102
RTVSPropertyOp24
 70
     1
102
RTVSPropertyOp25
 70
     1
102
RTVSPropertyOp26
 70
     1
102
RTVSPropertyOp27
 70
     1
102
RTVSPropertyOp28
 70
     1
102
RTVSPropertyOp29
 70
     1
102
RTVSPropertyOp30
 70
     1
102
RTVSPropertyOp31
 70
     1
102
RTVSPropertyOp32
 70
     1
  0
XRECORD
  5
80DB
102
{ACAD_REACTORS
330
80DA
102
}
330
80DA
100
AcDbXrecord
280
     1
102
RTVSPropertyOp0
 70
     1
102
RTVSPropertyOp1
 70
     1
102
RTVSPropertyOp2
 70
     1
102
RTVSPropertyOp3
 70
     1
102
RTVSPropertyOp4
 70
     1
102
RTVSPropertyOp5
 70
     1
102
RTVSPropertyOp6
 70
     1
102
RTVSPropertyOp7
 70
     1
102
RTVSPropertyOp8
 70
     1
102
RTVSPropertyOp9
 70
     1
102
RTVSPropertyOp10
 70
     1
102
RTVSPropertyOp11
 70
     1
102
RTVSPropertyOp12
 70
     1
102
RTVSPropertyOp13
 70
     1
102
RTVSPropertyOp14
 70
     1
102
RTVSPropertyOp15
 70
     1
102
RTVSPropertyOp16
 70
     1
102
RTVSPropertyOp17
 70
     1
102
RTVSPropertyOp18
 70
     1
102
RTVSPropertyOp19
 70
     1
102
RTVSPropertyOp20
 70
     1
102
RTVSPropertyOp21
 70
     1
102
RTVSPropertyOp22
 70
     1
102
RTVSPropertyOp23
 70
     1
102
RTVSPropertyOp24
 70
     1
102
RTVSPropertyOp25
 70
     1
102
RTVSPropertyOp26
 70
     1
102
RTVSPropertyOp27
 70
     1
102
RTVSPropertyOp28
 70
     1
102
RTVSPropertyOp29
 70
     1
102
RTVSPropertyOp30
 70
     1
102
RTVSPropertyOp31
 70
     1
102
RTVSPropertyOp32
 70
     1
  0
XRECORD
  5
80DD
102
{ACAD_REACTORS
330
80DC
102
}
330
80DC
100
AcDbXrecord
280
     1
102
RTVSPropertyOp0
 70
     1
102
RTVSPropertyOp1
 70
     1
102
RTVSPropertyOp2
 70
     1
102
RTVSPropertyOp3
 70
     1
102
RTVSPropertyOp4
 70
     1
102
RTVSPropertyOp5
 70
     1
102
RTVSPropertyOp6
 70
     1
102
RTVSPropertyOp7
 70
     1
102
RTVSPropertyOp8
 70
     1
102
RTVSPropertyOp9
 70
     1
102
RTVSPropertyOp10
 70
     1
102
RTVSPropertyOp11
 70
     1
102
RTVSPropertyOp12
 70
     1
102
RTVSPropertyOp13
 70
     1
102
RTVSPropertyOp14
 70
     1
102
RTVSPropertyOp15
 70
     1
102
RTVSPropertyOp16
 70
     1
102
RTVSPropertyOp17
 70
     1
102
RTVSPropertyOp18
 70
     1
102
RTVSPropertyOp19
 70
     1
102
RTVSPropertyOp20
 70
     1
102
RTVSPropertyOp21
 70
     1
102
RTVSPropertyOp22
 70
     1
102
RTVSPropertyOp23
 70
     1
102
RTVSPropertyOp24
 70
     1
102
RTVSPropertyOp25
 70
     1
102
RTVSPropertyOp26
 70
     1
102
RTVSPropertyOp27
 70
     1
102
RTVSPropertyOp28
 70
     1
102
RTVSPropertyOp29
 70
     1
102
RTVSPropertyOp30
 70
     1
102
RTVSPropertyOp31
 70
     1
102
RTVSPropertyOp32
 70
     1
  0
XRECORD
  5
80E5
102
{ACAD_REACTORS
330
80E4
102
}
330
80E4
100
AcDbXrecord
280
     1
102
RTVSPropertyOp0
 70
     1
102
RTVSPropertyOp1
 70
     1
102
RTVSPropertyOp2
 70
     1
102
RTVSPropertyOp3
 70
     1
102
RTVSPropertyOp4
 70
     1
102
RTVSPropertyOp5
 70
     1
102
RTVSPropertyOp6
 70
     1
102
RTVSPropertyOp7
 70
     1
102
RTVSPropertyOp8
 70
     1
102
RTVSPropertyOp9
 70
     1
102
RTVSPropertyOp10
 70
     1
102
RTVSPropertyOp11
 70
     1
102
RTVSPropertyOp12
 70
     1
102
RTVSPropertyOp13
 70
     1
102
RTVSPropertyOp14
 70
     1
102
RTVSPropertyOp15
 70
     1
102
RTVSPropertyOp16
 70
     1
102
RTVSPropertyOp17
 70
     1
102
RTVSPropertyOp18
 70
     1
102
RTVSPropertyOp19
 70
     1
102
RTVSPropertyOp20
 70
     1
102
RTVSPropertyOp21
 70
     1
102
RTVSPropertyOp22
 70
     1
102
RTVSPropertyOp23
 70
     1
102
RTVSPropertyOp24
 70
     1
102
RTVSPropertyOp25
 70
     1
102
RTVSPropertyOp26
 70
     1
102
RTVSPropertyOp27
 70
     1
102
RTVSPropertyOp28
 70
     1
102
RTVSPropertyOp29
 70
     1
102
RTVSPropertyOp30
 70
     1
102
RTVSPropertyOp31
 70
     1
102
RTVSPropertyOp32
 70
     1
  0
XRECORD
  5
8101
102
{ACAD_REACTORS
330
8100
102
}
330
8100
100
AcDbXrecord
280
     1
102
RTVSPropertyOp0
 70
     0
102
RTVSPropertyOp1
 70
     0
102
RTVSPropertyOp2
 70
     0
102
RTVSPropertyOp3
 70
     0
102
RTVSPropertyOp4
 70
     0
102
RTVSPropertyOp5
 70
     0
102
RTVSPropertyOp6
 70
     0
102
RTVSPropertyOp7
 70
     0
102
RTVSPropertyOp8
 70
     0
102
RTVSPropertyOp9
 70
     0
102
RTVSPropertyOp10
 70
     0
102
RTVSPropertyOp11
 70
     0
102
RTVSPropertyOp12
 70
     0
102
RTVSPropertyOp13
 70
     0
102
RTVSPropertyOp14
 70
     2
102
RTVSPropertyOp15
 70
     0
102
RTVSPropertyOp16
 70
     0
102
RTVSPropertyOp17
 70
     0
102
RTVSPropertyOp18
 70
     0
102
RTVSPropertyOp19
 70
     0
102
RTVSPropertyOp20
 70
     0
102
RTVSPropertyOp21
 70
     0
102
RTVSPropertyOp22
 70
     0
102
RTVSPropertyOp23
 70
     0
102
RTVSPropertyOp24
 70
     0
102
RTVSPropertyOp25
 70
     0
102
RTVSPropertyOp26
 70
     0
102
RTVSPropertyOp27
 70
     0
102
RTVSPropertyOp28
 70
     1
102
RTVSPropertyOp29
 70
     1
102
RTVSPropertyOp30
 70
     1
102
RTVSPropertyOp31
 70
     1
102
RTVSPropertyOp32
 70
     1
  0
XRECORD
  5
80F1
102
{ACAD_REACTORS
330
80F0
102
}
330
80F0
100
AcDbXrecord
280
     1
102
RTVSPropertyOp0
 70
     1
102
RTVSPropertyOp1
 70
     1
102
RTVSPropertyOp2
 70
     1
102
RTVSPropertyOp3
 70
     1
102
RTVSPropertyOp4
 70
     1
102
RTVSPropertyOp5
 70
     1
102
RTVSPropertyOp6
 70
     1
102
RTVSPropertyOp7
 70
     1
102
RTVSPropertyOp8
 70
     1
102
RTVSPropertyOp9
 70
     1
102
RTVSPropertyOp10
 70
     1
102
RTVSPropertyOp11
 70
     1
102
RTVSPropertyOp12
 70
     1
102
RTVSPropertyOp13
 70
     1
102
RTVSPropertyOp14
 70
     1
102
RTVSPropertyOp15
 70
     1
102
RTVSPropertyOp16
 70
     1
102
RTVSPropertyOp17
 70
     1
102
RTVSPropertyOp18
 70
     1
102
RTVSPropertyOp19
 70
     1
102
RTVSPropertyOp20
 70
     1
102
RTVSPropertyOp21
 70
     1
102
RTVSPropertyOp22
 70
     1
102
RTVSPropertyOp23
 70
     1
102
RTVSPropertyOp24
 70
     1
102
RTVSPropertyOp25
 70
     1
102
RTVSPropertyOp26
 70
     1
102
RTVSPropertyOp27
 70
     1
102
RTVSPropertyOp28
 70
     1
102
RTVSPropertyOp29
 70
     1
102
RTVSPropertyOp30
 70
     1
102
RTVSPropertyOp31
 70
     1
102
RTVSPropertyOp32
 70
     1
  0
XRECORD
  5
8103
102
{ACAD_REACTORS
330
8102
102
}
330
8102
100
AcDbXrecord
280
     1
102
RTVSPropertyOp0
 70
     0
102
RTVSPropertyOp1
 70
     0
102
RTVSPropertyOp2
 70
     0
102
RTVSPropertyOp3
 70
     0
102
RTVSPropertyOp4
 70
     0
102
RTVSPropertyOp5
 70
     0
102
RTVSPropertyOp6
 70
     0
102
RTVSPropertyOp7
 70
     0
102
RTVSPropertyOp8
 70
     0
102
RTVSPropertyOp9
 70
     0
102
RTVSPropertyOp10
 70
     0
102
RTVSPropertyOp11
 70
     0
102
RTVSPropertyOp12
 70
     0
102
RTVSPropertyOp13
 70
     0
102
RTVSPropertyOp14
 70
     2
102
RTVSPropertyOp15
 70
     0
102
RTVSPropertyOp16
 70
     0
102
RTVSPropertyOp17
 70
     0
102
RTVSPropertyOp18
 70
     0
102
RTVSPropertyOp19
 70
     0
102
RTVSPropertyOp20
 70
     0
102
RTVSPropertyOp21
 70
     0
102
RTVSPropertyOp22
 70
     0
102
RTVSPropertyOp23
 70
     0
102
RTVSPropertyOp24
 70
     0
102
RTVSPropertyOp25
 70
     0
102
RTVSPropertyOp26
 70
     0
102
RTVSPropertyOp27
 70
     0
102
RTVSPropertyOp28
 70
     1
102
RTVSPropertyOp29
 70
     1
102
RTVSPropertyOp30
 70
     1
102
RTVSPropertyOp31
 70
     1
102
RTVSPropertyOp32
 70
     1
  0
XRECORD
  5
80E9
102
{ACAD_REACTORS
330
80E8
102
}
330
80E8
100
AcDbXrecord
280
     1
102
RTVSPropertyOp0
 70
     1
102
RTVSPropertyOp1
 70
     1
102
RTVSPropertyOp2
 70
     1
102
RTVSPropertyOp3
 70
     1
102
RTVSPropertyOp4
 70
     1
102
RTVSPropertyOp5
 70
     1
102
RTVSPropertyOp6
 70
     1
102
RTVSPropertyOp7
 70
     1
102
RTVSPropertyOp8
 70
     1
102
RTVSPropertyOp9
 70
     1
102
RTVSPropertyOp10
 70
     1
102
RTVSPropertyOp11
 70
     1
102
RTVSPropertyOp12
 70
     1
102
RTVSPropertyOp13
 70
     1
102
RTVSPropertyOp14
 70
     1
102
RTVSPropertyOp15
 70
     1
102
RTVSPropertyOp16
 70
     1
102
RTVSPropertyOp17
 70
     1
102
RTVSPropertyOp18
 70
     1
102
RTVSPropertyOp19
 70
     1
102
RTVSPropertyOp20
 70
     1
102
RTVSPropertyOp21
 70
     1
102
RTVSPropertyOp22
 70
     1
102
RTVSPropertyOp23
 70
     1
102
RTVSPropertyOp24
 70
     1
102
RTVSPropertyOp25
 70
     1
102
RTVSPropertyOp26
 70
     1
102
RTVSPropertyOp27
 70
     1
102
RTVSPropertyOp28
 70
     1
102
RTVSPropertyOp29
 70
     1
102
RTVSPropertyOp30
 70
     1
102
RTVSPropertyOp31
 70
     1
102
RTVSPropertyOp32
 70
     1
  0
XRECORD
  5
80FF
102
{ACAD_REACTORS
330
80FE
102
}
330
80FE
100
AcDbXrecord
280
     1
102
RTVSPropertyOp0
 70
     1
102
RTVSPropertyOp1
 70
     1
102
RTVSPropertyOp2
 70
     1
102
RTVSPropertyOp3
 70
     1
102
RTVSPropertyOp4
 70
     1
102
RTVSPropertyOp5
 70
     1
102
RTVSPropertyOp6
 70
     1
102
RTVSPropertyOp7
 70
     1
102
RTVSPropertyOp8
 70
     1
102
RTVSPropertyOp9
 70
     1
102
RTVSPropertyOp10
 70
     1
102
RTVSPropertyOp11
 70
     1
102
RTVSPropertyOp12
 70
     1
102
RTVSPropertyOp13
 70
     1
102
RTVSPropertyOp14
 70
     1
102
RTVSPropertyOp15
 70
     1
102
RTVSPropertyOp16
 70
     1
102
RTVSPropertyOp17
 70
     1
102
RTVSPropertyOp18
 70
     1
102
RTVSPropertyOp19
 70
     1
102
RTVSPropertyOp20
 70
     1
102
RTVSPropertyOp21
 70
     1
102
RTVSPropertyOp22
 70
     1
102
RTVSPropertyOp23
 70
     1
102
RTVSPropertyOp24
 70
     1
102
RTVSPropertyOp25
 70
     1
102
RTVSPropertyOp26
 70
     1
102
RTVSPropertyOp27
 70
     1
102
RTVSPropertyOp28
 70
     1
102
RTVSPropertyOp29
 70
     1
102
RTVSPropertyOp30
 70
     1
102
RTVSPropertyOp31
 70
     1
102
RTVSPropertyOp32
 70
     1
  0
XRECORD
  5
80FD
102
{ACAD_REACTORS
330
80FC
102
}
330
80FC
100
AcDbXrecord
280
     1
102
RTVSPropertyOp0
 70
     1
102
RTVSPropertyOp1
 70
     1
102
RTVSPropertyOp2
 70
     1
102
RTVSPropertyOp3
 70
     1
102
RTVSPropertyOp4
 70
     1
102
RTVSPropertyOp5
 70
     1
102
RTVSPropertyOp6
 70
     1
102
RTVSPropertyOp7
 70
     1
102
RTVSPropertyOp8
 70
     1
102
RTVSPropertyOp9
 70
     1
102
RTVSPropertyOp10
 70
     1
102
RTVSPropertyOp11
 70
     1
102
RTVSPropertyOp12
 70
     1
102
RTVSPropertyOp13
 70
     1
102
RTVSPropertyOp14
 70
     1
102
RTVSPropertyOp15
 70
     1
102
RTVSPropertyOp16
 70
     1
102
RTVSPropertyOp17
 70
     1
102
RTVSPropertyOp18
 70
     1
102
RTVSPropertyOp19
 70
     1
102
RTVSPropertyOp20
 70
     1
102
RTVSPropertyOp21
 70
     1
102
RTVSPropertyOp22
 70
     1
102
RTVSPropertyOp23
 70
     1
102
RTVSPropertyOp24
 70
     1
102
RTVSPropertyOp25
 70
     1
102
RTVSPropertyOp26
 70
     1
102
RTVSPropertyOp27
 70
     1
102
RTVSPropertyOp28
 70
     1
102
RTVSPropertyOp29
 70
     1
102
RTVSPropertyOp30
 70
     1
102
RTVSPropertyOp31
 70
     1
102
RTVSPropertyOp32
 70
     1
  0
XRECORD
  5
80F7
102
{ACAD_REACTORS
330
80F6
102
}
330
80F6
100
AcDbXrecord
280
     1
102
RTVSPropertyOp0
 70
     1
102
RTVSPropertyOp1
 70
     1
102
RTVSPropertyOp2
 70
     1
102
RTVSPropertyOp3
 70
     1
102
RTVSPropertyOp4
 70
     1
102
RTVSPropertyOp5
 70
     1
102
RTVSPropertyOp6
 70
     1
102
RTVSPropertyOp7
 70
     1
102
RTVSPropertyOp8
 70
     1
102
RTVSPropertyOp9
 70
     1
102
RTVSPropertyOp10
 70
     1
102
RTVSPropertyOp11
 70
     1
102
RTVSPropertyOp12
 70
     1
102
RTVSPropertyOp13
 70
     1
102
RTVSPropertyOp14
 70
     1
102
RTVSPropertyOp15
 70
     1
102
RTVSPropertyOp16
 70
     1
102
RTVSPropertyOp17
 70
     1
102
RTVSPropertyOp18
 70
     1
102
RTVSPropertyOp19
 70
     1
102
RTVSPropertyOp20
 70
     1
102
RTVSPropertyOp21
 70
     1
102
RTVSPropertyOp22
 70
     1
102
RTVSPropertyOp23
 70
     1
102
RTVSPropertyOp24
 70
     1
102
RTVSPropertyOp25
 70
     1
102
RTVSPropertyOp26
 70
     1
102
RTVSPropertyOp27
 70
     1
102
RTVSPropertyOp28
 70
     1
102
RTVSPropertyOp29
 70
     1
102
RTVSPropertyOp30
 70
     1
102
RTVSPropertyOp31
 70
     1
102
RTVSPropertyOp32
 70
     1
  0
XRECORD
  5
80F9
102
{ACAD_REACTORS
330
80F8
102
}
330
80F8
100
AcDbXrecord
280
     1
102
RTVSPropertyOp0
 70
     1
102
RTVSPropertyOp1
 70
     1
102
RTVSPropertyOp2
 70
     1
102
RTVSPropertyOp3
 70
     1
102
RTVSPropertyOp4
 70
     1
102
RTVSPropertyOp5
 70
     1
102
RTVSPropertyOp6
 70
     1
102
RTVSPropertyOp7
 70
     1
102
RTVSPropertyOp8
 70
     1
102
RTVSPropertyOp9
 70
     1
102
RTVSPropertyOp10
 70
     1
102
RTVSPropertyOp11
 70
     1
102
RTVSPropertyOp12
 70
     1
102
RTVSPropertyOp13
 70
     1
102
RTVSPropertyOp14
 70
     1
102
RTVSPropertyOp15
 70
     1
102
RTVSPropertyOp16
 70
     1
102
RTVSPropertyOp17
 70
     1
102
RTVSPropertyOp18
 70
     1
102
RTVSPropertyOp19
 70
     1
102
RTVSPropertyOp20
 70
     1
102
RTVSPropertyOp21
 70
     1
102
RTVSPropertyOp22
 70
     1
102
RTVSPropertyOp23
 70
     1
102
RTVSPropertyOp24
 70
     1
102
RTVSPropertyOp25
 70
     1
102
RTVSPropertyOp26
 70
     1
102
RTVSPropertyOp27
 70
     1
102
RTVSPropertyOp28
 70
     1
102
RTVSPropertyOp29
 70
     1
102
RTVSPropertyOp30
 70
     1
102
RTVSPropertyOp31
 70
     1
102
RTVSPropertyOp32
 70
     1
  0
XRECORD
  5
80EF
102
{ACAD_REACTORS
330
80EE
102
}
330
80EE
100
AcDbXrecord
280
     1
102
RTVSPropertyOp0
 70
     1
102
RTVSPropertyOp1
 70
     1
102
RTVSPropertyOp2
 70
     1
102
RTVSPropertyOp3
 70
     1
102
RTVSPropertyOp4
 70
     1
102
RTVSPropertyOp5
 70
     1
102
RTVSPropertyOp6
 70
     1
102
RTVSPropertyOp7
 70
     1
102
RTVSPropertyOp8
 70
     1
102
RTVSPropertyOp9
 70
     1
102
RTVSPropertyOp10
 70
     1
102
RTVSPropertyOp11
 70
     1
102
RTVSPropertyOp12
 70
     1
102
RTVSPropertyOp13
 70
     1
102
RTVSPropertyOp14
 70
     1
102
RTVSPropertyOp15
 70
     1
102
RTVSPropertyOp16
 70
     1
102
RTVSPropertyOp17
 70
     1
102
RTVSPropertyOp18
 70
     1
102
RTVSPropertyOp19
 70
     1
102
RTVSPropertyOp20
 70
     1
102
RTVSPropertyOp21
 70
     1
102
RTVSPropertyOp22
 70
     1
102
RTVSPropertyOp23
 70
     1
102
RTVSPropertyOp24
 70
     1
102
RTVSPropertyOp25
 70
     1
102
RTVSPropertyOp26
 70
     1
102
RTVSPropertyOp27
 70
     1
102
RTVSPropertyOp28
 70
     1
102
RTVSPropertyOp29
 70
     1
102
RTVSPropertyOp30
 70
     1
102
RTVSPropertyOp31
 70
     1
102
RTVSPropertyOp32
 70
     1
  0
XRECORD
  5
80E3
102
{ACAD_REACTORS
330
80E2
102
}
330
80E2
100
AcDbXrecord
280
     1
102
RTVSPropertyOp0
 70
     1
102
RTVSPropertyOp1
 70
     1
102
RTVSPropertyOp2
 70
     1
102
RTVSPropertyOp3
 70
     1
102
RTVSPropertyOp4
 70
     1
102
RTVSPropertyOp5
 70
     1
102
RTVSPropertyOp6
 70
     1
102
RTVSPropertyOp7
 70
     1
102
RTVSPropertyOp8
 70
     1
102
RTVSPropertyOp9
 70
     1
102
RTVSPropertyOp10
 70
     1
102
RTVSPropertyOp11
 70
     1
102
RTVSPropertyOp12
 70
     1
102
RTVSPropertyOp13
 70
     1
102
RTVSPropertyOp14
 70
     1
102
RTVSPropertyOp15
 70
     1
102
RTVSPropertyOp16
 70
     1
102
RTVSPropertyOp17
 70
     1
102
RTVSPropertyOp18
 70
     1
102
RTVSPropertyOp19
 70
     1
102
RTVSPropertyOp20
 70
     1
102
RTVSPropertyOp21
 70
     1
102
RTVSPropertyOp22
 70
     1
102
RTVSPropertyOp23
 70
     1
102
RTVSPropertyOp24
 70
     1
102
RTVSPropertyOp25
 70
     1
102
RTVSPropertyOp26
 70
     1
102
RTVSPropertyOp27
 70
     1
102
RTVSPropertyOp28
 70
     1
102
RTVSPropertyOp29
 70
     1
102
RTVSPropertyOp30
 70
     1
102
RTVSPropertyOp31
 70
     1
102
RTVSPropertyOp32
 70
     1
  0
XRECORD
  5
80FB
102
{ACAD_REACTORS
330
80FA
102
}
330
80FA
100
AcDbXrecord
280
     1
102
RTVSPropertyOp0
 70
     1
102
RTVSPropertyOp1
 70
     1
102
RTVSPropertyOp2
 70
     1
102
RTVSPropertyOp3
 70
     1
102
RTVSPropertyOp4
 70
     1
102
RTVSPropertyOp5
 70
     1
102
RTVSPropertyOp6
 70
     1
102
RTVSPropertyOp7
 70
     1
102
RTVSPropertyOp8
 70
     1
102
RTVSPropertyOp9
 70
     1
102
RTVSPropertyOp10
 70
     1
102
RTVSPropertyOp11
 70
     1
102
RTVSPropertyOp12
 70
     1
102
RTVSPropertyOp13
 70
     1
102
RTVSPropertyOp14
 70
     1
102
RTVSPropertyOp15
 70
     1
102
RTVSPropertyOp16
 70
     1
102
RTVSPropertyOp17
 70
     1
102
RTVSPropertyOp18
 70
     1
102
RTVSPropertyOp19
 70
     1
102
RTVSPropertyOp20
 70
     1
102
RTVSPropertyOp21
 70
     1
102
RTVSPropertyOp22
 70
     1
102
RTVSPropertyOp23
 70
     1
102
RTVSPropertyOp24
 70
     1
102
RTVSPropertyOp25
 70
     1
102
RTVSPropertyOp26
 70
     1
102
RTVSPropertyOp27
 70
     1
102
RTVSPropertyOp28
 70
     1
102
RTVSPropertyOp29
 70
     1
102
RTVSPropertyOp30
 70
     1
102
RTVSPropertyOp31
 70
     1
102
RTVSPropertyOp32
 70
     1
  0
ENDSEC
  0
EOF
