  0
SECTION
  2
HEADER
  9
$ACADVER
  1
AC1015
  9
$ACADMAINTVER
 70
    20
  9
$DWGCODEPAGE
  3
ANSI_932
  9
$INSBASE
 10
0.0
 20
0.0
 30
0.0
  9
$EXTMIN
 10
-50.04531514603377
 20
-150.0350925373322
 30
-0.0015258207003583
  9
$EXTMAX
 10
1435.045322061103
 20
1000.035097892437
 30
0.0000000349246037
  9
$LIMMIN
 10
0.0
 20
0.0
  9
$LIMMAX
 10
420.0
 20
297.0
  9
$ORTHOMODE
 70
     0
  9
$REGENMODE
 70
     1
  9
$FILLMODE
 70
     1
  9
$QTEXTMODE
 70
     0
  9
$MIRRTEXT
 70
     1
  9
$LTSCALE
 40
1.0
  9
$ATTMODE
 70
     1
  9
$TEXTSIZE
 40
2.5
  9
$TRACEWID
 40
1.0
  9
$TEXTSTYLE
  7
Standard
  9
$CLAYER
  8
実線  太
  9
$CELTYPE
  6
ByLayer
  9
$CECOLOR
 62
   256
  9
$CELTSCALE
 40
1.0
  9
$DISPSILH
 70
     0
  9
$DIMSCALE
 40
5.0
  9
$DIMASZ
 40
3.9
  9
$DIMEXO
 40
2.1
  9
$DIMDLI
 40
0.0
  9
$DIMRND
 40
0.0
  9
$DIMDLE
 40
0.0
  9
$DIMEXE
 40
0.0
  9
$DIMTP
 40
0.0
  9
$DIMTM
 40
0.0
  9
$DIMTXT
 40
2.5
  9
$DIMCEN
 40
2.5
  9
$DIMTSZ
 40
0.0
  9
$DIMTOL
 70
     0
  9
$DIMLIM
 70
     0
  9
$DIMTIH
 70
     0
  9
$DIMTOH
 70
     0
  9
$DIMSE1
 70
     0
  9
$DIMSE2
 70
     0
  9
$DIMTAD
 70
     1
  9
$DIMZIN
 70
     9
  9
$DIMBLK
  1
DotSmall
  9
$DIMASO
 70
     1
  9
$DIMSHO
 70
     1
  9
$DIMPOST
  1

  9
$DIMAPOST
  1

  9
$DIMALT
 70
     0
  9
$DIMALTD
 70
     3
  9
$DIMALTF
 40
0.03937007874016
  9
$DIMLFAC
 40
1.0
  9
$DIMTOFL
 70
     1
  9
$DIMTVP
 40
0.0
  9
$DIMTIX
 70
     0
  9
$DIMSOXD
 70
     0
  9
$DIMSAH
 70
     0
  9
$DIMBLK1
  1

  9
$DIMBLK2
  1

  9
$DIMSTYLE
  2
ISO-25 A4_05
  9
$DIMCLRD
 70
     0
  9
$DIMCLRE
 70
     0
  9
$DIMCLRT
 70
     7
  9
$DIMTFAC
 40
1.0
  9
$DIMGAP
 40
0.9
  9
$DIMJUST
 70
     0
  9
$DIMSD1
 70
     0
  9
$DIMSD2
 70
     0
  9
$DIMTOLJ
 70
     0
  9
$DIMTZIN
 70
     8
  9
$DIMALTZ
 70
     0
  9
$DIMALTTZ
 70
     0
  9
$DIMUPT
 70
     0
  9
$DIMDEC
 70
     1
  9
$DIMTDEC
 70
     1
  9
$DIMALTU
 70
     2
  9
$DIMALTTD
 70
     3
  9
$DIMTXSTY
  7
Standard
  9
$DIMAUNIT
 70
     0
  9
$DIMADEC
 70
     0
  9
$DIMALTRND
 40
0.0
  9
$DIMAZIN
 70
     0
  9
$DIMDSEP
 70
    46
  9
$DIMATFIT
 70
     3
  9
$DIMFRAC
 70
     0
  9
$DIMLDRBLK
  1

  9
$DIMLUNIT
 70
     2
  9
$DIMLWD
 70
    -2
  9
$DIMLWE
 70
    -2
  9
$DIMTMOVE
 70
     0
  9
$LUNITS
 70
     2
  9
$LUPREC
 70
     4
  9
$SKETCHINC
 40
1.0
  9
$FILLETRAD
 40
3.0
  9
$AUNITS
 70
     0
  9
$AUPREC
 70
     0
  9
$MENU
  1
.
  9
$ELEVATION
 40
0.0
  9
$PELEVATION
 40
0.0
  9
$THICKNESS
 40
0.0
  9
$LIMCHECK
 70
     0
  9
$CHAMFERA
 40
0.0
  9
$CHAMFERB
 40
0.0
  9
$CHAMFERC
 40
20.0
  9
$CHAMFERD
 40
0.0
  9
$SKPOLY
 70
     0
  9
$TDCREATE
 40
2452626.479274549
  9
$TDUCREATE
 40
2452626.104274548
  9
$TDUPDATE
 40
2456751.426371459
  9
$TDUUPDATE
 40
2456751.051371459
  9
$TDINDWG
 40
0.8711468287
  9
$TDUSRTIMER
 40
0.8711468287
  9
$USRTIMER
 70
     1
  9
$ANGBASE
 50
0.0
  9
$ANGDIR
 70
     0
  9
$PDMODE
 70
    99
  9
$PDSIZE
 40
-2.0
  9
$PLINEWID
 40
0.0
  9
$SPLFRAME
 70
     0
  9
$SPLINETYPE
 70
     6
  9
$SPLINESEGS
 70
     8
  9
$HANDSEED
  5
7F03
  9
$SURFTAB1
 70
     6
  9
$SURFTAB2
 70
     6
  9
$SURFTYPE
 70
     6
  9
$SURFU
 70
     6
  9
$SURFV
 70
     6
  9
$UCSBASE
  2

  9
$UCSNAME
  2

  9
$UCSORG
 10
0.0
 20
0.0
 30
0.0
  9
$UCSXDIR
 10
1.0
 20
0.0
 30
0.0
  9
$UCSYDIR
 10
0.0
 20
1.0
 30
0.0
  9
$UCSORTHOREF
  2

  9
$UCSORTHOVIEW
 70
     0
  9
$UCSORGTOP
 10
0.0
 20
0.0
 30
0.0
  9
$UCSORGBOTTOM
 10
0.0
 20
0.0
 30
0.0
  9
$UCSORGLEFT
 10
0.0
 20
0.0
 30
0.0
  9
$UCSORGRIGHT
 10
0.0
 20
0.0
 30
0.0
  9
$UCSORGFRONT
 10
0.0
 20
0.0
 30
0.0
  9
$UCSORGBACK
 10
0.0
 20
0.0
 30
0.0
  9
$PUCSBASE
  2

  9
$PUCSNAME
  2

  9
$PUCSORG
 10
0.0
 20
0.0
 30
0.0
  9
$PUCSXDIR
 10
1.0
 20
0.0
 30
0.0
  9
$PUCSYDIR
 10
0.0
 20
1.0
 30
0.0
  9
$PUCSORTHOREF
  2

  9
$PUCSORTHOVIEW
 70
     0
  9
$PUCSORGTOP
 10
0.0
 20
0.0
 30
0.0
  9
$PUCSORGBOTTOM
 10
0.0
 20
0.0
 30
0.0
  9
$PUCSORGLEFT
 10
0.0
 20
0.0
 30
0.0
  9
$PUCSORGRIGHT
 10
0.0
 20
0.0
 30
0.0
  9
$PUCSORGFRONT
 10
0.0
 20
0.0
 30
0.0
  9
$PUCSORGBACK
 10
0.0
 20
0.0
 30
0.0
  9
$USERI1
 70
     0
  9
$USERI2
 70
     0
  9
$USERI3
 70
     0
  9
$USERI4
 70
     0
  9
$USERI5
 70
     0
  9
$USERR1
 40
0.0
  9
$USERR2
 40
0.0
  9
$USERR3
 40
0.0
  9
$USERR4
 40
0.0
  9
$USERR5
 40
0.0
  9
$WORLDVIEW
 70
     1
  9
$SHADEDGE
 70
     3
  9
$SHADEDIF
 70
    70
  9
$TILEMODE
 70
     1
  9
$MAXACTVP
 70
    64
  9
$PINSBASE
 10
0.0
 20
0.0
 30
0.0
  9
$PLIMCHECK
 70
     0
  9
$PEXTMIN
 10
28.84593157768251
 20
20.15066723823549
 30
0.0
  9
$PEXTMAX
 10
259.6133841991425
 20
181.3560051441192
 30
0.0
  9
$PLIMMIN
 10
-4.23333740234375
 20
-4.233333110809326
  9
$PLIMMAX
 10
292.6926574707031
 20
205.7399945259094
  9
$UNITMODE
 70
     0
  9
$VISRETAIN
 70
     1
  9
$PLINEGEN
 70
     0
  9
$PSLTSCALE
 70
     1
  9
$TREEDEPTH
 70
  3020
  9
$CMLSTYLE
  2
Standard
  9
$CMLJUST
 70
     0
  9
$CMLSCALE
 40
20.0
  9
$PROXYGRAPHICS
 70
     1
  9
$MEASUREMENT
 70
     1
  9
$CELWEIGHT
370
    -1
  9
$ENDCAPS
280
     0
  9
$JOINSTYLE
280
     0
  9
$LWDISPLAY
290
     0
  9
$INSUNITS
 70
     4
  9
$HYPERLINKBASE
  1

  9
$STYLESHEET
  1
monochrome.ctb
  9
$XEDIT
290
     1
  9
$CEPSNTYPE
380
     0
  9
$PSTYLEMODE
290
     1
  9
$FINGERPRINTGUID
  2
{AEAF812E-8D80-486D-9611-5903FAC53DCD}
  9
$VERSIONGUID
  2
{368A3AF9-7D00-4126-9DDE-378BB9A45D24}
  9
$EXTNAMES
290
     1
  9
$PSVPSCALE
 40
0.0
  9
$OLESTARTUP
290
     0
  0
ENDSEC
  0
SECTION
  2
CLASSES
  0
CLASS
  1
ACDBDICTIONARYWDFLT
  2
AcDbDictionaryWithDefault
  3
ObjectDBX Classes
 90
        0
280
     0
281
     0
  0
CLASS
  1
ACDBPLACEHOLDER
  2
AcDbPlaceHolder
  3
ObjectDBX Classes
 90
        0
280
     0
281
     0
  0
CLASS
  1
LAYOUT
  2
AcDbLayout
  3
ObjectDBX Classes
 90
        0
280
     0
281
     0
  0
CLASS
  1
DICTIONARYVAR
  2
AcDbDictionaryVar
  3
ObjectDBX Classes
 90
        0
280
     0
281
     0
  0
CLASS
  1
MATERIAL
  2
AcDbMaterial
  3
ObjectDBX Classes
 90
     1153
280
     0
281
     0
  0
CLASS
  1
VISUALSTYLE
  2
AcDbVisualStyle
  3
ObjectDBX Classes
 90
     4095
280
     0
281
     0
  0
CLASS
  1
TABLESTYLE
  2
AcDbTableStyle
  3
ObjectDBX Classes
 90
     4095
280
     0
281
     0
  0
CLASS
  1
SCALE
  2
AcDbScale
  3
ObjectDBX Classes
 90
     1153
280
     0
281
     0
  0
CLASS
  1
MLEADERSTYLE
  2
AcDbMLeaderStyle
  3
ACDB_MLEADERSTYLE_CLASS
 90
     4095
280
     0
281
     0
  0
CLASS
  1
CELLSTYLEMAP
  2
AcDbCellStyleMap
  3
ObjectDBX Classes
 90
     1152
280
     0
281
     0
  0
CLASS
  1
SORTENTSTABLE
  2
AcDbSortentsTable
  3
ObjectDBX Classes
 90
        0
280
     0
281
     0
  0
ENDSEC
  0
SECTION
  2
TABLES
  0
TABLE
  2
VPORT
  5
8
102
{ACAD_XDICTIONARY
360
6755
102
}
330
0
100
AcDbSymbolTable
 70
     1
  0
VPORT
  5
6387
330
8
100
AcDbSymbolTableRecord
100
AcDbViewportTableRecord
  2
*Active
 70
     0
 10
0.0
 20
0.0
 11
1.0
 21
1.0
 12
682.6196844753575
 22
163.9937083891414
 13
0.0
 23
0.0
 14
10.0
 24
10.0
 15
10.0
 25
10.0
 16
0.0
 26
0.0
 36
1.0
 17
0.0
 27
0.0
 37
0.0
 40
451.0477068908785
 41
3.833333333333333
 42
50.0
 43
0.0
 44
0.0
 50
0.0
 51
0.0
 71
     0
 72
 20000
 73
     1
 74
     0
 75
     0
 76
     0
 77
     0
 78
     0
281
     0
 65
     1
110
0.0
120
0.0
130
0.0
111
1.0
121
0.0
131
0.0
112
0.0
122
1.0
132
0.0
 79
     0
146
0.0
1001
ACAD_NAV_VCDISPLAY
1070
     3
  0
ENDTAB
  0
TABLE
  2
LTYPE
  5
5
330
0
100
AcDbSymbolTable
 70
     4
  0
LTYPE
  5
14
330
5
100
AcDbSymbolTableRecord
100
AcDbLinetypeTableRecord
  2
ByBlock
 70
     0
  3

 72
    65
 73
     0
 40
0.0
  0
LTYPE
  5
15
330
5
100
AcDbSymbolTableRecord
100
AcDbLinetypeTableRecord
  2
ByLayer
 70
     0
  3

 72
    65
 73
     0
 40
0.0
  0
LTYPE
  5
16
330
5
100
AcDbSymbolTableRecord
100
AcDbLinetypeTableRecord
  2
Continuous
 70
     0
  3
Solid line
 72
    65
 73
     0
 40
0.0
  0
LTYPE
  5
260
330
5
100
AcDbSymbolTableRecord
100
AcDbLinetypeTableRecord
  2
ACAD_ISO10W100
 70
     0
  3
ISO dash dot __ . __ . __ . __ . __ . __ . __ .
 72
    65
 73
     4
 40
18.0
 49
12.0
 74
     0
 49
-3.0
 74
     0
 49
0.0
 74
     0
 49
-3.0
 74
     0
  0
LTYPE
  5
2205
330
5
100
AcDbSymbolTableRecord
100
AcDbLinetypeTableRecord
  2
ACAD_ISO03W100
 70
     0
  3
ISO dash space __    __    __    __    __    __
 72
    65
 73
     2
 40
30.0
 49
12.0
 74
     0
 49
-18.0
 74
     0
  0
ENDTAB
  0
TABLE
  2
LAYER
  5
2
102
{ACAD_XDICTIONARY
360
322F
102
}
330
0
100
AcDbSymbolTable
 70
    10
  0
LAYER
  5
10
102
{ACAD_XDICTIONARY
360
6CEC
102
}
330
2
100
AcDbSymbolTableRecord
100
AcDbLayerTableRecord
  2
0
 70
     0
 62
     9
  6
Continuous
290
     0
370
    -3
390
F
  0
LAYER
  5
35
102
{ACAD_XDICTIONARY
360
6CEE
102
}
330
2
100
AcDbSymbolTableRecord
100
AcDbLayerTableRecord
  2
図面枠
 70
     0
 62
     5
  6
Continuous
370
    20
390
F
  0
LAYER
  5
37
102
{ACAD_XDICTIONARY
360
6CF2
102
}
330
2
100
AcDbSymbolTableRecord
100
AcDbLayerTableRecord
  2
寸法線
 70
     0
 62
    20
  6
Continuous
370
    13
390
F
  0
LAYER
  5
38
102
{ACAD_XDICTIONARY
360
6CF4
102
}
330
2
100
AcDbSymbolTableRecord
100
AcDbLayerTableRecord
  2
破線
 70
     0
 62
   221
  6
ACAD_ISO03W100
370
     5
390
F
  0
LAYER
  5
261
102
{ACAD_XDICTIONARY
360
6CF6
102
}
330
2
100
AcDbSymbolTableRecord
100
AcDbLayerTableRecord
  2
実線  太
 70
     0
 62
     7
  6
Continuous
370
    18
390
F
  0
LAYER
  5
262
102
{ACAD_XDICTIONARY
360
6CF8
102
}
330
2
100
AcDbSymbolTableRecord
100
AcDbLayerTableRecord
  2
通り芯
 70
     0
 62
    70
  6
ACAD_ISO10W100
370
     9
390
F
  0
LAYER
  5
263
102
{ACAD_XDICTIONARY
360
6CFA
102
}
330
2
100
AcDbSymbolTableRecord
100
AcDbLayerTableRecord
  2
実線  細
 70
     0
 62
   141
  6
Continuous
370
     5
390
F
  0
LAYER
  5
491
330
2
100
AcDbSymbolTableRecord
100
AcDbLayerTableRecord
  2
Defpoints
 70
     0
 62
     7
  6
Continuous
290
     0
370
    -3
390
F
  0
LAYER
  5
FA1
102
{ACAD_XDICTIONARY
360
6CFC
102
}
330
2
100
AcDbSymbolTableRecord
100
AcDbLayerTableRecord
  2
HAFELE
 70
     0
 62
   240
  6
Continuous
370
     0
390
F
  0
LAYER
  5
7278
330
2
100
AcDbSymbolTableRecord
100
AcDbLayerTableRecord
  2
用紙枠
 70
     0
 62
   204
  6
Continuous
290
     0
370
    -3
390
F
  0
ENDTAB
  0
TABLE
  2
STYLE
  5
3
330
0
100
AcDbSymbolTable
 70
     5
  0
STYLE
  5
11
330
3
100
AcDbSymbolTableRecord
100
AcDbTextStyleTableRecord
  2
Standard
 70
     0
 40
0.0
 41
1.0
 50
0.0
 71
     0
 42
2.5
  3

  4

1001
ACAD
1000
MS PGothic
1071
    32818
  0
STYLE
  5
39
330
3
100
AcDbSymbolTableRecord
100
AcDbTextStyleTableRecord
  2
CITYBLUEPRINT
 70
     0
 40
4.0
 41
1.5
 50
0.0
 71
     0
 42
4.0
  3
cityb___.ttf
  4

1001
ACAD
1000
CityBlueprint
1071
      514
  0
STYLE
  5
D18
330
3
100
AcDbSymbolTableRecord
100
AcDbTextStyleTableRecord
  2
STD
 70
     0
 40
0.0
 41
1.0
 50
0.0
 71
     0
 42
0.0
  3
txt
  4

  0
STYLE
  5
1880
330
3
100
AcDbSymbolTableRecord
100
AcDbTextStyleTableRecord
  2

 70
     1
 40
0.0
 41
1.0
 50
0.0
 71
     0
 42
2.5
  3
ltypeshp.shx
  4

  0
ENDTAB
  0
TABLE
  2
VIEW
  5
6
330
0
100
AcDbSymbolTable
 70
     0
  0
ENDTAB
  0
TABLE
  2
UCS
  5
7
330
0
100
AcDbSymbolTable
 70
     0
  0
ENDTAB
  0
TABLE
  2
APPID
  5
9
330
0
100
AcDbSymbolTable
 70
     7
  0
APPID
  5
12
330
9
100
AcDbSymbolTableRecord
100
AcDbRegAppTableRecord
  2
ACAD
 70
     0
  0
APPID
  5
63D9
330
9
100
AcDbSymbolTableRecord
100
AcDbRegAppTableRecord
  2
ACAD_NAV_VCDISPLAY
 70
     0
  0
APPID
  5
6654
330
9
100
AcDbSymbolTableRecord
100
AcDbRegAppTableRecord
  2
ACAD_EXEMPT_FROM_CAD_STANDARDS
 70
     0
  0
APPID
  5
679B
330
9
100
AcDbSymbolTableRecord
100
AcDbRegAppTableRecord
  2
ACAD_MLEADERVER
 70
     0
  0
APPID
  5
6A67
330
9
100
AcDbSymbolTableRecord
100
AcDbRegAppTableRecord
  2
ACAD_DSTYLE_DIMJAG
 70
     0
  0
APPID
  5
6A68
330
9
100
AcDbSymbolTableRecord
100
AcDbRegAppTableRecord
  2
ACAD_DSTYLE_DIMBREAK
 70
     0
  0
APPID
  5
6A69
330
9
100
AcDbSymbolTableRecord
100
AcDbRegAppTableRecord
  2
ACAD_DSTYLE_DIMTALN
 70
     0
  0
ENDTAB
  0
TABLE
  2
DIMSTYLE
  5
A
330
0
100
AcDbSymbolTable
 70
     3
100
AcDbDimStyleTable
 71
     2
340
6B53
340
27
  0
DIMSTYLE
105
27
102
{ACAD_REACTORS
330
7C9D
330
7C9E
330
7C9F
330
7CA0
330
7CA1
330
7CA2
330
7CA3
330
7CA4
330
7CA5
330
7CA6
102
}
330
A
100
AcDbSymbolTableRecord
100
AcDbDimStyleTableRecord
  2
ISO-25
 70
     0
 41
3.9
 42
2.1
 43
0.0
 44
0.0
 73
     0
 74
     0
 77
     1
 78
     9
140
2.5
141
2.5
143
0.03937007874016
147
0.9
171
     3
172
     1
178
     7
271
     1
272
     1
274
     3
283
     0
284
     8
340
11
342
2B
  0
DIMSTYLE
105
6B53
330
A
100
AcDbSymbolTableRecord
100
AcDbDimStyleTableRecord
  2
ISO-25 A4_05
 70
     0
 40
5.0
 41
3.9
 42
2.1
 43
0.0
 44
0.0
 73
     0
 74
     0
 77
     1
 78
     9
140
2.5
141
2.5
143
0.03937007874016
147
0.9
171
     3
172
     1
178
     7
271
     1
272
     1
274
     3
283
     0
284
     8
340
11
342
2B
1001
ACAD_DSTYLE_DIMBREAK
1070
   391
1040
3.75
1001
ACAD_DSTYLE_DIMJAG
1070
   388
1040
1.5
1001
ACAD_DSTYLE_DIMTALN
1070
   392
1070
     0
  0
ENDTAB
  0
TABLE
  2
BLOCK_RECORD
  5
1
330
0
100
AcDbSymbolTable
 70
    47
  0
BLOCK_RECORD
  5
1F
102
{ACAD_XDICTIONARY
360
6430
102
}
330
1
100
AcDbSymbolTableRecord
100
AcDbBlockTableRecord
  2
*Model_Space
340
22
  0
BLOCK_RECORD
  5
23
330
1
100
AcDbSymbolTableRecord
100
AcDbBlockTableRecord
  2
*Paper_Space
340
26
  0
BLOCK_RECORD
  5
1B
330
1
100
AcDbSymbolTableRecord
100
AcDbBlockTableRecord
  2
*Paper_Space0
340
1E
  0
BLOCK_RECORD
  5
2B
330
1
100
AcDbSymbolTableRecord
100
AcDbBlockTableRecord
  2
_DotSmall
340
0
102
{BLKREFS
331
7205
331
7206
331
7211
331
7212
331
721D
331
721E
331
7229
331
722A
331
7235
331
7236
331
7241
331
7242
331
724D
331
724E
331
7259
331
725A
331
7265
331
7266
331
7271
331
7272
331
7D90
331
7D91
331
7D99
331
7D9A
331
7DA2
331
7DA3
331
7DAB
331
7DAC
331
7DB4
331
7DB5
331
7DBD
331
7DBE
331
7DC6
331
7DC7
331
7DCF
331
7DD0
331
7DD8
331
7DD9
331
7DE1
331
7DE2
331
7DEA
331
7DEB
331
7DF3
331
7DF4
331
7DFC
331
7DFD
331
7E05
331
7E06
331
7E0E
331
7E0F
331
78A0
331
78A1
331
78AC
331
78AD
331
78B8
331
78B9
331
78C4
331
78C5
331
78D0
331
78D1
331
78DC
331
78DD
331
78E8
331
78E9
331
78F4
331
78F5
331
7900
331
7901
331
790C
331
790D
331
7E17
331
7E18
331
7E20
331
7E21
331
7E29
331
7E2A
331
7E32
331
7E33
331
7E3B
331
7E3C
102
}
  0
BLOCK_RECORD
  5
2F
330
1
100
AcDbSymbolTableRecord
100
AcDbBlockTableRecord
  2
DOT
340
0
310
2800000020000000200000000100080000000000000400000000000000000000000000000000000000000000000080000080000000808000800000008000800080800000C0C0C000C0DCC000F0CAA6000020400000206000002080000020A0000020C0000020E00000400000004020000040400000406000004080000040A0
310
000040C0000040E00000600000006020000060400000606000006080000060A0000060C0000060E00000800000008020000080400000806000008080000080A0000080C0000080E00000A0000000A0200000A0400000A0600000A0800000A0A00000A0C00000A0E00000C0000000C0200000C0400000C0600000C0800000C0
310
A00000C0C00000C0E00000E0000000E0200000E0400000E0600000E0800000E0A00000E0C00000E0E00040000000400020004000400040006000400080004000A0004000C0004000E00040200000402020004020400040206000402080004020A0004020C0004020E000404000004040200040404000404060004040800040
310
40A0004040C0004040E00040600000406020004060400040606000406080004060A0004060C0004060E00040800000408020004080400040806000408080004080A0004080C0004080E00040A0000040A0200040A0400040A0600040A0800040A0A00040A0C00040A0E00040C0000040C0200040C0400040C0600040C08000
310
40C0A00040C0C00040C0E00040E0000040E0200040E0400040E0600040E0800040E0A00040E0C00040E0E00080000000800020008000400080006000800080008000A0008000C0008000E00080200000802020008020400080206000802080008020A0008020C0008020E00080400000804020008040400080406000804080
310
008040A0008040C0008040E00080600000806020008060400080606000806080008060A0008060C0008060E00080800000808020008080400080806000808080008080A0008080C0008080E00080A0000080A0200080A0400080A0600080A0800080A0A00080A0C00080A0E00080C0000080C0200080C0400080C0600080C0
310
800080C0A00080C0C00080C0E00080E0000080E0200080E0400080E0600080E0800080E0A00080E0C00080E0E000C0000000C0002000C0004000C0006000C0008000C000A000C000C000C000E000C0200000C0202000C0204000C0206000C0208000C020A000C020C000C020E000C0400000C0402000C0404000C0406000C0
310
408000C040A000C040C000C040E000C0600000C0602000C0604000C0606000C0608000C060A000C060C000C060E000C0800000C0802000C0804000C0806000C0808000C080A000C080C000C080E000C0A00000C0A02000C0A04000C0A06000C0A08000C0A0A000C0A0C000C0A0E000C0C00000C0C02000C0C04000C0C06000
310
C0C08000C0C0A000F0FBFF00A4A0A000808080000000FF0000FF000000FFFF00FF000000FF00FF00FFFF0000FFFFFF00FFFFFFFFFFFFFFFFFFFFFFFFFFFFFFFFFFFFFFFFFFFFFFFFFFFFFFFFFFFFFFFFFFFFFFFFFFFFFFFFFFFFFFFFFFFFFFFFFFFFFFFFFFFFFFFFFFFFFFFFFFFFFFFFFFFFFFFFFFFFFFFFFFFFFFFFFFFFFF
310
FFFFFFFFFFFFFFFFFF00FFFFFFFFFFFFFFFFFFFFFFFFFFFFFFFFFFFFFFFFFFFFFFFFFFFFFFFFFFFF000000FFFFFFFFFFFFFFFFFFFFFFFFFFFFFFFFFFFFFFFFFFFFFFFFFFFFFFFF00FF00FF00FFFFFFFFFFFFFFFFFFFFFFFFFFFFFFFFFFFFFFFFFFFFFFFFFFFF00FFFF00FFFF00FFFFFFFFFFFFFFFFFFFFFFFFFFFFFFFFFFFF
310
FFFFFFFFFFFF00FFFFFF00FFFFFF00FFFFFFFFFFFFFFFFFFFFFFFFFFFFFFFFFFFFFFFFFFFF00FFFFFFFF00FFFFFFFF00FFFFFFFFFFFFFFFFFFFFFFFFFFFFFFFFFFFFFFFF00FFFFFFFFFF00FFFFFFFFFF00FFFFFFFFFFFFFFFFFFFFFFFFFFFFFFFFFFFF00FFFFFFFFFFFF00FFFFFFFFFFFF00FFFFFFFFFFFFFFFFFFFFFFFFFF
310
FFFFFF00FFFFFFFFFFFFFF00FFFFFFFFFFFFFFFFFFFFFFFFFFFFFFFFFFFFFFFFFFFF00FFFFFFFFFFFFFFFF00FFFFFFFFFFFFFFFFFFFFFFFFFFFFFFFFFFFFFFFFFF00FFFFFFFFFFFFFFFFFF00FFFFFFFFFFFFFFFFFFFFFFFFFFFFFFFFFFFFFFFF00FFFFFFFFFFFFFFFFFFFF00FFFFFFFFFFFFFFFFFFFFFFFFFFFFFFFFFFFFFF
310
00FFFFFFFFFFFFFFFFFFFF000000FFFFFFFFFFFFFFFFFFFFFFFFFFFFFFFFFF00FFFFFFFFFFFFFFFFFFFF00000000000000000000FF0000000000000000000000000000000000000000000000000000FFFFFFFFFFFFFFFFFFFFFFFFFFFFFFFF00FFFFFFFFFFFFFFFFFFFFFF000000FFFFFFFFFFFFFFFFFFFFFFFFFFFFFFFFFF
310
FF00FFFFFFFFFFFFFFFFFFFFFF00FFFFFFFFFFFFFFFFFFFFFFFFFFFFFFFFFFFFFFFF00FFFFFFFFFFFFFFFFFFFF00FFFFFFFFFFFFFFFFFFFFFFFFFFFFFFFFFFFFFFFFFF00FFFFFFFFFFFFFFFFFF00FFFFFFFFFFFFFFFFFFFFFFFFFFFFFFFFFFFFFFFFFFFF00FFFFFFFFFFFFFFFF00FFFFFFFFFFFFFFFFFFFFFFFFFFFFFFFFFF
310
FFFFFFFFFFFF0000FFFFFFFFFFFF00FFFFFFFFFFFF00FFFFFFFFFFFFFFFFFFFFFFFFFFFFFFFFFFFF00FFFFFFFFFF00FFFFFFFFFF00FFFFFFFFFFFFFFFFFFFFFFFFFFFFFFFFFFFFFFFF00FFFFFFFF00FFFFFFFF00FFFFFFFFFFFFFFFFFFFFFFFFFFFFFFFFFFFFFFFFFFFF00FFFFFF00FFFFFF00FFFFFFFFFFFFFFFFFFFFFFFF
310
FFFFFFFFFFFFFFFFFFFFFFFF00FFFF00FFFF00FFFFFFFFFFFFFFFFFFFFFFFFFFFFFFFFFFFFFFFFFFFFFFFFFFFF00FF00FF00FFFFFFFFFFFFFFFFFFFFFFFFFFFFFFFFFFFFFFFFFFFFFFFFFFFFFFFF000000FFFFFFFFFFFFFFFFFFFFFFFFFFFFFFFFFFFFFFFFFFFFFFFFFFFFFFFFFFFF00FFFFFFFFFFFFFFFFFFFFFFFFFFFFFF
310
FFFFFFFFFFFFFFFFFFFFFFFFFFFFFFFFFFFFFFFFFFFFFFFFFFFFFFFFFFFFFFFFFFFFFFFFFFFFFFFFFFFFFFFFFFFFFFFFFFFFFFFFFFFFFFFF
  0
BLOCK_RECORD
  5
7200
330
1
100
AcDbSymbolTableRecord
100
AcDbBlockTableRecord
  2
*D3
340
0
  0
BLOCK_RECORD
  5
720C
330
1
100
AcDbSymbolTableRecord
100
AcDbBlockTableRecord
  2
*D4
340
0
  0
BLOCK_RECORD
  5
7218
330
1
100
AcDbSymbolTableRecord
100
AcDbBlockTableRecord
  2
*D5
340
0
  0
BLOCK_RECORD
  5
7224
330
1
100
AcDbSymbolTableRecord
100
AcDbBlockTableRecord
  2
*D6
340
0
  0
BLOCK_RECORD
  5
7230
330
1
100
AcDbSymbolTableRecord
100
AcDbBlockTableRecord
  2
*D7
340
0
  0
BLOCK_RECORD
  5
723C
330
1
100
AcDbSymbolTableRecord
100
AcDbBlockTableRecord
  2
*D8
340
0
  0
BLOCK_RECORD
  5
7248
330
1
100
AcDbSymbolTableRecord
100
AcDbBlockTableRecord
  2
*D9
340
0
  0
BLOCK_RECORD
  5
7254
330
1
100
AcDbSymbolTableRecord
100
AcDbBlockTableRecord
  2
*D10
340
0
  0
BLOCK_RECORD
  5
7260
330
1
100
AcDbSymbolTableRecord
100
AcDbBlockTableRecord
  2
*D11
340
0
  0
BLOCK_RECORD
  5
726C
330
1
100
AcDbSymbolTableRecord
100
AcDbBlockTableRecord
  2
*D12
340
0
  0
BLOCK_RECORD
  5
77C9
330
1
100
AcDbSymbolTableRecord
100
AcDbBlockTableRecord
  2
*D14
340
0
  0
BLOCK_RECORD
  5
77D5
330
1
100
AcDbSymbolTableRecord
100
AcDbBlockTableRecord
  2
*D15
340
0
  0
BLOCK_RECORD
  5
77E1
330
1
100
AcDbSymbolTableRecord
100
AcDbBlockTableRecord
  2
*D16
340
0
  0
BLOCK_RECORD
  5
77ED
330
1
100
AcDbSymbolTableRecord
100
AcDbBlockTableRecord
  2
*D17
340
0
  0
BLOCK_RECORD
  5
77F9
330
1
100
AcDbSymbolTableRecord
100
AcDbBlockTableRecord
  2
*D18
340
0
  0
BLOCK_RECORD
  5
7805
330
1
100
AcDbSymbolTableRecord
100
AcDbBlockTableRecord
  2
*D19
340
0
  0
BLOCK_RECORD
  5
7811
330
1
100
AcDbSymbolTableRecord
100
AcDbBlockTableRecord
  2
*D20
340
0
  0
BLOCK_RECORD
  5
781D
330
1
100
AcDbSymbolTableRecord
100
AcDbBlockTableRecord
  2
*D21
340
0
  0
BLOCK_RECORD
  5
7829
330
1
100
AcDbSymbolTableRecord
100
AcDbBlockTableRecord
  2
*D22
340
0
  0
BLOCK_RECORD
  5
7835
330
1
100
AcDbSymbolTableRecord
100
AcDbBlockTableRecord
  2
*D23
340
0
  0
BLOCK_RECORD
  5
789B
330
1
100
AcDbSymbolTableRecord
100
AcDbBlockTableRecord
  2
*D24
340
0
  0
BLOCK_RECORD
  5
78A7
330
1
100
AcDbSymbolTableRecord
100
AcDbBlockTableRecord
  2
*D25
340
0
  0
BLOCK_RECORD
  5
78B3
330
1
100
AcDbSymbolTableRecord
100
AcDbBlockTableRecord
  2
*D26
340
0
  0
BLOCK_RECORD
  5
78BF
330
1
100
AcDbSymbolTableRecord
100
AcDbBlockTableRecord
  2
*D27
340
0
  0
BLOCK_RECORD
  5
78CB
330
1
100
AcDbSymbolTableRecord
100
AcDbBlockTableRecord
  2
*D28
340
0
  0
BLOCK_RECORD
  5
78D7
330
1
100
AcDbSymbolTableRecord
100
AcDbBlockTableRecord
  2
*D29
340
0
  0
BLOCK_RECORD
  5
78E3
330
1
100
AcDbSymbolTableRecord
100
AcDbBlockTableRecord
  2
*D30
340
0
  0
BLOCK_RECORD
  5
78EF
330
1
100
AcDbSymbolTableRecord
100
AcDbBlockTableRecord
  2
*D31
340
0
  0
BLOCK_RECORD
  5
78FB
330
1
100
AcDbSymbolTableRecord
100
AcDbBlockTableRecord
  2
*D32
340
0
  0
BLOCK_RECORD
  5
7907
330
1
100
AcDbSymbolTableRecord
100
AcDbBlockTableRecord
  2
*D33
340
0
  0
BLOCK_RECORD
  5
7CBB
330
1
100
AcDbSymbolTableRecord
100
AcDbBlockTableRecord
  2
*D35
340
0
  0
BLOCK_RECORD
  5
7CC7
330
1
100
AcDbSymbolTableRecord
100
AcDbBlockTableRecord
  2
*D36
340
0
  0
BLOCK_RECORD
  5
7CD3
330
1
100
AcDbSymbolTableRecord
100
AcDbBlockTableRecord
  2
*D37
340
0
  0
BLOCK_RECORD
  5
7CDF
330
1
100
AcDbSymbolTableRecord
100
AcDbBlockTableRecord
  2
*D38
340
0
  0
BLOCK_RECORD
  5
7CEB
330
1
100
AcDbSymbolTableRecord
100
AcDbBlockTableRecord
  2
*D39
340
0
  0
BLOCK_RECORD
  5
7CF7
330
1
100
AcDbSymbolTableRecord
100
AcDbBlockTableRecord
  2
*D40
340
0
  0
BLOCK_RECORD
  5
7D03
330
1
100
AcDbSymbolTableRecord
100
AcDbBlockTableRecord
  2
*D41
340
0
  0
BLOCK_RECORD
  5
7D0F
330
1
100
AcDbSymbolTableRecord
100
AcDbBlockTableRecord
  2
*D42
340
0
  0
BLOCK_RECORD
  5
7D1B
330
1
100
AcDbSymbolTableRecord
100
AcDbBlockTableRecord
  2
*D43
340
0
  0
BLOCK_RECORD
  5
7D27
330
1
100
AcDbSymbolTableRecord
100
AcDbBlockTableRecord
  2
*D44
340
0
  0
ENDTAB
  0
ENDSEC
  0
SECTION
  2
BLOCKS
  0
BLOCK
  5
20
330
1F
100
AcDbEntity
  8
0
100
AcDbBlockBegin
  2
*Model_Space
 70
     0
 10
0.0
 20
0.0
 30
0.0
  3
*Model_Space
  1

  0
ENDBLK
  5
21
330
1F
100
AcDbEntity
  8
0
100
AcDbBlockEnd
  0
BLOCK
  5
24
330
23
100
AcDbEntity
 67
     1
  8
0
100
AcDbBlockBegin
  2
*Paper_Space
 70
     0
 10
0.0
 20
0.0
 30
0.0
  3
*Paper_Space
  1

  0
ENDBLK
  5
25
330
23
100
AcDbEntity
 67
     1
  8
0
100
AcDbBlockEnd
  0
BLOCK
  5
1C
330
1B
100
AcDbEntity
 67
     1
  8
0
100
AcDbBlockBegin
  2
*Paper_Space0
 70
     0
 10
0.0
 20
0.0
 30
0.0
  3
*Paper_Space0
  1

  0
VIEWPORT
  5
2835
102
{ACAD_XDICTIONARY
360
7EC7
102
}
330
1B
100
AcDbEntity
 67
     1
  8
0
100
AcDbViewport
 10
145.0671538148211
 20
105.2792470596998
 30
0.0
 40
255.4768232678978
 41
146.5118883694624
 68
     0
 69
     0
 12
145.0671538148211
 22
105.2792470596998
 13
0.0
 23
0.0
 14
10.0
 24
10.0
 15
10.0
 25
10.0
 16
0.0
 26
0.0
 36
1.0
 17
0.0
 27
0.0
 37
0.0
 42
50.0
 43
0.0
 44
0.0
 45
146.5118883694624
 50
0.0
 51
0.0
 72
 20000
 90
    32800
  1

281
     0
 71
     1
 74
     0
110
0.0
120
0.0
130
0.0
111
1.0
121
0.0
131
0.0
112
0.0
122
1.0
132
0.0
 79
     0
146
0.0
  0
VIEWPORT
  5
2837
102
{ACAD_XDICTIONARY
360
7EC9
102
}
330
1B
100
AcDbEntity
 67
     1
  8
実線  太
100
AcDbViewport
 10
144.2296578884125
 20
100.7533361911773
 30
0.0
 40
230.7674526214599
 41
161.2053379058837
 68
     0
 69
     0
 12
144.2273710473552
 22
92.63739313986013
 13
0.0
 23
0.0
 14
10.0
 24
10.0
 15
10.0
 25
10.0
 16
0.0
 26
0.0
 36
1.0
 17
0.0
 27
0.0
 37
0.0
 42
50.0
 43
0.0
 44
0.0
 45
237.262888478563
 50
0.0
 51
0.0
 72
 20000
 90
    32768
  1

281
     0
 71
     1
 74
     0
110
0.0
120
0.0
130
0.0
111
1.0
121
0.0
131
0.0
112
0.0
122
1.0
132
0.0
 79
     0
146
0.0
  0
ENDBLK
  5
1D
330
1B
100
AcDbEntity
 67
     1
  8
0
100
AcDbBlockEnd
  0
BLOCK
  5
2D
330
2B
100
AcDbEntity
  8
0
370
    18
100
AcDbBlockBegin
  2
_DotSmall
 70
     0
 10
0.0
 20
0.0
 30
0.0
  3
_DotSmall
  1

  0
LWPOLYLINE
  5
2C
330
2B
100
AcDbEntity
  8
0
 62
     0
370
    18
100
AcDbPolyline
 90
        2
 70
     1
 43
0.5
 10
-0.0625
 20
0.0
 42
1.0
 10
0.0625
 20
0.0
 42
1.0
  0
ENDBLK
  5
2E
330
2B
100
AcDbEntity
  8
0
370
    18
100
AcDbBlockEnd
  0
BLOCK
  5
32
330
2F
100
AcDbEntity
  8
0
100
AcDbBlockBegin
  2
DOT
 70
     0
 10
0.0
 20
0.0
 30
0.0
  3
DOT
  1

  0
LWPOLYLINE
  5
30
330
2F
100
AcDbEntity
  8
破線
  6
ByBlock
 62
     0
100
AcDbPolyline
 90
        2
 70
     1
 43
0.5
 10
-0.25
 20
0.0
 42
1.0
 10
0.25
 20
0.0
 42
1.0
  0
LINE
  5
31
330
2F
100
AcDbEntity
  8
破線
  6
ByBlock
 62
     0
100
AcDbLine
 10
-0.5
 20
0.0
 30
0.0
 11
-1.0
 21
0.0
 31
0.0
  0
ENDBLK
  5
33
330
2F
100
AcDbEntity
  8
0
100
AcDbBlockEnd
  0
BLOCK
  5
7201
330
7200
100
AcDbEntity
  8
0
 48
0.1
100
AcDbBlockBegin
  2
*D3
 70
     1
 10
0.0
 20
0.0
 30
0.0
  3
*D3
  1

  0
LINE
  5
7202
330
7200
100
AcDbEntity
  8
寸法線
 62
     0
 48
0.1
370
    -2
100
AcDbLine
 10
264.1463173413858
 20
798.4356004560128
 30
0.0
 11
264.1463173413858
 21
863.9356004560127
 31
0.0
  0
LINE
  5
7203
330
7200
100
AcDbEntity
  8
寸法線
 62
     0
 48
0.1
370
    -2
100
AcDbLine
 10
679.1463173413858
 20
798.4356004560128
 30
0.0
 11
679.1463173413858
 21
863.9356004560127
 31
0.0
  0
LINE
  5
7204
330
7200
100
AcDbEntity
  8
寸法線
 62
     0
 48
0.1
370
    -2
100
AcDbLine
 10
264.1463173413858
 20
863.9356004560127
 30
0.0
 11
679.1463173413858
 21
863.9356004560127
 31
0.0
  0
INSERT
  5
7205
330
7200
100
AcDbEntity
  8
寸法線
 62
     0
 48
0.1
370
    -2
100
AcDbBlockReference
  2
_DotSmall
 10
264.1463173413858
 20
863.9356004560127
 30
0.0
 41
19.5
 42
19.5
 43
19.5
 50
180.0
  0
INSERT
  5
7206
330
7200
100
AcDbEntity
  8
寸法線
 62
     0
 48
0.1
370
    -2
100
AcDbBlockReference
  2
_DotSmall
 10
679.1463173413858
 20
863.9356004560127
 30
0.0
 41
19.5
 42
19.5
 43
19.5
  0
MTEXT
  5
7207
330
7200
100
AcDbEntity
  8
寸法線
 62
     7
 48
0.1
100
AcDbMText
 10
471.6463173413858
 20
874.6856004560127
 30
0.0
 40
12.5
 41
0.0
 71
     5
 72
     1
  1
415
 73
     1
 44
1.0
1001
ACAD
1000
MTEXTBEGIN
1070
    73
1070
     1
1070
    44
1040
1.0
1070
    74
1070
     0
1000
MTEXTEND
  0
POINT
  5
7208
330
7200
100
AcDbEntity
  8
Defpoints
 62
     0
 48
0.1
100
AcDbPoint
 10
264.1463173413858
 20
787.9356004560128
 30
0.0
  0
POINT
  5
7209
330
7200
100
AcDbEntity
  8
Defpoints
 62
     0
 48
0.1
100
AcDbPoint
 10
679.1463173413858
 20
787.9356004560128
 30
0.0
  0
POINT
  5
720A
330
7200
100
AcDbEntity
  8
Defpoints
 62
     0
 48
0.1
100
AcDbPoint
 10
679.1463173413858
 20
863.9356004560127
 30
0.0
  0
ENDBLK
  5
720B
330
7200
100
AcDbEntity
  8
0
 48
0.1
100
AcDbBlockEnd
  0
BLOCK
  5
720D
330
720C
100
AcDbEntity
  8
0
 48
0.1
100
AcDbBlockBegin
  2
*D4
 70
     1
 10
0.0
 20
0.0
 30
0.0
  3
*D4
  1

  0
LINE
  5
720E
330
720C
100
AcDbEntity
  8
寸法線
 62
     0
 48
0.1
370
    -2
100
AcDbLine
 10
243.6463173413859
 20
781.4356004560129
 30
0.0
 11
184.1463173413857
 21
781.4356004560129
 31
0.0
  0
LINE
  5
720F
330
720C
100
AcDbEntity
  8
寸法線
 62
     0
 48
0.1
370
    -2
100
AcDbLine
 10
243.6463173413859
 20
619.4356004560128
 30
0.0
 11
184.1463173413857
 21
619.4356004560128
 31
0.0
  0
LINE
  5
7210
330
720C
100
AcDbEntity
  8
寸法線
 62
     0
 48
0.1
370
    -2
100
AcDbLine
 10
184.1463173413857
 20
781.4356004560129
 30
0.0
 11
184.1463173413857
 21
619.4356004560128
 31
0.0
  0
INSERT
  5
7211
330
720C
100
AcDbEntity
  8
寸法線
 62
     0
 48
0.1
370
    -2
100
AcDbBlockReference
  2
_DotSmall
 10
184.1463173413857
 20
781.4356004560129
 30
0.0
 41
19.5
 42
19.5
 43
19.5
 50
90.0
  0
INSERT
  5
7212
330
720C
100
AcDbEntity
  8
寸法線
 62
     0
 48
0.1
370
    -2
100
AcDbBlockReference
  2
_DotSmall
 10
184.1463173413857
 20
619.4356004560128
 30
0.0
 41
19.5
 42
19.5
 43
19.5
 50
270.0
  0
MTEXT
  5
7213
330
720C
100
AcDbEntity
  8
寸法線
 62
     7
 48
0.1
100
AcDbMText
 10
173.3963173413856
 20
700.4356004560129
 30
0.0
 40
12.5
 41
0.0
 71
     5
 72
     1
  1
162
 11
0.0000000000000001
 21
1.0
 31
0.0
 73
     1
 44
1.0
1001
ACAD
1000
MTEXTBEGIN
1070
    73
1070
     1
1070
    44
1040
1.0
1070
    74
1070
     0
1000
MTEXTEND
  0
POINT
  5
7214
330
720C
100
AcDbEntity
  8
Defpoints
 62
     0
 48
0.1
100
AcDbPoint
 10
254.1463173413859
 20
781.4356004560129
 30
0.0
  0
POINT
  5
7215
330
720C
100
AcDbEntity
  8
Defpoints
 62
     0
 48
0.1
100
AcDbPoint
 10
254.1463173413859
 20
619.4356004560128
 30
0.0
  0
POINT
  5
7216
330
720C
100
AcDbEntity
  8
Defpoints
 62
     0
 48
0.1
100
AcDbPoint
 10
184.1463173413857
 20
619.4356004560128
 30
0.0
  0
ENDBLK
  5
7217
330
720C
100
AcDbEntity
  8
0
 48
0.1
100
AcDbBlockEnd
  0
BLOCK
  5
7219
330
7218
100
AcDbEntity
  8
0
 48
0.1
100
AcDbBlockBegin
  2
*D5
 70
     1
 10
0.0
 20
0.0
 30
0.0
  3
*D5
  1

  0
LINE
  5
721A
330
7218
100
AcDbEntity
  8
寸法線
 62
     0
 48
0.1
370
    -2
100
AcDbLine
 10
244.1463173413858
 20
618.9356004560128
 30
0.0
 11
244.1463173413858
 21
559.4356004560128
 31
0.0
  0
LINE
  5
721B
330
7218
100
AcDbEntity
  8
寸法線
 62
     0
 48
0.1
370
    -2
100
AcDbLine
 10
699.1463173413858
 20
618.9356004560128
 30
0.0
 11
699.1463173413858
 21
559.4356004560128
 31
0.0
  0
LINE
  5
721C
330
7218
100
AcDbEntity
  8
寸法線
 62
     0
 48
0.1
370
    -2
100
AcDbLine
 10
244.1463173413858
 20
559.4356004560128
 30
0.0
 11
699.1463173413858
 21
559.4356004560128
 31
0.0
  0
INSERT
  5
721D
330
7218
100
AcDbEntity
  8
寸法線
 62
     0
 48
0.1
370
    -2
100
AcDbBlockReference
  2
_DotSmall
 10
244.1463173413858
 20
559.4356004560128
 30
0.0
 41
19.5
 42
19.5
 43
19.5
 50
180.0
  0
INSERT
  5
721E
330
7218
100
AcDbEntity
  8
寸法線
 62
     0
 48
0.1
370
    -2
100
AcDbBlockReference
  2
_DotSmall
 10
699.1463173413858
 20
559.4356004560128
 30
0.0
 41
19.5
 42
19.5
 43
19.5
  0
MTEXT
  5
721F
330
7218
100
AcDbEntity
  8
寸法線
 62
     7
 48
0.1
100
AcDbMText
 10
471.6463173413858
 20
570.1856004560128
 30
0.0
 40
12.5
 41
0.0
 71
     5
 72
     1
  1
455
 73
     1
 44
1.0
1001
ACAD
1000
MTEXTBEGIN
1070
    73
1070
     1
1070
    44
1040
1.0
1070
    74
1070
     0
1000
MTEXTEND
  0
POINT
  5
7220
330
7218
100
AcDbEntity
  8
Defpoints
 62
     0
 48
0.1
100
AcDbPoint
 10
244.1463173413858
 20
629.4356004560128
 30
0.0
  0
POINT
  5
7221
330
7218
100
AcDbEntity
  8
Defpoints
 62
     0
 48
0.1
100
AcDbPoint
 10
699.1463173413858
 20
629.4356004560128
 30
0.0
  0
POINT
  5
7222
330
7218
100
AcDbEntity
  8
Defpoints
 62
     0
 48
0.1
100
AcDbPoint
 10
699.1463173413858
 20
559.4356004560128
 30
0.0
  0
ENDBLK
  5
7223
330
7218
100
AcDbEntity
  8
0
 48
0.1
100
AcDbBlockEnd
  0
BLOCK
  5
7225
330
7224
100
AcDbEntity
  8
0
 48
0.1
100
AcDbBlockBegin
  2
*D6
 70
     1
 10
0.0
 20
0.0
 30
0.0
  3
*D6
  1

  0
LINE
  5
7226
330
7224
100
AcDbEntity
  8
寸法線
 62
     0
 48
0.1
370
    -2
100
AcDbLine
 10
243.6463173413859
 20
781.4356004560128
 30
0.0
 11
184.1463173413858
 21
781.4356004560128
 31
0.0
  0
LINE
  5
7227
330
7224
100
AcDbEntity
  8
寸法線
 62
     0
 48
0.1
370
    -2
100
AcDbLine
 10
253.6463173413858
 20
803.9356004560129
 30
0.0
 11
184.1463173413858
 21
803.9356004560129
 31
0.0
  0
LINE
  5
7228
330
7224
100
AcDbEntity
  8
寸法線
 62
     0
 48
0.1
370
    -2
100
AcDbLine
 10
184.1463173413858
 20
781.4356004560128
 30
0.0
 11
184.1463173413858
 21
803.9356004560129
 31
0.0
  0
INSERT
  5
7229
330
7224
100
AcDbEntity
  8
寸法線
 62
     0
 48
0.1
370
    -2
100
AcDbBlockReference
  2
_DotSmall
 10
184.1463173413858
 20
781.4356004560128
 30
0.0
 41
19.5
 42
19.5
 43
19.5
 50
270.0
  0
INSERT
  5
722A
330
7224
100
AcDbEntity
  8
寸法線
 62
     0
 48
0.1
370
    -2
100
AcDbBlockReference
  2
_DotSmall
 10
184.1463173413858
 20
803.9356004560129
 30
0.0
 41
19.5
 42
19.5
 43
19.5
 50
90.0
  0
MTEXT
  5
722B
330
7224
100
AcDbEntity
  8
寸法線
 62
     7
 48
0.1
100
AcDbMText
 10
173.3963173413857
 20
792.6856004560129
 30
0.0
 40
12.5
 41
0.0
 71
     5
 72
     1
  1
22.5
 11
0.0000000000000001
 21
1.0
 31
0.0
 73
     1
 44
1.0
1001
ACAD
1000
MTEXTBEGIN
1070
    73
1070
     1
1070
    44
1040
1.0
1070
    74
1070
     0
1000
MTEXTEND
  0
POINT
  5
722C
330
7224
100
AcDbEntity
  8
Defpoints
 62
     0
 48
0.1
100
AcDbPoint
 10
254.1463173413859
 20
781.4356004560128
 30
0.0
  0
POINT
  5
722D
330
7224
100
AcDbEntity
  8
Defpoints
 62
     0
 48
0.1
100
AcDbPoint
 10
264.1463173413858
 20
803.9356004560127
 30
0.0
  0
POINT
  5
722E
330
7224
100
AcDbEntity
  8
Defpoints
 62
     0
 48
0.1
100
AcDbPoint
 10
184.1463173413858
 20
803.9356004560129
 30
0.0
  0
ENDBLK
  5
722F
330
7224
100
AcDbEntity
  8
0
 48
0.1
100
AcDbBlockEnd
  0
BLOCK
  5
7231
330
7230
100
AcDbEntity
  8
0
 48
0.1
100
AcDbBlockBegin
  2
*D7
 70
     1
 10
0.0
 20
0.0
 30
0.0
  3
*D7
  1

  0
LINE
  5
7232
330
7230
100
AcDbEntity
  8
寸法線
 62
     0
 48
0.1
370
    -2
100
AcDbLine
 10
280.6463173413858
 20
281.8499640731044
 30
0.0
 11
280.6463173413858
 21
334.3499640731044
 31
0.0
  0
LINE
  5
7233
330
7230
100
AcDbEntity
  8
寸法線
 62
     0
 48
0.1
370
    -2
100
AcDbLine
 10
662.6463173413858
 20
281.8499640731044
 30
0.0
 11
662.6463173413858
 21
334.3499640731044
 31
0.0
  0
LINE
  5
7234
330
7230
100
AcDbEntity
  8
寸法線
 62
     0
 48
0.1
370
    -2
100
AcDbLine
 10
280.6463173413858
 20
334.3499640731044
 30
0.0
 11
662.6463173413858
 21
334.3499640731044
 31
0.0
  0
INSERT
  5
7235
330
7230
100
AcDbEntity
  8
寸法線
 62
     0
 48
0.1
370
    -2
100
AcDbBlockReference
  2
_DotSmall
 10
280.6463173413858
 20
334.3499640731044
 30
0.0
 41
19.5
 42
19.5
 43
19.5
 50
180.0
  0
INSERT
  5
7236
330
7230
100
AcDbEntity
  8
寸法線
 62
     0
 48
0.1
370
    -2
100
AcDbBlockReference
  2
_DotSmall
 10
662.6463173413858
 20
334.3499640731044
 30
0.0
 41
19.5
 42
19.5
 43
19.5
  0
MTEXT
  5
7237
330
7230
100
AcDbEntity
  8
寸法線
 62
     7
 48
0.1
100
AcDbMText
 10
471.6463173413858
 20
345.0999640731044
 30
0.0
 40
12.5
 41
0.0
 71
     5
 72
     1
  1
382
 73
     1
 44
1.0
1001
ACAD
1000
MTEXTBEGIN
1070
    73
1070
     1
1070
    44
1040
1.0
1070
    74
1070
     0
1000
MTEXTEND
  0
POINT
  5
7238
330
7230
100
AcDbEntity
  8
Defpoints
 62
     0
 48
0.1
100
AcDbPoint
 10
280.6463173413858
 20
271.3499640731044
 30
0.0
  0
POINT
  5
7239
330
7230
100
AcDbEntity
  8
Defpoints
 62
     0
 48
0.1
100
AcDbPoint
 10
662.6463173413858
 20
271.3499640731044
 30
0.0
  0
POINT
  5
723A
330
7230
100
AcDbEntity
  8
Defpoints
 62
     0
 48
0.1
100
AcDbPoint
 10
662.6463173413858
 20
334.3499640731044
 30
0.0
  0
ENDBLK
  5
723B
330
7230
100
AcDbEntity
  8
0
 48
0.1
100
AcDbBlockEnd
  0
BLOCK
  5
723D
330
723C
100
AcDbEntity
  8
0
 48
0.1
100
AcDbBlockBegin
  2
*D8
 70
     1
 10
0.0
 20
0.0
 30
0.0
  3
*D8
  1

  0
LINE
  5
723E
330
723C
100
AcDbEntity
  8
寸法線
 62
     0
 48
0.1
370
    -2
100
AcDbLine
 10
246.6463153881741
 20
201.7722358951506
 30
0.0
 11
246.6463153881741
 21
145.7722358951506
 31
0.0
  0
LINE
  5
723F
330
723C
100
AcDbEntity
  8
寸法線
 62
     0
 48
0.1
370
    -2
100
AcDbLine
 10
696.6463192945975
 20
201.7722358951506
 30
0.0
 11
696.6463192945975
 21
145.7722358951506
 31
0.0
  0
LINE
  5
7240
330
723C
100
AcDbEntity
  8
寸法線
 62
     0
 48
0.1
370
    -2
100
AcDbLine
 10
246.6463153881741
 20
145.7722358951506
 30
0.0
 11
696.6463192945975
 21
145.7722358951506
 31
0.0
  0
INSERT
  5
7241
330
723C
100
AcDbEntity
  8
寸法線
 62
     0
 48
0.1
370
    -2
100
AcDbBlockReference
  2
_DotSmall
 10
246.6463153881741
 20
145.7722358951506
 30
0.0
 41
19.5
 42
19.5
 43
19.5
 50
180.0
  0
INSERT
  5
7242
330
723C
100
AcDbEntity
  8
寸法線
 62
     0
 48
0.1
370
    -2
100
AcDbBlockReference
  2
_DotSmall
 10
696.6463192945975
 20
145.7722358951506
 30
0.0
 41
19.5
 42
19.5
 43
19.5
  0
MTEXT
  5
7243
330
723C
100
AcDbEntity
  8
寸法線
 62
     7
 48
0.1
100
AcDbMText
 10
471.6463173413858
 20
156.5222358951506
 30
0.0
 40
12.5
 41
0.0
 71
     5
 72
     1
  1
450
 73
     1
 44
1.0
1001
ACAD
1000
MTEXTBEGIN
1070
    73
1070
     1
1070
    44
1040
1.0
1070
    74
1070
     0
1000
MTEXTEND
  0
POINT
  5
7244
330
723C
100
AcDbEntity
  8
Defpoints
 62
     0
 48
0.1
100
AcDbPoint
 10
246.6463153881741
 20
212.2722358951506
 30
0.0
  0
POINT
  5
7245
330
723C
100
AcDbEntity
  8
Defpoints
 62
     0
 48
0.1
100
AcDbPoint
 10
696.6463192945975
 20
212.2722358951506
 30
0.0
  0
POINT
  5
7246
330
723C
100
AcDbEntity
  8
Defpoints
 62
     0
 48
0.1
100
AcDbPoint
 10
696.6463192945975
 20
145.7722358951506
 30
0.0
  0
ENDBLK
  5
7247
330
723C
100
AcDbEntity
  8
0
 48
0.1
100
AcDbBlockEnd
  0
BLOCK
  5
7249
330
7248
100
AcDbEntity
  8
0
 48
0.1
100
AcDbBlockBegin
  2
*D9
 70
     1
 10
0.0
 20
0.0
 30
0.0
  3
*D9
  1

  0
LINE
  5
724A
330
7248
100
AcDbEntity
  8
寸法線
 62
     0
 48
0.1
370
    -2
100
AcDbLine
 10
253.6463173413858
 20
202.7722358951506
 30
0.0
 11
184.1463173413858
 21
202.7722358951506
 31
0.0
  0
LINE
  5
724B
330
7248
100
AcDbEntity
  8
寸法線
 62
     0
 48
0.1
370
    -2
100
AcDbLine
 10
273.1463173413859
 20
387.7722358951506
 30
0.0
 11
184.1463173413858
 21
387.7722358951506
 31
0.0
  0
LINE
  5
724C
330
7248
100
AcDbEntity
  8
寸法線
 62
     0
 48
0.1
370
    -2
100
AcDbLine
 10
184.1463173413858
 20
202.7722358951506
 30
0.0
 11
184.1463173413858
 21
387.7722358951506
 31
0.0
  0
INSERT
  5
724D
330
7248
100
AcDbEntity
  8
寸法線
 62
     0
 48
0.1
370
    -2
100
AcDbBlockReference
  2
_DotSmall
 10
184.1463173413858
 20
202.7722358951506
 30
0.0
 41
19.5
 42
19.5
 43
19.5
 50
270.0
  0
INSERT
  5
724E
330
7248
100
AcDbEntity
  8
寸法線
 62
     0
 48
0.1
370
    -2
100
AcDbBlockReference
  2
_DotSmall
 10
184.1463173413858
 20
387.7722358951506
 30
0.0
 41
19.5
 42
19.5
 43
19.5
 50
90.0
  0
MTEXT
  5
724F
330
7248
100
AcDbEntity
  8
寸法線
 62
     7
 48
0.1
100
AcDbMText
 10
173.3963173413858
 20
295.2722358951506
 30
0.0
 40
12.5
 41
0.0
 71
     5
 72
     1
  1
185
 11
0.0000000000000001
 21
1.0
 31
0.0
 73
     1
 44
1.0
1001
ACAD
1000
MTEXTBEGIN
1070
    73
1070
     1
1070
    44
1040
1.0
1070
    74
1070
     0
1000
MTEXTEND
  0
POINT
  5
7250
330
7248
100
AcDbEntity
  8
Defpoints
 62
     0
 48
0.1
100
AcDbPoint
 10
264.1463173413858
 20
202.7722358951506
 30
0.0
  0
POINT
  5
7251
330
7248
100
AcDbEntity
  8
Defpoints
 62
     0
 48
0.1
100
AcDbPoint
 10
283.6463173413859
 20
387.7722358951506
 30
0.0
  0
POINT
  5
7252
330
7248
100
AcDbEntity
  8
Defpoints
 62
     0
 48
0.1
100
AcDbPoint
 10
184.1463173413858
 20
387.7722358951506
 30
0.0
  0
ENDBLK
  5
7253
330
7248
100
AcDbEntity
  8
0
 48
0.1
100
AcDbBlockEnd
  0
BLOCK
  5
7255
330
7254
100
AcDbEntity
  8
0
 48
0.1
100
AcDbBlockBegin
  2
*D10
 70
     1
 10
0.0
 20
0.0
 30
0.0
  3
*D10
  1

  0
LINE
  5
7256
330
7254
100
AcDbEntity
  8
寸法線
 62
     0
 48
0.1
370
    -2
100
AcDbLine
 10
706.1463192945975
 20
211.2722358951506
 30
0.0
 11
756.6463192945975
 21
211.2722358951506
 31
0.0
  0
LINE
  5
7257
330
7254
100
AcDbEntity
  8
寸法線
 62
     0
 48
0.1
370
    -2
100
AcDbLine
 10
706.6463173413858
 20
246.2722358951506
 30
0.0
 11
756.6463192945975
 21
246.2722358951506
 31
0.0
  0
LINE
  5
7258
330
7254
100
AcDbEntity
  8
寸法線
 62
     0
 48
0.1
370
    -2
100
AcDbLine
 10
756.6463192945975
 20
211.2722358951506
 30
0.0
 11
756.6463192945975
 21
246.2722358951506
 31
0.0
  0
INSERT
  5
7259
330
7254
100
AcDbEntity
  8
寸法線
 62
     0
 48
0.1
370
    -2
100
AcDbBlockReference
  2
_DotSmall
 10
756.6463192945975
 20
211.2722358951506
 30
0.0
 41
19.5
 42
19.5
 43
19.5
 50
270.0
  0
INSERT
  5
725A
330
7254
100
AcDbEntity
  8
寸法線
 62
     0
 48
0.1
370
    -2
100
AcDbBlockReference
  2
_DotSmall
 10
756.6463192945975
 20
246.2722358951506
 30
0.0
 41
19.5
 42
19.5
 43
19.5
 50
90.0
  0
MTEXT
  5
725B
330
7254
100
AcDbEntity
  8
寸法線
 62
     7
 48
0.1
100
AcDbMText
 10
745.8963192945975
 20
228.7722358951507
 30
0.0
 40
12.5
 41
0.0
 71
     5
 72
     1
  1
35
 11
0.0000000000000001
 21
1.0
 31
0.0
 73
     1
 44
1.0
1001
ACAD
1000
MTEXTBEGIN
1070
    73
1070
     1
1070
    44
1040
1.0
1070
    74
1070
     0
1000
MTEXTEND
  0
POINT
  5
725C
330
7254
100
AcDbEntity
  8
Defpoints
 62
     0
 48
0.1
100
AcDbPoint
 10
695.6463192945975
 20
211.2722358951506
 30
0.0
  0
POINT
  5
725D
330
7254
100
AcDbEntity
  8
Defpoints
 62
     0
 48
0.1
100
AcDbPoint
 10
696.1463173413858
 20
246.2722358951506
 30
0.0
  0
POINT
  5
725E
330
7254
100
AcDbEntity
  8
Defpoints
 62
     0
 48
0.1
100
AcDbPoint
 10
756.6463192945975
 20
246.2722358951506
 30
0.0
  0
ENDBLK
  5
725F
330
7254
100
AcDbEntity
  8
0
 48
0.1
100
AcDbBlockEnd
  0
BLOCK
  5
7261
330
7260
100
AcDbEntity
  8
0
 48
0.1
100
AcDbBlockBegin
  2
*D11
 70
     1
 10
0.0
 20
0.0
 30
0.0
  3
*D11
  1

  0
LINE
  5
7262
330
7260
100
AcDbEntity
  8
寸法線
 62
     0
 48
0.1
370
    -2
100
AcDbLine
 10
957.6255994227894
 20
231.7722358951506
 30
0.0
 11
957.6255994227894
 21
145.7722358951506
 31
0.0
  0
LINE
  5
7263
330
7260
100
AcDbEntity
  8
寸法線
 62
     0
 48
0.1
370
    -2
100
AcDbLine
 10
1142.125599422789
 20
198.2722358951505
 30
0.0
 11
1142.125599422789
 21
145.7722358951506
 31
0.0
  0
LINE
  5
7264
330
7260
100
AcDbEntity
  8
寸法線
 62
     0
 48
0.1
370
    -2
100
AcDbLine
 10
957.6255994227894
 20
145.7722358951506
 30
0.0
 11
1142.125599422789
 21
145.7722358951506
 31
0.0
  0
INSERT
  5
7265
330
7260
100
AcDbEntity
  8
寸法線
 62
     0
 48
0.1
370
    -2
100
AcDbBlockReference
  2
_DotSmall
 10
957.6255994227894
 20
145.7722358951506
 30
0.0
 41
19.5
 42
19.5
 43
19.5
 50
180.0
  0
INSERT
  5
7266
330
7260
100
AcDbEntity
  8
寸法線
 62
     0
 48
0.1
370
    -2
100
AcDbBlockReference
  2
_DotSmall
 10
1142.125599422789
 20
145.7722358951506
 30
0.0
 41
19.5
 42
19.5
 43
19.5
  0
MTEXT
  5
7267
330
7260
100
AcDbEntity
  8
寸法線
 62
     7
 48
0.1
100
AcDbMText
 10
1049.875599422789
 20
156.5222358951506
 30
0.0
 40
12.5
 41
0.0
 71
     5
 72
     1
  1
184.5
 73
     1
 44
1.0
1001
ACAD
1000
MTEXTBEGIN
1070
    73
1070
     1
1070
    44
1040
1.0
1070
    74
1070
     0
1000
MTEXTEND
  0
POINT
  5
7268
330
7260
100
AcDbEntity
  8
Defpoints
 62
     0
 48
0.1
100
AcDbPoint
 10
957.6255994227894
 20
242.2722358951507
 30
0.0
  0
POINT
  5
7269
330
7260
100
AcDbEntity
  8
Defpoints
 62
     0
 48
0.1
100
AcDbPoint
 10
1142.125599422789
 20
208.7722358951505
 30
0.0
  0
POINT
  5
726A
330
7260
100
AcDbEntity
  8
Defpoints
 62
     0
 48
0.1
100
AcDbPoint
 10
1142.125599422789
 20
145.7722358951506
 30
0.0
  0
ENDBLK
  5
726B
330
7260
100
AcDbEntity
  8
0
 48
0.1
100
AcDbBlockEnd
  0
BLOCK
  5
726D
330
726C
100
AcDbEntity
  8
0
 48
0.1
100
AcDbBlockBegin
  2
*D12
 70
     1
 10
0.0
 20
0.0
 30
0.0
  3
*D12
  1

  0
LINE
  5
726E
330
726C
100
AcDbEntity
  8
寸法線
 62
     0
 48
0.1
370
    -2
100
AcDbLine
 10
1108.125599422789
 20
470.7722358951506
 30
0.0
 11
1202.125599422789
 21
470.7722358951506
 31
0.0
  0
LINE
  5
726F
330
726C
100
AcDbEntity
  8
寸法線
 62
     0
 48
0.1
370
    -2
100
AcDbLine
 10
1146.625599422789
 20
202.7722358951505
 30
0.0
 11
1202.125599422789
 21
202.7722358951505
 31
0.0
  0
LINE
  5
7270
330
726C
100
AcDbEntity
  8
寸法線
 62
     0
 48
0.1
370
    -2
100
AcDbLine
 10
1202.125599422789
 20
470.7722358951506
 30
0.0
 11
1202.125599422789
 21
202.7722358951505
 31
0.0
  0
INSERT
  5
7271
330
726C
100
AcDbEntity
  8
寸法線
 62
     0
 48
0.1
370
    -2
100
AcDbBlockReference
  2
_DotSmall
 10
1202.125599422789
 20
470.7722358951506
 30
0.0
 41
19.5
 42
19.5
 43
19.5
 50
90.0
  0
INSERT
  5
7272
330
726C
100
AcDbEntity
  8
寸法線
 62
     0
 48
0.1
370
    -2
100
AcDbBlockReference
  2
_DotSmall
 10
1202.125599422789
 20
202.7722358951505
 30
0.0
 41
19.5
 42
19.5
 43
19.5
 50
270.0
  0
MTEXT
  5
7273
330
726C
100
AcDbEntity
  8
寸法線
 62
     7
 48
0.1
100
AcDbMText
 10
1191.375599422789
 20
336.7722358951507
 30
0.0
 40
12.5
 41
0.0
 71
     5
 72
     1
  1
268
 11
0.0000000000000001
 21
1.0
 31
0.0
 73
     1
 44
1.0
1001
ACAD
1000
MTEXTBEGIN
1070
    73
1070
     1
1070
    44
1040
1.0
1070
    74
1070
     0
1000
MTEXTEND
  0
POINT
  5
7274
330
726C
100
AcDbEntity
  8
Defpoints
 62
     0
 48
0.1
100
AcDbPoint
 10
1097.625599422789
 20
470.7722358951506
 30
0.0
  0
POINT
  5
7275
330
726C
100
AcDbEntity
  8
Defpoints
 62
     0
 48
0.1
100
AcDbPoint
 10
1136.125599422789
 20
202.7722358951505
 30
0.0
  0
POINT
  5
7276
330
726C
100
AcDbEntity
  8
Defpoints
 62
     0
 48
0.1
100
AcDbPoint
 10
1202.125599422789
 20
202.7722358951505
 30
0.0
  0
ENDBLK
  5
7277
330
726C
100
AcDbEntity
  8
0
 48
0.1
100
AcDbBlockEnd
  0
BLOCK
  5
77CA
330
77C9
100
AcDbEntity
  8
0
100
AcDbBlockBegin
  2
*D14
 70
     1
 10
0.0
 20
0.0
 30
0.0
  3
*D14
  1

  0
LINE
  5
7E38
330
77C9
100
AcDbEntity
  8
寸法線
 62
     0
 48
0.1
370
    -2
100
AcDbLine
 10
1945.526255395313
 20
755.2957206150883
 30
0.0
 11
1945.526255395313
 21
820.7957206150883
 31
0.0
  0
LINE
  5
7E39
330
77C9
100
AcDbEntity
  8
寸法線
 62
     0
 48
0.1
370
    -2
100
AcDbLine
 10
2360.526255395313
 20
755.2957206150883
 30
0.0
 11
2360.526255395313
 21
820.7957206150883
 31
0.0
  0
LINE
  5
7E3A
330
77C9
100
AcDbEntity
  8
寸法線
 62
     0
 48
0.1
370
    -2
100
AcDbLine
 10
1945.526255395313
 20
820.7957206150883
 30
0.0
 11
2360.526255395313
 21
820.7957206150883
 31
0.0
  0
INSERT
  5
7E3B
330
77C9
100
AcDbEntity
  8
寸法線
 62
     0
 48
0.1
370
    -2
100
AcDbBlockReference
  2
_DotSmall
 10
1945.526255395313
 20
820.7957206150883
 30
0.0
 41
19.5
 42
19.5
 43
19.5
 50
180.0
  0
INSERT
  5
7E3C
330
77C9
100
AcDbEntity
  8
寸法線
 62
     0
 48
0.1
370
    -2
100
AcDbBlockReference
  2
_DotSmall
 10
2360.526255395313
 20
820.7957206150883
 30
0.0
 41
19.5
 42
19.5
 43
19.5
  0
MTEXT
  5
7E3D
330
77C9
100
AcDbEntity
  8
寸法線
 62
     7
 48
0.1
100
AcDbMText
 10
2153.026255395314
 20
831.5457206150883
 30
0.0
 40
12.5
 41
0.0
 71
     5
 72
     1
  1
415
 73
     1
 44
1.0
1001
ACAD
1000
MTEXTBEGIN
1070
    73
1070
     1
1070
    44
1040
1.0
1070
    74
1070
     0
1000
MTEXTEND
  0
POINT
  5
7E3E
330
77C9
100
AcDbEntity
  8
Defpoints
 62
     0
 48
0.1
100
AcDbPoint
 10
1945.526255395313
 20
744.7957206150882
 30
0.0
  0
POINT
  5
7E3F
330
77C9
100
AcDbEntity
  8
Defpoints
 62
     0
 48
0.1
100
AcDbPoint
 10
2360.526255395313
 20
744.7957206150882
 30
0.0
  0
POINT
  5
7E40
330
77C9
100
AcDbEntity
  8
Defpoints
 62
     0
 48
0.1
100
AcDbPoint
 10
2360.526255395313
 20
820.7957206150883
 30
0.0
  0
ENDBLK
  5
77CB
330
77C9
100
AcDbEntity
  8
0
100
AcDbBlockEnd
  0
BLOCK
  5
77D6
330
77D5
100
AcDbEntity
  8
0
100
AcDbBlockBegin
  2
*D15
 70
     1
 10
0.0
 20
0.0
 30
0.0
  3
*D15
  1

  0
LINE
  5
7E2F
330
77D5
100
AcDbEntity
  8
寸法線
 62
     0
 48
0.1
370
    -2
100
AcDbLine
 10
1925.026255395313
 20
738.2957206150884
 30
0.0
 11
1865.526255395313
 21
738.2957206150884
 31
0.0
  0
LINE
  5
7E30
330
77D5
100
AcDbEntity
  8
寸法線
 62
     0
 48
0.1
370
    -2
100
AcDbLine
 10
1925.026255395313
 20
576.2957206150883
 30
0.0
 11
1865.526255395313
 21
576.2957206150883
 31
0.0
  0
LINE
  5
7E31
330
77D5
100
AcDbEntity
  8
寸法線
 62
     0
 48
0.1
370
    -2
100
AcDbLine
 10
1865.526255395313
 20
738.2957206150884
 30
0.0
 11
1865.526255395313
 21
576.2957206150883
 31
0.0
  0
INSERT
  5
7E32
330
77D5
100
AcDbEntity
  8
寸法線
 62
     0
 48
0.1
370
    -2
100
AcDbBlockReference
  2
_DotSmall
 10
1865.526255395313
 20
738.2957206150884
 30
0.0
 41
19.5
 42
19.5
 43
19.5
 50
90.0
  0
INSERT
  5
7E33
330
77D5
100
AcDbEntity
  8
寸法線
 62
     0
 48
0.1
370
    -2
100
AcDbBlockReference
  2
_DotSmall
 10
1865.526255395313
 20
576.2957206150883
 30
0.0
 41
19.5
 42
19.5
 43
19.5
 50
270.0
  0
MTEXT
  5
7E34
330
77D5
100
AcDbEntity
  8
寸法線
 62
     7
 48
0.1
100
AcDbMText
 10
1854.776255395313
 20
657.2957206150887
 30
0.0
 40
12.5
 41
0.0
 71
     5
 72
     1
  1
162
 11
0.0000000000000001
 21
1.0
 31
0.0
 73
     1
 44
1.0
1001
ACAD
1000
MTEXTBEGIN
1070
    73
1070
     1
1070
    44
1040
1.0
1070
    74
1070
     0
1000
MTEXTEND
  0
POINT
  5
7E35
330
77D5
100
AcDbEntity
  8
Defpoints
 62
     0
 48
0.1
100
AcDbPoint
 10
1935.526255395313
 20
738.2957206150884
 30
0.0
  0
POINT
  5
7E36
330
77D5
100
AcDbEntity
  8
Defpoints
 62
     0
 48
0.1
100
AcDbPoint
 10
1935.526255395313
 20
576.2957206150883
 30
0.0
  0
POINT
  5
7E37
330
77D5
100
AcDbEntity
  8
Defpoints
 62
     0
 48
0.1
100
AcDbPoint
 10
1865.526255395313
 20
576.2957206150883
 30
0.0
  0
ENDBLK
  5
77D7
330
77D5
100
AcDbEntity
  8
0
100
AcDbBlockEnd
  0
BLOCK
  5
77E2
330
77E1
100
AcDbEntity
  8
0
100
AcDbBlockBegin
  2
*D16
 70
     1
 10
0.0
 20
0.0
 30
0.0
  3
*D16
  1

  0
LINE
  5
7E26
330
77E1
100
AcDbEntity
  8
寸法線
 62
     0
 48
0.1
370
    -2
100
AcDbLine
 10
1925.526255395313
 20
575.7957206150883
 30
0.0
 11
1925.526255395313
 21
516.2957206150882
 31
0.0
  0
LINE
  5
7E27
330
77E1
100
AcDbEntity
  8
寸法線
 62
     0
 48
0.1
370
    -2
100
AcDbLine
 10
2380.526255395313
 20
575.7957206150883
 30
0.0
 11
2380.526255395313
 21
516.2957206150882
 31
0.0
  0
LINE
  5
7E28
330
77E1
100
AcDbEntity
  8
寸法線
 62
     0
 48
0.1
370
    -2
100
AcDbLine
 10
1925.526255395313
 20
516.2957206150882
 30
0.0
 11
2380.526255395313
 21
516.2957206150882
 31
0.0
  0
INSERT
  5
7E29
330
77E1
100
AcDbEntity
  8
寸法線
 62
     0
 48
0.1
370
    -2
100
AcDbBlockReference
  2
_DotSmall
 10
1925.526255395313
 20
516.2957206150882
 30
0.0
 41
19.5
 42
19.5
 43
19.5
 50
180.0
  0
INSERT
  5
7E2A
330
77E1
100
AcDbEntity
  8
寸法線
 62
     0
 48
0.1
370
    -2
100
AcDbBlockReference
  2
_DotSmall
 10
2380.526255395313
 20
516.2957206150882
 30
0.0
 41
19.5
 42
19.5
 43
19.5
  0
MTEXT
  5
7E2B
330
77E1
100
AcDbEntity
  8
寸法線
 62
     7
 48
0.1
100
AcDbMText
 10
2153.026255395314
 20
527.0457206150882
 30
0.0
 40
12.5
 41
0.0
 71
     5
 72
     1
  1
455
 73
     1
 44
1.0
1001
ACAD
1000
MTEXTBEGIN
1070
    73
1070
     1
1070
    44
1040
1.0
1070
    74
1070
     0
1000
MTEXTEND
  0
POINT
  5
7E2C
330
77E1
100
AcDbEntity
  8
Defpoints
 62
     0
 48
0.1
100
AcDbPoint
 10
1925.526255395313
 20
586.2957206150882
 30
0.0
  0
POINT
  5
7E2D
330
77E1
100
AcDbEntity
  8
Defpoints
 62
     0
 48
0.1
100
AcDbPoint
 10
2380.526255395313
 20
586.2957206150882
 30
0.0
  0
POINT
  5
7E2E
330
77E1
100
AcDbEntity
  8
Defpoints
 62
     0
 48
0.1
100
AcDbPoint
 10
2380.526255395313
 20
516.2957206150882
 30
0.0
  0
ENDBLK
  5
77E3
330
77E1
100
AcDbEntity
  8
0
100
AcDbBlockEnd
  0
BLOCK
  5
77EE
330
77ED
100
AcDbEntity
  8
0
100
AcDbBlockBegin
  2
*D17
 70
     1
 10
0.0
 20
0.0
 30
0.0
  3
*D17
  1

  0
LINE
  5
7E1D
330
77ED
100
AcDbEntity
  8
寸法線
 62
     0
 48
0.1
370
    -2
100
AcDbLine
 10
1925.026255395313
 20
738.2957206150883
 30
0.0
 11
1865.526255395313
 21
738.2957206150883
 31
0.0
  0
LINE
  5
7E1E
330
77ED
100
AcDbEntity
  8
寸法線
 62
     0
 48
0.1
370
    -2
100
AcDbLine
 10
1935.026255395314
 20
760.7957206150882
 30
0.0
 11
1865.526255395313
 21
760.7957206150882
 31
0.0
  0
LINE
  5
7E1F
330
77ED
100
AcDbEntity
  8
寸法線
 62
     0
 48
0.1
370
    -2
100
AcDbLine
 10
1865.526255395313
 20
738.2957206150883
 30
0.0
 11
1865.526255395313
 21
760.7957206150882
 31
0.0
  0
INSERT
  5
7E20
330
77ED
100
AcDbEntity
  8
寸法線
 62
     0
 48
0.1
370
    -2
100
AcDbBlockReference
  2
_DotSmall
 10
1865.526255395313
 20
738.2957206150883
 30
0.0
 41
19.5
 42
19.5
 43
19.5
 50
270.0
  0
INSERT
  5
7E21
330
77ED
100
AcDbEntity
  8
寸法線
 62
     0
 48
0.1
370
    -2
100
AcDbBlockReference
  2
_DotSmall
 10
1865.526255395313
 20
760.7957206150882
 30
0.0
 41
19.5
 42
19.5
 43
19.5
 50
90.0
  0
MTEXT
  5
7E22
330
77ED
100
AcDbEntity
  8
寸法線
 62
     7
 48
0.1
100
AcDbMText
 10
1854.776255395313
 20
749.5457206150886
 30
0.0
 40
12.5
 41
0.0
 71
     5
 72
     1
  1
22.5
 11
0.0000000000000001
 21
1.0
 31
0.0
 73
     1
 44
1.0
1001
ACAD
1000
MTEXTBEGIN
1070
    73
1070
     1
1070
    44
1040
1.0
1070
    74
1070
     0
1000
MTEXTEND
  0
POINT
  5
7E23
330
77ED
100
AcDbEntity
  8
Defpoints
 62
     0
 48
0.1
100
AcDbPoint
 10
1935.526255395313
 20
738.2957206150883
 30
0.0
  0
POINT
  5
7E24
330
77ED
100
AcDbEntity
  8
Defpoints
 62
     0
 48
0.1
100
AcDbPoint
 10
1945.526255395313
 20
760.7957206150882
 30
0.0
  0
POINT
  5
7E25
330
77ED
100
AcDbEntity
  8
Defpoints
 62
     0
 48
0.1
100
AcDbPoint
 10
1865.526255395313
 20
760.7957206150882
 30
0.0
  0
ENDBLK
  5
77EF
330
77ED
100
AcDbEntity
  8
0
100
AcDbBlockEnd
  0
BLOCK
  5
77FA
330
77F9
100
AcDbEntity
  8
0
100
AcDbBlockBegin
  2
*D18
 70
     1
 10
0.0
 20
0.0
 30
0.0
  3
*D18
  1

  0
LINE
  5
7E14
330
77F9
100
AcDbEntity
  8
寸法線
 62
     0
 48
0.1
370
    -2
100
AcDbLine
 10
1962.026255395313
 20
238.7100842321798
 30
0.0
 11
1962.026255395313
 21
291.2100842321798
 31
0.0
  0
LINE
  5
7E15
330
77F9
100
AcDbEntity
  8
寸法線
 62
     0
 48
0.1
370
    -2
100
AcDbLine
 10
2344.026255395314
 20
238.7100842321798
 30
0.0
 11
2344.026255395314
 21
291.2100842321798
 31
0.0
  0
LINE
  5
7E16
330
77F9
100
AcDbEntity
  8
寸法線
 62
     0
 48
0.1
370
    -2
100
AcDbLine
 10
1962.026255395313
 20
291.2100842321798
 30
0.0
 11
2344.026255395314
 21
291.2100842321798
 31
0.0
  0
INSERT
  5
7E17
330
77F9
100
AcDbEntity
  8
寸法線
 62
     0
 48
0.1
370
    -2
100
AcDbBlockReference
  2
_DotSmall
 10
1962.026255395313
 20
291.2100842321798
 30
0.0
 41
19.5
 42
19.5
 43
19.5
 50
180.0
  0
INSERT
  5
7E18
330
77F9
100
AcDbEntity
  8
寸法線
 62
     0
 48
0.1
370
    -2
100
AcDbBlockReference
  2
_DotSmall
 10
2344.026255395314
 20
291.2100842321798
 30
0.0
 41
19.5
 42
19.5
 43
19.5
  0
MTEXT
  5
7E19
330
77F9
100
AcDbEntity
  8
寸法線
 62
     7
 48
0.1
100
AcDbMText
 10
2153.026255395314
 20
301.9600842321799
 30
0.0
 40
12.5
 41
0.0
 71
     5
 72
     1
  1
382
 73
     1
 44
1.0
1001
ACAD
1000
MTEXTBEGIN
1070
    73
1070
     1
1070
    44
1040
1.0
1070
    74
1070
     0
1000
MTEXTEND
  0
POINT
  5
7E1A
330
77F9
100
AcDbEntity
  8
Defpoints
 62
     0
 48
0.1
100
AcDbPoint
 10
1962.026255395313
 20
228.2100842321798
 30
0.0
  0
POINT
  5
7E1B
330
77F9
100
AcDbEntity
  8
Defpoints
 62
     0
 48
0.1
100
AcDbPoint
 10
2344.026255395314
 20
228.2100842321798
 30
0.0
  0
POINT
  5
7E1C
330
77F9
100
AcDbEntity
  8
Defpoints
 62
     0
 48
0.1
100
AcDbPoint
 10
2344.026255395314
 20
291.2100842321798
 30
0.0
  0
ENDBLK
  5
77FB
330
77F9
100
AcDbEntity
  8
0
100
AcDbBlockEnd
  0
BLOCK
  5
7806
330
7805
100
AcDbEntity
  8
0
100
AcDbBlockBegin
  2
*D19
 70
     1
 10
0.0
 20
0.0
 30
0.0
  3
*D19
  1

  0
LINE
  5
7E0B
330
7805
100
AcDbEntity
  8
寸法線
 62
     0
 48
0.1
370
    -2
100
AcDbLine
 10
1928.026253442101
 20
158.632356054226
 30
0.0
 11
1928.026253442101
 21
102.632356054226
 31
0.0
  0
LINE
  5
7E0C
330
7805
100
AcDbEntity
  8
寸法線
 62
     0
 48
0.1
370
    -2
100
AcDbLine
 10
2378.026257348525
 20
158.632356054226
 30
0.0
 11
2378.026257348525
 21
102.632356054226
 31
0.0
  0
LINE
  5
7E0D
330
7805
100
AcDbEntity
  8
寸法線
 62
     0
 48
0.1
370
    -2
100
AcDbLine
 10
1928.026253442101
 20
102.632356054226
 30
0.0
 11
2378.026257348525
 21
102.632356054226
 31
0.0
  0
INSERT
  5
7E0E
330
7805
100
AcDbEntity
  8
寸法線
 62
     0
 48
0.1
370
    -2
100
AcDbBlockReference
  2
_DotSmall
 10
1928.026253442101
 20
102.632356054226
 30
0.0
 41
19.5
 42
19.5
 43
19.5
 50
180.0
  0
INSERT
  5
7E0F
330
7805
100
AcDbEntity
  8
寸法線
 62
     0
 48
0.1
370
    -2
100
AcDbBlockReference
  2
_DotSmall
 10
2378.026257348525
 20
102.632356054226
 30
0.0
 41
19.5
 42
19.5
 43
19.5
  0
MTEXT
  5
7E10
330
7805
100
AcDbEntity
  8
寸法線
 62
     7
 48
0.1
100
AcDbMText
 10
2153.026255395314
 20
113.382356054226
 30
0.0
 40
12.5
 41
0.0
 71
     5
 72
     1
  1
450
 73
     1
 44
1.0
1001
ACAD
1000
MTEXTBEGIN
1070
    73
1070
     1
1070
    44
1040
1.0
1070
    74
1070
     0
1000
MTEXTEND
  0
POINT
  5
7E11
330
7805
100
AcDbEntity
  8
Defpoints
 62
     0
 48
0.1
100
AcDbPoint
 10
1928.026253442101
 20
169.132356054226
 30
0.0
  0
POINT
  5
7E12
330
7805
100
AcDbEntity
  8
Defpoints
 62
     0
 48
0.1
100
AcDbPoint
 10
2378.026257348525
 20
169.132356054226
 30
0.0
  0
POINT
  5
7E13
330
7805
100
AcDbEntity
  8
Defpoints
 62
     0
 48
0.1
100
AcDbPoint
 10
2378.026257348525
 20
102.632356054226
 30
0.0
  0
ENDBLK
  5
7807
330
7805
100
AcDbEntity
  8
0
100
AcDbBlockEnd
  0
BLOCK
  5
7812
330
7811
100
AcDbEntity
  8
0
100
AcDbBlockBegin
  2
*D20
 70
     1
 10
0.0
 20
0.0
 30
0.0
  3
*D20
  1

  0
LINE
  5
7E02
330
7811
100
AcDbEntity
  8
寸法線
 62
     0
 48
0.1
370
    -2
100
AcDbLine
 10
1935.026255395314
 20
159.632356054226
 30
0.0
 11
1865.526255395313
 21
159.632356054226
 31
0.0
  0
LINE
  5
7E03
330
7811
100
AcDbEntity
  8
寸法線
 62
     0
 48
0.1
370
    -2
100
AcDbLine
 10
1954.526255395313
 20
344.632356054226
 30
0.0
 11
1865.526255395313
 21
344.632356054226
 31
0.0
  0
LINE
  5
7E04
330
7811
100
AcDbEntity
  8
寸法線
 62
     0
 48
0.1
370
    -2
100
AcDbLine
 10
1865.526255395313
 20
159.632356054226
 30
0.0
 11
1865.526255395313
 21
344.632356054226
 31
0.0
  0
INSERT
  5
7E05
330
7811
100
AcDbEntity
  8
寸法線
 62
     0
 48
0.1
370
    -2
100
AcDbBlockReference
  2
_DotSmall
 10
1865.526255395313
 20
159.632356054226
 30
0.0
 41
19.5
 42
19.5
 43
19.5
 50
270.0
  0
INSERT
  5
7E06
330
7811
100
AcDbEntity
  8
寸法線
 62
     0
 48
0.1
370
    -2
100
AcDbBlockReference
  2
_DotSmall
 10
1865.526255395313
 20
344.632356054226
 30
0.0
 41
19.5
 42
19.5
 43
19.5
 50
90.0
  0
MTEXT
  5
7E07
330
7811
100
AcDbEntity
  8
寸法線
 62
     7
 48
0.1
100
AcDbMText
 10
1854.776255395313
 20
252.1323560542263
 30
0.0
 40
12.5
 41
0.0
 71
     5
 72
     1
  1
185
 11
0.0000000000000001
 21
1.0
 31
0.0
 73
     1
 44
1.0
1001
ACAD
1000
MTEXTBEGIN
1070
    73
1070
     1
1070
    44
1040
1.0
1070
    74
1070
     0
1000
MTEXTEND
  0
POINT
  5
7E08
330
7811
100
AcDbEntity
  8
Defpoints
 62
     0
 48
0.1
100
AcDbPoint
 10
1945.526255395313
 20
159.632356054226
 30
0.0
  0
POINT
  5
7E09
330
7811
100
AcDbEntity
  8
Defpoints
 62
     0
 48
0.1
100
AcDbPoint
 10
1965.026255395313
 20
344.632356054226
 30
0.0
  0
POINT
  5
7E0A
330
7811
100
AcDbEntity
  8
Defpoints
 62
     0
 48
0.1
100
AcDbPoint
 10
1865.526255395313
 20
344.632356054226
 30
0.0
  0
ENDBLK
  5
7813
330
7811
100
AcDbEntity
  8
0
100
AcDbBlockEnd
  0
BLOCK
  5
781E
330
781D
100
AcDbEntity
  8
0
100
AcDbBlockBegin
  2
*D21
 70
     1
 10
0.0
 20
0.0
 30
0.0
  3
*D21
  1

  0
LINE
  5
7DF9
330
781D
100
AcDbEntity
  8
寸法線
 62
     0
 48
0.1
370
    -2
100
AcDbLine
 10
2387.526257348525
 20
168.132356054226
 30
0.0
 11
2438.026257348525
 21
168.132356054226
 31
0.0
  0
LINE
  5
7DFA
330
781D
100
AcDbEntity
  8
寸法線
 62
     0
 48
0.1
370
    -2
100
AcDbLine
 10
2388.026255395313
 20
203.132356054226
 30
0.0
 11
2438.026257348525
 21
203.132356054226
 31
0.0
  0
LINE
  5
7DFB
330
781D
100
AcDbEntity
  8
寸法線
 62
     0
 48
0.1
370
    -2
100
AcDbLine
 10
2438.026257348525
 20
168.132356054226
 30
0.0
 11
2438.026257348525
 21
203.132356054226
 31
0.0
  0
INSERT
  5
7DFC
330
781D
100
AcDbEntity
  8
寸法線
 62
     0
 48
0.1
370
    -2
100
AcDbBlockReference
  2
_DotSmall
 10
2438.026257348525
 20
168.132356054226
 30
0.0
 41
19.5
 42
19.5
 43
19.5
 50
270.0
  0
INSERT
  5
7DFD
330
781D
100
AcDbEntity
  8
寸法線
 62
     0
 48
0.1
370
    -2
100
AcDbBlockReference
  2
_DotSmall
 10
2438.026257348525
 20
203.132356054226
 30
0.0
 41
19.5
 42
19.5
 43
19.5
 50
90.0
  0
MTEXT
  5
7DFE
330
781D
100
AcDbEntity
  8
寸法線
 62
     7
 48
0.1
100
AcDbMText
 10
2427.276257348526
 20
185.6323560542264
 30
0.0
 40
12.5
 41
0.0
 71
     5
 72
     1
  1
35
 11
0.0000000000000001
 21
1.0
 31
0.0
 73
     1
 44
1.0
1001
ACAD
1000
MTEXTBEGIN
1070
    73
1070
     1
1070
    44
1040
1.0
1070
    74
1070
     0
1000
MTEXTEND
  0
POINT
  5
7DFF
330
781D
100
AcDbEntity
  8
Defpoints
 62
     0
 48
0.1
100
AcDbPoint
 10
2377.026257348525
 20
168.132356054226
 30
0.0
  0
POINT
  5
7E00
330
781D
100
AcDbEntity
  8
Defpoints
 62
     0
 48
0.1
100
AcDbPoint
 10
2377.526255395313
 20
203.132356054226
 30
0.0
  0
POINT
  5
7E01
330
781D
100
AcDbEntity
  8
Defpoints
 62
     0
 48
0.1
100
AcDbPoint
 10
2438.026257348525
 20
203.132356054226
 30
0.0
  0
ENDBLK
  5
781F
330
781D
100
AcDbEntity
  8
0
100
AcDbBlockEnd
  0
BLOCK
  5
782A
330
7829
100
AcDbEntity
  8
0
100
AcDbBlockBegin
  2
*D22
 70
     1
 10
0.0
 20
0.0
 30
0.0
  3
*D22
  1

  0
LINE
  5
7DF0
330
7829
100
AcDbEntity
  8
寸法線
 62
     0
 48
0.1
370
    -2
100
AcDbLine
 10
2639.005537476717
 20
188.632356054226
 30
0.0
 11
2639.005537476717
 21
102.632356054226
 31
0.0
  0
LINE
  5
7DF1
330
7829
100
AcDbEntity
  8
寸法線
 62
     0
 48
0.1
370
    -2
100
AcDbLine
 10
2823.505537476717
 20
155.1323560542259
 30
0.0
 11
2823.505537476717
 21
102.632356054226
 31
0.0
  0
LINE
  5
7DF2
330
7829
100
AcDbEntity
  8
寸法線
 62
     0
 48
0.1
370
    -2
100
AcDbLine
 10
2639.005537476717
 20
102.632356054226
 30
0.0
 11
2823.505537476717
 21
102.632356054226
 31
0.0
  0
INSERT
  5
7DF3
330
7829
100
AcDbEntity
  8
寸法線
 62
     0
 48
0.1
370
    -2
100
AcDbBlockReference
  2
_DotSmall
 10
2639.005537476717
 20
102.632356054226
 30
0.0
 41
19.5
 42
19.5
 43
19.5
 50
180.0
  0
INSERT
  5
7DF4
330
7829
100
AcDbEntity
  8
寸法線
 62
     0
 48
0.1
370
    -2
100
AcDbBlockReference
  2
_DotSmall
 10
2823.505537476717
 20
102.632356054226
 30
0.0
 41
19.5
 42
19.5
 43
19.5
  0
MTEXT
  5
7DF5
330
7829
100
AcDbEntity
  8
寸法線
 62
     7
 48
0.1
100
AcDbMText
 10
2731.255537476717
 20
113.382356054226
 30
0.0
 40
12.5
 41
0.0
 71
     5
 72
     1
  1
184.5
 73
     1
 44
1.0
1001
ACAD
1000
MTEXTBEGIN
1070
    73
1070
     1
1070
    44
1040
1.0
1070
    74
1070
     0
1000
MTEXTEND
  0
POINT
  5
7DF6
330
7829
100
AcDbEntity
  8
Defpoints
 62
     0
 48
0.1
100
AcDbPoint
 10
2639.005537476717
 20
199.1323560542261
 30
0.0
  0
POINT
  5
7DF7
330
7829
100
AcDbEntity
  8
Defpoints
 62
     0
 48
0.1
100
AcDbPoint
 10
2823.505537476717
 20
165.6323560542259
 30
0.0
  0
POINT
  5
7DF8
330
7829
100
AcDbEntity
  8
Defpoints
 62
     0
 48
0.1
100
AcDbPoint
 10
2823.505537476717
 20
102.632356054226
 30
0.0
  0
ENDBLK
  5
782B
330
7829
100
AcDbEntity
  8
0
100
AcDbBlockEnd
  0
BLOCK
  5
7836
330
7835
100
AcDbEntity
  8
0
100
AcDbBlockBegin
  2
*D23
 70
     1
 10
0.0
 20
0.0
 30
0.0
  3
*D23
  1

  0
LINE
  5
7DE7
330
7835
100
AcDbEntity
  8
寸法線
 62
     0
 48
0.1
370
    -2
100
AcDbLine
 10
2789.505537476717
 20
427.6323560542261
 30
0.0
 11
2883.505537476717
 21
427.6323560542261
 31
0.0
  0
LINE
  5
7DE8
330
7835
100
AcDbEntity
  8
寸法線
 62
     0
 48
0.1
370
    -2
100
AcDbLine
 10
2828.005537476717
 20
159.6323560542259
 30
0.0
 11
2883.505537476717
 21
159.6323560542259
 31
0.0
  0
LINE
  5
7DE9
330
7835
100
AcDbEntity
  8
寸法線
 62
     0
 48
0.1
370
    -2
100
AcDbLine
 10
2883.505537476717
 20
427.6323560542261
 30
0.0
 11
2883.505537476717
 21
159.6323560542259
 31
0.0
  0
INSERT
  5
7DEA
330
7835
100
AcDbEntity
  8
寸法線
 62
     0
 48
0.1
370
    -2
100
AcDbBlockReference
  2
_DotSmall
 10
2883.505537476717
 20
427.6323560542261
 30
0.0
 41
19.5
 42
19.5
 43
19.5
 50
90.0
  0
INSERT
  5
7DEB
330
7835
100
AcDbEntity
  8
寸法線
 62
     0
 48
0.1
370
    -2
100
AcDbBlockReference
  2
_DotSmall
 10
2883.505537476717
 20
159.6323560542259
 30
0.0
 41
19.5
 42
19.5
 43
19.5
 50
270.0
  0
MTEXT
  5
7DEC
330
7835
100
AcDbEntity
  8
寸法線
 62
     7
 48
0.1
100
AcDbMText
 10
2872.755537476717
 20
293.6323560542265
 30
0.0
 40
12.5
 41
0.0
 71
     5
 72
     1
  1
268
 11
0.0000000000000001
 21
1.0
 31
0.0
 73
     1
 44
1.0
1001
ACAD
1000
MTEXTBEGIN
1070
    73
1070
     1
1070
    44
1040
1.0
1070
    74
1070
     0
1000
MTEXTEND
  0
POINT
  5
7DED
330
7835
100
AcDbEntity
  8
Defpoints
 62
     0
 48
0.1
100
AcDbPoint
 10
2779.005537476717
 20
427.6323560542261
 30
0.0
  0
POINT
  5
7DEE
330
7835
100
AcDbEntity
  8
Defpoints
 62
     0
 48
0.1
100
AcDbPoint
 10
2817.505537476717
 20
159.6323560542259
 30
0.0
  0
POINT
  5
7DEF
330
7835
100
AcDbEntity
  8
Defpoints
 62
     0
 48
0.1
100
AcDbPoint
 10
2883.505537476717
 20
159.6323560542259
 30
0.0
  0
ENDBLK
  5
7837
330
7835
100
AcDbEntity
  8
0
100
AcDbBlockEnd
  0
BLOCK
  5
789C
330
789B
100
AcDbEntity
  8
0
100
AcDbBlockBegin
  2
*D24
 70
     1
 10
0.0
 20
0.0
 30
0.0
  3
*D24
  1

  0
LINE
  5
789D
330
789B
100
AcDbEntity
  8
寸法線
 62
     0
 48
0.1
370
    -2
100
AcDbLine
 10
1945.526255395313
 20
746.8957206150882
 30
0.0
 11
1945.526255395313
 21
820.7957206150883
 31
0.0
  0
LINE
  5
789E
330
789B
100
AcDbEntity
  8
寸法線
 62
     0
 48
0.1
370
    -2
100
AcDbLine
 10
2360.526255395313
 20
746.8957206150882
 30
0.0
 11
2360.526255395313
 21
820.7957206150883
 31
0.0
  0
LINE
  5
789F
330
789B
100
AcDbEntity
  8
寸法線
 62
     0
 48
0.1
370
    -2
100
AcDbLine
 10
1945.526255395313
 20
820.7957206150883
 30
0.0
 11
2360.526255395313
 21
820.7957206150883
 31
0.0
  0
INSERT
  5
78A0
330
789B
100
AcDbEntity
  8
寸法線
 62
     0
 48
0.1
370
    -2
100
AcDbBlockReference
  2
_DotSmall
 10
1945.526255395313
 20
820.7957206150883
 30
0.0
 41
3.9
 42
3.9
 43
3.9
 50
180.0
  0
INSERT
  5
78A1
330
789B
100
AcDbEntity
  8
寸法線
 62
     0
 48
0.1
370
    -2
100
AcDbBlockReference
  2
_DotSmall
 10
2360.526255395313
 20
820.7957206150883
 30
0.0
 41
3.9
 42
3.9
 43
3.9
  0
MTEXT
  5
78A2
330
789B
100
AcDbEntity
  8
寸法線
 62
     7
 48
0.1
100
AcDbMText
 10
2153.026255395314
 20
822.9457206150883
 30
0.0
 40
2.5
 41
0.0
 71
     5
 72
     1
  1
415
 73
     1
 44
1.0
1001
ACAD
1000
MTEXTBEGIN
1070
    73
1070
     1
1070
    44
1040
1.0
1070
    74
1070
     0
1000
MTEXTEND
  0
POINT
  5
78A3
330
789B
100
AcDbEntity
  8
Defpoints
 62
     0
 48
0.1
100
AcDbPoint
 10
1945.526255395313
 20
744.7957206150882
 30
0.0
  0
POINT
  5
78A4
330
789B
100
AcDbEntity
  8
Defpoints
 62
     0
 48
0.1
100
AcDbPoint
 10
2360.526255395313
 20
744.7957206150882
 30
0.0
  0
POINT
  5
78A5
330
789B
100
AcDbEntity
  8
Defpoints
 62
     0
 48
0.1
100
AcDbPoint
 10
2360.526255395313
 20
820.7957206150883
 30
0.0
  0
ENDBLK
  5
78A6
330
789B
100
AcDbEntity
  8
0
100
AcDbBlockEnd
  0
BLOCK
  5
78A8
330
78A7
100
AcDbEntity
  8
0
100
AcDbBlockBegin
  2
*D25
 70
     1
 10
0.0
 20
0.0
 30
0.0
  3
*D25
  1

  0
LINE
  5
78A9
330
78A7
100
AcDbEntity
  8
寸法線
 62
     0
 48
0.1
370
    -2
100
AcDbLine
 10
1933.426255395313
 20
738.2957206150884
 30
0.0
 11
1865.526255395313
 21
738.2957206150884
 31
0.0
  0
LINE
  5
78AA
330
78A7
100
AcDbEntity
  8
寸法線
 62
     0
 48
0.1
370
    -2
100
AcDbLine
 10
1933.426255395313
 20
576.2957206150883
 30
0.0
 11
1865.526255395313
 21
576.2957206150883
 31
0.0
  0
LINE
  5
78AB
330
78A7
100
AcDbEntity
  8
寸法線
 62
     0
 48
0.1
370
    -2
100
AcDbLine
 10
1865.526255395313
 20
738.2957206150884
 30
0.0
 11
1865.526255395313
 21
576.2957206150883
 31
0.0
  0
INSERT
  5
78AC
330
78A7
100
AcDbEntity
  8
寸法線
 62
     0
 48
0.1
370
    -2
100
AcDbBlockReference
  2
_DotSmall
 10
1865.526255395313
 20
738.2957206150884
 30
0.0
 41
3.9
 42
3.9
 43
3.9
 50
90.0
  0
INSERT
  5
78AD
330
78A7
100
AcDbEntity
  8
寸法線
 62
     0
 48
0.1
370
    -2
100
AcDbBlockReference
  2
_DotSmall
 10
1865.526255395313
 20
576.2957206150883
 30
0.0
 41
3.9
 42
3.9
 43
3.9
 50
270.0
  0
MTEXT
  5
78AE
330
78A7
100
AcDbEntity
  8
寸法線
 62
     7
 48
0.1
100
AcDbMText
 10
1863.376255395313
 20
657.2957206150887
 30
0.0
 40
2.5
 41
0.0
 71
     5
 72
     1
  1
162
 11
0.0000000000000001
 21
1.0
 31
0.0
 73
     1
 44
1.0
1001
ACAD
1000
MTEXTBEGIN
1070
    73
1070
     1
1070
    44
1040
1.0
1070
    74
1070
     0
1000
MTEXTEND
  0
POINT
  5
78AF
330
78A7
100
AcDbEntity
  8
Defpoints
 62
     0
 48
0.1
100
AcDbPoint
 10
1935.526255395313
 20
738.2957206150884
 30
0.0
  0
POINT
  5
78B0
330
78A7
100
AcDbEntity
  8
Defpoints
 62
     0
 48
0.1
100
AcDbPoint
 10
1935.526255395313
 20
576.2957206150883
 30
0.0
  0
POINT
  5
78B1
330
78A7
100
AcDbEntity
  8
Defpoints
 62
     0
 48
0.1
100
AcDbPoint
 10
1865.526255395313
 20
576.2957206150883
 30
0.0
  0
ENDBLK
  5
78B2
330
78A7
100
AcDbEntity
  8
0
100
AcDbBlockEnd
  0
BLOCK
  5
78B4
330
78B3
100
AcDbEntity
  8
0
100
AcDbBlockBegin
  2
*D26
 70
     1
 10
0.0
 20
0.0
 30
0.0
  3
*D26
  1

  0
LINE
  5
78B5
330
78B3
100
AcDbEntity
  8
寸法線
 62
     0
 48
0.1
370
    -2
100
AcDbLine
 10
1925.526255395313
 20
584.1957206150882
 30
0.0
 11
1925.526255395313
 21
516.2957206150882
 31
0.0
  0
LINE
  5
78B6
330
78B3
100
AcDbEntity
  8
寸法線
 62
     0
 48
0.1
370
    -2
100
AcDbLine
 10
2380.526255395313
 20
584.1957206150882
 30
0.0
 11
2380.526255395313
 21
516.2957206150882
 31
0.0
  0
LINE
  5
78B7
330
78B3
100
AcDbEntity
  8
寸法線
 62
     0
 48
0.1
370
    -2
100
AcDbLine
 10
1925.526255395313
 20
516.2957206150882
 30
0.0
 11
2380.526255395313
 21
516.2957206150882
 31
0.0
  0
INSERT
  5
78B8
330
78B3
100
AcDbEntity
  8
寸法線
 62
     0
 48
0.1
370
    -2
100
AcDbBlockReference
  2
_DotSmall
 10
1925.526255395313
 20
516.2957206150882
 30
0.0
 41
3.9
 42
3.9
 43
3.9
 50
180.0
  0
INSERT
  5
78B9
330
78B3
100
AcDbEntity
  8
寸法線
 62
     0
 48
0.1
370
    -2
100
AcDbBlockReference
  2
_DotSmall
 10
2380.526255395313
 20
516.2957206150882
 30
0.0
 41
3.9
 42
3.9
 43
3.9
  0
MTEXT
  5
78BA
330
78B3
100
AcDbEntity
  8
寸法線
 62
     7
 48
0.1
100
AcDbMText
 10
2153.026255395314
 20
518.4457206150882
 30
0.0
 40
2.5
 41
0.0
 71
     5
 72
     1
  1
455
 73
     1
 44
1.0
1001
ACAD
1000
MTEXTBEGIN
1070
    73
1070
     1
1070
    44
1040
1.0
1070
    74
1070
     0
1000
MTEXTEND
  0
POINT
  5
78BB
330
78B3
100
AcDbEntity
  8
Defpoints
 62
     0
 48
0.1
100
AcDbPoint
 10
1925.526255395313
 20
586.2957206150882
 30
0.0
  0
POINT
  5
78BC
330
78B3
100
AcDbEntity
  8
Defpoints
 62
     0
 48
0.1
100
AcDbPoint
 10
2380.526255395313
 20
586.2957206150882
 30
0.0
  0
POINT
  5
78BD
330
78B3
100
AcDbEntity
  8
Defpoints
 62
     0
 48
0.1
100
AcDbPoint
 10
2380.526255395313
 20
516.2957206150882
 30
0.0
  0
ENDBLK
  5
78BE
330
78B3
100
AcDbEntity
  8
0
100
AcDbBlockEnd
  0
BLOCK
  5
78C0
330
78BF
100
AcDbEntity
  8
0
100
AcDbBlockBegin
  2
*D27
 70
     1
 10
0.0
 20
0.0
 30
0.0
  3
*D27
  1

  0
LINE
  5
78C1
330
78BF
100
AcDbEntity
  8
寸法線
 62
     0
 48
0.1
370
    -2
100
AcDbLine
 10
1933.426255395313
 20
738.2957206150883
 30
0.0
 11
1865.526255395313
 21
738.2957206150883
 31
0.0
  0
LINE
  5
78C2
330
78BF
100
AcDbEntity
  8
寸法線
 62
     0
 48
0.1
370
    -2
100
AcDbLine
 10
1943.426255395313
 20
760.7957206150882
 30
0.0
 11
1865.526255395313
 21
760.7957206150882
 31
0.0
  0
LINE
  5
78C3
330
78BF
100
AcDbEntity
  8
寸法線
 62
     0
 48
0.1
370
    -2
100
AcDbLine
 10
1865.526255395313
 20
738.2957206150883
 30
0.0
 11
1865.526255395313
 21
760.7957206150882
 31
0.0
  0
INSERT
  5
78C4
330
78BF
100
AcDbEntity
  8
寸法線
 62
     0
 48
0.1
370
    -2
100
AcDbBlockReference
  2
_DotSmall
 10
1865.526255395313
 20
738.2957206150883
 30
0.0
 41
3.9
 42
3.9
 43
3.9
 50
270.0
  0
INSERT
  5
78C5
330
78BF
100
AcDbEntity
  8
寸法線
 62
     0
 48
0.1
370
    -2
100
AcDbBlockReference
  2
_DotSmall
 10
1865.526255395313
 20
760.7957206150882
 30
0.0
 41
3.9
 42
3.9
 43
3.9
 50
90.0
  0
MTEXT
  5
78C6
330
78BF
100
AcDbEntity
  8
寸法線
 62
     7
 48
0.1
100
AcDbMText
 10
1863.376255395313
 20
749.5457206150883
 30
0.0
 40
2.5
 41
0.0
 71
     5
 72
     1
  1
22.5
 11
0.0000000000000001
 21
1.0
 31
0.0
 73
     1
 44
1.0
1001
ACAD
1000
MTEXTBEGIN
1070
    73
1070
     1
1070
    44
1040
1.0
1070
    74
1070
     0
1000
MTEXTEND
  0
POINT
  5
78C7
330
78BF
100
AcDbEntity
  8
Defpoints
 62
     0
 48
0.1
100
AcDbPoint
 10
1935.526255395313
 20
738.2957206150883
 30
0.0
  0
POINT
  5
78C8
330
78BF
100
AcDbEntity
  8
Defpoints
 62
     0
 48
0.1
100
AcDbPoint
 10
1945.526255395313
 20
760.7957206150882
 30
0.0
  0
POINT
  5
78C9
330
78BF
100
AcDbEntity
  8
Defpoints
 62
     0
 48
0.1
100
AcDbPoint
 10
1865.526255395313
 20
760.7957206150882
 30
0.0
  0
ENDBLK
  5
78CA
330
78BF
100
AcDbEntity
  8
0
100
AcDbBlockEnd
  0
BLOCK
  5
78CC
330
78CB
100
AcDbEntity
  8
0
100
AcDbBlockBegin
  2
*D28
 70
     1
 10
0.0
 20
0.0
 30
0.0
  3
*D28
  1

  0
LINE
  5
78CD
330
78CB
100
AcDbEntity
  8
寸法線
 62
     0
 48
0.1
370
    -2
100
AcDbLine
 10
1962.026255395313
 20
230.3100842321798
 30
0.0
 11
1962.026255395313
 21
291.2100842321798
 31
0.0
  0
LINE
  5
78CE
330
78CB
100
AcDbEntity
  8
寸法線
 62
     0
 48
0.1
370
    -2
100
AcDbLine
 10
2344.026255395314
 20
230.3100842321798
 30
0.0
 11
2344.026255395314
 21
291.2100842321798
 31
0.0
  0
LINE
  5
78CF
330
78CB
100
AcDbEntity
  8
寸法線
 62
     0
 48
0.1
370
    -2
100
AcDbLine
 10
1962.026255395313
 20
291.2100842321798
 30
0.0
 11
2344.026255395314
 21
291.2100842321798
 31
0.0
  0
INSERT
  5
78D0
330
78CB
100
AcDbEntity
  8
寸法線
 62
     0
 48
0.1
370
    -2
100
AcDbBlockReference
  2
_DotSmall
 10
1962.026255395313
 20
291.2100842321798
 30
0.0
 41
3.9
 42
3.9
 43
3.9
 50
180.0
  0
INSERT
  5
78D1
330
78CB
100
AcDbEntity
  8
寸法線
 62
     0
 48
0.1
370
    -2
100
AcDbBlockReference
  2
_DotSmall
 10
2344.026255395314
 20
291.2100842321798
 30
0.0
 41
3.9
 42
3.9
 43
3.9
  0
MTEXT
  5
78D2
330
78CB
100
AcDbEntity
  8
寸法線
 62
     7
 48
0.1
100
AcDbMText
 10
2153.026255395314
 20
293.3600842321798
 30
0.0
 40
2.5
 41
0.0
 71
     5
 72
     1
  1
382
 73
     1
 44
1.0
1001
ACAD
1000
MTEXTBEGIN
1070
    73
1070
     1
1070
    44
1040
1.0
1070
    74
1070
     0
1000
MTEXTEND
  0
POINT
  5
78D3
330
78CB
100
AcDbEntity
  8
Defpoints
 62
     0
 48
0.1
100
AcDbPoint
 10
1962.026255395313
 20
228.2100842321798
 30
0.0
  0
POINT
  5
78D4
330
78CB
100
AcDbEntity
  8
Defpoints
 62
     0
 48
0.1
100
AcDbPoint
 10
2344.026255395314
 20
228.2100842321798
 30
0.0
  0
POINT
  5
78D5
330
78CB
100
AcDbEntity
  8
Defpoints
 62
     0
 48
0.1
100
AcDbPoint
 10
2344.026255395314
 20
291.2100842321798
 30
0.0
  0
ENDBLK
  5
78D6
330
78CB
100
AcDbEntity
  8
0
100
AcDbBlockEnd
  0
BLOCK
  5
78D8
330
78D7
100
AcDbEntity
  8
0
100
AcDbBlockBegin
  2
*D29
 70
     1
 10
0.0
 20
0.0
 30
0.0
  3
*D29
  1

  0
LINE
  5
78D9
330
78D7
100
AcDbEntity
  8
寸法線
 62
     0
 48
0.1
370
    -2
100
AcDbLine
 10
1928.026253442101
 20
167.032356054226
 30
0.0
 11
1928.026253442101
 21
102.632356054226
 31
0.0
  0
LINE
  5
78DA
330
78D7
100
AcDbEntity
  8
寸法線
 62
     0
 48
0.1
370
    -2
100
AcDbLine
 10
2378.026257348525
 20
167.032356054226
 30
0.0
 11
2378.026257348525
 21
102.632356054226
 31
0.0
  0
LINE
  5
78DB
330
78D7
100
AcDbEntity
  8
寸法線
 62
     0
 48
0.1
370
    -2
100
AcDbLine
 10
1928.026253442101
 20
102.632356054226
 30
0.0
 11
2378.026257348525
 21
102.632356054226
 31
0.0
  0
INSERT
  5
78DC
330
78D7
100
AcDbEntity
  8
寸法線
 62
     0
 48
0.1
370
    -2
100
AcDbBlockReference
  2
_DotSmall
 10
1928.026253442101
 20
102.632356054226
 30
0.0
 41
3.9
 42
3.9
 43
3.9
 50
180.0
  0
INSERT
  5
78DD
330
78D7
100
AcDbEntity
  8
寸法線
 62
     0
 48
0.1
370
    -2
100
AcDbBlockReference
  2
_DotSmall
 10
2378.026257348525
 20
102.632356054226
 30
0.0
 41
3.9
 42
3.9
 43
3.9
  0
MTEXT
  5
78DE
330
78D7
100
AcDbEntity
  8
寸法線
 62
     7
 48
0.1
100
AcDbMText
 10
2153.026255395314
 20
104.782356054226
 30
0.0
 40
2.5
 41
0.0
 71
     5
 72
     1
  1
450
 73
     1
 44
1.0
1001
ACAD
1000
MTEXTBEGIN
1070
    73
1070
     1
1070
    44
1040
1.0
1070
    74
1070
     0
1000
MTEXTEND
  0
POINT
  5
78DF
330
78D7
100
AcDbEntity
  8
Defpoints
 62
     0
 48
0.1
100
AcDbPoint
 10
1928.026253442101
 20
169.132356054226
 30
0.0
  0
POINT
  5
78E0
330
78D7
100
AcDbEntity
  8
Defpoints
 62
     0
 48
0.1
100
AcDbPoint
 10
2378.026257348525
 20
169.132356054226
 30
0.0
  0
POINT
  5
78E1
330
78D7
100
AcDbEntity
  8
Defpoints
 62
     0
 48
0.1
100
AcDbPoint
 10
2378.026257348525
 20
102.632356054226
 30
0.0
  0
ENDBLK
  5
78E2
330
78D7
100
AcDbEntity
  8
0
100
AcDbBlockEnd
  0
BLOCK
  5
78E4
330
78E3
100
AcDbEntity
  8
0
100
AcDbBlockBegin
  2
*D30
 70
     1
 10
0.0
 20
0.0
 30
0.0
  3
*D30
  1

  0
LINE
  5
78E5
330
78E3
100
AcDbEntity
  8
寸法線
 62
     0
 48
0.1
370
    -2
100
AcDbLine
 10
1943.426255395313
 20
159.632356054226
 30
0.0
 11
1865.526255395313
 21
159.632356054226
 31
0.0
  0
LINE
  5
78E6
330
78E3
100
AcDbEntity
  8
寸法線
 62
     0
 48
0.1
370
    -2
100
AcDbLine
 10
1962.926255395314
 20
344.632356054226
 30
0.0
 11
1865.526255395313
 21
344.632356054226
 31
0.0
  0
LINE
  5
78E7
330
78E3
100
AcDbEntity
  8
寸法線
 62
     0
 48
0.1
370
    -2
100
AcDbLine
 10
1865.526255395313
 20
159.632356054226
 30
0.0
 11
1865.526255395313
 21
344.632356054226
 31
0.0
  0
INSERT
  5
78E8
330
78E3
100
AcDbEntity
  8
寸法線
 62
     0
 48
0.1
370
    -2
100
AcDbBlockReference
  2
_DotSmall
 10
1865.526255395313
 20
159.632356054226
 30
0.0
 41
3.9
 42
3.9
 43
3.9
 50
270.0
  0
INSERT
  5
78E9
330
78E3
100
AcDbEntity
  8
寸法線
 62
     0
 48
0.1
370
    -2
100
AcDbBlockReference
  2
_DotSmall
 10
1865.526255395313
 20
344.632356054226
 30
0.0
 41
3.9
 42
3.9
 43
3.9
 50
90.0
  0
MTEXT
  5
78EA
330
78E3
100
AcDbEntity
  8
寸法線
 62
     7
 48
0.1
100
AcDbMText
 10
1863.376255395313
 20
252.1323560542263
 30
0.0
 40
2.5
 41
0.0
 71
     5
 72
     1
  1
185
 11
0.0000000000000001
 21
1.0
 31
0.0
 73
     1
 44
1.0
1001
ACAD
1000
MTEXTBEGIN
1070
    73
1070
     1
1070
    44
1040
1.0
1070
    74
1070
     0
1000
MTEXTEND
  0
POINT
  5
78EB
330
78E3
100
AcDbEntity
  8
Defpoints
 62
     0
 48
0.1
100
AcDbPoint
 10
1945.526255395313
 20
159.632356054226
 30
0.0
  0
POINT
  5
78EC
330
78E3
100
AcDbEntity
  8
Defpoints
 62
     0
 48
0.1
100
AcDbPoint
 10
1965.026255395313
 20
344.632356054226
 30
0.0
  0
POINT
  5
78ED
330
78E3
100
AcDbEntity
  8
Defpoints
 62
     0
 48
0.1
100
AcDbPoint
 10
1865.526255395313
 20
344.632356054226
 30
0.0
  0
ENDBLK
  5
78EE
330
78E3
100
AcDbEntity
  8
0
100
AcDbBlockEnd
  0
BLOCK
  5
78F0
330
78EF
100
AcDbEntity
  8
0
100
AcDbBlockBegin
  2
*D31
 70
     1
 10
0.0
 20
0.0
 30
0.0
  3
*D31
  1

  0
LINE
  5
78F1
330
78EF
100
AcDbEntity
  8
寸法線
 62
     0
 48
0.1
370
    -2
100
AcDbLine
 10
2379.126257348525
 20
168.132356054226
 30
0.0
 11
2438.026257348525
 21
168.132356054226
 31
0.0
  0
LINE
  5
78F2
330
78EF
100
AcDbEntity
  8
寸法線
 62
     0
 48
0.1
370
    -2
100
AcDbLine
 10
2379.626255395313
 20
203.132356054226
 30
0.0
 11
2438.026257348525
 21
203.132356054226
 31
0.0
  0
LINE
  5
78F3
330
78EF
100
AcDbEntity
  8
寸法線
 62
     0
 48
0.1
370
    -2
100
AcDbLine
 10
2438.026257348525
 20
168.132356054226
 30
0.0
 11
2438.026257348525
 21
203.132356054226
 31
0.0
  0
INSERT
  5
78F4
330
78EF
100
AcDbEntity
  8
寸法線
 62
     0
 48
0.1
370
    -2
100
AcDbBlockReference
  2
_DotSmall
 10
2438.026257348525
 20
168.132356054226
 30
0.0
 41
3.9
 42
3.9
 43
3.9
 50
270.0
  0
INSERT
  5
78F5
330
78EF
100
AcDbEntity
  8
寸法線
 62
     0
 48
0.1
370
    -2
100
AcDbBlockReference
  2
_DotSmall
 10
2438.026257348525
 20
203.132356054226
 30
0.0
 41
3.9
 42
3.9
 43
3.9
 50
90.0
  0
MTEXT
  5
78F6
330
78EF
100
AcDbEntity
  8
寸法線
 62
     7
 48
0.1
100
AcDbMText
 10
2435.876257348525
 20
185.6323560542264
 30
0.0
 40
2.5
 41
0.0
 71
     5
 72
     1
  1
35
 11
0.0000000000000001
 21
1.0
 31
0.0
 73
     1
 44
1.0
1001
ACAD
1000
MTEXTBEGIN
1070
    73
1070
     1
1070
    44
1040
1.0
1070
    74
1070
     0
1000
MTEXTEND
  0
POINT
  5
78F7
330
78EF
100
AcDbEntity
  8
Defpoints
 62
     0
 48
0.1
100
AcDbPoint
 10
2377.026257348525
 20
168.132356054226
 30
0.0
  0
POINT
  5
78F8
330
78EF
100
AcDbEntity
  8
Defpoints
 62
     0
 48
0.1
100
AcDbPoint
 10
2377.526255395313
 20
203.132356054226
 30
0.0
  0
POINT
  5
78F9
330
78EF
100
AcDbEntity
  8
Defpoints
 62
     0
 48
0.1
100
AcDbPoint
 10
2438.026257348525
 20
203.132356054226
 30
0.0
  0
ENDBLK
  5
78FA
330
78EF
100
AcDbEntity
  8
0
100
AcDbBlockEnd
  0
BLOCK
  5
78FC
330
78FB
100
AcDbEntity
  8
0
100
AcDbBlockBegin
  2
*D32
 70
     1
 10
0.0
 20
0.0
 30
0.0
  3
*D32
  1

  0
LINE
  5
78FD
330
78FB
100
AcDbEntity
  8
寸法線
 62
     0
 48
0.1
370
    -2
100
AcDbLine
 10
2639.005537476717
 20
197.0323560542261
 30
0.0
 11
2639.005537476717
 21
102.632356054226
 31
0.0
  0
LINE
  5
78FE
330
78FB
100
AcDbEntity
  8
寸法線
 62
     0
 48
0.1
370
    -2
100
AcDbLine
 10
2823.505537476717
 20
163.532356054226
 30
0.0
 11
2823.505537476717
 21
102.632356054226
 31
0.0
  0
LINE
  5
78FF
330
78FB
100
AcDbEntity
  8
寸法線
 62
     0
 48
0.1
370
    -2
100
AcDbLine
 10
2639.005537476717
 20
102.632356054226
 30
0.0
 11
2823.505537476717
 21
102.632356054226
 31
0.0
  0
INSERT
  5
7900
330
78FB
100
AcDbEntity
  8
寸法線
 62
     0
 48
0.1
370
    -2
100
AcDbBlockReference
  2
_DotSmall
 10
2639.005537476717
 20
102.632356054226
 30
0.0
 41
3.9
 42
3.9
 43
3.9
 50
180.0
  0
INSERT
  5
7901
330
78FB
100
AcDbEntity
  8
寸法線
 62
     0
 48
0.1
370
    -2
100
AcDbBlockReference
  2
_DotSmall
 10
2823.505537476717
 20
102.632356054226
 30
0.0
 41
3.9
 42
3.9
 43
3.9
  0
MTEXT
  5
7902
330
78FB
100
AcDbEntity
  8
寸法線
 62
     7
 48
0.1
100
AcDbMText
 10
2731.255537476717
 20
104.782356054226
 30
0.0
 40
2.5
 41
0.0
 71
     5
 72
     1
  1
184.5
 73
     1
 44
1.0
1001
ACAD
1000
MTEXTBEGIN
1070
    73
1070
     1
1070
    44
1040
1.0
1070
    74
1070
     0
1000
MTEXTEND
  0
POINT
  5
7903
330
78FB
100
AcDbEntity
  8
Defpoints
 62
     0
 48
0.1
100
AcDbPoint
 10
2639.005537476717
 20
199.1323560542261
 30
0.0
  0
POINT
  5
7904
330
78FB
100
AcDbEntity
  8
Defpoints
 62
     0
 48
0.1
100
AcDbPoint
 10
2823.505537476717
 20
165.6323560542259
 30
0.0
  0
POINT
  5
7905
330
78FB
100
AcDbEntity
  8
Defpoints
 62
     0
 48
0.1
100
AcDbPoint
 10
2823.505537476717
 20
102.632356054226
 30
0.0
  0
ENDBLK
  5
7906
330
78FB
100
AcDbEntity
  8
0
100
AcDbBlockEnd
  0
BLOCK
  5
7908
330
7907
100
AcDbEntity
  8
0
100
AcDbBlockBegin
  2
*D33
 70
     1
 10
0.0
 20
0.0
 30
0.0
  3
*D33
  1

  0
LINE
  5
7909
330
7907
100
AcDbEntity
  8
寸法線
 62
     0
 48
0.1
370
    -2
100
AcDbLine
 10
2781.105537476717
 20
427.6323560542261
 30
0.0
 11
2883.505537476717
 21
427.6323560542261
 31
0.0
  0
LINE
  5
790A
330
7907
100
AcDbEntity
  8
寸法線
 62
     0
 48
0.1
370
    -2
100
AcDbLine
 10
2819.605537476717
 20
159.6323560542259
 30
0.0
 11
2883.505537476717
 21
159.6323560542259
 31
0.0
  0
LINE
  5
790B
330
7907
100
AcDbEntity
  8
寸法線
 62
     0
 48
0.1
370
    -2
100
AcDbLine
 10
2883.505537476717
 20
427.6323560542261
 30
0.0
 11
2883.505537476717
 21
159.6323560542259
 31
0.0
  0
INSERT
  5
790C
330
7907
100
AcDbEntity
  8
寸法線
 62
     0
 48
0.1
370
    -2
100
AcDbBlockReference
  2
_DotSmall
 10
2883.505537476717
 20
427.6323560542261
 30
0.0
 41
3.9
 42
3.9
 43
3.9
 50
90.0
  0
INSERT
  5
790D
330
7907
100
AcDbEntity
  8
寸法線
 62
     0
 48
0.1
370
    -2
100
AcDbBlockReference
  2
_DotSmall
 10
2883.505537476717
 20
159.6323560542259
 30
0.0
 41
3.9
 42
3.9
 43
3.9
 50
270.0
  0
MTEXT
  5
790E
330
7907
100
AcDbEntity
  8
寸法線
 62
     7
 48
0.1
100
AcDbMText
 10
2881.355537476717
 20
293.6323560542265
 30
0.0
 40
2.5
 41
0.0
 71
     5
 72
     1
  1
268
 11
0.0000000000000001
 21
1.0
 31
0.0
 73
     1
 44
1.0
1001
ACAD
1000
MTEXTBEGIN
1070
    73
1070
     1
1070
    44
1040
1.0
1070
    74
1070
     0
1000
MTEXTEND
  0
POINT
  5
790F
330
7907
100
AcDbEntity
  8
Defpoints
 62
     0
 48
0.1
100
AcDbPoint
 10
2779.005537476717
 20
427.6323560542261
 30
0.0
  0
POINT
  5
7910
330
7907
100
AcDbEntity
  8
Defpoints
 62
     0
 48
0.1
100
AcDbPoint
 10
2817.505537476717
 20
159.6323560542259
 30
0.0
  0
POINT
  5
7911
330
7907
100
AcDbEntity
  8
Defpoints
 62
     0
 48
0.1
100
AcDbPoint
 10
2883.505537476717
 20
159.6323560542259
 30
0.0
  0
ENDBLK
  5
7912
330
7907
100
AcDbEntity
  8
0
100
AcDbBlockEnd
  0
BLOCK
  5
7CBC
330
7CBB
100
AcDbEntity
  8
0
100
AcDbBlockBegin
  2
*D35
 70
     1
 10
0.0
 20
0.0
 30
0.0
  3
*D35
  1

  0
LINE
  5
7DDE
330
7CBB
100
AcDbEntity
  8
寸法線
 62
     0
 48
0.1
370
    -2
100
AcDbLine
 10
227.9963173413825
 20
777.2856004560136
 30
0.0
 11
227.9963173413825
 21
842.7856004560137
 31
0.0
  0
LINE
  5
7DDF
330
7CBB
100
AcDbEntity
  8
寸法線
 62
     0
 48
0.1
370
    -2
100
AcDbLine
 10
642.9963173413825
 20
777.2856004560136
 30
0.0
 11
642.9963173413825
 21
842.7856004560137
 31
0.0
  0
LINE
  5
7DE0
330
7CBB
100
AcDbEntity
  8
寸法線
 62
     0
 48
0.1
370
    -2
100
AcDbLine
 10
227.9963173413825
 20
842.7856004560137
 30
0.0
 11
642.9963173413825
 21
842.7856004560137
 31
0.0
  0
INSERT
  5
7DE1
330
7CBB
100
AcDbEntity
  8
寸法線
 62
     0
 48
0.1
370
    -2
100
AcDbBlockReference
  2
_DotSmall
 10
227.9963173413825
 20
842.7856004560137
 30
0.0
 41
19.5
 42
19.5
 43
19.5
 50
180.0
  0
INSERT
  5
7DE2
330
7CBB
100
AcDbEntity
  8
寸法線
 62
     0
 48
0.1
370
    -2
100
AcDbBlockReference
  2
_DotSmall
 10
642.9963173413825
 20
842.7856004560137
 30
0.0
 41
19.5
 42
19.5
 43
19.5
  0
MTEXT
  5
7DE3
330
7CBB
100
AcDbEntity
  8
寸法線
 62
     7
 48
0.1
100
AcDbMText
 10
435.4963173413826
 20
853.5356004560137
 30
0.0
 40
12.5
 41
0.0
 71
     5
 72
     1
  1
415
 73
     1
 44
1.0
1001
ACAD
1000
MTEXTBEGIN
1070
    73
1070
     1
1070
    44
1040
1.0
1070
    74
1070
     0
1000
MTEXTEND
  0
POINT
  5
7DE4
330
7CBB
100
AcDbEntity
  8
Defpoints
 62
     0
 48
0.1
100
AcDbPoint
 10
227.9963173413825
 20
766.7856004560136
 30
0.0
  0
POINT
  5
7DE5
330
7CBB
100
AcDbEntity
  8
Defpoints
 62
     0
 48
0.1
100
AcDbPoint
 10
642.9963173413825
 20
766.7856004560136
 30
0.0
  0
POINT
  5
7DE6
330
7CBB
100
AcDbEntity
  8
Defpoints
 62
     0
 48
0.1
100
AcDbPoint
 10
642.9963173413825
 20
842.7856004560137
 30
0.0
  0
ENDBLK
  5
7CBD
330
7CBB
100
AcDbEntity
  8
0
100
AcDbBlockEnd
  0
BLOCK
  5
7CC8
330
7CC7
100
AcDbEntity
  8
0
100
AcDbBlockBegin
  2
*D36
 70
     1
 10
0.0
 20
0.0
 30
0.0
  3
*D36
  1

  0
LINE
  5
7DD5
330
7CC7
100
AcDbEntity
  8
寸法線
 62
     0
 48
0.1
370
    -2
100
AcDbLine
 10
207.4963173413826
 20
760.2856004560138
 30
0.0
 11
147.9963173413826
 21
760.2856004560138
 31
0.0
  0
LINE
  5
7DD6
330
7CC7
100
AcDbEntity
  8
寸法線
 62
     0
 48
0.1
370
    -2
100
AcDbLine
 10
207.4963173413826
 20
598.2856004560136
 30
0.0
 11
147.9963173413825
 21
598.2856004560136
 31
0.0
  0
LINE
  5
7DD7
330
7CC7
100
AcDbEntity
  8
寸法線
 62
     0
 48
0.1
370
    -2
100
AcDbLine
 10
147.9963173413826
 20
760.2856004560138
 30
0.0
 11
147.9963173413825
 21
598.2856004560136
 31
0.0
  0
INSERT
  5
7DD8
330
7CC7
100
AcDbEntity
  8
寸法線
 62
     0
 48
0.1
370
    -2
100
AcDbBlockReference
  2
_DotSmall
 10
147.9963173413826
 20
760.2856004560138
 30
0.0
 41
19.5
 42
19.5
 43
19.5
 50
90.0
  0
INSERT
  5
7DD9
330
7CC7
100
AcDbEntity
  8
寸法線
 62
     0
 48
0.1
370
    -2
100
AcDbBlockReference
  2
_DotSmall
 10
147.9963173413825
 20
598.2856004560136
 30
0.0
 41
19.5
 42
19.5
 43
19.5
 50
270.0
  0
MTEXT
  5
7DDA
330
7CC7
100
AcDbEntity
  8
寸法線
 62
     7
 48
0.1
100
AcDbMText
 10
137.2463173413824
 20
679.2856004560137
 30
0.0
 40
12.5
 41
0.0
 71
     5
 72
     1
  1
162
 11
0.0000000000000001
 21
1.0
 31
0.0
 73
     1
 44
1.0
1001
ACAD
1000
MTEXTBEGIN
1070
    73
1070
     1
1070
    44
1040
1.0
1070
    74
1070
     0
1000
MTEXTEND
  0
POINT
  5
7DDB
330
7CC7
100
AcDbEntity
  8
Defpoints
 62
     0
 48
0.1
100
AcDbPoint
 10
217.9963173413826
 20
760.2856004560138
 30
0.0
  0
POINT
  5
7DDC
330
7CC7
100
AcDbEntity
  8
Defpoints
 62
     0
 48
0.1
100
AcDbPoint
 10
217.9963173413826
 20
598.2856004560136
 30
0.0
  0
POINT
  5
7DDD
330
7CC7
100
AcDbEntity
  8
Defpoints
 62
     0
 48
0.1
100
AcDbPoint
 10
147.9963173413825
 20
598.2856004560136
 30
0.0
  0
ENDBLK
  5
7CC9
330
7CC7
100
AcDbEntity
  8
0
100
AcDbBlockEnd
  0
BLOCK
  5
7CD4
330
7CD3
100
AcDbEntity
  8
0
100
AcDbBlockBegin
  2
*D37
 70
     1
 10
0.0
 20
0.0
 30
0.0
  3
*D37
  1

  0
LINE
  5
7DCC
330
7CD3
100
AcDbEntity
  8
寸法線
 62
     0
 48
0.1
370
    -2
100
AcDbLine
 10
207.9963173413826
 20
597.7856004560136
 30
0.0
 11
207.9963173413826
 21
538.2856004560136
 31
0.0
  0
LINE
  5
7DCD
330
7CD3
100
AcDbEntity
  8
寸法線
 62
     0
 48
0.1
370
    -2
100
AcDbLine
 10
662.9963173413825
 20
597.7856004560136
 30
0.0
 11
662.9963173413825
 21
538.2856004560136
 31
0.0
  0
LINE
  5
7DCE
330
7CD3
100
AcDbEntity
  8
寸法線
 62
     0
 48
0.1
370
    -2
100
AcDbLine
 10
207.9963173413826
 20
538.2856004560136
 30
0.0
 11
662.9963173413825
 21
538.2856004560136
 31
0.0
  0
INSERT
  5
7DCF
330
7CD3
100
AcDbEntity
  8
寸法線
 62
     0
 48
0.1
370
    -2
100
AcDbBlockReference
  2
_DotSmall
 10
207.9963173413826
 20
538.2856004560136
 30
0.0
 41
19.5
 42
19.5
 43
19.5
 50
180.0
  0
INSERT
  5
7DD0
330
7CD3
100
AcDbEntity
  8
寸法線
 62
     0
 48
0.1
370
    -2
100
AcDbBlockReference
  2
_DotSmall
 10
662.9963173413825
 20
538.2856004560136
 30
0.0
 41
19.5
 42
19.5
 43
19.5
  0
MTEXT
  5
7DD1
330
7CD3
100
AcDbEntity
  8
寸法線
 62
     7
 48
0.1
100
AcDbMText
 10
435.4963173413826
 20
549.0356004560136
 30
0.0
 40
12.5
 41
0.0
 71
     5
 72
     1
  1
455
 73
     1
 44
1.0
1001
ACAD
1000
MTEXTBEGIN
1070
    73
1070
     1
1070
    44
1040
1.0
1070
    74
1070
     0
1000
MTEXTEND
  0
POINT
  5
7DD2
330
7CD3
100
AcDbEntity
  8
Defpoints
 62
     0
 48
0.1
100
AcDbPoint
 10
207.9963173413826
 20
608.2856004560136
 30
0.0
  0
POINT
  5
7DD3
330
7CD3
100
AcDbEntity
  8
Defpoints
 62
     0
 48
0.1
100
AcDbPoint
 10
662.9963173413825
 20
608.2856004560136
 30
0.0
  0
POINT
  5
7DD4
330
7CD3
100
AcDbEntity
  8
Defpoints
 62
     0
 48
0.1
100
AcDbPoint
 10
662.9963173413825
 20
538.2856004560136
 30
0.0
  0
ENDBLK
  5
7CD5
330
7CD3
100
AcDbEntity
  8
0
100
AcDbBlockEnd
  0
BLOCK
  5
7CE0
330
7CDF
100
AcDbEntity
  8
0
100
AcDbBlockBegin
  2
*D38
 70
     1
 10
0.0
 20
0.0
 30
0.0
  3
*D38
  1

  0
LINE
  5
7DC3
330
7CDF
100
AcDbEntity
  8
寸法線
 62
     0
 48
0.1
370
    -2
100
AcDbLine
 10
207.4963173413826
 20
760.2856004560136
 30
0.0
 11
147.9963173413826
 21
760.2856004560136
 31
0.0
  0
LINE
  5
7DC4
330
7CDF
100
AcDbEntity
  8
寸法線
 62
     0
 48
0.1
370
    -2
100
AcDbLine
 10
217.4963173413825
 20
782.7856004560136
 30
0.0
 11
147.9963173413826
 21
782.7856004560136
 31
0.0
  0
LINE
  5
7DC5
330
7CDF
100
AcDbEntity
  8
寸法線
 62
     0
 48
0.1
370
    -2
100
AcDbLine
 10
147.9963173413826
 20
760.2856004560136
 30
0.0
 11
147.9963173413826
 21
782.7856004560136
 31
0.0
  0
INSERT
  5
7DC6
330
7CDF
100
AcDbEntity
  8
寸法線
 62
     0
 48
0.1
370
    -2
100
AcDbBlockReference
  2
_DotSmall
 10
147.9963173413826
 20
760.2856004560136
 30
0.0
 41
19.5
 42
19.5
 43
19.5
 50
270.0
  0
INSERT
  5
7DC7
330
7CDF
100
AcDbEntity
  8
寸法線
 62
     0
 48
0.1
370
    -2
100
AcDbBlockReference
  2
_DotSmall
 10
147.9963173413826
 20
782.7856004560136
 30
0.0
 41
19.5
 42
19.5
 43
19.5
 50
90.0
  0
MTEXT
  5
7DC8
330
7CDF
100
AcDbEntity
  8
寸法線
 62
     7
 48
0.1
100
AcDbMText
 10
137.2463173413825
 20
771.5356004560136
 30
0.0
 40
12.5
 41
0.0
 71
     5
 72
     1
  1
22.5
 11
0.0000000000000001
 21
1.0
 31
0.0
 73
     1
 44
1.0
1001
ACAD
1000
MTEXTBEGIN
1070
    73
1070
     1
1070
    44
1040
1.0
1070
    74
1070
     0
1000
MTEXTEND
  0
POINT
  5
7DC9
330
7CDF
100
AcDbEntity
  8
Defpoints
 62
     0
 48
0.1
100
AcDbPoint
 10
217.9963173413826
 20
760.2856004560136
 30
0.0
  0
POINT
  5
7DCA
330
7CDF
100
AcDbEntity
  8
Defpoints
 62
     0
 48
0.1
100
AcDbPoint
 10
227.9963173413825
 20
782.7856004560136
 30
0.0
  0
POINT
  5
7DCB
330
7CDF
100
AcDbEntity
  8
Defpoints
 62
     0
 48
0.1
100
AcDbPoint
 10
147.9963173413826
 20
782.7856004560136
 30
0.0
  0
ENDBLK
  5
7CE1
330
7CDF
100
AcDbEntity
  8
0
100
AcDbBlockEnd
  0
BLOCK
  5
7CEC
330
7CEB
100
AcDbEntity
  8
0
100
AcDbBlockBegin
  2
*D39
 70
     1
 10
0.0
 20
0.0
 30
0.0
  3
*D39
  1

  0
LINE
  5
7DBA
330
7CEB
100
AcDbEntity
  8
寸法線
 62
     0
 48
0.1
370
    -2
100
AcDbLine
 10
244.4963173413825
 20
260.6999640731052
 30
0.0
 11
244.4963173413825
 21
313.1999640731052
 31
0.0
  0
LINE
  5
7DBB
330
7CEB
100
AcDbEntity
  8
寸法線
 62
     0
 48
0.1
370
    -2
100
AcDbLine
 10
626.4963173413825
 20
260.6999640731052
 30
0.0
 11
626.4963173413825
 21
313.1999640731052
 31
0.0
  0
LINE
  5
7DBC
330
7CEB
100
AcDbEntity
  8
寸法線
 62
     0
 48
0.1
370
    -2
100
AcDbLine
 10
244.4963173413825
 20
313.1999640731052
 30
0.0
 11
626.4963173413825
 21
313.1999640731052
 31
0.0
  0
INSERT
  5
7DBD
330
7CEB
100
AcDbEntity
  8
寸法線
 62
     0
 48
0.1
370
    -2
100
AcDbBlockReference
  2
_DotSmall
 10
244.4963173413825
 20
313.1999640731052
 30
0.0
 41
19.5
 42
19.5
 43
19.5
 50
180.0
  0
INSERT
  5
7DBE
330
7CEB
100
AcDbEntity
  8
寸法線
 62
     0
 48
0.1
370
    -2
100
AcDbBlockReference
  2
_DotSmall
 10
626.4963173413825
 20
313.1999640731052
 30
0.0
 41
19.5
 42
19.5
 43
19.5
  0
MTEXT
  5
7DBF
330
7CEB
100
AcDbEntity
  8
寸法線
 62
     7
 48
0.1
100
AcDbMText
 10
435.4963173413826
 20
323.9499640731052
 30
0.0
 40
12.5
 41
0.0
 71
     5
 72
     1
  1
382
 73
     1
 44
1.0
1001
ACAD
1000
MTEXTBEGIN
1070
    73
1070
     1
1070
    44
1040
1.0
1070
    74
1070
     0
1000
MTEXTEND
  0
POINT
  5
7DC0
330
7CEB
100
AcDbEntity
  8
Defpoints
 62
     0
 48
0.1
100
AcDbPoint
 10
244.4963173413825
 20
250.1999640731052
 30
0.0
  0
POINT
  5
7DC1
330
7CEB
100
AcDbEntity
  8
Defpoints
 62
     0
 48
0.1
100
AcDbPoint
 10
626.4963173413825
 20
250.1999640731052
 30
0.0
  0
POINT
  5
7DC2
330
7CEB
100
AcDbEntity
  8
Defpoints
 62
     0
 48
0.1
100
AcDbPoint
 10
626.4963173413825
 20
313.1999640731052
 30
0.0
  0
ENDBLK
  5
7CED
330
7CEB
100
AcDbEntity
  8
0
100
AcDbBlockEnd
  0
BLOCK
  5
7CF8
330
7CF7
100
AcDbEntity
  8
0
100
AcDbBlockBegin
  2
*D40
 70
     1
 10
0.0
 20
0.0
 30
0.0
  3
*D40
  1

  0
LINE
  5
7DB1
330
7CF7
100
AcDbEntity
  8
寸法線
 62
     0
 48
0.1
370
    -2
100
AcDbLine
 10
210.4963153881708
 20
180.6222358951513
 30
0.0
 11
210.4963153881708
 21
124.6222358951513
 31
0.0
  0
LINE
  5
7DB2
330
7CF7
100
AcDbEntity
  8
寸法線
 62
     0
 48
0.1
370
    -2
100
AcDbLine
 10
660.4963192945943
 20
180.6222358951513
 30
0.0
 11
660.4963192945943
 21
124.6222358951513
 31
0.0
  0
LINE
  5
7DB3
330
7CF7
100
AcDbEntity
  8
寸法線
 62
     0
 48
0.1
370
    -2
100
AcDbLine
 10
210.4963153881708
 20
124.6222358951513
 30
0.0
 11
660.4963192945943
 21
124.6222358951513
 31
0.0
  0
INSERT
  5
7DB4
330
7CF7
100
AcDbEntity
  8
寸法線
 62
     0
 48
0.1
370
    -2
100
AcDbBlockReference
  2
_DotSmall
 10
210.4963153881708
 20
124.6222358951513
 30
0.0
 41
19.5
 42
19.5
 43
19.5
 50
180.0
  0
INSERT
  5
7DB5
330
7CF7
100
AcDbEntity
  8
寸法線
 62
     0
 48
0.1
370
    -2
100
AcDbBlockReference
  2
_DotSmall
 10
660.4963192945943
 20
124.6222358951513
 30
0.0
 41
19.5
 42
19.5
 43
19.5
  0
MTEXT
  5
7DB6
330
7CF7
100
AcDbEntity
  8
寸法線
 62
     7
 48
0.1
100
AcDbMText
 10
435.4963173413826
 20
135.3722358951513
 30
0.0
 40
12.5
 41
0.0
 71
     5
 72
     1
  1
450
 73
     1
 44
1.0
1001
ACAD
1000
MTEXTBEGIN
1070
    73
1070
     1
1070
    44
1040
1.0
1070
    74
1070
     0
1000
MTEXTEND
  0
POINT
  5
7DB7
330
7CF7
100
AcDbEntity
  8
Defpoints
 62
     0
 48
0.1
100
AcDbPoint
 10
210.4963153881708
 20
191.1222358951513
 30
0.0
  0
POINT
  5
7DB8
330
7CF7
100
AcDbEntity
  8
Defpoints
 62
     0
 48
0.1
100
AcDbPoint
 10
660.4963192945943
 20
191.1222358951513
 30
0.0
  0
POINT
  5
7DB9
330
7CF7
100
AcDbEntity
  8
Defpoints
 62
     0
 48
0.1
100
AcDbPoint
 10
660.4963192945943
 20
124.6222358951513
 30
0.0
  0
ENDBLK
  5
7CF9
330
7CF7
100
AcDbEntity
  8
0
100
AcDbBlockEnd
  0
BLOCK
  5
7D04
330
7D03
100
AcDbEntity
  8
0
100
AcDbBlockBegin
  2
*D41
 70
     1
 10
0.0
 20
0.0
 30
0.0
  3
*D41
  1

  0
LINE
  5
7DA8
330
7D03
100
AcDbEntity
  8
寸法線
 62
     0
 48
0.1
370
    -2
100
AcDbLine
 10
217.4963173413825
 20
181.6222358951514
 30
0.0
 11
147.9963173413825
 21
181.6222358951515
 31
0.0
  0
LINE
  5
7DA9
330
7D03
100
AcDbEntity
  8
寸法線
 62
     0
 48
0.1
370
    -2
100
AcDbLine
 10
236.9963173413826
 20
366.6222358951513
 30
0.0
 11
147.9963173413825
 21
366.6222358951513
 31
0.0
  0
LINE
  5
7DAA
330
7D03
100
AcDbEntity
  8
寸法線
 62
     0
 48
0.1
370
    -2
100
AcDbLine
 10
147.9963173413825
 20
181.6222358951515
 30
0.0
 11
147.9963173413825
 21
366.6222358951513
 31
0.0
  0
INSERT
  5
7DAB
330
7D03
100
AcDbEntity
  8
寸法線
 62
     0
 48
0.1
370
    -2
100
AcDbBlockReference
  2
_DotSmall
 10
147.9963173413825
 20
181.6222358951515
 30
0.0
 41
19.5
 42
19.5
 43
19.5
 50
270.0
  0
INSERT
  5
7DAC
330
7D03
100
AcDbEntity
  8
寸法線
 62
     0
 48
0.1
370
    -2
100
AcDbBlockReference
  2
_DotSmall
 10
147.9963173413825
 20
366.6222358951513
 30
0.0
 41
19.5
 42
19.5
 43
19.5
 50
90.0
  0
MTEXT
  5
7DAD
330
7D03
100
AcDbEntity
  8
寸法線
 62
     7
 48
0.1
100
AcDbMText
 10
137.2463173413825
 20
274.1222358951514
 30
0.0
 40
12.5
 41
0.0
 71
     5
 72
     1
  1
185
 11
0.0000000000000001
 21
1.0
 31
0.0
 73
     1
 44
1.0
1001
ACAD
1000
MTEXTBEGIN
1070
    73
1070
     1
1070
    44
1040
1.0
1070
    74
1070
     0
1000
MTEXTEND
  0
POINT
  5
7DAE
330
7D03
100
AcDbEntity
  8
Defpoints
 62
     0
 48
0.1
100
AcDbPoint
 10
227.9963173413825
 20
181.6222358951514
 30
0.0
  0
POINT
  5
7DAF
330
7D03
100
AcDbEntity
  8
Defpoints
 62
     0
 48
0.1
100
AcDbPoint
 10
247.4963173413826
 20
366.6222358951513
 30
0.0
  0
POINT
  5
7DB0
330
7D03
100
AcDbEntity
  8
Defpoints
 62
     0
 48
0.1
100
AcDbPoint
 10
147.9963173413825
 20
366.6222358951513
 30
0.0
  0
ENDBLK
  5
7D05
330
7D03
100
AcDbEntity
  8
0
100
AcDbBlockEnd
  0
BLOCK
  5
7D10
330
7D0F
100
AcDbEntity
  8
0
100
AcDbBlockBegin
  2
*D42
 70
     1
 10
0.0
 20
0.0
 30
0.0
  3
*D42
  1

  0
LINE
  5
7D9F
330
7D0F
100
AcDbEntity
  8
寸法線
 62
     0
 48
0.1
370
    -2
100
AcDbLine
 10
669.9963192945943
 20
190.1222358951513
 30
0.0
 11
720.4963192945943
 21
190.1222358951513
 31
0.0
  0
LINE
  5
7DA0
330
7D0F
100
AcDbEntity
  8
寸法線
 62
     0
 48
0.1
370
    -2
100
AcDbLine
 10
670.4963173413825
 20
225.1222358951513
 30
0.0
 11
720.4963192945943
 21
225.1222358951513
 31
0.0
  0
LINE
  5
7DA1
330
7D0F
100
AcDbEntity
  8
寸法線
 62
     0
 48
0.1
370
    -2
100
AcDbLine
 10
720.4963192945943
 20
190.1222358951513
 30
0.0
 11
720.4963192945943
 21
225.1222358951513
 31
0.0
  0
INSERT
  5
7DA2
330
7D0F
100
AcDbEntity
  8
寸法線
 62
     0
 48
0.1
370
    -2
100
AcDbBlockReference
  2
_DotSmall
 10
720.4963192945943
 20
190.1222358951513
 30
0.0
 41
19.5
 42
19.5
 43
19.5
 50
270.0
  0
INSERT
  5
7DA3
330
7D0F
100
AcDbEntity
  8
寸法線
 62
     0
 48
0.1
370
    -2
100
AcDbBlockReference
  2
_DotSmall
 10
720.4963192945943
 20
225.1222358951513
 30
0.0
 41
19.5
 42
19.5
 43
19.5
 50
90.0
  0
MTEXT
  5
7DA4
330
7D0F
100
AcDbEntity
  8
寸法線
 62
     7
 48
0.1
100
AcDbMText
 10
709.7463192945943
 20
207.6222358951514
 30
0.0
 40
12.5
 41
0.0
 71
     5
 72
     1
  1
35
 11
0.0000000000000001
 21
1.0
 31
0.0
 73
     1
 44
1.0
1001
ACAD
1000
MTEXTBEGIN
1070
    73
1070
     1
1070
    44
1040
1.0
1070
    74
1070
     0
1000
MTEXTEND
  0
POINT
  5
7DA5
330
7D0F
100
AcDbEntity
  8
Defpoints
 62
     0
 48
0.1
100
AcDbPoint
 10
659.4963192945942
 20
190.1222358951513
 30
0.0
  0
POINT
  5
7DA6
330
7D0F
100
AcDbEntity
  8
Defpoints
 62
     0
 48
0.1
100
AcDbPoint
 10
659.9963173413826
 20
225.1222358951513
 30
0.0
  0
POINT
  5
7DA7
330
7D0F
100
AcDbEntity
  8
Defpoints
 62
     0
 48
0.1
100
AcDbPoint
 10
720.4963192945943
 20
225.1222358951513
 30
0.0
  0
ENDBLK
  5
7D11
330
7D0F
100
AcDbEntity
  8
0
100
AcDbBlockEnd
  0
BLOCK
  5
7D1C
330
7D1B
100
AcDbEntity
  8
0
100
AcDbBlockBegin
  2
*D43
 70
     1
 10
0.0
 20
0.0
 30
0.0
  3
*D43
  1

  0
LINE
  5
7D96
330
7D1B
100
AcDbEntity
  8
寸法線
 62
     0
 48
0.1
370
    -2
100
AcDbLine
 10
921.4755994227862
 20
210.6222358951514
 30
0.0
 11
921.4755994227862
 21
124.6222358951513
 31
0.0
  0
LINE
  5
7D97
330
7D1B
100
AcDbEntity
  8
寸法線
 62
     0
 48
0.1
370
    -2
100
AcDbLine
 10
1105.975599422786
 20
177.1222358951513
 30
0.0
 11
1105.975599422786
 21
124.6222358951513
 31
0.0
  0
LINE
  5
7D98
330
7D1B
100
AcDbEntity
  8
寸法線
 62
     0
 48
0.1
370
    -2
100
AcDbLine
 10
921.4755994227862
 20
124.6222358951513
 30
0.0
 11
1105.975599422786
 21
124.6222358951513
 31
0.0
  0
INSERT
  5
7D99
330
7D1B
100
AcDbEntity
  8
寸法線
 62
     0
 48
0.1
370
    -2
100
AcDbBlockReference
  2
_DotSmall
 10
921.4755994227862
 20
124.6222358951513
 30
0.0
 41
19.5
 42
19.5
 43
19.5
 50
180.0
  0
INSERT
  5
7D9A
330
7D1B
100
AcDbEntity
  8
寸法線
 62
     0
 48
0.1
370
    -2
100
AcDbBlockReference
  2
_DotSmall
 10
1105.975599422786
 20
124.6222358951513
 30
0.0
 41
19.5
 42
19.5
 43
19.5
  0
MTEXT
  5
7D9B
330
7D1B
100
AcDbEntity
  8
寸法線
 62
     7
 48
0.1
100
AcDbMText
 10
1013.725599422786
 20
135.3722358951513
 30
0.0
 40
12.5
 41
0.0
 71
     5
 72
     1
  1
184.5
 73
     1
 44
1.0
1001
ACAD
1000
MTEXTBEGIN
1070
    73
1070
     1
1070
    44
1040
1.0
1070
    74
1070
     0
1000
MTEXTEND
  0
POINT
  5
7D9C
330
7D1B
100
AcDbEntity
  8
Defpoints
 62
     0
 48
0.1
100
AcDbPoint
 10
921.4755994227862
 20
221.1222358951514
 30
0.0
  0
POINT
  5
7D9D
330
7D1B
100
AcDbEntity
  8
Defpoints
 62
     0
 48
0.1
100
AcDbPoint
 10
1105.975599422786
 20
187.6222358951513
 30
0.0
  0
POINT
  5
7D9E
330
7D1B
100
AcDbEntity
  8
Defpoints
 62
     0
 48
0.1
100
AcDbPoint
 10
1105.975599422786
 20
124.6222358951513
 30
0.0
  0
ENDBLK
  5
7D1D
330
7D1B
100
AcDbEntity
  8
0
100
AcDbBlockEnd
  0
BLOCK
  5
7D28
330
7D27
100
AcDbEntity
  8
0
100
AcDbBlockBegin
  2
*D44
 70
     1
 10
0.0
 20
0.0
 30
0.0
  3
*D44
  1

  0
LINE
  5
7D8D
330
7D27
100
AcDbEntity
  8
寸法線
 62
     0
 48
0.1
370
    -2
100
AcDbLine
 10
1071.975599422786
 20
449.6222358951514
 30
0.0
 11
1165.975599422786
 21
449.6222358951514
 31
0.0
  0
LINE
  5
7D8E
330
7D27
100
AcDbEntity
  8
寸法線
 62
     0
 48
0.1
370
    -2
100
AcDbLine
 10
1110.475599422786
 20
181.6222358951513
 30
0.0
 11
1165.975599422786
 21
181.6222358951513
 31
0.0
  0
LINE
  5
7D8F
330
7D27
100
AcDbEntity
  8
寸法線
 62
     0
 48
0.1
370
    -2
100
AcDbLine
 10
1165.975599422786
 20
449.6222358951514
 30
0.0
 11
1165.975599422786
 21
181.6222358951513
 31
0.0
  0
INSERT
  5
7D90
330
7D27
100
AcDbEntity
  8
寸法線
 62
     0
 48
0.1
370
    -2
100
AcDbBlockReference
  2
_DotSmall
 10
1165.975599422786
 20
449.6222358951514
 30
0.0
 41
19.5
 42
19.5
 43
19.5
 50
90.0
  0
INSERT
  5
7D91
330
7D27
100
AcDbEntity
  8
寸法線
 62
     0
 48
0.1
370
    -2
100
AcDbBlockReference
  2
_DotSmall
 10
1165.975599422786
 20
181.6222358951513
 30
0.0
 41
19.5
 42
19.5
 43
19.5
 50
270.0
  0
MTEXT
  5
7D92
330
7D27
100
AcDbEntity
  8
寸法線
 62
     7
 48
0.1
100
AcDbMText
 10
1155.225599422786
 20
315.6222358951516
 30
0.0
 40
12.5
 41
0.0
 71
     5
 72
     1
  1
268
 11
0.0000000000000001
 21
1.0
 31
0.0
 73
     1
 44
1.0
1001
ACAD
1000
MTEXTBEGIN
1070
    73
1070
     1
1070
    44
1040
1.0
1070
    74
1070
     0
1000
MTEXTEND
  0
POINT
  5
7D93
330
7D27
100
AcDbEntity
  8
Defpoints
 62
     0
 48
0.1
100
AcDbPoint
 10
1061.475599422786
 20
449.6222358951514
 30
0.0
  0
POINT
  5
7D94
330
7D27
100
AcDbEntity
  8
Defpoints
 62
     0
 48
0.1
100
AcDbPoint
 10
1099.975599422786
 20
181.6222358951513
 30
0.0
  0
POINT
  5
7D95
330
7D27
100
AcDbEntity
  8
Defpoints
 62
     0
 48
0.1
100
AcDbPoint
 10
1165.975599422786
 20
181.6222358951513
 30
0.0
  0
ENDBLK
  5
7D29
330
7D27
100
AcDbEntity
  8
0
100
AcDbBlockEnd
  0
ENDSEC
  0
SECTION
  2
ENTITIES
  0
MTEXT
  5
6F7E
330
1F
100
AcDbEntity
  8
図面枠
 62
     0
100
AcDbMText
 10
242.4999999999977
 20
59.99999999999545
 30
0.0
 40
14.99999999999981
 41
0.0
 71
     4
 72
     5
  1
ﾚｰﾘﾝｸﾞｼｽﾃﾑ　LINERO　小物置き
 73
     1
 44
1.0
1001
ACAD
1000
MTEXTBEGIN
1070
    73
1070
     1
1070
    44
1040
1.0
1070
    74
1070
     0
1000
MTEXTEND
  0
MTEXT
  5
6F82
330
1F
100
AcDbEntity
  8
図面枠
 62
     0
100
AcDbMText
 10
242.4999999999977
 20
19.99999999999545
 30
0.0
 40
14.99999999999981
 41
0.0
 71
     4
 72
     5
  1
Art.No. 521.19.267
 73
     1
 44
1.0
1001
ACAD
1000
MTEXTBEGIN
1070
    73
1070
     1
1070
    44
1040
1.0
1070
    74
1070
     0
1000
MTEXTEND
  0
LINE
  5
7AFA
330
1F
100
AcDbEntity
  8
破線
 48
0.1
100
AcDbLine
 10
230.9963173413826
 20
780.2856004560136
 30
0.0
 11
224.9963173413826
 21
780.2856004560136
 31
0.0
  0
LINE
  5
7AFB
330
1F
100
AcDbEntity
  8
実線  太
100
AcDbLine
 10
224.4963173413826
 20
766.7856004560136
 30
0.0
 11
231.4963173413826
 21
766.7856004560136
 31
0.0
  0
LINE
  5
7AFC
330
1F
100
AcDbEntity
  8
実線  細
100
AcDbLine
 10
233.9963173413825
 20
776.7856004560136
 30
0.0
 11
221.9963173413826
 21
776.7856004560136
 31
0.0
  0
ARC
  5
7AFD
330
1F
100
AcDbEntity
  8
実線  太
100
AcDbCircle
 10
227.9963173413825
 20
776.7856004560136
 30
0.0
 40
6.0
100
AcDbArc
 50
0.0
 51
180.0
  0
LINE
  5
7AFE
330
1F
100
AcDbEntity
  8
破線
 48
0.1
100
AcDbLine
 10
224.9963173413826
 20
766.7856004560136
 30
0.0
 11
224.9963173413826
 21
780.2856004560136
 31
0.0
  0
LINE
  5
7AFF
330
1F
100
AcDbEntity
  8
実線  太
100
AcDbLine
 10
224.4963173413826
 20
766.7856004560136
 30
0.0
 11
221.9963173413826
 21
776.7856004560136
 31
0.0
  0
LINE
  5
7B00
330
1F
100
AcDbEntity
  8
破線
 48
0.1
100
AcDbLine
 10
230.9963173413826
 20
766.7856004560136
 30
0.0
 11
230.9963173413826
 21
780.2856004560136
 31
0.0
  0
LINE
  5
7B01
330
1F
100
AcDbEntity
  8
実線  太
100
AcDbLine
 10
230.9963173413826
 20
604.2856004560136
 30
0.0
 11
230.9963173413826
 21
614.2856004560136
 31
0.0
  0
LINE
  5
7B02
330
1F
100
AcDbEntity
  8
実線  太
100
AcDbLine
 10
231.4963173413826
 20
766.7856004560136
 30
0.0
 11
233.9963173413825
 21
776.7856004560136
 31
0.0
  0
LINE
  5
7B03
330
1F
100
AcDbEntity
  8
実線  太
100
AcDbLine
 10
247.4963173413826
 20
726.2856004560136
 30
0.0
 11
247.4963173413826
 21
750.2856004560136
 31
0.0
  0
ARC
  5
7B04
330
1F
100
AcDbEntity
  8
実線  太
100
AcDbCircle
 10
244.4963173413825
 20
726.2856004560136
 30
0.0
 40
3.0
100
AcDbArc
 50
180.0
 51
0.0
  0
ARC
  5
7B05
330
1F
100
AcDbEntity
  8
実線  太
100
AcDbCircle
 10
244.4963173413825
 20
762.2856004560136
 30
0.0
 40
3.0
100
AcDbArc
 50
0.0
 51
180.0
  0
ARC
  5
7B06
330
1F
100
AcDbEntity
  8
実線  太
100
AcDbCircle
 10
244.4963173413825
 20
750.2856004560136
 30
0.0
 40
4.0
100
AcDbArc
 50
318.5903778907302
 51
221.4096221092697
  0
ARC
  5
7B07
330
1F
100
AcDbEntity
  8
実線  太
100
AcDbCircle
 10
244.4963173413825
 20
750.2856004560136
 30
0.0
 40
3.0
100
AcDbArc
 50
0.0
 51
180.0
  0
LINE
  5
7B08
330
1F
100
AcDbEntity
  8
実線  太
100
AcDbLine
 10
247.4963173413826
 20
752.9313517670782
 30
0.0
 11
247.4963173413826
 21
762.2856004560136
 31
0.0
  0
LINE
  5
7B09
330
1F
100
AcDbEntity
  8
実線  太
100
AcDbLine
 10
241.4963173413826
 20
752.9313517670782
 30
0.0
 11
241.4963173413826
 21
762.2856004560136
 31
0.0
  0
LINE
  5
7B0A
330
1F
100
AcDbEntity
  8
実線  太
100
AcDbLine
 10
241.4963173413826
 20
726.2856004560136
 30
0.0
 11
241.4963173413826
 21
750.2856004560136
 31
0.0
  0
LINE
  5
7B0B
330
1F
100
AcDbEntity
  8
実線  太
100
AcDbLine
 10
224.9963173413826
 20
604.2856004560136
 30
0.0
 11
224.9963173413826
 21
614.5356004560134
 31
0.0
  0
LINE
  5
7B0C
330
1F
100
AcDbEntity
  8
実線  太
 48
0.1
100
AcDbLine
 10
207.9963173413826
 20
750.2856004560136
 30
0.0
 11
207.9963173413826
 21
608.2856004560136
 31
0.0
  0
LINE
  5
7B0D
330
1F
100
AcDbEntity
  8
実線  太
 48
0.1
100
AcDbLine
 10
662.9963173413825
 20
750.2856004560137
 30
0.0
 11
662.9963173413825
 21
608.2856004560136
 31
0.0
  0
LINE
  5
7B0E
330
1F
100
AcDbEntity
  8
実線  太
 48
0.1
100
AcDbLine
 10
217.9963173413826
 20
760.2856004560136
 30
0.0
 11
241.4963173413826
 21
760.2856004560136
 31
0.0
  0
LINE
  5
7B0F
330
1F
100
AcDbEntity
  8
実線  太
 48
0.1
100
AcDbLine
 10
217.9963173413826
 20
754.2856004560136
 30
0.0
 11
241.4963173413826
 21
754.2856004560136
 31
0.0
  0
LINE
  5
7B10
330
1F
100
AcDbEntity
  8
実線  太
 48
0.1
100
AcDbLine
 10
213.9963173413826
 20
750.2856004560137
 30
0.0
 11
213.9963173413826
 21
608.2856004560136
 31
0.0
  0
ARC
  5
7B11
330
1F
100
AcDbEntity
  8
実線  太
 48
0.1
100
AcDbCircle
 10
217.9963173413826
 20
750.2856004560137
 30
0.0
 40
10.0
100
AcDbArc
 50
90.0
 51
180.0
  0
ARC
  5
7B12
330
1F
100
AcDbEntity
  8
実線  太
 48
0.1
100
AcDbCircle
 10
217.9963173413826
 20
750.2856004560137
 30
0.0
 40
4.0
100
AcDbArc
 50
90.0
 51
180.0
  0
ARC
  5
7B13
330
1F
100
AcDbEntity
  8
実線  太
 48
0.1
100
AcDbCircle
 10
652.9963173413825
 20
750.2856004560137
 30
0.0
 40
10.0
100
AcDbArc
 50
0.0
 51
90.0
  0
ARC
  5
7B14
330
1F
100
AcDbEntity
  8
実線  太
 48
0.1
100
AcDbCircle
 10
652.9963173413825
 20
750.2856004560137
 30
0.0
 40
4.0
100
AcDbArc
 50
0.0
 51
90.0
  0
LINE
  5
7B15
330
1F
100
AcDbEntity
  8
実線  太
 48
0.1
100
AcDbLine
 10
656.9963173413825
 20
750.2856004560137
 30
0.0
 11
656.9963173413825
 21
608.2856004560136
 31
0.0
  0
ARC
  5
7B16
330
1F
100
AcDbEntity
  8
実線  太
100
AcDbCircle
 10
626.4963173413825
 20
762.2856004560136
 30
0.0
 40
3.0
100
AcDbArc
 50
0.0
 51
180.0
  0
LINE
  5
7B17
330
1F
100
AcDbEntity
  8
実線  太
100
AcDbLine
 10
629.4963173413825
 20
726.2856004560136
 30
0.0
 11
629.4963173413825
 21
750.2856004560136
 31
0.0
  0
LINE
  5
7B18
330
1F
100
AcDbEntity
  8
実線  太
100
AcDbLine
 10
623.4963173413825
 20
726.2856004560136
 30
0.0
 11
623.4963173413825
 21
750.2856004560136
 31
0.0
  0
ARC
  5
7B19
330
1F
100
AcDbEntity
  8
実線  太
100
AcDbCircle
 10
626.4963173413825
 20
726.2856004560136
 30
0.0
 40
3.0
100
AcDbArc
 50
180.0
 51
0.0
  0
ARC
  5
7B1A
330
1F
100
AcDbEntity
  8
実線  太
100
AcDbCircle
 10
626.4963173413825
 20
750.2856004560136
 30
0.0
 40
3.0
100
AcDbArc
 50
0.0
 51
180.0
  0
LINE
  5
7B1B
330
1F
100
AcDbEntity
  8
実線  太
100
AcDbLine
 10
623.4963173413825
 20
752.9313517670782
 30
0.0
 11
623.4963173413825
 21
762.2856004560136
 31
0.0
  0
LINE
  5
7B1C
330
1F
100
AcDbEntity
  8
実線  太
100
AcDbLine
 10
629.4963173413825
 20
752.9313517670782
 30
0.0
 11
629.4963173413825
 21
762.2856004560136
 31
0.0
  0
ARC
  5
7B1D
330
1F
100
AcDbEntity
  8
実線  太
100
AcDbCircle
 10
626.4963173413825
 20
750.2856004560136
 30
0.0
 40
4.0
100
AcDbArc
 50
318.5903778907302
 51
221.4096221092697
  0
LINE
  5
7B1E
330
1F
100
AcDbEntity
  8
実線  太
 48
0.1
100
AcDbLine
 10
247.4963173413826
 20
760.2856004560136
 30
0.0
 11
623.4963173413825
 21
760.2856004560136
 31
0.0
  0
LINE
  5
7B1F
330
1F
100
AcDbEntity
  8
実線  太
 48
0.1
100
AcDbLine
 10
247.4963173413826
 20
754.2856004560135
 30
0.0
 11
623.4963173413825
 21
754.2856004560136
 31
0.0
  0
LINE
  5
7B20
330
1F
100
AcDbEntity
  8
実線  太
 48
0.1
100
AcDbLine
 10
629.4963173413825
 20
760.2856004560136
 30
0.0
 11
652.9963173413825
 21
760.2856004560136
 31
0.0
  0
LINE
  5
7B21
330
1F
100
AcDbEntity
  8
実線  太
 48
0.1
100
AcDbLine
 10
629.4963173413825
 20
754.2856004560136
 30
0.0
 11
652.9963173413825
 21
754.2856004560136
 31
0.0
  0
LINE
  5
7B22
330
1F
100
AcDbEntity
  8
実線  太
 48
0.1
100
AcDbLine
 10
217.9963173413826
 20
598.2856004560136
 30
0.0
 11
652.9963173413825
 21
598.2856004560136
 31
0.0
  0
ARC
  5
7B23
330
1F
100
AcDbEntity
  8
実線  太
 48
0.1
100
AcDbCircle
 10
217.9963173413826
 20
608.2856004560136
 30
0.0
 40
10.0
100
AcDbArc
 50
180.0
 51
270.0
  0
ARC
  5
7B24
330
1F
100
AcDbEntity
  8
実線  太
 48
0.1
100
AcDbCircle
 10
217.9963173413826
 20
608.2856004560136
 30
0.0
 40
4.0
100
AcDbArc
 50
180.0
 51
270.0
  0
ARC
  5
7B25
330
1F
100
AcDbEntity
  8
実線  太
 48
0.1
100
AcDbCircle
 10
652.9963173413825
 20
608.2856004560136
 30
0.0
 40
4.0
100
AcDbArc
 50
270.0
 51
0.0
  0
ARC
  5
7B26
330
1F
100
AcDbEntity
  8
実線  太
 48
0.1
100
AcDbCircle
 10
652.9963173413825
 20
608.2856004560136
 30
0.0
 40
10.0
100
AcDbArc
 50
270.0
 51
0.0
  0
LINE
  5
7B27
330
1F
100
AcDbEntity
  8
実線  太
 48
0.1
100
AcDbLine
 10
217.9963173413826
 20
604.2856004560136
 30
0.0
 11
652.9963173413825
 21
604.2856004560136
 31
0.0
  0
ELLIPSE
  5
7B28
330
1F
100
AcDbEntity
  8
実線  細
100
AcDbEllipse
 10
227.9963173413825
 20
603.6856354830438
 30
0.0
 11
1.85951885593181
 21
0.0
 31
0.0
210
0.0
220
0.0
230
1.0
 40
0.5393869766911418
 41
0.6412159528087836
 42
2.500376700781009
  0
ELLIPSE
  5
7B29
330
1F
100
AcDbEntity
  8
実線  太
100
AcDbEllipse
 10
227.9955724781614
 20
604.2856004560136
 30
0.0
 11
-3.000000000000113
 21
0.0
 31
0.0
210
0.0
220
0.0
230
1.0
 40
0.5835864501031141
 41
3.141592653589793
 42
6.283185307179586
  0
LINE
  5
7B2A
330
1F
100
AcDbEntity
  8
実線  太
100
AcDbLine
 10
224.9963173413826
 20
760.2856004560136
 30
0.0
 11
224.9963173413826
 21
766.7856004560136
 31
0.0
  0
LINE
  5
7B2B
330
1F
100
AcDbEntity
  8
実線  太
100
AcDbLine
 10
230.9963173413826
 20
760.2856004560136
 30
0.0
 11
230.9963173413826
 21
766.7856004560136
 31
0.0
  0
LINE
  5
7B2C
330
1F
100
AcDbEntity
  8
実線  太
 48
0.1
100
AcDbLine
 10
225.2463173413826
 20
742.2856004560136
 30
0.0
 11
241.4963173413826
 21
742.2856004560136
 31
0.0
  0
LINE
  5
7B2D
330
1F
100
AcDbEntity
  8
実線  太
 48
0.1
100
AcDbLine
 10
645.7463173413826
 20
746.2856004560136
 30
0.0
 11
629.4963173413825
 21
746.2856004560136
 31
0.0
  0
LINE
  5
7B2E
330
1F
100
AcDbEntity
  8
実線  細
100
AcDbLine
 10
225.2463173413826
 20
742.2856004560136
 30
0.0
 11
225.2463173413826
 21
746.2856004560136
 31
0.0
  0
LINE
  5
7B2F
330
1F
100
AcDbEntity
  8
実線  太
100
AcDbLine
 10
224.7463173413826
 20
742.7856004560135
 30
0.0
 11
224.7463173413826
 21
745.7856004560136
 31
0.0
  0
LINE
  5
7B30
330
1F
100
AcDbEntity
  8
実線  太
 48
0.1
100
AcDbLine
 10
224.7463173413826
 20
745.7856004560136
 30
0.0
 11
225.2463173413826
 21
746.2856004560136
 31
0.0
  0
LINE
  5
7B31
330
1F
100
AcDbEntity
  8
実線  太
 48
0.1
100
AcDbLine
 10
224.7463173413826
 20
742.7856004560136
 30
0.0
 11
225.2463173413826
 21
742.2856004560136
 31
0.0
  0
LINE
  5
7B32
330
1F
100
AcDbEntity
  8
実線  太
100
AcDbLine
 10
224.9963173413826
 20
746.0356004560136
 30
0.0
 11
224.9963173413826
 21
754.2856004560135
 31
0.0
  0
LINE
  5
7B33
330
1F
100
AcDbEntity
  8
実線  太
100
AcDbLine
 10
230.9963173413826
 20
746.2856004560136
 30
0.0
 11
230.9963173413826
 21
754.2856004560135
 31
0.0
  0
LINE
  5
7B34
330
1F
100
AcDbEntity
  8
実線  太
 48
0.1
100
AcDbLine
 10
646.2463173413826
 20
745.7856004560136
 30
0.0
 11
645.7463173413826
 21
746.2856004560136
 31
0.0
  0
LINE
  5
7B35
330
1F
100
AcDbEntity
  8
実線  太
 48
0.1
100
AcDbLine
 10
646.2463173413826
 20
742.7856004560136
 30
0.0
 11
645.7463173413826
 21
742.2856004560136
 31
0.0
  0
LINE
  5
7B36
330
1F
100
AcDbEntity
  8
実線  太
100
AcDbLine
 10
646.2463173413826
 20
742.7856004560135
 30
0.0
 11
646.2463173413826
 21
745.7856004560136
 31
0.0
  0
LINE
  5
7B37
330
1F
100
AcDbEntity
  8
実線  細
100
AcDbLine
 10
645.7463173413826
 20
742.2856004560136
 30
0.0
 11
645.7463173413826
 21
746.2856004560136
 31
0.0
  0
LINE
  5
7B38
330
1F
100
AcDbEntity
  8
実線  太
 48
0.1
100
AcDbLine
 10
225.2463173413826
 20
731.6189337893469
 30
0.0
 11
241.4963173413826
 21
731.618933789347
 31
0.0
  0
LINE
  5
7B39
330
1F
100
AcDbEntity
  8
実線  細
100
AcDbLine
 10
645.7463173413826
 20
731.6189337893469
 30
0.0
 11
645.7463173413826
 21
735.6189337893468
 31
0.0
  0
LINE
  5
7B3A
330
1F
100
AcDbEntity
  8
実線  太
100
AcDbLine
 10
646.2463173413826
 20
732.1189337893468
 30
0.0
 11
646.2463173413826
 21
735.1189337893469
 31
0.0
  0
LINE
  5
7B3B
330
1F
100
AcDbEntity
  8
実線  太
 48
0.1
100
AcDbLine
 10
646.2463173413826
 20
732.1189337893469
 30
0.0
 11
645.7463173413826
 21
731.6189337893469
 31
0.0
  0
LINE
  5
7B3C
330
1F
100
AcDbEntity
  8
実線  太
 48
0.1
100
AcDbLine
 10
224.7463173413826
 20
735.1189337893469
 30
0.0
 11
225.2463173413826
 21
735.6189337893469
 31
0.0
  0
LINE
  5
7B3D
330
1F
100
AcDbEntity
  8
実線  太
 48
0.1
100
AcDbLine
 10
224.7463173413826
 20
732.1189337893469
 30
0.0
 11
225.2463173413826
 21
731.6189337893469
 31
0.0
  0
LINE
  5
7B3E
330
1F
100
AcDbEntity
  8
実線  太
100
AcDbLine
 10
224.7463173413826
 20
732.1189337893468
 30
0.0
 11
224.7463173413826
 21
735.1189337893469
 31
0.0
  0
LINE
  5
7B3F
330
1F
100
AcDbEntity
  8
実線  細
100
AcDbLine
 10
225.2463173413826
 20
731.6189337893469
 30
0.0
 11
225.2463173413826
 21
735.6189337893469
 31
0.0
  0
LINE
  5
7B40
330
1F
100
AcDbEntity
  8
実線  太
 48
0.1
100
AcDbLine
 10
645.7463173413826
 20
735.6189337893468
 30
0.0
 11
629.4963173413825
 21
735.6189337893468
 31
0.0
  0
LINE
  5
7B41
330
1F
100
AcDbEntity
  8
実線  太
 48
0.1
100
AcDbLine
 10
646.2463173413826
 20
735.1189337893469
 30
0.0
 11
645.7463173413826
 21
735.6189337893469
 31
0.0
  0
LINE
  5
7B42
330
1F
100
AcDbEntity
  8
実線  太
 48
0.1
100
AcDbLine
 10
224.7463173413826
 20
713.7856004560134
 30
0.0
 11
225.2463173413826
 21
714.2856004560134
 31
0.0
  0
LINE
  5
7B43
330
1F
100
AcDbEntity
  8
実線  太
 48
0.1
100
AcDbLine
 10
224.7463173413826
 20
710.7856004560134
 30
0.0
 11
225.2463173413826
 21
710.2856004560134
 31
0.0
  0
LINE
  5
7B44
330
1F
100
AcDbEntity
  8
実線  太
100
AcDbLine
 10
224.7463173413826
 20
710.7856004560133
 30
0.0
 11
224.7463173413826
 21
713.7856004560134
 31
0.0
  0
LINE
  5
7B45
330
1F
100
AcDbEntity
  8
実線  細
100
AcDbLine
 10
225.2463173413826
 20
710.2856004560134
 30
0.0
 11
225.2463173413826
 21
714.2856004560134
 31
0.0
  0
LINE
  5
7B46
330
1F
100
AcDbEntity
  8
実線  太
 48
0.1
100
AcDbLine
 10
645.7463173413826
 20
714.2856004560134
 30
0.0
 11
225.2463173413826
 21
714.2856004560134
 31
0.0
  0
LINE
  5
7B47
330
1F
100
AcDbEntity
  8
実線  太
 48
0.1
100
AcDbLine
 10
225.2463173413826
 20
710.2856004560134
 30
0.0
 11
645.7463173413826
 21
710.2856004560134
 31
0.0
  0
LINE
  5
7B48
330
1F
100
AcDbEntity
  8
実線  細
100
AcDbLine
 10
645.7463173413826
 20
710.2856004560134
 30
0.0
 11
645.7463173413826
 21
714.2856004560134
 31
0.0
  0
LINE
  5
7B49
330
1F
100
AcDbEntity
  8
実線  太
100
AcDbLine
 10
646.2463173413826
 20
710.7856004560133
 30
0.0
 11
646.2463173413826
 21
713.7856004560134
 31
0.0
  0
LINE
  5
7B4A
330
1F
100
AcDbEntity
  8
実線  太
 48
0.1
100
AcDbLine
 10
646.2463173413826
 20
710.7856004560134
 30
0.0
 11
645.7463173413826
 21
710.2856004560134
 31
0.0
  0
LINE
  5
7B4B
330
1F
100
AcDbEntity
  8
実線  太
 48
0.1
100
AcDbLine
 10
646.2463173413826
 20
713.7856004560134
 30
0.0
 11
645.7463173413826
 21
714.2856004560134
 31
0.0
  0
LINE
  5
7B4C
330
1F
100
AcDbEntity
  8
実線  太
 48
0.1
100
AcDbLine
 10
224.7463173413826
 20
724.4522671226802
 30
0.0
 11
225.2463173413826
 21
724.9522671226801
 31
0.0
  0
LINE
  5
7B4D
330
1F
100
AcDbEntity
  8
実線  太
 48
0.1
100
AcDbLine
 10
224.7463173413826
 20
721.4522671226801
 30
0.0
 11
225.2463173413826
 21
720.9522671226801
 31
0.0
  0
LINE
  5
7B4E
330
1F
100
AcDbEntity
  8
実線  太
100
AcDbLine
 10
224.7463173413826
 20
721.45226712268
 30
0.0
 11
224.7463173413826
 21
724.4522671226802
 31
0.0
  0
LINE
  5
7B4F
330
1F
100
AcDbEntity
  8
実線  細
100
AcDbLine
 10
225.2463173413826
 20
720.9522671226801
 30
0.0
 11
225.2463173413826
 21
724.9522671226801
 31
0.0
  0
LINE
  5
7B50
330
1F
100
AcDbEntity
  8
実線  太
 48
0.1
100
AcDbLine
 10
645.7463173413826
 20
724.9522671226801
 30
0.0
 11
629.1837365908154
 21
724.9522671226801
 31
0.0
  0
LINE
  5
7B51
330
1F
100
AcDbEntity
  8
実線  太
 48
0.1
100
AcDbLine
 10
225.2463173413826
 20
720.9522671226801
 30
0.0
 11
645.7463173413826
 21
720.95226712268
 31
0.0
  0
LINE
  5
7B52
330
1F
100
AcDbEntity
  8
実線  細
100
AcDbLine
 10
645.7463173413826
 20
720.95226712268
 30
0.0
 11
645.7463173413826
 21
724.9522671226801
 31
0.0
  0
LINE
  5
7B53
330
1F
100
AcDbEntity
  8
実線  太
100
AcDbLine
 10
646.2463173413826
 20
721.45226712268
 30
0.0
 11
646.2463173413826
 21
724.4522671226802
 31
0.0
  0
LINE
  5
7B54
330
1F
100
AcDbEntity
  8
実線  太
 48
0.1
100
AcDbLine
 10
646.2463173413826
 20
721.4522671226801
 30
0.0
 11
645.7463173413826
 21
720.9522671226801
 31
0.0
  0
LINE
  5
7B55
330
1F
100
AcDbEntity
  8
実線  太
 48
0.1
100
AcDbLine
 10
646.2463173413826
 20
724.4522671226802
 30
0.0
 11
645.7463173413826
 21
724.9522671226801
 31
0.0
  0
LINE
  5
7B56
330
1F
100
AcDbEntity
  8
実線  太
 48
0.1
100
AcDbLine
 10
224.7463173413826
 20
671.1189337893467
 30
0.0
 11
225.2463173413826
 21
671.6189337893467
 31
0.0
  0
LINE
  5
7B57
330
1F
100
AcDbEntity
  8
実線  太
 48
0.1
100
AcDbLine
 10
224.7463173413826
 20
668.1189337893467
 30
0.0
 11
225.2463173413826
 21
667.6189337893467
 31
0.0
  0
LINE
  5
7B58
330
1F
100
AcDbEntity
  8
実線  太
100
AcDbLine
 10
224.7463173413826
 20
668.1189337893466
 30
0.0
 11
224.7463173413826
 21
671.1189337893467
 31
0.0
  0
LINE
  5
7B59
330
1F
100
AcDbEntity
  8
実線  細
100
AcDbLine
 10
225.2463173413826
 20
667.6189337893467
 30
0.0
 11
225.2463173413826
 21
671.6189337893467
 31
0.0
  0
LINE
  5
7B5A
330
1F
100
AcDbEntity
  8
実線  太
 48
0.1
100
AcDbLine
 10
645.7463173413826
 20
671.6189337893467
 30
0.0
 11
225.2463173413826
 21
671.6189337893467
 31
0.0
  0
LINE
  5
7B5B
330
1F
100
AcDbEntity
  8
実線  太
 48
0.1
100
AcDbLine
 10
225.2463173413826
 20
667.6189337893467
 30
0.0
 11
645.7463173413826
 21
667.6189337893467
 31
0.0
  0
LINE
  5
7B5C
330
1F
100
AcDbEntity
  8
実線  太
100
AcDbLine
 10
646.2463173413826
 20
668.1189337893466
 30
0.0
 11
646.2463173413826
 21
671.1189337893467
 31
0.0
  0
LINE
  5
7B5D
330
1F
100
AcDbEntity
  8
実線  太
 48
0.1
100
AcDbLine
 10
646.2463173413826
 20
668.1189337893467
 30
0.0
 11
645.7463173413826
 21
667.6189337893467
 31
0.0
  0
LINE
  5
7B5E
330
1F
100
AcDbEntity
  8
実線  太
 48
0.1
100
AcDbLine
 10
646.2463173413826
 20
671.1189337893467
 30
0.0
 11
645.7463173413826
 21
671.6189337893467
 31
0.0
  0
LINE
  5
7B5F
330
1F
100
AcDbEntity
  8
実線  細
100
AcDbLine
 10
645.7463173413826
 20
667.6189337893467
 30
0.0
 11
645.7463173413826
 21
671.6189337893467
 31
0.0
  0
LINE
  5
7B60
330
1F
100
AcDbEntity
  8
実線  太
 48
0.1
100
AcDbLine
 10
224.7463173413826
 20
681.7856004560135
 30
0.0
 11
225.2463173413826
 21
682.2856004560135
 31
0.0
  0
LINE
  5
7B61
330
1F
100
AcDbEntity
  8
実線  太
 48
0.1
100
AcDbLine
 10
224.7463173413826
 20
678.7856004560135
 30
0.0
 11
225.2463173413826
 21
678.2856004560135
 31
0.0
  0
LINE
  5
7B62
330
1F
100
AcDbEntity
  8
実線  太
100
AcDbLine
 10
224.7463173413826
 20
678.7856004560134
 30
0.0
 11
224.7463173413826
 21
681.7856004560135
 31
0.0
  0
LINE
  5
7B63
330
1F
100
AcDbEntity
  8
実線  細
100
AcDbLine
 10
225.2463173413826
 20
678.2856004560135
 30
0.0
 11
225.2463173413826
 21
682.2856004560135
 31
0.0
  0
LINE
  5
7B64
330
1F
100
AcDbEntity
  8
実線  太
 48
0.1
100
AcDbLine
 10
645.7463173413826
 20
682.2856004560135
 30
0.0
 11
225.2463173413826
 21
682.2856004560135
 31
0.0
  0
LINE
  5
7B65
330
1F
100
AcDbEntity
  8
実線  太
 48
0.1
100
AcDbLine
 10
225.2463173413826
 20
678.2856004560135
 30
0.0
 11
645.7463173413826
 21
678.2856004560135
 31
0.0
  0
LINE
  5
7B66
330
1F
100
AcDbEntity
  8
実線  太
100
AcDbLine
 10
646.2463173413826
 20
678.7856004560134
 30
0.0
 11
646.2463173413826
 21
681.7856004560135
 31
0.0
  0
LINE
  5
7B67
330
1F
100
AcDbEntity
  8
実線  太
 48
0.1
100
AcDbLine
 10
646.2463173413826
 20
678.7856004560135
 30
0.0
 11
645.7463173413826
 21
678.2856004560135
 31
0.0
  0
LINE
  5
7B68
330
1F
100
AcDbEntity
  8
実線  太
 48
0.1
100
AcDbLine
 10
646.2463173413826
 20
681.7856004560135
 30
0.0
 11
645.7463173413826
 21
682.2856004560135
 31
0.0
  0
LINE
  5
7B69
330
1F
100
AcDbEntity
  8
実線  細
100
AcDbLine
 10
645.7463173413826
 20
678.2856004560135
 30
0.0
 11
645.7463173413826
 21
682.2856004560135
 31
0.0
  0
LINE
  5
7B6A
330
1F
100
AcDbEntity
  8
実線  太
 48
0.1
100
AcDbLine
 10
224.7463173413826
 20
692.4522671226802
 30
0.0
 11
225.2463173413826
 21
692.9522671226802
 31
0.0
  0
LINE
  5
7B6B
330
1F
100
AcDbEntity
  8
実線  太
 48
0.1
100
AcDbLine
 10
224.7463173413826
 20
689.4522671226802
 30
0.0
 11
225.2463173413826
 21
688.9522671226802
 31
0.0
  0
LINE
  5
7B6C
330
1F
100
AcDbEntity
  8
実線  太
100
AcDbLine
 10
224.7463173413826
 20
689.4522671226801
 30
0.0
 11
224.7463173413826
 21
692.4522671226802
 31
0.0
  0
LINE
  5
7B6D
330
1F
100
AcDbEntity
  8
実線  細
100
AcDbLine
 10
225.2463173413826
 20
688.9522671226802
 30
0.0
 11
225.2463173413826
 21
692.9522671226802
 31
0.0
  0
LINE
  5
7B6E
330
1F
100
AcDbEntity
  8
実線  太
 48
0.1
100
AcDbLine
 10
645.7463173413826
 20
692.9522671226802
 30
0.0
 11
225.2463173413826
 21
692.9522671226802
 31
0.0
  0
LINE
  5
7B6F
330
1F
100
AcDbEntity
  8
実線  太
 48
0.1
100
AcDbLine
 10
225.2463173413826
 20
688.9522671226802
 30
0.0
 11
645.7463173413826
 21
688.9522671226802
 31
0.0
  0
LINE
  5
7B70
330
1F
100
AcDbEntity
  8
実線  太
100
AcDbLine
 10
646.2463173413826
 20
689.4522671226801
 30
0.0
 11
646.2463173413826
 21
692.4522671226802
 31
0.0
  0
LINE
  5
7B71
330
1F
100
AcDbEntity
  8
実線  太
 48
0.1
100
AcDbLine
 10
646.2463173413826
 20
689.4522671226802
 30
0.0
 11
645.7463173413826
 21
688.9522671226802
 31
0.0
  0
LINE
  5
7B72
330
1F
100
AcDbEntity
  8
実線  太
 48
0.1
100
AcDbLine
 10
646.2463173413826
 20
692.4522671226802
 30
0.0
 11
645.7463173413826
 21
692.9522671226802
 31
0.0
  0
LINE
  5
7B73
330
1F
100
AcDbEntity
  8
実線  細
100
AcDbLine
 10
645.7463173413826
 20
688.9522671226802
 30
0.0
 11
645.7463173413826
 21
692.9522671226802
 31
0.0
  0
LINE
  5
7B74
330
1F
100
AcDbEntity
  8
実線  太
 48
0.1
100
AcDbLine
 10
224.7463173413826
 20
703.118933789347
 30
0.0
 11
225.2463173413826
 21
703.6189337893469
 31
0.0
  0
LINE
  5
7B75
330
1F
100
AcDbEntity
  8
実線  太
 48
0.1
100
AcDbLine
 10
224.7463173413826
 20
700.118933789347
 30
0.0
 11
225.2463173413826
 21
699.6189337893469
 31
0.0
  0
LINE
  5
7B76
330
1F
100
AcDbEntity
  8
実線  太
100
AcDbLine
 10
224.7463173413826
 20
700.1189337893468
 30
0.0
 11
224.7463173413826
 21
703.118933789347
 31
0.0
  0
LINE
  5
7B77
330
1F
100
AcDbEntity
  8
実線  細
100
AcDbLine
 10
225.2463173413826
 20
699.6189337893469
 30
0.0
 11
225.2463173413826
 21
703.6189337893469
 31
0.0
  0
LINE
  5
7B78
330
1F
100
AcDbEntity
  8
実線  太
 48
0.1
100
AcDbLine
 10
645.7463173413826
 20
703.6189337893469
 30
0.0
 11
225.2463173413826
 21
703.6189337893469
 31
0.0
  0
LINE
  5
7B79
330
1F
100
AcDbEntity
  8
実線  太
 48
0.1
100
AcDbLine
 10
225.2463173413826
 20
699.6189337893469
 30
0.0
 11
645.7463173413826
 21
699.6189337893471
 31
0.0
  0
LINE
  5
7B7A
330
1F
100
AcDbEntity
  8
実線  細
100
AcDbLine
 10
645.7463173413826
 20
699.6189337893471
 30
0.0
 11
645.7463173413826
 21
703.6189337893469
 31
0.0
  0
LINE
  5
7B7B
330
1F
100
AcDbEntity
  8
実線  太
 48
0.1
100
AcDbLine
 10
646.2463173413826
 20
700.118933789347
 30
0.0
 11
645.7463173413826
 21
699.6189337893469
 31
0.0
  0
LINE
  5
7B7C
330
1F
100
AcDbEntity
  8
実線  太
 48
0.1
100
AcDbLine
 10
646.2463173413826
 20
703.118933789347
 30
0.0
 11
645.7463173413826
 21
703.6189337893469
 31
0.0
  0
LINE
  5
7B7D
330
1F
100
AcDbEntity
  8
実線  太
100
AcDbLine
 10
646.2463173413826
 20
700.1189337893468
 30
0.0
 11
646.2463173413826
 21
703.118933789347
 31
0.0
  0
LINE
  5
7B7E
330
1F
100
AcDbEntity
  8
実線  太
 48
0.1
100
AcDbLine
 10
224.7463173413826
 20
660.4522671226803
 30
0.0
 11
225.2463173413826
 21
660.9522671226803
 31
0.0
  0
LINE
  5
7B7F
330
1F
100
AcDbEntity
  8
実線  太
 48
0.1
100
AcDbLine
 10
224.7463173413826
 20
657.4522671226803
 30
0.0
 11
225.2463173413826
 21
656.9522671226803
 31
0.0
  0
LINE
  5
7B80
330
1F
100
AcDbEntity
  8
実線  太
100
AcDbLine
 10
224.7463173413826
 20
657.4522671226802
 30
0.0
 11
224.7463173413826
 21
660.4522671226803
 31
0.0
  0
LINE
  5
7B81
330
1F
100
AcDbEntity
  8
実線  細
100
AcDbLine
 10
225.2463173413826
 20
656.9522671226803
 30
0.0
 11
225.2463173413826
 21
660.9522671226803
 31
0.0
  0
LINE
  5
7B82
330
1F
100
AcDbEntity
  8
実線  太
 48
0.1
100
AcDbLine
 10
645.7463173413826
 20
660.9522671226803
 30
0.0
 11
225.2463173413826
 21
660.9522671226803
 31
0.0
  0
LINE
  5
7B83
330
1F
100
AcDbEntity
  8
実線  太
 48
0.1
100
AcDbLine
 10
225.2463173413826
 20
656.9522671226803
 30
0.0
 11
645.7463173413826
 21
656.9522671226803
 31
0.0
  0
LINE
  5
7B84
330
1F
100
AcDbEntity
  8
実線  細
100
AcDbLine
 10
645.7463173413826
 20
656.9522671226803
 30
0.0
 11
645.7463173413826
 21
660.9522671226803
 31
0.0
  0
LINE
  5
7B85
330
1F
100
AcDbEntity
  8
実線  太
100
AcDbLine
 10
646.2463173413826
 20
657.4522671226802
 30
0.0
 11
646.2463173413826
 21
660.4522671226803
 31
0.0
  0
LINE
  5
7B86
330
1F
100
AcDbEntity
  8
実線  太
 48
0.1
100
AcDbLine
 10
646.2463173413826
 20
657.4522671226803
 30
0.0
 11
645.7463173413826
 21
656.9522671226803
 31
0.0
  0
LINE
  5
7B87
330
1F
100
AcDbEntity
  8
実線  太
 48
0.1
100
AcDbLine
 10
646.2463173413826
 20
660.4522671226803
 30
0.0
 11
645.7463173413826
 21
660.9522671226803
 31
0.0
  0
LINE
  5
7B88
330
1F
100
AcDbEntity
  8
実線  太
 48
0.1
100
AcDbLine
 10
224.7463173413826
 20
649.7856004560135
 30
0.0
 11
225.2463173413826
 21
650.2856004560135
 31
0.0
  0
LINE
  5
7B89
330
1F
100
AcDbEntity
  8
実線  太
 48
0.1
100
AcDbLine
 10
224.7463173413826
 20
646.7856004560135
 30
0.0
 11
225.2463173413826
 21
646.2856004560135
 31
0.0
  0
LINE
  5
7B8A
330
1F
100
AcDbEntity
  8
実線  太
100
AcDbLine
 10
224.7463173413826
 20
646.7856004560133
 30
0.0
 11
224.7463173413826
 21
649.7856004560135
 31
0.0
  0
LINE
  5
7B8B
330
1F
100
AcDbEntity
  8
実線  細
100
AcDbLine
 10
225.2463173413826
 20
646.2856004560135
 30
0.0
 11
225.2463173413826
 21
650.2856004560135
 31
0.0
  0
LINE
  5
7B8C
330
1F
100
AcDbEntity
  8
実線  太
 48
0.1
100
AcDbLine
 10
645.7463173413826
 20
650.2856004560135
 30
0.0
 11
225.2463173413826
 21
650.2856004560135
 31
0.0
  0
LINE
  5
7B8D
330
1F
100
AcDbEntity
  8
実線  太
 48
0.1
100
AcDbLine
 10
225.2463173413826
 20
646.2856004560135
 30
0.0
 11
645.7463173413826
 21
646.2856004560135
 31
0.0
  0
LINE
  5
7B8E
330
1F
100
AcDbEntity
  8
実線  細
100
AcDbLine
 10
645.7463173413826
 20
646.2856004560135
 30
0.0
 11
645.7463173413826
 21
650.2856004560135
 31
0.0
  0
LINE
  5
7B8F
330
1F
100
AcDbEntity
  8
実線  太
100
AcDbLine
 10
646.2463173413826
 20
646.7856004560133
 30
0.0
 11
646.2463173413826
 21
649.7856004560135
 31
0.0
  0
LINE
  5
7B90
330
1F
100
AcDbEntity
  8
実線  太
 48
0.1
100
AcDbLine
 10
646.2463173413826
 20
646.7856004560135
 30
0.0
 11
645.7463173413826
 21
646.2856004560135
 31
0.0
  0
LINE
  5
7B91
330
1F
100
AcDbEntity
  8
実線  太
 48
0.1
100
AcDbLine
 10
646.2463173413826
 20
649.7856004560135
 30
0.0
 11
645.7463173413826
 21
650.2856004560135
 31
0.0
  0
LINE
  5
7B92
330
1F
100
AcDbEntity
  8
実線  太
 48
0.1
100
AcDbLine
 10
224.7463173413826
 20
639.1189337893467
 30
0.0
 11
225.2463173413826
 21
639.6189337893467
 31
0.0
  0
LINE
  5
7B93
330
1F
100
AcDbEntity
  8
実線  太
 48
0.1
100
AcDbLine
 10
224.7463173413826
 20
636.1189337893468
 30
0.0
 11
225.2463173413826
 21
635.6189337893468
 31
0.0
  0
LINE
  5
7B94
330
1F
100
AcDbEntity
  8
実線  太
100
AcDbLine
 10
224.7463173413826
 20
636.1189337893466
 30
0.0
 11
224.7463173413826
 21
639.1189337893467
 31
0.0
  0
LINE
  5
7B95
330
1F
100
AcDbEntity
  8
実線  細
100
AcDbLine
 10
225.2463173413826
 20
635.6189337893468
 30
0.0
 11
225.2463173413826
 21
639.6189337893467
 31
0.0
  0
LINE
  5
7B96
330
1F
100
AcDbEntity
  8
実線  太
 48
0.1
100
AcDbLine
 10
645.7463173413826
 20
639.6189337893467
 30
0.0
 11
225.2463173413826
 21
639.6189337893467
 31
0.0
  0
LINE
  5
7B97
330
1F
100
AcDbEntity
  8
実線  太
 48
0.1
100
AcDbLine
 10
225.2463173413826
 20
635.6189337893468
 30
0.0
 11
645.7463173413826
 21
635.6189337893468
 31
0.0
  0
LINE
  5
7B98
330
1F
100
AcDbEntity
  8
実線  細
100
AcDbLine
 10
645.7463173413826
 20
635.6189337893468
 30
0.0
 11
645.7463173413826
 21
639.6189337893467
 31
0.0
  0
LINE
  5
7B99
330
1F
100
AcDbEntity
  8
実線  太
100
AcDbLine
 10
646.2463173413826
 20
636.1189337893466
 30
0.0
 11
646.2463173413826
 21
639.1189337893467
 31
0.0
  0
LINE
  5
7B9A
330
1F
100
AcDbEntity
  8
実線  太
 48
0.1
100
AcDbLine
 10
646.2463173413826
 20
636.1189337893468
 30
0.0
 11
645.7463173413826
 21
635.6189337893468
 31
0.0
  0
LINE
  5
7B9B
330
1F
100
AcDbEntity
  8
実線  太
 48
0.1
100
AcDbLine
 10
646.2463173413826
 20
639.1189337893467
 30
0.0
 11
645.7463173413826
 21
639.6189337893467
 31
0.0
  0
LINE
  5
7B9C
330
1F
100
AcDbEntity
  8
実線  太
 48
0.1
100
AcDbLine
 10
224.7463173413826
 20
628.45226712268
 30
0.0
 11
225.2463173413826
 21
628.95226712268
 31
0.0
  0
LINE
  5
7B9D
330
1F
100
AcDbEntity
  8
実線  太
 48
0.1
100
AcDbLine
 10
224.7463173413826
 20
625.45226712268
 30
0.0
 11
225.2463173413826
 21
624.95226712268
 31
0.0
  0
LINE
  5
7B9E
330
1F
100
AcDbEntity
  8
実線  太
100
AcDbLine
 10
224.7463173413826
 20
625.4522671226799
 30
0.0
 11
224.7463173413826
 21
628.45226712268
 31
0.0
  0
LINE
  5
7B9F
330
1F
100
AcDbEntity
  8
実線  細
100
AcDbLine
 10
225.2463173413826
 20
624.95226712268
 30
0.0
 11
225.2463173413826
 21
628.95226712268
 31
0.0
  0
LINE
  5
7BA0
330
1F
100
AcDbEntity
  8
実線  太
 48
0.1
100
AcDbLine
 10
645.7463173413826
 20
628.95226712268
 30
0.0
 11
225.2463173413826
 21
628.95226712268
 31
0.0
  0
LINE
  5
7BA1
330
1F
100
AcDbEntity
  8
実線  太
 48
0.1
100
AcDbLine
 10
225.2463173413826
 20
624.95226712268
 30
0.0
 11
645.7463173413826
 21
624.95226712268
 31
0.0
  0
LINE
  5
7BA2
330
1F
100
AcDbEntity
  8
実線  細
100
AcDbLine
 10
645.7463173413826
 20
624.95226712268
 30
0.0
 11
645.7463173413826
 21
628.95226712268
 31
0.0
  0
LINE
  5
7BA3
330
1F
100
AcDbEntity
  8
実線  太
100
AcDbLine
 10
646.2463173413826
 20
625.4522671226799
 30
0.0
 11
646.2463173413826
 21
628.45226712268
 31
0.0
  0
LINE
  5
7BA4
330
1F
100
AcDbEntity
  8
実線  太
 48
0.1
100
AcDbLine
 10
646.2463173413826
 20
625.45226712268
 30
0.0
 11
645.7463173413826
 21
624.95226712268
 31
0.0
  0
LINE
  5
7BA5
330
1F
100
AcDbEntity
  8
実線  太
 48
0.1
100
AcDbLine
 10
646.2463173413826
 20
628.45226712268
 30
0.0
 11
645.7463173413826
 21
628.95226712268
 31
0.0
  0
LINE
  5
7BA6
330
1F
100
AcDbEntity
  8
実線  太
 48
0.1
100
AcDbLine
 10
224.7463173413826
 20
617.7856004560136
 30
0.0
 11
225.2463173413826
 21
618.2856004560136
 31
0.0
  0
LINE
  5
7BA7
330
1F
100
AcDbEntity
  8
実線  太
 48
0.1
100
AcDbLine
 10
224.7463173413826
 20
614.7856004560136
 30
0.0
 11
225.2463173413826
 21
614.2856004560136
 31
0.0
  0
LINE
  5
7BA8
330
1F
100
AcDbEntity
  8
実線  太
100
AcDbLine
 10
224.7463173413826
 20
614.7856004560135
 30
0.0
 11
224.7463173413826
 21
617.7856004560136
 31
0.0
  0
LINE
  5
7BA9
330
1F
100
AcDbEntity
  8
実線  細
100
AcDbLine
 10
225.2463173413826
 20
614.2856004560136
 30
0.0
 11
225.2463173413826
 21
618.2856004560136
 31
0.0
  0
LINE
  5
7BAA
330
1F
100
AcDbEntity
  8
実線  太
 48
0.1
100
AcDbLine
 10
645.7463173413826
 20
618.2856004560136
 30
0.0
 11
225.2463173413826
 21
618.2856004560136
 31
0.0
  0
LINE
  5
7BAB
330
1F
100
AcDbEntity
  8
実線  太
 48
0.1
100
AcDbLine
 10
225.2463173413826
 20
614.2856004560136
 30
0.0
 11
645.7463173413826
 21
614.2856004560136
 31
0.0
  0
LINE
  5
7BAC
330
1F
100
AcDbEntity
  8
実線  細
100
AcDbLine
 10
645.7463173413826
 20
614.2856004560136
 30
0.0
 11
645.7463173413826
 21
618.2856004560136
 31
0.0
  0
LINE
  5
7BAD
330
1F
100
AcDbEntity
  8
実線  太
100
AcDbLine
 10
646.2463173413826
 20
614.7856004560135
 30
0.0
 11
646.2463173413826
 21
617.7856004560136
 31
0.0
  0
LINE
  5
7BAE
330
1F
100
AcDbEntity
  8
実線  太
 48
0.1
100
AcDbLine
 10
646.2463173413826
 20
614.7856004560136
 30
0.0
 11
645.7463173413826
 21
614.2856004560136
 31
0.0
  0
LINE
  5
7BAF
330
1F
100
AcDbEntity
  8
実線  太
 48
0.1
100
AcDbLine
 10
646.2463173413826
 20
617.7856004560136
 30
0.0
 11
645.7463173413826
 21
618.2856004560136
 31
0.0
  0
LINE
  5
7BB0
330
1F
100
AcDbEntity
  8
実線  太
100
AcDbLine
 10
224.9963173413826
 20
735.3689337893468
 30
0.0
 11
224.9963173413826
 21
742.5356004560136
 31
0.0
  0
LINE
  5
7BB1
330
1F
100
AcDbEntity
  8
実線  太
100
AcDbLine
 10
224.9963173413826
 20
724.70226712268
 30
0.0
 11
224.9963173413826
 21
731.8689337893467
 31
0.0
  0
LINE
  5
7BB2
330
1F
100
AcDbEntity
  8
実線  太
100
AcDbLine
 10
230.9963173413826
 20
735.6189337893469
 30
0.0
 11
230.9963173413826
 21
742.2856004560136
 31
0.0
  0
LINE
  5
7BB3
330
1F
100
AcDbEntity
  8
実線  太
100
AcDbLine
 10
230.9963173413826
 20
724.9522671226801
 30
0.0
 11
230.9963173413826
 21
731.6189337893469
 31
0.0
  0
LINE
  5
7BB4
330
1F
100
AcDbEntity
  8
実線  太
100
AcDbLine
 10
230.9963173413826
 20
714.2856004560134
 30
0.0
 11
230.9963173413826
 21
720.95226712268
 31
0.0
  0
LINE
  5
7BB5
330
1F
100
AcDbEntity
  8
実線  太
100
AcDbLine
 10
224.9963173413826
 20
714.0356004560134
 30
0.0
 11
224.9963173413826
 21
721.2022671226801
 31
0.0
  0
LINE
  5
7BB6
330
1F
100
AcDbEntity
  8
実線  太
100
AcDbLine
 10
224.9963173413826
 20
703.368933789347
 30
0.0
 11
224.9963173413826
 21
710.5356004560134
 31
0.0
  0
LINE
  5
7BB7
330
1F
100
AcDbEntity
  8
実線  太
100
AcDbLine
 10
230.9963173413826
 20
703.6189337893469
 30
0.0
 11
230.9963173413826
 21
710.2856004560134
 31
0.0
  0
LINE
  5
7BB8
330
1F
100
AcDbEntity
  8
実線  太
100
AcDbLine
 10
230.9963173413826
 20
692.9522671226802
 30
0.0
 11
230.9963173413826
 21
699.6189337893469
 31
0.0
  0
LINE
  5
7BB9
330
1F
100
AcDbEntity
  8
実線  太
100
AcDbLine
 10
224.9963173413826
 20
692.7022671226803
 30
0.0
 11
224.9963173413826
 21
699.868933789347
 31
0.0
  0
LINE
  5
7BBA
330
1F
100
AcDbEntity
  8
実線  太
100
AcDbLine
 10
224.9963173413826
 20
682.0356004560136
 30
0.0
 11
224.9963173413826
 21
689.2022671226803
 31
0.0
  0
LINE
  5
7BBB
330
1F
100
AcDbEntity
  8
実線  太
100
AcDbLine
 10
230.9963173413826
 20
682.2856004560135
 30
0.0
 11
230.9963173413826
 21
688.9522671226802
 31
0.0
  0
LINE
  5
7BBC
330
1F
100
AcDbEntity
  8
実線  太
100
AcDbLine
 10
230.9963173413826
 20
671.6189337893466
 30
0.0
 11
230.9963173413826
 21
678.2856004560135
 31
0.0
  0
LINE
  5
7BBD
330
1F
100
AcDbEntity
  8
実線  太
100
AcDbLine
 10
224.9963173413826
 20
671.3689337893466
 30
0.0
 11
224.9963173413826
 21
678.5356004560136
 31
0.0
  0
LINE
  5
7BBE
330
1F
100
AcDbEntity
  8
実線  太
100
AcDbLine
 10
224.9963173413826
 20
660.7022671226802
 30
0.0
 11
224.9963173413826
 21
667.8689337893468
 31
0.0
  0
LINE
  5
7BBF
330
1F
100
AcDbEntity
  8
実線  太
100
AcDbLine
 10
230.9963173413828
 20
660.9522671226803
 30
0.0
 11
230.9963173413826
 21
667.6189337893467
 31
0.0
  0
LINE
  5
7BC0
330
1F
100
AcDbEntity
  8
実線  太
100
AcDbLine
 10
230.9963173413826
 20
650.2856004560135
 30
0.0
 11
230.9963173413826
 21
656.9522671226804
 31
0.0
  0
LINE
  5
7BC1
330
1F
100
AcDbEntity
  8
実線  太
100
AcDbLine
 10
224.9963173413826
 20
650.0356004560134
 30
0.0
 11
224.9963173413826
 21
657.2022671226802
 31
0.0
  0
LINE
  5
7BC2
330
1F
100
AcDbEntity
  8
実線  太
100
AcDbLine
 10
230.9963173413826
 20
639.6189337893467
 30
0.0
 11
230.9963173413826
 21
646.2856004560135
 31
0.0
  0
LINE
  5
7BC3
330
1F
100
AcDbEntity
  8
実線  太
100
AcDbLine
 10
224.9963173413826
 20
639.3689337893467
 30
0.0
 11
224.9963173413826
 21
646.5356004560136
 31
0.0
  0
LINE
  5
7BC4
330
1F
100
AcDbEntity
  8
実線  太
100
AcDbLine
 10
230.9963173413826
 20
628.95226712268
 30
0.0
 11
230.9963173413826
 21
635.6189337893468
 31
0.0
  0
LINE
  5
7BC5
330
1F
100
AcDbEntity
  8
実線  太
100
AcDbLine
 10
224.9963173413826
 20
628.7022671226801
 30
0.0
 11
224.9963173413826
 21
635.8689337893467
 31
0.0
  0
LINE
  5
7BC6
330
1F
100
AcDbEntity
  8
実線  太
100
AcDbLine
 10
224.9963173413826
 20
618.0356004560136
 30
0.0
 11
224.9963173413826
 21
625.20226712268
 31
0.0
  0
LINE
  5
7BC7
330
1F
100
AcDbEntity
  8
実線  太
100
AcDbLine
 10
230.9963173413826
 20
618.2856004560135
 30
0.0
 11
230.9963173413826
 21
624.95226712268
 31
0.0
  0
LINE
  5
7BC8
330
1F
100
AcDbEntity
  8
実線  太
100
AcDbLine
 10
645.9963173413825
 20
714.0356004560134
 30
0.0
 11
645.9963173413825
 21
721.2022671226801
 31
0.0
  0
LINE
  5
7BC9
330
1F
100
AcDbEntity
  8
実線  太
100
AcDbLine
 10
639.9963173413826
 20
714.2856004560134
 30
0.0
 11
639.9963173413826
 21
720.95226712268
 31
0.0
  0
LINE
  5
7BCA
330
1F
100
AcDbEntity
  8
実線  細
100
AcDbLine
 10
645.7463173413826
 20
624.95226712268
 30
0.0
 11
645.7463173413826
 21
628.95226712268
 31
0.0
  0
LINE
  5
7BCB
330
1F
100
AcDbEntity
  8
実線  太
100
AcDbLine
 10
646.2463173413826
 20
625.4522671226799
 30
0.0
 11
646.2463173413826
 21
628.45226712268
 31
0.0
  0
LINE
  5
7BCC
330
1F
100
AcDbEntity
  8
実線  太
100
AcDbLine
 10
645.9963173413825
 20
604.2856004560136
 30
0.0
 11
645.9963173413825
 21
614.5356004560134
 31
0.0
  0
LINE
  5
7BCD
330
1F
100
AcDbEntity
  8
実線  太
100
AcDbLine
 10
645.9963173413825
 20
618.0356004560136
 30
0.0
 11
645.9963173413825
 21
625.20226712268
 31
0.0
  0
LINE
  5
7BCE
330
1F
100
AcDbEntity
  8
実線  太
 48
0.1
100
AcDbLine
 10
646.2463173413826
 20
625.45226712268
 30
0.0
 11
645.7463173413826
 21
624.95226712268
 31
0.0
  0
LINE
  5
7BCF
330
1F
100
AcDbEntity
  8
実線  細
100
AcDbLine
 10
645.7463173413826
 20
614.2856004560136
 30
0.0
 11
645.7463173413826
 21
618.2856004560136
 31
0.0
  0
LINE
  5
7BD0
330
1F
100
AcDbEntity
  8
実線  太
100
AcDbLine
 10
646.2463173413826
 20
614.7856004560135
 30
0.0
 11
646.2463173413826
 21
617.7856004560136
 31
0.0
  0
LINE
  5
7BD1
330
1F
100
AcDbEntity
  8
実線  太
 48
0.1
100
AcDbLine
 10
646.2463173413826
 20
614.7856004560136
 30
0.0
 11
645.7463173413826
 21
614.2856004560136
 31
0.0
  0
LINE
  5
7BD2
330
1F
100
AcDbEntity
  8
実線  太
 48
0.1
100
AcDbLine
 10
646.2463173413826
 20
617.7856004560136
 30
0.0
 11
645.7463173413826
 21
618.2856004560136
 31
0.0
  0
LINE
  5
7BD3
330
1F
100
AcDbEntity
  8
実線  太
100
AcDbLine
 10
639.9963173413826
 20
604.2856004560136
 30
0.0
 11
639.9963173413826
 21
614.2856004560136
 31
0.0
  0
LINE
  5
7BD4
330
1F
100
AcDbEntity
  8
実線  太
100
AcDbLine
 10
639.9963173413826
 20
618.2856004560135
 30
0.0
 11
639.9963173413826
 21
624.95226712268
 31
0.0
  0
ELLIPSE
  5
7BD5
330
1F
100
AcDbEntity
  8
実線  太
100
AcDbEllipse
 10
642.9970622046039
 20
604.2856004560136
 30
0.0
 11
3.000000000000113
 21
0.0
 31
0.0
210
0.0
220
0.0
230
-1.0
 40
0.5835864501031141
 41
3.141592653589793
 42
6.283185307179586
  0
ELLIPSE
  5
7BD6
330
1F
100
AcDbEntity
  8
実線  細
100
AcDbEllipse
 10
642.9963173413825
 20
603.6856354830438
 30
0.0
 11
-1.85951885593181
 21
0.0
 31
0.0
210
0.0
220
0.0
230
-1.0
 40
0.5393869766911418
 41
0.6412159528087836
 42
2.500376700781009
  0
LINE
  5
7BD7
330
1F
100
AcDbEntity
  8
実線  太
100
AcDbLine
 10
645.9963173413825
 20
671.3689337893466
 30
0.0
 11
645.9963173413825
 21
678.5356004560136
 31
0.0
  0
LINE
  5
7BD8
330
1F
100
AcDbEntity
  8
実線  太
100
AcDbLine
 10
639.9963173413826
 20
671.6189337893466
 30
0.0
 11
639.9963173413826
 21
678.2856004560135
 31
0.0
  0
LINE
  5
7BD9
330
1F
100
AcDbEntity
  8
実線  細
100
AcDbLine
 10
645.7463173413826
 20
646.2856004560135
 30
0.0
 11
645.7463173413826
 21
650.2856004560135
 31
0.0
  0
LINE
  5
7BDA
330
1F
100
AcDbEntity
  8
実線  太
100
AcDbLine
 10
646.2463173413826
 20
646.7856004560133
 30
0.0
 11
646.2463173413826
 21
649.7856004560135
 31
0.0
  0
LINE
  5
7BDB
330
1F
100
AcDbEntity
  8
実線  太
100
AcDbLine
 10
645.9963173413825
 20
628.7022671226801
 30
0.0
 11
645.9963173413825
 21
635.8689337893467
 31
0.0
  0
LINE
  5
7BDC
330
1F
100
AcDbEntity
  8
実線  太
100
AcDbLine
 10
645.9963173413825
 20
639.3689337893467
 30
0.0
 11
645.9963173413825
 21
646.5356004560136
 31
0.0
  0
LINE
  5
7BDD
330
1F
100
AcDbEntity
  8
実線  太
 48
0.1
100
AcDbLine
 10
646.2463173413826
 20
646.7856004560135
 30
0.0
 11
645.7463173413826
 21
646.2856004560135
 31
0.0
  0
LINE
  5
7BDE
330
1F
100
AcDbEntity
  8
実線  細
100
AcDbLine
 10
645.7463173413826
 20
635.6189337893468
 30
0.0
 11
645.7463173413826
 21
639.6189337893467
 31
0.0
  0
LINE
  5
7BDF
330
1F
100
AcDbEntity
  8
実線  太
100
AcDbLine
 10
646.2463173413826
 20
636.1189337893466
 30
0.0
 11
646.2463173413826
 21
639.1189337893467
 31
0.0
  0
LINE
  5
7BE0
330
1F
100
AcDbEntity
  8
実線  太
 48
0.1
100
AcDbLine
 10
646.2463173413826
 20
636.1189337893468
 30
0.0
 11
645.7463173413826
 21
635.6189337893468
 31
0.0
  0
LINE
  5
7BE1
330
1F
100
AcDbEntity
  8
実線  太
 48
0.1
100
AcDbLine
 10
646.2463173413826
 20
639.1189337893467
 30
0.0
 11
645.7463173413826
 21
639.6189337893467
 31
0.0
  0
LINE
  5
7BE2
330
1F
100
AcDbEntity
  8
実線  太
 48
0.1
100
AcDbLine
 10
646.2463173413826
 20
628.45226712268
 30
0.0
 11
645.7463173413826
 21
628.95226712268
 31
0.0
  0
LINE
  5
7BE3
330
1F
100
AcDbEntity
  8
実線  太
100
AcDbLine
 10
639.9963173413826
 20
628.95226712268
 30
0.0
 11
639.9963173413826
 21
635.6189337893468
 31
0.0
  0
LINE
  5
7BE4
330
1F
100
AcDbEntity
  8
実線  太
100
AcDbLine
 10
639.9963173413826
 20
639.6189337893467
 30
0.0
 11
639.9963173413826
 21
646.2856004560135
 31
0.0
  0
LINE
  5
7BE5
330
1F
100
AcDbEntity
  8
実線  太
100
AcDbLine
 10
645.9963173413825
 20
650.0356004560134
 30
0.0
 11
645.9963173413825
 21
657.2022671226802
 31
0.0
  0
LINE
  5
7BE6
330
1F
100
AcDbEntity
  8
実線  太
100
AcDbLine
 10
645.9963173413825
 20
660.7022671226802
 30
0.0
 11
645.9963173413825
 21
667.8689337893468
 31
0.0
  0
LINE
  5
7BE7
330
1F
100
AcDbEntity
  8
実線  細
100
AcDbLine
 10
645.7463173413826
 20
667.6189337893467
 30
0.0
 11
645.7463173413826
 21
671.6189337893467
 31
0.0
  0
LINE
  5
7BE8
330
1F
100
AcDbEntity
  8
実線  太
100
AcDbLine
 10
646.2463173413826
 20
668.1189337893466
 30
0.0
 11
646.2463173413826
 21
671.1189337893467
 31
0.0
  0
LINE
  5
7BE9
330
1F
100
AcDbEntity
  8
実線  太
 48
0.1
100
AcDbLine
 10
646.2463173413826
 20
668.1189337893467
 30
0.0
 11
645.7463173413826
 21
667.6189337893467
 31
0.0
  0
LINE
  5
7BEA
330
1F
100
AcDbEntity
  8
実線  太
 48
0.1
100
AcDbLine
 10
646.2463173413826
 20
671.1189337893467
 30
0.0
 11
645.7463173413826
 21
671.6189337893467
 31
0.0
  0
LINE
  5
7BEB
330
1F
100
AcDbEntity
  8
実線  細
100
AcDbLine
 10
645.7463173413826
 20
656.9522671226803
 30
0.0
 11
645.7463173413826
 21
660.9522671226803
 31
0.0
  0
LINE
  5
7BEC
330
1F
100
AcDbEntity
  8
実線  太
100
AcDbLine
 10
646.2463173413826
 20
657.4522671226802
 30
0.0
 11
646.2463173413826
 21
660.4522671226803
 31
0.0
  0
LINE
  5
7BED
330
1F
100
AcDbEntity
  8
実線  太
 48
0.1
100
AcDbLine
 10
646.2463173413826
 20
657.4522671226803
 30
0.0
 11
645.7463173413826
 21
656.9522671226803
 31
0.0
  0
LINE
  5
7BEE
330
1F
100
AcDbEntity
  8
実線  太
 48
0.1
100
AcDbLine
 10
646.2463173413826
 20
660.4522671226803
 30
0.0
 11
645.7463173413826
 21
660.9522671226803
 31
0.0
  0
LINE
  5
7BEF
330
1F
100
AcDbEntity
  8
実線  太
 48
0.1
100
AcDbLine
 10
646.2463173413826
 20
649.7856004560135
 30
0.0
 11
645.7463173413826
 21
650.2856004560135
 31
0.0
  0
LINE
  5
7BF0
330
1F
100
AcDbEntity
  8
実線  太
100
AcDbLine
 10
639.9963173413826
 20
650.2856004560135
 30
0.0
 11
639.9963173413826
 21
656.9522671226804
 31
0.0
  0
LINE
  5
7BF1
330
1F
100
AcDbEntity
  8
実線  太
100
AcDbLine
 10
639.9963173413826
 20
660.9522671226803
 30
0.0
 11
639.9963173413826
 21
667.6189337893467
 31
0.0
  0
LINE
  5
7BF2
330
1F
100
AcDbEntity
  8
実線  太
100
AcDbLine
 10
645.9963173413825
 20
692.7022671226803
 30
0.0
 11
645.9963173413825
 21
699.868933789347
 31
0.0
  0
LINE
  5
7BF3
330
1F
100
AcDbEntity
  8
実線  太
100
AcDbLine
 10
639.9963173413826
 20
692.9522671226802
 30
0.0
 11
639.9963173413826
 21
699.6189337893469
 31
0.0
  0
LINE
  5
7BF4
330
1F
100
AcDbEntity
  8
実線  太
100
AcDbLine
 10
645.9963173413825
 20
682.0356004560136
 30
0.0
 11
645.9963173413825
 21
689.2022671226803
 31
0.0
  0
LINE
  5
7BF5
330
1F
100
AcDbEntity
  8
実線  細
100
AcDbLine
 10
645.7463173413826
 20
678.2856004560135
 30
0.0
 11
645.7463173413826
 21
682.2856004560135
 31
0.0
  0
LINE
  5
7BF6
330
1F
100
AcDbEntity
  8
実線  太
100
AcDbLine
 10
646.2463173413826
 20
678.7856004560134
 30
0.0
 11
646.2463173413826
 21
681.7856004560135
 31
0.0
  0
LINE
  5
7BF7
330
1F
100
AcDbEntity
  8
実線  太
 48
0.1
100
AcDbLine
 10
646.2463173413826
 20
678.7856004560135
 30
0.0
 11
645.7463173413826
 21
678.2856004560135
 31
0.0
  0
LINE
  5
7BF8
330
1F
100
AcDbEntity
  8
実線  太
 48
0.1
100
AcDbLine
 10
646.2463173413826
 20
681.7856004560135
 30
0.0
 11
645.7463173413826
 21
682.2856004560135
 31
0.0
  0
LINE
  5
7BF9
330
1F
100
AcDbEntity
  8
実線  細
100
AcDbLine
 10
645.7463173413826
 20
688.9522671226802
 30
0.0
 11
645.7463173413826
 21
692.9522671226802
 31
0.0
  0
LINE
  5
7BFA
330
1F
100
AcDbEntity
  8
実線  太
100
AcDbLine
 10
646.2463173413826
 20
689.4522671226801
 30
0.0
 11
646.2463173413826
 21
692.4522671226802
 31
0.0
  0
LINE
  5
7BFB
330
1F
100
AcDbEntity
  8
実線  太
 48
0.1
100
AcDbLine
 10
646.2463173413826
 20
689.4522671226802
 30
0.0
 11
645.7463173413826
 21
688.9522671226802
 31
0.0
  0
LINE
  5
7BFC
330
1F
100
AcDbEntity
  8
実線  太
 48
0.1
100
AcDbLine
 10
646.2463173413826
 20
692.4522671226802
 30
0.0
 11
645.7463173413826
 21
692.9522671226802
 31
0.0
  0
LINE
  5
7BFD
330
1F
100
AcDbEntity
  8
実線  太
100
AcDbLine
 10
639.9963173413826
 20
682.2856004560135
 30
0.0
 11
639.9963173413826
 21
688.9522671226802
 31
0.0
  0
LINE
  5
7BFE
330
1F
100
AcDbEntity
  8
実線  太
100
AcDbLine
 10
645.9963173413825
 20
703.368933789347
 30
0.0
 11
645.9963173413825
 21
710.5356004560134
 31
0.0
  0
LINE
  5
7BFF
330
1F
100
AcDbEntity
  8
実線  細
100
AcDbLine
 10
645.7463173413826
 20
710.2856004560134
 30
0.0
 11
645.7463173413826
 21
714.2856004560134
 31
0.0
  0
LINE
  5
7C00
330
1F
100
AcDbEntity
  8
実線  太
100
AcDbLine
 10
646.2463173413826
 20
710.7856004560133
 30
0.0
 11
646.2463173413826
 21
713.7856004560134
 31
0.0
  0
LINE
  5
7C01
330
1F
100
AcDbEntity
  8
実線  太
 48
0.1
100
AcDbLine
 10
646.2463173413826
 20
710.7856004560134
 30
0.0
 11
645.7463173413826
 21
710.2856004560134
 31
0.0
  0
LINE
  5
7C02
330
1F
100
AcDbEntity
  8
実線  太
 48
0.1
100
AcDbLine
 10
646.2463173413826
 20
713.7856004560134
 30
0.0
 11
645.7463173413826
 21
714.2856004560134
 31
0.0
  0
LINE
  5
7C03
330
1F
100
AcDbEntity
  8
実線  細
100
AcDbLine
 10
645.7463173413826
 20
699.6189337893469
 30
0.0
 11
645.7463173413826
 21
703.6189337893469
 31
0.0
  0
LINE
  5
7C04
330
1F
100
AcDbEntity
  8
実線  太
100
AcDbLine
 10
646.2463173413826
 20
700.1189337893468
 30
0.0
 11
646.2463173413826
 21
703.118933789347
 31
0.0
  0
LINE
  5
7C05
330
1F
100
AcDbEntity
  8
実線  太
 48
0.1
100
AcDbLine
 10
646.2463173413826
 20
700.118933789347
 30
0.0
 11
645.7463173413826
 21
699.6189337893469
 31
0.0
  0
LINE
  5
7C06
330
1F
100
AcDbEntity
  8
実線  太
 48
0.1
100
AcDbLine
 10
646.2463173413826
 20
703.118933789347
 30
0.0
 11
645.7463173413826
 21
703.6189337893469
 31
0.0
  0
LINE
  5
7C07
330
1F
100
AcDbEntity
  8
実線  太
100
AcDbLine
 10
639.9963173413826
 20
703.6189337893469
 30
0.0
 11
639.9963173413826
 21
710.2856004560134
 31
0.0
  0
LINE
  5
7C08
330
1F
100
AcDbEntity
  8
実線  太
100
AcDbLine
 10
639.9963173413826
 20
760.2856004560136
 30
0.0
 11
639.9963173413826
 21
766.7856004560136
 31
0.0
  0
LINE
  5
7C09
330
1F
100
AcDbEntity
  8
実線  太
100
AcDbLine
 10
645.9963173413825
 20
760.2856004560136
 30
0.0
 11
645.9963173413825
 21
766.7856004560136
 31
0.0
  0
LINE
  5
7C0A
330
1F
100
AcDbEntity
  8
実線  太
100
AcDbLine
 10
645.9963173413825
 20
735.3689337893468
 30
0.0
 11
645.9963173413825
 21
742.5356004560136
 31
0.0
  0
LINE
  5
7C0B
330
1F
100
AcDbEntity
  8
実線  太
100
AcDbLine
 10
639.9963173413826
 20
735.6189337893469
 30
0.0
 11
639.9963173413826
 21
742.2856004560136
 31
0.0
  0
LINE
  5
7C0C
330
1F
100
AcDbEntity
  8
実線  太
100
AcDbLine
 10
645.9963173413825
 20
724.70226712268
 30
0.0
 11
645.9963173413825
 21
731.8689337893467
 31
0.0
  0
LINE
  5
7C0D
330
1F
100
AcDbEntity
  8
実線  細
100
AcDbLine
 10
645.7463173413826
 20
731.6189337893469
 30
0.0
 11
645.7463173413826
 21
735.6189337893469
 31
0.0
  0
LINE
  5
7C0E
330
1F
100
AcDbEntity
  8
実線  太
100
AcDbLine
 10
646.2463173413826
 20
732.1189337893468
 30
0.0
 11
646.2463173413826
 21
735.1189337893469
 31
0.0
  0
LINE
  5
7C0F
330
1F
100
AcDbEntity
  8
実線  太
 48
0.1
100
AcDbLine
 10
646.2463173413826
 20
732.1189337893469
 30
0.0
 11
645.7463173413826
 21
731.6189337893469
 31
0.0
  0
LINE
  5
7C10
330
1F
100
AcDbEntity
  8
実線  太
 48
0.1
100
AcDbLine
 10
646.2463173413826
 20
735.1189337893469
 30
0.0
 11
645.7463173413826
 21
735.6189337893469
 31
0.0
  0
LINE
  5
7C11
330
1F
100
AcDbEntity
  8
実線  細
100
AcDbLine
 10
645.7463173413826
 20
720.9522671226801
 30
0.0
 11
645.7463173413826
 21
724.9522671226801
 31
0.0
  0
LINE
  5
7C12
330
1F
100
AcDbEntity
  8
実線  太
100
AcDbLine
 10
646.2463173413826
 20
721.45226712268
 30
0.0
 11
646.2463173413826
 21
724.4522671226802
 31
0.0
  0
LINE
  5
7C13
330
1F
100
AcDbEntity
  8
実線  太
 48
0.1
100
AcDbLine
 10
646.2463173413826
 20
721.4522671226801
 30
0.0
 11
645.7463173413826
 21
720.9522671226801
 31
0.0
  0
LINE
  5
7C14
330
1F
100
AcDbEntity
  8
実線  太
 48
0.1
100
AcDbLine
 10
646.2463173413826
 20
724.4522671226802
 30
0.0
 11
645.7463173413826
 21
724.9522671226801
 31
0.0
  0
LINE
  5
7C15
330
1F
100
AcDbEntity
  8
実線  太
100
AcDbLine
 10
639.9963173413826
 20
724.9522671226801
 30
0.0
 11
639.9963173413826
 21
731.6189337893469
 31
0.0
  0
LINE
  5
7C16
330
1F
100
AcDbEntity
  8
実線  太
100
AcDbLine
 10
645.9963173413825
 20
746.0356004560136
 30
0.0
 11
645.9963173413825
 21
754.2856004560135
 31
0.0
  0
LINE
  5
7C17
330
1F
100
AcDbEntity
  8
実線  細
100
AcDbLine
 10
645.7463173413826
 20
742.2856004560136
 30
0.0
 11
645.7463173413826
 21
746.2856004560136
 31
0.0
  0
LINE
  5
7C18
330
1F
100
AcDbEntity
  8
実線  太
100
AcDbLine
 10
646.2463173413826
 20
742.7856004560135
 30
0.0
 11
646.2463173413826
 21
745.7856004560136
 31
0.0
  0
LINE
  5
7C19
330
1F
100
AcDbEntity
  8
実線  太
 48
0.1
100
AcDbLine
 10
646.2463173413826
 20
742.7856004560136
 30
0.0
 11
645.7463173413826
 21
742.2856004560136
 31
0.0
  0
LINE
  5
7C1A
330
1F
100
AcDbEntity
  8
実線  太
 48
0.1
100
AcDbLine
 10
646.2463173413826
 20
745.7856004560136
 30
0.0
 11
645.7463173413826
 21
746.2856004560136
 31
0.0
  0
LINE
  5
7C1B
330
1F
100
AcDbEntity
  8
実線  太
100
AcDbLine
 10
639.9963173413826
 20
746.2856004560136
 30
0.0
 11
639.9963173413826
 21
754.2856004560135
 31
0.0
  0
LINE
  5
7C1C
330
1F
100
AcDbEntity
  8
実線  太
100
AcDbLine
 10
646.4963173413825
 20
766.7856004560136
 30
0.0
 11
648.9963173413825
 21
776.7856004560136
 31
0.0
  0
LINE
  5
7C1D
330
1F
100
AcDbEntity
  8
実線  細
100
AcDbLine
 10
636.9963173413825
 20
776.7856004560136
 30
0.0
 11
648.9963173413825
 21
776.7856004560136
 31
0.0
  0
ARC
  5
7C1E
330
1F
100
AcDbEntity
  8
実線  太
100
AcDbCircle
 10
642.9963173413825
 20
776.7856004560136
 30
0.0
 40
6.0
100
AcDbArc
 50
0.0
 51
180.0
  0
LINE
  5
7C1F
330
1F
100
AcDbEntity
  8
破線
 48
0.1
100
AcDbLine
 10
645.9963173413825
 20
766.7856004560136
 30
0.0
 11
645.9963173413825
 21
780.2856004560136
 31
0.0
  0
LINE
  5
7C20
330
1F
100
AcDbEntity
  8
破線
 48
0.1
100
AcDbLine
 10
639.9963173413826
 20
766.7856004560136
 30
0.0
 11
639.9963173413826
 21
780.2856004560136
 31
0.0
  0
LINE
  5
7C21
330
1F
100
AcDbEntity
  8
実線  太
100
AcDbLine
 10
639.4963173413826
 20
766.7856004560136
 30
0.0
 11
636.9963173413825
 21
776.7856004560136
 31
0.0
  0
LINE
  5
7C22
330
1F
100
AcDbEntity
  8
実線  太
100
AcDbLine
 10
646.4963173413825
 20
766.7856004560136
 30
0.0
 11
639.4963173413826
 21
766.7856004560136
 31
0.0
  0
LINE
  5
7C23
330
1F
100
AcDbEntity
  8
破線
 48
0.1
100
AcDbLine
 10
639.9963173413826
 20
780.2856004560136
 30
0.0
 11
645.9963173413825
 21
780.2856004560136
 31
0.0
  0
LINE
  5
7C24
330
1F
100
AcDbEntity
  8
実線  太
 48
0.1
100
AcDbLine
 10
241.4963173413826
 20
746.2856004560136
 30
0.0
 11
225.2463173413826
 21
746.2856004560136
 31
0.0
  0
LINE
  5
7C25
330
1F
100
AcDbEntity
  8
実線  太
 48
0.1
100
AcDbLine
 10
247.4963173413826
 20
742.2856004560136
 30
0.0
 11
623.4963173413825
 21
742.2856004560136
 31
0.0
  0
LINE
  5
7C26
330
1F
100
AcDbEntity
  8
実線  太
 48
0.1
100
AcDbLine
 10
241.4963173413826
 20
735.6189337893468
 30
0.0
 11
225.2463173413826
 21
735.6189337893469
 31
0.0
  0
LINE
  5
7C27
330
1F
100
AcDbEntity
  8
実線  太
 48
0.1
100
AcDbLine
 10
247.4963173413826
 20
731.618933789347
 30
0.0
 11
623.4963173413825
 21
731.618933789347
 31
0.0
  0
LINE
  5
7C28
330
1F
100
AcDbEntity
  8
実線  太
 48
0.1
100
AcDbLine
 10
241.8088980919497
 20
724.9522671226801
 30
0.0
 11
225.2463173413826
 21
724.9522671226801
 31
0.0
  0
LINE
  5
7C29
330
1F
100
AcDbEntity
  8
実線  太
 48
0.1
100
AcDbLine
 10
623.4963173413825
 20
746.2856004560136
 30
0.0
 11
247.4963173413826
 21
746.2856004560136
 31
0.0
  0
LINE
  5
7C2A
330
1F
100
AcDbEntity
  8
実線  太
 48
0.1
100
AcDbLine
 10
629.4963173413825
 20
742.2856004560136
 30
0.0
 11
645.7463173413826
 21
742.2856004560136
 31
0.0
  0
LINE
  5
7C2B
330
1F
100
AcDbEntity
  8
実線  太
 48
0.1
100
AcDbLine
 10
623.4963173413825
 20
735.6189337893468
 30
0.0
 11
247.4963173413826
 21
735.6189337893468
 31
0.0
  0
LINE
  5
7C2C
330
1F
100
AcDbEntity
  8
実線  太
 48
0.1
100
AcDbLine
 10
629.4963173413825
 20
731.618933789347
 30
0.0
 11
645.7463173413826
 21
731.6189337893469
 31
0.0
  0
LINE
  5
7C2D
330
1F
100
AcDbEntity
  8
実線  太
 48
0.1
100
AcDbLine
 10
623.8088980919497
 20
724.9522671226801
 30
0.0
 11
247.1837365908154
 21
724.9522671226801
 31
0.0
  0
LINE
  5
7C2E
330
1F
100
AcDbEntity
  8
実線  太
100
AcDbLine
 10
211.4963153881709
 20
190.1222358951513
 30
0.0
 11
659.4963192945942
 21
190.1222358951513
 31
0.0
  0
LINE
  5
7C2F
330
1F
100
AcDbEntity
  8
実線  太
100
AcDbLine
 10
211.4963153881709
 20
205.1222358951513
 30
0.0
 11
659.4963192945942
 21
205.1222358951513
 31
0.0
  0
LINE
  5
7C30
330
1F
100
AcDbEntity
  8
実線  太
100
AcDbLine
 10
210.4963153881708
 20
204.1222358951513
 30
0.0
 11
210.4963153881708
 21
191.1222358951513
 31
0.0
  0
ARC
  5
7C31
330
1F
100
AcDbEntity
  8
実線  太
100
AcDbCircle
 10
211.4963153881709
 20
191.1222358951513
 30
0.0
 40
1.0
100
AcDbArc
 50
180.0
 51
270.0
  0
ARC
  5
7C32
330
1F
100
AcDbEntity
  8
実線  太
100
AcDbCircle
 10
211.4963153881709
 20
204.1222358951515
 30
0.0
 40
1.0
100
AcDbArc
 50
90.0
 51
180.0
  0
ARC
  5
7C33
330
1F
100
AcDbEntity
  8
実線  太
100
AcDbCircle
 10
659.4963192945942
 20
204.1222358951515
 30
0.0
 40
1.0
100
AcDbArc
 50
359.9999999999935
 51
90.0
  0
ARC
  5
7C34
330
1F
100
AcDbEntity
  8
実線  太
100
AcDbCircle
 10
659.4963192945942
 20
191.1222358951513
 30
0.0
 40
1.0
100
AcDbArc
 50
270.0
 51
0.0
  0
LINE
  5
7C35
330
1F
100
AcDbEntity
  8
実線  太
100
AcDbLine
 10
660.4963192945943
 20
204.1222358951513
 30
0.0
 11
660.4963192945943
 21
191.1222358951513
 31
0.0
  0
LINE
  5
7C36
330
1F
100
AcDbEntity
  8
実線  太
100
AcDbLine
 10
241.4963173413826
 20
205.1222358951514
 30
0.0
 11
241.4963173413826
 21
219.1222358951513
 31
0.0
  0
LINE
  5
7C37
330
1F
100
AcDbEntity
  8
実線  太
100
AcDbLine
 10
247.4963173413826
 20
205.1222358951514
 30
0.0
 11
247.4963173413826
 21
219.1222358951513
 31
0.0
  0
ARC
  5
7C38
330
1F
100
AcDbEntity
  8
実線  太
100
AcDbCircle
 10
227.9963173413825
 20
187.6222358951513
 30
0.0
 40
5.999999999999971
100
AcDbArc
 50
155.3756816478399
 51
24.62431835216009
  0
ARC
  5
7C39
330
1F
100
AcDbEntity
  8
実線  細
100
AcDbCircle
 10
227.9963173413825
 20
187.6222358951513
 30
0.0
 40
3.5
100
AcDbArc
 50
148.9972808661229
 51
31.00271913387706
  0
ARC
  5
7C3A
330
1F
100
AcDbEntity
  8
実線  太
100
AcDbCircle
 10
227.9963173413825
 20
187.6222358951513
 30
0.0
 40
3.0
100
AcDbArc
 50
180.0
 51
0.0
  0
LINE
  5
7C3B
330
1F
100
AcDbEntity
  8
実線  太
100
AcDbLine
 10
248.4963173413825
 20
437.6222358951515
 30
0.0
 11
248.4963173413825
 21
424.6222358951514
 31
0.0
  0
LINE
  5
7C3C
330
1F
100
AcDbEntity
  8
実線  太
100
AcDbLine
 10
240.4963173413825
 20
437.6222358951515
 30
0.0
 11
240.4963173413825
 21
424.6222358951514
 31
0.0
  0
LINE
  5
7C3D
330
1F
100
AcDbEntity
  8
実線  細
100
AcDbLine
 10
241.4963173413826
 20
371.6222358951514
 30
0.0
 11
247.4963173413826
 21
371.6222358951514
 31
0.0
  0
ARC
  5
7C3E
330
1F
100
AcDbEntity
  8
実線  太
100
AcDbCircle
 10
244.4963173413825
 20
424.6222358951514
 30
0.0
 40
4.0
100
AcDbArc
 50
180.0
 51
221.4096221092697
  0
ARC
  5
7C3F
330
1F
100
AcDbEntity
  8
実線  太
100
AcDbCircle
 10
244.4963173413825
 20
424.6222358951514
 30
0.0
 40
4.0
100
AcDbArc
 50
318.5903778907302
 51
0.0
  0
ARC
  5
7C40
330
1F
100
AcDbEntity
  8
実線  太
100
AcDbCircle
 10
244.4963173413825
 20
446.6222358951514
 30
0.0
 40
3.0
100
AcDbArc
 50
0.0
 51
180.0
  0
LINE
  5
7C41
330
1F
100
AcDbEntity
  8
実線  太
100
AcDbLine
 10
240.4963173413825
 20
437.6222358951515
 30
0.0
 11
241.4963173413826
 21
437.6222358951515
 31
0.0
  0
LINE
  5
7C42
330
1F
100
AcDbEntity
  8
実線  太
100
AcDbLine
 10
247.4963173413826
 20
437.6222358951515
 30
0.0
 11
248.4963173413825
 21
437.6222358951515
 31
0.0
  0
LINE
  5
7C43
330
1F
100
AcDbEntity
  8
実線  太
 48
0.1
100
AcDbLine
 10
224.9963173413826
 20
187.6222358951513
 30
0.0
 11
224.9963173413826
 21
190.1222358951513
 31
0.0
  0
LINE
  5
7C44
330
1F
100
AcDbEntity
  8
実線  太
 48
0.1
100
AcDbLine
 10
230.9963173413826
 20
187.6222358951513
 30
0.0
 11
230.9963173413826
 21
190.1222358951513
 31
0.0
  0
LINE
  5
7C45
330
1F
100
AcDbEntity
  8
実線  太
 48
0.1
100
AcDbLine
 10
230.9963173413826
 20
205.1222358951513
 30
0.0
 11
230.9963173413826
 21
219.1222358951513
 31
0.0
  0
LINE
  5
7C46
330
1F
100
AcDbEntity
  8
実線  太
 48
0.1
100
AcDbLine
 10
224.9963173413826
 20
205.1222358951514
 30
0.0
 11
224.9963173413826
 21
219.1222358951513
 31
0.0
  0
LINE
  5
7C47
330
1F
100
AcDbEntity
  8
破線
 48
0.1
100
AcDbLine
 10
241.4963173413826
 20
191.1222358951513
 30
0.0
 11
247.4963173413826
 21
191.1222358951513
 31
0.0
  0
LINE
  5
7C48
330
1F
100
AcDbEntity
  8
破線
 48
0.1
100
AcDbLine
 10
241.4963173413826
 20
205.1222358951514
 30
0.0
 11
241.4963173413826
 21
191.1222358951513
 31
0.0
  0
LINE
  5
7C49
330
1F
100
AcDbEntity
  8
破線
 48
0.1
100
AcDbLine
 10
247.4963173413826
 20
205.1222358951514
 30
0.0
 11
247.4963173413826
 21
191.1222358951513
 31
0.0
  0
LINE
  5
7C4A
330
1F
100
AcDbEntity
  8
実線  太
100
AcDbLine
 10
210.9963173413825
 20
225.1222358951513
 30
0.0
 11
659.9963173413826
 21
225.1222358951513
 31
0.0
  0
LINE
  5
7C4B
330
1F
100
AcDbEntity
  8
実線  太
100
AcDbLine
 10
210.9963173413825
 20
219.1222358951513
 30
0.0
 11
659.9963173413826
 21
219.1222358951513
 31
0.0
  0
ARC
  5
7C4C
330
1F
100
AcDbEntity
  8
実線  太
 48
0.1
100
AcDbCircle
 10
210.9963173413825
 20
222.1222358951513
 30
0.0
 40
3.0
100
AcDbArc
 50
90.0
 51
270.0
  0
ARC
  5
7C4D
330
1F
100
AcDbEntity
  8
実線  太
 48
0.1
100
AcDbCircle
 10
659.9963173413826
 20
222.1222358951513
 30
0.0
 40
3.0
100
AcDbArc
 50
270.0
 51
90.0
  0
LINE
  5
7C4E
330
1F
100
AcDbEntity
  8
実線  太
100
AcDbLine
 10
241.4963173413826
 20
225.1222358951513
 30
0.0
 11
241.4963173413826
 21
446.6222358951514
 31
0.0
  0
LINE
  5
7C4F
330
1F
100
AcDbEntity
  8
実線  太
100
AcDbLine
 10
247.4963173413826
 20
225.1222358951513
 30
0.0
 11
247.4963173413826
 21
446.6222358951514
 31
0.0
  0
LINE
  5
7C50
330
1F
100
AcDbEntity
  8
破線
 48
0.1
100
AcDbLine
 10
241.4963173413826
 20
225.1222358951513
 30
0.0
 11
241.4963173413826
 21
219.1222358951513
 31
0.0
  0
LINE
  5
7C51
330
1F
100
AcDbEntity
  8
破線
 48
0.1
100
AcDbLine
 10
247.4963173413826
 20
225.1222358951513
 30
0.0
 11
247.4963173413826
 21
219.1222358951513
 31
0.0
  0
LINE
  5
7C52
330
1F
100
AcDbEntity
  8
実線  細
100
AcDbLine
 10
629.4963173413825
 20
371.6222358951514
 30
0.0
 11
623.4963173413825
 21
371.6222358951514
 31
0.0
  0
ARC
  5
7C53
330
1F
100
AcDbEntity
  8
実線  太
100
AcDbCircle
 10
626.4963173413825
 20
424.6222358951514
 30
0.0
 40
4.0
100
AcDbArc
 50
180.0
 51
221.4096221092697
  0
ARC
  5
7C54
330
1F
100
AcDbEntity
  8
実線  太
100
AcDbCircle
 10
626.4963173413825
 20
424.6222358951514
 30
0.0
 40
4.0
100
AcDbArc
 50
318.5903778907302
 51
0.0
  0
LINE
  5
7C55
330
1F
100
AcDbEntity
  8
実線  太
100
AcDbLine
 10
630.4963173413825
 20
437.6222358951515
 30
0.0
 11
630.4963173413825
 21
424.6222358951514
 31
0.0
  0
LINE
  5
7C56
330
1F
100
AcDbEntity
  8
実線  太
100
AcDbLine
 10
622.4963173413826
 20
437.6222358951515
 30
0.0
 11
622.4963173413826
 21
424.6222358951514
 31
0.0
  0
LINE
  5
7C57
330
1F
100
AcDbEntity
  8
実線  太
100
AcDbLine
 10
623.4963173413825
 20
437.6222358951515
 30
0.0
 11
622.4963173413826
 21
437.6222358951515
 31
0.0
  0
LINE
  5
7C58
330
1F
100
AcDbEntity
  8
実線  太
100
AcDbLine
 10
630.4963173413825
 20
437.6222358951515
 30
0.0
 11
629.4963173413825
 21
437.6222358951515
 31
0.0
  0
ARC
  5
7C59
330
1F
100
AcDbEntity
  8
実線  太
100
AcDbCircle
 10
626.4963173413825
 20
446.6222358951514
 30
0.0
 40
3.0
100
AcDbArc
 50
0.0
 51
180.0
  0
LINE
  5
7C5A
330
1F
100
AcDbEntity
  8
実線  太
100
AcDbLine
 10
623.4963173413825
 20
225.1222358951513
 30
0.0
 11
623.4963173413825
 21
446.6222358951514
 31
0.0
  0
LINE
  5
7C5B
330
1F
100
AcDbEntity
  8
実線  太
100
AcDbLine
 10
629.4963173413825
 20
225.1222358951513
 30
0.0
 11
629.4963173413825
 21
446.6222358951514
 31
0.0
  0
LINE
  5
7C5C
330
1F
100
AcDbEntity
  8
実線  太
100
AcDbLine
 10
623.4963173413825
 20
205.1222358951514
 30
0.0
 11
623.4963173413825
 21
219.1222358951513
 31
0.0
  0
LINE
  5
7C5D
330
1F
100
AcDbEntity
  8
実線  太
100
AcDbLine
 10
629.4963173413825
 20
205.1222358951514
 30
0.0
 11
629.4963173413825
 21
219.1222358951513
 31
0.0
  0
LINE
  5
7C5E
330
1F
100
AcDbEntity
  8
破線
 48
0.1
100
AcDbLine
 10
623.4963173413825
 20
205.1222358951514
 30
0.0
 11
623.4963173413825
 21
191.1222358951513
 31
0.0
  0
LINE
  5
7C5F
330
1F
100
AcDbEntity
  8
破線
 48
0.1
100
AcDbLine
 10
629.4963173413825
 20
205.1222358951514
 30
0.0
 11
629.4963173413825
 21
191.1222358951513
 31
0.0
  0
LINE
  5
7C60
330
1F
100
AcDbEntity
  8
破線
 48
0.1
100
AcDbLine
 10
629.4963173413825
 20
191.1222358951513
 30
0.0
 11
623.4963173413825
 21
191.1222358951513
 31
0.0
  0
LINE
  5
7C61
330
1F
100
AcDbEntity
  8
破線
 48
0.1
100
AcDbLine
 10
623.4963173413825
 20
225.1222358951513
 30
0.0
 11
623.4963173413825
 21
219.1222358951513
 31
0.0
  0
LINE
  5
7C62
330
1F
100
AcDbEntity
  8
破線
 48
0.1
100
AcDbLine
 10
629.4963173413825
 20
225.1222358951513
 30
0.0
 11
629.4963173413825
 21
219.1222358951513
 31
0.0
  0
LINE
  5
7C63
330
1F
100
AcDbEntity
  8
実線  太
 48
0.1
100
AcDbLine
 10
639.9963173413826
 20
205.1222358951513
 30
0.0
 11
639.9963173413826
 21
219.1222358951513
 31
0.0
  0
LINE
  5
7C64
330
1F
100
AcDbEntity
  8
実線  太
 48
0.1
100
AcDbLine
 10
645.9963173413825
 20
205.1222358951514
 30
0.0
 11
645.9963173413825
 21
219.1222358951513
 31
0.0
  0
ARC
  5
7C65
330
1F
100
AcDbEntity
  8
実線  太
100
AcDbCircle
 10
642.9963173413825
 20
187.6222358951513
 30
0.0
 40
5.999999999999971
100
AcDbArc
 50
155.3756816478399
 51
24.62431835216009
  0
LINE
  5
7C66
330
1F
100
AcDbEntity
  8
実線  太
 48
0.1
100
AcDbLine
 10
645.9963173413825
 20
187.6222358951513
 30
0.0
 11
645.9963173413825
 21
190.1222358951513
 31
0.0
  0
LINE
  5
7C67
330
1F
100
AcDbEntity
  8
実線  太
 48
0.1
100
AcDbLine
 10
639.9963173413826
 20
187.6222358951513
 30
0.0
 11
639.9963173413826
 21
190.1222358951513
 31
0.0
  0
ARC
  5
7C68
330
1F
100
AcDbEntity
  8
実線  太
100
AcDbCircle
 10
642.9963173413825
 20
187.6222358951513
 30
0.0
 40
3.0
100
AcDbArc
 50
180.0
 51
0.0
  0
ARC
  5
7C69
330
1F
100
AcDbEntity
  8
実線  細
100
AcDbCircle
 10
642.9963173413825
 20
187.6222358951513
 30
0.0
 40
3.5
100
AcDbArc
 50
148.9972808661229
 51
31.00271913387706
  0
LINE
  5
7C6A
330
1F
100
AcDbEntity
  8
実線  太
100
AcDbLine
 10
247.4963173413826
 20
366.6222358951513
 30
0.0
 11
623.4963173413825
 21
366.6222358951513
 31
0.0
  0
LINE
  5
7C6B
330
1F
100
AcDbEntity
  8
実線  太
100
AcDbLine
 10
247.4963173413826
 20
360.6222358951513
 30
0.0
 11
623.4963173413825
 21
360.6222358951513
 31
0.0
  0
LINE
  5
7C6C
330
1F
100
AcDbEntity
  8
実線  太
100
AcDbLine
 10
1089.975599422785
 20
184.1222358951513
 30
0.0
 11
1099.975599422785
 21
181.6222358951513
 31
0.0
  0
LINE
  5
7C6D
330
1F
100
AcDbEntity
  8
実線  太
100
AcDbLine
 10
1089.975599422785
 20
191.1222358951513
 30
0.0
 11
1099.975599422785
 21
193.6222358951513
 31
0.0
  0
LINE
  5
7C6E
330
1F
100
AcDbEntity
  8
破線
 48
0.1
100
AcDbLine
 10
1089.975599422785
 20
184.6222358951513
 30
0.0
 11
1103.475599422786
 21
184.6222358951513
 31
0.0
  0
LINE
  5
7C6F
330
1F
100
AcDbEntity
  8
破線
 48
0.1
100
AcDbLine
 10
1089.975599422785
 20
190.6222358951513
 30
0.0
 11
1103.475599422786
 21
190.6222358951513
 31
0.0
  0
LINE
  5
7C70
330
1F
100
AcDbEntity
  8
実線  太
100
AcDbLine
 10
1089.975599422785
 20
190.6222358951513
 30
0.0
 11
1082.475599422786
 21
190.6222358951513
 31
0.0
  0
LINE
  5
7C71
330
1F
100
AcDbEntity
  8
実線  太
100
AcDbLine
 10
1082.475599422786
 20
191.1222358951513
 30
0.0
 11
1088.475599422786
 21
191.1222358951513
 31
0.0
  0
LINE
  5
7C72
330
1F
100
AcDbEntity
  8
実線  太
100
AcDbLine
 10
1089.975599422785
 20
184.1222358951513
 30
0.0
 11
1089.975599422785
 21
191.1222358951513
 31
0.0
  0
ARC
  5
7C73
330
1F
100
AcDbEntity
  8
実線  太
100
AcDbCircle
 10
1099.975599422786
 20
187.6222358951513
 30
0.0
 40
6.0
100
AcDbArc
 50
270.0
 51
90.0
  0
LINE
  5
7C74
330
1F
100
AcDbEntity
  8
破線
 48
0.1
100
AcDbLine
 10
1103.475599422786
 20
190.6222358951513
 30
0.0
 11
1103.475599422786
 21
184.6222358951513
 31
0.0
  0
LINE
  5
7C75
330
1F
100
AcDbEntity
  8
実線  細
100
AcDbLine
 10
1099.975599422785
 20
193.6222358951513
 30
0.0
 11
1099.975599422785
 21
181.6222358951513
 31
0.0
  0
LINE
  5
7C76
330
1F
100
AcDbEntity
  8
実線  太
100
AcDbLine
 10
922.4755994227862
 20
190.1222358951513
 30
0.0
 11
1082.475599422786
 21
190.1222358951513
 31
0.0
  0
LINE
  5
7C77
330
1F
100
AcDbEntity
  8
実線  太
100
AcDbLine
 10
924.4755994227862
 20
218.1222358951513
 30
0.0
 11
1079.475599422786
 21
218.1222358951513
 31
0.0
  0
LINE
  5
7C78
330
1F
100
AcDbEntity
  8
実線  太
100
AcDbLine
 10
924.4755994227862
 20
224.1222358951513
 30
0.0
 11
1079.475599422786
 21
224.1222358951513
 31
0.0
  0
LINE
  5
7C79
330
1F
100
AcDbEntity
  8
実線  太
100
AcDbLine
 10
922.4755994227862
 20
205.1222358951513
 30
0.0
 11
1082.475599422786
 21
205.1222358951513
 31
0.0
  0
ARC
  5
7C7A
330
1F
100
AcDbEntity
  8
実線  太
100
AcDbCircle
 10
895.6609050598855
 20
203.326630884714
 30
0.0
 40
30.86696593500038
100
AcDbArc
 50
3.334914828705745
 51
31.71734091730187
  0
LINE
  5
7C7B
330
1F
100
AcDbEntity
  8
実線  太
100
AcDbLine
 10
922.4755994227862
 20
190.1222358951513
 30
0.0
 11
922.4755994227862
 21
205.1222358951513
 31
0.0
  0
ARC
  5
7C7C
330
1F
100
AcDbEntity
  8
実線  太
100
AcDbCircle
 10
924.4755994227862
 20
221.1222358951514
 30
0.0
 40
3.0
100
AcDbArc
 50
90.0
 51
270.0
  0
LINE
  5
7C7D
330
1F
100
AcDbEntity
  8
破線
 48
0.2
100
AcDbLine
 10
936.4755994227861
 20
190.6222358951513
 30
0.0
 11
1082.475599422786
 21
190.6222358951513
 31
0.0
  0
LINE
  5
7C7E
330
1F
100
AcDbEntity
  8
実線  太
100
AcDbLine
 10
936.4755994227861
 20
184.6222358951514
 30
0.0
 11
1089.975599422785
 21
184.6222358951514
 31
0.0
  0
LINE
  5
7C7F
330
1F
100
AcDbEntity
  8
破線
 48
0.2
100
AcDbLine
 10
926.4755994227861
 20
190.1222358951513
 30
0.0
 11
926.4755994227861
 21
205.1222358951513
 31
0.0
  0
ARC
  5
7C80
330
1F
100
AcDbEntity
  8
実線  太
100
AcDbCircle
 10
895.7974386675751
 20
203.3844437939154
 30
0.0
 40
36.71930551865326
100
AcDbArc
 50
2.712615550689823
 51
23.66345047428705
  0
LINE
  5
7C81
330
1F
100
AcDbEntity
  8
破線
 48
0.2
100
AcDbLine
 10
932.4755994227862
 20
194.6222358951514
 30
0.0
 11
932.4755994227862
 21
205.1222358951513
 31
0.0
  0
ARC
  5
7C82
330
1F
100
AcDbEntity
  8
実線  太
100
AcDbCircle
 10
1079.475599422786
 20
221.1222358951514
 30
0.0
 40
3.0
100
AcDbArc
 50
270.0
 51
90.0
  0
LINE
  5
7C83
330
1F
100
AcDbEntity
  8
実線  太
100
AcDbLine
 10
1088.475599422786
 20
191.1222358951513
 30
0.0
 11
1088.475599422786
 21
366.8587799278607
 31
0.0
  0
LINE
  5
7C84
330
1F
100
AcDbEntity
  8
実線  太
100
AcDbLine
 10
1082.475599422786
 20
190.069693736976
 30
0.0
 11
1082.475599422786
 21
366.8587799278607
 31
0.0
  0
LINE
  5
7C85
330
1F
100
AcDbEntity
  8
実線  太
100
AcDbLine
 10
1052.475599422786
 20
434.6222358951513
 30
0.0
 11
1052.475599422786
 21
414.8709732366805
 31
0.0
  0
LINE
  5
7C86
330
1F
100
AcDbEntity
  8
実線  太
100
AcDbLine
 10
1046.475599422786
 20
434.6222358951513
 30
0.0
 11
1046.475599422786
 21
414.870973236681
 31
0.0
  0
LINE
  5
7C87
330
1F
100
AcDbEntity
  8
実線  太
100
AcDbLine
 10
1079.107327406431
 20
374.9905079115065
 30
0.0
 11
1051.601230752021
 21
402.4966045659161
 31
0.0
  0
LINE
  5
7C88
330
1F
100
AcDbEntity
  8
実線  太
100
AcDbLine
 10
1083.349968093551
 20
379.2331485986256
 30
0.0
 11
1055.843871439141
 21
406.7392452530352
 31
0.0
  0
ARC
  5
7C89
330
1F
100
AcDbEntity
  8
実線  太
100
AcDbCircle
 10
1063.975599422786
 20
414.8709732366807
 30
0.0
 40
17.5
100
AcDbArc
 50
180.0
 51
224.9999999999908
  0
ARC
  5
7C8A
330
1F
100
AcDbEntity
  8
実線  太
100
AcDbCircle
 10
1063.975599422786
 20
414.8709732366807
 30
0.0
 40
11.5
100
AcDbArc
 50
180.0
 51
224.9999999999908
  0
ARC
  5
7C8B
330
1F
100
AcDbEntity
  8
実線  太
100
AcDbCircle
 10
1070.975599422786
 20
366.8587799278608
 30
0.0
 40
17.5
100
AcDbArc
 50
0.0
 51
44.99999999999078
  0
ARC
  5
7C8C
330
1F
100
AcDbEntity
  8
実線  太
100
AcDbCircle
 10
1070.975599422786
 20
366.8587799278608
 30
0.0
 40
11.5
100
AcDbArc
 50
0.0
 51
44.99999999999078
  0
ARC
  5
7C8D
330
1F
100
AcDbEntity
  8
実線  太
100
AcDbCircle
 10
1061.475599422786
 20
434.6222358951514
 30
0.0
 40
15.0
100
AcDbArc
 50
9.594068226864807
 51
180.0
  0
LINE
  5
7C8E
330
1F
100
AcDbEntity
  8
実線  太
100
AcDbLine
 10
1077.475599422786
 20
437.1222358951513
 30
0.0
 11
1069.475599422786
 21
437.1222358951513
 31
0.0
  0
LINE
  5
7C8F
330
1F
100
AcDbEntity
  8
破線
 48
0.1
100
AcDbLine
 10
1070.475599422786
 20
424.1222358951513
 30
0.0
 11
1076.475599422786
 21
424.1222358951513
 31
0.0
  0
LINE
  5
7C90
330
1F
100
AcDbEntity
  8
実線  太
100
AcDbLine
 10
1074.536259578052
 20
421.0615757233718
 30
0.0
 11
1076.889812985159
 21
423.4151291139646
 31
0.0
  0
ARC
  5
7C91
330
1F
100
AcDbEntity
  8
実線  太
100
AcDbCircle
 10
1061.475599422786
 20
434.6222358951514
 30
0.0
 40
9.0
100
AcDbArc
 50
16.12762021316489
 51
180.0
  0
LINE
  5
7C92
330
1F
100
AcDbEntity
  8
破線
 48
0.1
100
AcDbLine
 10
1070.475599422786
 20
434.6222358951513
 30
0.0
 11
1070.475599422786
 21
424.1222358951513
 31
0.0
  0
LINE
  5
7C93
330
1F
100
AcDbEntity
  8
実線  太
100
AcDbLine
 10
1069.475599422786
 20
437.1222358951513
 30
0.0
 11
1069.475599422786
 21
424.829342676338
 31
0.0
  0
LINE
  5
7C94
330
1F
100
AcDbEntity
  8
実線  太
100
AcDbLine
 10
1072.414939234493
 20
421.0615757233718
 30
0.0
 11
1070.061385860413
 21
423.4151291139646
 31
0.0
  0
ARC
  5
7C95
330
1F
100
AcDbEntity
  8
実線  太
100
AcDbCircle
 10
1073.475599406272
 20
422.1222358951514
 30
0.0
 40
1.5
100
AcDbArc
 50
224.9999999999908
 51
315.0000000000092
  0
ARC
  5
7C96
330
1F
100
AcDbEntity
  8
実線  太
100
AcDbCircle
 10
1071.475599422786
 20
424.8293426763381
 30
0.0
 40
2.0
100
AcDbArc
 50
180.0
 51
224.9999999999908
  0
ARC
  5
7C97
330
1F
100
AcDbEntity
  8
破線
 48
0.1
100
AcDbCircle
 10
1061.475599422786
 20
434.6222358951514
 30
0.0
 40
9.0
100
AcDbArc
 50
0.0
 51
16.12762021316489
  0
LINE
  5
7C98
330
1F
100
AcDbEntity
  8
破線
 48
0.1
100
AcDbLine
 10
1076.475599422786
 20
434.6222358951513
 30
0.0
 11
1076.475599422786
 21
424.1222358951513
 31
0.0
  0
LINE
  5
7C99
330
1F
100
AcDbEntity
  8
実線  太
100
AcDbLine
 10
1077.475599422786
 20
437.1222358951513
 30
0.0
 11
1077.475599422786
 21
424.829342676338
 31
0.0
  0
ARC
  5
7C9A
330
1F
100
AcDbEntity
  8
実線  太
100
AcDbCircle
 10
1075.475599422786
 20
424.8293426763381
 30
0.0
 40
2.0
100
AcDbArc
 50
315.0000000000092
 51
0.0
  0
ARC
  5
7C9B
330
1F
100
AcDbEntity
  8
破線
 48
0.1
100
AcDbCircle
 10
1061.475599422786
 20
434.6222358951514
 30
0.0
 40
15.0
100
AcDbArc
 50
0.0
 51
9.594068226864807
  0
CIRCLE
  5
7C9C
330
1F
100
AcDbEntity
  8
破線
 48
0.1
100
AcDbCircle
 10
1085.475599422786
 20
363.1222358951514
 30
0.0
 40
3.0
  0
DIMENSION
  5
7C9D
330
1F
100
AcDbEntity
  8
寸法線
 48
0.1
100
AcDbDimension
  2
*D35
 10
642.9963173413825
 20
842.7856004560137
 30
0.0
 11
435.4963173413826
 21
853.5356004560137
 31
0.0
 70
    32
 71
     5
 42
415.0
  3
ISO-25
100
AcDbAlignedDimension
 13
227.9963173413825
 23
766.7856004560136
 33
0.0
 14
642.9963173413825
 24
766.7856004560136
 34
0.0
100
AcDbRotatedDimension
1001
ACAD
1000
DSTYLE
1002
{
1070
    40
1040
5.0
1002
}
  0
DIMENSION
  5
7C9E
330
1F
100
AcDbEntity
  8
寸法線
 48
0.1
100
AcDbDimension
  2
*D36
 10
147.9963173413825
 20
598.2856004560136
 30
0.0
 11
137.2463173413824
 21
679.2856004560137
 31
0.0
 70
    32
 71
     5
 42
162.0000000000001
  3
ISO-25
100
AcDbAlignedDimension
 13
217.9963173413826
 23
760.2856004560138
 33
0.0
 14
217.9963173413826
 24
598.2856004560136
 34
0.0
 50
90.0
100
AcDbRotatedDimension
1001
ACAD
1000
DSTYLE
1002
{
1070
    40
1040
5.0
1002
}
  0
DIMENSION
  5
7C9F
330
1F
100
AcDbEntity
  8
寸法線
 48
0.1
100
AcDbDimension
  2
*D37
 10
662.9963173413825
 20
538.2856004560136
 30
0.0
 11
435.4963173413826
 21
549.0356004560136
 31
0.0
 70
    32
 71
     5
 42
455.0
  3
ISO-25
100
AcDbAlignedDimension
 13
207.9963173413826
 23
608.2856004560136
 33
0.0
 14
662.9963173413825
 24
608.2856004560136
 34
0.0
100
AcDbRotatedDimension
1001
ACAD
1000
DSTYLE
1002
{
1070
    40
1040
5.0
1002
}
  0
DIMENSION
  5
7CA0
330
1F
100
AcDbEntity
  8
寸法線
 48
0.1
100
AcDbDimension
  2
*D38
 10
147.9963173413826
 20
782.7856004560136
 30
0.0
 11
147.9963173413825
 21
771.5356004560136
 31
0.0
 70
   160
 71
     5
 42
22.5
  3
ISO-25
100
AcDbAlignedDimension
 13
217.9963173413826
 23
760.2856004560136
 33
0.0
 14
227.9963173413825
 24
782.7856004560136
 34
0.0
 50
90.0
100
AcDbRotatedDimension
1001
ACAD
1000
DSTYLE
1002
{
1070
    40
1040
5.0
1002
}
  0
DIMENSION
  5
7CA1
330
1F
100
AcDbEntity
  8
寸法線
 48
0.1
100
AcDbDimension
  2
*D39
 10
626.4963173413825
 20
313.1999640731052
 30
0.0
 11
435.4963173413826
 21
323.9499640731052
 31
0.0
 70
    32
 71
     5
 42
382.0
  3
ISO-25
100
AcDbAlignedDimension
 13
244.4963173413825
 23
250.1999640731052
 33
0.0
 14
626.4963173413825
 24
250.1999640731052
 34
0.0
100
AcDbRotatedDimension
1001
ACAD
1000
DSTYLE
1002
{
1070
    40
1040
5.0
1002
}
  0
DIMENSION
  5
7CA2
330
1F
100
AcDbEntity
  8
寸法線
 48
0.1
100
AcDbDimension
  2
*D40
 10
660.4963192945943
 20
124.6222358951513
 30
0.0
 11
435.4963173413826
 21
135.3722358951513
 31
0.0
 70
    32
 71
     5
 42
450.0000039064234
  3
ISO-25
100
AcDbAlignedDimension
 13
210.4963153881708
 23
191.1222358951513
 33
0.0
 14
660.4963192945943
 24
191.1222358951513
 34
0.0
100
AcDbRotatedDimension
1001
ACAD
1000
DSTYLE
1002
{
1070
    40
1040
5.0
1002
}
  0
DIMENSION
  5
7CA3
330
1F
100
AcDbEntity
  8
寸法線
 48
0.1
100
AcDbDimension
  2
*D41
 10
147.9963173413825
 20
366.6222358951513
 30
0.0
 11
137.2463173413825
 21
274.1222358951514
 31
0.0
 70
    32
 71
     5
 42
184.9999999999999
  3
ISO-25
100
AcDbAlignedDimension
 13
227.9963173413825
 23
181.6222358951514
 33
0.0
 14
247.4963173413826
 24
366.6222358951513
 34
0.0
 50
90.0
100
AcDbRotatedDimension
1001
ACAD
1000
DSTYLE
1002
{
1070
    40
1040
5.0
1002
}
  0
DIMENSION
  5
7CA4
330
1F
100
AcDbEntity
  8
寸法線
 48
0.1
100
AcDbDimension
  2
*D42
 10
720.4963192945943
 20
225.1222358951513
 30
0.0
 11
709.7463192945943
 21
207.6222358951514
 31
0.0
 70
    32
 71
     5
 42
35.0
  3
ISO-25
100
AcDbAlignedDimension
 13
659.4963192945942
 23
190.1222358951513
 33
0.0
 14
659.9963173413826
 24
225.1222358951513
 34
0.0
 50
90.0
100
AcDbRotatedDimension
1001
ACAD
1000
DSTYLE
1002
{
1070
    40
1040
5.0
1002
}
  0
DIMENSION
  5
7CA5
330
1F
100
AcDbEntity
  8
寸法線
 48
0.1
100
AcDbDimension
  2
*D43
 10
1105.975599422786
 20
124.6222358951513
 30
0.0
 11
1013.725599422786
 21
135.3722358951513
 31
0.0
 70
    32
 71
     5
 42
184.5
  3
ISO-25
100
AcDbAlignedDimension
 13
921.4755994227862
 23
221.1222358951514
 33
0.0
 14
1105.975599422786
 24
187.6222358951513
 34
0.0
100
AcDbRotatedDimension
1001
ACAD
1000
DSTYLE
1002
{
1070
    40
1040
5.0
1002
}
  0
DIMENSION
  5
7CA6
330
1F
100
AcDbEntity
  8
寸法線
 48
0.1
100
AcDbDimension
  2
*D44
 10
1165.975599422786
 20
181.6222358951513
 30
0.0
 11
1155.225599422786
 21
315.6222358951516
 31
0.0
 70
    32
 71
     5
 42
268.0000000000001
  3
ISO-25
100
AcDbAlignedDimension
 13
1061.475599422786
 23
449.6222358951514
 33
0.0
 14
1099.975599422786
 24
181.6222358951513
 34
0.0
 50
90.0
100
AcDbRotatedDimension
1001
ACAD
1000
DSTYLE
1002
{
1070
    40
1040
5.0
1002
}
  0
LEADER
  5
7CA7
330
1F
100
AcDbEntity
  8
寸法線
100
AcDbLeader
  3
ISO-25
 76
     3
 10
369.9325288940067
 20
366.6222355973546
 30
0.0
 10
399.2956112245411
 20
429.5915688626783
 30
0.0
 10
426.9325288940067
 20
429.5915688626783
 30
0.0
1001
ACAD
1000
DSTYLE
1002
{
1070
    40
1040
5.0
1070
   147
1040
4.5
1070
    77
1070
     0
1002
}
  0
MTEXT
  5
7CA8
330
1F
100
AcDbEntity
  8
寸法線
 62
     7
100
AcDbMText
 10
430.2345247372991
 20
429.5915688626783
 30
0.0
 40
12.5
 41
0.0
 71
     4
 72
     1
  1
\U+03C66
 73
     1
 44
1.0
1001
ACAD
1000
MTEXTBEGIN
1070
    73
1070
     1
1070
    44
1040
1.0
1070
    74
1070
     0
1000
MTEXTEND
  0
CIRCLE
  5
7CA9
330
1F
100
AcDbEntity
  8
破線
 48
0.08
100
AcDbCircle
 10
939.4755994227862
 20
192.6222358951512
 30
0.0
 40
1.999999999999886
  0
ARC
  5
7CAA
330
1F
100
AcDbEntity
  8
破線
100
AcDbCircle
 10
936.4755994227861
 20
194.6222358951514
 30
0.0
 40
10.0
100
AcDbArc
 50
180.0
 51
206.7436839504067
  0
ARC
  5
7CAB
330
1F
100
AcDbEntity
  8
破線
100
AcDbCircle
 10
936.4755994227861
 20
194.6222358951514
 30
0.0
 40
4.0
100
AcDbArc
 50
180.0
 51
270.0
  0
ARC
  5
7CAC
330
1F
100
AcDbEntity
  8
実線  太
100
AcDbCircle
 10
936.4755994227861
 20
194.6222358951514
 30
0.0
 40
10.0
100
AcDbArc
 50
206.7436839504067
 51
270.0
  0
CIRCLE
  5
7CAD
330
1F
100
AcDbEntity
  8
破線
 48
0.08
100
AcDbCircle
 10
950.1422660894528
 20
192.6222358951512
 30
0.0
 40
1.999999999999886
  0
CIRCLE
  5
7CAE
330
1F
100
AcDbEntity
  8
破線
 48
0.08
100
AcDbCircle
 10
960.8089327561192
 20
192.6222358951512
 30
0.0
 40
1.999999999999886
  0
CIRCLE
  5
7CAF
330
1F
100
AcDbEntity
  8
破線
 48
0.08
100
AcDbCircle
 10
971.4755994227857
 20
192.6222358951512
 30
0.0
 40
1.999999999999886
  0
CIRCLE
  5
7CB0
330
1F
100
AcDbEntity
  8
破線
 48
0.08
100
AcDbCircle
 10
992.8089327561188
 20
192.6222358951512
 30
0.0
 40
1.999999999999886
  0
CIRCLE
  5
7CB1
330
1F
100
AcDbEntity
  8
破線
 48
0.08
100
AcDbCircle
 10
1003.475599422785
 20
192.6222358951512
 30
0.0
 40
1.999999999999886
  0
CIRCLE
  5
7CB2
330
1F
100
AcDbEntity
  8
破線
 48
0.08
100
AcDbCircle
 10
982.1422660894523
 20
192.6222358951512
 30
0.0
 40
1.999999999999886
  0
CIRCLE
  5
7CB3
330
1F
100
AcDbEntity
  8
破線
 48
0.08
100
AcDbCircle
 10
1046.142266089451
 20
192.6222358951513
 30
0.0
 40
1.999999999999886
  0
CIRCLE
  5
7CB4
330
1F
100
AcDbEntity
  8
破線
 48
0.08
100
AcDbCircle
 10
1014.142266089452
 20
192.6222358951513
 30
0.0
 40
1.999999999999886
  0
CIRCLE
  5
7CB5
330
1F
100
AcDbEntity
  8
破線
 48
0.08
100
AcDbCircle
 10
1024.808932756118
 20
192.6222358951513
 30
0.0
 40
1.999999999999886
  0
CIRCLE
  5
7CB6
330
1F
100
AcDbEntity
  8
破線
 48
0.08
100
AcDbCircle
 10
1035.475599422785
 20
192.6222358951513
 30
0.0
 40
1.999999999999886
  0
CIRCLE
  5
7CB7
330
1F
100
AcDbEntity
  8
破線
 48
0.08
100
AcDbCircle
 10
1056.808932756118
 20
192.6222358951513
 30
0.0
 40
1.999999999999886
  0
CIRCLE
  5
7CB8
330
1F
100
AcDbEntity
  8
破線
 48
0.08
100
AcDbCircle
 10
1067.475599422784
 20
192.6222358951513
 30
0.0
 40
1.999999999999886
  0
MTEXT
  5
7CB9
330
1F
100
AcDbEntity
  8
寸法線
 62
     7
100
AcDbMText
 10
689.7873169818872
 20
558.8502136715228
 30
0.0
 40
12.5
 41
0.0
 71
     4
 72
     1
  1
\U+03C64
 73
     1
 44
1.0
1001
ACAD
1000
MTEXTBEGIN
1070
    73
1070
     1
1070
    44
1040
1.0
1070
    74
1070
     0
1000
MTEXTEND
  0
LEADER
  5
7CBA
330
1F
100
AcDbEntity
  8
寸法線
100
AcDbLeader
  3
ISO-25
 76
     3
 10
604.9587325283105
 20
625.0802085753965
 30
0.0
 10
635.8422863515524
 20
558.8502136715228
 30
0.0
 10
685.3224742858124
 20
558.8502136715228
 30
0.0
210
0.0
220
0.0
230
-1.0
1001
ACAD
1000
DSTYLE
1002
{
1070
    40
1040
5.0
1070
   147
1040
4.5
1070
    77
1070
     0
1002
}
  0
VIEWPORT
  5
283B
102
{ACAD_XDICTIONARY
360
7ECB
102
}
330
23
100
AcDbEntity
 67
     1
  8
0
100
AcDbViewport
 10
144.2296600341797
 20
100.75333070755
 30
0.0
 40
387.3721909720035
 41
222.1517806396485
 68
     1
 69
     1
 12
144.2296600341797
 22
100.75333070755
 13
0.0
 23
0.0
 14
10.0
 24
10.0
 15
10.0
 25
10.0
 16
0.0
 26
0.0
 36
1.0
 17
0.0
 27
0.0
 37
0.0
 42
50.0
 43
0.0
 44
0.0
 45
222.1517806396485
 50
0.0
 51
0.0
 72
 20000
 90
    32800
  1

281
     0
 71
     1
 74
     0
110
0.0
120
0.0
130
0.0
111
1.0
121
0.0
131
0.0
112
0.0
122
1.0
132
0.0
 79
     0
146
0.0
  0
VIEWPORT
  5
283D
102
{ACAD_XDICTIONARY
360
7ECD
102
}
330
23
100
AcDbEntity
 67
     1
  8
実線  太
100
AcDbViewport
 10
144.2296578884125
 20
100.7533361911773
 30
0.0
 40
230.7674526214599
 41
161.2053379058837
 68
     2
 69
     2
 12
144.2273710473552
 22
92.63739313986013
 13
0.0
 23
0.0
 14
10.0
 24
10.0
 15
10.0
 25
10.0
 16
0.0
 26
0.0
 36
1.0
 17
0.0
 27
0.0
 37
0.0
 42
50.0
 43
0.0
 44
0.0
 45
237.262888478563
 50
0.0
 51
0.0
 72
 20000
 90
    32768
  1

281
     0
 71
     1
 74
     0
110
0.0
120
0.0
130
0.0
111
1.0
121
0.0
131
0.0
112
0.0
122
1.0
132
0.0
 79
     0
146
0.0
  0
ENDSEC
  0
SECTION
  2
OBJECTS
  0
DICTIONARY
  5
C
330
0
100
AcDbDictionary
281
     1
  3
ACAD_CIP_PREVIOUS_PRODUCT_INFO
350
63D8
  3
ACAD_COLOR
350
63BB
  3
ACAD_GROUP
350
D
  3
ACAD_LAYOUT
350
1A
  3
ACAD_MATERIAL
350
6389
  3
ACAD_MLEADERSTYLE
350
63D0
  3
ACAD_MLINESTYLE
350
17
  3
ACAD_PLOTSETTINGS
350
19
  3
ACAD_PLOTSTYLENAME
350
E
  3
ACAD_SCALELIST
350
63BE
  3
ACAD_TABLESTYLE
350
63BC
  3
ACAD_VISUALSTYLE
350
63A2
  3
AcadDim
350
6353
  3
ACDB_RECOMPOSE_DATA
350
7EBF
  3
AcDbVariableDictionary
350
5AA
  3
DWGPROPS
350
7EC0
  0
DICTIONARY
  5
6755
330
8
100
AcDbDictionary
280
     1
281
     1
  0
DICTIONARY
  5
322F
330
2
100
AcDbDictionary
280
     1
281
     1
  3
ACAD_LAYERFILTERS
360
40B9
  3
ACAD_LAYERSTATES
360
3230
  0
DICTIONARY
  5
6CEC
330
10
100
AcDbDictionary
280
     1
281
     1
  3
ADSK_XREC_LAYER_RECONCILED
360
6CED
  0
DICTIONARY
  5
6CEE
330
35
100
AcDbDictionary
280
     1
281
     1
  3
ADSK_XREC_LAYER_RECONCILED
360
6CEF
  0
DICTIONARY
  5
6CF2
330
37
100
AcDbDictionary
280
     1
281
     1
  3
ADSK_XREC_LAYER_RECONCILED
360
6CF3
  0
DICTIONARY
  5
6CF4
330
38
100
AcDbDictionary
280
     1
281
     1
  3
ADSK_XREC_LAYER_RECONCILED
360
6CF5
  0
DICTIONARY
  5
6CF6
330
261
100
AcDbDictionary
280
     1
281
     1
  3
ADSK_XREC_LAYER_RECONCILED
360
6CF7
  0
DICTIONARY
  5
6CF8
330
262
100
AcDbDictionary
280
     1
281
     1
  3
ADSK_XREC_LAYER_RECONCILED
360
6CF9
  0
DICTIONARY
  5
6CFA
330
263
100
AcDbDictionary
280
     1
281
     1
  3
ADSK_XREC_LAYER_RECONCILED
360
6CFB
  0
DICTIONARY
  5
6CFC
330
FA1
100
AcDbDictionary
280
     1
281
     1
  3
ADSK_XREC_LAYER_RECONCILED
360
6CFD
  0
DICTIONARY
  5
6430
330
1F
100
AcDbDictionary
280
     1
281
     1
  3
ACAD_SORTENTS
360
6431
  0
DICTIONARY
  5
7EC7
330
2835
100
AcDbDictionary
280
     1
281
     1
  3
ACAD_XREC_ROUNDTRIP
360
7EC8
  0
DICTIONARY
  5
7EC9
330
2837
100
AcDbDictionary
280
     1
281
     1
  3
ACAD_XREC_ROUNDTRIP
360
7ECA
  0
DICTIONARY
  5
7ECB
330
283B
100
AcDbDictionary
280
     1
281
     1
  3
ACAD_XREC_ROUNDTRIP
360
7ECC
  0
DICTIONARY
  5
7ECD
330
283D
100
AcDbDictionary
280
     1
281
     1
  3
ACAD_XREC_ROUNDTRIP
360
7ECE
  0
XRECORD
  5
63D8
102
{ACAD_REACTORS
330
C
102
}
330
C
100
AcDbXrecord
280
     1
300
ACDLT
300
2012
300
ACDLT_F_S
  0
DICTIONARY
  5
63BB
102
{ACAD_REACTORS
330
C
102
}
330
C
100
AcDbDictionary
281
     1
  0
DICTIONARY
  5
D
102
{ACAD_REACTORS
330
C
102
}
330
C
100
AcDbDictionary
281
     1
  0
DICTIONARY
  5
1A
102
{ACAD_REACTORS
330
C
102
}
330
C
100
AcDbDictionary
281
     1
  3
Model
350
22
  3
ﾚｲｱｳﾄ1
350
1E
  3
ﾚｲｱｳﾄ2
350
26
  0
DICTIONARY
  5
6389
102
{ACAD_REACTORS
330
C
102
}
330
C
100
AcDbDictionary
281
     1
  3
ByBlock
350
6392
  3
ByLayer
350
638A
  3
Global
350
639A
  0
DICTIONARY
  5
63D0
102
{ACAD_REACTORS
330
C
102
}
330
C
100
AcDbDictionary
281
     1
  3
Standard
350
63D1
  0
DICTIONARY
  5
17
102
{ACAD_REACTORS
330
C
102
}
330
C
100
AcDbDictionary
281
     1
  3
Standard
350
18
  0
DICTIONARY
  5
19
102
{ACAD_REACTORS
330
C
102
}
330
C
100
AcDbDictionary
281
     1
  0
ACDBDICTIONARYWDFLT
  5
E
102
{ACAD_REACTORS
330
C
102
}
330
C
100
AcDbDictionary
281
     1
  3
Normal
350
F
100
AcDbDictionaryWithDefault
340
F
  0
DICTIONARY
  5
63BE
102
{ACAD_REACTORS
330
C
102
}
330
C
100
AcDbDictionary
281
     1
  3
A0
350
63BF
  3
A1
350
63C0
  3
A2
350
63C1
  3
A3
350
63C2
  3
A4
350
63C3
  3
A5
350
63C4
  3
A6
350
63C5
  3
A7
350
63C6
  3
A8
350
63C7
  3
A9
350
63C8
  3
B0
350
63C9
  3
B1
350
63CA
  3
B2
350
63CB
  3
B3
350
63CC
  3
B4
350
63CD
  3
B5
350
63CE
  3
B6
350
63CF
  0
DICTIONARY
  5
63BC
102
{ACAD_REACTORS
330
C
102
}
330
C
100
AcDbDictionary
281
     1
  3
Standard
350
63BD
  0
DICTIONARY
  5
63A2
102
{ACAD_REACTORS
330
C
102
}
330
C
100
AcDbDictionary
281
     1
  3
2dWireframe
350
63A8
  3
Basic
350
63A7
  3
Brighten
350
63AE
  3
ColorChange
350
63B2
  3
Conceptual
350
63AB
  3
Dim
350
63AD
  3
EdgeColorOff
350
63BA
  3
Facepattern
350
63B1
  3
Flat
350
63A3
  3
FlatWithEdges
350
63A4
  3
Gouraud
350
63A5
  3
GouraudWithEdges
350
63A6
  3
Hidden
350
63AA
  3
JitterOff
350
63B8
  3
Linepattern
350
63B0
  3
OverhangOff
350
63B9
  3
Realistic
350
63AC
  3
Shaded
350
63B7
  3
Shaded with edges
350
63B6
  3
Shades of Gray
350
63B3
  3
Sketchy
350
63B4
  3
Thicken
350
63AF
  3
Wireframe
350
63A9
  3
X-Ray
350
63B5
  0
XRECORD
  5
6353
102
{ACAD_REACTORS
330
C
102
}
330
C
100
AcDbXrecord
280
     1
 90
   990106
  3

 60
     0
 61
     0
 62
     1
 63
     3
 64
     0
 65
     0
 66
     0
 67
     3
 68
     1
 69
     0
 70
     0
 71
     0
 72
     0
 40
0.0
170
     0
340
0
  0
XRECORD
  5
7EBF
102
{ACAD_REACTORS
330
C
102
}
330
C
100
AcDbXrecord
280
     1
 90
        1
330
63BD
  0
DICTIONARY
  5
5AA
102
{ACAD_REACTORS
330
C
102
}
330
C
100
AcDbDictionary
281
     1
  3
CANNOSCALE
350
679E
  3
CMLEADERSTYLE
350
679D
  3
CTABLESTYLE
350
679C
  3
DIMASSOC
350
5AB
  3
INDEXCTL
350
67A0
  3
SORTENTS
350
679F
  3
XCLIPFRAME
350
7E74
  0
XRECORD
  5
7EC0
102
{ACAD_REACTORS
330
C
102
}
330
C
100
AcDbXrecord
280
     1
  1
DWGPROPS COOKIE
  2

  3

  4

  6

  7

  8
SaitoK
  9

300
=
301
=
302
=
303
=
304
=
305
=
306
=
307
=
308
=
309
=
 40
0.8711451273148147
 41
2452626.479274549
 42
2456751.426371459
  1

 90
        0
  0
DICTIONARY
  5
40B9
102
{ACAD_REACTORS
330
322F
102
}
330
322F
100
AcDbDictionary
280
     1
281
     1
  0
DICTIONARY
  5
3230
102
{ACAD_REACTORS
330
322F
102
}
330
322F
100
AcDbDictionary
281
     1
  0
XRECORD
  5
6CED
102
{ACAD_REACTORS
330
6CEC
102
}
330
6CEC
100
AcDbXrecord
280
     1
290
     1
  0
XRECORD
  5
6CEF
102
{ACAD_REACTORS
330
6CEE
102
}
330
6CEE
100
AcDbXrecord
280
     1
290
     1
  0
XRECORD
  5
6CF3
102
{ACAD_REACTORS
330
6CF2
102
}
330
6CF2
100
AcDbXrecord
280
     1
290
     1
  0
XRECORD
  5
6CF5
102
{ACAD_REACTORS
330
6CF4
102
}
330
6CF4
100
AcDbXrecord
280
     1
290
     1
  0
XRECORD
  5
6CF7
102
{ACAD_REACTORS
330
6CF6
102
}
330
6CF6
100
AcDbXrecord
280
     1
290
     1
  0
XRECORD
  5
6CF9
102
{ACAD_REACTORS
330
6CF8
102
}
330
6CF8
100
AcDbXrecord
280
     1
290
     1
  0
XRECORD
  5
6CFB
102
{ACAD_REACTORS
330
6CFA
102
}
330
6CFA
100
AcDbXrecord
280
     1
290
     1
  0
XRECORD
  5
6CFD
102
{ACAD_REACTORS
330
6CFC
102
}
330
6CFC
100
AcDbXrecord
280
     1
290
     1
  0
SORTENTSTABLE
  5
6431
102
{ACAD_REACTORS
330
6430
102
}
330
6430
100
AcDbSortentsTable
330
1F
  0
XRECORD
  5
7EC8
102
{ACAD_REACTORS
330
7EC7
102
}
330
7EC7
100
AcDbXrecord
280
     1
102
SHADEPLOT
 70
     0
  0
XRECORD
  5
7ECA
102
{ACAD_REACTORS
330
7EC9
102
}
330
7EC9
100
AcDbXrecord
280
     1
102
SHADEPLOT
 70
     0
  0
XRECORD
  5
7ECC
102
{ACAD_REACTORS
330
7ECB
102
}
330
7ECB
100
AcDbXrecord
280
     1
102
SHADEPLOT
 70
     0
  0
XRECORD
  5
7ECE
102
{ACAD_REACTORS
330
7ECD
102
}
330
7ECD
100
AcDbXrecord
280
     1
102
SHADEPLOT
 70
     0
  0
LAYOUT
  5
22
102
{ACAD_XDICTIONARY
360
7EC3
102
}
102
{ACAD_REACTORS
330
1A
102
}
330
1A
100
AcDbPlotSettings
  1

  2
\\HJA-ISS\HP LaserJet 8150 PCL 6
  4
A4
  6

 40
4.233333110809326
 41
4.233341693878173
 42
4.233322143554687
 43
4.23333740234375
 44
209.9733276367187
 45
296.9259948730469
 46
0.0
 47
0.0
 48
0.0
 49
0.0
140
288.4599999999998
141
201.5099999999999
142
1.0
143
1.000016513684662
 70
 11952
 72
     1
 73
     1
 74
     4
  7
monochrome.ctb
 75
     0
147
0.9999834865880345
148
0.0
149
0.0
100
AcDbLayout
  1
Model
 70
     1
 71
     0
 10
0.0
 20
0.0
 11
12.0
 21
9.0
 12
0.0
 22
0.0
 32
0.0
 14
0.0
 24
0.0
 34
0.0
 15
0.0
 25
0.0
 35
0.0
146
0.0
 13
0.0
 23
0.0
 33
0.0
 16
1.0
 26
0.0
 36
0.0
 17
0.0
 27
1.0
 37
0.0
 76
     0
330
1F
331
6387
  0
LAYOUT
  5
1E
102
{ACAD_XDICTIONARY
360
7EC1
102
}
102
{ACAD_REACTORS
330
1A
102
}
330
1A
100
AcDbPlotSettings
  1

  2
\\HJA-ISS\HP LaserJet 8150 PCL 6
  4
A4
  6

 40
4.233333110809326
 41
4.233341693878173
 42
4.233322143554687
 43
4.23333740234375
 44
209.9733276367187
 45
296.9259948730469
 46
0.0
 47
0.0
 48
49.94588226953315
 49
38.8311605353754
140
240.1884225297883
141
167.9243128548342
142
1.0
143
0.6595125546489263
 70
   688
 72
     1
 73
     1
 74
     4
  7
monochrome.ctb
 75
     0
147
1.516271362767799
148
-49.94588226953315
149
-38.8311605353754
100
AcDbLayout
  1
ﾚｲｱｳﾄ1
 70
     1
 71
     1
 10
47.15394310462258
 20
36.03922420078566
 11
242.9803645250197
 21
174.519269918614
 12
0.0
 22
0.0
 32
0.0
 14
28.82629495675951
 24
20.13505625693949
 34
-0.0015258207003583
 15
259.6353157326059
 25
181.3786474074919
 35
0.0000000349246037
146
0.0
 13
0.0
 23
0.0
 33
0.0
 16
1.0
 26
0.0
 36
0.0
 17
0.0
 27
1.0
 37
0.0
 76
     0
330
1B
331
2835
  0
LAYOUT
  5
26
102
{ACAD_XDICTIONARY
360
7EC5
102
}
102
{ACAD_REACTORS
330
1A
102
}
330
1A
100
AcDbPlotSettings
  1

  2
\\HJA-ISS\HP LaserJet 8150 PCL 6
  4
A4
  6

 40
4.233333110809326
 41
4.233341693878173
 42
4.233322143554687
 43
4.23333740234375
 44
209.9733276367187
 45
296.9259948730469
 46
0.0
 47
0.0
 48
0.0
 49
0.0
140
0.0
141
0.0
142
1.0
143
1.0
 70
   688
 72
     1
 73
     1
 74
     5
  7
monochrome.ctb
 75
    16
147
1.0
148
0.0
149
0.0
100
AcDbLayout
  1
ﾚｲｱｳﾄ2
 70
     1
 71
     2
 10
-4.23333740234375
 20
-4.233333110809326
 11
292.6926574707031
 21
205.7399945259094
 12
0.0
 22
0.0
 32
0.0
 14
28.84593157768251
 24
20.15066723823549
 34
0.0
 15
259.6133841991425
 25
181.3560051441192
 35
0.0
146
0.0
 13
0.0
 23
0.0
 33
0.0
 16
1.0
 26
0.0
 36
0.0
 17
0.0
 27
1.0
 37
0.0
 76
     0
330
23
331
283B
  0
MATERIAL
  5
6392
102
{ACAD_XDICTIONARY
360
6393
102
}
102
{ACAD_REACTORS
330
6389
102
}
330
6389
100
AcDbMaterial
  1
ByBlock
 72
     0
 43
0.0008202099737533
 43
0.0
 43
0.0
 43
0.0
 43
0.0
 43
0.0008202099737533
 43
0.0
 43
0.0
 43
0.0
 43
0.0
 43
1.0
 43
0.0
 43
0.0
 43
0.0
 43
0.0
 43
1.0
 77
     0
 47
0.0008202099737533
 47
0.0
 47
0.0
 47
0.0
 47
0.0
 47
0.0008202099737533
 47
0.0
 47
0.0
 47
0.0
 47
0.0
 47
1.0
 47
0.0
 47
0.0
 47
0.0
 47
0.0
 47
1.0
171
     0
 49
0.0008202099737533
 49
0.0
 49
0.0
 49
0.0
 49
0.0
 49
0.0008202099737533
 49
0.0
 49
0.0
 49
0.0
 49
0.0
 49
1.0
 49
0.0
 49
0.0
 49
0.0
 49
0.0
 49
1.0
175
     0
142
0.0008202099737533
142
0.0
142
0.0
142
0.0
142
0.0
142
0.0008202099737533
142
0.0
142
0.0
142
0.0
142
0.0
142
1.0
142
0.0
142
0.0
142
0.0
142
0.0
142
1.0
179
     0
144
0.0008202099737533
144
0.0
144
0.0
144
0.0
144
0.0
144
0.0008202099737533
144
0.0
144
0.0
144
0.0
144
0.0
144
1.0
144
0.0
144
0.0
144
0.0
144
0.0
144
1.0
147
0.0008202099737533
147
0.0
147
0.0
147
0.0
147
0.0
147
0.0008202099737533
147
0.0
147
0.0
147
0.0
147
0.0
147
1.0
147
0.0
147
0.0
147
0.0
147
0.0
147
1.0
  0
MATERIAL
  5
638A
102
{ACAD_XDICTIONARY
360
638B
102
}
102
{ACAD_REACTORS
330
6389
102
}
330
6389
100
AcDbMaterial
  1
ByLayer
 72
     0
 43
0.0008202099737533
 43
0.0
 43
0.0
 43
0.0
 43
0.0
 43
0.0008202099737533
 43
0.0
 43
0.0
 43
0.0
 43
0.0
 43
1.0
 43
0.0
 43
0.0
 43
0.0
 43
0.0
 43
1.0
 77
     0
 47
0.0008202099737533
 47
0.0
 47
0.0
 47
0.0
 47
0.0
 47
0.0008202099737533
 47
0.0
 47
0.0
 47
0.0
 47
0.0
 47
1.0
 47
0.0
 47
0.0
 47
0.0
 47
0.0
 47
1.0
171
     0
 49
0.0008202099737533
 49
0.0
 49
0.0
 49
0.0
 49
0.0
 49
0.0008202099737533
 49
0.0
 49
0.0
 49
0.0
 49
0.0
 49
1.0
 49
0.0
 49
0.0
 49
0.0
 49
0.0
 49
1.0
175
     0
142
0.0008202099737533
142
0.0
142
0.0
142
0.0
142
0.0
142
0.0008202099737533
142
0.0
142
0.0
142
0.0
142
0.0
142
1.0
142
0.0
142
0.0
142
0.0
142
0.0
142
1.0
179
     0
144
0.0008202099737533
144
0.0
144
0.0
144
0.0
144
0.0
144
0.0008202099737533
144
0.0
144
0.0
144
0.0
144
0.0
144
1.0
144
0.0
144
0.0
144
0.0
144
0.0
144
1.0
147
0.0008202099737533
147
0.0
147
0.0
147
0.0
147
0.0
147
0.0008202099737533
147
0.0
147
0.0
147
0.0
147
0.0
147
1.0
147
0.0
147
0.0
147
0.0
147
0.0
147
1.0
  0
MATERIAL
  5
639A
102
{ACAD_XDICTIONARY
360
639B
102
}
102
{ACAD_REACTORS
330
6389
102
}
330
6389
100
AcDbMaterial
  1
Global
 72
     0
 43
0.0008202099737533
 43
0.0
 43
0.0
 43
0.0
 43
0.0
 43
0.0008202099737533
 43
0.0
 43
0.0
 43
0.0
 43
0.0
 43
1.0
 43
0.0
 43
0.0
 43
0.0
 43
0.0
 43
1.0
 77
     0
 47
0.0008202099737533
 47
0.0
 47
0.0
 47
0.0
 47
0.0
 47
0.0008202099737533
 47
0.0
 47
0.0
 47
0.0
 47
0.0
 47
1.0
 47
0.0
 47
0.0
 47
0.0
 47
0.0
 47
1.0
171
     0
 49
0.0008202099737533
 49
0.0
 49
0.0
 49
0.0
 49
0.0
 49
0.0008202099737533
 49
0.0
 49
0.0
 49
0.0
 49
0.0
 49
1.0
 49
0.0
 49
0.0
 49
0.0
 49
0.0
 49
1.0
175
     0
142
0.0008202099737533
142
0.0
142
0.0
142
0.0
142
0.0
142
0.0008202099737533
142
0.0
142
0.0
142
0.0
142
0.0
142
1.0
142
0.0
142
0.0
142
0.0
142
0.0
142
1.0
179
     0
144
0.0008202099737533
144
0.0
144
0.0
144
0.0
144
0.0
144
0.0008202099737533
144
0.0
144
0.0
144
0.0
144
0.0
144
1.0
144
0.0
144
0.0
144
0.0
144
0.0
144
1.0
147
0.0008202099737533
147
0.0
147
0.0
147
0.0
147
0.0
147
0.0008202099737533
147
0.0
147
0.0
147
0.0
147
0.0
147
1.0
147
0.0
147
0.0
147
0.0
147
0.0
147
1.0
  0
MLEADERSTYLE
  5
63D1
102
{ACAD_XDICTIONARY
360
7EBD
102
}
102
{ACAD_REACTORS
330
63D0
102
}
330
63D0
100
AcDbMLeaderStyle
170
     2
171
     1
172
     0
 90
        2
 40
0.0
 41
0.0
173
     1
 91
-1056964608
340
14
 92
       -2
290
     1
 42
2.0
291
     1
 43
0.36
  3
Standard
 44
4.0
300

342
11
174
     1
178
     6
175
     1
176
     0
 93
-1056964608
 45
4.0
292
     0
297
     0
 46
4.0
 94
-1056964608
 47
1.0
 49
1.0
140
1.0
293
     1
141
0.0
294
     1
177
     0
142
1.0
295
     0
296
     0
143
0.125
1001
ACAD_MLEADERVER
1070
     2
  0
MLINESTYLE
  5
18
102
{ACAD_REACTORS
330
17
102
}
330
17
100
AcDbMlineStyle
  2
STANDARD
 70
     0
  3

 62
   256
 51
90.0
 52
90.0
 71
     2
 49
0.5
 62
   256
  6
BYLAYER
 49
-0.5
 62
   256
  6
BYLAYER
  0
ACDBPLACEHOLDER
  5
F
102
{ACAD_REACTORS
330
E
102
}
330
E
  0
SCALE
  5
63BF
102
{ACAD_REACTORS
330
63BE
102
}
330
63BE
100
AcDbScale
 70
     0
300
1:1
140
1.0
141
1.0
290
     1
  0
SCALE
  5
63C0
102
{ACAD_REACTORS
330
63BE
102
}
330
63BE
100
AcDbScale
 70
     0
300
1:2
140
1.0
141
2.0
290
     0
  0
SCALE
  5
63C1
102
{ACAD_REACTORS
330
63BE
102
}
330
63BE
100
AcDbScale
 70
     0
300
1:4
140
1.0
141
4.0
290
     0
  0
SCALE
  5
63C2
102
{ACAD_REACTORS
330
63BE
102
}
330
63BE
100
AcDbScale
 70
     0
300
1:5
140
1.0
141
5.0
290
     0
  0
SCALE
  5
63C3
102
{ACAD_REACTORS
330
63BE
102
}
330
63BE
100
AcDbScale
 70
     0
300
1:8
140
1.0
141
8.0
290
     0
  0
SCALE
  5
63C4
102
{ACAD_REACTORS
330
63BE
102
}
330
63BE
100
AcDbScale
 70
     0
300
1:10
140
1.0
141
10.0
290
     0
  0
SCALE
  5
63C5
102
{ACAD_REACTORS
330
63BE
102
}
330
63BE
100
AcDbScale
 70
     0
300
1:16
140
1.0
141
16.0
290
     0
  0
SCALE
  5
63C6
102
{ACAD_REACTORS
330
63BE
102
}
330
63BE
100
AcDbScale
 70
     0
300
1:20
140
1.0
141
20.0
290
     0
  0
SCALE
  5
63C7
102
{ACAD_REACTORS
330
63BE
102
}
330
63BE
100
AcDbScale
 70
     0
300
1:30
140
1.0
141
30.0
290
     0
  0
SCALE
  5
63C8
102
{ACAD_REACTORS
330
63BE
102
}
330
63BE
100
AcDbScale
 70
     0
300
1:40
140
1.0
141
40.0
290
     0
  0
SCALE
  5
63C9
102
{ACAD_REACTORS
330
63BE
102
}
330
63BE
100
AcDbScale
 70
     0
300
1:50
140
1.0
141
50.0
290
     0
  0
SCALE
  5
63CA
102
{ACAD_REACTORS
330
63BE
102
}
330
63BE
100
AcDbScale
 70
     0
300
1:100
140
1.0
141
100.0
290
     0
  0
SCALE
  5
63CB
102
{ACAD_REACTORS
330
63BE
102
}
330
63BE
100
AcDbScale
 70
     0
300
2:1
140
2.0
141
1.0
290
     0
  0
SCALE
  5
63CC
102
{ACAD_REACTORS
330
63BE
102
}
330
63BE
100
AcDbScale
 70
     0
300
4:1
140
4.0
141
1.0
290
     0
  0
SCALE
  5
63CD
102
{ACAD_REACTORS
330
63BE
102
}
330
63BE
100
AcDbScale
 70
     0
300
8:1
140
8.0
141
1.0
290
     0
  0
SCALE
  5
63CE
102
{ACAD_REACTORS
330
63BE
102
}
330
63BE
100
AcDbScale
 70
     0
300
10:1
140
10.0
141
1.0
290
     0
  0
SCALE
  5
63CF
102
{ACAD_REACTORS
330
63BE
102
}
330
63BE
100
AcDbScale
 70
     0
300
100:1
140
100.0
141
1.0
290
     0
  0
TABLESTYLE
  5
63BD
102
{ACAD_XDICTIONARY
360
674F
102
}
102
{ACAD_REACTORS
330
63BC
102
}
330
63BC
100
AcDbTableStyle
  3
Standard
 70
     0
 71
     0
 40
1.5
 41
1.5
280
     0
281
     0
  7
Standard
140
4.5
170
     2
 62
     0
 63
     7
283
     0
274
    -2
284
     1
 64
     0
275
    -2
285
     1
 65
     0
276
    -2
286
     1
 66
     0
277
    -2
287
     1
 67
     0
278
    -2
288
     1
 68
     0
279
    -2
289
     1
 69
     0
  7
Standard
140
6.0
170
     5
 62
     0
 63
     7
283
     0
274
    -2
284
     1
 64
     0
275
    -2
285
     1
 65
     0
276
    -2
286
     1
 66
     0
277
    -2
287
     1
 67
     0
278
    -2
288
     1
 68
     0
279
    -2
289
     1
 69
     0
  7
Standard
140
4.5
170
     5
 62
     0
 63
     7
283
     0
274
    -2
284
     1
 64
     0
275
    -2
285
     1
 65
     0
276
    -2
286
     1
 66
     0
277
    -2
287
     1
 67
     0
278
    -2
288
     1
 68
     0
279
    -2
289
     1
 69
     0
  0
VISUALSTYLE
  5
63A8
102
{ACAD_XDICTIONARY
360
7EDC
102
}
102
{ACAD_REACTORS
330
63A2
102
}
330
63A2
100
AcDbVisualStyle
  2
2dWireframe
 70
     4
 71
     0
 72
     2
 73
     0
 90
        0
 40
-0.6
 41
-30.0
 62
     5
 63
     7
 74
     1
 91
        4
 64
     7
 65
   257
 75
     1
175
     1
 42
1.0
 92
        0
 66
   257
 43
1.0
 76
     1
 77
     6
 78
     2
 67
     7
 79
     5
170
     0
171
     0
290
     0
174
     0
 93
        1
 44
0.0
173
     0
291
     0
 45
0.0
1001
ACAD
1000
AcDbSavedByObjectVersion
1070
     0
  0
VISUALSTYLE
  5
63A7
102
{ACAD_XDICTIONARY
360
7EDA
102
}
102
{ACAD_REACTORS
330
63A2
102
}
330
63A2
100
AcDbVisualStyle
  2
Basic
 70
     7
 71
     1
 72
     0
 73
     1
 90
        0
 40
-0.6
 41
-30.0
 62
     5
 63
     7
 74
     0
 91
        4
 64
     7
 65
   257
 75
     1
175
     1
 42
1.0
 92
        8
 66
     7
 43
1.0
 76
     1
 77
     6
 78
     2
 67
     7
 79
     5
170
     0
171
     0
290
     0
174
     0
 93
        1
 44
0.0
173
     0
291
     1
 45
0.0
1001
ACAD
1000
AcDbSavedByObjectVersion
1070
     0
  0
VISUALSTYLE
  5
63AE
102
{ACAD_XDICTIONARY
360
7EE8
102
}
102
{ACAD_REACTORS
330
63A2
102
}
330
63A2
100
AcDbVisualStyle
  2
Brighten
 70
    12
 71
     2
 72
     2
 73
     0
 90
        0
 40
-0.6
 41
-30.0
 62
     5
 63
     7
 74
     1
 91
        4
 64
     7
 65
   257
 75
     1
175
     1
 42
1.0
 92
        8
 66
     7
 43
1.0
 76
     1
 77
     6
 78
     2
 67
     7
 79
     5
170
     0
171
     0
290
     0
174
     0
 93
        1
 44
50.0
173
     0
291
     1
 45
0.0
1001
ACAD
1000
AcDbSavedByObjectVersion
1070
     0
  0
VISUALSTYLE
  5
63B2
102
{ACAD_XDICTIONARY
360
7EF0
102
}
102
{ACAD_REACTORS
330
63A2
102
}
330
63A2
100
AcDbVisualStyle
  2
ColorChange
 70
    16
 71
     2
 72
     2
 73
     3
 90
        0
 40
-0.6
 41
-30.0
 62
     5
 63
     8
 74
     1
 91
        4
 64
     7
 65
   257
 75
     1
175
     1
 42
1.0
 92
        8
 66
     8
 43
1.0
 76
     1
 77
     6
 78
     2
 67
     7
 79
     5
170
     0
171
     0
290
     0
174
     0
 93
        1
 44
0.0
173
     0
291
     1
 45
0.0
1001
ACAD
1000
AcDbSavedByObjectVersion
1070
     0
  0
VISUALSTYLE
  5
63AB
102
{ACAD_XDICTIONARY
360
7EE2
102
}
102
{ACAD_REACTORS
330
63A2
102
}
330
63A2
100
AcDbVisualStyle
  2
Conceptual
 70
     9
 71
     3
 72
     2
 73
     0
 90
        0
 40
-0.6
 41
-30.0
 62
     5
 63
     7
 74
     2
 91
        2
 64
     7
 65
   257
 75
     1
175
     1
 42
179.0
 92
        8
 66
     7
 43
1.0
 76
     1
 77
     6
 78
     2
 67
     7
 79
     3
170
     0
171
     0
290
     0
174
     0
 93
        1
 44
0.0
173
     0
291
     0
 45
0.0
1001
ACAD
1000
AcDbSavedByObjectVersion
1070
     0
  0
VISUALSTYLE
  5
63AD
102
{ACAD_XDICTIONARY
360
7EE6
102
}
102
{ACAD_REACTORS
330
63A2
102
}
330
63A2
100
AcDbVisualStyle
  2
Dim
 70
    11
 71
     2
 72
     2
 73
     0
 90
        0
 40
-0.6
 41
-30.0
 62
     5
 63
     7
 74
     1
 91
        4
 64
     7
 65
   257
 75
     1
175
     1
 42
1.0
 92
        8
 66
     7
 43
1.0
 76
     1
 77
     6
 78
     2
 67
     7
 79
     5
170
     0
171
     0
290
     0
174
     0
 93
        1
 44
-50.0
173
     0
291
     1
 45
0.0
1001
ACAD
1000
AcDbSavedByObjectVersion
1070
     0
  0
VISUALSTYLE
  5
63BA
102
{ACAD_XDICTIONARY
360
7F00
102
}
102
{ACAD_REACTORS
330
63A2
102
}
330
63A2
100
AcDbVisualStyle
  2
EdgeColorOff
 70
    22
 71
     2
 72
     2
 73
     0
 90
        0
 40
-0.6
 41
-30.0
 62
     5
 63
     7
 74
     1
 91
        4
 64
     7
 65
   257
 75
     1
175
     1
 42
1.0
 92
        8
 66
     7
 43
1.0
 76
     1
 77
     6
 78
     2
 67
     7
 79
     5
170
     0
171
     0
290
     0
174
     0
 93
        1
 44
0.0
173
     0
291
     1
 45
0.0
1001
ACAD
1000
AcDbSavedByObjectVersion
1070
     0
  0
VISUALSTYLE
  5
63B1
102
{ACAD_XDICTIONARY
360
7EEE
102
}
102
{ACAD_REACTORS
330
63A2
102
}
330
63A2
100
AcDbVisualStyle
  2
Facepattern
 70
    15
 71
     2
 72
     2
 73
     0
 90
        0
 40
-0.6
 41
-30.0
 62
     5
 63
     7
 74
     1
 91
        4
 64
     7
 65
   257
 75
     1
175
     1
 42
1.0
 92
        8
 66
     7
 43
1.0
 76
     1
 77
     6
 78
     2
 67
     7
 79
     5
170
     0
171
     0
290
     0
174
     0
 93
        1
 44
0.0
173
     0
291
     1
 45
0.0
1001
ACAD
1000
AcDbSavedByObjectVersion
1070
     0
  0
VISUALSTYLE
  5
63A3
102
{ACAD_XDICTIONARY
360
7ED2
102
}
102
{ACAD_REACTORS
330
63A2
102
}
330
63A2
100
AcDbVisualStyle
  2
Flat
 70
     0
 71
     2
 72
     1
 73
     1
 90
        2
 40
-0.6
 41
30.0
 62
     5
 63
     7
 74
     0
 91
        0
 64
     7
 65
   257
 75
     1
175
     1
 42
1.0
 92
        8
 66
     7
 43
1.0
 76
     1
 77
     6
 78
     2
 67
     7
 79
     5
170
     0
171
     0
290
     0
174
     0
 93
       13
 44
0.0
173
     0
291
     1
 45
0.0
1001
ACAD
1000
AcDbSavedByObjectVersion
1070
     0
  0
VISUALSTYLE
  5
63A4
102
{ACAD_XDICTIONARY
360
7ED4
102
}
102
{ACAD_REACTORS
330
63A2
102
}
330
63A2
100
AcDbVisualStyle
  2
FlatWithEdges
 70
     1
 71
     2
 72
     1
 73
     1
 90
        2
 40
-0.6
 41
30.0
 62
     5
 63
     7
 74
     1
 91
        0
 64
     7
 65
   257
 75
     1
175
     1
 42
1.0
 92
        0
 66
   257
 43
1.0
 76
     1
 77
     6
 78
     2
 67
     7
 79
     5
170
     0
171
     0
290
     0
174
     0
 93
       13
 44
0.0
173
     0
291
     1
 45
0.0
1001
ACAD
1000
AcDbSavedByObjectVersion
1070
     0
  0
VISUALSTYLE
  5
63A5
102
{ACAD_XDICTIONARY
360
7ED6
102
}
102
{ACAD_REACTORS
330
63A2
102
}
330
63A2
100
AcDbVisualStyle
  2
Gouraud
 70
     2
 71
     2
 72
     2
 73
     1
 90
        2
 40
-0.6
 41
30.0
 62
     5
 63
     7
 74
     0
 91
        0
 64
     7
 65
   257
 75
     1
175
     1
 42
1.0
 92
        0
 66
     7
 43
1.0
 76
     1
 77
     6
 78
     2
 67
     7
 79
     5
170
     0
171
     0
290
     0
174
     0
 93
       13
 44
0.0
173
     0
291
     1
 45
0.0
1001
ACAD
1000
AcDbSavedByObjectVersion
1070
     0
  0
VISUALSTYLE
  5
63A6
102
{ACAD_XDICTIONARY
360
7ED8
102
}
102
{ACAD_REACTORS
330
63A2
102
}
330
63A2
100
AcDbVisualStyle
  2
GouraudWithEdges
 70
     3
 71
     2
 72
     2
 73
     1
 90
        2
 40
-0.6
 41
30.0
 62
     5
 63
     7
 74
     1
 91
        0
 64
     7
 65
   257
 75
     1
175
     1
 42
1.0
 92
        0
 66
   257
 43
1.0
 76
     1
 77
     6
 78
     2
 67
     7
 79
     5
170
     0
171
     0
290
     0
174
     0
 93
       13
 44
0.0
173
     0
291
     1
 45
0.0
1001
ACAD
1000
AcDbSavedByObjectVersion
1070
     0
  0
VISUALSTYLE
  5
63AA
102
{ACAD_XDICTIONARY
360
7EE0
102
}
102
{ACAD_REACTORS
330
63A2
102
}
330
63A2
100
AcDbVisualStyle
  2
Hidden
 70
     6
 71
     1
 72
     2
 73
     2
 90
        0
 40
-0.6
 41
-30.0
 62
     5
 63
     7
 74
     2
 91
        2
 64
     7
 65
   257
 75
     2
175
     1
 42
40.0
 92
        0
 66
   257
 43
1.0
 76
     1
 77
     6
 78
     2
 67
     7
 79
     3
170
     0
171
     0
290
     0
174
     0
 93
        1
 44
0.0
173
     0
291
     0
 45
0.0
1001
ACAD
1000
AcDbSavedByObjectVersion
1070
     0
  0
VISUALSTYLE
  5
63B8
102
{ACAD_XDICTIONARY
360
7EFC
102
}
102
{ACAD_REACTORS
330
63A2
102
}
330
63A2
100
AcDbVisualStyle
  2
JitterOff
 70
    20
 71
     2
 72
     2
 73
     0
 90
        0
 40
-0.6
 41
-30.0
 62
     5
 63
     7
 74
     1
 91
        4
 64
     7
 65
   257
 75
     1
175
     1
 42
1.0
 92
       10
 66
     7
 43
1.0
 76
     1
 77
     6
 78
     2
 67
     7
 79
     5
170
     0
171
     0
290
     0
174
     0
 93
        1
 44
0.0
173
     0
291
     1
 45
0.0
1001
ACAD
1000
AcDbSavedByObjectVersion
1070
     0
  0
VISUALSTYLE
  5
63B0
102
{ACAD_XDICTIONARY
360
7EEC
102
}
102
{ACAD_REACTORS
330
63A2
102
}
330
63A2
100
AcDbVisualStyle
  2
Linepattern
 70
    14
 71
     2
 72
     2
 73
     0
 90
        0
 40
-0.6
 41
-30.0
 62
     5
 63
     7
 74
     1
 91
        4
 64
     7
 65
   257
 75
     7
175
     7
 42
1.0
 92
        8
 66
     7
 43
1.0
 76
     1
 77
     6
 78
     2
 67
     7
 79
     5
170
     0
171
     0
290
     0
174
     0
 93
        1
 44
0.0
173
     0
291
     1
 45
0.0
1001
ACAD
1000
AcDbSavedByObjectVersion
1070
     0
  0
VISUALSTYLE
  5
63B9
102
{ACAD_XDICTIONARY
360
7EFE
102
}
102
{ACAD_REACTORS
330
63A2
102
}
330
63A2
100
AcDbVisualStyle
  2
OverhangOff
 70
    21
 71
     2
 72
     2
 73
     0
 90
        0
 40
-0.6
 41
-30.0
 62
     5
 63
     7
 74
     1
 91
        4
 64
     7
 65
   257
 75
     1
175
     1
 42
1.0
 92
        9
 66
     7
 43
1.0
 76
     1
 77
     6
 78
     2
 67
     7
 79
     5
170
     0
171
     0
290
     0
174
     0
 93
        1
 44
0.0
173
     0
291
     1
 45
0.0
1001
ACAD
1000
AcDbSavedByObjectVersion
1070
     0
  0
VISUALSTYLE
  5
63AC
102
{ACAD_XDICTIONARY
360
7EE4
102
}
102
{ACAD_REACTORS
330
63A2
102
}
330
63A2
100
AcDbVisualStyle
  2
Realistic
 70
     8
 71
     2
 72
     2
 73
     0
 90
        2
 40
-0.6
 41
30.0
 62
     5
 63
     7
 74
     0
 91
        0
 64
     7
 65
   257
 75
     1
175
     1
 42
1.0
 92
        8
 66
   257
 43
1.0
 76
     1
 77
     6
 78
     2
 67
     7
 79
     3
170
     0
171
     0
290
     0
174
     0
 93
       13
 44
0.0
173
     0
291
     0
 45
0.0
1001
ACAD
1000
AcDbSavedByObjectVersion
1070
     0
  0
VISUALSTYLE
  5
63B7
102
{ACAD_XDICTIONARY
360
7EFA
102
}
102
{ACAD_REACTORS
330
63A2
102
}
330
63A2
100
AcDbVisualStyle
  2
Shaded
 70
    27
 71
     2
 72
     2
 73
     1
 90
        2
 40
-0.6
 41
30.0
 62
     5
 63
     7
 74
     0
 91
        4
 64
     7
 65
   257
 75
     1
175
     1
 42
1.0
 92
        8
 66
   257
 43
1.0
 76
     1
 77
     6
 78
     2
 67
     8
 79
     3
170
     0
171
     0
290
     0
174
     0
 93
        5
 44
0.0
173
     0
291
     0
 45
0.0
1001
ACAD
1000
AcDbSavedByObjectVersion
1070
     0
  0
VISUALSTYLE
  5
63B6
102
{ACAD_XDICTIONARY
360
7EF8
102
}
102
{ACAD_REACTORS
330
63A2
102
}
330
63A2
100
AcDbVisualStyle
  2
Shaded with edges
 70
    26
 71
     2
 72
     2
 73
     1
 90
        2
 40
-0.6
 41
30.0
 62
     5
 63
     7
 74
     1
 91
       10
 64
     7
 65
   257
 75
     2
175
     1
 42
1.0
 92
        8
 66
   257
 43
1.0
 76
     1
 77
     6
 78
     2
 67
     7
 79
     3
170
     0
171
     0
290
     0
174
     0
 93
        5
 44
0.0
173
     0
291
     0
 45
0.0
1001
ACAD
1000
AcDbSavedByObjectVersion
1070
     0
  0
VISUALSTYLE
  5
63B3
102
{ACAD_XDICTIONARY
360
7EF2
102
}
102
{ACAD_REACTORS
330
63A2
102
}
330
63A2
100
AcDbVisualStyle
  2
Shades of Gray
 70
    23
 71
     2
 72
     2
 73
     3
 90
        0
 40
-0.6
 41
-30.0
 62
     5
 63
     7
 74
     2
 91
        2
 64
     7
 65
     7
 75
     1
175
     1
 42
40.0
 92
        8
 66
     7
 43
1.0
 76
     1
 77
     6
 78
     2
 67
     7
 79
     3
170
     0
171
     0
290
     0
174
     0
 93
        1
 44
0.0
173
     0
291
     0
 45
0.0
1001
ACAD
1000
AcDbSavedByObjectVersion
1070
     0
  0
VISUALSTYLE
  5
63B4
102
{ACAD_XDICTIONARY
360
7EF4
102
}
102
{ACAD_REACTORS
330
63A2
102
}
330
63A2
100
AcDbVisualStyle
  2
Sketchy
 70
    24
 71
     1
 72
     2
 73
     2
 90
        0
 40
-0.6
 41
-30.0
 62
     5
 63
     7
 74
     2
 91
        2
 64
     7
 65
     7
 75
     1
175
     1
 42
40.0
 92
       11
 66
     7
 43
1.0
 76
     1
 77
     6
 78
     2
 67
     7
 79
     6
170
     0
171
     0
290
     0
174
     0
 93
        1
 44
0.0
173
     0
291
     0
 45
0.0
1001
ACAD
1000
AcDbSavedByObjectVersion
1070
     0
  0
VISUALSTYLE
  5
63AF
102
{ACAD_XDICTIONARY
360
7EEA
102
}
102
{ACAD_REACTORS
330
63A2
102
}
330
63A2
100
AcDbVisualStyle
  2
Thicken
 70
    13
 71
     2
 72
     2
 73
     0
 90
        0
 40
-0.6
 41
-30.0
 62
     5
 63
     7
 74
     1
 91
        4
 64
     7
 65
   257
 75
     1
175
     1
 42
1.0
 92
       12
 66
     7
 43
1.0
 76
     1
 77
     6
 78
     2
 67
     7
 79
     5
170
     0
171
     0
290
     0
174
     0
 93
        1
 44
0.0
173
     0
291
     1
 45
0.0
1001
ACAD
1000
AcDbSavedByObjectVersion
1070
     0
  0
VISUALSTYLE
  5
63A9
102
{ACAD_XDICTIONARY
360
7EDE
102
}
102
{ACAD_REACTORS
330
63A2
102
}
330
63A2
100
AcDbVisualStyle
  2
Wireframe
 70
     5
 71
     0
 72
     2
 73
     0
 90
        0
 40
-0.6
 41
-30.0
 62
     5
 63
     7
 74
     1
 91
        4
 64
     7
 65
   257
 75
     1
175
     1
 42
1.0
 92
        0
 66
   257
 43
1.0
 76
     1
 77
     6
 78
     2
 67
     7
 79
     3
170
     0
171
     0
290
     0
174
     0
 93
        1
 44
0.0
173
     0
291
     0
 45
0.0
1001
ACAD
1000
AcDbSavedByObjectVersion
1070
     0
  0
VISUALSTYLE
  5
63B5
102
{ACAD_XDICTIONARY
360
7EF6
102
}
102
{ACAD_REACTORS
330
63A2
102
}
330
63A2
100
AcDbVisualStyle
  2
X-Ray
 70
    25
 71
     2
 72
     2
 73
     1
 90
        1
 40
0.5
 41
-30.0
 62
     5
 63
     7
 74
     1
 91
        0
 64
     7
 65
   257
 75
     1
175
     1
 42
1.0
 92
        8
 66
     7
 43
1.0
 76
     1
 77
     6
 78
     2
 67
     7
 79
     3
170
     0
171
     0
290
     0
174
     0
 93
       13
 44
0.0
173
     0
291
     0
 45
0.0
1001
ACAD
1000
AcDbSavedByObjectVersion
1070
     0
  0
DICTIONARYVAR
  5
679E
102
{ACAD_REACTORS
330
5AA
102
}
330
5AA
100
DictionaryVariables
280
     0
  1
1:1
  0
DICTIONARYVAR
  5
679D
102
{ACAD_REACTORS
330
5AA
102
}
330
5AA
100
DictionaryVariables
280
     0
  1
STANDARD
  0
DICTIONARYVAR
  5
679C
102
{ACAD_REACTORS
330
5AA
102
}
330
5AA
100
DictionaryVariables
280
     0
  1
STANDARD
  0
DICTIONARYVAR
  5
5AB
102
{ACAD_REACTORS
330
5AA
102
}
330
5AA
100
DictionaryVariables
280
     0
  1
1
  0
DICTIONARYVAR
  5
67A0
102
{ACAD_REACTORS
330
5AA
102
}
330
5AA
100
DictionaryVariables
280
     0
  1
0
  0
DICTIONARYVAR
  5
679F
102
{ACAD_REACTORS
330
5AA
102
}
330
5AA
100
DictionaryVariables
280
     0
  1
127
  0
DICTIONARYVAR
  5
7E74
102
{ACAD_REACTORS
330
5AA
102
}
330
5AA
100
DictionaryVariables
280
     0
  1
2
  0
DICTIONARY
  5
7EC3
330
22
100
AcDbDictionary
280
     1
281
     1
  3
ACAD_XREC_ROUNDTRIP
360
7EC4
  0
DICTIONARY
  5
7EC1
330
1E
100
AcDbDictionary
280
     1
281
     1
  3
ACAD_XREC_ROUNDTRIP
360
7EC2
  0
DICTIONARY
  5
7EC5
330
26
100
AcDbDictionary
280
     1
281
     1
  3
ACAD_XREC_ROUNDTRIP
360
7EC6
  0
DICTIONARY
  5
6393
330
6392
100
AcDbDictionary
280
     1
281
     1
  3
ACAD_XREC_ROUNDTRIP
360
7ED0
  3
BUMPTILE
360
6395
  3
DIFFUSETILE
360
6394
  3
OPACITYTILE
360
6398
  3
REFLECTIONTILE
360
6397
  3
REFRACTIONTILE
360
6399
  3
SPECULARTILE
360
6396
  0
DICTIONARY
  5
638B
330
638A
100
AcDbDictionary
280
     1
281
     1
  3
ACAD_XREC_ROUNDTRIP
360
7ECF
  3
BUMPTILE
360
638D
  3
DIFFUSETILE
360
638C
  3
OPACITYTILE
360
6390
  3
REFLECTIONTILE
360
638F
  3
REFRACTIONTILE
360
6391
  3
SPECULARTILE
360
638E
  0
DICTIONARY
  5
639B
330
639A
100
AcDbDictionary
280
     1
281
     1
  3
ACAD_XREC_ROUNDTRIP
360
7ED1
  3
BUMPTILE
360
639D
  3
DIFFUSETILE
360
639C
  3
OPACITYTILE
360
63A0
  3
REFLECTIONTILE
360
639F
  3
REFRACTIONTILE
360
63A1
  3
SPECULARTILE
360
639E
  0
DICTIONARY
  5
7EBD
330
63D1
100
AcDbDictionary
280
     1
281
     1
  3
ACAD_XREC_ROUNDTRIP
360
7EBE
  0
DICTIONARY
  5
674F
330
63BD
100
AcDbDictionary
280
     1
281
     1
  3
ACAD_ROUNDTRIP_2008_TABLESTYLE_CELLSTYLEMAP
360
7EBC
  3
ACAD_XREC_ROUNDTRIP
360
7F02
  0
DICTIONARY
  5
7EDC
330
63A8
100
AcDbDictionary
280
     1
281
     1
  3
ACAD_XREC_ROUNDTRIP
360
7EDD
  0
DICTIONARY
  5
7EDA
330
63A7
100
AcDbDictionary
280
     1
281
     1
  3
ACAD_XREC_ROUNDTRIP
360
7EDB
  0
DICTIONARY
  5
7EE8
330
63AE
100
AcDbDictionary
280
     1
281
     1
  3
ACAD_XREC_ROUNDTRIP
360
7EE9
  0
DICTIONARY
  5
7EF0
330
63B2
100
AcDbDictionary
280
     1
281
     1
  3
ACAD_XREC_ROUNDTRIP
360
7EF1
  0
DICTIONARY
  5
7EE2
330
63AB
100
AcDbDictionary
280
     1
281
     1
  3
ACAD_XREC_ROUNDTRIP
360
7EE3
  0
DICTIONARY
  5
7EE6
330
63AD
100
AcDbDictionary
280
     1
281
     1
  3
ACAD_XREC_ROUNDTRIP
360
7EE7
  0
DICTIONARY
  5
7F00
330
63BA
100
AcDbDictionary
280
     1
281
     1
  3
ACAD_XREC_ROUNDTRIP
360
7F01
  0
DICTIONARY
  5
7EEE
330
63B1
100
AcDbDictionary
280
     1
281
     1
  3
ACAD_XREC_ROUNDTRIP
360
7EEF
  0
DICTIONARY
  5
7ED2
330
63A3
100
AcDbDictionary
280
     1
281
     1
  3
ACAD_XREC_ROUNDTRIP
360
7ED3
  0
DICTIONARY
  5
7ED4
330
63A4
100
AcDbDictionary
280
     1
281
     1
  3
ACAD_XREC_ROUNDTRIP
360
7ED5
  0
DICTIONARY
  5
7ED6
330
63A5
100
AcDbDictionary
280
     1
281
     1
  3
ACAD_XREC_ROUNDTRIP
360
7ED7
  0
DICTIONARY
  5
7ED8
330
63A6
100
AcDbDictionary
280
     1
281
     1
  3
ACAD_XREC_ROUNDTRIP
360
7ED9
  0
DICTIONARY
  5
7EE0
330
63AA
100
AcDbDictionary
280
     1
281
     1
  3
ACAD_XREC_ROUNDTRIP
360
7EE1
  0
DICTIONARY
  5
7EFC
330
63B8
100
AcDbDictionary
280
     1
281
     1
  3
ACAD_XREC_ROUNDTRIP
360
7EFD
  0
DICTIONARY
  5
7EEC
330
63B0
100
AcDbDictionary
280
     1
281
     1
  3
ACAD_XREC_ROUNDTRIP
360
7EED
  0
DICTIONARY
  5
7EFE
330
63B9
100
AcDbDictionary
280
     1
281
     1
  3
ACAD_XREC_ROUNDTRIP
360
7EFF
  0
DICTIONARY
  5
7EE4
330
63AC
100
AcDbDictionary
280
     1
281
     1
  3
ACAD_XREC_ROUNDTRIP
360
7EE5
  0
DICTIONARY
  5
7EFA
330
63B7
100
AcDbDictionary
280
     1
281
     1
  3
ACAD_XREC_ROUNDTRIP
360
7EFB
  0
DICTIONARY
  5
7EF8
330
63B6
100
AcDbDictionary
280
     1
281
     1
  3
ACAD_XREC_ROUNDTRIP
360
7EF9
  0
DICTIONARY
  5
7EF2
330
63B3
100
AcDbDictionary
280
     1
281
     1
  3
ACAD_XREC_ROUNDTRIP
360
7EF3
  0
DICTIONARY
  5
7EF4
330
63B4
100
AcDbDictionary
280
     1
281
     1
  3
ACAD_XREC_ROUNDTRIP
360
7EF5
  0
DICTIONARY
  5
7EEA
330
63AF
100
AcDbDictionary
280
     1
281
     1
  3
ACAD_XREC_ROUNDTRIP
360
7EEB
  0
DICTIONARY
  5
7EDE
330
63A9
100
AcDbDictionary
280
     1
281
     1
  3
ACAD_XREC_ROUNDTRIP
360
7EDF
  0
DICTIONARY
  5
7EF6
330
63B5
100
AcDbDictionary
280
     1
281
     1
  3
ACAD_XREC_ROUNDTRIP
360
7EF7
  0
XRECORD
  5
7EC4
102
{ACAD_REACTORS
330
7EC3
102
}
330
7EC3
100
AcDbXrecord
280
     1
102
SHADEPLOT
 70
     0
102
SHADEPLOTRESLEVEL
 70
     2
102
SHADEPLOTCUSTOMDPI
 70
   300
  0
XRECORD
  5
7EC2
102
{ACAD_REACTORS
330
7EC1
102
}
330
7EC1
100
AcDbXrecord
280
     1
102
SHADEPLOT
 70
     0
102
SHADEPLOTRESLEVEL
 70
     2
102
SHADEPLOTCUSTOMDPI
 70
   300
  0
XRECORD
  5
7EC6
102
{ACAD_REACTORS
330
7EC5
102
}
330
7EC5
100
AcDbXrecord
280
     1
102
SHADEPLOT
 70
     0
102
SHADEPLOTRESLEVEL
 70
     2
102
SHADEPLOTCUSTOMDPI
 70
   300
  0
XRECORD
  5
7ED0
102
{ACAD_REACTORS
330
6393
102
}
330
6393
100
AcDbXrecord
280
     1
102
MATERIAL
148
0.0
149
0.0
149
0.0
 93
        0
 94
      127
282
     0
 72
     0
 77
     0
171
     0
175
     0
179
     0
273
     0
  0
XRECORD
  5
6395
102
{ACAD_REACTORS
330
6393
102
}
330
6393
100
AcDbXrecord
280
     1
270
     1
271
     1
  0
XRECORD
  5
6394
102
{ACAD_REACTORS
330
6393
102
}
330
6393
100
AcDbXrecord
280
     1
270
     1
271
     1
  0
XRECORD
  5
6398
102
{ACAD_REACTORS
330
6393
102
}
330
6393
100
AcDbXrecord
280
     1
270
     1
271
     1
  0
XRECORD
  5
6397
102
{ACAD_REACTORS
330
6393
102
}
330
6393
100
AcDbXrecord
280
     1
270
     1
271
     1
  0
XRECORD
  5
6399
102
{ACAD_REACTORS
330
6393
102
}
330
6393
100
AcDbXrecord
280
     1
270
     1
271
     1
  0
XRECORD
  5
6396
102
{ACAD_REACTORS
330
6393
102
}
330
6393
100
AcDbXrecord
280
     1
270
     1
271
     1
  0
XRECORD
  5
7ECF
102
{ACAD_REACTORS
330
638B
102
}
330
638B
100
AcDbXrecord
280
     1
102
MATERIAL
148
0.0
149
0.0
149
0.0
 93
        0
 94
      127
282
     0
 72
     0
 77
     0
171
     0
175
     0
179
     0
273
     0
  0
XRECORD
  5
638D
102
{ACAD_REACTORS
330
638B
102
}
330
638B
100
AcDbXrecord
280
     1
270
     1
271
     1
  0
XRECORD
  5
638C
102
{ACAD_REACTORS
330
638B
102
}
330
638B
100
AcDbXrecord
280
     1
270
     1
271
     1
  0
XRECORD
  5
6390
102
{ACAD_REACTORS
330
638B
102
}
330
638B
100
AcDbXrecord
280
     1
270
     1
271
     1
  0
XRECORD
  5
638F
102
{ACAD_REACTORS
330
638B
102
}
330
638B
100
AcDbXrecord
280
     1
270
     1
271
     1
  0
XRECORD
  5
6391
102
{ACAD_REACTORS
330
638B
102
}
330
638B
100
AcDbXrecord
280
     1
270
     1
271
     1
  0
XRECORD
  5
638E
102
{ACAD_REACTORS
330
638B
102
}
330
638B
100
AcDbXrecord
280
     1
270
     1
271
     1
  0
XRECORD
  5
7ED1
102
{ACAD_REACTORS
330
639B
102
}
330
639B
100
AcDbXrecord
280
     1
102
MATERIAL
148
0.0
149
0.0
149
0.0
 93
        0
 94
      127
282
     0
 72
     0
 77
     0
171
     0
175
     0
179
     0
273
     0
  0
XRECORD
  5
639D
102
{ACAD_REACTORS
330
639B
102
}
330
639B
100
AcDbXrecord
280
     1
270
     1
271
     1
  0
XRECORD
  5
639C
102
{ACAD_REACTORS
330
639B
102
}
330
639B
100
AcDbXrecord
280
     1
270
     1
271
     1
  0
XRECORD
  5
63A0
102
{ACAD_REACTORS
330
639B
102
}
330
639B
100
AcDbXrecord
280
     1
270
     1
271
     1
  0
XRECORD
  5
639F
102
{ACAD_REACTORS
330
639B
102
}
330
639B
100
AcDbXrecord
280
     1
270
     1
271
     1
  0
XRECORD
  5
63A1
102
{ACAD_REACTORS
330
639B
102
}
330
639B
100
AcDbXrecord
280
     1
270
     1
271
     1
  0
XRECORD
  5
639E
102
{ACAD_REACTORS
330
639B
102
}
330
639B
100
AcDbXrecord
280
     1
270
     1
271
     1
  0
XRECORD
  5
7EBE
102
{ACAD_REACTORS
330
7EBD
102
}
330
7EBD
100
AcDbXrecord
280
     1
102
ACAD_ROUNDTRIP_2012_MLEADER_STYLE
298
     1
  0
CELLSTYLEMAP
  5
7EBC
102
{ACAD_REACTORS
330
674F
102
}
330
674F
100
AcDbCellStyleMap
 90
        3
300
CELLSTYLE
  1
TABLEFORMAT_BEGIN
 90
        5
170
     1
 91
        0
 92
    32768
 62
   257
 93
        1
300
CONTENTFORMAT
  1
CONTENTFORMAT_BEGIN
 90
        0
 91
        0
 92
      512
 93
        0
300

 40
0.0
140
1.0
 94
        5
 62
     0
340
11
144
6.0
309
CONTENTFORMAT_END
171
     1
301
MARGIN
  1
CELLMARGIN_BEGIN
 40
1.5
 40
1.5
 40
1.5
 40
1.5
 40
4.5
 40
4.5
309
CELLMARGIN_END
 94
        6
 95
        1
302
GRIDFORMAT
  1
GRIDFORMAT_BEGIN
 90
        0
 91
        1
 62
     0
 92
       -2
340
0
 93
        0
 40
1.125
309
GRIDFORMAT_END
 95
        2
302
GRIDFORMAT
  1
GRIDFORMAT_BEGIN
 90
        0
 91
        1
 62
     0
 92
       -2
340
0
 93
        0
 40
1.125
309
GRIDFORMAT_END
 95
        4
302
GRIDFORMAT
  1
GRIDFORMAT_BEGIN
 90
        0
 91
        1
 62
     0
 92
       -2
340
0
 93
        0
 40
1.125
309
GRIDFORMAT_END
 95
        8
302
GRIDFORMAT
  1
GRIDFORMAT_BEGIN
 90
        0
 91
        1
 62
     0
 92
       -2
340
0
 93
        0
 40
1.125
309
GRIDFORMAT_END
 95
       16
302
GRIDFORMAT
  1
GRIDFORMAT_BEGIN
 90
        0
 91
        1
 62
     0
 92
       -2
340
0
 93
        0
 40
1.125
309
GRIDFORMAT_END
 95
       32
302
GRIDFORMAT
  1
GRIDFORMAT_BEGIN
 90
        0
 91
        1
 62
     0
 92
       -2
340
0
 93
        0
 40
1.125
309
GRIDFORMAT_END
309
TABLEFORMAT_END
  1
CELLSTYLE_BEGIN
 90
        1
 91
        1
300
_TITLE
309
CELLSTYLE_END
300
CELLSTYLE
  1
TABLEFORMAT_BEGIN
 90
        5
170
     1
 91
        0
 92
        0
 62
   257
 93
        1
300
CONTENTFORMAT
  1
CONTENTFORMAT_BEGIN
 90
        0
 91
        0
 92
      512
 93
        0
300

 40
0.0
140
1.0
 94
        5
 62
     0
340
11
144
4.5
309
CONTENTFORMAT_END
171
     1
301
MARGIN
  1
CELLMARGIN_BEGIN
 40
1.5
 40
1.5
 40
1.5
 40
1.5
 40
4.5
 40
4.5
309
CELLMARGIN_END
 94
        6
 95
        1
302
GRIDFORMAT
  1
GRIDFORMAT_BEGIN
 90
        0
 91
        1
 62
     0
 92
       -2
340
0
 93
        0
 40
1.125
309
GRIDFORMAT_END
 95
        2
302
GRIDFORMAT
  1
GRIDFORMAT_BEGIN
 90
        0
 91
        1
 62
     0
 92
       -2
340
0
 93
        0
 40
1.125
309
GRIDFORMAT_END
 95
        4
302
GRIDFORMAT
  1
GRIDFORMAT_BEGIN
 90
        0
 91
        1
 62
     0
 92
       -2
340
0
 93
        0
 40
1.125
309
GRIDFORMAT_END
 95
        8
302
GRIDFORMAT
  1
GRIDFORMAT_BEGIN
 90
        0
 91
        1
 62
     0
 92
       -2
340
0
 93
        0
 40
1.125
309
GRIDFORMAT_END
 95
       16
302
GRIDFORMAT
  1
GRIDFORMAT_BEGIN
 90
        0
 91
        1
 62
     0
 92
       -2
340
0
 93
        0
 40
1.125
309
GRIDFORMAT_END
 95
       32
302
GRIDFORMAT
  1
GRIDFORMAT_BEGIN
 90
        0
 91
        1
 62
     0
 92
       -2
340
0
 93
        0
 40
1.125
309
GRIDFORMAT_END
309
TABLEFORMAT_END
  1
CELLSTYLE_BEGIN
 90
        2
 91
        1
300
_HEADER
309
CELLSTYLE_END
300
CELLSTYLE
  1
TABLEFORMAT_BEGIN
 90
        5
170
     1
 91
        0
 92
        0
 62
   257
 93
        1
300
CONTENTFORMAT
  1
CONTENTFORMAT_BEGIN
 90
        0
 91
        0
 92
      512
 93
        0
300

 40
0.0
140
1.0
 94
        2
 62
     0
340
11
144
4.5
309
CONTENTFORMAT_END
171
     1
301
MARGIN
  1
CELLMARGIN_BEGIN
 40
1.5
 40
1.5
 40
1.5
 40
1.5
 40
4.5
 40
4.5
309
CELLMARGIN_END
 94
        6
 95
        1
302
GRIDFORMAT
  1
GRIDFORMAT_BEGIN
 90
        0
 91
        1
 62
     0
 92
       -2
340
0
 93
        0
 40
1.125
309
GRIDFORMAT_END
 95
        2
302
GRIDFORMAT
  1
GRIDFORMAT_BEGIN
 90
        0
 91
        1
 62
     0
 92
       -2
340
0
 93
        0
 40
1.125
309
GRIDFORMAT_END
 95
        4
302
GRIDFORMAT
  1
GRIDFORMAT_BEGIN
 90
        0
 91
        1
 62
     0
 92
       -2
340
0
 93
        0
 40
1.125
309
GRIDFORMAT_END
 95
        8
302
GRIDFORMAT
  1
GRIDFORMAT_BEGIN
 90
        0
 91
        1
 62
     0
 92
       -2
340
0
 93
        0
 40
1.125
309
GRIDFORMAT_END
 95
       16
302
GRIDFORMAT
  1
GRIDFORMAT_BEGIN
 90
        0
 91
        1
 62
     0
 92
       -2
340
0
 93
        0
 40
1.125
309
GRIDFORMAT_END
 95
       32
302
GRIDFORMAT
  1
GRIDFORMAT_BEGIN
 90
        0
 91
        1
 62
     0
 92
       -2
340
0
 93
        0
 40
1.125
309
GRIDFORMAT_END
309
TABLEFORMAT_END
  1
CELLSTYLE_BEGIN
 90
        3
 91
        2
300
_DATA
309
CELLSTYLE_END
  0
XRECORD
  5
7F02
102
{ACAD_REACTORS
330
674F
102
}
330
674F
100
AcDbXrecord
280
     1
102
ACAD_ROUNDTRIP_PRE2007_TABLESTYLE
 90
      512
 91
        0
  1

 92
      512
 93
        0
  2

 94
      512
 95
        0
  3

  0
XRECORD
  5
7EDD
102
{ACAD_REACTORS
330
7EDC
102
}
330
7EDC
100
AcDbXrecord
280
     1
102
RTVSPropertyOp0
 70
     1
102
RTVSPropertyOp1
 70
     1
102
RTVSPropertyOp2
 70
     1
102
RTVSPropertyOp3
 70
     1
102
RTVSPropertyOp4
 70
     1
102
RTVSPropertyOp5
 70
     1
102
RTVSPropertyOp6
 70
     1
102
RTVSPropertyOp7
 70
     1
102
RTVSPropertyOp8
 70
     1
102
RTVSPropertyOp9
 70
     1
102
RTVSPropertyOp10
 70
     1
102
RTVSPropertyOp11
 70
     1
102
RTVSPropertyOp12
 70
     1
102
RTVSPropertyOp13
 70
     1
102
RTVSPropertyOp14
 70
     1
102
RTVSPropertyOp15
 70
     1
102
RTVSPropertyOp16
 70
     1
102
RTVSPropertyOp17
 70
     1
102
RTVSPropertyOp18
 70
     1
102
RTVSPropertyOp19
 70
     1
102
RTVSPropertyOp20
 70
     1
102
RTVSPropertyOp21
 70
     1
102
RTVSPropertyOp22
 70
     1
102
RTVSPropertyOp23
 70
     1
102
RTVSPropertyOp24
 70
     1
102
RTVSPropertyOp25
 70
     1
102
RTVSPropertyOp26
 70
     1
102
RTVSPropertyOp27
 70
     1
102
RTVSPropertyOp28
 70
     1
102
RTVSPropertyOp29
 70
     1
102
RTVSPropertyOp30
 70
     1
102
RTVSPropertyOp31
 70
     1
102
RTVSPropertyOp32
 70
     1
  0
XRECORD
  5
7EDB
102
{ACAD_REACTORS
330
7EDA
102
}
330
7EDA
100
AcDbXrecord
280
     1
102
RTVSPropertyOp0
 70
     1
102
RTVSPropertyOp1
 70
     1
102
RTVSPropertyOp2
 70
     1
102
RTVSPropertyOp3
 70
     1
102
RTVSPropertyOp4
 70
     1
102
RTVSPropertyOp5
 70
     1
102
RTVSPropertyOp6
 70
     1
102
RTVSPropertyOp7
 70
     1
102
RTVSPropertyOp8
 70
     1
102
RTVSPropertyOp9
 70
     1
102
RTVSPropertyOp10
 70
     1
102
RTVSPropertyOp11
 70
     1
102
RTVSPropertyOp12
 70
     1
102
RTVSPropertyOp13
 70
     1
102
RTVSPropertyOp14
 70
     1
102
RTVSPropertyOp15
 70
     1
102
RTVSPropertyOp16
 70
     1
102
RTVSPropertyOp17
 70
     1
102
RTVSPropertyOp18
 70
     1
102
RTVSPropertyOp19
 70
     1
102
RTVSPropertyOp20
 70
     1
102
RTVSPropertyOp21
 70
     1
102
RTVSPropertyOp22
 70
     1
102
RTVSPropertyOp23
 70
     1
102
RTVSPropertyOp24
 70
     1
102
RTVSPropertyOp25
 70
     1
102
RTVSPropertyOp26
 70
     1
102
RTVSPropertyOp27
 70
     1
102
RTVSPropertyOp28
 70
     1
102
RTVSPropertyOp29
 70
     1
102
RTVSPropertyOp30
 70
     1
102
RTVSPropertyOp31
 70
     1
102
RTVSPropertyOp32
 70
     1
  0
XRECORD
  5
7EE9
102
{ACAD_REACTORS
330
7EE8
102
}
330
7EE8
100
AcDbXrecord
280
     1
102
RTVSPropertyOp0
 70
     1
102
RTVSPropertyOp1
 70
     1
102
RTVSPropertyOp2
 70
     1
102
RTVSPropertyOp3
 70
     1
102
RTVSPropertyOp4
 70
     1
102
RTVSPropertyOp5
 70
     1
102
RTVSPropertyOp6
 70
     1
102
RTVSPropertyOp7
 70
     1
102
RTVSPropertyOp8
 70
     1
102
RTVSPropertyOp9
 70
     1
102
RTVSPropertyOp10
 70
     1
102
RTVSPropertyOp11
 70
     1
102
RTVSPropertyOp12
 70
     1
102
RTVSPropertyOp13
 70
     1
102
RTVSPropertyOp14
 70
     1
102
RTVSPropertyOp15
 70
     1
102
RTVSPropertyOp16
 70
     1
102
RTVSPropertyOp17
 70
     1
102
RTVSPropertyOp18
 70
     1
102
RTVSPropertyOp19
 70
     1
102
RTVSPropertyOp20
 70
     1
102
RTVSPropertyOp21
 70
     1
102
RTVSPropertyOp22
 70
     1
102
RTVSPropertyOp23
 70
     1
102
RTVSPropertyOp24
 70
     1
102
RTVSPropertyOp25
 70
     1
102
RTVSPropertyOp26
 70
     1
102
RTVSPropertyOp27
 70
     1
102
RTVSPropertyOp28
 70
     1
102
RTVSPropertyOp29
 70
     1
102
RTVSPropertyOp30
 70
     1
102
RTVSPropertyOp31
 70
     1
102
RTVSPropertyOp32
 70
     1
  0
XRECORD
  5
7EF1
102
{ACAD_REACTORS
330
7EF0
102
}
330
7EF0
100
AcDbXrecord
280
     1
102
RTVSPropertyOp0
 70
     1
102
RTVSPropertyOp1
 70
     1
102
RTVSPropertyOp2
 70
     1
102
RTVSPropertyOp3
 70
     1
102
RTVSPropertyOp4
 70
     1
102
RTVSPropertyOp5
 70
     1
102
RTVSPropertyOp6
 70
     1
102
RTVSPropertyOp7
 70
     1
102
RTVSPropertyOp8
 70
     1
102
RTVSPropertyOp9
 70
     1
102
RTVSPropertyOp10
 70
     1
102
RTVSPropertyOp11
 70
     1
102
RTVSPropertyOp12
 70
     1
102
RTVSPropertyOp13
 70
     1
102
RTVSPropertyOp14
 70
     1
102
RTVSPropertyOp15
 70
     1
102
RTVSPropertyOp16
 70
     1
102
RTVSPropertyOp17
 70
     1
102
RTVSPropertyOp18
 70
     1
102
RTVSPropertyOp19
 70
     1
102
RTVSPropertyOp20
 70
     1
102
RTVSPropertyOp21
 70
     1
102
RTVSPropertyOp22
 70
     1
102
RTVSPropertyOp23
 70
     1
102
RTVSPropertyOp24
 70
     1
102
RTVSPropertyOp25
 70
     1
102
RTVSPropertyOp26
 70
     1
102
RTVSPropertyOp27
 70
     1
102
RTVSPropertyOp28
 70
     1
102
RTVSPropertyOp29
 70
     1
102
RTVSPropertyOp30
 70
     1
102
RTVSPropertyOp31
 70
     1
102
RTVSPropertyOp32
 70
     1
  0
XRECORD
  5
7EE3
102
{ACAD_REACTORS
330
7EE2
102
}
330
7EE2
100
AcDbXrecord
280
     1
102
RTVSPropertyOp0
 70
     1
102
RTVSPropertyOp1
 70
     1
102
RTVSPropertyOp2
 70
     1
102
RTVSPropertyOp3
 70
     1
102
RTVSPropertyOp4
 70
     1
102
RTVSPropertyOp5
 70
     1
102
RTVSPropertyOp6
 70
     1
102
RTVSPropertyOp7
 70
     1
102
RTVSPropertyOp8
 70
     1
102
RTVSPropertyOp9
 70
     1
102
RTVSPropertyOp10
 70
     1
102
RTVSPropertyOp11
 70
     1
102
RTVSPropertyOp12
 70
     1
102
RTVSPropertyOp13
 70
     1
102
RTVSPropertyOp14
 70
     1
102
RTVSPropertyOp15
 70
     1
102
RTVSPropertyOp16
 70
     1
102
RTVSPropertyOp17
 70
     1
102
RTVSPropertyOp18
 70
     1
102
RTVSPropertyOp19
 70
     1
102
RTVSPropertyOp20
 70
     1
102
RTVSPropertyOp21
 70
     1
102
RTVSPropertyOp22
 70
     1
102
RTVSPropertyOp23
 70
     1
102
RTVSPropertyOp24
 70
     1
102
RTVSPropertyOp25
 70
     1
102
RTVSPropertyOp26
 70
     1
102
RTVSPropertyOp27
 70
     1
102
RTVSPropertyOp28
 70
     1
102
RTVSPropertyOp29
 70
     1
102
RTVSPropertyOp30
 70
     1
102
RTVSPropertyOp31
 70
     1
102
RTVSPropertyOp32
 70
     1
  0
XRECORD
  5
7EE7
102
{ACAD_REACTORS
330
7EE6
102
}
330
7EE6
100
AcDbXrecord
280
     1
102
RTVSPropertyOp0
 70
     1
102
RTVSPropertyOp1
 70
     1
102
RTVSPropertyOp2
 70
     1
102
RTVSPropertyOp3
 70
     1
102
RTVSPropertyOp4
 70
     1
102
RTVSPropertyOp5
 70
     1
102
RTVSPropertyOp6
 70
     1
102
RTVSPropertyOp7
 70
     1
102
RTVSPropertyOp8
 70
     1
102
RTVSPropertyOp9
 70
     1
102
RTVSPropertyOp10
 70
     1
102
RTVSPropertyOp11
 70
     1
102
RTVSPropertyOp12
 70
     1
102
RTVSPropertyOp13
 70
     1
102
RTVSPropertyOp14
 70
     1
102
RTVSPropertyOp15
 70
     1
102
RTVSPropertyOp16
 70
     1
102
RTVSPropertyOp17
 70
     1
102
RTVSPropertyOp18
 70
     1
102
RTVSPropertyOp19
 70
     1
102
RTVSPropertyOp20
 70
     1
102
RTVSPropertyOp21
 70
     1
102
RTVSPropertyOp22
 70
     1
102
RTVSPropertyOp23
 70
     1
102
RTVSPropertyOp24
 70
     1
102
RTVSPropertyOp25
 70
     1
102
RTVSPropertyOp26
 70
     1
102
RTVSPropertyOp27
 70
     1
102
RTVSPropertyOp28
 70
     1
102
RTVSPropertyOp29
 70
     1
102
RTVSPropertyOp30
 70
     1
102
RTVSPropertyOp31
 70
     1
102
RTVSPropertyOp32
 70
     1
  0
XRECORD
  5
7F01
102
{ACAD_REACTORS
330
7F00
102
}
330
7F00
100
AcDbXrecord
280
     1
102
RTVSPropertyOp0
 70
     0
102
RTVSPropertyOp1
 70
     0
102
RTVSPropertyOp2
 70
     0
102
RTVSPropertyOp3
 70
     0
102
RTVSPropertyOp4
 70
     0
102
RTVSPropertyOp5
 70
     0
102
RTVSPropertyOp6
 70
     0
102
RTVSPropertyOp7
 70
     0
102
RTVSPropertyOp8
 70
     0
102
RTVSPropertyOp9
 70
     0
102
RTVSPropertyOp10
 70
     0
102
RTVSPropertyOp11
 70
     0
102
RTVSPropertyOp12
 70
     0
102
RTVSPropertyOp13
 70
     0
102
RTVSPropertyOp14
 70
     2
102
RTVSPropertyOp15
 70
     0
102
RTVSPropertyOp16
 70
     0
102
RTVSPropertyOp17
 70
     0
102
RTVSPropertyOp18
 70
     0
102
RTVSPropertyOp19
 70
     0
102
RTVSPropertyOp20
 70
     0
102
RTVSPropertyOp21
 70
     0
102
RTVSPropertyOp22
 70
     0
102
RTVSPropertyOp23
 70
     0
102
RTVSPropertyOp24
 70
     0
102
RTVSPropertyOp25
 70
     0
102
RTVSPropertyOp26
 70
     0
102
RTVSPropertyOp27
 70
     0
102
RTVSPropertyOp28
 70
     0
102
RTVSPropertyOp29
 70
     0
102
RTVSPropertyOp30
 70
     0
102
RTVSPropertyOp31
 70
     0
102
RTVSPropertyOp32
 70
     0
  0
XRECORD
  5
7EEF
102
{ACAD_REACTORS
330
7EEE
102
}
330
7EEE
100
AcDbXrecord
280
     1
102
RTVSPropertyOp0
 70
     1
102
RTVSPropertyOp1
 70
     1
102
RTVSPropertyOp2
 70
     1
102
RTVSPropertyOp3
 70
     1
102
RTVSPropertyOp4
 70
     1
102
RTVSPropertyOp5
 70
     1
102
RTVSPropertyOp6
 70
     1
102
RTVSPropertyOp7
 70
     1
102
RTVSPropertyOp8
 70
     1
102
RTVSPropertyOp9
 70
     1
102
RTVSPropertyOp10
 70
     1
102
RTVSPropertyOp11
 70
     1
102
RTVSPropertyOp12
 70
     1
102
RTVSPropertyOp13
 70
     1
102
RTVSPropertyOp14
 70
     1
102
RTVSPropertyOp15
 70
     1
102
RTVSPropertyOp16
 70
     1
102
RTVSPropertyOp17
 70
     1
102
RTVSPropertyOp18
 70
     1
102
RTVSPropertyOp19
 70
     1
102
RTVSPropertyOp20
 70
     1
102
RTVSPropertyOp21
 70
     1
102
RTVSPropertyOp22
 70
     1
102
RTVSPropertyOp23
 70
     1
102
RTVSPropertyOp24
 70
     1
102
RTVSPropertyOp25
 70
     1
102
RTVSPropertyOp26
 70
     1
102
RTVSPropertyOp27
 70
     1
102
RTVSPropertyOp28
 70
     1
102
RTVSPropertyOp29
 70
     1
102
RTVSPropertyOp30
 70
     1
102
RTVSPropertyOp31
 70
     1
102
RTVSPropertyOp32
 70
     1
  0
XRECORD
  5
7ED3
102
{ACAD_REACTORS
330
7ED2
102
}
330
7ED2
100
AcDbXrecord
280
     1
102
RTVSPropertyOp0
 70
     1
102
RTVSPropertyOp1
 70
     1
102
RTVSPropertyOp2
 70
     1
102
RTVSPropertyOp3
 70
     1
102
RTVSPropertyOp4
 70
     1
102
RTVSPropertyOp5
 70
     1
102
RTVSPropertyOp6
 70
     1
102
RTVSPropertyOp7
 70
     1
102
RTVSPropertyOp8
 70
     1
102
RTVSPropertyOp9
 70
     1
102
RTVSPropertyOp10
 70
     1
102
RTVSPropertyOp11
 70
     1
102
RTVSPropertyOp12
 70
     1
102
RTVSPropertyOp13
 70
     1
102
RTVSPropertyOp14
 70
     1
102
RTVSPropertyOp15
 70
     1
102
RTVSPropertyOp16
 70
     1
102
RTVSPropertyOp17
 70
     1
102
RTVSPropertyOp18
 70
     1
102
RTVSPropertyOp19
 70
     1
102
RTVSPropertyOp20
 70
     1
102
RTVSPropertyOp21
 70
     1
102
RTVSPropertyOp22
 70
     1
102
RTVSPropertyOp23
 70
     1
102
RTVSPropertyOp24
 70
     1
102
RTVSPropertyOp25
 70
     1
102
RTVSPropertyOp26
 70
     1
102
RTVSPropertyOp27
 70
     1
102
RTVSPropertyOp28
 70
     1
102
RTVSPropertyOp29
 70
     1
102
RTVSPropertyOp30
 70
     1
102
RTVSPropertyOp31
 70
     1
102
RTVSPropertyOp32
 70
     1
  0
XRECORD
  5
7ED5
102
{ACAD_REACTORS
330
7ED4
102
}
330
7ED4
100
AcDbXrecord
280
     1
102
RTVSPropertyOp0
 70
     1
102
RTVSPropertyOp1
 70
     1
102
RTVSPropertyOp2
 70
     1
102
RTVSPropertyOp3
 70
     1
102
RTVSPropertyOp4
 70
     1
102
RTVSPropertyOp5
 70
     1
102
RTVSPropertyOp6
 70
     1
102
RTVSPropertyOp7
 70
     1
102
RTVSPropertyOp8
 70
     1
102
RTVSPropertyOp9
 70
     1
102
RTVSPropertyOp10
 70
     1
102
RTVSPropertyOp11
 70
     1
102
RTVSPropertyOp12
 70
     1
102
RTVSPropertyOp13
 70
     1
102
RTVSPropertyOp14
 70
     1
102
RTVSPropertyOp15
 70
     1
102
RTVSPropertyOp16
 70
     1
102
RTVSPropertyOp17
 70
     1
102
RTVSPropertyOp18
 70
     1
102
RTVSPropertyOp19
 70
     1
102
RTVSPropertyOp20
 70
     1
102
RTVSPropertyOp21
 70
     1
102
RTVSPropertyOp22
 70
     1
102
RTVSPropertyOp23
 70
     1
102
RTVSPropertyOp24
 70
     1
102
RTVSPropertyOp25
 70
     1
102
RTVSPropertyOp26
 70
     1
102
RTVSPropertyOp27
 70
     1
102
RTVSPropertyOp28
 70
     1
102
RTVSPropertyOp29
 70
     1
102
RTVSPropertyOp30
 70
     1
102
RTVSPropertyOp31
 70
     1
102
RTVSPropertyOp32
 70
     1
  0
XRECORD
  5
7ED7
102
{ACAD_REACTORS
330
7ED6
102
}
330
7ED6
100
AcDbXrecord
280
     1
102
RTVSPropertyOp0
 70
     1
102
RTVSPropertyOp1
 70
     1
102
RTVSPropertyOp2
 70
     1
102
RTVSPropertyOp3
 70
     1
102
RTVSPropertyOp4
 70
     1
102
RTVSPropertyOp5
 70
     1
102
RTVSPropertyOp6
 70
     1
102
RTVSPropertyOp7
 70
     1
102
RTVSPropertyOp8
 70
     1
102
RTVSPropertyOp9
 70
     1
102
RTVSPropertyOp10
 70
     1
102
RTVSPropertyOp11
 70
     1
102
RTVSPropertyOp12
 70
     1
102
RTVSPropertyOp13
 70
     1
102
RTVSPropertyOp14
 70
     1
102
RTVSPropertyOp15
 70
     1
102
RTVSPropertyOp16
 70
     1
102
RTVSPropertyOp17
 70
     1
102
RTVSPropertyOp18
 70
     1
102
RTVSPropertyOp19
 70
     1
102
RTVSPropertyOp20
 70
     1
102
RTVSPropertyOp21
 70
     1
102
RTVSPropertyOp22
 70
     1
102
RTVSPropertyOp23
 70
     1
102
RTVSPropertyOp24
 70
     1
102
RTVSPropertyOp25
 70
     1
102
RTVSPropertyOp26
 70
     1
102
RTVSPropertyOp27
 70
     1
102
RTVSPropertyOp28
 70
     1
102
RTVSPropertyOp29
 70
     1
102
RTVSPropertyOp30
 70
     1
102
RTVSPropertyOp31
 70
     1
102
RTVSPropertyOp32
 70
     1
  0
XRECORD
  5
7ED9
102
{ACAD_REACTORS
330
7ED8
102
}
330
7ED8
100
AcDbXrecord
280
     1
102
RTVSPropertyOp0
 70
     1
102
RTVSPropertyOp1
 70
     1
102
RTVSPropertyOp2
 70
     1
102
RTVSPropertyOp3
 70
     1
102
RTVSPropertyOp4
 70
     1
102
RTVSPropertyOp5
 70
     1
102
RTVSPropertyOp6
 70
     1
102
RTVSPropertyOp7
 70
     1
102
RTVSPropertyOp8
 70
     1
102
RTVSPropertyOp9
 70
     1
102
RTVSPropertyOp10
 70
     1
102
RTVSPropertyOp11
 70
     1
102
RTVSPropertyOp12
 70
     1
102
RTVSPropertyOp13
 70
     1
102
RTVSPropertyOp14
 70
     1
102
RTVSPropertyOp15
 70
     1
102
RTVSPropertyOp16
 70
     1
102
RTVSPropertyOp17
 70
     1
102
RTVSPropertyOp18
 70
     1
102
RTVSPropertyOp19
 70
     1
102
RTVSPropertyOp20
 70
     1
102
RTVSPropertyOp21
 70
     1
102
RTVSPropertyOp22
 70
     1
102
RTVSPropertyOp23
 70
     1
102
RTVSPropertyOp24
 70
     1
102
RTVSPropertyOp25
 70
     1
102
RTVSPropertyOp26
 70
     1
102
RTVSPropertyOp27
 70
     1
102
RTVSPropertyOp28
 70
     1
102
RTVSPropertyOp29
 70
     1
102
RTVSPropertyOp30
 70
     1
102
RTVSPropertyOp31
 70
     1
102
RTVSPropertyOp32
 70
     1
  0
XRECORD
  5
7EE1
102
{ACAD_REACTORS
330
7EE0
102
}
330
7EE0
100
AcDbXrecord
280
     1
102
RTVSPropertyOp0
 70
     1
102
RTVSPropertyOp1
 70
     1
102
RTVSPropertyOp2
 70
     1
102
RTVSPropertyOp3
 70
     1
102
RTVSPropertyOp4
 70
     1
102
RTVSPropertyOp5
 70
     1
102
RTVSPropertyOp6
 70
     1
102
RTVSPropertyOp7
 70
     1
102
RTVSPropertyOp8
 70
     1
102
RTVSPropertyOp9
 70
     1
102
RTVSPropertyOp10
 70
     1
102
RTVSPropertyOp11
 70
     1
102
RTVSPropertyOp12
 70
     1
102
RTVSPropertyOp13
 70
     1
102
RTVSPropertyOp14
 70
     1
102
RTVSPropertyOp15
 70
     1
102
RTVSPropertyOp16
 70
     1
102
RTVSPropertyOp17
 70
     1
102
RTVSPropertyOp18
 70
     1
102
RTVSPropertyOp19
 70
     1
102
RTVSPropertyOp20
 70
     1
102
RTVSPropertyOp21
 70
     1
102
RTVSPropertyOp22
 70
     1
102
RTVSPropertyOp23
 70
     1
102
RTVSPropertyOp24
 70
     1
102
RTVSPropertyOp25
 70
     1
102
RTVSPropertyOp26
 70
     1
102
RTVSPropertyOp27
 70
     1
102
RTVSPropertyOp28
 70
     1
102
RTVSPropertyOp29
 70
     1
102
RTVSPropertyOp30
 70
     1
102
RTVSPropertyOp31
 70
     1
102
RTVSPropertyOp32
 70
     1
  0
XRECORD
  5
7EFD
102
{ACAD_REACTORS
330
7EFC
102
}
330
7EFC
100
AcDbXrecord
280
     1
102
RTVSPropertyOp0
 70
     0
102
RTVSPropertyOp1
 70
     0
102
RTVSPropertyOp2
 70
     0
102
RTVSPropertyOp3
 70
     0
102
RTVSPropertyOp4
 70
     0
102
RTVSPropertyOp5
 70
     0
102
RTVSPropertyOp6
 70
     0
102
RTVSPropertyOp7
 70
     0
102
RTVSPropertyOp8
 70
     0
102
RTVSPropertyOp9
 70
     0
102
RTVSPropertyOp10
 70
     0
102
RTVSPropertyOp11
 70
     0
102
RTVSPropertyOp12
 70
     0
102
RTVSPropertyOp13
 70
     0
102
RTVSPropertyOp14
 70
     2
102
RTVSPropertyOp15
 70
     0
102
RTVSPropertyOp16
 70
     0
102
RTVSPropertyOp17
 70
     0
102
RTVSPropertyOp18
 70
     0
102
RTVSPropertyOp19
 70
     0
102
RTVSPropertyOp20
 70
     0
102
RTVSPropertyOp21
 70
     0
102
RTVSPropertyOp22
 70
     0
102
RTVSPropertyOp23
 70
     0
102
RTVSPropertyOp24
 70
     0
102
RTVSPropertyOp25
 70
     0
102
RTVSPropertyOp26
 70
     0
102
RTVSPropertyOp27
 70
     0
102
RTVSPropertyOp28
 70
     0
102
RTVSPropertyOp29
 70
     0
102
RTVSPropertyOp30
 70
     0
102
RTVSPropertyOp31
 70
     0
102
RTVSPropertyOp32
 70
     0
  0
XRECORD
  5
7EED
102
{ACAD_REACTORS
330
7EEC
102
}
330
7EEC
100
AcDbXrecord
280
     1
102
RTVSPropertyOp0
 70
     1
102
RTVSPropertyOp1
 70
     1
102
RTVSPropertyOp2
 70
     1
102
RTVSPropertyOp3
 70
     1
102
RTVSPropertyOp4
 70
     1
102
RTVSPropertyOp5
 70
     1
102
RTVSPropertyOp6
 70
     1
102
RTVSPropertyOp7
 70
     1
102
RTVSPropertyOp8
 70
     1
102
RTVSPropertyOp9
 70
     1
102
RTVSPropertyOp10
 70
     1
102
RTVSPropertyOp11
 70
     1
102
RTVSPropertyOp12
 70
     1
102
RTVSPropertyOp13
 70
     1
102
RTVSPropertyOp14
 70
     1
102
RTVSPropertyOp15
 70
     1
102
RTVSPropertyOp16
 70
     1
102
RTVSPropertyOp17
 70
     1
102
RTVSPropertyOp18
 70
     1
102
RTVSPropertyOp19
 70
     1
102
RTVSPropertyOp20
 70
     1
102
RTVSPropertyOp21
 70
     1
102
RTVSPropertyOp22
 70
     1
102
RTVSPropertyOp23
 70
     1
102
RTVSPropertyOp24
 70
     1
102
RTVSPropertyOp25
 70
     1
102
RTVSPropertyOp26
 70
     1
102
RTVSPropertyOp27
 70
     1
102
RTVSPropertyOp28
 70
     1
102
RTVSPropertyOp29
 70
     1
102
RTVSPropertyOp30
 70
     1
102
RTVSPropertyOp31
 70
     1
102
RTVSPropertyOp32
 70
     1
  0
XRECORD
  5
7EFF
102
{ACAD_REACTORS
330
7EFE
102
}
330
7EFE
100
AcDbXrecord
280
     1
102
RTVSPropertyOp0
 70
     0
102
RTVSPropertyOp1
 70
     0
102
RTVSPropertyOp2
 70
     0
102
RTVSPropertyOp3
 70
     0
102
RTVSPropertyOp4
 70
     0
102
RTVSPropertyOp5
 70
     0
102
RTVSPropertyOp6
 70
     0
102
RTVSPropertyOp7
 70
     0
102
RTVSPropertyOp8
 70
     0
102
RTVSPropertyOp9
 70
     0
102
RTVSPropertyOp10
 70
     0
102
RTVSPropertyOp11
 70
     0
102
RTVSPropertyOp12
 70
     0
102
RTVSPropertyOp13
 70
     0
102
RTVSPropertyOp14
 70
     2
102
RTVSPropertyOp15
 70
     0
102
RTVSPropertyOp16
 70
     0
102
RTVSPropertyOp17
 70
     0
102
RTVSPropertyOp18
 70
     0
102
RTVSPropertyOp19
 70
     0
102
RTVSPropertyOp20
 70
     0
102
RTVSPropertyOp21
 70
     0
102
RTVSPropertyOp22
 70
     0
102
RTVSPropertyOp23
 70
     0
102
RTVSPropertyOp24
 70
     0
102
RTVSPropertyOp25
 70
     0
102
RTVSPropertyOp26
 70
     0
102
RTVSPropertyOp27
 70
     0
102
RTVSPropertyOp28
 70
     0
102
RTVSPropertyOp29
 70
     0
102
RTVSPropertyOp30
 70
     0
102
RTVSPropertyOp31
 70
     0
102
RTVSPropertyOp32
 70
     0
  0
XRECORD
  5
7EE5
102
{ACAD_REACTORS
330
7EE4
102
}
330
7EE4
100
AcDbXrecord
280
     1
102
RTVSPropertyOp0
 70
     1
102
RTVSPropertyOp1
 70
     1
102
RTVSPropertyOp2
 70
     1
102
RTVSPropertyOp3
 70
     1
102
RTVSPropertyOp4
 70
     1
102
RTVSPropertyOp5
 70
     1
102
RTVSPropertyOp6
 70
     1
102
RTVSPropertyOp7
 70
     1
102
RTVSPropertyOp8
 70
     1
102
RTVSPropertyOp9
 70
     1
102
RTVSPropertyOp10
 70
     1
102
RTVSPropertyOp11
 70
     1
102
RTVSPropertyOp12
 70
     1
102
RTVSPropertyOp13
 70
     1
102
RTVSPropertyOp14
 70
     1
102
RTVSPropertyOp15
 70
     1
102
RTVSPropertyOp16
 70
     1
102
RTVSPropertyOp17
 70
     1
102
RTVSPropertyOp18
 70
     1
102
RTVSPropertyOp19
 70
     1
102
RTVSPropertyOp20
 70
     1
102
RTVSPropertyOp21
 70
     1
102
RTVSPropertyOp22
 70
     1
102
RTVSPropertyOp23
 70
     1
102
RTVSPropertyOp24
 70
     1
102
RTVSPropertyOp25
 70
     1
102
RTVSPropertyOp26
 70
     1
102
RTVSPropertyOp27
 70
     1
102
RTVSPropertyOp28
 70
     1
102
RTVSPropertyOp29
 70
     1
102
RTVSPropertyOp30
 70
     1
102
RTVSPropertyOp31
 70
     1
102
RTVSPropertyOp32
 70
     1
  0
XRECORD
  5
7EFB
102
{ACAD_REACTORS
330
7EFA
102
}
330
7EFA
100
AcDbXrecord
280
     1
102
RTVSPropertyOp0
 70
     1
102
RTVSPropertyOp1
 70
     1
102
RTVSPropertyOp2
 70
     1
102
RTVSPropertyOp3
 70
     1
102
RTVSPropertyOp4
 70
     1
102
RTVSPropertyOp5
 70
     1
102
RTVSPropertyOp6
 70
     1
102
RTVSPropertyOp7
 70
     1
102
RTVSPropertyOp8
 70
     1
102
RTVSPropertyOp9
 70
     1
102
RTVSPropertyOp10
 70
     1
102
RTVSPropertyOp11
 70
     1
102
RTVSPropertyOp12
 70
     1
102
RTVSPropertyOp13
 70
     1
102
RTVSPropertyOp14
 70
     1
102
RTVSPropertyOp15
 70
     1
102
RTVSPropertyOp16
 70
     1
102
RTVSPropertyOp17
 70
     1
102
RTVSPropertyOp18
 70
     1
102
RTVSPropertyOp19
 70
     1
102
RTVSPropertyOp20
 70
     1
102
RTVSPropertyOp21
 70
     1
102
RTVSPropertyOp22
 70
     1
102
RTVSPropertyOp23
 70
     1
102
RTVSPropertyOp24
 70
     1
102
RTVSPropertyOp25
 70
     1
102
RTVSPropertyOp26
 70
     1
102
RTVSPropertyOp27
 70
     1
102
RTVSPropertyOp28
 70
     1
102
RTVSPropertyOp29
 70
     1
102
RTVSPropertyOp30
 70
     1
102
RTVSPropertyOp31
 70
     1
102
RTVSPropertyOp32
 70
     1
  0
XRECORD
  5
7EF9
102
{ACAD_REACTORS
330
7EF8
102
}
330
7EF8
100
AcDbXrecord
280
     1
102
RTVSPropertyOp0
 70
     1
102
RTVSPropertyOp1
 70
     1
102
RTVSPropertyOp2
 70
     1
102
RTVSPropertyOp3
 70
     1
102
RTVSPropertyOp4
 70
     1
102
RTVSPropertyOp5
 70
     1
102
RTVSPropertyOp6
 70
     1
102
RTVSPropertyOp7
 70
     1
102
RTVSPropertyOp8
 70
     1
102
RTVSPropertyOp9
 70
     1
102
RTVSPropertyOp10
 70
     1
102
RTVSPropertyOp11
 70
     1
102
RTVSPropertyOp12
 70
     1
102
RTVSPropertyOp13
 70
     1
102
RTVSPropertyOp14
 70
     1
102
RTVSPropertyOp15
 70
     1
102
RTVSPropertyOp16
 70
     1
102
RTVSPropertyOp17
 70
     1
102
RTVSPropertyOp18
 70
     1
102
RTVSPropertyOp19
 70
     1
102
RTVSPropertyOp20
 70
     1
102
RTVSPropertyOp21
 70
     1
102
RTVSPropertyOp22
 70
     1
102
RTVSPropertyOp23
 70
     1
102
RTVSPropertyOp24
 70
     1
102
RTVSPropertyOp25
 70
     1
102
RTVSPropertyOp26
 70
     1
102
RTVSPropertyOp27
 70
     1
102
RTVSPropertyOp28
 70
     1
102
RTVSPropertyOp29
 70
     1
102
RTVSPropertyOp30
 70
     1
102
RTVSPropertyOp31
 70
     1
102
RTVSPropertyOp32
 70
     1
  0
XRECORD
  5
7EF3
102
{ACAD_REACTORS
330
7EF2
102
}
330
7EF2
100
AcDbXrecord
280
     1
102
RTVSPropertyOp0
 70
     1
102
RTVSPropertyOp1
 70
     1
102
RTVSPropertyOp2
 70
     1
102
RTVSPropertyOp3
 70
     1
102
RTVSPropertyOp4
 70
     1
102
RTVSPropertyOp5
 70
     1
102
RTVSPropertyOp6
 70
     1
102
RTVSPropertyOp7
 70
     1
102
RTVSPropertyOp8
 70
     1
102
RTVSPropertyOp9
 70
     1
102
RTVSPropertyOp10
 70
     1
102
RTVSPropertyOp11
 70
     1
102
RTVSPropertyOp12
 70
     1
102
RTVSPropertyOp13
 70
     1
102
RTVSPropertyOp14
 70
     1
102
RTVSPropertyOp15
 70
     1
102
RTVSPropertyOp16
 70
     1
102
RTVSPropertyOp17
 70
     1
102
RTVSPropertyOp18
 70
     1
102
RTVSPropertyOp19
 70
     1
102
RTVSPropertyOp20
 70
     1
102
RTVSPropertyOp21
 70
     1
102
RTVSPropertyOp22
 70
     1
102
RTVSPropertyOp23
 70
     1
102
RTVSPropertyOp24
 70
     1
102
RTVSPropertyOp25
 70
     1
102
RTVSPropertyOp26
 70
     1
102
RTVSPropertyOp27
 70
     1
102
RTVSPropertyOp28
 70
     1
102
RTVSPropertyOp29
 70
     1
102
RTVSPropertyOp30
 70
     1
102
RTVSPropertyOp31
 70
     1
102
RTVSPropertyOp32
 70
     1
  0
XRECORD
  5
7EF5
102
{ACAD_REACTORS
330
7EF4
102
}
330
7EF4
100
AcDbXrecord
280
     1
102
RTVSPropertyOp0
 70
     1
102
RTVSPropertyOp1
 70
     1
102
RTVSPropertyOp2
 70
     1
102
RTVSPropertyOp3
 70
     1
102
RTVSPropertyOp4
 70
     1
102
RTVSPropertyOp5
 70
     1
102
RTVSPropertyOp6
 70
     1
102
RTVSPropertyOp7
 70
     1
102
RTVSPropertyOp8
 70
     1
102
RTVSPropertyOp9
 70
     1
102
RTVSPropertyOp10
 70
     1
102
RTVSPropertyOp11
 70
     1
102
RTVSPropertyOp12
 70
     1
102
RTVSPropertyOp13
 70
     1
102
RTVSPropertyOp14
 70
     1
102
RTVSPropertyOp15
 70
     1
102
RTVSPropertyOp16
 70
     1
102
RTVSPropertyOp17
 70
     1
102
RTVSPropertyOp18
 70
     1
102
RTVSPropertyOp19
 70
     1
102
RTVSPropertyOp20
 70
     1
102
RTVSPropertyOp21
 70
     1
102
RTVSPropertyOp22
 70
     1
102
RTVSPropertyOp23
 70
     1
102
RTVSPropertyOp24
 70
     1
102
RTVSPropertyOp25
 70
     1
102
RTVSPropertyOp26
 70
     1
102
RTVSPropertyOp27
 70
     1
102
RTVSPropertyOp28
 70
     1
102
RTVSPropertyOp29
 70
     1
102
RTVSPropertyOp30
 70
     1
102
RTVSPropertyOp31
 70
     1
102
RTVSPropertyOp32
 70
     1
  0
XRECORD
  5
7EEB
102
{ACAD_REACTORS
330
7EEA
102
}
330
7EEA
100
AcDbXrecord
280
     1
102
RTVSPropertyOp0
 70
     1
102
RTVSPropertyOp1
 70
     1
102
RTVSPropertyOp2
 70
     1
102
RTVSPropertyOp3
 70
     1
102
RTVSPropertyOp4
 70
     1
102
RTVSPropertyOp5
 70
     1
102
RTVSPropertyOp6
 70
     1
102
RTVSPropertyOp7
 70
     1
102
RTVSPropertyOp8
 70
     1
102
RTVSPropertyOp9
 70
     1
102
RTVSPropertyOp10
 70
     1
102
RTVSPropertyOp11
 70
     1
102
RTVSPropertyOp12
 70
     1
102
RTVSPropertyOp13
 70
     1
102
RTVSPropertyOp14
 70
     1
102
RTVSPropertyOp15
 70
     1
102
RTVSPropertyOp16
 70
     1
102
RTVSPropertyOp17
 70
     1
102
RTVSPropertyOp18
 70
     1
102
RTVSPropertyOp19
 70
     1
102
RTVSPropertyOp20
 70
     1
102
RTVSPropertyOp21
 70
     1
102
RTVSPropertyOp22
 70
     1
102
RTVSPropertyOp23
 70
     1
102
RTVSPropertyOp24
 70
     1
102
RTVSPropertyOp25
 70
     1
102
RTVSPropertyOp26
 70
     1
102
RTVSPropertyOp27
 70
     1
102
RTVSPropertyOp28
 70
     1
102
RTVSPropertyOp29
 70
     1
102
RTVSPropertyOp30
 70
     1
102
RTVSPropertyOp31
 70
     1
102
RTVSPropertyOp32
 70
     1
  0
XRECORD
  5
7EDF
102
{ACAD_REACTORS
330
7EDE
102
}
330
7EDE
100
AcDbXrecord
280
     1
102
RTVSPropertyOp0
 70
     1
102
RTVSPropertyOp1
 70
     1
102
RTVSPropertyOp2
 70
     1
102
RTVSPropertyOp3
 70
     1
102
RTVSPropertyOp4
 70
     1
102
RTVSPropertyOp5
 70
     1
102
RTVSPropertyOp6
 70
     1
102
RTVSPropertyOp7
 70
     1
102
RTVSPropertyOp8
 70
     1
102
RTVSPropertyOp9
 70
     1
102
RTVSPropertyOp10
 70
     1
102
RTVSPropertyOp11
 70
     1
102
RTVSPropertyOp12
 70
     1
102
RTVSPropertyOp13
 70
     1
102
RTVSPropertyOp14
 70
     1
102
RTVSPropertyOp15
 70
     1
102
RTVSPropertyOp16
 70
     1
102
RTVSPropertyOp17
 70
     1
102
RTVSPropertyOp18
 70
     1
102
RTVSPropertyOp19
 70
     1
102
RTVSPropertyOp20
 70
     1
102
RTVSPropertyOp21
 70
     1
102
RTVSPropertyOp22
 70
     1
102
RTVSPropertyOp23
 70
     1
102
RTVSPropertyOp24
 70
     1
102
RTVSPropertyOp25
 70
     1
102
RTVSPropertyOp26
 70
     1
102
RTVSPropertyOp27
 70
     1
102
RTVSPropertyOp28
 70
     1
102
RTVSPropertyOp29
 70
     1
102
RTVSPropertyOp30
 70
     1
102
RTVSPropertyOp31
 70
     1
102
RTVSPropertyOp32
 70
     1
  0
XRECORD
  5
7EF7
102
{ACAD_REACTORS
330
7EF6
102
}
330
7EF6
100
AcDbXrecord
280
     1
102
RTVSPropertyOp0
 70
     1
102
RTVSPropertyOp1
 70
     1
102
RTVSPropertyOp2
 70
     1
102
RTVSPropertyOp3
 70
     1
102
RTVSPropertyOp4
 70
     1
102
RTVSPropertyOp5
 70
     1
102
RTVSPropertyOp6
 70
     1
102
RTVSPropertyOp7
 70
     1
102
RTVSPropertyOp8
 70
     1
102
RTVSPropertyOp9
 70
     1
102
RTVSPropertyOp10
 70
     1
102
RTVSPropertyOp11
 70
     1
102
RTVSPropertyOp12
 70
     1
102
RTVSPropertyOp13
 70
     1
102
RTVSPropertyOp14
 70
     1
102
RTVSPropertyOp15
 70
     1
102
RTVSPropertyOp16
 70
     1
102
RTVSPropertyOp17
 70
     1
102
RTVSPropertyOp18
 70
     1
102
RTVSPropertyOp19
 70
     1
102
RTVSPropertyOp20
 70
     1
102
RTVSPropertyOp21
 70
     1
102
RTVSPropertyOp22
 70
     1
102
RTVSPropertyOp23
 70
     1
102
RTVSPropertyOp24
 70
     1
102
RTVSPropertyOp25
 70
     1
102
RTVSPropertyOp26
 70
     1
102
RTVSPropertyOp27
 70
     1
102
RTVSPropertyOp28
 70
     1
102
RTVSPropertyOp29
 70
     1
102
RTVSPropertyOp30
 70
     1
102
RTVSPropertyOp31
 70
     1
102
RTVSPropertyOp32
 70
     1
  0
ENDSEC
  0
EOF
