  0
SECTION
  2
HEADER
  9
$ACADVER
  1
AC1015
  9
$ACADMAINTVER
 70
    20
  9
$DWGCODEPAGE
  3
ANSI_932
  9
$INSBASE
 10
0.0
 20
0.0
 30
0.0
  9
$EXTMIN
 10
-50.11406529441138
 20
-150.0339269825444
 30
-0.0015258207003583
  9
$EXTMAX
 10
1435.129378676301
 20
1000.071663801335
 30
0.0000000349246037
  9
$LIMMIN
 10
0.0
 20
0.0
  9
$LIMMAX
 10
420.0
 20
297.0
  9
$ORTHOMODE
 70
     0
  9
$REGENMODE
 70
     1
  9
$FILLMODE
 70
     1
  9
$QTEXTMODE
 70
     0
  9
$MIRRTEXT
 70
     1
  9
$LTSCALE
 40
1.0
  9
$ATTMODE
 70
     1
  9
$TEXTSIZE
 40
2.5
  9
$TRACEWID
 40
1.0
  9
$TEXTSTYLE
  7
Standard
  9
$CLAYER
  8
実線  太
  9
$CELTYPE
  6
ByLayer
  9
$CECOLOR
 62
   256
  9
$CELTSCALE
 40
1.0
  9
$DISPSILH
 70
     0
  9
$DIMSCALE
 40
5.0
  9
$DIMASZ
 40
3.9
  9
$DIMEXO
 40
2.1
  9
$DIMDLI
 40
0.0
  9
$DIMRND
 40
0.0
  9
$DIMDLE
 40
0.0
  9
$DIMEXE
 40
0.0
  9
$DIMTP
 40
0.0
  9
$DIMTM
 40
0.0
  9
$DIMTXT
 40
2.5
  9
$DIMCEN
 40
2.5
  9
$DIMTSZ
 40
0.0
  9
$DIMTOL
 70
     0
  9
$DIMLIM
 70
     0
  9
$DIMTIH
 70
     0
  9
$DIMTOH
 70
     0
  9
$DIMSE1
 70
     0
  9
$DIMSE2
 70
     0
  9
$DIMTAD
 70
     1
  9
$DIMZIN
 70
     9
  9
$DIMBLK
  1
DotSmall
  9
$DIMASO
 70
     1
  9
$DIMSHO
 70
     1
  9
$DIMPOST
  1

  9
$DIMAPOST
  1

  9
$DIMALT
 70
     0
  9
$DIMALTD
 70
     3
  9
$DIMALTF
 40
0.03937007874016
  9
$DIMLFAC
 40
1.0
  9
$DIMTOFL
 70
     1
  9
$DIMTVP
 40
0.0
  9
$DIMTIX
 70
     0
  9
$DIMSOXD
 70
     0
  9
$DIMSAH
 70
     0
  9
$DIMBLK1
  1

  9
$DIMBLK2
  1

  9
$DIMSTYLE
  2
ISO-25 A4_05
  9
$DIMCLRD
 70
     0
  9
$DIMCLRE
 70
     0
  9
$DIMCLRT
 70
     7
  9
$DIMTFAC
 40
1.0
  9
$DIMGAP
 40
0.9
  9
$DIMJUST
 70
     0
  9
$DIMSD1
 70
     0
  9
$DIMSD2
 70
     0
  9
$DIMTOLJ
 70
     0
  9
$DIMTZIN
 70
     8
  9
$DIMALTZ
 70
     0
  9
$DIMALTTZ
 70
     0
  9
$DIMUPT
 70
     0
  9
$DIMDEC
 70
     1
  9
$DIMTDEC
 70
     1
  9
$DIMALTU
 70
     2
  9
$DIMALTTD
 70
     3
  9
$DIMTXSTY
  7
Standard
  9
$DIMAUNIT
 70
     0
  9
$DIMADEC
 70
     0
  9
$DIMALTRND
 40
0.0
  9
$DIMAZIN
 70
     0
  9
$DIMDSEP
 70
    46
  9
$DIMATFIT
 70
     3
  9
$DIMFRAC
 70
     0
  9
$DIMLDRBLK
  1

  9
$DIMLUNIT
 70
     2
  9
$DIMLWD
 70
    -2
  9
$DIMLWE
 70
    -2
  9
$DIMTMOVE
 70
     0
  9
$LUNITS
 70
     2
  9
$LUPREC
 70
     4
  9
$SKETCHINC
 40
1.0
  9
$FILLETRAD
 40
3.0
  9
$AUNITS
 70
     0
  9
$AUPREC
 70
     0
  9
$MENU
  1
.
  9
$ELEVATION
 40
0.0
  9
$PELEVATION
 40
0.0
  9
$THICKNESS
 40
0.0
  9
$LIMCHECK
 70
     0
  9
$CHAMFERA
 40
0.0
  9
$CHAMFERB
 40
0.0
  9
$CHAMFERC
 40
20.0
  9
$CHAMFERD
 40
0.0
  9
$SKPOLY
 70
     0
  9
$TDCREATE
 40
2452626.479274549
  9
$TDUCREATE
 40
2452626.104274548
  9
$TDUPDATE
 40
2456820.644012847
  9
$TDUUPDATE
 40
2456820.269012848
  9
$TDINDWG
 40
0.8898984028
  9
$TDUSRTIMER
 40
0.8898984028
  9
$USRTIMER
 70
     1
  9
$ANGBASE
 50
0.0
  9
$ANGDIR
 70
     0
  9
$PDMODE
 70
    99
  9
$PDSIZE
 40
-2.0
  9
$PLINEWID
 40
0.0
  9
$SPLFRAME
 70
     0
  9
$SPLINETYPE
 70
     6
  9
$SPLINESEGS
 70
     8
  9
$HANDSEED
  5
8786
  9
$SURFTAB1
 70
     6
  9
$SURFTAB2
 70
     6
  9
$SURFTYPE
 70
     6
  9
$SURFU
 70
     6
  9
$SURFV
 70
     6
  9
$UCSBASE
  2

  9
$UCSNAME
  2

  9
$UCSORG
 10
0.0
 20
0.0
 30
0.0
  9
$UCSXDIR
 10
1.0
 20
0.0
 30
0.0
  9
$UCSYDIR
 10
0.0
 20
1.0
 30
0.0
  9
$UCSORTHOREF
  2

  9
$UCSORTHOVIEW
 70
     0
  9
$UCSORGTOP
 10
0.0
 20
0.0
 30
0.0
  9
$UCSORGBOTTOM
 10
0.0
 20
0.0
 30
0.0
  9
$UCSORGLEFT
 10
0.0
 20
0.0
 30
0.0
  9
$UCSORGRIGHT
 10
0.0
 20
0.0
 30
0.0
  9
$UCSORGFRONT
 10
0.0
 20
0.0
 30
0.0
  9
$UCSORGBACK
 10
0.0
 20
0.0
 30
0.0
  9
$PUCSBASE
  2

  9
$PUCSNAME
  2

  9
$PUCSORG
 10
0.0
 20
0.0
 30
0.0
  9
$PUCSXDIR
 10
1.0
 20
0.0
 30
0.0
  9
$PUCSYDIR
 10
0.0
 20
1.0
 30
0.0
  9
$PUCSORTHOREF
  2

  9
$PUCSORTHOVIEW
 70
     0
  9
$PUCSORGTOP
 10
0.0
 20
0.0
 30
0.0
  9
$PUCSORGBOTTOM
 10
0.0
 20
0.0
 30
0.0
  9
$PUCSORGLEFT
 10
0.0
 20
0.0
 30
0.0
  9
$PUCSORGRIGHT
 10
0.0
 20
0.0
 30
0.0
  9
$PUCSORGFRONT
 10
0.0
 20
0.0
 30
0.0
  9
$PUCSORGBACK
 10
0.0
 20
0.0
 30
0.0
  9
$USERI1
 70
     0
  9
$USERI2
 70
     0
  9
$USERI3
 70
     0
  9
$USERI4
 70
     0
  9
$USERI5
 70
     0
  9
$USERR1
 40
0.0
  9
$USERR2
 40
0.0
  9
$USERR3
 40
0.0
  9
$USERR4
 40
0.0
  9
$USERR5
 40
0.0
  9
$WORLDVIEW
 70
     1
  9
$SHADEDGE
 70
     3
  9
$SHADEDIF
 70
    70
  9
$TILEMODE
 70
     1
  9
$MAXACTVP
 70
    64
  9
$PINSBASE
 10
0.0
 20
0.0
 30
0.0
  9
$PLIMCHECK
 70
     0
  9
$PEXTMIN
 10
28.84593157768251
 20
20.15066723823549
 30
0.0
  9
$PEXTMAX
 10
259.6133841991425
 20
181.3560051441192
 30
0.0
  9
$PLIMMIN
 10
-4.23333740234375
 20
-4.233333110809326
  9
$PLIMMAX
 10
292.6926574707031
 20
205.7399945259094
  9
$UNITMODE
 70
     0
  9
$VISRETAIN
 70
     1
  9
$PLINEGEN
 70
     0
  9
$PSLTSCALE
 70
     1
  9
$TREEDEPTH
 70
  3020
  9
$CMLSTYLE
  2
Standard
  9
$CMLJUST
 70
     0
  9
$CMLSCALE
 40
20.0
  9
$PROXYGRAPHICS
 70
     1
  9
$MEASUREMENT
 70
     1
  9
$CELWEIGHT
370
    -1
  9
$ENDCAPS
280
     0
  9
$JOINSTYLE
280
     0
  9
$LWDISPLAY
290
     0
  9
$INSUNITS
 70
     4
  9
$HYPERLINKBASE
  1

  9
$STYLESHEET
  1
monochrome.ctb
  9
$XEDIT
290
     1
  9
$CEPSNTYPE
380
     0
  9
$PSTYLEMODE
290
     1
  9
$FINGERPRINTGUID
  2
{AEAF812E-8D80-486D-9611-5903FAC53DCD}
  9
$VERSIONGUID
  2
{31BE02F0-5560-4836-A024-7CD168A8A907}
  9
$EXTNAMES
290
     1
  9
$PSVPSCALE
 40
0.0
  9
$OLESTARTUP
290
     0
  0
ENDSEC
  0
SECTION
  2
CLASSES
  0
CLASS
  1
ACDBDICTIONARYWDFLT
  2
AcDbDictionaryWithDefault
  3
ObjectDBX Classes
 90
        0
280
     0
281
     0
  0
CLASS
  1
ACDBPLACEHOLDER
  2
AcDbPlaceHolder
  3
ObjectDBX Classes
 90
        0
280
     0
281
     0
  0
CLASS
  1
LAYOUT
  2
AcDbLayout
  3
ObjectDBX Classes
 90
        0
280
     0
281
     0
  0
CLASS
  1
DICTIONARYVAR
  2
AcDbDictionaryVar
  3
ObjectDBX Classes
 90
        0
280
     0
281
     0
  0
CLASS
  1
MATERIAL
  2
AcDbMaterial
  3
ObjectDBX Classes
 90
     1153
280
     0
281
     0
  0
CLASS
  1
VISUALSTYLE
  2
AcDbVisualStyle
  3
ObjectDBX Classes
 90
     4095
280
     0
281
     0
  0
CLASS
  1
TABLESTYLE
  2
AcDbTableStyle
  3
ObjectDBX Classes
 90
     4095
280
     0
281
     0
  0
CLASS
  1
SCALE
  2
AcDbScale
  3
ObjectDBX Classes
 90
     1153
280
     0
281
     0
  0
CLASS
  1
MLEADERSTYLE
  2
AcDbMLeaderStyle
  3
ACDB_MLEADERSTYLE_CLASS
 90
     4095
280
     0
281
     0
  0
CLASS
  1
CELLSTYLEMAP
  2
AcDbCellStyleMap
  3
ObjectDBX Classes
 90
     1152
280
     0
281
     0
  0
CLASS
  1
SORTENTSTABLE
  2
AcDbSortentsTable
  3
ObjectDBX Classes
 90
        0
280
     0
281
     0
  0
ENDSEC
  0
SECTION
  2
TABLES
  0
TABLE
  2
VPORT
  5
8
102
{ACAD_XDICTIONARY
360
6755
102
}
330
0
100
AcDbSymbolTable
 70
     1
  0
VPORT
  5
6387
330
8
100
AcDbSymbolTableRecord
100
AcDbViewportTableRecord
  2
*Active
 70
     0
 10
0.0
 20
0.0
 11
1.0
 21
1.0
 12
297.9749167500404
 22
97.91228370505619
 13
0.0
 23
0.0
 14
10.0
 24
10.0
 15
10.0
 25
10.0
 16
0.0
 26
0.0
 36
1.0
 17
0.0
 27
0.0
 37
0.0
 40
264.1507103287183
 41
2.340523882896764
 42
50.0
 43
0.0
 44
0.0
 50
0.0
 51
0.0
 71
     0
 72
 20000
 73
     1
 74
     0
 75
     0
 76
     0
 77
     0
 78
     0
281
     0
 65
     1
110
0.0
120
0.0
130
0.0
111
1.0
121
0.0
131
0.0
112
0.0
122
1.0
132
0.0
 79
     0
146
0.0
1001
ACAD_NAV_VCDISPLAY
1070
     3
  0
ENDTAB
  0
TABLE
  2
LTYPE
  5
5
330
0
100
AcDbSymbolTable
 70
     4
  0
LTYPE
  5
14
330
5
100
AcDbSymbolTableRecord
100
AcDbLinetypeTableRecord
  2
ByBlock
 70
     0
  3

 72
    65
 73
     0
 40
0.0
  0
LTYPE
  5
15
330
5
100
AcDbSymbolTableRecord
100
AcDbLinetypeTableRecord
  2
ByLayer
 70
     0
  3

 72
    65
 73
     0
 40
0.0
  0
LTYPE
  5
16
330
5
100
AcDbSymbolTableRecord
100
AcDbLinetypeTableRecord
  2
Continuous
 70
     0
  3
Solid line
 72
    65
 73
     0
 40
0.0
  0
LTYPE
  5
260
330
5
100
AcDbSymbolTableRecord
100
AcDbLinetypeTableRecord
  2
ACAD_ISO10W100
 70
     0
  3
ISO dash dot __ . __ . __ . __ . __ . __ . __ .
 72
    65
 73
     4
 40
18.0
 49
12.0
 74
     0
 49
-3.0
 74
     0
 49
0.0
 74
     0
 49
-3.0
 74
     0
  0
LTYPE
  5
2205
330
5
100
AcDbSymbolTableRecord
100
AcDbLinetypeTableRecord
  2
ACAD_ISO03W100
 70
     0
  3
ISO dash space __    __    __    __    __    __
 72
    65
 73
     2
 40
30.0
 49
12.0
 74
     0
 49
-18.0
 74
     0
  0
ENDTAB
  0
TABLE
  2
LAYER
  5
2
102
{ACAD_XDICTIONARY
360
322F
102
}
330
0
100
AcDbSymbolTable
 70
    10
  0
LAYER
  5
10
102
{ACAD_XDICTIONARY
360
6CEC
102
}
330
2
100
AcDbSymbolTableRecord
100
AcDbLayerTableRecord
  2
0
 70
     0
 62
     9
  6
Continuous
290
     0
370
    -3
390
F
  0
LAYER
  5
35
102
{ACAD_XDICTIONARY
360
6CEE
102
}
330
2
100
AcDbSymbolTableRecord
100
AcDbLayerTableRecord
  2
図面枠
 70
     0
 62
     5
  6
Continuous
370
    20
390
F
  0
LAYER
  5
37
102
{ACAD_XDICTIONARY
360
6CF2
102
}
330
2
100
AcDbSymbolTableRecord
100
AcDbLayerTableRecord
  2
寸法線
 70
     0
 62
    20
  6
Continuous
370
    13
390
F
  0
LAYER
  5
38
102
{ACAD_XDICTIONARY
360
6CF4
102
}
330
2
100
AcDbSymbolTableRecord
100
AcDbLayerTableRecord
  2
破線
 70
     0
 62
   221
  6
ACAD_ISO03W100
370
     5
390
F
  0
LAYER
  5
261
102
{ACAD_XDICTIONARY
360
6CF6
102
}
330
2
100
AcDbSymbolTableRecord
100
AcDbLayerTableRecord
  2
実線  太
 70
     0
 62
     7
  6
Continuous
370
    18
390
F
  0
LAYER
  5
262
102
{ACAD_XDICTIONARY
360
6CF8
102
}
330
2
100
AcDbSymbolTableRecord
100
AcDbLayerTableRecord
  2
通り芯
 70
     0
 62
    70
  6
ACAD_ISO10W100
370
     9
390
F
  0
LAYER
  5
263
102
{ACAD_XDICTIONARY
360
6CFA
102
}
330
2
100
AcDbSymbolTableRecord
100
AcDbLayerTableRecord
  2
実線  細
 70
     0
 62
   141
  6
Continuous
370
     5
390
F
  0
LAYER
  5
491
330
2
100
AcDbSymbolTableRecord
100
AcDbLayerTableRecord
  2
Defpoints
 70
     0
 62
     7
  6
Continuous
290
     0
370
    -3
390
F
  0
LAYER
  5
FA1
102
{ACAD_XDICTIONARY
360
6CFC
102
}
330
2
100
AcDbSymbolTableRecord
100
AcDbLayerTableRecord
  2
HAFELE
 70
     0
 62
   240
  6
Continuous
370
     0
390
F
  0
LAYER
  5
7ED0
330
2
100
AcDbSymbolTableRecord
100
AcDbLayerTableRecord
  2
用紙枠
 70
     0
 62
   204
  6
Continuous
290
     0
370
    -3
390
F
  0
ENDTAB
  0
TABLE
  2
STYLE
  5
3
330
0
100
AcDbSymbolTable
 70
     5
  0
STYLE
  5
11
330
3
100
AcDbSymbolTableRecord
100
AcDbTextStyleTableRecord
  2
Standard
 70
     0
 40
0.0
 41
1.0
 50
0.0
 71
     0
 42
2.5
  3

  4

1001
ACAD
1000
MS PGothic
1071
    32818
  0
STYLE
  5
39
330
3
100
AcDbSymbolTableRecord
100
AcDbTextStyleTableRecord
  2
CITYBLUEPRINT
 70
     0
 40
4.0
 41
1.5
 50
0.0
 71
     0
 42
4.0
  3
cityb___.ttf
  4

1001
ACAD
1000
CityBlueprint
1071
      514
  0
STYLE
  5
D18
330
3
100
AcDbSymbolTableRecord
100
AcDbTextStyleTableRecord
  2
STD
 70
     0
 40
0.0
 41
1.0
 50
0.0
 71
     0
 42
0.0
  3
txt
  4

  0
STYLE
  5
1880
330
3
100
AcDbSymbolTableRecord
100
AcDbTextStyleTableRecord
  2

 70
     1
 40
0.0
 41
1.0
 50
0.0
 71
     0
 42
2.5
  3
ltypeshp.shx
  4

  0
ENDTAB
  0
TABLE
  2
VIEW
  5
6
330
0
100
AcDbSymbolTable
 70
     1
  0
ENDTAB
  0
TABLE
  2
UCS
  5
7
330
0
100
AcDbSymbolTable
 70
     0
  0
ENDTAB
  0
TABLE
  2
APPID
  5
9
330
0
100
AcDbSymbolTable
 70
     7
  0
APPID
  5
12
330
9
100
AcDbSymbolTableRecord
100
AcDbRegAppTableRecord
  2
ACAD
 70
     0
  0
APPID
  5
63D9
330
9
100
AcDbSymbolTableRecord
100
AcDbRegAppTableRecord
  2
ACAD_NAV_VCDISPLAY
 70
     0
  0
APPID
  5
6654
330
9
100
AcDbSymbolTableRecord
100
AcDbRegAppTableRecord
  2
ACAD_EXEMPT_FROM_CAD_STANDARDS
 70
     0
  0
APPID
  5
679B
330
9
100
AcDbSymbolTableRecord
100
AcDbRegAppTableRecord
  2
ACAD_MLEADERVER
 70
     0
  0
APPID
  5
6A67
330
9
100
AcDbSymbolTableRecord
100
AcDbRegAppTableRecord
  2
ACAD_DSTYLE_DIMJAG
 70
     0
  0
APPID
  5
6A68
330
9
100
AcDbSymbolTableRecord
100
AcDbRegAppTableRecord
  2
ACAD_DSTYLE_DIMBREAK
 70
     0
  0
APPID
  5
6A69
330
9
100
AcDbSymbolTableRecord
100
AcDbRegAppTableRecord
  2
ACAD_DSTYLE_DIMTALN
 70
     0
  0
ENDTAB
  0
TABLE
  2
DIMSTYLE
  5
A
330
0
100
AcDbSymbolTable
 70
     3
100
AcDbDimStyleTable
 71
     2
340
6B53
340
27
  0
DIMSTYLE
105
27
102
{ACAD_REACTORS
330
8563
330
8564
330
8565
330
8566
330
8567
330
8568
330
856D
330
8570
330
8571
102
}
330
A
100
AcDbSymbolTableRecord
100
AcDbDimStyleTableRecord
  2
ISO-25
 70
     0
 41
3.9
 42
2.1
 43
0.0
 44
0.0
 73
     0
 74
     0
 77
     1
 78
     9
140
2.5
141
2.5
143
0.03937007874016
147
0.9
171
     3
172
     1
178
     7
271
     1
272
     1
274
     3
283
     0
284
     8
340
11
342
2B
  0
DIMSTYLE
105
6B53
330
A
100
AcDbSymbolTableRecord
100
AcDbDimStyleTableRecord
  2
ISO-25 A4_05
 70
     0
 40
5.0
 41
3.9
 42
2.1
 43
0.0
 44
0.0
 73
     0
 74
     0
 77
     1
 78
     9
140
2.5
141
2.5
143
0.03937007874016
147
0.9
171
     3
172
     1
178
     7
271
     1
272
     1
274
     3
283
     0
284
     8
340
11
342
2B
1001
ACAD_DSTYLE_DIMBREAK
1070
   391
1040
3.75
1001
ACAD_DSTYLE_DIMJAG
1070
   388
1040
1.5
1001
ACAD_DSTYLE_DIMTALN
1070
   392
1070
     0
  0
ENDTAB
  0
TABLE
  2
BLOCK_RECORD
  5
1
330
0
100
AcDbSymbolTable
 70
    40
  0
BLOCK_RECORD
  5
1F
102
{ACAD_XDICTIONARY
360
6430
102
}
330
1
100
AcDbSymbolTableRecord
100
AcDbBlockTableRecord
  2
*Model_Space
340
22
  0
BLOCK_RECORD
  5
23
330
1
100
AcDbSymbolTableRecord
100
AcDbBlockTableRecord
  2
*Paper_Space
340
26
  0
BLOCK_RECORD
  5
1B
330
1
100
AcDbSymbolTableRecord
100
AcDbBlockTableRecord
  2
*Paper_Space0
340
1E
  0
BLOCK_RECORD
  5
2B
330
1
100
AcDbSymbolTableRecord
100
AcDbBlockTableRecord
  2
_DotSmall
340
0
102
{BLKREFS
331
8672
331
8673
331
867B
331
867C
331
8684
331
8685
331
868D
331
868E
331
8696
331
8697
331
869F
331
86A0
331
86A9
331
86AA
331
86B2
331
86B3
331
86BB
331
86BC
331
86C4
331
86C5
331
86CD
331
86CE
331
7E68
331
7E69
331
7E74
331
7E75
331
7E80
331
7E81
331
7E8C
331
7E8D
331
7E99
331
7E9A
331
7EA5
331
7EA6
331
7EB1
331
7EB2
331
7EBD
331
7EBE
331
7EC9
331
7ECA
331
831D
331
831E
331
8329
331
832A
331
8335
331
8336
331
8341
331
8342
331
834D
331
834E
331
8359
331
835A
331
8365
331
8366
331
8371
331
8372
331
837D
331
837E
331
8632
331
8633
331
863B
331
863C
331
8644
331
8645
331
864D
331
864E
331
8657
331
8658
331
8660
331
8661
331
8669
331
866A
102
}
  0
BLOCK_RECORD
  5
2F
330
1
100
AcDbSymbolTableRecord
100
AcDbBlockTableRecord
  2
DOT
340
0
310
2800000020000000200000000100080000000000000400000000000000000000000000000000000000000000000080000080000000808000800000008000800080800000C0C0C000C0DCC000F0CAA6000020400000206000002080000020A0000020C0000020E00000400000004020000040400000406000004080000040A0
310
000040C0000040E00000600000006020000060400000606000006080000060A0000060C0000060E00000800000008020000080400000806000008080000080A0000080C0000080E00000A0000000A0200000A0400000A0600000A0800000A0A00000A0C00000A0E00000C0000000C0200000C0400000C0600000C0800000C0
310
A00000C0C00000C0E00000E0000000E0200000E0400000E0600000E0800000E0A00000E0C00000E0E00040000000400020004000400040006000400080004000A0004000C0004000E00040200000402020004020400040206000402080004020A0004020C0004020E000404000004040200040404000404060004040800040
310
40A0004040C0004040E00040600000406020004060400040606000406080004060A0004060C0004060E00040800000408020004080400040806000408080004080A0004080C0004080E00040A0000040A0200040A0400040A0600040A0800040A0A00040A0C00040A0E00040C0000040C0200040C0400040C0600040C08000
310
40C0A00040C0C00040C0E00040E0000040E0200040E0400040E0600040E0800040E0A00040E0C00040E0E00080000000800020008000400080006000800080008000A0008000C0008000E00080200000802020008020400080206000802080008020A0008020C0008020E00080400000804020008040400080406000804080
310
008040A0008040C0008040E00080600000806020008060400080606000806080008060A0008060C0008060E00080800000808020008080400080806000808080008080A0008080C0008080E00080A0000080A0200080A0400080A0600080A0800080A0A00080A0C00080A0E00080C0000080C0200080C0400080C0600080C0
310
800080C0A00080C0C00080C0E00080E0000080E0200080E0400080E0600080E0800080E0A00080E0C00080E0E000C0000000C0002000C0004000C0006000C0008000C000A000C000C000C000E000C0200000C0202000C0204000C0206000C0208000C020A000C020C000C020E000C0400000C0402000C0404000C0406000C0
310
408000C040A000C040C000C040E000C0600000C0602000C0604000C0606000C0608000C060A000C060C000C060E000C0800000C0802000C0804000C0806000C0808000C080A000C080C000C080E000C0A00000C0A02000C0A04000C0A06000C0A08000C0A0A000C0A0C000C0A0E000C0C00000C0C02000C0C04000C0C06000
310
C0C08000C0C0A000F0FBFF00A4A0A000808080000000FF0000FF000000FFFF00FF000000FF00FF00FFFF0000FFFFFF00FFFFFFFFFFFFFFFFFFFFFFFFFFFFFFFFFFFFFFFFFFFFFFFFFFFFFFFFFFFFFFFFFFFFFFFFFFFFFFFFFFFFFFFFFFFFFFFFFFFFFFFFFFFFFFFFFFFFFFFFFFFFFFFFFFFFFFFFFFFFFFFFFFFFFFFFFFFFFF
310
FFFFFFFFFFFFFFFFFF00FFFFFFFFFFFFFFFFFFFFFFFFFFFFFFFFFFFFFFFFFFFFFFFFFFFFFFFFFFFF000000FFFFFFFFFFFFFFFFFFFFFFFFFFFFFFFFFFFFFFFFFFFFFFFFFFFFFFFF00FF00FF00FFFFFFFFFFFFFFFFFFFFFFFFFFFFFFFFFFFFFFFFFFFFFFFFFFFF00FFFF00FFFF00FFFFFFFFFFFFFFFFFFFFFFFFFFFFFFFFFFFF
310
FFFFFFFFFFFF00FFFFFF00FFFFFF00FFFFFFFFFFFFFFFFFFFFFFFFFFFFFFFFFFFFFFFFFFFF00FFFFFFFF00FFFFFFFF00FFFFFFFFFFFFFFFFFFFFFFFFFFFFFFFFFFFFFFFF00FFFFFFFFFF00FFFFFFFFFF00FFFFFFFFFFFFFFFFFFFFFFFFFFFFFFFFFFFF00FFFFFFFFFFFF00FFFFFFFFFFFF00FFFFFFFFFFFFFFFFFFFFFFFFFF
310
FFFFFF00FFFFFFFFFFFFFF00FFFFFFFFFFFFFFFFFFFFFFFFFFFFFFFFFFFFFFFFFFFF00FFFFFFFFFFFFFFFF00FFFFFFFFFFFFFFFFFFFFFFFFFFFFFFFFFFFFFFFFFF00FFFFFFFFFFFFFFFFFF00FFFFFFFFFFFFFFFFFFFFFFFFFFFFFFFFFFFFFFFF00FFFFFFFFFFFFFFFFFFFF00FFFFFFFFFFFFFFFFFFFFFFFFFFFFFFFFFFFFFF
310
00FFFFFFFFFFFFFFFFFFFF000000FFFFFFFFFFFFFFFFFFFFFFFFFFFFFFFFFF00FFFFFFFFFFFFFFFFFFFF00000000000000000000FF0000000000000000000000000000000000000000000000000000FFFFFFFFFFFFFFFFFFFFFFFFFFFFFFFF00FFFFFFFFFFFFFFFFFFFFFF000000FFFFFFFFFFFFFFFFFFFFFFFFFFFFFFFFFF
310
FF00FFFFFFFFFFFFFFFFFFFFFF00FFFFFFFFFFFFFFFFFFFFFFFFFFFFFFFFFFFFFFFF00FFFFFFFFFFFFFFFFFFFF00FFFFFFFFFFFFFFFFFFFFFFFFFFFFFFFFFFFFFFFFFF00FFFFFFFFFFFFFFFFFF00FFFFFFFFFFFFFFFFFFFFFFFFFFFFFFFFFFFFFFFFFFFF00FFFFFFFFFFFFFFFF00FFFFFFFFFFFFFFFFFFFFFFFFFFFFFFFFFF
310
FFFFFFFFFFFF0000FFFFFFFFFFFF00FFFFFFFFFFFF00FFFFFFFFFFFFFFFFFFFFFFFFFFFFFFFFFFFF00FFFFFFFFFF00FFFFFFFFFF00FFFFFFFFFFFFFFFFFFFFFFFFFFFFFFFFFFFFFFFF00FFFFFFFF00FFFFFFFF00FFFFFFFFFFFFFFFFFFFFFFFFFFFFFFFFFFFFFFFFFFFF00FFFFFF00FFFFFF00FFFFFFFFFFFFFFFFFFFFFFFF
310
FFFFFFFFFFFFFFFFFFFFFFFF00FFFF00FFFF00FFFFFFFFFFFFFFFFFFFFFFFFFFFFFFFFFFFFFFFFFFFFFFFFFFFF00FF00FF00FFFFFFFFFFFFFFFFFFFFFFFFFFFFFFFFFFFFFFFFFFFFFFFFFFFFFFFF000000FFFFFFFFFFFFFFFFFFFFFFFFFFFFFFFFFFFFFFFFFFFFFFFFFFFFFFFFFFFF00FFFFFFFFFFFFFFFFFFFFFFFFFFFFFF
310
FFFFFFFFFFFFFFFFFFFFFFFFFFFFFFFFFFFFFFFFFFFFFFFFFFFFFFFFFFFFFFFFFFFFFFFFFFFFFFFFFFFFFFFFFFFFFFFFFFFFFFFFFFFFFFFF
  0
BLOCK_RECORD
  5
8572
330
1
100
AcDbSymbolTableRecord
100
AcDbBlockTableRecord
  2
*D30
340
0
  0
BLOCK_RECORD
  5
857E
330
1
100
AcDbSymbolTableRecord
100
AcDbBlockTableRecord
  2
*D31
340
0
  0
BLOCK_RECORD
  5
858A
330
1
100
AcDbSymbolTableRecord
100
AcDbBlockTableRecord
  2
*D32
340
0
  0
BLOCK_RECORD
  5
8596
330
1
100
AcDbSymbolTableRecord
100
AcDbBlockTableRecord
  2
*D33
340
0
  0
BLOCK_RECORD
  5
85A2
330
1
100
AcDbSymbolTableRecord
100
AcDbBlockTableRecord
  2
*D34
340
0
  0
BLOCK_RECORD
  5
85AE
330
1
100
AcDbSymbolTableRecord
100
AcDbBlockTableRecord
  2
*D35
340
0
  0
BLOCK_RECORD
  5
85BA
330
1
100
AcDbSymbolTableRecord
100
AcDbBlockTableRecord
  2
*D36
340
0
  0
BLOCK_RECORD
  5
85C6
330
1
100
AcDbSymbolTableRecord
100
AcDbBlockTableRecord
  2
*D37
340
0
  0
BLOCK_RECORD
  5
85D2
330
1
100
AcDbSymbolTableRecord
100
AcDbBlockTableRecord
  2
*D38
340
0
  0
ENDTAB
  0
ENDSEC
  0
SECTION
  2
BLOCKS
  0
BLOCK
  5
20
330
1F
100
AcDbEntity
  8
0
100
AcDbBlockBegin
  2
*Model_Space
 70
     0
 10
0.0
 20
0.0
 30
0.0
  3
*Model_Space
  1

  0
ENDBLK
  5
21
330
1F
100
AcDbEntity
  8
0
100
AcDbBlockEnd
  0
BLOCK
  5
24
330
23
100
AcDbEntity
 67
     1
  8
0
100
AcDbBlockBegin
  2
*Paper_Space
 70
     0
 10
0.0
 20
0.0
 30
0.0
  3
*Paper_Space
  1

  0
ENDBLK
  5
25
330
23
100
AcDbEntity
 67
     1
  8
0
100
AcDbBlockEnd
  0
BLOCK
  5
1C
330
1B
100
AcDbEntity
 67
     1
  8
0
100
AcDbBlockBegin
  2
*Paper_Space0
 70
     0
 10
0.0
 20
0.0
 30
0.0
  3
*Paper_Space0
  1

  0
VIEWPORT
  5
2835
102
{ACAD_XDICTIONARY
360
874A
102
}
330
1B
100
AcDbEntity
 67
     1
  8
0
100
AcDbViewport
 10
145.0671538148211
 20
105.2792470596998
 30
0.0
 40
255.4768232678978
 41
146.5118883694624
 68
     0
 69
     0
 12
145.0671538148211
 22
105.2792470596998
 13
0.0
 23
0.0
 14
10.0
 24
10.0
 15
10.0
 25
10.0
 16
0.0
 26
0.0
 36
1.0
 17
0.0
 27
0.0
 37
0.0
 42
50.0
 43
0.0
 44
0.0
 45
146.5118883694624
 50
0.0
 51
0.0
 72
 20000
 90
    32800
  1

281
     0
 71
     1
 74
     0
110
0.0
120
0.0
130
0.0
111
1.0
121
0.0
131
0.0
112
0.0
122
1.0
132
0.0
 79
     0
146
0.0
  0
VIEWPORT
  5
2837
102
{ACAD_XDICTIONARY
360
874C
102
}
330
1B
100
AcDbEntity
 67
     1
  8
実線  太
100
AcDbViewport
 10
144.2296578884125
 20
100.7533361911773
 30
0.0
 40
230.7674526214599
 41
161.2053379058837
 68
     0
 69
     0
 12
144.2273710473552
 22
92.63739313986013
 13
0.0
 23
0.0
 14
10.0
 24
10.0
 15
10.0
 25
10.0
 16
0.0
 26
0.0
 36
1.0
 17
0.0
 27
0.0
 37
0.0
 42
50.0
 43
0.0
 44
0.0
 45
237.262888478563
 50
0.0
 51
0.0
 72
 20000
 90
    32768
  1

281
     0
 71
     1
 74
     0
110
0.0
120
0.0
130
0.0
111
1.0
121
0.0
131
0.0
112
0.0
122
1.0
132
0.0
 79
     0
146
0.0
  0
ENDBLK
  5
1D
330
1B
100
AcDbEntity
 67
     1
  8
0
100
AcDbBlockEnd
  0
BLOCK
  5
2D
330
2B
100
AcDbEntity
  8
0
370
    18
100
AcDbBlockBegin
  2
_DotSmall
 70
     0
 10
0.0
 20
0.0
 30
0.0
  3
_DotSmall
  1

  0
LWPOLYLINE
  5
2C
330
2B
100
AcDbEntity
  8
0
 62
     0
370
    18
100
AcDbPolyline
 90
        2
 70
     1
 43
0.5
 10
-0.0625
 20
0.0
 42
1.0
 10
0.0625
 20
0.0
 42
1.0
  0
ENDBLK
  5
2E
330
2B
100
AcDbEntity
  8
0
370
    18
100
AcDbBlockEnd
  0
BLOCK
  5
32
330
2F
100
AcDbEntity
  8
0
100
AcDbBlockBegin
  2
DOT
 70
     0
 10
0.0
 20
0.0
 30
0.0
  3
DOT
  1

  0
LWPOLYLINE
  5
30
330
2F
100
AcDbEntity
  8
破線
  6
ByBlock
 62
     0
100
AcDbPolyline
 90
        2
 70
     1
 43
0.5
 10
-0.25
 20
0.0
 42
1.0
 10
0.25
 20
0.0
 42
1.0
  0
LINE
  5
31
330
2F
100
AcDbEntity
  8
破線
  6
ByBlock
 62
     0
100
AcDbLine
 10
-0.5
 20
0.0
 30
0.0
 11
-1.0
 21
0.0
 31
0.0
  0
ENDBLK
  5
33
330
2F
100
AcDbEntity
  8
0
100
AcDbBlockEnd
  0
BLOCK
  5
8573
330
8572
100
AcDbEntity
  8
0
100
AcDbBlockBegin
  2
*D30
 70
     1
 10
0.0
 20
0.0
 30
0.0
  3
*D30
  1

  0
LINE
  5
8678
330
8572
100
AcDbEntity
  8
寸法線
 62
     0
370
    -2
100
AcDbLine
 10
384.5327799032712
 20
535.9997678365468
 30
0.0
 11
335.0327799032712
 21
535.9997678365468
 31
0.0
  0
LINE
  5
8679
330
8572
100
AcDbEntity
  8
寸法線
 62
     0
370
    -2
100
AcDbLine
 10
384.5327799032712
 20
175.9997678365469
 30
0.0
 11
335.0327799032712
 21
175.9997678365469
 31
0.0
  0
LINE
  5
867A
330
8572
100
AcDbEntity
  8
寸法線
 62
     0
370
    -2
100
AcDbLine
 10
335.0327799032712
 20
535.9997678365468
 30
0.0
 11
335.0327799032712
 21
175.9997678365469
 31
0.0
  0
INSERT
  5
867B
330
8572
100
AcDbEntity
  8
寸法線
 62
     0
370
    -2
100
AcDbBlockReference
  2
_DotSmall
 10
335.0327799032712
 20
535.9997678365468
 30
0.0
 41
19.5
 42
19.5
 43
19.5
 50
90.0
  0
INSERT
  5
867C
330
8572
100
AcDbEntity
  8
寸法線
 62
     0
370
    -2
100
AcDbBlockReference
  2
_DotSmall
 10
335.0327799032712
 20
175.9997678365469
 30
0.0
 41
19.5
 42
19.5
 43
19.5
 50
270.0
  0
MTEXT
  5
867D
330
8572
100
AcDbEntity
  8
寸法線
 62
     7
100
AcDbMText
 10
324.2827799032711
 20
355.999767836547
 30
0.0
 40
12.5
 41
0.0
 71
     5
 72
     1
  1
360
 11
0.0000000000000001
 21
1.0
 31
0.0
 73
     1
 44
1.0
1001
ACAD
1000
MTEXTBEGIN
1070
    73
1070
     1
1070
    44
1040
1.0
1070
    74
1070
     0
1000
MTEXTEND
  0
POINT
  5
867E
330
8572
100
AcDbEntity
  8
Defpoints
 62
     0
100
AcDbPoint
 10
395.0327799032712
 20
535.9997678365468
 30
0.0
  0
POINT
  5
867F
330
8572
100
AcDbEntity
  8
Defpoints
 62
     0
100
AcDbPoint
 10
395.0327799032712
 20
175.9997678365469
 30
0.0
  0
POINT
  5
8680
330
8572
100
AcDbEntity
  8
Defpoints
 62
     0
100
AcDbPoint
 10
335.0327799032712
 20
175.9997678365469
 30
0.0
  0
ENDBLK
  5
8574
330
8572
100
AcDbEntity
  8
0
100
AcDbBlockEnd
  0
BLOCK
  5
857F
330
857E
100
AcDbEntity
  8
0
100
AcDbBlockBegin
  2
*D31
 70
     1
 10
0.0
 20
0.0
 30
0.0
  3
*D31
  1

  0
LINE
  5
866F
330
857E
100
AcDbEntity
  8
寸法線
 62
     0
370
    -2
100
AcDbLine
 10
384.5327799032712
 20
809.4923748269152
 30
0.0
 11
335.0327799032712
 21
809.4923748269152
 31
0.0
  0
LINE
  5
8670
330
857E
100
AcDbEntity
  8
寸法線
 62
     0
370
    -2
100
AcDbLine
 10
452.0327799032711
 20
656.4923748269152
 30
0.0
 11
335.0327799032712
 21
656.4923748269152
 31
0.0
  0
LINE
  5
8671
330
857E
100
AcDbEntity
  8
寸法線
 62
     0
370
    -2
100
AcDbLine
 10
335.0327799032712
 20
809.4923748269152
 30
0.0
 11
335.0327799032712
 21
656.4923748269152
 31
0.0
  0
INSERT
  5
8672
330
857E
100
AcDbEntity
  8
寸法線
 62
     0
370
    -2
100
AcDbBlockReference
  2
_DotSmall
 10
335.0327799032712
 20
809.4923748269152
 30
0.0
 41
19.5
 42
19.5
 43
19.5
 50
90.0
  0
INSERT
  5
8673
330
857E
100
AcDbEntity
  8
寸法線
 62
     0
370
    -2
100
AcDbBlockReference
  2
_DotSmall
 10
335.0327799032712
 20
656.4923748269152
 30
0.0
 41
19.5
 42
19.5
 43
19.5
 50
270.0
  0
MTEXT
  5
8674
330
857E
100
AcDbEntity
  8
寸法線
 62
     7
100
AcDbMText
 10
324.282779903271
 20
732.9923748269153
 30
0.0
 40
12.5
 41
0.0
 71
     5
 72
     1
  1
153
 11
0.0000000000000001
 21
1.0
 31
0.0
 73
     1
 44
1.0
1001
ACAD
1000
MTEXTBEGIN
1070
    73
1070
     1
1070
    44
1040
1.0
1070
    74
1070
     0
1000
MTEXTEND
  0
POINT
  5
8675
330
857E
100
AcDbEntity
  8
Defpoints
 62
     0
100
AcDbPoint
 10
395.0327799032712
 20
809.4923748269152
 30
0.0
  0
POINT
  5
8676
330
857E
100
AcDbEntity
  8
Defpoints
 62
     0
100
AcDbPoint
 10
462.5327799032711
 20
656.4923748269152
 30
0.0
  0
POINT
  5
8677
330
857E
100
AcDbEntity
  8
Defpoints
 62
     0
100
AcDbPoint
 10
335.0327799032712
 20
656.4923748269152
 30
0.0
  0
ENDBLK
  5
8580
330
857E
100
AcDbEntity
  8
0
100
AcDbBlockEnd
  0
BLOCK
  5
858B
330
858A
100
AcDbEntity
  8
0
100
AcDbBlockBegin
  2
*D32
 70
     1
 10
0.0
 20
0.0
 30
0.0
  3
*D32
  1

  0
LINE
  5
8666
330
858A
100
AcDbEntity
  8
寸法線
 62
     0
370
    -2
100
AcDbLine
 10
395.0327799032712
 20
803.9923748269153
 30
0.0
 11
395.0327799032712
 21
869.4923748269152
 31
0.0
  0
LINE
  5
8667
330
858A
100
AcDbEntity
  8
寸法線
 62
     0
370
    -2
100
AcDbLine
 10
530.0327799032711
 20
803.9923748269153
 30
0.0
 11
530.0327799032711
 21
869.4923748269152
 31
0.0
  0
LINE
  5
8668
330
858A
100
AcDbEntity
  8
寸法線
 62
     0
370
    -2
100
AcDbLine
 10
395.0327799032712
 20
869.4923748269152
 30
0.0
 11
530.0327799032711
 21
869.4923748269152
 31
0.0
  0
INSERT
  5
8669
330
858A
100
AcDbEntity
  8
寸法線
 62
     0
370
    -2
100
AcDbBlockReference
  2
_DotSmall
 10
395.0327799032712
 20
869.4923748269152
 30
0.0
 41
19.5
 42
19.5
 43
19.5
 50
180.0
  0
INSERT
  5
866A
330
858A
100
AcDbEntity
  8
寸法線
 62
     0
370
    -2
100
AcDbBlockReference
  2
_DotSmall
 10
530.0327799032711
 20
869.4923748269152
 30
0.0
 41
19.5
 42
19.5
 43
19.5
  0
MTEXT
  5
866B
330
858A
100
AcDbEntity
  8
寸法線
 62
     7
100
AcDbMText
 10
462.5327799032711
 20
880.2423748269152
 30
0.0
 40
12.5
 41
0.0
 71
     5
 72
     1
  1
135
 73
     1
 44
1.0
1001
ACAD
1000
MTEXTBEGIN
1070
    73
1070
     1
1070
    44
1040
1.0
1070
    74
1070
     0
1000
MTEXTEND
  0
POINT
  5
866C
330
858A
100
AcDbEntity
  8
Defpoints
 62
     0
100
AcDbPoint
 10
395.0327799032712
 20
793.4923748269152
 30
0.0
  0
POINT
  5
866D
330
858A
100
AcDbEntity
  8
Defpoints
 62
     0
100
AcDbPoint
 10
530.0327799032711
 20
793.4923748269152
 30
0.0
  0
POINT
  5
866E
330
858A
100
AcDbEntity
  8
Defpoints
 62
     0
100
AcDbPoint
 10
530.0327799032711
 20
869.4923748269152
 30
0.0
  0
ENDBLK
  5
858C
330
858A
100
AcDbEntity
  8
0
100
AcDbBlockEnd
  0
BLOCK
  5
8597
330
8596
100
AcDbEntity
  8
0
100
AcDbBlockBegin
  2
*D33
 70
     1
 10
0.0
 20
0.0
 30
0.0
  3
*D33
  1

  0
LINE
  5
865D
330
8596
100
AcDbEntity
  8
寸法線
 62
     0
370
    -2
100
AcDbLine
 10
540.5327799032711
 20
809.4923748269152
 30
0.0
 11
590.0327799032712
 21
809.4923748269152
 31
0.0
  0
LINE
  5
865E
330
8596
100
AcDbEntity
  8
寸法線
 62
     0
370
    -2
100
AcDbLine
 10
473.0327799032711
 20
676.4923748269152
 30
0.0
 11
590.0327799032711
 21
676.4923748269152
 31
0.0
  0
LINE
  5
865F
330
8596
100
AcDbEntity
  8
寸法線
 62
     0
370
    -2
100
AcDbLine
 10
590.0327799032712
 20
809.4923748269152
 30
0.0
 11
590.0327799032711
 21
676.4923748269152
 31
0.0
  0
INSERT
  5
8660
330
8596
100
AcDbEntity
  8
寸法線
 62
     0
370
    -2
100
AcDbBlockReference
  2
_DotSmall
 10
590.0327799032712
 20
809.4923748269152
 30
0.0
 41
19.5
 42
19.5
 43
19.5
 50
90.0
  0
INSERT
  5
8661
330
8596
100
AcDbEntity
  8
寸法線
 62
     0
370
    -2
100
AcDbBlockReference
  2
_DotSmall
 10
590.0327799032711
 20
676.4923748269152
 30
0.0
 41
19.5
 42
19.5
 43
19.5
 50
270.0
  0
MTEXT
  5
8662
330
8596
100
AcDbEntity
  8
寸法線
 62
     7
100
AcDbMText
 10
579.282779903271
 20
742.9923748269153
 30
0.0
 40
12.5
 41
0.0
 71
     5
 72
     1
  1
133
 11
0.0000000000000001
 21
1.0
 31
0.0
 73
     1
 44
1.0
1001
ACAD
1000
MTEXTBEGIN
1070
    73
1070
     1
1070
    44
1040
1.0
1070
    74
1070
     0
1000
MTEXTEND
  0
POINT
  5
8663
330
8596
100
AcDbEntity
  8
Defpoints
 62
     0
100
AcDbPoint
 10
530.0327799032711
 20
809.4923748269152
 30
0.0
  0
POINT
  5
8664
330
8596
100
AcDbEntity
  8
Defpoints
 62
     0
100
AcDbPoint
 10
462.5327799032711
 20
676.4923748269152
 30
0.0
  0
POINT
  5
8665
330
8596
100
AcDbEntity
  8
Defpoints
 62
     0
100
AcDbPoint
 10
590.0327799032711
 20
676.4923748269152
 30
0.0
  0
ENDBLK
  5
8598
330
8596
100
AcDbEntity
  8
0
100
AcDbBlockEnd
  0
BLOCK
  5
85A3
330
85A2
100
AcDbEntity
  8
0
100
AcDbBlockBegin
  2
*D34
 70
     1
 10
0.0
 20
0.0
 30
0.0
  3
*D34
  1

  0
LINE
  5
8653
330
85A2
100
AcDbEntity
  8
寸法線
 62
     0
370
    -2
100
AcDbLine
 10
985.5535421233581
 20
175.4997678365469
 30
0.0
 11
985.5535421233581
 21
115.9997678365469
 31
0.0
  0
LINE
  5
8654
330
85A2
100
AcDbEntity
  8
寸法線
 62
     0
370
    -2
100
AcDbLine
 10
1002.553542123358
 20
175.4997678365469
 30
0.0
 11
1002.553542123358
 21
115.9997678365469
 31
0.0
  0
LINE
  5
8655
330
85A2
100
AcDbEntity
  8
寸法線
 62
     0
370
    -2
100
AcDbLine
 10
985.5535421233581
 20
115.9997678365469
 30
0.0
 11
1002.553542123358
 21
115.9997678365469
 31
0.0
  0
LINE
  5
8656
330
85A2
100
AcDbEntity
  8
寸法線
 62
     0
370
    -2
100
AcDbLine
 10
1002.553542123358
 20
115.9997678365469
 30
0.0
 11
1046.181383032449
 21
115.9997678365469
 31
0.0
  0
INSERT
  5
8657
330
85A2
100
AcDbEntity
  8
寸法線
 62
     0
370
    -2
100
AcDbBlockReference
  2
_DotSmall
 10
985.5535421233581
 20
115.9997678365469
 30
0.0
 41
19.5
 42
19.5
 43
19.5
 50
180.0
  0
INSERT
  5
8658
330
85A2
100
AcDbEntity
  8
寸法線
 62
     0
370
    -2
100
AcDbBlockReference
  2
_DotSmall
 10
1002.553542123358
 20
115.9997678365469
 30
0.0
 41
19.5
 42
19.5
 43
19.5
  0
MTEXT
  5
8659
330
85A2
100
AcDbEntity
  8
寸法線
 62
     7
100
AcDbMText
 10
1034.117462577903
 20
126.7497678365469
 30
0.0
 40
12.5
 41
0.0
 71
     5
 72
     1
  1
17
 73
     1
 44
1.0
1001
ACAD
1000
MTEXTBEGIN
1070
    73
1070
     1
1070
    44
1040
1.0
1070
    74
1070
     0
1000
MTEXTEND
  0
POINT
  5
865A
330
85A2
100
AcDbEntity
  8
Defpoints
 62
     0
100
AcDbPoint
 10
985.5535421233581
 20
185.9997678365468
 30
0.0
  0
POINT
  5
865B
330
85A2
100
AcDbEntity
  8
Defpoints
 62
     0
100
AcDbPoint
 10
1002.553542123358
 20
185.9997678365468
 30
0.0
  0
POINT
  5
865C
330
85A2
100
AcDbEntity
  8
Defpoints
 62
     0
100
AcDbPoint
 10
1002.553542123358
 20
115.9997678365469
 30
0.0
  0
ENDBLK
  5
85A4
330
85A2
100
AcDbEntity
  8
0
100
AcDbBlockEnd
  0
BLOCK
  5
85AF
330
85AE
100
AcDbEntity
  8
0
100
AcDbBlockBegin
  2
*D35
 70
     1
 10
0.0
 20
0.0
 30
0.0
  3
*D35
  1

  0
LINE
  5
864A
330
85AE
100
AcDbEntity
  8
寸法線
 62
     0
370
    -2
100
AcDbLine
 10
985.5535421233581
 20
175.4997678365469
 30
0.0
 11
985.5535421233581
 21
115.9997678365469
 31
0.0
  0
LINE
  5
864B
330
85AE
100
AcDbEntity
  8
寸法線
 62
     0
370
    -2
100
AcDbLine
 10
849.5535421233579
 20
321.1472256783713
 30
0.0
 11
849.5535421233579
 21
115.9997678365469
 31
0.0
  0
LINE
  5
864C
330
85AE
100
AcDbEntity
  8
寸法線
 62
     0
370
    -2
100
AcDbLine
 10
985.5535421233581
 20
115.9997678365469
 30
0.0
 11
849.5535421233579
 21
115.9997678365469
 31
0.0
  0
INSERT
  5
864D
330
85AE
100
AcDbEntity
  8
寸法線
 62
     0
370
    -2
100
AcDbBlockReference
  2
_DotSmall
 10
985.5535421233581
 20
115.9997678365469
 30
0.0
 41
19.5
 42
19.5
 43
19.5
  0
INSERT
  5
864E
330
85AE
100
AcDbEntity
  8
寸法線
 62
     0
370
    -2
100
AcDbBlockReference
  2
_DotSmall
 10
849.5535421233579
 20
115.9997678365469
 30
0.0
 41
19.5
 42
19.5
 43
19.5
 50
180.0
  0
MTEXT
  5
864F
330
85AE
100
AcDbEntity
  8
寸法線
 62
     7
100
AcDbMText
 10
917.5535421233581
 20
126.7497678365469
 30
0.0
 40
12.5
 41
0.0
 71
     5
 72
     1
  1
136
 73
     1
 44
1.0
1001
ACAD
1000
MTEXTBEGIN
1070
    73
1070
     1
1070
    44
1040
1.0
1070
    74
1070
     0
1000
MTEXTEND
  0
POINT
  5
8650
330
85AE
100
AcDbEntity
  8
Defpoints
 62
     0
100
AcDbPoint
 10
985.5535421233581
 20
185.9997678365468
 30
0.0
  0
POINT
  5
8651
330
85AE
100
AcDbEntity
  8
Defpoints
 62
     0
100
AcDbPoint
 10
849.5535421233579
 20
331.6472256783713
 30
0.0
  0
POINT
  5
8652
330
85AE
100
AcDbEntity
  8
Defpoints
 62
     0
100
AcDbPoint
 10
849.5535421233579
 20
115.9997678365469
 30
0.0
  0
ENDBLK
  5
85B0
330
85AE
100
AcDbEntity
  8
0
100
AcDbBlockEnd
  0
BLOCK
  5
85BB
330
85BA
100
AcDbEntity
  8
0
100
AcDbBlockBegin
  2
*D36
 70
     1
 10
0.0
 20
0.0
 30
0.0
  3
*D36
  1

  0
LINE
  5
8641
330
85BA
100
AcDbEntity
  8
寸法線
 62
     0
370
    -2
100
AcDbLine
 10
997.9980284962248
 20
334.9997678365468
 30
0.0
 11
1062.553542123358
 21
334.9997678365468
 31
0.0
  0
LINE
  5
8642
330
85BA
100
AcDbEntity
  8
寸法線
 62
     0
370
    -2
100
AcDbLine
 10
986.053542123358
 20
175.9997678365469
 30
0.0
 11
1062.553542123358
 21
175.9997678365469
 31
0.0
  0
LINE
  5
8643
330
85BA
100
AcDbEntity
  8
寸法線
 62
     0
370
    -2
100
AcDbLine
 10
1062.553542123358
 20
334.9997678365468
 30
0.0
 11
1062.553542123358
 21
175.9997678365469
 31
0.0
  0
INSERT
  5
8644
330
85BA
100
AcDbEntity
  8
寸法線
 62
     0
370
    -2
100
AcDbBlockReference
  2
_DotSmall
 10
1062.553542123358
 20
334.9997678365468
 30
0.0
 41
19.5
 42
19.5
 43
19.5
 50
90.0
  0
INSERT
  5
8645
330
85BA
100
AcDbEntity
  8
寸法線
 62
     0
370
    -2
100
AcDbBlockReference
  2
_DotSmall
 10
1062.553542123358
 20
175.9997678365469
 30
0.0
 41
19.5
 42
19.5
 43
19.5
 50
270.0
  0
MTEXT
  5
8646
330
85BA
100
AcDbEntity
  8
寸法線
 62
     7
100
AcDbMText
 10
1051.803542123358
 20
255.499767836547
 30
0.0
 40
12.5
 41
0.0
 71
     5
 72
     1
  1
159
 11
0.0000000000000001
 21
1.0
 31
0.0
 73
     1
 44
1.0
1001
ACAD
1000
MTEXTBEGIN
1070
    73
1070
     1
1070
    44
1040
1.0
1070
    74
1070
     0
1000
MTEXTEND
  0
POINT
  5
8647
330
85BA
100
AcDbEntity
  8
Defpoints
 62
     0
100
AcDbPoint
 10
987.4980284962248
 20
334.9997678365468
 30
0.0
  0
POINT
  5
8648
330
85BA
100
AcDbEntity
  8
Defpoints
 62
     0
100
AcDbPoint
 10
975.5535421233581
 20
175.9997678365469
 30
0.0
  0
POINT
  5
8649
330
85BA
100
AcDbEntity
  8
Defpoints
 62
     0
100
AcDbPoint
 10
1062.553542123358
 20
175.9997678365469
 30
0.0
  0
ENDBLK
  5
85BC
330
85BA
100
AcDbEntity
  8
0
100
AcDbBlockEnd
  0
BLOCK
  5
85C7
330
85C6
100
AcDbEntity
  8
0
100
AcDbBlockBegin
  2
*D37
 70
     1
 10
0.0
 20
0.0
 30
0.0
  3
*D37
  1

  0
LINE
  5
8638
330
85C6
100
AcDbEntity
  8
寸法線
 62
     0
370
    -2
100
AcDbLine
 10
399.0327799032707
 20
186.4997678365467
 30
0.0
 11
399.0327799032707
 21
115.9997678365469
 31
0.0
  0
LINE
  5
8639
330
85C6
100
AcDbEntity
  8
寸法線
 62
     0
370
    -2
100
AcDbLine
 10
526.0327799032706
 20
186.4997678365467
 30
0.0
 11
526.0327799032706
 21
115.9997678365469
 31
0.0
  0
LINE
  5
863A
330
85C6
100
AcDbEntity
  8
寸法線
 62
     0
370
    -2
100
AcDbLine
 10
399.0327799032707
 20
115.9997678365469
 30
0.0
 11
526.0327799032706
 21
115.9997678365469
 31
0.0
  0
INSERT
  5
863B
330
85C6
100
AcDbEntity
  8
寸法線
 62
     0
370
    -2
100
AcDbBlockReference
  2
_DotSmall
 10
399.0327799032707
 20
115.9997678365469
 30
0.0
 41
19.5
 42
19.5
 43
19.5
 50
180.0
  0
INSERT
  5
863C
330
85C6
100
AcDbEntity
  8
寸法線
 62
     0
370
    -2
100
AcDbBlockReference
  2
_DotSmall
 10
526.0327799032706
 20
115.9997678365469
 30
0.0
 41
19.5
 42
19.5
 43
19.5
  0
MTEXT
  5
863D
330
85C6
100
AcDbEntity
  8
寸法線
 62
     7
100
AcDbMText
 10
462.5327799032707
 20
128.6318701092741
 30
0.0
 40
12.5
 41
0.0
 71
     5
 72
     1
  1
\U+03C6127
 73
     1
 44
1.0
1001
ACAD
1000
MTEXTBEGIN
1070
    73
1070
     1
1070
    44
1040
1.0
1070
    74
1070
     0
1000
MTEXTEND
  0
POINT
  5
863E
330
85C6
100
AcDbEntity
  8
Defpoints
 62
     0
100
AcDbPoint
 10
399.0327799032707
 20
196.9997678365468
 30
0.0
  0
POINT
  5
863F
330
85C6
100
AcDbEntity
  8
Defpoints
 62
     0
100
AcDbPoint
 10
526.0327799032706
 20
196.9997678365468
 30
0.0
  0
POINT
  5
8640
330
85C6
100
AcDbEntity
  8
Defpoints
 62
     0
100
AcDbPoint
 10
526.0327799032706
 20
115.9997678365469
 30
0.0
  0
ENDBLK
  5
85C8
330
85C6
100
AcDbEntity
  8
0
100
AcDbBlockEnd
  0
BLOCK
  5
85D3
330
85D2
100
AcDbEntity
  8
0
100
AcDbBlockBegin
  2
*D38
 70
     1
 10
0.0
 20
0.0
 30
0.0
  3
*D38
  1

  0
LINE
  5
862F
330
85D2
100
AcDbEntity
  8
寸法線
 62
     0
370
    -2
100
AcDbLine
 10
535.0327799032711
 20
718.4923748269152
 30
0.0
 11
535.0327799032711
 21
596.4923748269152
 31
0.0
  0
LINE
  5
8630
330
85D2
100
AcDbEntity
  8
寸法線
 62
     0
370
    -2
100
AcDbLine
 10
390.0327799032711
 20
718.4398326687396
 30
0.0
 11
390.0327799032711
 21
596.4923748269152
 31
0.0
  0
LINE
  5
8631
330
85D2
100
AcDbEntity
  8
寸法線
 62
     0
370
    -2
100
AcDbLine
 10
535.0327799032711
 20
596.4923748269152
 30
0.0
 11
390.0327799032711
 21
596.4923748269152
 31
0.0
  0
INSERT
  5
8632
330
85D2
100
AcDbEntity
  8
寸法線
 62
     0
370
    -2
100
AcDbBlockReference
  2
_DotSmall
 10
535.0327799032711
 20
596.4923748269152
 30
0.0
 41
19.5
 42
19.5
 43
19.5
  0
INSERT
  5
8633
330
85D2
100
AcDbEntity
  8
寸法線
 62
     0
370
    -2
100
AcDbBlockReference
  2
_DotSmall
 10
390.0327799032711
 20
596.4923748269152
 30
0.0
 41
19.5
 42
19.5
 43
19.5
 50
180.0
  0
MTEXT
  5
8634
330
85D2
100
AcDbEntity
  8
寸法線
 62
     7
100
AcDbMText
 10
462.5327799032711
 20
609.1244770996425
 30
0.0
 40
12.5
 41
0.0
 71
     5
 72
     1
  1
\U+03C6145
 73
     1
 44
1.0
1001
ACAD
1000
MTEXTBEGIN
1070
    73
1070
     1
1070
    44
1040
1.0
1070
    74
1070
     0
1000
MTEXTEND
  0
POINT
  5
8635
330
85D2
100
AcDbEntity
  8
Defpoints
 62
     0
100
AcDbPoint
 10
535.0327799032711
 20
728.9923748269152
 30
0.0
  0
POINT
  5
8636
330
85D2
100
AcDbEntity
  8
Defpoints
 62
     0
100
AcDbPoint
 10
390.0327799032711
 20
728.9398326687396
 30
0.0
  0
POINT
  5
8637
330
85D2
100
AcDbEntity
  8
Defpoints
 62
     0
100
AcDbPoint
 10
390.0327799032711
 20
596.4923748269152
 30
0.0
  0
ENDBLK
  5
85D4
330
85D2
100
AcDbEntity
  8
0
100
AcDbBlockEnd
  0
ENDSEC
  0
SECTION
  2
ENTITIES
  0
MTEXT
  5
6F7E
330
1F
100
AcDbEntity
  8
図面枠
 62
     0
100
AcDbMText
 10
242.4999999999977
 20
59.99999999999545
 30
0.0
 40
14.99999999999981
 41
0.0
 71
     4
 72
     5
  1
ﾚｰﾘﾝｸﾞｼｽﾃﾑ　LINERO　調理用具ﾎﾙﾀﾞｰ　大
 73
     1
 44
1.0
1001
ACAD
1000
MTEXTBEGIN
1070
    73
1070
     1
1070
    44
1040
1.0
1070
    74
1070
     0
1000
MTEXTEND
  0
MTEXT
  5
6F82
330
1F
100
AcDbEntity
  8
図面枠
 62
     0
100
AcDbMText
 10
242.4999999999977
 20
19.99999999999545
 30
0.0
 40
14.99999999999981
 41
0.0
 71
     4
 72
     5
  1
Art.No. 521.19.311
 73
     1
 44
1.0
1001
ACAD
1000
MTEXTBEGIN
1070
    73
1070
     1
1070
    44
1040
1.0
1070
    74
1070
     0
1000
MTEXTEND
  0
LINE
  5
848B
330
1F
100
AcDbEntity
  8
実線  太
100
AcDbLine
 10
975.5535421233581
 20
175.9997678365469
 30
0.0
 11
872.553542123358
 21
175.9997678365469
 31
0.0
  0
LINE
  5
848C
330
1F
100
AcDbEntity
  8
実線  太
100
AcDbLine
 10
975.5535421233581
 20
181.9997678365469
 30
0.0
 11
872.553542123358
 21
181.9997678365469
 31
0.0
  0
ARC
  5
848D
330
1F
100
AcDbEntity
  8
実線  太
100
AcDbCircle
 10
872.553542123358
 20
178.9997678365469
 30
0.0
 40
3.0
100
AcDbArc
 50
90.0
 51
270.0
  0
ARC
  5
848E
330
1F
100
AcDbEntity
  8
実線  太
100
AcDbCircle
 10
975.5535421233581
 20
185.9997678365468
 30
0.0
 40
10.0
100
AcDbArc
 50
270.0
 51
0.0
  0
ARC
  5
848F
330
1F
100
AcDbEntity
  8
実線  太
100
AcDbCircle
 10
975.5535421233581
 20
185.9997678365468
 30
0.0
 40
4.0
100
AcDbArc
 50
270.0
 51
0.0
  0
LINE
  5
8490
330
1F
100
AcDbEntity
  8
破線
 48
0.1
100
AcDbLine
 10
986.553542123358
 20
188.9997678365469
 30
0.0
 11
1000.053542123358
 21
188.9997678365469
 31
0.0
  0
LINE
  5
8491
330
1F
100
AcDbEntity
  8
破線
 48
0.1
100
AcDbLine
 10
986.553542123358
 20
182.9997678365469
 30
0.0
 11
1000.053542123358
 21
182.9997678365469
 31
0.0
  0
ARC
  5
8492
330
1F
100
AcDbEntity
  8
実線  太
100
AcDbCircle
 10
996.553542123358
 20
185.9997678365468
 30
0.0
 40
6.0
100
AcDbArc
 50
270.0
 51
90.0
  0
LINE
  5
8493
330
1F
100
AcDbEntity
  8
実線  太
100
AcDbLine
 10
986.553542123358
 20
189.4997678365468
 30
0.0
 11
996.553542123358
 21
191.9997678365469
 31
0.0
  0
LINE
  5
8494
330
1F
100
AcDbEntity
  8
実線  細
100
AcDbLine
 10
996.553542123358
 20
191.9997678365469
 30
0.0
 11
996.553542123358
 21
179.9997678365468
 31
0.0
  0
LINE
  5
8495
330
1F
100
AcDbEntity
  8
実線  太
100
AcDbLine
 10
986.553542123358
 20
182.4997678365469
 30
0.0
 11
996.553542123358
 21
179.9997678365468
 31
0.0
  0
LINE
  5
8496
330
1F
100
AcDbEntity
  8
実線  太
100
AcDbLine
 10
986.553542123358
 20
188.9997678365469
 30
0.0
 11
985.5535421233581
 21
188.9997678365469
 31
0.0
  0
LINE
  5
8497
330
1F
100
AcDbEntity
  8
実線  太
100
AcDbLine
 10
986.553542123358
 20
182.9997678365469
 30
0.0
 11
985.0929341375277
 21
182.9997678365469
 31
0.0
  0
LINE
  5
8498
330
1F
100
AcDbEntity
  8
実線  太
100
AcDbLine
 10
986.553542123358
 20
182.4997678365469
 30
0.0
 11
986.553542123358
 21
189.4997678365468
 31
0.0
  0
LINE
  5
8499
330
1F
100
AcDbEntity
  8
破線
 48
0.1
100
AcDbLine
 10
1000.053542123358
 20
188.9997678365469
 30
0.0
 11
1000.053542123358
 21
182.9997678365469
 31
0.0
  0
ARC
  5
849A
330
1F
100
AcDbEntity
  8
実線  太
100
AcDbCircle
 10
958.5535421233581
 20
520.9472256783713
 30
0.0
 40
15.0
100
AcDbArc
 50
9.594068226858384
 51
180.0
  0
ARC
  5
849B
330
1F
100
AcDbEntity
  8
実線  太
100
AcDbCircle
 10
961.053542123358
 20
501.1959630199005
 30
0.0
 40
17.5
100
AcDbArc
 50
180.0
 51
224.9999999999908
  0
LINE
  5
849C
330
1F
100
AcDbEntity
  8
実線  太
100
AcDbLine
 10
943.5535421233581
 20
520.9472256783713
 30
0.0
 11
943.5535421233581
 21
501.1959630199005
 31
0.0
  0
ARC
  5
849D
330
1F
100
AcDbEntity
  8
実線  太
100
AcDbCircle
 10
961.053542123358
 20
501.1959630199005
 30
0.0
 40
11.5
100
AcDbArc
 50
180.0
 51
224.9999999999908
  0
ARC
  5
849E
330
1F
100
AcDbEntity
  8
実線  太
100
AcDbCircle
 10
968.053542123358
 20
453.1837697110806
 30
0.0
 40
17.5
100
AcDbArc
 50
0.0
 51
44.99999999999078
  0
LINE
  5
849F
330
1F
100
AcDbEntity
  8
実線  太
100
AcDbLine
 10
980.4279107941228
 20
465.5581383818453
 30
0.0
 11
952.9218141397123
 21
493.064235036255
 31
0.0
  0
LINE
  5
84A0
330
1F
100
AcDbEntity
  8
実線  太
100
AcDbLine
 10
976.1852701070029
 20
461.3154976947259
 30
0.0
 11
948.6791734525931
 21
488.8215943491359
 31
0.0
  0
ARC
  5
84A1
330
1F
100
AcDbEntity
  8
実線  太
100
AcDbCircle
 10
968.053542123358
 20
453.1837697110806
 30
0.0
 40
11.5
100
AcDbArc
 50
0.0
 51
44.99999999999078
  0
ARC
  5
84A2
330
1F
100
AcDbEntity
  8
実線  太
100
AcDbCircle
 10
958.5535421233581
 20
520.9472256783713
 30
0.0
 40
9.0
100
AcDbArc
 50
16.12762021316489
 51
180.0
  0
LINE
  5
84A3
330
1F
100
AcDbEntity
  8
実線  太
100
AcDbLine
 10
949.5535421233581
 20
520.9472256783713
 30
0.0
 11
949.5535421233581
 21
501.1959630199005
 31
0.0
  0
LINE
  5
84A4
330
1F
100
AcDbEntity
  8
実線  太
100
AcDbLine
 10
974.5535421233581
 20
523.4472256783712
 30
0.0
 11
974.5535421233581
 21
511.1543324595577
 31
0.0
  0
LINE
  5
84A5
330
1F
100
AcDbEntity
  8
破線
 48
0.1
100
AcDbLine
 10
973.553542123358
 20
520.9472256783713
 30
0.0
 11
973.553542123358
 21
510.4472256783712
 31
0.0
  0
LINE
  5
84A6
330
1F
100
AcDbEntity
  8
実線  太
100
AcDbLine
 10
966.5535421233581
 20
523.4472256783712
 30
0.0
 11
966.5535421233581
 21
511.1543324595577
 31
0.0
  0
LINE
  5
84A7
330
1F
100
AcDbEntity
  8
破線
 48
0.1
100
AcDbLine
 10
967.5535421233581
 20
520.9472256783713
 30
0.0
 11
967.5535421233581
 21
510.4472256783712
 31
0.0
  0
LINE
  5
84A8
330
1F
100
AcDbEntity
  8
実線  太
100
AcDbLine
 10
971.6142022786243
 20
507.3865655065914
 30
0.0
 11
973.9677556857314
 21
509.7401188971846
 31
0.0
  0
LINE
  5
84A9
330
1F
100
AcDbEntity
  8
破線
 48
0.1
100
AcDbLine
 10
967.5535421233581
 20
510.4472256783712
 30
0.0
 11
973.553542123358
 21
510.4472256783712
 31
0.0
  0
LINE
  5
84AA
330
1F
100
AcDbEntity
  8
実線  太
100
AcDbLine
 10
969.4928819350643
 20
507.3865655065914
 30
0.0
 11
967.1393285609847
 21
509.7401188971846
 31
0.0
  0
ARC
  5
84AB
330
1F
100
AcDbEntity
  8
実線  太
100
AcDbCircle
 10
970.5535421068443
 20
508.4472256783713
 30
0.0
 40
1.5
100
AcDbArc
 50
224.9999999999908
 51
315.0000000000092
  0
ARC
  5
84AC
330
1F
100
AcDbEntity
  8
実線  太
100
AcDbCircle
 10
968.5535421233581
 20
511.1543324595577
 30
0.0
 40
2.0
100
AcDbArc
 50
179.9999999999935
 51
224.9999999999908
  0
ARC
  5
84AD
330
1F
100
AcDbEntity
  8
実線  太
100
AcDbCircle
 10
972.553542123358
 20
511.1543324595577
 30
0.0
 40
2.0
100
AcDbArc
 50
315.0000000000092
 51
0.0
  0
LINE
  5
84AE
330
1F
100
AcDbEntity
  8
実線  太
100
AcDbLine
 10
974.5535421233581
 20
523.4472256783712
 30
0.0
 11
966.5535421233581
 21
523.4472256783712
 31
0.0
  0
ARC
  5
84AF
330
1F
100
AcDbEntity
  8
破線
 48
0.1
100
AcDbCircle
 10
958.5535421233581
 20
520.9472256783713
 30
0.0
 40
9.0
100
AcDbArc
 50
0.0
 51
16.12762021316489
  0
ARC
  5
84B0
330
1F
100
AcDbEntity
  8
破線
 48
0.1
100
AcDbCircle
 10
958.5535421233581
 20
520.9472256783713
 30
0.0
 40
15.0
100
AcDbArc
 50
0.0
 51
9.594068226858384
  0
LINE
  5
84B1
330
1F
100
AcDbEntity
  8
実線  太
100
AcDbLine
 10
395.0327799032712
 20
175.9997678365469
 30
0.0
 11
530.0327799032711
 21
175.9997678365469
 31
0.0
  0
LINE
  5
84B2
330
1F
100
AcDbEntity
  8
実線  太
100
AcDbLine
 10
395.0327799032712
 20
181.9997678365469
 30
0.0
 11
530.0327799032711
 21
181.9997678365469
 31
0.0
  0
ARC
  5
84B3
330
1F
100
AcDbEntity
  8
実線  太
100
AcDbCircle
 10
395.0327799032712
 20
178.9997678365469
 30
0.0
 40
3.0
100
AcDbArc
 50
90.0
 51
270.0
  0
ARC
  5
84B4
330
1F
100
AcDbEntity
  8
実線  太
100
AcDbCircle
 10
395.0327799032712
 20
185.9997678365468
 30
0.0
 40
5.999999999999971
100
AcDbArc
 50
120.0000000000005
 51
239.9999999999995
  0
ARC
  5
84B5
330
1F
100
AcDbEntity
  8
実線  細
100
AcDbCircle
 10
395.0327799032712
 20
185.9997678365468
 30
0.0
 40
3.5
100
AcDbArc
 50
148.9972808661106
 51
211.0027191338893
  0
ARC
  5
84B6
330
1F
100
AcDbEntity
  8
実線  太
100
AcDbCircle
 10
395.0327799032712
 20
185.9997678365468
 30
0.0
 40
5.999999999999971
100
AcDbArc
 50
318.1896851042115
 51
59.99999999999946
  0
ARC
  5
84B7
330
1F
100
AcDbEntity
  8
実線  細
100
AcDbCircle
 10
395.0327799032712
 20
185.9997678365468
 30
0.0
 40
3.5
100
AcDbArc
 50
328.9972808661107
 51
31.00271913388935
  0
LINE
  5
84B8
330
1F
100
AcDbEntity
  8
実線  太
100
AcDbLine
 10
392.0327799032711
 20
178.9997678365469
 30
0.0
 11
392.0327799032711
 21
331.6997678365469
 31
0.0
  0
LINE
  5
84B9
330
1F
100
AcDbEntity
  8
実線  太
100
AcDbLine
 10
398.0327799032711
 20
181.9997678365469
 30
0.0
 11
398.0327799032711
 21
205.9997678365469
 31
0.0
  0
LINE
  5
84BA
330
1F
100
AcDbEntity
  8
実線  細
100
AcDbLine
 10
392.0327799032711
 20
460.9997678365468
 30
0.0
 11
398.0327799032711
 21
460.9997678365468
 31
0.0
  0
LINE
  5
84BB
330
1F
100
AcDbEntity
  8
実線  太
100
AcDbLine
 10
399.0327799032712
 20
523.9997678365468
 30
0.0
 11
399.0327799032712
 21
510.9997678365468
 31
0.0
  0
LINE
  5
84BC
330
1F
100
AcDbEntity
  8
実線  太
100
AcDbLine
 10
391.0327799032712
 20
523.9997678365468
 30
0.0
 11
391.0327799032712
 21
510.9997678365468
 31
0.0
  0
ARC
  5
84BD
330
1F
100
AcDbEntity
  8
実線  太
100
AcDbCircle
 10
395.0327799032712
 20
510.9997678365468
 30
0.0
 40
4.0
100
AcDbArc
 50
180.0
 51
221.4096221092697
  0
ARC
  5
84BE
330
1F
100
AcDbEntity
  8
実線  太
100
AcDbCircle
 10
395.0327799032712
 20
510.9997678365468
 30
0.0
 40
4.0
100
AcDbArc
 50
318.5903778907302
 51
0.0
  0
LINE
  5
84BF
330
1F
100
AcDbEntity
  8
実線  太
100
AcDbLine
 10
391.0327799032712
 20
523.9997678365468
 30
0.0
 11
392.0327799032711
 21
523.9997678365468
 31
0.0
  0
LINE
  5
84C0
330
1F
100
AcDbEntity
  8
実線  太
100
AcDbLine
 10
398.0327799032711
 20
523.9997678365468
 30
0.0
 11
399.0327799032712
 21
523.9997678365468
 31
0.0
  0
ARC
  5
84C1
330
1F
100
AcDbEntity
  8
実線  太
100
AcDbCircle
 10
395.0327799032712
 20
532.9997678365469
 30
0.0
 40
3.0
100
AcDbArc
 50
0.0
 51
180.0
  0
ARC
  5
84C2
330
1F
100
AcDbEntity
  8
実線  太
100
AcDbCircle
 10
395.0327799032712
 20
753.4923748269152
 30
0.0
 40
3.0
100
AcDbArc
 50
180.0
 51
0.0
  0
LINE
  5
84C3
330
1F
100
AcDbEntity
  8
実線  太
100
AcDbLine
 10
392.0327799032711
 20
753.4923748269152
 30
0.0
 11
392.0327799032711
 21
777.4923748269152
 31
0.0
  0
LINE
  5
84C4
330
1F
100
AcDbEntity
  8
実線  太
100
AcDbLine
 10
398.0327799032711
 20
753.4923748269152
 30
0.0
 11
398.0327799032711
 21
777.4923748269152
 31
0.0
  0
ARC
  5
84C5
330
1F
100
AcDbEntity
  8
実線  太
100
AcDbCircle
 10
530.0327799032711
 20
753.4923748269152
 30
0.0
 40
3.0
100
AcDbArc
 50
180.0
 51
0.0
  0
LINE
  5
84C6
330
1F
100
AcDbEntity
  8
実線  太
100
AcDbLine
 10
533.0327799032711
 20
753.4923748269152
 30
0.0
 11
533.0327799032711
 21
777.4923748269152
 31
0.0
  0
LINE
  5
84C7
330
1F
100
AcDbEntity
  8
実線  太
100
AcDbLine
 10
527.0327799032711
 20
753.4923748269152
 30
0.0
 11
527.0327799032711
 21
777.4923748269152
 31
0.0
  0
ARC
  5
84C8
330
1F
100
AcDbEntity
  8
実線  太
100
AcDbCircle
 10
395.0327799032712
 20
777.4923748269152
 30
0.0
 40
4.0
100
AcDbArc
 50
318.5903778907302
 51
221.4096221092697
  0
ARC
  5
84C9
330
1F
100
AcDbEntity
  8
実線  太
100
AcDbCircle
 10
395.0327799032712
 20
777.4923748269152
 30
0.0
 40
3.0
100
AcDbArc
 50
0.0
 51
180.0
  0
ARC
  5
84CA
330
1F
100
AcDbEntity
  8
実線  太
100
AcDbCircle
 10
530.0327799032711
 20
777.4923748269152
 30
0.0
 40
4.0
100
AcDbArc
 50
318.5903778907302
 51
221.4096221092697
  0
ARC
  5
84CB
330
1F
100
AcDbEntity
  8
実線  太
100
AcDbCircle
 10
530.0327799032711
 20
777.4923748269152
 30
0.0
 40
3.0
100
AcDbArc
 50
0.0
 51
180.0
  0
ARC
  5
84CC
330
1F
100
AcDbEntity
  8
実線  太
100
AcDbCircle
 10
395.0327799032712
 20
803.4923748269152
 30
0.0
 40
6.0
100
AcDbArc
 50
0.0
 51
180.0
  0
ARC
  5
84CD
330
1F
100
AcDbEntity
  8
実線  太
100
AcDbCircle
 10
395.0327799032712
 20
789.4923748269152
 30
0.0
 40
3.0
100
AcDbArc
 50
0.0
 51
180.0
  0
LINE
  5
84CE
330
1F
100
AcDbEntity
  8
破線
 48
0.1
100
AcDbLine
 10
392.0327799032711
 20
806.9923748269152
 30
0.0
 11
398.0327799032711
 21
806.9923748269152
 31
0.0
  0
LINE
  5
84CF
330
1F
100
AcDbEntity
  8
実線  細
100
AcDbLine
 10
389.0327799032712
 20
803.4923748269152
 30
0.0
 11
401.0327799032711
 21
803.4923748269152
 31
0.0
  0
LINE
  5
84D0
330
1F
100
AcDbEntity
  8
実線  太
100
AcDbLine
 10
398.5327799032711
 20
793.4923748269152
 30
0.0
 11
391.5327799032711
 21
793.4923748269152
 31
0.0
  0
LINE
  5
84D1
330
1F
100
AcDbEntity
  8
実線  細
100
AcDbLine
 10
398.0327799032711
 20
792.9923748269152
 30
0.0
 11
392.0327799032711
 21
792.9923748269152
 31
0.0
  0
LINE
  5
84D2
330
1F
100
AcDbEntity
  8
実線  太
100
AcDbLine
 10
392.0327799032711
 20
793.4923748269152
 30
0.0
 11
392.0327799032711
 21
792.9923748269152
 31
0.0
  0
LINE
  5
84D3
330
1F
100
AcDbEntity
  8
実線  太
100
AcDbLine
 10
392.0327799032711
 20
780.1381261379799
 30
0.0
 11
392.0327799032711
 21
789.4923748269152
 31
0.0
  0
LINE
  5
84D4
330
1F
100
AcDbEntity
  8
実線  太
100
AcDbLine
 10
392.0327799032711
 20
792.9923748269152
 30
0.0
 11
392.4990875614258
 21
791.9923748269152
 31
0.0
  0
LINE
  5
84D5
330
1F
100
AcDbEntity
  8
実線  太
100
AcDbLine
 10
393.3744675080934
 20
791.9923748269152
 30
0.0
 11
392.4990875614258
 21
791.9923748269152
 31
0.0
  0
LINE
  5
84D6
330
1F
100
AcDbEntity
  8
破線
 48
0.1
100
AcDbLine
 10
392.0327799032711
 20
793.4923748269152
 30
0.0
 11
392.0327799032711
 21
806.9923748269152
 31
0.0
  0
LINE
  5
84D7
330
1F
100
AcDbEntity
  8
実線  太
100
AcDbLine
 10
391.5327799032711
 20
793.4923748269152
 30
0.0
 11
389.0327799032712
 21
803.4923748269152
 31
0.0
  0
LINE
  5
84D8
330
1F
100
AcDbEntity
  8
実線  太
100
AcDbLine
 10
398.0327799032711
 20
793.4923748269152
 30
0.0
 11
398.0327799032711
 21
792.9923748269152
 31
0.0
  0
LINE
  5
84D9
330
1F
100
AcDbEntity
  8
実線  太
100
AcDbLine
 10
398.0327799032711
 20
780.1381261379798
 30
0.0
 11
398.0327799032711
 21
790.4923748269152
 31
0.0
  0
LINE
  5
84DA
330
1F
100
AcDbEntity
  8
実線  太
100
AcDbLine
 10
397.5664722451156
 20
791.9923748269152
 30
0.0
 11
396.6910922984489
 21
791.9923748269152
 31
0.0
  0
LINE
  5
84DB
330
1F
100
AcDbEntity
  8
実線  太
100
AcDbLine
 10
398.0327799032711
 20
792.9923748269152
 30
0.0
 11
397.5664722451156
 21
791.9923748269152
 31
0.0
  0
LINE
  5
84DC
330
1F
100
AcDbEntity
  8
破線
 48
0.1
100
AcDbLine
 10
398.0327799032711
 20
793.4923748269152
 30
0.0
 11
398.0327799032711
 21
806.9923748269152
 31
0.0
  0
LINE
  5
84DD
330
1F
100
AcDbEntity
  8
実線  太
100
AcDbLine
 10
398.5327799032711
 20
793.4923748269152
 30
0.0
 11
401.0327799032711
 21
803.4923748269152
 31
0.0
  0
ARC
  5
84DE
330
1F
100
AcDbEntity
  8
実線  太
100
AcDbCircle
 10
530.0327799032711
 20
803.4923748269152
 30
0.0
 40
6.0
100
AcDbArc
 50
0.0
 51
180.0
  0
LINE
  5
84DF
330
1F
100
AcDbEntity
  8
実線  太
100
AcDbLine
 10
527.0327799032711
 20
793.4923748269152
 30
0.0
 11
527.0327799032711
 21
792.9923748269152
 31
0.0
  0
LINE
  5
84E0
330
1F
100
AcDbEntity
  8
実線  太
100
AcDbLine
 10
533.0327799032711
 20
793.4923748269152
 30
0.0
 11
533.0327799032711
 21
792.9923748269152
 31
0.0
  0
ARC
  5
84E1
330
1F
100
AcDbEntity
  8
実線  太
100
AcDbCircle
 10
530.0327799032711
 20
789.4923748269152
 30
0.0
 40
3.0
100
AcDbArc
 50
0.0
 51
180.0
  0
LINE
  5
84E2
330
1F
100
AcDbEntity
  8
実線  細
100
AcDbLine
 10
533.0327799032711
 20
792.9923748269152
 30
0.0
 11
527.0327799032711
 21
792.9923748269152
 31
0.0
  0
LINE
  5
84E3
330
1F
100
AcDbEntity
  8
実線  太
100
AcDbLine
 10
527.0327799032711
 20
792.9923748269152
 30
0.0
 11
527.4990875614257
 21
791.9923748269152
 31
0.0
  0
LINE
  5
84E4
330
1F
100
AcDbEntity
  8
実線  太
100
AcDbLine
 10
527.0327799032711
 20
780.1381261379799
 30
0.0
 11
527.0327799032706
 21
790.4923748269155
 31
0.0
  0
LINE
  5
84E5
330
1F
100
AcDbEntity
  8
実線  太
100
AcDbLine
 10
533.0327799032711
 20
780.1381261379799
 30
0.0
 11
533.0327799032711
 21
789.4923748269152
 31
0.0
  0
LINE
  5
84E6
330
1F
100
AcDbEntity
  8
実線  太
100
AcDbLine
 10
532.5664722451156
 20
791.9923748269152
 30
0.0
 11
531.6910922984488
 21
791.9923748269152
 31
0.0
  0
LINE
  5
84E7
330
1F
100
AcDbEntity
  8
実線  太
100
AcDbLine
 10
533.0327799032711
 20
792.9923748269152
 30
0.0
 11
532.5664722451156
 21
791.9923748269152
 31
0.0
  0
LINE
  5
84E8
330
1F
100
AcDbEntity
  8
実線  太
100
AcDbLine
 10
528.3744675080933
 20
791.9923748269152
 30
0.0
 11
527.4990875614257
 21
791.9923748269152
 31
0.0
  0
LINE
  5
84E9
330
1F
100
AcDbEntity
  8
実線  太
100
AcDbLine
 10
533.5327799032711
 20
793.4923748269152
 30
0.0
 11
526.5327799032711
 21
793.4923748269152
 31
0.0
  0
LINE
  5
84EA
330
1F
100
AcDbEntity
  8
実線  細
100
AcDbLine
 10
524.0327799032711
 20
803.4923748269152
 30
0.0
 11
536.0327799032711
 21
803.4923748269152
 31
0.0
  0
LINE
  5
84EB
330
1F
100
AcDbEntity
  8
破線
 48
0.1
100
AcDbLine
 10
527.0327799032711
 20
806.9923748269152
 30
0.0
 11
533.0327799032711
 21
806.9923748269152
 31
0.0
  0
LINE
  5
84EC
330
1F
100
AcDbEntity
  8
破線
 48
0.1
100
AcDbLine
 10
527.0327799032711
 20
793.4923748269152
 30
0.0
 11
527.0327799032711
 21
806.9923748269152
 31
0.0
  0
LINE
  5
84ED
330
1F
100
AcDbEntity
  8
実線  太
100
AcDbLine
 10
526.5327799032711
 20
793.4923748269152
 30
0.0
 11
524.0327799032711
 21
803.4923748269152
 31
0.0
  0
LINE
  5
84EE
330
1F
100
AcDbEntity
  8
実線  太
100
AcDbLine
 10
533.5327799032711
 20
793.4923748269152
 30
0.0
 11
536.0327799032711
 21
803.4923748269152
 31
0.0
  0
LINE
  5
84EF
330
1F
100
AcDbEntity
  8
破線
 48
0.1
100
AcDbLine
 10
533.0327799032711
 20
793.4923748269152
 30
0.0
 11
533.0327799032711
 21
806.9923748269152
 31
0.0
  0
LINE
  5
84F0
330
1F
100
AcDbEntity
  8
実線  太
100
AcDbLine
 10
399.0327799032712
 20
791.4923748269152
 30
0.0
 11
526.0327799032711
 21
791.4923748269152
 31
0.0
  0
LINE
  5
84F1
330
1F
100
AcDbEntity
  8
実線  太
100
AcDbLine
 10
399.0327799032712
 20
787.4923748269152
 30
0.0
 11
526.0327799032711
 21
787.4923748269152
 31
0.0
  0
ARC
  5
84F2
330
1F
100
AcDbEntity
  8
実線  太
100
AcDbCircle
 10
399.0327799032712
 20
790.4923748269155
 30
0.0
 40
1.0
100
AcDbArc
 50
90.0
 51
180.000000000013
  0
ARC
  5
84F3
330
1F
100
AcDbEntity
  8
実線  太
100
AcDbCircle
 10
399.0327799032712
 20
788.4923748269152
 30
0.0
 40
1.0
100
AcDbArc
 50
180.0
 51
270.0
  0
ARC
  5
84F4
330
1F
100
AcDbEntity
  8
実線  太
100
AcDbCircle
 10
526.0327799032711
 20
790.4923748269155
 30
0.0
 40
1.0
100
AcDbArc
 50
359.999999999987
 51
90.0
  0
ARC
  5
84F5
330
1F
100
AcDbEntity
  8
実線  太
100
AcDbCircle
 10
526.0327799032711
 20
788.4923748269152
 30
0.0
 40
1.0
100
AcDbArc
 50
270.0
 51
0.0
  0
ARC
  5
84F6
330
1F
100
AcDbEntity
  8
破線
 48
0.2
100
AcDbCircle
 10
462.5327799032711
 20
728.9923748269152
 30
0.0
 40
67.5
100
AcDbArc
 50
153.5069843448636
 51
26.49301565513632
  0
ARC
  5
84F7
330
1F
100
AcDbEntity
  8
破線
 48
0.2
100
AcDbCircle
 10
462.5327799032711
 20
728.9923748269152
 30
0.0
 40
63.5
100
AcDbArc
 50
153.5069843448636
 51
26.49301565513632
  0
ARC
  5
84F8
330
1F
100
AcDbEntity
  8
破線
 48
0.2
100
AcDbCircle
 10
462.5327799032711
 20
711.4923748269152
 30
0.0
 40
35.0
100
AcDbArc
 50
202.7997353156742
 51
337.2002646843258
  0
ARC
  5
84F9
330
1F
100
AcDbEntity
  8
破線
 48
0.2
100
AcDbCircle
 10
462.5327799032711
 20
711.4923748269152
 30
0.0
 40
29.0
100
AcDbArc
 50
202.7997353156742
 51
337.2002646843258
  0
LINE
  5
84FA
330
1F
100
AcDbEntity
  8
実線  太
100
AcDbLine
 10
405.1125752640355
 20
773.2548883026359
 30
0.0
 11
399.1277644119832
 21
787.4923748269152
 31
0.0
  0
LINE
  5
84FB
330
1F
100
AcDbEntity
  8
破線
 48
0.2
100
AcDbLine
 10
489.2668632140403
 20
700.2545463208009
 30
0.0
 11
519.9529845425058
 21
773.254888302636
 31
0.0
  0
LINE
  5
84FC
330
1F
100
AcDbEntity
  8
破線
 48
0.2
100
AcDbLine
 10
406.1077395104398
 20
767.116517439795
 30
0.0
 11
404.1627362336758
 21
771.9945608412277
 31
0.0
  0
LINE
  5
84FD
330
1F
100
AcDbEntity
  8
破線
 48
0.2
100
AcDbLine
 10
402.3922028574088
 20
765.6350359583093
 30
0.0
 11
401.4383616809327
 21
768.0272574586589
 31
0.0
  0
ARC
  5
84FE
330
1F
100
AcDbEntity
  8
破線
 48
0.2
100
AcDbCircle
 10
394.9611295513514
 20
762.6720729953492
 30
0.0
 40
12.0
100
AcDbArc
 50
333.5069843448636
 51
21.73846079154743
  0
ARC
  5
84FF
330
1F
100
AcDbEntity
  8
破線
 48
0.2
100
AcDbCircle
 10
394.9611295513514
 20
762.6720729953492
 30
0.0
 40
8.0
100
AcDbArc
 50
333.5069843448636
 51
21.73846079154743
  0
LINE
  5
8500
330
1F
100
AcDbEntity
  8
破線
 48
0.2
100
AcDbLine
 10
518.957820296102
 20
767.116517439795
 30
0.0
 11
520.9028235728665
 21
771.9945608412277
 31
0.0
  0
LINE
  5
8501
330
1F
100
AcDbEntity
  8
破線
 48
0.2
100
AcDbLine
 10
522.6733569491329
 20
765.6350359583093
 30
0.0
 11
523.6271981256095
 21
768.0272574586587
 31
0.0
  0
ARC
  5
8502
330
1F
100
AcDbEntity
  8
破線
 48
0.2
100
AcDbCircle
 10
530.1044302551904
 20
762.6720729953492
 30
0.0
 40
8.0
100
AcDbArc
 50
158.2615392084526
 51
206.4930156551363
  0
ARC
  5
8503
330
1F
100
AcDbEntity
  8
破線
 48
0.2
100
AcDbCircle
 10
530.1044302551904
 20
762.6720729953492
 30
0.0
 40
12.0
100
AcDbArc
 50
158.2615392084526
 51
206.4930156551363
  0
LINE
  5
8504
330
1F
100
AcDbEntity
  8
実線  太
100
AcDbLine
 10
524.0096721520099
 20
767.4220732311042
 30
0.0
 11
527.0327799032711
 21
774.6138553832937
 31
0.0
  0
LINE
  5
8505
330
1F
100
AcDbEntity
  8
実線  太
100
AcDbLine
 10
401.0558876545319
 20
767.4220732311042
 30
0.0
 11
398.0327799032711
 21
774.6138553832938
 31
0.0
  0
LINE
  5
8506
330
1F
100
AcDbEntity
  8
破線
 48
0.2
100
AcDbLine
 10
524.0096721520099
 20
767.4220732311042
 30
0.0
 11
494.7980528645461
 21
697.9294783540185
 31
0.0
  0
LINE
  5
8507
330
1F
100
AcDbEntity
  8
破線
 48
0.2
100
AcDbLine
 10
401.0558876545319
 20
767.4220732311042
 30
0.0
 11
430.2675069419956
 21
697.9294783540184
 31
0.0
  0
LINE
  5
8508
330
1F
100
AcDbEntity
  8
実線  太
100
AcDbLine
 10
397.0882935304035
 20
334.9997678365469
 30
0.0
 11
527.9772662761379
 21
334.9997678365468
 31
0.0
  0
LINE
  5
8509
330
1F
100
AcDbEntity
  8
実線  太
100
AcDbLine
 10
414.0327799032706
 20
181.9997678365469
 30
0.0
 11
511.0327799032707
 21
181.9997678365469
 31
0.0
  0
LINE
  5
850A
330
1F
100
AcDbEntity
  8
実線  太
100
AcDbLine
 10
399.0327799032707
 20
331.6997678365469
 30
0.0
 11
399.0327799032707
 21
220.9997678365469
 31
0.0
  0
LINE
  5
850B
330
1F
100
AcDbEntity
  8
実線  太
100
AcDbLine
 10
526.0327799032706
 20
331.6997678365469
 30
0.0
 11
526.0327799032706
 21
220.9997678365469
 31
0.0
  0
LINE
  5
850C
330
1F
100
AcDbEntity
  8
実線  太
100
AcDbLine
 10
390.0327799032707
 20
331.6997678365469
 30
0.0
 11
535.0327799032706
 21
331.6997678365469
 31
0.0
  0
LINE
  5
850D
330
1F
100
AcDbEntity
  8
実線  太
100
AcDbLine
 10
390.0327799032707
 20
331.6997678365469
 30
0.0
 11
394.5882935304035
 21
334.3298948554691
 31
0.0
  0
ARC
  5
850E
330
1F
100
AcDbEntity
  8
実線  太
100
AcDbCircle
 10
397.0882935304035
 20
329.999767836548
 30
0.0
 40
5.0
100
AcDbArc
 50
90.0
 51
120.0000000000005
  0
ARC
  5
850F
330
1F
100
AcDbEntity
  8
実線  太
100
AcDbCircle
 10
527.9772662761379
 20
329.999767836548
 30
0.0
 40
5.0
100
AcDbArc
 50
59.99999999999946
 51
90.0
  0
LINE
  5
8510
330
1F
100
AcDbEntity
  8
実線  太
100
AcDbLine
 10
535.0327799032706
 20
331.6997678365469
 30
0.0
 11
530.4772662761378
 21
334.3298948554691
 31
0.0
  0
ARC
  5
8511
330
1F
100
AcDbEntity
  8
実線  太
100
AcDbCircle
 10
414.0327799032706
 20
196.9997678365468
 30
0.0
 40
15.0
100
AcDbArc
 50
180.0
 51
270.0
  0
ARC
  5
8512
330
1F
100
AcDbEntity
  8
実線  太
100
AcDbCircle
 10
511.0327799032707
 20
196.999767836547
 30
0.0
 40
15.0
100
AcDbArc
 50
270.0
 51
0.0
  0
ARC
  5
8513
330
1F
100
AcDbEntity
  8
実線  太
100
AcDbCircle
 10
462.5327799032711
 20
728.9923748269152
 30
0.0
 40
72.5
100
AcDbArc
 50
162.3692825588154
 51
17.63071744118456
  0
ARC
  5
8514
330
1F
100
AcDbEntity
  8
破線
 48
0.2
100
AcDbCircle
 10
462.5327799032711
 20
728.9923748269152
 30
0.0
 40
62.5
100
AcDbArc
 50
69.39030706247606
 51
110.6096929375239
  0
ARC
  5
8515
330
1F
100
AcDbEntity
  8
破線
 48
0.2
100
AcDbCircle
 10
462.5327799032711
 20
728.9923748269152
 30
0.0
 40
72.5
100
AcDbArc
 50
152.829947945333
 51
162.3692825588154
  0
ARC
  5
8516
330
1F
100
AcDbEntity
  8
実線  太
100
AcDbCircle
 10
462.5327799032711
 20
728.9923748269152
 30
0.0
 40
72.5
100
AcDbArc
 50
126.2061850635036
 51
152.829947945333
  0
ARC
  5
8517
330
1F
100
AcDbEntity
  8
破線
 48
0.2
100
AcDbCircle
 10
462.5327799032711
 20
728.9923748269152
 30
0.0
 40
72.5
100
AcDbArc
 50
120.4503140213606
 51
126.2061850635036
  0
ARC
  5
8518
330
1F
100
AcDbEntity
  8
実線  太
100
AcDbCircle
 10
462.5327799032711
 20
728.9923748269152
 30
0.0
 40
62.5
100
AcDbArc
 50
110.6096929375239
 51
69.39030706247606
  0
ARC
  5
8519
330
1F
100
AcDbEntity
  8
実線  太
100
AcDbCircle
 10
462.5327799032711
 20
728.9923748269152
 30
0.0
 40
72.5
100
AcDbArc
 50
59.54968597863939
 51
120.4503140213606
  0
ARC
  5
851A
330
1F
100
AcDbEntity
  8
破線
 48
0.2
100
AcDbCircle
 10
462.5327799032711
 20
728.9923748269152
 30
0.0
 40
72.5
100
AcDbArc
 50
53.79381493649638
 51
59.54968597863939
  0
ARC
  5
851B
330
1F
100
AcDbEntity
  8
実線  太
100
AcDbCircle
 10
462.5327799032711
 20
728.9923748269152
 30
0.0
 40
72.5
100
AcDbArc
 50
27.17005205466694
 51
53.79381493649638
  0
ARC
  5
851C
330
1F
100
AcDbEntity
  8
破線
 48
0.2
100
AcDbCircle
 10
462.5327799032711
 20
728.9923748269152
 30
0.0
 40
72.5
100
AcDbArc
 50
17.63071744118456
 51
27.17005205466694
  0
LINE
  5
851D
330
1F
100
AcDbEntity
  8
実線  太
100
AcDbLine
 10
519.9529845425058
 20
773.254888302636
 30
0.0
 11
525.9377953945586
 21
787.4923748269152
 31
0.0
  0
LINE
  5
851E
330
1F
100
AcDbEntity
  8
破線
 48
0.2
100
AcDbLine
 10
435.7986965925014
 20
700.2545463208009
 30
0.0
 11
405.1125752640359
 21
773.254888302636
 31
0.0
  0
LINE
  5
851F
330
1F
100
AcDbEntity
  8
実線  太
100
AcDbLine
 10
401.4383616809327
 20
768.0272574586588
 30
0.0
 11
398.4760446355786
 21
775.4567108116011
 31
0.0
  0
LINE
  5
8520
330
1F
100
AcDbEntity
  8
実線  太
100
AcDbLine
 10
404.1627362336758
 20
771.9945608412277
 30
0.0
 11
398.0327799032711
 21
787.3684131045247
 31
0.0
  0
LINE
  5
8521
330
1F
100
AcDbEntity
  8
実線  太
100
AcDbLine
 10
520.9028235728665
 20
771.9945608412277
 30
0.0
 11
527.0327799032711
 21
787.3684131045247
 31
0.0
  0
LINE
  5
8522
330
1F
100
AcDbEntity
  8
実線  太
100
AcDbLine
 10
523.6271981256095
 20
768.0272574586588
 30
0.0
 11
526.5895151709628
 21
775.4567108116011
 31
0.0
  0
LINE
  5
8523
330
1F
100
AcDbEntity
  8
実線  太
100
AcDbLine
 10
527.0327799032711
 20
181.9997678365469
 30
0.0
 11
527.0327799032711
 21
205.9997678365469
 31
0.0
  0
LINE
  5
8524
330
1F
100
AcDbEntity
  8
実線  太
100
AcDbLine
 10
533.0327799032711
 20
178.9997678365469
 30
0.0
 11
533.0327799032711
 21
331.6997678365469
 31
0.0
  0
ARC
  5
8525
330
1F
100
AcDbEntity
  8
実線  細
100
AcDbCircle
 10
530.0327799032711
 20
185.9997678365468
 30
0.0
 40
3.5
100
AcDbArc
 50
148.9972808661106
 51
211.0027191338893
  0
ARC
  5
8526
330
1F
100
AcDbEntity
  8
実線  太
100
AcDbCircle
 10
530.0327799032711
 20
185.9997678365468
 30
0.0
 40
5.999999999999971
100
AcDbArc
 50
120.0000000000005
 51
221.8103148957886
  0
ARC
  5
8527
330
1F
100
AcDbEntity
  8
実線  太
100
AcDbCircle
 10
530.0327799032711
 20
185.9997678365468
 30
0.0
 40
5.999999999999971
100
AcDbArc
 50
300.0000000000005
 51
59.99999999999946
  0
ARC
  5
8528
330
1F
100
AcDbEntity
  8
実線  太
100
AcDbCircle
 10
530.0327799032711
 20
178.9997678365469
 30
0.0
 40
3.0
100
AcDbArc
 50
270.0
 51
90.0
  0
ARC
  5
8529
330
1F
100
AcDbEntity
  8
実線  細
100
AcDbCircle
 10
530.0327799032711
 20
185.9997678365468
 30
0.0
 40
3.5
100
AcDbArc
 50
328.9972808661107
 51
31.00271913388935
  0
LINE
  5
852A
330
1F
100
AcDbEntity
  8
実線  細
100
AcDbLine
 10
533.0327799032711
 20
460.9997678365468
 30
0.0
 11
527.0327799032711
 21
460.9997678365468
 31
0.0
  0
LINE
  5
852B
330
1F
100
AcDbEntity
  8
実線  太
100
AcDbLine
 10
527.0327799032711
 20
523.9997678365468
 30
0.0
 11
526.0327799032711
 21
523.9997678365468
 31
0.0
  0
ARC
  5
852C
330
1F
100
AcDbEntity
  8
実線  太
100
AcDbCircle
 10
530.0327799032711
 20
510.9997678365468
 30
0.0
 40
4.0
100
AcDbArc
 50
180.0
 51
221.4096221092697
  0
LINE
  5
852D
330
1F
100
AcDbEntity
  8
実線  太
100
AcDbLine
 10
534.0327799032711
 20
523.9997678365468
 30
0.0
 11
534.0327799032711
 21
510.9997678365468
 31
0.0
  0
ARC
  5
852E
330
1F
100
AcDbEntity
  8
実線  太
100
AcDbCircle
 10
530.0327799032711
 20
510.9997678365468
 30
0.0
 40
4.0
100
AcDbArc
 50
318.5903778907302
 51
0.0
  0
LINE
  5
852F
330
1F
100
AcDbEntity
  8
実線  太
100
AcDbLine
 10
534.0327799032711
 20
523.9997678365468
 30
0.0
 11
533.0327799032711
 21
523.9997678365468
 31
0.0
  0
ARC
  5
8530
330
1F
100
AcDbEntity
  8
実線  太
100
AcDbCircle
 10
530.0327799032711
 20
532.9997678365469
 30
0.0
 40
3.0
100
AcDbArc
 50
0.0
 51
180.0
  0
LINE
  5
8531
330
1F
100
AcDbEntity
  8
実線  太
100
AcDbLine
 10
526.0327799032711
 20
523.9997678365468
 30
0.0
 11
526.0327799032711
 21
510.9997678365468
 31
0.0
  0
LINE
  5
8532
330
1F
100
AcDbEntity
  8
実線  太
100
AcDbLine
 10
396.0327799032711
 20
220.9997678365469
 30
0.0
 11
529.0327799032711
 21
220.9997678365469
 31
0.0
  0
LINE
  5
8533
330
1F
100
AcDbEntity
  8
実線  太
100
AcDbLine
 10
396.0327799032711
 20
205.9997678365469
 30
0.0
 11
529.0327799032711
 21
205.9997678365469
 31
0.0
  0
LINE
  5
8534
330
1F
100
AcDbEntity
  8
実線  太
100
AcDbLine
 10
395.0327799032712
 20
219.9997678365469
 30
0.0
 11
395.0327799032712
 21
206.9997678365469
 31
0.0
  0
LINE
  5
8535
330
1F
100
AcDbEntity
  8
実線  太
100
AcDbLine
 10
398.0327799032711
 20
220.9997678365469
 30
0.0
 11
398.0327799032711
 21
331.6997678365469
 31
0.0
  0
LINE
  5
8536
330
1F
100
AcDbEntity
  8
実線  太
100
AcDbLine
 10
530.0327799032711
 20
219.9997678365469
 30
0.0
 11
530.0327799032711
 21
206.9997678365469
 31
0.0
  0
LINE
  5
8537
330
1F
100
AcDbEntity
  8
実線  太
100
AcDbLine
 10
527.0327799032711
 20
220.9997678365469
 30
0.0
 11
527.0327799032706
 21
331.6997678365469
 31
0.0
  0
ARC
  5
8538
330
1F
100
AcDbEntity
  8
実線  太
100
AcDbCircle
 10
396.0327799032711
 20
219.9997678365469
 30
0.0
 40
1.0
100
AcDbArc
 50
90.0
 51
180.0
  0
ARC
  5
8539
330
1F
100
AcDbEntity
  8
実線  太
100
AcDbCircle
 10
396.0327799032711
 20
206.9997678365469
 30
0.0
 40
1.0
100
AcDbArc
 50
180.0
 51
270.0
  0
ARC
  5
853A
330
1F
100
AcDbEntity
  8
実線  太
100
AcDbCircle
 10
529.0327799032711
 20
219.9997678365469
 30
0.0
 40
1.0
100
AcDbArc
 50
0.0
 51
90.0
  0
ARC
  5
853B
330
1F
100
AcDbEntity
  8
実線  太
100
AcDbCircle
 10
529.0327799032711
 20
206.9997678365469
 30
0.0
 40
1.0
100
AcDbArc
 50
270.0
 51
0.0
  0
LINE
  5
853C
330
1F
100
AcDbEntity
  8
実線  太
100
AcDbLine
 10
398.0327799032711
 20
398.9997678365469
 30
0.0
 11
527.0327799032711
 21
398.9997678365469
 31
0.0
  0
LINE
  5
853D
330
1F
100
AcDbEntity
  8
実線  太
100
AcDbLine
 10
398.0327799032711
 20
413.9997678365468
 30
0.0
 11
527.0327799032711
 21
413.9997678365468
 31
0.0
  0
LINE
  5
853E
330
1F
100
AcDbEntity
  8
実線  太
100
AcDbLine
 10
527.0327799032711
 20
334.9997678365468
 30
0.0
 11
527.0327799032711
 21
532.9997678365469
 31
0.0
  0
LINE
  5
853F
330
1F
100
AcDbEntity
  8
実線  太
100
AcDbLine
 10
533.0327799032711
 20
332.8544683749262
 30
0.0
 11
533.0327799032711
 21
532.9997678365469
 31
0.0
  0
LINE
  5
8540
330
1F
100
AcDbEntity
  8
破線
 48
0.02
100
AcDbLine
 10
533.0327799032711
 20
332.8544683749262
 30
0.0
 11
533.0327799032711
 21
331.6997678365469
 31
0.0
  0
LINE
  5
8541
330
1F
100
AcDbEntity
  8
破線
 48
0.05
100
AcDbLine
 10
527.0327799032706
 20
331.6997678365469
 30
0.0
 11
527.0327799032706
 21
334.9997678365468
 31
0.0
  0
LINE
  5
8542
330
1F
100
AcDbEntity
  8
実線  太
100
AcDbLine
 10
392.0327799032711
 20
332.8544683749262
 30
0.0
 11
392.0327799032711
 21
532.9997678365469
 31
0.0
  0
LINE
  5
8543
330
1F
100
AcDbEntity
  8
実線  太
100
AcDbLine
 10
398.0327799032711
 20
334.9997678365469
 30
0.0
 11
398.0327799032711
 21
532.9997678365469
 31
0.0
  0
LINE
  5
8544
330
1F
100
AcDbEntity
  8
破線
 48
0.05
100
AcDbLine
 10
398.0327799032711
 20
331.6997678365469
 30
0.0
 11
398.0327799032711
 21
334.9997678365468
 31
0.0
  0
LINE
  5
8545
330
1F
100
AcDbEntity
  8
破線
 48
0.02
100
AcDbLine
 10
392.0327799032711
 20
332.8544683749262
 30
0.0
 11
392.0327799032711
 21
331.6997678365469
 31
0.0
  0
LINE
  5
8546
330
1F
100
AcDbEntity
  8
実線  太
100
AcDbLine
 10
399.0327799032707
 20
205.9997678365469
 30
0.0
 11
399.0327799032707
 21
196.9997678365469
 31
0.0
  0
LINE
  5
8547
330
1F
100
AcDbEntity
  8
破線
 48
0.2
100
AcDbLine
 10
399.0327799032707
 20
220.9997678365469
 30
0.0
 11
399.0327799032707
 21
205.9997678365469
 31
0.0
  0
LINE
  5
8548
330
1F
100
AcDbEntity
  8
実線  太
100
AcDbLine
 10
526.0327799032706
 20
205.9997678365469
 30
0.0
 11
526.0327799032706
 21
196.9997678365469
 31
0.0
  0
LINE
  5
8549
330
1F
100
AcDbEntity
  8
破線
 48
0.2
100
AcDbLine
 10
526.0327799032706
 20
220.9997678365469
 30
0.0
 11
526.0327799032706
 21
205.9997678365469
 31
0.0
  0
LWPOLYLINE
  5
854A
330
1F
100
AcDbEntity
  8
破線
 48
0.1
100
AcDbPolyline
 90
        8
 70
     1
 43
0.0
 10
981.5535421233576
 20
413.9472256783713
 10
983.5535421233576
 20
413.9472256783713
 42
-0.4142135623730951
 10
984.5535421233575
 20
412.9472256783713
 10
984.5535421233575
 20
399.9472256783713
 42
-0.4142135623730951
 10
983.5535421233576
 20
398.9472256783713
 10
981.5535421233576
 20
398.9472256783713
 42
-0.4142135623731008
 10
980.5535421233576
 20
399.9472256783713
 10
980.5535421233576
 20
412.9472256783713
 42
-0.4142135623730951
  0
LINE
  5
854B
330
1F
100
AcDbEntity
  8
実線  太
100
AcDbLine
 10
855.553542123358
 20
220.9472256783713
 30
0.0
 11
979.7357532503493
 21
220.9472256783713
 31
0.0
  0
LINE
  5
854C
330
1F
100
AcDbEntity
  8
実線  太
100
AcDbLine
 10
855.553542123358
 20
205.9472256783713
 30
0.0
 11
979.7357532503493
 21
205.9472256783713
 31
0.0
  0
LINE
  5
854D
330
1F
100
AcDbEntity
  8
実線  太
100
AcDbLine
 10
854.553542123358
 20
219.9472256783713
 30
0.0
 11
854.553542123358
 21
206.9472256783713
 31
0.0
  0
ARC
  5
854E
330
1F
100
AcDbEntity
  8
実線  太
100
AcDbCircle
 10
855.5535421233576
 20
219.9472256783714
 30
0.0
 40
1.0
100
AcDbArc
 50
89.99999999997395
 51
180.0000000000065
  0
ARC
  5
854F
330
1F
100
AcDbEntity
  8
実線  太
100
AcDbCircle
 10
855.5535421233576
 20
206.9472256783713
 30
0.0
 40
1.0
100
AcDbArc
 50
180.0
 51
270.0
  0
LINE
  5
8550
330
1F
100
AcDbEntity
  8
実線  太
100
AcDbLine
 10
979.7357532503493
 20
220.9472256783713
 30
0.0
 11
979.7357532503493
 21
205.9472256783713
 31
0.0
  0
LINE
  5
8551
330
1F
100
AcDbEntity
  8
実線  太
100
AcDbLine
 10
979.553542123358
 20
205.9472256783713
 30
0.0
 11
979.553542123358
 21
185.9997678365468
 31
0.0
  0
LINE
  5
8552
330
1F
100
AcDbEntity
  8
破線
 48
0.1
100
AcDbLine
 10
979.553542123358
 20
220.9472256783713
 30
0.0
 11
979.553542123358
 21
205.9472256783713
 31
0.0
  0
LINE
  5
8553
330
1F
100
AcDbEntity
  8
実線  太
100
AcDbLine
 10
856.6090557504903
 20
334.9997678365469
 30
0.0
 11
979.5535421233577
 21
334.9997678365469
 31
0.0
  0
LINE
  5
8554
330
1F
100
AcDbEntity
  8
実線  太
100
AcDbLine
 10
849.5535421233579
 20
331.6997678365469
 30
0.0
 11
979.5535421233577
 21
331.6997678365469
 31
0.0
  0
LINE
  5
8555
330
1F
100
AcDbEntity
  8
実線  太
100
AcDbLine
 10
873.553542123358
 20
181.9997678365469
 30
0.0
 11
970.553542123358
 21
181.9997678365469
 31
0.0
  0
ARC
  5
8556
330
1F
100
AcDbEntity
  8
実線  太
100
AcDbCircle
 10
873.553542123358
 20
196.9997678365468
 30
0.0
 40
15.0
100
AcDbArc
 50
180.0
 51
270.0
  0
ARC
  5
8557
330
1F
100
AcDbEntity
  8
実線  太
100
AcDbCircle
 10
970.553542123358
 20
196.999767836547
 30
0.0
 40
15.0
100
AcDbArc
 50
270.0
 51
306.0170409971137
  0
LINE
  5
8558
330
1F
100
AcDbEntity
  8
実線  太
100
AcDbLine
 10
858.5535421233581
 20
331.6997678365469
 30
0.0
 11
858.5535421233581
 21
220.9997678365469
 31
0.0
  0
LINE
  5
8559
330
1F
100
AcDbEntity
  8
実線  太
100
AcDbLine
 10
849.5535421233579
 20
331.6997678365469
 30
0.0
 11
854.1090557504908
 21
334.3298948554691
 31
0.0
  0
ARC
  5
855A
330
1F
100
AcDbEntity
  8
実線  太
100
AcDbCircle
 10
856.6090557504903
 20
329.999767836548
 30
0.0
 40
5.0
100
AcDbArc
 50
90.0
 51
120.0000000000005
  0
LINE
  5
855B
330
1F
100
AcDbEntity
  8
実線  太
100
AcDbLine
 10
985.5535421233581
 20
331.6997678365469
 30
0.0
 11
985.5535421233581
 21
196.9997678365469
 31
0.0
  0
ARC
  5
855C
330
1F
100
AcDbEntity
  8
実線  太
100
AcDbCircle
 10
987.4980284962248
 20
329.999767836548
 30
0.0
 40
5.0
100
AcDbArc
 50
59.99999999999946
 51
90.0
  0
LINE
  5
855D
330
1F
100
AcDbEntity
  8
実線  太
100
AcDbLine
 10
994.553542123358
 20
331.6997678365469
 30
0.0
 11
989.9980284962248
 21
334.3298948554691
 31
0.0
  0
LINE
  5
855E
330
1F
100
AcDbEntity
  8
実線  太
100
AcDbLine
 10
979.5535421233577
 20
453.1837697110806
 30
0.0
 11
979.553542123358
 21
220.9472256783713
 31
0.0
  0
LINE
  5
855F
330
1F
100
AcDbEntity
  8
実線  太
100
AcDbLine
 10
985.5535421233572
 20
453.1837697110806
 30
0.0
 11
985.5535421233581
 21
185.9997678365468
 31
0.0
  0
ARC
  5
8560
330
1F
100
AcDbEntity
  8
破線
 48
0.1
100
AcDbCircle
 10
970.553542123358
 20
196.9472256783714
 30
0.0
 40
15.0
100
AcDbArc
 50
306.0170409971137
 51
0.0
  0
LINE
  5
8561
330
1F
100
AcDbEntity
  8
実線  太
100
AcDbLine
 10
858.5535421233576
 20
205.9472256783713
 30
0.0
 11
858.5535421233581
 21
196.9472256783712
 31
0.0
  0
LINE
  5
8562
330
1F
100
AcDbEntity
  8
破線
 48
0.1
100
AcDbLine
 10
858.5535421233576
 20
220.9472256783713
 30
0.0
 11
858.5535421233576
 21
205.9472256783713
 31
0.0
  0
DIMENSION
  5
8563
330
1F
100
AcDbEntity
  8
寸法線
100
AcDbDimension
  2
*D30
 10
335.0327799032712
 20
175.9997678365469
 30
0.0
 11
324.2827799032711
 21
355.999767836547
 31
0.0
 70
    32
 71
     5
 42
360.0
  3
ISO-25
100
AcDbAlignedDimension
 13
395.0327799032712
 23
535.9997678365468
 33
0.0
 14
395.0327799032712
 24
175.9997678365469
 34
0.0
 50
90.0
100
AcDbRotatedDimension
1001
ACAD
1000
DSTYLE
1002
{
1070
    40
1040
5.0
1002
}
  0
DIMENSION
  5
8564
330
1F
100
AcDbEntity
  8
寸法線
100
AcDbDimension
  2
*D31
 10
335.0327799032712
 20
656.4923748269152
 30
0.0
 11
324.282779903271
 21
732.9923748269153
 31
0.0
 70
    32
 71
     5
 42
153.0
  3
ISO-25
100
AcDbAlignedDimension
 13
395.0327799032712
 23
809.4923748269152
 33
0.0
 14
462.5327799032711
 24
656.4923748269152
 34
0.0
 50
90.0
100
AcDbRotatedDimension
1001
ACAD
1000
DSTYLE
1002
{
1070
    40
1040
5.0
1002
}
  0
DIMENSION
  5
8565
330
1F
100
AcDbEntity
  8
寸法線
100
AcDbDimension
  2
*D32
 10
530.0327799032711
 20
869.4923748269152
 30
0.0
 11
462.5327799032711
 21
880.2423748269152
 31
0.0
 70
    32
 71
     5
 42
135.0
  3
ISO-25
100
AcDbAlignedDimension
 13
395.0327799032712
 23
793.4923748269152
 33
0.0
 14
530.0327799032711
 24
793.4923748269152
 34
0.0
100
AcDbRotatedDimension
1001
ACAD
1000
DSTYLE
1002
{
1070
    40
1040
5.0
1002
}
  0
DIMENSION
  5
8566
330
1F
100
AcDbEntity
  8
寸法線
100
AcDbDimension
  2
*D33
 10
590.0327799032711
 20
676.4923748269152
 30
0.0
 11
579.282779903271
 21
742.9923748269153
 31
0.0
 70
    32
 71
     5
 42
133.0
  3
ISO-25
100
AcDbAlignedDimension
 13
530.0327799032711
 23
809.4923748269152
 33
0.0
 14
462.5327799032711
 24
676.4923748269152
 34
0.0
 50
90.0
100
AcDbRotatedDimension
1001
ACAD
1000
DSTYLE
1002
{
1070
    40
1040
5.0
1002
}
  0
DIMENSION
  5
8567
330
1F
100
AcDbEntity
  8
寸法線
100
AcDbDimension
  2
*D34
 10
1002.553542123358
 20
115.9997678365469
 30
0.0
 11
1034.117462577903
 21
126.7497678365469
 31
0.0
 70
    32
 71
     5
 42
17.0
  3
ISO-25
100
AcDbAlignedDimension
 13
985.5535421233581
 23
185.9997678365468
 33
0.0
 14
1002.553542123358
 24
185.9997678365468
 34
0.0
100
AcDbRotatedDimension
1001
ACAD
1000
DSTYLE
1002
{
1070
    40
1040
5.0
1002
}
  0
DIMENSION
  5
8568
330
1F
100
AcDbEntity
  8
寸法線
100
AcDbDimension
  2
*D35
 10
849.5535421233579
 20
115.9997678365469
 30
0.0
 11
917.5535421233581
 21
126.7497678365469
 31
0.0
 70
    32
 71
     5
 42
136.0
  3
ISO-25
100
AcDbAlignedDimension
 13
985.5535421233581
 23
185.9997678365468
 33
0.0
 14
849.5535421233579
 24
331.6472256783713
 34
0.0
100
AcDbRotatedDimension
1001
ACAD
1000
DSTYLE
1002
{
1070
    40
1040
5.0
1002
}
  0
LINE
  5
8569
330
1F
100
AcDbEntity
  8
実線  太
100
AcDbLine
 10
985.5535421233575
 20
334.9997678365468
 30
0.0
 11
987.4980284962248
 21
334.9997678365468
 31
0.0
  0
LINE
  5
856A
330
1F
100
AcDbEntity
  8
実線  太
100
AcDbLine
 10
985.5535421233575
 20
331.6472256783713
 30
0.0
 11
994.553542123358
 21
331.6472256783713
 31
0.0
  0
LINE
  5
856B
330
1F
100
AcDbEntity
  8
破線
 48
0.1
100
AcDbLine
 10
979.5535421233577
 20
334.9997678365469
 30
0.0
 11
985.5535421233575
 21
334.9997678365468
 31
0.0
  0
LINE
  5
856C
330
1F
100
AcDbEntity
  8
破線
 48
0.1
100
AcDbLine
 10
985.5535421233581
 20
331.6997678365469
 30
0.0
 11
979.5535421233577
 21
331.6997678365469
 31
0.0
  0
DIMENSION
  5
856D
330
1F
100
AcDbEntity
  8
寸法線
100
AcDbDimension
  2
*D36
 10
1062.553542123358
 20
175.9997678365469
 30
0.0
 11
1051.803542123358
 21
255.499767836547
 31
0.0
 70
    32
 71
     5
 42
158.9999999999999
  3
ISO-25
100
AcDbAlignedDimension
 13
987.4980284962248
 23
334.9997678365468
 33
0.0
 14
975.5535421233581
 24
175.9997678365469
 34
0.0
 50
90.0
100
AcDbRotatedDimension
1001
ACAD
1000
DSTYLE
1002
{
1070
    40
1040
5.0
1002
}
  0
MTEXT
  5
856E
330
1F
100
AcDbEntity
  8
寸法線
 62
     7
100
AcDbMText
 10
593.3347757465635
 20
490.6510077982543
 30
0.0
 40
12.5
 41
0.0
 71
     4
 72
     1
  1
\U+03C66
 73
     1
 44
1.0
1001
ACAD
1000
MTEXTBEGIN
1070
    73
1070
     1
1070
    44
1040
1.0
1070
    74
1070
     0
1000
MTEXTEND
  0
LEADER
  5
856F
330
1F
100
AcDbEntity
  8
寸法線
100
AcDbLeader
  3
ISO-25
 76
     3
 10
533.0327799032711
 20
427.6816745329306
 30
0.0
 10
562.395862233805
 20
490.6510077982543
 30
0.0
 10
590.0327799032711
 20
490.6510077982543
 30
0.0
1001
ACAD
1000
DSTYLE
1002
{
1070
    40
1040
5.0
1070
   147
1040
4.5
1070
    77
1070
     0
1002
}
  0
DIMENSION
  5
8570
330
1F
100
AcDbEntity
  8
寸法線
100
AcDbDimension
  2
*D37
 10
526.0327799032706
 20
115.9997678365469
 30
0.0
 11
462.5327799032707
 21
128.6318701092741
 31
0.0
 70
    32
  1
\U+03C6<>
 71
     5
 42
127.0
  3
ISO-25
100
AcDbAlignedDimension
 13
399.0327799032707
 23
196.9997678365468
 33
0.0
 14
526.0327799032706
 24
196.9997678365468
 34
0.0
100
AcDbRotatedDimension
1001
ACAD
1000
DSTYLE
1002
{
1070
    40
1040
5.0
1002
}
  0
DIMENSION
  5
8571
330
1F
100
AcDbEntity
  8
寸法線
100
AcDbDimension
  2
*D38
 10
390.0327799032711
 20
596.4923748269152
 30
0.0
 11
462.5327799032711
 21
609.1244770996425
 31
0.0
 70
    32
  1
\U+03C6<>
 71
     5
 42
145.0
  3
ISO-25
100
AcDbAlignedDimension
 13
535.0327799032711
 23
728.9923748269152
 33
0.0
 14
390.0327799032711
 24
728.9398326687396
 34
0.0
 50
180.0
100
AcDbRotatedDimension
1001
ACAD
1000
DSTYLE
1002
{
1070
    40
1040
5.0
1002
}
  0
VIEWPORT
  5
283B
102
{ACAD_XDICTIONARY
360
874E
102
}
330
23
100
AcDbEntity
 67
     1
  8
0
100
AcDbViewport
 10
144.2296600341797
 20
100.75333070755
 30
0.0
 40
387.3721909720035
 41
222.1517806396485
 68
     1
 69
     1
 12
144.2296600341797
 22
100.75333070755
 13
0.0
 23
0.0
 14
10.0
 24
10.0
 15
10.0
 25
10.0
 16
0.0
 26
0.0
 36
1.0
 17
0.0
 27
0.0
 37
0.0
 42
50.0
 43
0.0
 44
0.0
 45
222.1517806396485
 50
0.0
 51
0.0
 72
 20000
 90
    32800
  1

281
     0
 71
     1
 74
     0
110
0.0
120
0.0
130
0.0
111
1.0
121
0.0
131
0.0
112
0.0
122
1.0
132
0.0
 79
     0
146
0.0
  0
VIEWPORT
  5
283D
102
{ACAD_XDICTIONARY
360
8750
102
}
330
23
100
AcDbEntity
 67
     1
  8
実線  太
100
AcDbViewport
 10
144.2296578884125
 20
100.7533361911773
 30
0.0
 40
230.7674526214599
 41
161.2053379058837
 68
     2
 69
     2
 12
144.2273710473552
 22
92.63739313986013
 13
0.0
 23
0.0
 14
10.0
 24
10.0
 15
10.0
 25
10.0
 16
0.0
 26
0.0
 36
1.0
 17
0.0
 27
0.0
 37
0.0
 42
50.0
 43
0.0
 44
0.0
 45
237.262888478563
 50
0.0
 51
0.0
 72
 20000
 90
    32768
  1

281
     0
 71
     1
 74
     0
110
0.0
120
0.0
130
0.0
111
1.0
121
0.0
131
0.0
112
0.0
122
1.0
132
0.0
 79
     0
146
0.0
  0
ENDSEC
  0
SECTION
  2
OBJECTS
  0
DICTIONARY
  5
C
330
0
100
AcDbDictionary
281
     1
  3
ACAD_CIP_PREVIOUS_PRODUCT_INFO
350
63D8
  3
ACAD_COLOR
350
63BB
  3
ACAD_GROUP
350
D
  3
ACAD_LAYOUT
350
1A
  3
ACAD_MATERIAL
350
6389
  3
ACAD_MLEADERSTYLE
350
63D0
  3
ACAD_MLINESTYLE
350
17
  3
ACAD_PLOTSETTINGS
350
19
  3
ACAD_PLOTSTYLENAME
350
E
  3
ACAD_SCALELIST
350
63BE
  3
ACAD_TABLESTYLE
350
63BC
  3
ACAD_VISUALSTYLE
350
63A2
  3
AcadDim
350
6353
  3
ACDB_RECOMPOSE_DATA
350
8743
  3
AcDbVariableDictionary
350
5AA
  3
DWGPROPS
350
8744
  0
DICTIONARY
  5
6755
330
8
100
AcDbDictionary
280
     1
281
     1
  0
DICTIONARY
  5
322F
330
2
100
AcDbDictionary
280
     1
281
     1
  3
ACAD_LAYERFILTERS
360
40B9
  3
ACAD_LAYERSTATES
360
3230
  0
DICTIONARY
  5
6CEC
330
10
100
AcDbDictionary
280
     1
281
     1
  3
ADSK_XREC_LAYER_RECONCILED
360
6CED
  0
DICTIONARY
  5
6CEE
330
35
100
AcDbDictionary
280
     1
281
     1
  3
ADSK_XREC_LAYER_RECONCILED
360
6CEF
  0
DICTIONARY
  5
6CF2
330
37
100
AcDbDictionary
280
     1
281
     1
  3
ADSK_XREC_LAYER_RECONCILED
360
6CF3
  0
DICTIONARY
  5
6CF4
330
38
100
AcDbDictionary
280
     1
281
     1
  3
ADSK_XREC_LAYER_RECONCILED
360
6CF5
  0
DICTIONARY
  5
6CF6
330
261
100
AcDbDictionary
280
     1
281
     1
  3
ADSK_XREC_LAYER_RECONCILED
360
6CF7
  0
DICTIONARY
  5
6CF8
330
262
100
AcDbDictionary
280
     1
281
     1
  3
ADSK_XREC_LAYER_RECONCILED
360
6CF9
  0
DICTIONARY
  5
6CFA
330
263
100
AcDbDictionary
280
     1
281
     1
  3
ADSK_XREC_LAYER_RECONCILED
360
6CFB
  0
DICTIONARY
  5
6CFC
330
FA1
100
AcDbDictionary
280
     1
281
     1
  3
ADSK_XREC_LAYER_RECONCILED
360
6CFD
  0
DICTIONARY
  5
6430
330
1F
100
AcDbDictionary
280
     1
281
     1
  3
ACAD_SORTENTS
360
6431
  0
DICTIONARY
  5
874A
330
2835
100
AcDbDictionary
280
     1
281
     1
  3
ACAD_XREC_ROUNDTRIP
360
874B
  0
DICTIONARY
  5
874C
330
2837
100
AcDbDictionary
280
     1
281
     1
  3
ACAD_XREC_ROUNDTRIP
360
874D
  0
DICTIONARY
  5
874E
330
283B
100
AcDbDictionary
280
     1
281
     1
  3
ACAD_XREC_ROUNDTRIP
360
874F
  0
DICTIONARY
  5
8750
330
283D
100
AcDbDictionary
280
     1
281
     1
  3
ACAD_XREC_ROUNDTRIP
360
8751
  0
XRECORD
  5
63D8
102
{ACAD_REACTORS
330
C
102
}
330
C
100
AcDbXrecord
280
     1
300
ACDLT
300
2012
300
ACDLT_F_S
  0
DICTIONARY
  5
63BB
102
{ACAD_REACTORS
330
C
102
}
330
C
100
AcDbDictionary
281
     1
  0
DICTIONARY
  5
D
102
{ACAD_REACTORS
330
C
102
}
330
C
100
AcDbDictionary
281
     1
  0
DICTIONARY
  5
1A
102
{ACAD_REACTORS
330
C
102
}
330
C
100
AcDbDictionary
281
     1
  3
Model
350
22
  3
ﾚｲｱｳﾄ1
350
1E
  3
ﾚｲｱｳﾄ2
350
26
  0
DICTIONARY
  5
6389
102
{ACAD_REACTORS
330
C
102
}
330
C
100
AcDbDictionary
281
     1
  3
ByBlock
350
6392
  3
ByLayer
350
638A
  3
Global
350
639A
  0
DICTIONARY
  5
63D0
102
{ACAD_REACTORS
330
C
102
}
330
C
100
AcDbDictionary
281
     1
  3
Standard
350
63D1
  0
DICTIONARY
  5
17
102
{ACAD_REACTORS
330
C
102
}
330
C
100
AcDbDictionary
281
     1
  3
Standard
350
18
  0
DICTIONARY
  5
19
102
{ACAD_REACTORS
330
C
102
}
330
C
100
AcDbDictionary
281
     1
  0
ACDBDICTIONARYWDFLT
  5
E
102
{ACAD_REACTORS
330
C
102
}
330
C
100
AcDbDictionary
281
     1
  3
Normal
350
F
100
AcDbDictionaryWithDefault
340
F
  0
DICTIONARY
  5
63BE
102
{ACAD_REACTORS
330
C
102
}
330
C
100
AcDbDictionary
281
     1
  3
A0
350
63BF
  3
A1
350
63C0
  3
A2
350
63C1
  3
A3
350
63C2
  3
A4
350
63C3
  3
A5
350
63C4
  3
A6
350
63C5
  3
A7
350
63C6
  3
A8
350
63C7
  3
A9
350
63C8
  3
B0
350
63C9
  3
B1
350
63CA
  3
B2
350
63CB
  3
B3
350
63CC
  3
B4
350
63CD
  3
B5
350
63CE
  3
B6
350
63CF
  0
DICTIONARY
  5
63BC
102
{ACAD_REACTORS
330
C
102
}
330
C
100
AcDbDictionary
281
     1
  3
Standard
350
63BD
  0
DICTIONARY
  5
63A2
102
{ACAD_REACTORS
330
C
102
}
330
C
100
AcDbDictionary
281
     1
  3
2dWireframe
350
63A8
  3
Basic
350
63A7
  3
Brighten
350
63AE
  3
ColorChange
350
63B2
  3
Conceptual
350
63AB
  3
Dim
350
63AD
  3
EdgeColorOff
350
63BA
  3
Facepattern
350
63B1
  3
Flat
350
63A3
  3
FlatWithEdges
350
63A4
  3
Gouraud
350
63A5
  3
GouraudWithEdges
350
63A6
  3
Hidden
350
63AA
  3
JitterOff
350
63B8
  3
Linepattern
350
63B0
  3
OverhangOff
350
63B9
  3
Realistic
350
63AC
  3
Shaded
350
63B7
  3
Shaded with edges
350
63B6
  3
Shades of Gray
350
63B3
  3
Sketchy
350
63B4
  3
Thicken
350
63AF
  3
Wireframe
350
63A9
  3
X-Ray
350
63B5
  0
XRECORD
  5
6353
102
{ACAD_REACTORS
330
C
102
}
330
C
100
AcDbXrecord
280
     1
 90
   990106
  3

 60
     0
 61
     0
 62
     1
 63
     3
 64
     0
 65
     0
 66
     0
 67
     3
 68
     1
 69
     0
 70
     0
 71
     0
 72
     0
 40
0.0
170
     0
340
0
  0
XRECORD
  5
8743
102
{ACAD_REACTORS
330
C
102
}
330
C
100
AcDbXrecord
280
     1
 90
        1
330
63BD
  0
DICTIONARY
  5
5AA
102
{ACAD_REACTORS
330
C
102
}
330
C
100
AcDbDictionary
281
     1
  3
CANNOSCALE
350
679E
  3
CMLEADERSTYLE
350
679D
  3
CTABLESTYLE
350
679C
  3
DIMASSOC
350
5AB
  3
INDEXCTL
350
67A0
  3
LAYEREVAL
350
7E56
  3
LAYERNOTIFY
350
7E57
  3
LIGHTINGUNITS
350
7E55
  3
MSLTSCALE
350
7E54
  3
SORTENTS
350
679F
  3
XCLIPFRAME
350
86F9
  0
XRECORD
  5
8744
102
{ACAD_REACTORS
330
C
102
}
330
C
100
AcDbXrecord
280
     1
  1
DWGPROPS COOKIE
  2

  3

  4

  6

  7

  8
SaitoK
  9

300
=
301
=
302
=
303
=
304
=
305
=
306
=
307
=
308
=
309
=
 40
0.889897824074074
 41
2452626.479274549
 42
2456820.644012847
  1

 90
        0
  0
DICTIONARY
  5
40B9
102
{ACAD_REACTORS
330
322F
102
}
330
322F
100
AcDbDictionary
280
     1
281
     1
  0
DICTIONARY
  5
3230
102
{ACAD_REACTORS
330
322F
102
}
330
322F
100
AcDbDictionary
281
     1
  0
XRECORD
  5
6CED
102
{ACAD_REACTORS
330
6CEC
102
}
330
6CEC
100
AcDbXrecord
280
     1
290
     1
  0
XRECORD
  5
6CEF
102
{ACAD_REACTORS
330
6CEE
102
}
330
6CEE
100
AcDbXrecord
280
     1
290
     1
  0
XRECORD
  5
6CF3
102
{ACAD_REACTORS
330
6CF2
102
}
330
6CF2
100
AcDbXrecord
280
     1
290
     1
  0
XRECORD
  5
6CF5
102
{ACAD_REACTORS
330
6CF4
102
}
330
6CF4
100
AcDbXrecord
280
     1
290
     1
  0
XRECORD
  5
6CF7
102
{ACAD_REACTORS
330
6CF6
102
}
330
6CF6
100
AcDbXrecord
280
     1
290
     1
  0
XRECORD
  5
6CF9
102
{ACAD_REACTORS
330
6CF8
102
}
330
6CF8
100
AcDbXrecord
280
     1
290
     1
  0
XRECORD
  5
6CFB
102
{ACAD_REACTORS
330
6CFA
102
}
330
6CFA
100
AcDbXrecord
280
     1
290
     1
  0
XRECORD
  5
6CFD
102
{ACAD_REACTORS
330
6CFC
102
}
330
6CFC
100
AcDbXrecord
280
     1
290
     1
  0
SORTENTSTABLE
  5
6431
102
{ACAD_REACTORS
330
6430
102
}
330
6430
100
AcDbSortentsTable
330
1F
  0
XRECORD
  5
874B
102
{ACAD_REACTORS
330
874A
102
}
330
874A
100
AcDbXrecord
280
     1
102
SHADEPLOT
 70
     0
  0
XRECORD
  5
874D
102
{ACAD_REACTORS
330
874C
102
}
330
874C
100
AcDbXrecord
280
     1
102
SHADEPLOT
 70
     0
  0
XRECORD
  5
874F
102
{ACAD_REACTORS
330
874E
102
}
330
874E
100
AcDbXrecord
280
     1
102
SHADEPLOT
 70
     0
  0
XRECORD
  5
8751
102
{ACAD_REACTORS
330
8750
102
}
330
8750
100
AcDbXrecord
280
     1
102
SHADEPLOT
 70
     0
  0
LAYOUT
  5
22
102
{ACAD_XDICTIONARY
360
86ED
102
}
102
{ACAD_REACTORS
330
1A
102
}
330
1A
100
AcDbPlotSettings
  1

  2
\\HJA-ISS\HP LaserJet 8150 PCL 6
  4
A4
  6

 40
4.233333110809326
 41
4.233341693878173
 42
4.233322143554687
 43
4.23333740234375
 44
209.9733276367187
 45
296.9259948730469
 46
0.0
 47
0.0
 48
0.0
 49
0.0
140
288.4599999999998
141
201.5099999999999
142
1.0
143
1.000016513684662
 70
 11952
 72
     1
 73
     1
 74
     4
  7
monochrome.ctb
 75
     0
147
0.9999834865880345
148
0.0
149
0.0
100
AcDbLayout
  1
Model
 70
     1
 71
     0
 10
0.0
 20
0.0
 11
12.0
 21
9.0
 12
0.0
 22
0.0
 32
0.0
 14
0.0
 24
0.0
 34
0.0
 15
0.0
 25
0.0
 35
0.0
146
0.0
 13
0.0
 23
0.0
 33
0.0
 16
1.0
 26
0.0
 36
0.0
 17
0.0
 27
1.0
 37
0.0
 76
     0
330
1F
331
6387
  0
LAYOUT
  5
1E
102
{ACAD_XDICTIONARY
360
8745
102
}
102
{ACAD_REACTORS
330
1A
102
}
330
1A
100
AcDbPlotSettings
  1

  2
\\HJA-ISS\HP LaserJet 8150 PCL 6
  4
A4
  6

 40
4.233333110809326
 41
4.233341693878173
 42
4.233322143554687
 43
4.23333740234375
 44
209.9733276367187
 45
296.9259948730469
 46
0.0
 47
0.0
 48
49.94588226953315
 49
38.8311605353754
140
240.1884225297883
141
167.9243128548342
142
1.0
143
0.6595125546489263
 70
   688
 72
     1
 73
     1
 74
     4
  7
monochrome.ctb
 75
     0
147
1.516271362767799
148
-49.94588226953315
149
-38.8311605353754
100
AcDbLayout
  1
ﾚｲｱｳﾄ1
 70
     1
 71
     1
 10
47.15394310462258
 20
36.03922420078566
 11
242.9803645250197
 21
174.519269918614
 12
0.0
 22
0.0
 32
0.0
 14
28.82629495675951
 24
20.13505625693949
 34
-0.0015258207003583
 15
259.6353157326059
 25
181.3786474074919
 35
0.0000000349246037
146
0.0
 13
0.0
 23
0.0
 33
0.0
 16
1.0
 26
0.0
 36
0.0
 17
0.0
 27
1.0
 37
0.0
 76
     0
330
1B
331
2835
  0
LAYOUT
  5
26
102
{ACAD_XDICTIONARY
360
8748
102
}
102
{ACAD_REACTORS
330
1A
102
}
330
1A
100
AcDbPlotSettings
  1

  2
\\HJA-ISS\HP LaserJet 8150 PCL 6
  4
A4
  6

 40
4.233333110809326
 41
4.233341693878173
 42
4.233322143554687
 43
4.23333740234375
 44
209.9733276367187
 45
296.9259948730469
 46
0.0
 47
0.0
 48
0.0
 49
0.0
140
0.0
141
0.0
142
1.0
143
1.0
 70
   688
 72
     1
 73
     1
 74
     5
  7
monochrome.ctb
 75
    16
147
1.0
148
0.0
149
0.0
100
AcDbLayout
  1
ﾚｲｱｳﾄ2
 70
     1
 71
     2
 10
-4.23333740234375
 20
-4.233333110809326
 11
292.6926574707031
 21
205.7399945259094
 12
0.0
 22
0.0
 32
0.0
 14
28.84593157768251
 24
20.15066723823549
 34
0.0
 15
259.6133841991425
 25
181.3560051441192
 35
0.0
146
0.0
 13
0.0
 23
0.0
 33
0.0
 16
1.0
 26
0.0
 36
0.0
 17
0.0
 27
1.0
 37
0.0
 76
     0
330
23
331
283B
  0
MATERIAL
  5
6392
102
{ACAD_XDICTIONARY
360
6393
102
}
102
{ACAD_REACTORS
330
6389
102
}
330
6389
100
AcDbMaterial
  1
ByBlock
 72
     0
 43
0.0008202099737533
 43
0.0
 43
0.0
 43
0.0
 43
0.0
 43
0.0008202099737533
 43
0.0
 43
0.0
 43
0.0
 43
0.0
 43
1.0
 43
0.0
 43
0.0
 43
0.0
 43
0.0
 43
1.0
 77
     0
 47
0.0008202099737533
 47
0.0
 47
0.0
 47
0.0
 47
0.0
 47
0.0008202099737533
 47
0.0
 47
0.0
 47
0.0
 47
0.0
 47
1.0
 47
0.0
 47
0.0
 47
0.0
 47
0.0
 47
1.0
171
     0
 49
0.0008202099737533
 49
0.0
 49
0.0
 49
0.0
 49
0.0
 49
0.0008202099737533
 49
0.0
 49
0.0
 49
0.0
 49
0.0
 49
1.0
 49
0.0
 49
0.0
 49
0.0
 49
0.0
 49
1.0
175
     0
142
0.0008202099737533
142
0.0
142
0.0
142
0.0
142
0.0
142
0.0008202099737533
142
0.0
142
0.0
142
0.0
142
0.0
142
1.0
142
0.0
142
0.0
142
0.0
142
0.0
142
1.0
179
     0
144
0.0008202099737533
144
0.0
144
0.0
144
0.0
144
0.0
144
0.0008202099737533
144
0.0
144
0.0
144
0.0
144
0.0
144
1.0
144
0.0
144
0.0
144
0.0
144
0.0
144
1.0
147
0.0008202099737533
147
0.0
147
0.0
147
0.0
147
0.0
147
0.0008202099737533
147
0.0
147
0.0
147
0.0
147
0.0
147
1.0
147
0.0
147
0.0
147
0.0
147
0.0
147
1.0
  0
MATERIAL
  5
638A
102
{ACAD_XDICTIONARY
360
638B
102
}
102
{ACAD_REACTORS
330
6389
102
}
330
6389
100
AcDbMaterial
  1
ByLayer
 72
     0
 43
0.0008202099737533
 43
0.0
 43
0.0
 43
0.0
 43
0.0
 43
0.0008202099737533
 43
0.0
 43
0.0
 43
0.0
 43
0.0
 43
1.0
 43
0.0
 43
0.0
 43
0.0
 43
0.0
 43
1.0
 77
     0
 47
0.0008202099737533
 47
0.0
 47
0.0
 47
0.0
 47
0.0
 47
0.0008202099737533
 47
0.0
 47
0.0
 47
0.0
 47
0.0
 47
1.0
 47
0.0
 47
0.0
 47
0.0
 47
0.0
 47
1.0
171
     0
 49
0.0008202099737533
 49
0.0
 49
0.0
 49
0.0
 49
0.0
 49
0.0008202099737533
 49
0.0
 49
0.0
 49
0.0
 49
0.0
 49
1.0
 49
0.0
 49
0.0
 49
0.0
 49
0.0
 49
1.0
175
     0
142
0.0008202099737533
142
0.0
142
0.0
142
0.0
142
0.0
142
0.0008202099737533
142
0.0
142
0.0
142
0.0
142
0.0
142
1.0
142
0.0
142
0.0
142
0.0
142
0.0
142
1.0
179
     0
144
0.0008202099737533
144
0.0
144
0.0
144
0.0
144
0.0
144
0.0008202099737533
144
0.0
144
0.0
144
0.0
144
0.0
144
1.0
144
0.0
144
0.0
144
0.0
144
0.0
144
1.0
147
0.0008202099737533
147
0.0
147
0.0
147
0.0
147
0.0
147
0.0008202099737533
147
0.0
147
0.0
147
0.0
147
0.0
147
1.0
147
0.0
147
0.0
147
0.0
147
0.0
147
1.0
  0
MATERIAL
  5
639A
102
{ACAD_XDICTIONARY
360
639B
102
}
102
{ACAD_REACTORS
330
6389
102
}
330
6389
100
AcDbMaterial
  1
Global
 72
     0
 43
0.0008202099737533
 43
0.0
 43
0.0
 43
0.0
 43
0.0
 43
0.0008202099737533
 43
0.0
 43
0.0
 43
0.0
 43
0.0
 43
1.0
 43
0.0
 43
0.0
 43
0.0
 43
0.0
 43
1.0
 77
     0
 47
0.0008202099737533
 47
0.0
 47
0.0
 47
0.0
 47
0.0
 47
0.0008202099737533
 47
0.0
 47
0.0
 47
0.0
 47
0.0
 47
1.0
 47
0.0
 47
0.0
 47
0.0
 47
0.0
 47
1.0
171
     0
 49
0.0008202099737533
 49
0.0
 49
0.0
 49
0.0
 49
0.0
 49
0.0008202099737533
 49
0.0
 49
0.0
 49
0.0
 49
0.0
 49
1.0
 49
0.0
 49
0.0
 49
0.0
 49
0.0
 49
1.0
175
     0
142
0.0008202099737533
142
0.0
142
0.0
142
0.0
142
0.0
142
0.0008202099737533
142
0.0
142
0.0
142
0.0
142
0.0
142
1.0
142
0.0
142
0.0
142
0.0
142
0.0
142
1.0
179
     0
144
0.0008202099737533
144
0.0
144
0.0
144
0.0
144
0.0
144
0.0008202099737533
144
0.0
144
0.0
144
0.0
144
0.0
144
1.0
144
0.0
144
0.0
144
0.0
144
0.0
144
1.0
147
0.0008202099737533
147
0.0
147
0.0
147
0.0
147
0.0
147
0.0008202099737533
147
0.0
147
0.0
147
0.0
147
0.0
147
1.0
147
0.0
147
0.0
147
0.0
147
0.0
147
1.0
  0
MLEADERSTYLE
  5
63D1
102
{ACAD_XDICTIONARY
360
8741
102
}
102
{ACAD_REACTORS
330
63D0
102
}
330
63D0
100
AcDbMLeaderStyle
170
     2
171
     1
172
     0
 90
        2
 40
0.0
 41
0.0
173
     1
 91
-1056964608
340
14
 92
       -2
290
     1
 42
2.0
291
     1
 43
0.36
  3
Standard
 44
4.0
300

342
11
174
     1
178
     6
175
     1
176
     0
 93
-1056964608
 45
4.0
292
     0
297
     0
 46
4.0
 94
-1056964608
 47
1.0
 49
1.0
140
1.0
293
     1
141
0.0
294
     1
177
     0
142
1.0
295
     0
296
     0
143
0.125
1001
ACAD_MLEADERVER
1070
     2
  0
MLINESTYLE
  5
18
102
{ACAD_REACTORS
330
17
102
}
330
17
100
AcDbMlineStyle
  2
STANDARD
 70
     0
  3

 62
   256
 51
90.0
 52
90.0
 71
     2
 49
0.5
 62
   256
  6
BYLAYER
 49
-0.5
 62
   256
  6
BYLAYER
  0
ACDBPLACEHOLDER
  5
F
102
{ACAD_REACTORS
330
E
102
}
330
E
  0
SCALE
  5
63BF
102
{ACAD_REACTORS
330
63BE
102
}
330
63BE
100
AcDbScale
 70
     0
300
1:1
140
1.0
141
1.0
290
     1
  0
SCALE
  5
63C0
102
{ACAD_REACTORS
330
63BE
102
}
330
63BE
100
AcDbScale
 70
     0
300
1:2
140
1.0
141
2.0
290
     0
  0
SCALE
  5
63C1
102
{ACAD_REACTORS
330
63BE
102
}
330
63BE
100
AcDbScale
 70
     0
300
1:4
140
1.0
141
4.0
290
     0
  0
SCALE
  5
63C2
102
{ACAD_REACTORS
330
63BE
102
}
330
63BE
100
AcDbScale
 70
     0
300
1:5
140
1.0
141
5.0
290
     0
  0
SCALE
  5
63C3
102
{ACAD_REACTORS
330
63BE
102
}
330
63BE
100
AcDbScale
 70
     0
300
1:8
140
1.0
141
8.0
290
     0
  0
SCALE
  5
63C4
102
{ACAD_REACTORS
330
63BE
102
}
330
63BE
100
AcDbScale
 70
     0
300
1:10
140
1.0
141
10.0
290
     0
  0
SCALE
  5
63C5
102
{ACAD_REACTORS
330
63BE
102
}
330
63BE
100
AcDbScale
 70
     0
300
1:16
140
1.0
141
16.0
290
     0
  0
SCALE
  5
63C6
102
{ACAD_REACTORS
330
63BE
102
}
330
63BE
100
AcDbScale
 70
     0
300
1:20
140
1.0
141
20.0
290
     0
  0
SCALE
  5
63C7
102
{ACAD_REACTORS
330
63BE
102
}
330
63BE
100
AcDbScale
 70
     0
300
1:30
140
1.0
141
30.0
290
     0
  0
SCALE
  5
63C8
102
{ACAD_REACTORS
330
63BE
102
}
330
63BE
100
AcDbScale
 70
     0
300
1:40
140
1.0
141
40.0
290
     0
  0
SCALE
  5
63C9
102
{ACAD_REACTORS
330
63BE
102
}
330
63BE
100
AcDbScale
 70
     0
300
1:50
140
1.0
141
50.0
290
     0
  0
SCALE
  5
63CA
102
{ACAD_REACTORS
330
63BE
102
}
330
63BE
100
AcDbScale
 70
     0
300
1:100
140
1.0
141
100.0
290
     0
  0
SCALE
  5
63CB
102
{ACAD_REACTORS
330
63BE
102
}
330
63BE
100
AcDbScale
 70
     0
300
2:1
140
2.0
141
1.0
290
     0
  0
SCALE
  5
63CC
102
{ACAD_REACTORS
330
63BE
102
}
330
63BE
100
AcDbScale
 70
     0
300
4:1
140
4.0
141
1.0
290
     0
  0
SCALE
  5
63CD
102
{ACAD_REACTORS
330
63BE
102
}
330
63BE
100
AcDbScale
 70
     0
300
8:1
140
8.0
141
1.0
290
     0
  0
SCALE
  5
63CE
102
{ACAD_REACTORS
330
63BE
102
}
330
63BE
100
AcDbScale
 70
     0
300
10:1
140
10.0
141
1.0
290
     0
  0
SCALE
  5
63CF
102
{ACAD_REACTORS
330
63BE
102
}
330
63BE
100
AcDbScale
 70
     0
300
100:1
140
100.0
141
1.0
290
     0
  0
TABLESTYLE
  5
63BD
102
{ACAD_XDICTIONARY
360
674F
102
}
102
{ACAD_REACTORS
330
63BC
102
}
330
63BC
100
AcDbTableStyle
  3
Standard
 70
     0
 71
     0
 40
1.5
 41
1.5
280
     0
281
     0
  7
Standard
140
4.5
170
     2
 62
     0
 63
     7
283
     0
274
    -2
284
     1
 64
     0
275
    -2
285
     1
 65
     0
276
    -2
286
     1
 66
     0
277
    -2
287
     1
 67
     0
278
    -2
288
     1
 68
     0
279
    -2
289
     1
 69
     0
  7
Standard
140
6.0
170
     5
 62
     0
 63
     7
283
     0
274
    -2
284
     1
 64
     0
275
    -2
285
     1
 65
     0
276
    -2
286
     1
 66
     0
277
    -2
287
     1
 67
     0
278
    -2
288
     1
 68
     0
279
    -2
289
     1
 69
     0
  7
Standard
140
4.5
170
     5
 62
     0
 63
     7
283
     0
274
    -2
284
     1
 64
     0
275
    -2
285
     1
 65
     0
276
    -2
286
     1
 66
     0
277
    -2
287
     1
 67
     0
278
    -2
288
     1
 68
     0
279
    -2
289
     1
 69
     0
  0
VISUALSTYLE
  5
63A8
102
{ACAD_XDICTIONARY
360
875F
102
}
102
{ACAD_REACTORS
330
63A2
102
}
330
63A2
100
AcDbVisualStyle
  2
2dWireframe
 70
     4
 71
     0
 72
     2
 73
     0
 90
        0
 40
-0.6
 41
-30.0
 62
     5
 63
     7
 74
     1
 91
        4
 64
     7
 65
   257
 75
     1
175
     1
 42
1.0
 92
        0
 66
   257
 43
1.0
 76
     1
 77
     6
 78
     2
 67
     7
 79
     5
170
     0
171
     0
290
     0
174
     0
 93
        1
 44
0.0
173
     0
291
     0
 45
0.0
1001
ACAD
1000
AcDbSavedByObjectVersion
1070
     0
  0
VISUALSTYLE
  5
63A7
102
{ACAD_XDICTIONARY
360
875D
102
}
102
{ACAD_REACTORS
330
63A2
102
}
330
63A2
100
AcDbVisualStyle
  2
Basic
 70
     7
 71
     1
 72
     0
 73
     1
 90
        0
 40
-0.6
 41
-30.0
 62
     5
 63
     7
 74
     0
 91
        4
 64
     7
 65
   257
 75
     1
175
     1
 42
1.0
 92
        8
 66
     7
 43
1.0
 76
     1
 77
     6
 78
     2
 67
     7
 79
     5
170
     0
171
     0
290
     0
174
     0
 93
        1
 44
0.0
173
     0
291
     1
 45
0.0
1001
ACAD
1000
AcDbSavedByObjectVersion
1070
     0
  0
VISUALSTYLE
  5
63AE
102
{ACAD_XDICTIONARY
360
876B
102
}
102
{ACAD_REACTORS
330
63A2
102
}
330
63A2
100
AcDbVisualStyle
  2
Brighten
 70
    12
 71
     2
 72
     2
 73
     0
 90
        0
 40
-0.6
 41
-30.0
 62
     5
 63
     7
 74
     1
 91
        4
 64
     7
 65
   257
 75
     1
175
     1
 42
1.0
 92
        8
 66
     7
 43
1.0
 76
     1
 77
     6
 78
     2
 67
     7
 79
     5
170
     0
171
     0
290
     0
174
     0
 93
        1
 44
50.0
173
     0
291
     1
 45
0.0
1001
ACAD
1000
AcDbSavedByObjectVersion
1070
     0
  0
VISUALSTYLE
  5
63B2
102
{ACAD_XDICTIONARY
360
8773
102
}
102
{ACAD_REACTORS
330
63A2
102
}
330
63A2
100
AcDbVisualStyle
  2
ColorChange
 70
    16
 71
     2
 72
     2
 73
     3
 90
        0
 40
-0.6
 41
-30.0
 62
     5
 63
     8
 74
     1
 91
        4
 64
     7
 65
   257
 75
     1
175
     1
 42
1.0
 92
        8
 66
     8
 43
1.0
 76
     1
 77
     6
 78
     2
 67
     7
 79
     5
170
     0
171
     0
290
     0
174
     0
 93
        1
 44
0.0
173
     0
291
     1
 45
0.0
1001
ACAD
1000
AcDbSavedByObjectVersion
1070
     0
  0
VISUALSTYLE
  5
63AB
102
{ACAD_XDICTIONARY
360
8765
102
}
102
{ACAD_REACTORS
330
63A2
102
}
330
63A2
100
AcDbVisualStyle
  2
Conceptual
 70
     9
 71
     3
 72
     2
 73
     0
 90
        0
 40
-0.6
 41
-30.0
 62
     5
 63
     7
 74
     2
 91
        2
 64
     7
 65
   257
 75
     1
175
     1
 42
179.0
 92
        8
 66
     7
 43
1.0
 76
     1
 77
     6
 78
     2
 67
     7
 79
     3
170
     0
171
     0
290
     0
174
     0
 93
        1
 44
0.0
173
     0
291
     0
 45
0.0
1001
ACAD
1000
AcDbSavedByObjectVersion
1070
     0
  0
VISUALSTYLE
  5
63AD
102
{ACAD_XDICTIONARY
360
8769
102
}
102
{ACAD_REACTORS
330
63A2
102
}
330
63A2
100
AcDbVisualStyle
  2
Dim
 70
    11
 71
     2
 72
     2
 73
     0
 90
        0
 40
-0.6
 41
-30.0
 62
     5
 63
     7
 74
     1
 91
        4
 64
     7
 65
   257
 75
     1
175
     1
 42
1.0
 92
        8
 66
     7
 43
1.0
 76
     1
 77
     6
 78
     2
 67
     7
 79
     5
170
     0
171
     0
290
     0
174
     0
 93
        1
 44
-50.0
173
     0
291
     1
 45
0.0
1001
ACAD
1000
AcDbSavedByObjectVersion
1070
     0
  0
VISUALSTYLE
  5
63BA
102
{ACAD_XDICTIONARY
360
8783
102
}
102
{ACAD_REACTORS
330
63A2
102
}
330
63A2
100
AcDbVisualStyle
  2
EdgeColorOff
 70
    22
 71
     2
 72
     2
 73
     0
 90
        0
 40
-0.6
 41
-30.0
 62
     5
 63
     7
 74
     1
 91
        4
 64
     7
 65
   257
 75
     1
175
     1
 42
1.0
 92
        8
 66
     7
 43
1.0
 76
     1
 77
     6
 78
     2
 67
     7
 79
     5
170
     0
171
     0
290
     0
174
     0
 93
        1
 44
0.0
173
     0
291
     1
 45
0.0
1001
ACAD
1000
AcDbSavedByObjectVersion
1070
     0
  0
VISUALSTYLE
  5
63B1
102
{ACAD_XDICTIONARY
360
8771
102
}
102
{ACAD_REACTORS
330
63A2
102
}
330
63A2
100
AcDbVisualStyle
  2
Facepattern
 70
    15
 71
     2
 72
     2
 73
     0
 90
        0
 40
-0.6
 41
-30.0
 62
     5
 63
     7
 74
     1
 91
        4
 64
     7
 65
   257
 75
     1
175
     1
 42
1.0
 92
        8
 66
     7
 43
1.0
 76
     1
 77
     6
 78
     2
 67
     7
 79
     5
170
     0
171
     0
290
     0
174
     0
 93
        1
 44
0.0
173
     0
291
     1
 45
0.0
1001
ACAD
1000
AcDbSavedByObjectVersion
1070
     0
  0
VISUALSTYLE
  5
63A3
102
{ACAD_XDICTIONARY
360
8755
102
}
102
{ACAD_REACTORS
330
63A2
102
}
330
63A2
100
AcDbVisualStyle
  2
Flat
 70
     0
 71
     2
 72
     1
 73
     1
 90
        2
 40
-0.6
 41
30.0
 62
     5
 63
     7
 74
     0
 91
        0
 64
     7
 65
   257
 75
     1
175
     1
 42
1.0
 92
        8
 66
     7
 43
1.0
 76
     1
 77
     6
 78
     2
 67
     7
 79
     5
170
     0
171
     0
290
     0
174
     0
 93
       13
 44
0.0
173
     0
291
     1
 45
0.0
1001
ACAD
1000
AcDbSavedByObjectVersion
1070
     0
  0
VISUALSTYLE
  5
63A4
102
{ACAD_XDICTIONARY
360
8757
102
}
102
{ACAD_REACTORS
330
63A2
102
}
330
63A2
100
AcDbVisualStyle
  2
FlatWithEdges
 70
     1
 71
     2
 72
     1
 73
     1
 90
        2
 40
-0.6
 41
30.0
 62
     5
 63
     7
 74
     1
 91
        0
 64
     7
 65
   257
 75
     1
175
     1
 42
1.0
 92
        0
 66
   257
 43
1.0
 76
     1
 77
     6
 78
     2
 67
     7
 79
     5
170
     0
171
     0
290
     0
174
     0
 93
       13
 44
0.0
173
     0
291
     1
 45
0.0
1001
ACAD
1000
AcDbSavedByObjectVersion
1070
     0
  0
VISUALSTYLE
  5
63A5
102
{ACAD_XDICTIONARY
360
8759
102
}
102
{ACAD_REACTORS
330
63A2
102
}
330
63A2
100
AcDbVisualStyle
  2
Gouraud
 70
     2
 71
     2
 72
     2
 73
     1
 90
        2
 40
-0.6
 41
30.0
 62
     5
 63
     7
 74
     0
 91
        0
 64
     7
 65
   257
 75
     1
175
     1
 42
1.0
 92
        0
 66
     7
 43
1.0
 76
     1
 77
     6
 78
     2
 67
     7
 79
     5
170
     0
171
     0
290
     0
174
     0
 93
       13
 44
0.0
173
     0
291
     1
 45
0.0
1001
ACAD
1000
AcDbSavedByObjectVersion
1070
     0
  0
VISUALSTYLE
  5
63A6
102
{ACAD_XDICTIONARY
360
875B
102
}
102
{ACAD_REACTORS
330
63A2
102
}
330
63A2
100
AcDbVisualStyle
  2
GouraudWithEdges
 70
     3
 71
     2
 72
     2
 73
     1
 90
        2
 40
-0.6
 41
30.0
 62
     5
 63
     7
 74
     1
 91
        0
 64
     7
 65
   257
 75
     1
175
     1
 42
1.0
 92
        0
 66
   257
 43
1.0
 76
     1
 77
     6
 78
     2
 67
     7
 79
     5
170
     0
171
     0
290
     0
174
     0
 93
       13
 44
0.0
173
     0
291
     1
 45
0.0
1001
ACAD
1000
AcDbSavedByObjectVersion
1070
     0
  0
VISUALSTYLE
  5
63AA
102
{ACAD_XDICTIONARY
360
8763
102
}
102
{ACAD_REACTORS
330
63A2
102
}
330
63A2
100
AcDbVisualStyle
  2
Hidden
 70
     6
 71
     1
 72
     2
 73
     2
 90
        0
 40
-0.6
 41
-30.0
 62
     5
 63
     7
 74
     2
 91
        2
 64
     7
 65
   257
 75
     2
175
     1
 42
40.0
 92
        0
 66
   257
 43
1.0
 76
     1
 77
     6
 78
     2
 67
     7
 79
     3
170
     0
171
     0
290
     0
174
     0
 93
        1
 44
0.0
173
     0
291
     0
 45
0.0
1001
ACAD
1000
AcDbSavedByObjectVersion
1070
     0
  0
VISUALSTYLE
  5
63B8
102
{ACAD_XDICTIONARY
360
877F
102
}
102
{ACAD_REACTORS
330
63A2
102
}
330
63A2
100
AcDbVisualStyle
  2
JitterOff
 70
    20
 71
     2
 72
     2
 73
     0
 90
        0
 40
-0.6
 41
-30.0
 62
     5
 63
     7
 74
     1
 91
        4
 64
     7
 65
   257
 75
     1
175
     1
 42
1.0
 92
       10
 66
     7
 43
1.0
 76
     1
 77
     6
 78
     2
 67
     7
 79
     5
170
     0
171
     0
290
     0
174
     0
 93
        1
 44
0.0
173
     0
291
     1
 45
0.0
1001
ACAD
1000
AcDbSavedByObjectVersion
1070
     0
  0
VISUALSTYLE
  5
63B0
102
{ACAD_XDICTIONARY
360
876F
102
}
102
{ACAD_REACTORS
330
63A2
102
}
330
63A2
100
AcDbVisualStyle
  2
Linepattern
 70
    14
 71
     2
 72
     2
 73
     0
 90
        0
 40
-0.6
 41
-30.0
 62
     5
 63
     7
 74
     1
 91
        4
 64
     7
 65
   257
 75
     7
175
     7
 42
1.0
 92
        8
 66
     7
 43
1.0
 76
     1
 77
     6
 78
     2
 67
     7
 79
     5
170
     0
171
     0
290
     0
174
     0
 93
        1
 44
0.0
173
     0
291
     1
 45
0.0
1001
ACAD
1000
AcDbSavedByObjectVersion
1070
     0
  0
VISUALSTYLE
  5
63B9
102
{ACAD_XDICTIONARY
360
8781
102
}
102
{ACAD_REACTORS
330
63A2
102
}
330
63A2
100
AcDbVisualStyle
  2
OverhangOff
 70
    21
 71
     2
 72
     2
 73
     0
 90
        0
 40
-0.6
 41
-30.0
 62
     5
 63
     7
 74
     1
 91
        4
 64
     7
 65
   257
 75
     1
175
     1
 42
1.0
 92
        9
 66
     7
 43
1.0
 76
     1
 77
     6
 78
     2
 67
     7
 79
     5
170
     0
171
     0
290
     0
174
     0
 93
        1
 44
0.0
173
     0
291
     1
 45
0.0
1001
ACAD
1000
AcDbSavedByObjectVersion
1070
     0
  0
VISUALSTYLE
  5
63AC
102
{ACAD_XDICTIONARY
360
8767
102
}
102
{ACAD_REACTORS
330
63A2
102
}
330
63A2
100
AcDbVisualStyle
  2
Realistic
 70
     8
 71
     2
 72
     2
 73
     0
 90
        2
 40
-0.6
 41
30.0
 62
     5
 63
     7
 74
     0
 91
        0
 64
     7
 65
   257
 75
     1
175
     1
 42
1.0
 92
        8
 66
   257
 43
1.0
 76
     1
 77
     6
 78
     2
 67
     7
 79
     3
170
     0
171
     0
290
     0
174
     0
 93
       13
 44
0.0
173
     0
291
     0
 45
0.0
1001
ACAD
1000
AcDbSavedByObjectVersion
1070
     0
  0
VISUALSTYLE
  5
63B7
102
{ACAD_XDICTIONARY
360
877D
102
}
102
{ACAD_REACTORS
330
63A2
102
}
330
63A2
100
AcDbVisualStyle
  2
Shaded
 70
    27
 71
     2
 72
     2
 73
     1
 90
        2
 40
-0.6
 41
30.0
 62
     5
 63
     7
 74
     0
 91
        4
 64
     7
 65
   257
 75
     1
175
     1
 42
1.0
 92
        8
 66
   257
 43
1.0
 76
     1
 77
     6
 78
     2
 67
     8
 79
     3
170
     0
171
     0
290
     0
174
     0
 93
        5
 44
0.0
173
     0
291
     0
 45
0.0
1001
ACAD
1000
AcDbSavedByObjectVersion
1070
     0
  0
VISUALSTYLE
  5
63B6
102
{ACAD_XDICTIONARY
360
877B
102
}
102
{ACAD_REACTORS
330
63A2
102
}
330
63A2
100
AcDbVisualStyle
  2
Shaded with edges
 70
    26
 71
     2
 72
     2
 73
     1
 90
        2
 40
-0.6
 41
30.0
 62
     5
 63
     7
 74
     1
 91
       10
 64
     7
 65
   257
 75
     2
175
     1
 42
1.0
 92
        8
 66
   257
 43
1.0
 76
     1
 77
     6
 78
     2
 67
     7
 79
     3
170
     0
171
     0
290
     0
174
     0
 93
        5
 44
0.0
173
     0
291
     0
 45
0.0
1001
ACAD
1000
AcDbSavedByObjectVersion
1070
     0
  0
VISUALSTYLE
  5
63B3
102
{ACAD_XDICTIONARY
360
8775
102
}
102
{ACAD_REACTORS
330
63A2
102
}
330
63A2
100
AcDbVisualStyle
  2
Shades of Gray
 70
    23
 71
     2
 72
     2
 73
     3
 90
        0
 40
-0.6
 41
-30.0
 62
     5
 63
     7
 74
     2
 91
        2
 64
     7
 65
     7
 75
     1
175
     1
 42
40.0
 92
        8
 66
     7
 43
1.0
 76
     1
 77
     6
 78
     2
 67
     7
 79
     3
170
     0
171
     0
290
     0
174
     0
 93
        1
 44
0.0
173
     0
291
     0
 45
0.0
1001
ACAD
1000
AcDbSavedByObjectVersion
1070
     0
  0
VISUALSTYLE
  5
63B4
102
{ACAD_XDICTIONARY
360
8777
102
}
102
{ACAD_REACTORS
330
63A2
102
}
330
63A2
100
AcDbVisualStyle
  2
Sketchy
 70
    24
 71
     1
 72
     2
 73
     2
 90
        0
 40
-0.6
 41
-30.0
 62
     5
 63
     7
 74
     2
 91
        2
 64
     7
 65
     7
 75
     1
175
     1
 42
40.0
 92
       11
 66
     7
 43
1.0
 76
     1
 77
     6
 78
     2
 67
     7
 79
     6
170
     0
171
     0
290
     0
174
     0
 93
        1
 44
0.0
173
     0
291
     0
 45
0.0
1001
ACAD
1000
AcDbSavedByObjectVersion
1070
     0
  0
VISUALSTYLE
  5
63AF
102
{ACAD_XDICTIONARY
360
876D
102
}
102
{ACAD_REACTORS
330
63A2
102
}
330
63A2
100
AcDbVisualStyle
  2
Thicken
 70
    13
 71
     2
 72
     2
 73
     0
 90
        0
 40
-0.6
 41
-30.0
 62
     5
 63
     7
 74
     1
 91
        4
 64
     7
 65
   257
 75
     1
175
     1
 42
1.0
 92
       12
 66
     7
 43
1.0
 76
     1
 77
     6
 78
     2
 67
     7
 79
     5
170
     0
171
     0
290
     0
174
     0
 93
        1
 44
0.0
173
     0
291
     1
 45
0.0
1001
ACAD
1000
AcDbSavedByObjectVersion
1070
     0
  0
VISUALSTYLE
  5
63A9
102
{ACAD_XDICTIONARY
360
8761
102
}
102
{ACAD_REACTORS
330
63A2
102
}
330
63A2
100
AcDbVisualStyle
  2
Wireframe
 70
     5
 71
     0
 72
     2
 73
     0
 90
        0
 40
-0.6
 41
-30.0
 62
     5
 63
     7
 74
     1
 91
        4
 64
     7
 65
   257
 75
     1
175
     1
 42
1.0
 92
        0
 66
   257
 43
1.0
 76
     1
 77
     6
 78
     2
 67
     7
 79
     3
170
     0
171
     0
290
     0
174
     0
 93
        1
 44
0.0
173
     0
291
     0
 45
0.0
1001
ACAD
1000
AcDbSavedByObjectVersion
1070
     0
  0
VISUALSTYLE
  5
63B5
102
{ACAD_XDICTIONARY
360
8779
102
}
102
{ACAD_REACTORS
330
63A2
102
}
330
63A2
100
AcDbVisualStyle
  2
X-Ray
 70
    25
 71
     2
 72
     2
 73
     1
 90
        1
 40
0.5
 41
-30.0
 62
     5
 63
     7
 74
     1
 91
        0
 64
     7
 65
   257
 75
     1
175
     1
 42
1.0
 92
        8
 66
     7
 43
1.0
 76
     1
 77
     6
 78
     2
 67
     7
 79
     3
170
     0
171
     0
290
     0
174
     0
 93
       13
 44
0.0
173
     0
291
     0
 45
0.0
1001
ACAD
1000
AcDbSavedByObjectVersion
1070
     0
  0
DICTIONARYVAR
  5
679E
102
{ACAD_REACTORS
330
5AA
102
}
330
5AA
100
DictionaryVariables
280
     0
  1
1:1
  0
DICTIONARYVAR
  5
679D
102
{ACAD_REACTORS
330
5AA
102
}
330
5AA
100
DictionaryVariables
280
     0
  1
STANDARD
  0
DICTIONARYVAR
  5
679C
102
{ACAD_REACTORS
330
5AA
102
}
330
5AA
100
DictionaryVariables
280
     0
  1
STANDARD
  0
DICTIONARYVAR
  5
5AB
102
{ACAD_REACTORS
330
5AA
102
}
330
5AA
100
DictionaryVariables
280
     0
  1
1
  0
DICTIONARYVAR
  5
67A0
102
{ACAD_REACTORS
330
5AA
102
}
330
5AA
100
DictionaryVariables
280
     0
  1
0
  0
DICTIONARYVAR
  5
7E56
102
{ACAD_REACTORS
330
5AA
102
}
330
5AA
100
DictionaryVariables
280
     0
  1
1
  0
DICTIONARYVAR
  5
7E57
102
{ACAD_REACTORS
330
5AA
102
}
330
5AA
100
DictionaryVariables
280
     0
  1
15
  0
DICTIONARYVAR
  5
7E55
102
{ACAD_REACTORS
330
5AA
102
}
330
5AA
100
DictionaryVariables
280
     0
  1
0
  0
DICTIONARYVAR
  5
7E54
102
{ACAD_REACTORS
330
5AA
102
}
330
5AA
100
DictionaryVariables
280
     0
  1
0
  0
DICTIONARYVAR
  5
679F
102
{ACAD_REACTORS
330
5AA
102
}
330
5AA
100
DictionaryVariables
280
     0
  1
127
  0
DICTIONARYVAR
  5
86F9
102
{ACAD_REACTORS
330
5AA
102
}
330
5AA
100
DictionaryVariables
280
     0
  1
2
  0
DICTIONARY
  5
86ED
330
22
100
AcDbDictionary
280
     1
281
     1
  3
ACAD_XREC_ROUNDTRIP
360
8747
  3
ADSK_XREC_LAYOUTTHUMBNAIL
360
86EE
  0
DICTIONARY
  5
8745
330
1E
100
AcDbDictionary
280
     1
281
     1
  3
ACAD_XREC_ROUNDTRIP
360
8746
  0
DICTIONARY
  5
8748
330
26
100
AcDbDictionary
280
     1
281
     1
  3
ACAD_XREC_ROUNDTRIP
360
8749
  0
DICTIONARY
  5
6393
330
6392
100
AcDbDictionary
280
     1
281
     1
  3
ACAD_XREC_ROUNDTRIP
360
8753
  3
BUMPTILE
360
6395
  3
DIFFUSETILE
360
6394
  3
OPACITYTILE
360
6398
  3
REFLECTIONTILE
360
6397
  3
REFRACTIONTILE
360
6399
  3
SPECULARTILE
360
6396
  0
DICTIONARY
  5
638B
330
638A
100
AcDbDictionary
280
     1
281
     1
  3
ACAD_XREC_ROUNDTRIP
360
8752
  3
BUMPTILE
360
638D
  3
DIFFUSETILE
360
638C
  3
OPACITYTILE
360
6390
  3
REFLECTIONTILE
360
638F
  3
REFRACTIONTILE
360
6391
  3
SPECULARTILE
360
638E
  0
DICTIONARY
  5
639B
330
639A
100
AcDbDictionary
280
     1
281
     1
  3
ACAD_XREC_ROUNDTRIP
360
8754
  3
BUMPTILE
360
639D
  3
DIFFUSETILE
360
639C
  3
OPACITYTILE
360
63A0
  3
REFLECTIONTILE
360
639F
  3
REFRACTIONTILE
360
63A1
  3
SPECULARTILE
360
639E
  0
DICTIONARY
  5
8741
330
63D1
100
AcDbDictionary
280
     1
281
     1
  3
ACAD_XREC_ROUNDTRIP
360
8742
  0
DICTIONARY
  5
674F
330
63BD
100
AcDbDictionary
280
     1
281
     1
  3
ACAD_ROUNDTRIP_2008_TABLESTYLE_CELLSTYLEMAP
360
8740
  3
ACAD_XREC_ROUNDTRIP
360
8785
  0
DICTIONARY
  5
875F
330
63A8
100
AcDbDictionary
280
     1
281
     1
  3
ACAD_XREC_ROUNDTRIP
360
8760
  0
DICTIONARY
  5
875D
330
63A7
100
AcDbDictionary
280
     1
281
     1
  3
ACAD_XREC_ROUNDTRIP
360
875E
  0
DICTIONARY
  5
876B
330
63AE
100
AcDbDictionary
280
     1
281
     1
  3
ACAD_XREC_ROUNDTRIP
360
876C
  0
DICTIONARY
  5
8773
330
63B2
100
AcDbDictionary
280
     1
281
     1
  3
ACAD_XREC_ROUNDTRIP
360
8774
  0
DICTIONARY
  5
8765
330
63AB
100
AcDbDictionary
280
     1
281
     1
  3
ACAD_XREC_ROUNDTRIP
360
8766
  0
DICTIONARY
  5
8769
330
63AD
100
AcDbDictionary
280
     1
281
     1
  3
ACAD_XREC_ROUNDTRIP
360
876A
  0
DICTIONARY
  5
8783
330
63BA
100
AcDbDictionary
280
     1
281
     1
  3
ACAD_XREC_ROUNDTRIP
360
8784
  0
DICTIONARY
  5
8771
330
63B1
100
AcDbDictionary
280
     1
281
     1
  3
ACAD_XREC_ROUNDTRIP
360
8772
  0
DICTIONARY
  5
8755
330
63A3
100
AcDbDictionary
280
     1
281
     1
  3
ACAD_XREC_ROUNDTRIP
360
8756
  0
DICTIONARY
  5
8757
330
63A4
100
AcDbDictionary
280
     1
281
     1
  3
ACAD_XREC_ROUNDTRIP
360
8758
  0
DICTIONARY
  5
8759
330
63A5
100
AcDbDictionary
280
     1
281
     1
  3
ACAD_XREC_ROUNDTRIP
360
875A
  0
DICTIONARY
  5
875B
330
63A6
100
AcDbDictionary
280
     1
281
     1
  3
ACAD_XREC_ROUNDTRIP
360
875C
  0
DICTIONARY
  5
8763
330
63AA
100
AcDbDictionary
280
     1
281
     1
  3
ACAD_XREC_ROUNDTRIP
360
8764
  0
DICTIONARY
  5
877F
330
63B8
100
AcDbDictionary
280
     1
281
     1
  3
ACAD_XREC_ROUNDTRIP
360
8780
  0
DICTIONARY
  5
876F
330
63B0
100
AcDbDictionary
280
     1
281
     1
  3
ACAD_XREC_ROUNDTRIP
360
8770
  0
DICTIONARY
  5
8781
330
63B9
100
AcDbDictionary
280
     1
281
     1
  3
ACAD_XREC_ROUNDTRIP
360
8782
  0
DICTIONARY
  5
8767
330
63AC
100
AcDbDictionary
280
     1
281
     1
  3
ACAD_XREC_ROUNDTRIP
360
8768
  0
DICTIONARY
  5
877D
330
63B7
100
AcDbDictionary
280
     1
281
     1
  3
ACAD_XREC_ROUNDTRIP
360
877E
  0
DICTIONARY
  5
877B
330
63B6
100
AcDbDictionary
280
     1
281
     1
  3
ACAD_XREC_ROUNDTRIP
360
877C
  0
DICTIONARY
  5
8775
330
63B3
100
AcDbDictionary
280
     1
281
     1
  3
ACAD_XREC_ROUNDTRIP
360
8776
  0
DICTIONARY
  5
8777
330
63B4
100
AcDbDictionary
280
     1
281
     1
  3
ACAD_XREC_ROUNDTRIP
360
8778
  0
DICTIONARY
  5
876D
330
63AF
100
AcDbDictionary
280
     1
281
     1
  3
ACAD_XREC_ROUNDTRIP
360
876E
  0
DICTIONARY
  5
8761
330
63A9
100
AcDbDictionary
280
     1
281
     1
  3
ACAD_XREC_ROUNDTRIP
360
8762
  0
DICTIONARY
  5
8779
330
63B5
100
AcDbDictionary
280
     1
281
     1
  3
ACAD_XREC_ROUNDTRIP
360
877A
  0
XRECORD
  5
8747
102
{ACAD_REACTORS
330
86ED
102
}
330
86ED
100
AcDbXrecord
280
     1
102
SHADEPLOT
 70
     0
102
SHADEPLOTRESLEVEL
 70
     2
102
SHADEPLOTCUSTOMDPI
 70
   300
  0
XRECORD
  5
86EE
102
{ACAD_REACTORS
330
86ED
102
}
330
86ED
100
AcDbXrecord
280
     1
310
28000000000100006D0000000100080000000000006D0000000000000000000000010000000000003028210000000000C8C8C8000000000000000000000000000000000000000000000000000000000000000000330000006600000099000000CC000000FF00000000330000333300006633000099330000CC330000FF3300
310
0000660000336600006666000099660000CC660000FF66000000990000339900006699000099990000CC990000FF99000000CC000033CC000066CC000099CC0000CCCC0000FFCC000000FF000033FF000066FF000099FF0000CCFF0000FFFF000000003300330033006600330099003300CC003300FF003300003333003333
310
33006633330099333300CC333300FF33330000663300336633006666330099663300CC663300FF66330000993300339933006699330099993300CC993300FF99330000CC330033CC330066CC330099CC3300CCCC3300FFCC330000FF330033FF330066FF330099FF3300CCFF3300FFFF330000006600330066006600660099
310
006600CC006600FF00660000336600333366006633660099336600CC336600FF33660000666600336666006666660099666600CC666600FF66660000996600339966006699660099996600CC996600FF99660000CC660033CC660066CC660099CC6600CCCC6600FFCC660000FF660033FF660066FF660099FF6600CCFF6600
310
FFFF660000009900330099006600990099009900CC009900FF00990000339900333399006633990099339900CC339900FF33990000669900336699006666990099669900CC669900FF66990000999900339999006699990099999900CC999900FF99990000CC990033CC990066CC990099CC9900CCCC9900FFCC990000FF99
310
0033FF990066FF990099FF9900CCFF9900FFFF99000000CC003300CC006600CC009900CC00CC00CC00FF00CC000033CC003333CC006633CC009933CC00CC33CC00FF33CC000066CC003366CC006666CC009966CC00CC66CC00FF66CC000099CC003399CC006699CC009999CC00CC99CC00FF99CC0000CCCC0033CCCC0066CC
310
CC0099CCCC00CCCCCC00FFCCCC0000FFCC0033FFCC0066FFCC0099FFCC00CCFFCC00FFFFCC000000FF003300FF006600FF009900FF00CC00FF00FF00FF000033FF003333FF006633FF009933FF00CC33FF00FF33FF000066FF003366FF006666FF009966FF00CC66FF00FF66FF000099FF003399FF006699FF009999FF00CC
310
99FF00FF99FF0000CCFF0033CCFF0066CCFF0099CCFF00CCCCFF00FFCCFF0000FFFF0033FFFF0066FFFF0099FFFF00CCFFFF00FFFFFF00000000000D0D0D001A1A1A00282828003535350043434300505050005D5D5D006B6B6B00787878008686860093939300A1A1A100AEAEAE00BBBBBB00C9C9C900D6D6D600E4E4E400
310
F1F1F100FFFFFF000000000000000000000000000000000000000000000000000000000000000000000000000000000000000000000000000000000000000000000000000000000000000000000000000000000000000000000000000000000000000000000000000000000000000000000000000000000000000000000000
310
00000000000000000000000000000000000000000000000000000000000000000000000000000000000000000000000000000000000000000000000000000000000000000000000000000000000000000000000000000000000000000000000000000000000000000000000000000000000000000000000000000000000000
310
00000000000000000000000000000000000000000000000000000000000000000000000000000000000000000000000000000000000000000000000000000000000000000000000000000000000000000000000000000000000000000000000000000000000000000000000000000000000000000000000000000000000000
310
00000000000000000000000000000000000000000000000000000000000000000000000000000000000000000000000000000000000000000000000000000000000000000000000000000000000000000000000000000000000000000000000000000000000000000000000000000000000000000000000000000000000000
310
00000000000000000000000000000000000000000000000000000000000000000000000000000000000000000000000000000000000000000000000000000000000000000000000000000000000000000000000000000000000000000000000000000000000000000000000000000000000000000000000000000000000000
310
00000000000000000000000000000000000000000000000000000000000000000000000000000000000000000000000000000000000000000000000000000000000000000000000000000000000000000000000000000000000000000000000000000000000000000000000000000000000000000000000000000000000000
310
00000000000000000000000000000000000000000000000000000000000000000000000000000000000000000000000000000000000000000000000000000000000000000000000000000000000000000000000000000000000000000000000000000000000000000000000000000000000000000000000000000000000000
310
00000000000000000000000000000000000000000000000000000000000000000000000000000000000000000000000000000000000000000000000000000000000000000000000000000000000000000000000000000000000000000000000000000000000000000000000000000000000000000000000000000000000000
310
00000000000000000000000000000000000000000000000000000000000000000000000000000000000000000000000000000000000000000000000000000000000000000000000000000000000000000000000000000000000000000000000000000000000000000000000000000000000000000000000000000000000000
310
00000000000000000000000000000000000000000000000000000000000000000000000000000000000000000000000000000000000000000000000000000000000000000000000000000000000000000000000000000000000000000000000000000000000000000000000000000000000000000000000000000000000000
310
00000000000000000000000000000000000000000000000000000000000000000000000000000000000000000000000000000000000000000000000000000000000000000000000000000000000000000000000000000000000000000000000000000000000000000000000000000000000000000000000000000000000000
310
00000000000000000000000000000000000000000000000000000000000000000000000000000000000000000000000000000000000000000000000000000000000000000000000000000000000000000000000000000000000000000000000000000000000000000000000000000000000000000000000000000000000000
310
00000000000000000000000000000000000000000000000000000000000000000000000000000000000000000000000000000000000000000000000000000000000000000000000000000000000000000000000000000000000000000000000000000000000000000000000000000000000000000000000000000000000000
310
00000000000000000000000000000000000000000000000000000000000000000000000000000000000000000000000000000000000000000000000000000000000000000000000000000000000000000000000000000000000000000000000000000000000000000000000000000000000000000000000000000000000000
310
00000000000000000000000000000000000000000000000000000000000000000000000000000000000000000000000000000000000000000000000000000000000000000000000000000000000000000000000000000000000000000000000000000000000000000000000000000000000000000000000000000000000000
310
00000000000000000000000000000000000000000000000000000000000000000000000000000000000000000000000000000000000000000000000000000000000000000000000000000000000000000000000000000000000000000000000000000000000000000000000000000000000000000000000000000000000000
310
00000000000000000000000000000000000000000000000000000000000000000000000000000000000000000000000000000000000000000000000000000000000000000000000000000000000000000000000000000000000000000000000000000000000000000000000000000000000000000000000000000000000000
310
00000000000000000000000000000000000000000000000000000000000000000000000000000000000000000000000000000000000000000000000000000000000000000000000000000000000000000000000000000000000000000000000000000000000000000000000000000000000000000000000000000000000000
310
00000000000000000000000000000000000000000000000000000000000000000000000000000000000000000000000000000000000000000000000000000000000000000000000000000000000000000000000000000000000000000000000000000000000000000000000000000000000000000000000000000000000000
310
00000000000000000000000000000000000000000000000000000000000000000000000000000000000000000000000000000000000000000000000000000000000000000000000000000000000000000000000000000000000000000000000000000000000000000000000000000000000000000000000000000000000000
310
00000000000000000000000000000000000000000000000000000000000000000000000000000000000000000000000000000000000000000000000000000000000000000000000000000000000000000000000000000000000000000000000000000000000000000000000000000000000000000000000000000000000000
310
00000000000000000000000000000000000000000000000000000000000000000000000000000000000000000000000000000000000000000000000000000000000000000000000000000000000000000000000000000000000000000000000000000000000000000000000000000000000000000000000000000000000000
310
00000000000000000000000000000000000000000000000000000000000000000000000000000000000000000000000000000000000000000000000000000000000000000000000000000000000000000000000000000000000000000000000000000000000000000000000000000000000000000000000000000000000000
310
000000000000000000000000000000000000000000000000000000000000000000000000000000F0F0F0F0F0F0F0F0F0F0F0F0F0F0F0F0F0F0F0F0F0F0F0F0F0F0F0F0F0F0F0F0F0F0F0F0F0F0F0F0F0F0F0F0F0F0000000000000000000000000000000F0F5F5F5F5F0F0F0F0F0F0F0F0F0F0F0F0F0F0F0F0F0F0F0F0F0F0
310
F0F0F5F5F5F5F0F0F0F0F5F5F0F0F0F0000000000000000000000000000000000000000000000000000000000000000000000000000000000000000000000000000000000000000000000000000000000000000000000000000000000000000000000000000000000000000000000000000000000000000000000000000000
310
0000000000000000000000000000000000000000000000000000000000000000000000000000000000F0000000000000F000000000000000000000000000000000F0000000000000F0000000000000F0000000000000F0000000000000000000000000000000F0000000000000000000000000000000000000000000000000
310
000000F0000000000000F0000000000000F000000000000000000000000000000000000000000000000000000000000000000000000000000000000000000000000000000000000000000000000000000000000000000000000000000000000000000000000000000000000000000000000000000000000000000000000000
310
00000000000000000000000000000000000000000000000000000000000000000000000000000000000000F0F0F0F0F0F0F0F0F0F0F0F0F0F0F0F0F0F0F0F0F0F0F0F0F0F0F0F0F0F0F0F0F0F0F0F0F0F0F0F0F0F0F0F0F0F0000000000000000000000000000000F0F5F5F5F5F0F0F0F0F0F0F0F0F0F0F0F0F0F0F0F0F0F0
310
F0F0F0F0F0F0F5F5F5F5F0F0F0F0F0F0F0F0F0F00000000000000000000000000000000000000000000000000000000000000000000000000000000000000000000000000000000000000000000000000000000000000000000000000000000000000000000000000000000000000000000000000000000000000000000000
310
000000000000000000000000000000000000000000000000000000000000000000000000000000000000000000F0F0F0F0F0F0F0F0F0F0F0F0F0F0F0F0F0F0F0F0F0F0F0F0F0F0F0F0F0F0F0F0F0F0F0F0F0F0F0F0F0F0F0F0F0F0000000000000000000000000000000F0F0F0F0F0F0F0F0F0F0F0F0F0F0F0F0F0F0F0F0F0
310
F0F0F0F0F0F0F0F0F0F0F5F5F0F0F0F0F0F0F0F0F0F0000000000000000000000000000000000000000000000000000000000000000000000000000000000000000000000000000000000000000000000000000000000000000000000000000000000000000000000000000000000000000000000000000000000000000000
310
0000000000000000000000000000000000000000000000000000000000000000000000000000000000000000000000F000F5F5000000F5F5F5F5F5F5F500000000000000000000F0F5F5F5F50000F000F5F5000000F000F5F5000000F0000000000000000000000000000000F0F5F5F5F5F5F5000000000000000000000000
310
000000000000000000F00000F5F50000F0000000000000F000000000000000000000000000000000000000000000000000000000000000000000000000000000000000000000000000000000000000000000000000000000000000000000000000000000000000000000000000000000000000000000000000000000000000
310
00000000000000000000000000000000000000000000000000000000000000000000000000000000000000000000000000F0F0F0F0F0F0F0F0F0F0F0F0F0F0F0F0F0F0F0F0F0F0F0F0F0F0F0F0F0F0F0F0F0F0F0F0F0F0F0F0F0F0F0F0F0F0000000000000000000000000000000F0F0F0F0F0F0F0F0F0F0F0F0F0F0F0F0F0
310
F0F0F0F0F0F0F0F0F0F0F0F0F0F0F0F0F0F0F0F0F0F0F0F0F0F00000000000000000000000000000000000000000000000000000000000000000000000000000000000000000000000000000000000000000000000000000000000000000000000000000000000000000000000000000000000000000000000000000000000
310
000000000000000000000000000000000000000000000000000000000000000000000000000000000000000000000000000000F000F5F5000000F0000000000000F5F5F500000000000000F000F5F5000000F0F5F5F5F5F500F000F5F5000000F0000000000000000000000000000000F00000000000000000000000F5F5F5
310
F5000000000000000000000000F000F5F5000000F0F5F5F5F5F500F0000000000000000000000000000000000000000000000000000000000000000000000000000000000000000000000000000000000000000000000000000000000000000000000000000000000000000000000000000000000000000000000000000000
310
0000000000000000000000000000000000000000000000000000000000000000000000000000000000000000000000000000000000F0F0F0F0F0F0F0F0F0F0F0F0F0F0F0F0F0F0F0F0F0F0F0F0F0F0F0F0F0F0F0F0F0F0F0F0F0F0F0F0F0F0F0F0F0F0F0F0F0F0F0F0F0F0F0F0F0F0F0F0F0F0F0F0F0F0F0F0F0F0F0F0F0F0
310
F0F0F0F0F0F0F0F0F0F0F0F0F0F0F0F0F0F0F0F0F0F0F0F0F0F0F0F0F0F000000000000000000000000000000000000000000000000000000000000000000000000000000000000000000000000000000000000000000000000000000000000000000000000000000000000000000000000000000000000000000000000000
310
00000000000000000000000000000000000000000000000000000000000000000000000000000000000000000000000000000000000000F00000000000000000000000000000000000000000000000000000000000000000000000000000000000000000000000000000000000000000000000000000000000000000000000
310
00000000000000000000000000000000000000000000000000000000000000F00000000000000000000000000000000000000000000000000000000000000000000000000000000000000000000000000000000000000000000000000000000000000000000000000000000000000000000000000000000000000000000000
310
000000000000000000000000000000000000000000000000000000000000000000000000000000000000000000000000000000000000000000F0000000000000000000000000000000000000000000000000000000000000000000000000000000000000000000000000000000000000000000000000000000000000000000
310
000000000000000000000000000000000000000000000000000000000000000000F0000000000000000000000000000000000000000000000000000000000000000000000000000000000000000000000000000000000000000000000000000000000000000000000000000000000000000000000000000000000000000000
310
0000000000000000000000000000000000000000000000000000000000000000000000000000000000000000000000000000000000000000000000F000000FF5F5F5F5F5F5F5F5F5F5F5F5F50F0F0F0F0F0F0F0F0F0F0F0F0F0F0F0F0F0F0F0F0F0F0F0F0F0F0F0F0F0F0F0F0F0F0F0F0F0F0F0F0F0F0F0F0F0F0F0FF5F50F
310
0F0F0F0F0F0F0F0F0F0F0F0F0F0F0F0F0F0F0F0F0F0F0F0F0F0F0F0F0F0F0F0F000000F000000000000000000000000000000000000000000000000000000000000000000000000000000000000000000000000000000000000000000000000000000000000000000000000000000000000000000000000000000000000000
310
00000000000000000000000000000000000000000000000000000000000000000000000000000000000000000000000000000000000000000000000000F000000FF5F5F5F5F5F5F5F5F5F5F5F5F5F5000FF5F5F5F5F5F5F5F5F5F5F5F500000000000FF5F5F5F5F5F5F5F5F5F5000F00F5F5F5F5F5F500000FF5F5F5F500F5
310
F500000000000000000000000F00000000000F000000000F000000000F000000000F000000F00000000000000000000000000000000000000000000000000000000000000000000000000000000000000000000000000000000000000000000000000000000000000000000000000000000000000000000000000000000000
310
000000000000000000000000000000000000000000000000000000000000000000000000000000000000000000000000000000000000000000000000000000F000000FF5F5F5F5F5F5F5F5F5F500000000000F00000000000000000000000000000000000F00000000000000000000000F0000000000000000000F00000000
310
000F0000000000000000000000000FF5F5F5F500F5F5F5F5000FF5F5F5000F000000000F000000F0000000000000000000000000000000000000000000000000000000000000000000000000000000000000000000000000000000000000000000000000000000000000000000000000000000000000000000000000000000
310
0000000000000000000000000000000000000000000000000000000000000000000000000000000000000000000000000000000000000000000000000000000000F000000FF5F5F5F500F5F500F5F5F5F5F5F5F50F0F0F0F0F0F0F0F0F0F0F0F0F0F0F0F0F0F0F0F0F0F0F0F0F0F0F0F0F0F0F0F0F0F0F0F0F0F0F0F0F0F0F
310
0F0F0FF5F5F5F5F5F5F5F5F5F5F50F0F0F00000000000F000000000F000000000F000000000F000000F000000000000000000000000000000000000000000000000000000000000000000000000000000000000000000000000000000000000000000000000000000000000000000000000000000000000000000000000000
310
00000000000000000000000000000000000000000000000000000000000000000000000000000000000000000000000000000000000000000000000000000000000000F000000FF5F5F5F5F5F5F5F5F5F5F5F5F5F5F50FF5F5F5F5F5F5F5F5F5F5F5F5F5F5F5F5F5F5F5F5F5F5F5F5F5F5F5F500000000000000000000000F
310
F5F5F5F5000F0000000000000000000000000F0F0F0F0F0F0F0F0F0F0F0F0F0F0F0F0F0F0F0F0F0F000000F00000000000000000000000000000000000000000000000000000000000000000000000000000000000000000000000000000000000000000000000000000000000000000000000000000000000000000000000
310
000000000000000000000000000000000000000000000000000000000000000000000000000000000000000000000000000000000000000000000000000000000000000000F000000FF5F5F5F5F5F5F5F5F5F5F500F5F5F50F0000000000000000000000000000000000000000000000000000000000000000000000000000
310
000F0000000000F5F5F5F5F5F5F50000000000000F00F5F500000F000000F5F5000000000F00F5F5000F000000F0000000000000000000000000000000000000000000000000000000000000000000000000000000000000000000000000000000000000000000000000000000000000000000000000000000000000000000
310
0000000000000000000000000000000000000000000000000000000000000000000000000000000000000000000000000000000000000000000000000000000000000000000000F000000F0F0F0F0F0F0F0F0F0F0F0F0F0F0F0F0F0F0F0F0F0F0F0F0F0F0F0F0F0F0F0F0F0F0F0F0F0F0F0F0F0F0F0F0F0F0F0F0F0F0F0F0F
310
0F0F0F0F0F0F0F0F0F0F0F0F0F0F0F0F0F0F0F0F0F0F0F0F0F0F0F0F0F0F0F0F0F0F0F0F0F0F0F0F0F0F0F0F000000F000000000000000000000000000000000000000000000000000000000000000000000000000000000000000000000000000000000000000000000000000000000000000000000000000000000000000
310
00000000000000000000000000000000000000000000000000000000000000000000000000000000000000000000000000000000000000000000000000000000000000000000000000F000000F0000000000000000000000000000000000000000000000000000000000000000000000000000000000000000000000000000
310
0000000000000000000000000000000000000000000000000000000000000000000000000000000000000000000F000000F00000000000000000000000000000000000000000000000000000000000000000000000000000000000000000000000000000000000000000000000000000000000000000000000000000000000
310
000000000000000000000000000000000000000000000000000000000000000000000000000000000000000000000000000000000000000000000000000000000000000000000000000000F000000F000000000000000000000000000000000000000000000000000000C4C4C4C4C4C4C4C4C4C40000000000000000000000
310
00000000000000000000C4C4C4C4F5F5C4C4C4C4C4C4F5C4C4000000000000000000000000000000000000000000000F000000F0000000000000000000000000000000000000000000000000000000000000000000000000000000000000000000000000000000000000000000000000000000000000000000000000000000
310
0000000000000000000000000000000000000000000000000000000000000000000000000000000000000000000000000000000000000000000000000000000000000000000000000000000000F000000F000000000000000000000000000000000000000000000000000000C400F5F5F5F5000000C4000000000000000000
310
000000000000000000000000C4000000F5F5000000C400C4F50000000000000000000000000000000000000000000000000F000000F000000000000000000000000000000000000000000000000000000000000000000000000000000000000000000000000000000000000000000000000000000000000000000000000000
310
00000000000000000000000000000000000000000000000000000000000000000000000000000000000000000000000000000000000000000000000000000000000000000000000000000000000000F000000F000000000000000000000000000000000000000000000000000000C40000000000000000C400000000000000
310
0000000000000000000000000000C40000000000000000C400C4000000000000000000000000000000000000000000000000000F000000F00000000000000000000000000000000000000000000000000000000000000000000000000000000000000000000000000000000000000000000000000000000000000000000000
310
000000000000000000000000000000000000000000000000000000000000000000000000000000000000000000000000000000000000000000000000000000000000000000000000000000000000000000F000000F000000000000000000000000000000000000000000000000000000C40000000000000000C40000000000
310
00000000000000000000000000000000C40000000000000000C400C4000000000000000000000000000000000000000000000000000F000000F0000000000000000000000000000000000000000000000000000000000000000000000000000000000000000000000000000000000000000000000000000000000000000000
310
0000000000000000000000000000000000000000000000000000000000000000000000000000000000000000000000000000000000000000000000000000000000000000000000000000000000000000000000F000000F00000000000000000000000000000000000000000000C4C4C4C4C4C4F5F5F5F5F5F5F5F5C4000000
310
000000000000000000000000000000000000C400F5F5F5F5F5F5F5C4C4C4C4C4C4C40000000000000000000000000000000000000000000F000000F000000000000000000000000000000000000000000000000000000000000000000000000000000000000000000000000000000000000000000000000000000000000000
310
00000000000000000000000000000000000000000000000000000000000000000000000000000000000000000000000000000000000000000000000000000000000000000000000000000000000000000000000000F000000F00000000000000000000000000000000000000000000C4000000F5C4F5F5F5F5F5F5F5F5C400
310
0000000000000000000000000000000000000000C4F5F5F5F5F5F5F5F5C4CEC4000000C40000000000000000000000000000000000000000000F000000F00000000000000000000000000000000000000000000000000000000000000000000000000000000000000000000000000000000000000000000000000000000000
310
000000000000000000000000000000000000000000000000000000000000000000000000000000000000000000000000000000000000000000000000000000000000000000000000000000000000000000000000000000F000000F00000000000000000000000000000000000000000000C4000000F5C400000000000000F5
310
C4000000000000000000000000000000000000000000C4F500000000000000CE6F00000000C40000000000000000000000000000000000000000000F000000F0000000000000000000000000000000000000000000000000000000000000000000000000000000000000000000000000000000000000000000000000000000
310
0000000000000000000000000000000000000000000000000000000000000000000000000000000000000000000000000000000000000000000000000000000000000000000000000000000000000000000000000000000000F000000F00000000000000000000000000000000000000000000C4000000F5CEF5F5F5F5F5F5
310
F5F5CE000000000000000000000000000000000000000000C4CEF5F5F5F5F5F5F5F50000000000C40000000000000000000000000000000000000000000F000000F000000000000000000000000000000000000000000000000000000000000000000000000000000000000000000000000000000000000000000000000000
310
00000000000000000000000000000000000000000000000000000000000000000000000000000000000000000000000000000000000000000000000000000000000000000000000000000000000000000000000000000000000000F000000F00000000000000000000000000000000000000000000C4000000F5CEF5F5F5F5
310
F5F5F5F5CE000000000000000000000000000000000000000000C4CEF5F5F5F5F5F5F5F50000000000C40000000000000000000000000000000000000000000F000000F00000000000000000000000000000000000000000000000000000000000000000000000000000000000000000000000000000000000000000000000
310
000000000000000000000000000000000000000000000000000000000000000000000000000000000000000000000000000000000000000000000000000000000000000000000000000000000000000000000000000000000000000000F000000F00000000000000000000000000000000000000000000C4000000F5F50000
310
000000000000F5000000000000000000000000000000000000000000C4F500000000000000F5000000F5F5C40000000000000000000000000000000000000000000F000000F0000000000000000000000000000000000000000000000000000000000000000000000000000000000000000000000000000000000000000000
310
0000000000000000000000000000000000000000000000000000000000000000000000000000000000000000000000000000000000000000000000000000000000000000000000000000000000000000000000000000000000000000000000F000000F00000000000000000000000000000000000000000000C4000000F5F5
310
0000000000000000F5000000000000000000000000000000000000000000C4F500000000000000F5000000F5F5C40000000000000000000000000000000000000000000F000000F000000000000000000000000000000000000000000000000000000000000000000000000000000000000000000000000000000000000000
310
00000000000000000000000000000000000000000000000000000000000000000000000000000000000000000000000000000000000000000000000000000000000000000000000000000000000000000000000000000000000000000000000000F000000F00000000000000000000000000000000000000000000C4000000
310
F5F50000000000000000F5000000000000000000000000000000000000000000C4F500000000000000F50000000000C40000000000000000000000000000000000000000000F000000F00000000000000000000000000000000000000000000000000000000000000000000000000000000000000000000000000000000000
310
000000000000000000000000000000000000000000000000000000000000000000000000000000000000000000000000000000000000000000000000000000000000000000000000000000000000000000000000000000000000000000000000000000F000000F00000000000000000000000000000000000000000000C400
310
0000F5F50000000000000000F5000000000000000000000000000000000000000000C4F500000000000000F50000000000C40000000000000000000000000000000000000000000F000000F0000000000000000000000000000000000000000000000000000000000000000000000000000000000000000000000000000000
310
0000000000000000000000000000000000000000000000000000000000000000000000000000000000000000000000000000000000000000000000000000000000000000000000000000000000000000000000000000000000000000000000000000000000F000000F00000000000000000000000000000000000000000000
310
C4000000F5F50000000000000000F5000000000000000000000000000000000000000000C4F500000000000000F50000000000C40000000000000000000000000000000000000000000F000000F000000000000000000000000000000000000000000000000000000000000000000000000000000000000000000000000000
310
00000000000000000000000000000000000000000000000000000000000000000000000000000000000000000000000000000000000000000000000000000000000000000000000000000000000000000000000000000000000000000000000000000000000000F000000F0000000000000000000000000000000000000000
310
0000C4000000F5F50000000000000000F5000000000000000000000000000000000000000000C4F500000000000000F50000000000C40000000000000000000000000000000000000000000F000000F00000000000000000000000000000000000000000000000000000000000000000000000000000000000000000000000
310
000000000000000000000000000000000000000000000000000000000000000000000000000000000000000000000000000000000000000000000000000000000000000000000000000000000000000000000000000000000000000000000000000000000000000000F000000F000000000000000000000000000000000000
310
00000000C4000000CECEF5F5F5F5F5F5F5F5CE000000000000000000000000000000000000000000C4F5F5F5F5F5F5F5F5CEC4C4C4C4C4C40000000000000000000000000000000000000000000F000000F0000000000000000000000000000000000000000000000000000000000000000000000000000000000000000000
310
0000000000000000000000000000000000000000000000000000000000000000000000000000000000000000000000000000000000000000000000000000000000000000000000000000000000000000000000000000000000000000000000000000000000000000000000F000000F00000000000000000000000000000000
310
0000000000F5C4000000F5F50000000000000000F5000000000000000000000000000000000000000000000000000000000000F50000000000C40000000000000000000000000000000000000000000F000000F000000000000000000000000000000000000000000000000000000000000000000000000000000000000000
310
00000000000000000000000000000000000000000000000000000000000000000000000000000000000000000000000000000000000000000000000000000000000000000000000000000000000000000000000000000000000000000000000000000000000000000000000000F000000F0000000000000000000000000000
310
00000000000000F5C4000000F5F50000000000000000F5000000000000000000000000000000000000000000000000000000000000F50000000000000000000000000000000000000000000000000000000F000000F00000000000000000000000000000000000000000000000000000000000000000000000000000000000
310
000000000000000000000000000000000000000000000000000000000000000000000000000000000000000000000000000000000000000000000000000000000000000000000000000000000000000000000000000000000000000000000000000000000000000000000000000000F000000F000000000000000000000000
310
00000000000000000000C4000000F5F50000000000000000F5000000000000000000000000000000000000000000000000000000000000F50000000000000000000000000000000000000000000000000000000F000000F0000000000000000000000000000000000000000000000000000000000000000000000000000000
310
0000000000000000000000000000000000000000000000000000000000000000000000000000000000000000000000000000000000000000000000000000000000000000000000000000000000000000000000000000000000000000000000000000000000000000000000000000000000F000000F00000000000000000000
310
000000000000000000000000C4000000F5F50000000000000000F5000000000000000000000000000000000000000000000000000000000000F50000000000000000000000000000000000000000000000000000000F000000F000000000000000000000000000000000000000000000000000000000000000000000000000
310
00000000000000000000000000000000000000000000000000000000000000000000000000000000000000000000000000000000000000000000000000000000000000000000000000000000000000000000000000000000000000000000000000000000000000000000000000000000000000F000000F0000000000000000
310
0000000000000000000000000000C4000000F5F5F5F5F5F5F5F5F5F5F5000000000000000000000000000000000000000000000000000000000000F50000000000000000000000000000000000000000000000000000000F000000F00000000000000000000000000000000000000000000000000000000000000000000000
310
000000000000000000000000000000000000000000000000000000000000000000000000000000000000000000000000000000000000000000000000000000000000000000000000000000000000000000000000000000000000000000000000000000000000000000000000000000000000000000F000000F000000000000
310
00000000000000000000000000000000C4000000F5F5F5F5F5F5F5F5F5F5F5000000000000000000000000000000000000000000000000000000000000F50000000000000000000000000000000000000000000000000000000F000000F0000000000000000000000000000000000000000000000000000000000000000000
310
0000000000000000000000000000000000000000000000000000000000000000000000000000000000000000000000000000000000000000000000000000000000000000000000000000000000000000000000000000000000000000000000000000000000000000000000000000000000000000000000F000000F00000000
310
000000000000000000000000000000000000C4000000F5F50000000000000000C4000000000000000000000000000000000000000000000000000000000000F50000000000000000000000000000000000000000000000000000000F000000F000000000000000000000000000000000000000000000000000000000000000
310
00000000000000000000000000000000000000000000000000000000000000000000000000000000000000000000000000000000000000000000000000000000000000000000000000000000000000000000000000000000000000000000000000000000000000000000000000000000000000000000000000F000000F0000
310
0000000000000000000000000000000000000000C4000000F5F50000000000000000C4C40000000000000000000000000000000000000000000000000000000000F50000000000000000000000000000000000000000000000000000000F000000F00000000000000000000000000000000000000000000000000000000000
310
000000000000000000000000000000000000000000000000000000000000000000000000000000000000000000000000000000000000000000000000000000000000000000000000000000000000000000000000000000000000000000000000000000000000000000000000000000000000000000000000000000F000000F
310
00000000000000000000000000000000000000000000C4000000F5F50000000000000000F5C40000000000000000000000000000000000000000000000000000000000F50000000000000000000000000000000000000000000000000000000F000000F0000000000000000000000000000000000000000000000000000000
310
0000000000000000000000000000000000000000000000000000000000000000000000000000000000000000000000000000000000000000000000000000000000000000000000000000000000000000000000000000000000000000000000000000000000000000000000000000000000000000000000000000000000F000
310
000F00000000000000000000000000000000000000000000C4000000F5F50000000000000000F500C4000000000000000000000000000000000000000000000000000000F5000000000000000000000000000000000000000000000000000000000F000000F000000000000000000000000000000000000000000000000000
310
00000000000000000000000000000000000000000000000000000000000000000000000000000000000000000000000000000000000000000000000000000000000000000000000000000000000000000000000000000000000000000000000000000000000000000000000000000000000000000000000000000000000000
310
F000000F00000000000000000000000000000000000000000000C4000000F5F50000000000000000F500C4C4C4F50000000000000000000000000000000000000000000000F500000000000000000000000000000000000000000000000000000000000F000000F00000000000000000000000000000000000000000000000
310
00000000000000000000000000000000000000000000000000000000000000000000000000000000000000000000000000000000000000000000000000000000000000000000000000000000000000000000000000000000000000000000000000000000000000000000000000000000000000000000000000000000000000
310
0000F000000F00000000000000000000000000000000000000000000C4000000F5F50000000000000000F500000000000000000000000000000000000000000000000000000000F5F5F50000000000000000000000000000000000000000000000000000000F000000F0000000000000000000000000000000000000000000
310
00000000000000000000000000000000000000000000000000000000000000000000000000000000000000000000000000000000000000000000000000000000000000000000000000000000000000000000000000000000000000000000000000000000000000000000000000000000000000000000000000000000000000
310
00000000F000000F00000000000000000000000000000000000000000000C4000000F5F50000000000000000F500000000000000000000000000000000000000000000000000000000F5CECE0000000000000000000000000000000000000000000000000000000F000000F000000000000000000000000000000000000000
310
00000000000000000000000000000000000000000000000000000000000000000000000000000000000000000000000000000000000000000000000000000000000000000000000000000000000000000000000000000000000000000000000000000000000000000000000000000000000000000000000000000000000000
310
000000000000F000000F00000000000000000000000000000000000000000000C4C4C4C4C4F50000000000000000F500000000000000000000000000000000000000000000000000000000F5F5F50000000000000000000000000000000000000000000000000000000F000000F00000000000000000000000000000000000
310
00000000000000000000000000000000000000000000000000000000000000000000000000000000000000000000000000000000000000000000000000000000000000000000000000000000000000000000000000000000000000000000000000000000000000000000000000000000000000000000000000000000000000
310
0000000000000000F000000F00000000000000000000000000000000000000000000000000000000000000000000000000000000000000000000000000000000000000000000000000000000000000000000000000000000000000000000000000000000000000000000000F000000F0000000000000000000000000000000
310
00000000000000000000000000000000000000000000000000000000000000000000000000000000000000000000000000000000000000000000000000000000000000000000000000000000000000000000000000000000000000000000000000000000000000000000000000000000000000000000000000000000000000
310
00000000000000000000F000000F00000000000000000000000000000000000000000000000000000000000000000000000000000000000000000000000000000000000000000000000000000000000000000000000000000000000000000000000000000000000000000000000F000000F000000000000000000000000000
310
00000000000000000000000000000000000000000000000000000000000000000000000000000000000000000000000000000000000000000000000000000000000000000000000000000000000000000000000000000000000000000000000000000000000000000000000000000000000000000000000000000000000000
310
000000000000000000000000F000000F00000000000000000000000000000000000000000000000000000000000000000000000000000000000000000000000000000000000000000000000000000000000000000000000000000000000000000000000000000000000000000000000F000000F00000000000000000000000
310
00000000000000000000000000000000000000000000000000000000000000000000000000000000000000000000000000000000000000000000000000000000000000000000000000000000000000000000000000000000000000000000000000000000000000000000000000000000000000000000000000000000000000
310
0000000000000000000000000000F000000F0000000000000000000000000000000000000000000000000000C4C4C4C4C4C4C4C4C4C4C4000000000000000000000000000000000000000000000000000000000000000000000000000000000000000000000000000000000000000000000F000000F0000000000000000000
310
00000000000000000000000000000000000000000000000000000000000000000000000000000000000000000000000000000000000000000000000000000000000000000000000000000000000000000000000000000000000000000000000000000000000000000000000000000000000000000000000000000000000000
310
00000000000000000000000000000000F000000F0000000000000000000000000000000000000000000000000000C40000F5F5F5F5000000C4000000000000000000000000000000000000000000000000000000000000000000000000000000000000000000000000000000000000000000000F000000F000000000000000
310
00000000000000000000000000000000000000000000000000000000000000000000000000000000000000000000000000000000000000000000000000000000000000000000000000000000000000000000000000000000000000000000000000000000000000000000000000000000000000000000000000000000000000
310
000000000000000000000000000000000000F000000F0000000000000000000000000000000000000000000000000000C4000000000000000000C4000000000000000000000000000000000000000000000000000000000000000000000000000000000000000000000000000000000000000000000F000000F00000000000
310
00000000000000000000000000000000000000000000000000000000000000000000000000000000000000000000000000000000000000000000000000000000000000000000000000000000000000000000000000000000000000000000000000000000000000000000000000000000000000000000000000000000000000
310
0000000000000000000000000000000000000000F000000F0000000000000000000000000000000000000000000000000000C4000000000000000000C4000000000000000000000000000000000000000000000000000000000000000000000000000000000000000000000000000000000000000000000F000000F0000000
310
00000000000000000000000000000000000000000000000000000000000000000000000000000000000000000000000000000000000000000000000000000000000000000000000000000000000000000000000000000000000000000000000000000000000000000000000000000000000000000000000000000000000000
310
00000000000000000000000000000000000000000000F000000F00000000000000000000000000000000000000000000C4000000C4000000000000000000C4000000000000000000000000000000000000000000000000000000000000000000000000000000000000000000000000000000000000000000000F000000F000
310
00000000000000000000000000000000000000000000000000000000000000000000000000000000000000000000000000000000000000000000000000000000000000000000000000000000000000000000000000000000000000000000000000000000000000000000000000000000000000000000000000000000000000
310
000000000000000000000000000000000000000000000000F000000F00000000000000000000000000000000000000000000C4C4C4C4C4C4C4C4C4C4F5F5F500C4000000000000000000000000000000000000000000000000000000000000000000000000000000000000000000000000000000000000000000000F000000
310
F0000000000000000000000000000000000000000000000000000000000000000000000000000000000000000000000000000000000000000000000000000000000000000000000000000000000000000000000000000000000000000000000000000000000000000000000000000000000000000000000000000000000000
310
0000000000000000000000000000000000000000000000000000F000000F00000000000000000000000000000000000000000000C4000000C4F5F5F5F5C4C4C4C4C4C4C4C4C4C40000000000000000000000000000000000000000000000000000000000000000000000000000000000000000000000000000000000000F00
310
0000F000000000000000000000000000000000000000000000000000000000000000000000000000000000000000000000000000000000000000000000000000000000000000000000000000000000000000000000000000000000000000000000000000000000000000000000000000000000000000000000000000000000
310
00000000000000000000000000000000000000000000000000000000F000000F00000000000000000000000000000000000000000000C4000000C4F5F5CECE00CECEF5F5C4000000C4000000000000000000000000000000000000000000000000000000000000000000000000000000000000000000000000000000000000
310
0F000000F00000000000000000000000000000000000000000000000000000000000000000000000000000000000000000000000000000000000000000000000000000000000000000000000000000000000000000000000000000000000000000000000000000000000000000000000000000000000000000000000000000
310
000000000000000000000000000000000000000000000000000000000000F000000F00000000000000000000000000000000000000000000C4000000C4F500CE000000CECEF5C4000000C400000000000000000000000000000000000000000000000000000000000000000000000000000000000000000000000000000000
310
00000F000000F0000000000000000000000000000000000000000000000000000000000000000000000000000000000000000000000000000000000000000000000000000000000000000000000000000000000000000000000000000000000000000000000000000000000000000000000000000000000000000000000000
310
0000000000000000000000000000000000000000000000000000000000000000F000000F000000000000000000000000000000000000000000F5C4000000C4F5CECE000000CECEF5C4000000C40000000000000000000000000000000000000000000000000000000000000000000000000000000000000000000000000000
310
000000000F000000F000000000000000000000000000000000000000000000000000000000000000000000000000000000000000000000000000000000000000000000000000000000000000000000000000000000000000000000000000000000000000000000000000000000000000000000000000000000000000000000
310
00000000000000000000000000000000000000000000000000000000000000000000F000000F000000000000000000000000000000000000000000F5C4000000C4F5CE0000000000CEF5C40000F5C4000000000000000000000000000000000000000000000000000000000000000000000000000000000000000000000000
310
0000000000000F000000F00000000000000000000000000000000000000000000000000000000000000000000000000000000000000000000000000000000000000000000000000000000000000000000000000000000000000000000000000000000000000000000000000000000000000000000000000000000000000000
310
000000000000000000000000000000000000000000000000000000000000000000000000F000000F00000000000000000000000000000000000000000000C4000000CEF5CE0000000000CEF5CE000000C400000000000000000000000000000000000000000000000000000000000000000000000000000000000000000000
310
00000000000000000F000000F0000000000000000000000000000000000000000000000000000000000000000000000000000000000000000000000000000000000000000000000000000000000000000000000000000000000000000000000000000000000000000000000000000000000000000000000000000000000000
310
0000000000000000000000000000000000000000000000000000000000000000000000000000F000000F00000000000000000000000000000000000000000000C4000000F5F5CE0000000000F5F5CE000000C40000000000000000000000000000000000000000000000000000000000000000000000000000000000000000
310
000000000000000000000F000000F000000000000000000000000000000000000000000000000000000000000000000000000000000000000000000000000000000000000000000000000000000000000000000000000000000000000000000000000000000000000000000000000000000000000000000000000000000000
310
00000000000000000000000000000000000000000000000000000000000000000000000000000000F000000F00000000000000000000000000000000000000000000C4000000F5F5F5F5000000F5F5F5F5000000C4000000000000000000000000000000000000000000000000000000000000000000000000000000000000
310
0000000000000000000000000F000000F00000000000000000000000000000000000000000000000000000000000000000000000000000000000000000000000000000000000000000000000000000000000000000000000000000000000000000000000000000000000000000000000000000000000000000000000000000
310
000000000000000000000000000000000000000000000000000000000000000000000000000000000000F000000F00000000000000000000000000000000000000000000C4000000C4F5CEF5F5F5F5F5F5F5C4000000C400000000000000000000000000000000000000000000000000000000000000000000000000000000
310
00000000000000000000000000000F000000F0000000000000000000000000000000000000000000000000000000000000000000000000000000000000000000000000000000000000000000000000000000000000000000000000000000000000000000000000000000000000000000000000000000000000000000000000
310
0000000000000000000000000000000000000000000000000000000000000000000000000000000000000000F000000F00000000000000000000000000000000000000000000C4C4C4C4C4F5000000F5F50000F5C4C4C4C4C40000000000000000000000000000000000000000000000000000000000000000000000000000
310
000000000000000000000000000000000F000000F000000000000000000000000000000000000000000000000000000000000000000000000000000000000000000000000000000000000000000000000000000000000000000000000000000000000000000000000000000000000000000000000000000000000000000000
310
00000000000000000000000000000000000000000000000000000000000000000000000000000000000000000000F000000F0000000000000000000000000000000000000000000000000000C4000000000000000000C4000000000000000000000000000000000000000000000000000000000000000F0F0F0F0F0F0F0F0F
310
0F0F0F0F0F0F0F0F0F0F0F0F0F0F0F0F0F000F000000F00000000000000000000000000000000000000000000000000000000000000000000000000000000000000000000000000000000000000000000000000000000000000000000000000000000000000000000000000000000000000000000000000000000000000000
310
000000000000000000000000000000000000000000000000000000000000000000000000000000000000000000000000F000000F0000000000000000000000000000000000000000000000000000C4000000000000000000C4000000000000000000000000000000000000000000000000000000000000000F00F5F5F5F5F5
310
F500000000000F00F5F5F5F5F5F5F50000000F000F000000F0000000000000000000000000000000000000000000000000000000000000000000000000000000000000000000000000000000000000000000000000000000000000000000000000000000000000000000000000000000000000000000000000000000000000
310
0000000000000000000000000000000000000000000000000000000000000000000000000000000000000000000000000000F000000F0000000000000000000000000000000000000000000000000000C4000000000000000000C4000000000000000000000000000000000000000000000000000000000000000F00000000
310
00000000000000000F00000000000000000000000F000F000000F000000000000000000000000000000000000000000000000000000000000000000000000000000000000000000000000000000000000000000000000000000000000000000000000000000000000000000000000000000000000000000000000000000000
310
00000000000000000000000000000000000000000000000000000000000000000000000000000000000000000000000000000000F000000F0000000000000000000000000000000000000000000000000000C4C4C4C4F5F5C4C4C4C4C4000000000000000000000000000000000000000000000000000000000000000F0F0F
310
0F0F0F0F0F0F0F0F0F0F0F0F0F0F0F0F0F0F0F0F0F0F0F000F000000F00000000000000000000000000000000000000000000000000000000000000000000000000000000000000000000000000000000000000000000000000000000000000000000000000000000000000000000000000000000000000000000000000000
310
000000000000000000000000000000000000000000000000000000000000000000000000000000000000000000000000000000000000F00000F5F5F50F0F0F0F0F0F0F0F0F0F0F0F0F0F0F0F0F0000000000000000000000F5F50000000000000000000000000000000000000000000000000000000000000000000000000F
310
0000000000000000000000000F00000000000000000000000F000F000000F0000000000000000000000000000000000000000000000000000000000000000000000000000000000000000000000000000000000000000000000000000000000000000000000000000000000000000000000000000000000000000000000000
310
0000000000000000000000000000000000000000000000000000000000000000000000000000000000000000000000000000000000000000F00000F5F50F0F0F0F0F0F0F0F0F0F0F0F0F0F0F0F0F0F000000000000000000000000000000000000000000000000000000000000000000000000000000000000000000000000
310
000F0F0F0F0F0F0F0F0F0F0F0F0F0F0F0F0F0F0F0F0F0F0F0F0F0F000F000000F000000000000000000000000000000000000000000000000000000000000000000000000000000000000000000000000000000000000000000000000000000000000000000000000000000000000000000000000000000000000000000000
310
00000000000000000000000000000000000000000000000000000000000000000000000000000000000000000000000000000000000000000000F00000F5F50F0F0F0F0F0F0F0F0F0F0F0F0F0F0F0F0F0F00000000000000000000000000000000000000000000000000000000000000000000000000000000000000000000
310
0000000F00000000F5F5F500000000000F000000F5F5F500000000000F000F000000F00000000000000000000000000000000000000000000000000000000000000000000000000000000000000000000000000000000000000000000000000000000000000000000000000000000000000000000000000000000000000000
310
000000000000000000000000000000000000000000000000000000000000000000000000000000000000000000000000000000000000000000000000F00000F5F50F00000000000F000000000F00000000000F0000000000000000000000000000000000000000000000000000000000000000000000000000000000000000
310
00000000000F0F0F0F0F0F0F0F0F0F0F0F0F0F0F0F0F0F0F0F0F0F0F0F0F0F000F000000F0000000000000000000000000000000000000000000000000000000000000000000000000000000000000000000000000000000000000000000000000000000000000000000000000000000000000000000000000000000000000
310
0000000000000000000000000000000000000000000000000000000000000000000000000000000000000000000000000000000000000000000000000000F000000F000F0FF5F50F0F0FF5F5F50F0F0FF5F50F0F0F000000000000000000000000000000000000000000000000000000000000000000000000000000000000
310
000000000000000000000000000000000000000000000000000000000000000000000F000000F000000000000000000000000000000000000000000000000000000000000000000000000000000000000000000000000000000000000000000000000000000000000000000000000000000000000000000000000000000000
310
00000000000000000000000000000000000000000000000000000000000000000000000000000000000000000000000000000000000000000000000000000000F000000F0F0F0F0F0F0F0F0F0F0F0F0F0F0F0F0F0F0F0F0F0F0F0F0F0F0F0F0F0F0F0F0F0F0F0F0F0F0F0F0F0F0F0F0F0F0F0F0F0F0F0F0F0F0F0F0F0F0F0F
310
0F0F0F0F0F0F0F0F0F0F0F0F0F0F0F0F0F0F0F0F0F0F0F0F0F0F0F0F0F0F0F0F0F0F0F0F0F000000F00000000000000000000000000000000000000000000000000000000000000000000000000000000000000000000000000000000000000000000000000000000000000000000000000000000000000000000000000000
310
000000000000000000000000000000000000000000000000000000000000000000000000000000000000000000000000000000000000000000000000000000000000F0000000000000000000000000000000000000000000000000000000000000000000000000000000000000000000000000000000000000000000000000
310
000000000000000000000000000000000000000000000000000000000000000000000000000000000000F0000000000000000000000000000000000000000000000000000000000000000000000000000000000000000000000000000000000000000000000000000000000000000000000000000000000000000000000000
310
0000000000000000000000000000000000000000000000000000000000000000000000000000000000000000000000000000000000000000000000000000000000000000F000000000000000000000000000000000000000000000000000000000000000000000000000000000000000000000000000000000000000000000
310
0000000000000000000000000000000000000000000000000000000000000000000000000000000000000000F000000000000000000000000000000000000000000000000000000000000000000000000000000000000000000000000000000000000000000000000000000000000000000000000000000000000000000000
310
00000000000000000000000000000000000000000000000000000000000000000000000000000000000000000000000000000000000000000000000000000000000000000000F0F0F0F0F0F0F0F0F0F0F0F0F0F0F0F0F0F0F0F0F0F0F0F0F0F0F0F0F0F0F0F0F0F0F0F0F0F0F0F0F0F0F0F0F0F0F0F0F0F0F0F0F0F0F0F0F0
310
F0F0F0F0F0F0F0F0F0F0F0F0F0F0F0F0F0F0F0F0F0F0F0F0F0F0F0F0F0F0F0F0F0F0F0F0F0F0F0F0F0F0F0F0F0F0F00000000000000000000000000000000000000000000000000000000000000000000000000000000000000000000000000000000000000000000000000000000000000000000000000000000000000000
310
00000000000000000000000000000000000000000000000000000000000000000000000000000000000000000000000000000000000000000000000000000000000000000000000000000000000000000000000000000000000000000000000000000000000000000000000000000000000000000000000000000000000000
310
00000000000000000000000000000000000000000000000000000000000000000000000000000000000000000000000000000000000000000000000000000000000000000000000000000000000000000000000000000000000000000000000000000000000000000000000000000000000000000000000000000000000000
310
00000000000000000000000000000000000000000000000000000000000000000000000000000000000000000000000000000000000000000000000000000000000000000000000000000000000000000000000000000000000000000000000000000000000000000000000000000000000000000000000000000000000000
310
00000000000000000000000000000000000000000000000000000000000000000000000000000000000000000000000000000000000000000000000000000000000000000000000000000000000000000000000000000000000000000000000000000000000000000000000000000000000000000000000000000000000000
310
00000000000000000000000000000000000000000000000000000000000000000000000000000000000000000000000000000000000000000000000000000000000000000000000000000000000000000000000000000000000000000000000000000000000000000000000000000000000000000000000000000000000000
310
00000000000000000000000000000000000000000000000000000000000000000000000000000000000000000000000000000000000000000000000000000000000000000000000000000000000000000000000000000000000000000000000000000000000000000000000000000000000000000000000000000000000000
310
00000000000000000000000000000000000000000000000000000000000000000000000000000000000000000000000000000000000000000000000000000000000000000000000000000000000000000000000000000000000000000000000000000000000000000000000000000000000000000000000000000000000000
310
00000000000000000000000000000000000000000000000000000000000000000000000000000000000000000000000000000000000000000000000000000000000000000000000000000000000000000000000000000000000000000000000000000000000000000000000000000000000000000000000000000000000000
310
00000000000000000000000000000000000000000000000000000000000000000000000000000000000000000000000000000000000000000000000000000000000000000000000000000000000000000000000000000000000000000000000000000000000000000000000000000000000000000000000000000000000000
310
00000000000000000000000000000000000000000000000000000000000000000000000000000000000000000000000000000000000000000000000000000000000000000000000000000000000000000000000000000000000000000000000000000000000000000000000000000000000000000000000000000000000000
310
00000000000000000000000000000000000000000000000000000000000000000000000000000000000000000000000000000000000000000000000000000000000000000000000000000000000000000000000000000000000000000000000000000000000000000000000000000000000000000000000000000000000000
310
00000000000000000000000000000000000000000000000000000000000000000000000000000000000000000000000000000000000000000000000000000000000000000000000000000000000000000000000000000000000000000000000000000000000000000000000000000000000000000000000000000000000000
310
00000000000000000000000000000000000000000000000000000000000000000000000000000000000000000000000000000000000000000000000000000000000000000000000000000000000000000000000000000000000000000000000000000000000000000000000000000000000000000000000000000000000000
310
00000000000000000000000000000000000000000000000000000000000000000000000000000000000000000000000000000000000000000000000000000000000000000000000000000000000000000000000000000000000000000000000000000000000000000000000000000000000000000000000000000000000000
310
00000000000000000000000000000000000000000000000000000000000000000000000000000000000000000000000000000000000000000000000000000000000000000000000000000000000000000000000000000000000000000000000000000000000000000000000000000000000000000000000000000000000000
310
00000000000000000000000000000000000000000000000000000000000000000000000000000000000000000000000000000000000000000000000000000000000000000000000000000000000000000000000000000000000000000000000000000000000000000000000000000000000000000000000000000000000000
310
00000000000000000000000000000000000000000000000000000000000000000000000000000000000000000000000000000000000000000000000000000000000000000000000000000000000000000000000000000000000000000000000000000000000000000000000000000000000000000000000000000000000000
310
00000000000000000000000000000000000000000000000000000000000000000000000000000000000000000000000000000000000000000000000000000000000000000000000000000000000000000000000000000000000000000000000000000000000000000000000000000000000000000000000000000000000000
310
00000000000000000000000000000000000000000000000000000000000000000000000000000000000000000000000000000000000000000000000000000000000000000000000000000000000000000000000000000000000000000000000000000000000000000000000000000000000000000000000000000000000000
310
00000000000000000000000000000000000000000000000000000000000000000000000000000000000000000000000000000000000000000000000000000000000000000000000000000000000000000000000000000000000000000000000000000000000000000000000000000000000000000000000000000000000000
310
00000000000000000000000000000000000000000000000000000000000000000000000000000000000000000000000000000000000000000000000000000000000000000000000000000000000000000000000000000000000000000000000000000000000000000000000000000000000000000000000000000000000000
310
00000000000000000000000000000000000000000000000000000000000000000000000000000000000000000000000000000000000000000000000000000000000000000000000000000000000000000000000000000000000000000000000000000000000000000000000000000000000000000000000000000000000000
310
00000000000000000000000000000000000000000000000000000000000000000000000000000000000000000000000000000000000000000000000000000000000000000000000000000000000000000000000000000000000000000000000000000000000000000000000000000000000000000000000000000000000000
310
00000000000000000000000000000000000000000000000000000000000000000000000000000000000000000000000000000000000000000000000000000000000000000000000000000000000000000000000000000000000000000000000000000000000000000000000000000000000000000000000000000000000000
310
00000000000000000000000000000000000000000000000000000000000000000000000000000000000000000000000000000000000000000000000000000000000000000000000000000000000000000000000000000000000000000000000000000000000000000000000000000000000000000000000000000000000000
310
00000000000000000000000000000000000000000000000000000000000000000000000000000000000000000000000000000000000000000000000000000000000000000000000000000000000000000000000000000000000000000000000000000000000000000000000000000000000000000000000000000000000000
310
00000000000000000000000000000000000000000000000000000000000000000000000000000000000000000000000000000000000000000000000000000000000000000000000000000000000000000000000000000000000000000000000000000000000000000000000000000000000000000000000000000000000000
310
00000000000000000000000000000000000000000000000000000000000000000000000000000000000000000000000000000000000000000000000000000000000000000000000000000000000000000000000000000000000000000000000000000000000000000000000000000000000000000000000000000000000000
310
00000000000000000000000000000000000000000000000000000000000000000000000000000000000000000000000000000000000000000000000000000000000000000000000000000000000000000000000000000000000000000000000000000000000000000000000000000000000000000000000000000000000000
310
00000000000000000000000000000000000000000000000000000000000000000000000000000000000000000000000000000000000000000000000000000000000000000000000000000000000000000000000000000000000000000000000000000000000000000000000000000000000000000000000000000000000000
310
00000000000000000000000000000000000000000000000000000000000000000000000000000000000000000000000000000000000000000000000000000000000000000000000000000000000000000000000000000000000000000000000000000000000000000000000000000000000000000000000000000000000000
310
00000000000000000000000000000000000000000000000000000000000000000000000000000000000000000000000000000000000000000000000000000000000000000000000000000000000000000000000000000000000000000000000000000000000000000000000000000000000000000000000000000000000000
310
00000000000000000000000000000000000000000000000000000000000000000000000000000000000000000000000000000000000000000000000000000000000000000000000000000000000000000000000000000000000000000000000000000000000000000000000000000000000000000000000000000000000000
310
00000000000000000000000000000000000000000000000000000000000000000000000000000000000000000000000000000000000000000000000000000000000000000000000000000000000000000000000000000000000000000000000000000000000000000000000000000000000000000000000000000000000000
310
00000000000000000000000000000000000000000000000000000000000000000000000000000000000000000000000000000000000000000000000000000000000000000000000000000000000000000000000000000000000000000000000000000000000000000000000000000000000000000000000000000000000000
310
00000000000000000000000000000000000000000000000000000000000000000000000000000000000000000000000000000000000000000000000000000000000000000000000000000000000000000000000000000000000000000000000000000000000000000000000000000000000000000000000000000000000000
310
000000000000000000000000
  0
XRECORD
  5
8746
102
{ACAD_REACTORS
330
8745
102
}
330
8745
100
AcDbXrecord
280
     1
102
SHADEPLOT
 70
     0
102
SHADEPLOTRESLEVEL
 70
     2
102
SHADEPLOTCUSTOMDPI
 70
   300
  0
XRECORD
  5
8749
102
{ACAD_REACTORS
330
8748
102
}
330
8748
100
AcDbXrecord
280
     1
102
SHADEPLOT
 70
     0
102
SHADEPLOTRESLEVEL
 70
     2
102
SHADEPLOTCUSTOMDPI
 70
   300
  0
XRECORD
  5
8753
102
{ACAD_REACTORS
330
6393
102
}
330
6393
100
AcDbXrecord
280
     1
102
MATERIAL
148
0.0
149
0.0
149
0.0
 93
        0
 94
      127
282
     0
 72
     0
 77
     0
171
     0
175
     0
179
     0
273
     0
  0
XRECORD
  5
6395
102
{ACAD_REACTORS
330
6393
102
}
330
6393
100
AcDbXrecord
280
     1
270
     1
271
     1
  0
XRECORD
  5
6394
102
{ACAD_REACTORS
330
6393
102
}
330
6393
100
AcDbXrecord
280
     1
270
     1
271
     1
  0
XRECORD
  5
6398
102
{ACAD_REACTORS
330
6393
102
}
330
6393
100
AcDbXrecord
280
     1
270
     1
271
     1
  0
XRECORD
  5
6397
102
{ACAD_REACTORS
330
6393
102
}
330
6393
100
AcDbXrecord
280
     1
270
     1
271
     1
  0
XRECORD
  5
6399
102
{ACAD_REACTORS
330
6393
102
}
330
6393
100
AcDbXrecord
280
     1
270
     1
271
     1
  0
XRECORD
  5
6396
102
{ACAD_REACTORS
330
6393
102
}
330
6393
100
AcDbXrecord
280
     1
270
     1
271
     1
  0
XRECORD
  5
8752
102
{ACAD_REACTORS
330
638B
102
}
330
638B
100
AcDbXrecord
280
     1
102
MATERIAL
148
0.0
149
0.0
149
0.0
 93
        0
 94
      127
282
     0
 72
     0
 77
     0
171
     0
175
     0
179
     0
273
     0
  0
XRECORD
  5
638D
102
{ACAD_REACTORS
330
638B
102
}
330
638B
100
AcDbXrecord
280
     1
270
     1
271
     1
  0
XRECORD
  5
638C
102
{ACAD_REACTORS
330
638B
102
}
330
638B
100
AcDbXrecord
280
     1
270
     1
271
     1
  0
XRECORD
  5
6390
102
{ACAD_REACTORS
330
638B
102
}
330
638B
100
AcDbXrecord
280
     1
270
     1
271
     1
  0
XRECORD
  5
638F
102
{ACAD_REACTORS
330
638B
102
}
330
638B
100
AcDbXrecord
280
     1
270
     1
271
     1
  0
XRECORD
  5
6391
102
{ACAD_REACTORS
330
638B
102
}
330
638B
100
AcDbXrecord
280
     1
270
     1
271
     1
  0
XRECORD
  5
638E
102
{ACAD_REACTORS
330
638B
102
}
330
638B
100
AcDbXrecord
280
     1
270
     1
271
     1
  0
XRECORD
  5
8754
102
{ACAD_REACTORS
330
639B
102
}
330
639B
100
AcDbXrecord
280
     1
102
MATERIAL
148
0.0
149
0.0
149
0.0
 93
        0
 94
      127
282
     0
 72
     0
 77
     0
171
     0
175
     0
179
     0
273
     0
  0
XRECORD
  5
639D
102
{ACAD_REACTORS
330
639B
102
}
330
639B
100
AcDbXrecord
280
     1
270
     1
271
     1
  0
XRECORD
  5
639C
102
{ACAD_REACTORS
330
639B
102
}
330
639B
100
AcDbXrecord
280
     1
270
     1
271
     1
  0
XRECORD
  5
63A0
102
{ACAD_REACTORS
330
639B
102
}
330
639B
100
AcDbXrecord
280
     1
270
     1
271
     1
  0
XRECORD
  5
639F
102
{ACAD_REACTORS
330
639B
102
}
330
639B
100
AcDbXrecord
280
     1
270
     1
271
     1
  0
XRECORD
  5
63A1
102
{ACAD_REACTORS
330
639B
102
}
330
639B
100
AcDbXrecord
280
     1
270
     1
271
     1
  0
XRECORD
  5
639E
102
{ACAD_REACTORS
330
639B
102
}
330
639B
100
AcDbXrecord
280
     1
270
     1
271
     1
  0
XRECORD
  5
8742
102
{ACAD_REACTORS
330
8741
102
}
330
8741
100
AcDbXrecord
280
     1
102
ACAD_ROUNDTRIP_2012_MLEADER_STYLE
298
     1
  0
CELLSTYLEMAP
  5
8740
102
{ACAD_REACTORS
330
674F
102
}
330
674F
100
AcDbCellStyleMap
 90
        3
300
CELLSTYLE
  1
TABLEFORMAT_BEGIN
 90
        5
170
     1
 91
        0
 92
    32768
 62
   257
 93
        1
300
CONTENTFORMAT
  1
CONTENTFORMAT_BEGIN
 90
        0
 91
        0
 92
      512
 93
        0
300

 40
0.0
140
1.0
 94
        5
 62
     0
340
11
144
6.0
309
CONTENTFORMAT_END
171
     1
301
MARGIN
  1
CELLMARGIN_BEGIN
 40
1.5
 40
1.5
 40
1.5
 40
1.5
 40
4.5
 40
4.5
309
CELLMARGIN_END
 94
        6
 95
        1
302
GRIDFORMAT
  1
GRIDFORMAT_BEGIN
 90
        0
 91
        1
 62
     0
 92
       -2
340
0
 93
        0
 40
1.125
309
GRIDFORMAT_END
 95
        2
302
GRIDFORMAT
  1
GRIDFORMAT_BEGIN
 90
        0
 91
        1
 62
     0
 92
       -2
340
0
 93
        0
 40
1.125
309
GRIDFORMAT_END
 95
        4
302
GRIDFORMAT
  1
GRIDFORMAT_BEGIN
 90
        0
 91
        1
 62
     0
 92
       -2
340
0
 93
        0
 40
1.125
309
GRIDFORMAT_END
 95
        8
302
GRIDFORMAT
  1
GRIDFORMAT_BEGIN
 90
        0
 91
        1
 62
     0
 92
       -2
340
0
 93
        0
 40
1.125
309
GRIDFORMAT_END
 95
       16
302
GRIDFORMAT
  1
GRIDFORMAT_BEGIN
 90
        0
 91
        1
 62
     0
 92
       -2
340
0
 93
        0
 40
1.125
309
GRIDFORMAT_END
 95
       32
302
GRIDFORMAT
  1
GRIDFORMAT_BEGIN
 90
        0
 91
        1
 62
     0
 92
       -2
340
0
 93
        0
 40
1.125
309
GRIDFORMAT_END
309
TABLEFORMAT_END
  1
CELLSTYLE_BEGIN
 90
        1
 91
        1
300
_TITLE
309
CELLSTYLE_END
300
CELLSTYLE
  1
TABLEFORMAT_BEGIN
 90
        5
170
     1
 91
        0
 92
        0
 62
   257
 93
        1
300
CONTENTFORMAT
  1
CONTENTFORMAT_BEGIN
 90
        0
 91
        0
 92
      512
 93
        0
300

 40
0.0
140
1.0
 94
        5
 62
     0
340
11
144
4.5
309
CONTENTFORMAT_END
171
     1
301
MARGIN
  1
CELLMARGIN_BEGIN
 40
1.5
 40
1.5
 40
1.5
 40
1.5
 40
4.5
 40
4.5
309
CELLMARGIN_END
 94
        6
 95
        1
302
GRIDFORMAT
  1
GRIDFORMAT_BEGIN
 90
        0
 91
        1
 62
     0
 92
       -2
340
0
 93
        0
 40
1.125
309
GRIDFORMAT_END
 95
        2
302
GRIDFORMAT
  1
GRIDFORMAT_BEGIN
 90
        0
 91
        1
 62
     0
 92
       -2
340
0
 93
        0
 40
1.125
309
GRIDFORMAT_END
 95
        4
302
GRIDFORMAT
  1
GRIDFORMAT_BEGIN
 90
        0
 91
        1
 62
     0
 92
       -2
340
0
 93
        0
 40
1.125
309
GRIDFORMAT_END
 95
        8
302
GRIDFORMAT
  1
GRIDFORMAT_BEGIN
 90
        0
 91
        1
 62
     0
 92
       -2
340
0
 93
        0
 40
1.125
309
GRIDFORMAT_END
 95
       16
302
GRIDFORMAT
  1
GRIDFORMAT_BEGIN
 90
        0
 91
        1
 62
     0
 92
       -2
340
0
 93
        0
 40
1.125
309
GRIDFORMAT_END
 95
       32
302
GRIDFORMAT
  1
GRIDFORMAT_BEGIN
 90
        0
 91
        1
 62
     0
 92
       -2
340
0
 93
        0
 40
1.125
309
GRIDFORMAT_END
309
TABLEFORMAT_END
  1
CELLSTYLE_BEGIN
 90
        2
 91
        1
300
_HEADER
309
CELLSTYLE_END
300
CELLSTYLE
  1
TABLEFORMAT_BEGIN
 90
        5
170
     1
 91
        0
 92
        0
 62
   257
 93
        1
300
CONTENTFORMAT
  1
CONTENTFORMAT_BEGIN
 90
        0
 91
        0
 92
      512
 93
        0
300

 40
0.0
140
1.0
 94
        2
 62
     0
340
11
144
4.5
309
CONTENTFORMAT_END
171
     1
301
MARGIN
  1
CELLMARGIN_BEGIN
 40
1.5
 40
1.5
 40
1.5
 40
1.5
 40
4.5
 40
4.5
309
CELLMARGIN_END
 94
        6
 95
        1
302
GRIDFORMAT
  1
GRIDFORMAT_BEGIN
 90
        0
 91
        1
 62
     0
 92
       -2
340
0
 93
        0
 40
1.125
309
GRIDFORMAT_END
 95
        2
302
GRIDFORMAT
  1
GRIDFORMAT_BEGIN
 90
        0
 91
        1
 62
     0
 92
       -2
340
0
 93
        0
 40
1.125
309
GRIDFORMAT_END
 95
        4
302
GRIDFORMAT
  1
GRIDFORMAT_BEGIN
 90
        0
 91
        1
 62
     0
 92
       -2
340
0
 93
        0
 40
1.125
309
GRIDFORMAT_END
 95
        8
302
GRIDFORMAT
  1
GRIDFORMAT_BEGIN
 90
        0
 91
        1
 62
     0
 92
       -2
340
0
 93
        0
 40
1.125
309
GRIDFORMAT_END
 95
       16
302
GRIDFORMAT
  1
GRIDFORMAT_BEGIN
 90
        0
 91
        1
 62
     0
 92
       -2
340
0
 93
        0
 40
1.125
309
GRIDFORMAT_END
 95
       32
302
GRIDFORMAT
  1
GRIDFORMAT_BEGIN
 90
        0
 91
        1
 62
     0
 92
       -2
340
0
 93
        0
 40
1.125
309
GRIDFORMAT_END
309
TABLEFORMAT_END
  1
CELLSTYLE_BEGIN
 90
        3
 91
        2
300
_DATA
309
CELLSTYLE_END
  0
XRECORD
  5
8785
102
{ACAD_REACTORS
330
674F
102
}
330
674F
100
AcDbXrecord
280
     1
102
ACAD_ROUNDTRIP_PRE2007_TABLESTYLE
 90
      512
 91
        0
  1

 92
      512
 93
        0
  2

 94
      512
 95
        0
  3

  0
XRECORD
  5
8760
102
{ACAD_REACTORS
330
875F
102
}
330
875F
100
AcDbXrecord
280
     1
102
RTVSPropertyOp0
 70
     1
102
RTVSPropertyOp1
 70
     1
102
RTVSPropertyOp2
 70
     1
102
RTVSPropertyOp3
 70
     1
102
RTVSPropertyOp4
 70
     1
102
RTVSPropertyOp5
 70
     1
102
RTVSPropertyOp6
 70
     1
102
RTVSPropertyOp7
 70
     1
102
RTVSPropertyOp8
 70
     1
102
RTVSPropertyOp9
 70
     1
102
RTVSPropertyOp10
 70
     1
102
RTVSPropertyOp11
 70
     1
102
RTVSPropertyOp12
 70
     1
102
RTVSPropertyOp13
 70
     1
102
RTVSPropertyOp14
 70
     1
102
RTVSPropertyOp15
 70
     1
102
RTVSPropertyOp16
 70
     1
102
RTVSPropertyOp17
 70
     1
102
RTVSPropertyOp18
 70
     1
102
RTVSPropertyOp19
 70
     1
102
RTVSPropertyOp20
 70
     1
102
RTVSPropertyOp21
 70
     1
102
RTVSPropertyOp22
 70
     1
102
RTVSPropertyOp23
 70
     1
102
RTVSPropertyOp24
 70
     1
102
RTVSPropertyOp25
 70
     1
102
RTVSPropertyOp26
 70
     1
102
RTVSPropertyOp27
 70
     1
102
RTVSPropertyOp28
 70
     1
102
RTVSPropertyOp29
 70
     1
102
RTVSPropertyOp30
 70
     1
102
RTVSPropertyOp31
 70
     1
102
RTVSPropertyOp32
 70
     1
  0
XRECORD
  5
875E
102
{ACAD_REACTORS
330
875D
102
}
330
875D
100
AcDbXrecord
280
     1
102
RTVSPropertyOp0
 70
     1
102
RTVSPropertyOp1
 70
     1
102
RTVSPropertyOp2
 70
     1
102
RTVSPropertyOp3
 70
     1
102
RTVSPropertyOp4
 70
     1
102
RTVSPropertyOp5
 70
     1
102
RTVSPropertyOp6
 70
     1
102
RTVSPropertyOp7
 70
     1
102
RTVSPropertyOp8
 70
     1
102
RTVSPropertyOp9
 70
     1
102
RTVSPropertyOp10
 70
     1
102
RTVSPropertyOp11
 70
     1
102
RTVSPropertyOp12
 70
     1
102
RTVSPropertyOp13
 70
     1
102
RTVSPropertyOp14
 70
     1
102
RTVSPropertyOp15
 70
     1
102
RTVSPropertyOp16
 70
     1
102
RTVSPropertyOp17
 70
     1
102
RTVSPropertyOp18
 70
     1
102
RTVSPropertyOp19
 70
     1
102
RTVSPropertyOp20
 70
     1
102
RTVSPropertyOp21
 70
     1
102
RTVSPropertyOp22
 70
     1
102
RTVSPropertyOp23
 70
     1
102
RTVSPropertyOp24
 70
     1
102
RTVSPropertyOp25
 70
     1
102
RTVSPropertyOp26
 70
     1
102
RTVSPropertyOp27
 70
     1
102
RTVSPropertyOp28
 70
     1
102
RTVSPropertyOp29
 70
     1
102
RTVSPropertyOp30
 70
     1
102
RTVSPropertyOp31
 70
     1
102
RTVSPropertyOp32
 70
     1
  0
XRECORD
  5
876C
102
{ACAD_REACTORS
330
876B
102
}
330
876B
100
AcDbXrecord
280
     1
102
RTVSPropertyOp0
 70
     1
102
RTVSPropertyOp1
 70
     1
102
RTVSPropertyOp2
 70
     1
102
RTVSPropertyOp3
 70
     1
102
RTVSPropertyOp4
 70
     1
102
RTVSPropertyOp5
 70
     1
102
RTVSPropertyOp6
 70
     1
102
RTVSPropertyOp7
 70
     1
102
RTVSPropertyOp8
 70
     1
102
RTVSPropertyOp9
 70
     1
102
RTVSPropertyOp10
 70
     1
102
RTVSPropertyOp11
 70
     1
102
RTVSPropertyOp12
 70
     1
102
RTVSPropertyOp13
 70
     1
102
RTVSPropertyOp14
 70
     1
102
RTVSPropertyOp15
 70
     1
102
RTVSPropertyOp16
 70
     1
102
RTVSPropertyOp17
 70
     1
102
RTVSPropertyOp18
 70
     1
102
RTVSPropertyOp19
 70
     1
102
RTVSPropertyOp20
 70
     1
102
RTVSPropertyOp21
 70
     1
102
RTVSPropertyOp22
 70
     1
102
RTVSPropertyOp23
 70
     1
102
RTVSPropertyOp24
 70
     1
102
RTVSPropertyOp25
 70
     1
102
RTVSPropertyOp26
 70
     1
102
RTVSPropertyOp27
 70
     1
102
RTVSPropertyOp28
 70
     1
102
RTVSPropertyOp29
 70
     1
102
RTVSPropertyOp30
 70
     1
102
RTVSPropertyOp31
 70
     1
102
RTVSPropertyOp32
 70
     1
  0
XRECORD
  5
8774
102
{ACAD_REACTORS
330
8773
102
}
330
8773
100
AcDbXrecord
280
     1
102
RTVSPropertyOp0
 70
     1
102
RTVSPropertyOp1
 70
     1
102
RTVSPropertyOp2
 70
     1
102
RTVSPropertyOp3
 70
     1
102
RTVSPropertyOp4
 70
     1
102
RTVSPropertyOp5
 70
     1
102
RTVSPropertyOp6
 70
     1
102
RTVSPropertyOp7
 70
     1
102
RTVSPropertyOp8
 70
     1
102
RTVSPropertyOp9
 70
     1
102
RTVSPropertyOp10
 70
     1
102
RTVSPropertyOp11
 70
     1
102
RTVSPropertyOp12
 70
     1
102
RTVSPropertyOp13
 70
     1
102
RTVSPropertyOp14
 70
     1
102
RTVSPropertyOp15
 70
     1
102
RTVSPropertyOp16
 70
     1
102
RTVSPropertyOp17
 70
     1
102
RTVSPropertyOp18
 70
     1
102
RTVSPropertyOp19
 70
     1
102
RTVSPropertyOp20
 70
     1
102
RTVSPropertyOp21
 70
     1
102
RTVSPropertyOp22
 70
     1
102
RTVSPropertyOp23
 70
     1
102
RTVSPropertyOp24
 70
     1
102
RTVSPropertyOp25
 70
     1
102
RTVSPropertyOp26
 70
     1
102
RTVSPropertyOp27
 70
     1
102
RTVSPropertyOp28
 70
     1
102
RTVSPropertyOp29
 70
     1
102
RTVSPropertyOp30
 70
     1
102
RTVSPropertyOp31
 70
     1
102
RTVSPropertyOp32
 70
     1
  0
XRECORD
  5
8766
102
{ACAD_REACTORS
330
8765
102
}
330
8765
100
AcDbXrecord
280
     1
102
RTVSPropertyOp0
 70
     1
102
RTVSPropertyOp1
 70
     1
102
RTVSPropertyOp2
 70
     1
102
RTVSPropertyOp3
 70
     1
102
RTVSPropertyOp4
 70
     1
102
RTVSPropertyOp5
 70
     1
102
RTVSPropertyOp6
 70
     1
102
RTVSPropertyOp7
 70
     1
102
RTVSPropertyOp8
 70
     1
102
RTVSPropertyOp9
 70
     1
102
RTVSPropertyOp10
 70
     1
102
RTVSPropertyOp11
 70
     1
102
RTVSPropertyOp12
 70
     1
102
RTVSPropertyOp13
 70
     1
102
RTVSPropertyOp14
 70
     1
102
RTVSPropertyOp15
 70
     1
102
RTVSPropertyOp16
 70
     1
102
RTVSPropertyOp17
 70
     1
102
RTVSPropertyOp18
 70
     1
102
RTVSPropertyOp19
 70
     1
102
RTVSPropertyOp20
 70
     1
102
RTVSPropertyOp21
 70
     1
102
RTVSPropertyOp22
 70
     1
102
RTVSPropertyOp23
 70
     1
102
RTVSPropertyOp24
 70
     1
102
RTVSPropertyOp25
 70
     1
102
RTVSPropertyOp26
 70
     1
102
RTVSPropertyOp27
 70
     1
102
RTVSPropertyOp28
 70
     1
102
RTVSPropertyOp29
 70
     1
102
RTVSPropertyOp30
 70
     1
102
RTVSPropertyOp31
 70
     1
102
RTVSPropertyOp32
 70
     1
  0
XRECORD
  5
876A
102
{ACAD_REACTORS
330
8769
102
}
330
8769
100
AcDbXrecord
280
     1
102
RTVSPropertyOp0
 70
     1
102
RTVSPropertyOp1
 70
     1
102
RTVSPropertyOp2
 70
     1
102
RTVSPropertyOp3
 70
     1
102
RTVSPropertyOp4
 70
     1
102
RTVSPropertyOp5
 70
     1
102
RTVSPropertyOp6
 70
     1
102
RTVSPropertyOp7
 70
     1
102
RTVSPropertyOp8
 70
     1
102
RTVSPropertyOp9
 70
     1
102
RTVSPropertyOp10
 70
     1
102
RTVSPropertyOp11
 70
     1
102
RTVSPropertyOp12
 70
     1
102
RTVSPropertyOp13
 70
     1
102
RTVSPropertyOp14
 70
     1
102
RTVSPropertyOp15
 70
     1
102
RTVSPropertyOp16
 70
     1
102
RTVSPropertyOp17
 70
     1
102
RTVSPropertyOp18
 70
     1
102
RTVSPropertyOp19
 70
     1
102
RTVSPropertyOp20
 70
     1
102
RTVSPropertyOp21
 70
     1
102
RTVSPropertyOp22
 70
     1
102
RTVSPropertyOp23
 70
     1
102
RTVSPropertyOp24
 70
     1
102
RTVSPropertyOp25
 70
     1
102
RTVSPropertyOp26
 70
     1
102
RTVSPropertyOp27
 70
     1
102
RTVSPropertyOp28
 70
     1
102
RTVSPropertyOp29
 70
     1
102
RTVSPropertyOp30
 70
     1
102
RTVSPropertyOp31
 70
     1
102
RTVSPropertyOp32
 70
     1
  0
XRECORD
  5
8784
102
{ACAD_REACTORS
330
8783
102
}
330
8783
100
AcDbXrecord
280
     1
102
RTVSPropertyOp0
 70
     0
102
RTVSPropertyOp1
 70
     0
102
RTVSPropertyOp2
 70
     0
102
RTVSPropertyOp3
 70
     0
102
RTVSPropertyOp4
 70
     0
102
RTVSPropertyOp5
 70
     0
102
RTVSPropertyOp6
 70
     0
102
RTVSPropertyOp7
 70
     0
102
RTVSPropertyOp8
 70
     0
102
RTVSPropertyOp9
 70
     0
102
RTVSPropertyOp10
 70
     0
102
RTVSPropertyOp11
 70
     0
102
RTVSPropertyOp12
 70
     0
102
RTVSPropertyOp13
 70
     0
102
RTVSPropertyOp14
 70
     2
102
RTVSPropertyOp15
 70
     0
102
RTVSPropertyOp16
 70
     0
102
RTVSPropertyOp17
 70
     0
102
RTVSPropertyOp18
 70
     0
102
RTVSPropertyOp19
 70
     0
102
RTVSPropertyOp20
 70
     0
102
RTVSPropertyOp21
 70
     0
102
RTVSPropertyOp22
 70
     0
102
RTVSPropertyOp23
 70
     0
102
RTVSPropertyOp24
 70
     0
102
RTVSPropertyOp25
 70
     0
102
RTVSPropertyOp26
 70
     0
102
RTVSPropertyOp27
 70
     0
102
RTVSPropertyOp28
 70
     1
102
RTVSPropertyOp29
 70
     1
102
RTVSPropertyOp30
 70
     1
102
RTVSPropertyOp31
 70
     1
102
RTVSPropertyOp32
 70
     1
  0
XRECORD
  5
8772
102
{ACAD_REACTORS
330
8771
102
}
330
8771
100
AcDbXrecord
280
     1
102
RTVSPropertyOp0
 70
     1
102
RTVSPropertyOp1
 70
     1
102
RTVSPropertyOp2
 70
     1
102
RTVSPropertyOp3
 70
     1
102
RTVSPropertyOp4
 70
     1
102
RTVSPropertyOp5
 70
     1
102
RTVSPropertyOp6
 70
     1
102
RTVSPropertyOp7
 70
     1
102
RTVSPropertyOp8
 70
     1
102
RTVSPropertyOp9
 70
     1
102
RTVSPropertyOp10
 70
     1
102
RTVSPropertyOp11
 70
     1
102
RTVSPropertyOp12
 70
     1
102
RTVSPropertyOp13
 70
     1
102
RTVSPropertyOp14
 70
     1
102
RTVSPropertyOp15
 70
     1
102
RTVSPropertyOp16
 70
     1
102
RTVSPropertyOp17
 70
     1
102
RTVSPropertyOp18
 70
     1
102
RTVSPropertyOp19
 70
     1
102
RTVSPropertyOp20
 70
     1
102
RTVSPropertyOp21
 70
     1
102
RTVSPropertyOp22
 70
     1
102
RTVSPropertyOp23
 70
     1
102
RTVSPropertyOp24
 70
     1
102
RTVSPropertyOp25
 70
     1
102
RTVSPropertyOp26
 70
     1
102
RTVSPropertyOp27
 70
     1
102
RTVSPropertyOp28
 70
     1
102
RTVSPropertyOp29
 70
     1
102
RTVSPropertyOp30
 70
     1
102
RTVSPropertyOp31
 70
     1
102
RTVSPropertyOp32
 70
     1
  0
XRECORD
  5
8756
102
{ACAD_REACTORS
330
8755
102
}
330
8755
100
AcDbXrecord
280
     1
102
RTVSPropertyOp0
 70
     1
102
RTVSPropertyOp1
 70
     1
102
RTVSPropertyOp2
 70
     1
102
RTVSPropertyOp3
 70
     1
102
RTVSPropertyOp4
 70
     1
102
RTVSPropertyOp5
 70
     1
102
RTVSPropertyOp6
 70
     1
102
RTVSPropertyOp7
 70
     1
102
RTVSPropertyOp8
 70
     1
102
RTVSPropertyOp9
 70
     1
102
RTVSPropertyOp10
 70
     1
102
RTVSPropertyOp11
 70
     1
102
RTVSPropertyOp12
 70
     1
102
RTVSPropertyOp13
 70
     1
102
RTVSPropertyOp14
 70
     1
102
RTVSPropertyOp15
 70
     1
102
RTVSPropertyOp16
 70
     1
102
RTVSPropertyOp17
 70
     1
102
RTVSPropertyOp18
 70
     1
102
RTVSPropertyOp19
 70
     1
102
RTVSPropertyOp20
 70
     1
102
RTVSPropertyOp21
 70
     1
102
RTVSPropertyOp22
 70
     1
102
RTVSPropertyOp23
 70
     1
102
RTVSPropertyOp24
 70
     1
102
RTVSPropertyOp25
 70
     1
102
RTVSPropertyOp26
 70
     1
102
RTVSPropertyOp27
 70
     1
102
RTVSPropertyOp28
 70
     1
102
RTVSPropertyOp29
 70
     1
102
RTVSPropertyOp30
 70
     1
102
RTVSPropertyOp31
 70
     1
102
RTVSPropertyOp32
 70
     1
  0
XRECORD
  5
8758
102
{ACAD_REACTORS
330
8757
102
}
330
8757
100
AcDbXrecord
280
     1
102
RTVSPropertyOp0
 70
     1
102
RTVSPropertyOp1
 70
     1
102
RTVSPropertyOp2
 70
     1
102
RTVSPropertyOp3
 70
     1
102
RTVSPropertyOp4
 70
     1
102
RTVSPropertyOp5
 70
     1
102
RTVSPropertyOp6
 70
     1
102
RTVSPropertyOp7
 70
     1
102
RTVSPropertyOp8
 70
     1
102
RTVSPropertyOp9
 70
     1
102
RTVSPropertyOp10
 70
     1
102
RTVSPropertyOp11
 70
     1
102
RTVSPropertyOp12
 70
     1
102
RTVSPropertyOp13
 70
     1
102
RTVSPropertyOp14
 70
     1
102
RTVSPropertyOp15
 70
     1
102
RTVSPropertyOp16
 70
     1
102
RTVSPropertyOp17
 70
     1
102
RTVSPropertyOp18
 70
     1
102
RTVSPropertyOp19
 70
     1
102
RTVSPropertyOp20
 70
     1
102
RTVSPropertyOp21
 70
     1
102
RTVSPropertyOp22
 70
     1
102
RTVSPropertyOp23
 70
     1
102
RTVSPropertyOp24
 70
     1
102
RTVSPropertyOp25
 70
     1
102
RTVSPropertyOp26
 70
     1
102
RTVSPropertyOp27
 70
     1
102
RTVSPropertyOp28
 70
     1
102
RTVSPropertyOp29
 70
     1
102
RTVSPropertyOp30
 70
     1
102
RTVSPropertyOp31
 70
     1
102
RTVSPropertyOp32
 70
     1
  0
XRECORD
  5
875A
102
{ACAD_REACTORS
330
8759
102
}
330
8759
100
AcDbXrecord
280
     1
102
RTVSPropertyOp0
 70
     1
102
RTVSPropertyOp1
 70
     1
102
RTVSPropertyOp2
 70
     1
102
RTVSPropertyOp3
 70
     1
102
RTVSPropertyOp4
 70
     1
102
RTVSPropertyOp5
 70
     1
102
RTVSPropertyOp6
 70
     1
102
RTVSPropertyOp7
 70
     1
102
RTVSPropertyOp8
 70
     1
102
RTVSPropertyOp9
 70
     1
102
RTVSPropertyOp10
 70
     1
102
RTVSPropertyOp11
 70
     1
102
RTVSPropertyOp12
 70
     1
102
RTVSPropertyOp13
 70
     1
102
RTVSPropertyOp14
 70
     1
102
RTVSPropertyOp15
 70
     1
102
RTVSPropertyOp16
 70
     1
102
RTVSPropertyOp17
 70
     1
102
RTVSPropertyOp18
 70
     1
102
RTVSPropertyOp19
 70
     1
102
RTVSPropertyOp20
 70
     1
102
RTVSPropertyOp21
 70
     1
102
RTVSPropertyOp22
 70
     1
102
RTVSPropertyOp23
 70
     1
102
RTVSPropertyOp24
 70
     1
102
RTVSPropertyOp25
 70
     1
102
RTVSPropertyOp26
 70
     1
102
RTVSPropertyOp27
 70
     1
102
RTVSPropertyOp28
 70
     1
102
RTVSPropertyOp29
 70
     1
102
RTVSPropertyOp30
 70
     1
102
RTVSPropertyOp31
 70
     1
102
RTVSPropertyOp32
 70
     1
  0
XRECORD
  5
875C
102
{ACAD_REACTORS
330
875B
102
}
330
875B
100
AcDbXrecord
280
     1
102
RTVSPropertyOp0
 70
     1
102
RTVSPropertyOp1
 70
     1
102
RTVSPropertyOp2
 70
     1
102
RTVSPropertyOp3
 70
     1
102
RTVSPropertyOp4
 70
     1
102
RTVSPropertyOp5
 70
     1
102
RTVSPropertyOp6
 70
     1
102
RTVSPropertyOp7
 70
     1
102
RTVSPropertyOp8
 70
     1
102
RTVSPropertyOp9
 70
     1
102
RTVSPropertyOp10
 70
     1
102
RTVSPropertyOp11
 70
     1
102
RTVSPropertyOp12
 70
     1
102
RTVSPropertyOp13
 70
     1
102
RTVSPropertyOp14
 70
     1
102
RTVSPropertyOp15
 70
     1
102
RTVSPropertyOp16
 70
     1
102
RTVSPropertyOp17
 70
     1
102
RTVSPropertyOp18
 70
     1
102
RTVSPropertyOp19
 70
     1
102
RTVSPropertyOp20
 70
     1
102
RTVSPropertyOp21
 70
     1
102
RTVSPropertyOp22
 70
     1
102
RTVSPropertyOp23
 70
     1
102
RTVSPropertyOp24
 70
     1
102
RTVSPropertyOp25
 70
     1
102
RTVSPropertyOp26
 70
     1
102
RTVSPropertyOp27
 70
     1
102
RTVSPropertyOp28
 70
     1
102
RTVSPropertyOp29
 70
     1
102
RTVSPropertyOp30
 70
     1
102
RTVSPropertyOp31
 70
     1
102
RTVSPropertyOp32
 70
     1
  0
XRECORD
  5
8764
102
{ACAD_REACTORS
330
8763
102
}
330
8763
100
AcDbXrecord
280
     1
102
RTVSPropertyOp0
 70
     1
102
RTVSPropertyOp1
 70
     1
102
RTVSPropertyOp2
 70
     1
102
RTVSPropertyOp3
 70
     1
102
RTVSPropertyOp4
 70
     1
102
RTVSPropertyOp5
 70
     1
102
RTVSPropertyOp6
 70
     1
102
RTVSPropertyOp7
 70
     1
102
RTVSPropertyOp8
 70
     1
102
RTVSPropertyOp9
 70
     1
102
RTVSPropertyOp10
 70
     1
102
RTVSPropertyOp11
 70
     1
102
RTVSPropertyOp12
 70
     1
102
RTVSPropertyOp13
 70
     1
102
RTVSPropertyOp14
 70
     1
102
RTVSPropertyOp15
 70
     1
102
RTVSPropertyOp16
 70
     1
102
RTVSPropertyOp17
 70
     1
102
RTVSPropertyOp18
 70
     1
102
RTVSPropertyOp19
 70
     1
102
RTVSPropertyOp20
 70
     1
102
RTVSPropertyOp21
 70
     1
102
RTVSPropertyOp22
 70
     1
102
RTVSPropertyOp23
 70
     1
102
RTVSPropertyOp24
 70
     1
102
RTVSPropertyOp25
 70
     1
102
RTVSPropertyOp26
 70
     1
102
RTVSPropertyOp27
 70
     1
102
RTVSPropertyOp28
 70
     1
102
RTVSPropertyOp29
 70
     1
102
RTVSPropertyOp30
 70
     1
102
RTVSPropertyOp31
 70
     1
102
RTVSPropertyOp32
 70
     1
  0
XRECORD
  5
8780
102
{ACAD_REACTORS
330
877F
102
}
330
877F
100
AcDbXrecord
280
     1
102
RTVSPropertyOp0
 70
     0
102
RTVSPropertyOp1
 70
     0
102
RTVSPropertyOp2
 70
     0
102
RTVSPropertyOp3
 70
     0
102
RTVSPropertyOp4
 70
     0
102
RTVSPropertyOp5
 70
     0
102
RTVSPropertyOp6
 70
     0
102
RTVSPropertyOp7
 70
     0
102
RTVSPropertyOp8
 70
     0
102
RTVSPropertyOp9
 70
     0
102
RTVSPropertyOp10
 70
     0
102
RTVSPropertyOp11
 70
     0
102
RTVSPropertyOp12
 70
     0
102
RTVSPropertyOp13
 70
     0
102
RTVSPropertyOp14
 70
     2
102
RTVSPropertyOp15
 70
     0
102
RTVSPropertyOp16
 70
     0
102
RTVSPropertyOp17
 70
     0
102
RTVSPropertyOp18
 70
     0
102
RTVSPropertyOp19
 70
     0
102
RTVSPropertyOp20
 70
     0
102
RTVSPropertyOp21
 70
     0
102
RTVSPropertyOp22
 70
     0
102
RTVSPropertyOp23
 70
     0
102
RTVSPropertyOp24
 70
     0
102
RTVSPropertyOp25
 70
     0
102
RTVSPropertyOp26
 70
     0
102
RTVSPropertyOp27
 70
     0
102
RTVSPropertyOp28
 70
     1
102
RTVSPropertyOp29
 70
     1
102
RTVSPropertyOp30
 70
     1
102
RTVSPropertyOp31
 70
     1
102
RTVSPropertyOp32
 70
     1
  0
XRECORD
  5
8770
102
{ACAD_REACTORS
330
876F
102
}
330
876F
100
AcDbXrecord
280
     1
102
RTVSPropertyOp0
 70
     1
102
RTVSPropertyOp1
 70
     1
102
RTVSPropertyOp2
 70
     1
102
RTVSPropertyOp3
 70
     1
102
RTVSPropertyOp4
 70
     1
102
RTVSPropertyOp5
 70
     1
102
RTVSPropertyOp6
 70
     1
102
RTVSPropertyOp7
 70
     1
102
RTVSPropertyOp8
 70
     1
102
RTVSPropertyOp9
 70
     1
102
RTVSPropertyOp10
 70
     1
102
RTVSPropertyOp11
 70
     1
102
RTVSPropertyOp12
 70
     1
102
RTVSPropertyOp13
 70
     1
102
RTVSPropertyOp14
 70
     1
102
RTVSPropertyOp15
 70
     1
102
RTVSPropertyOp16
 70
     1
102
RTVSPropertyOp17
 70
     1
102
RTVSPropertyOp18
 70
     1
102
RTVSPropertyOp19
 70
     1
102
RTVSPropertyOp20
 70
     1
102
RTVSPropertyOp21
 70
     1
102
RTVSPropertyOp22
 70
     1
102
RTVSPropertyOp23
 70
     1
102
RTVSPropertyOp24
 70
     1
102
RTVSPropertyOp25
 70
     1
102
RTVSPropertyOp26
 70
     1
102
RTVSPropertyOp27
 70
     1
102
RTVSPropertyOp28
 70
     1
102
RTVSPropertyOp29
 70
     1
102
RTVSPropertyOp30
 70
     1
102
RTVSPropertyOp31
 70
     1
102
RTVSPropertyOp32
 70
     1
  0
XRECORD
  5
8782
102
{ACAD_REACTORS
330
8781
102
}
330
8781
100
AcDbXrecord
280
     1
102
RTVSPropertyOp0
 70
     0
102
RTVSPropertyOp1
 70
     0
102
RTVSPropertyOp2
 70
     0
102
RTVSPropertyOp3
 70
     0
102
RTVSPropertyOp4
 70
     0
102
RTVSPropertyOp5
 70
     0
102
RTVSPropertyOp6
 70
     0
102
RTVSPropertyOp7
 70
     0
102
RTVSPropertyOp8
 70
     0
102
RTVSPropertyOp9
 70
     0
102
RTVSPropertyOp10
 70
     0
102
RTVSPropertyOp11
 70
     0
102
RTVSPropertyOp12
 70
     0
102
RTVSPropertyOp13
 70
     0
102
RTVSPropertyOp14
 70
     2
102
RTVSPropertyOp15
 70
     0
102
RTVSPropertyOp16
 70
     0
102
RTVSPropertyOp17
 70
     0
102
RTVSPropertyOp18
 70
     0
102
RTVSPropertyOp19
 70
     0
102
RTVSPropertyOp20
 70
     0
102
RTVSPropertyOp21
 70
     0
102
RTVSPropertyOp22
 70
     0
102
RTVSPropertyOp23
 70
     0
102
RTVSPropertyOp24
 70
     0
102
RTVSPropertyOp25
 70
     0
102
RTVSPropertyOp26
 70
     0
102
RTVSPropertyOp27
 70
     0
102
RTVSPropertyOp28
 70
     1
102
RTVSPropertyOp29
 70
     1
102
RTVSPropertyOp30
 70
     1
102
RTVSPropertyOp31
 70
     1
102
RTVSPropertyOp32
 70
     1
  0
XRECORD
  5
8768
102
{ACAD_REACTORS
330
8767
102
}
330
8767
100
AcDbXrecord
280
     1
102
RTVSPropertyOp0
 70
     1
102
RTVSPropertyOp1
 70
     1
102
RTVSPropertyOp2
 70
     1
102
RTVSPropertyOp3
 70
     1
102
RTVSPropertyOp4
 70
     1
102
RTVSPropertyOp5
 70
     1
102
RTVSPropertyOp6
 70
     1
102
RTVSPropertyOp7
 70
     1
102
RTVSPropertyOp8
 70
     1
102
RTVSPropertyOp9
 70
     1
102
RTVSPropertyOp10
 70
     1
102
RTVSPropertyOp11
 70
     1
102
RTVSPropertyOp12
 70
     1
102
RTVSPropertyOp13
 70
     1
102
RTVSPropertyOp14
 70
     1
102
RTVSPropertyOp15
 70
     1
102
RTVSPropertyOp16
 70
     1
102
RTVSPropertyOp17
 70
     1
102
RTVSPropertyOp18
 70
     1
102
RTVSPropertyOp19
 70
     1
102
RTVSPropertyOp20
 70
     1
102
RTVSPropertyOp21
 70
     1
102
RTVSPropertyOp22
 70
     1
102
RTVSPropertyOp23
 70
     1
102
RTVSPropertyOp24
 70
     1
102
RTVSPropertyOp25
 70
     1
102
RTVSPropertyOp26
 70
     1
102
RTVSPropertyOp27
 70
     1
102
RTVSPropertyOp28
 70
     1
102
RTVSPropertyOp29
 70
     1
102
RTVSPropertyOp30
 70
     1
102
RTVSPropertyOp31
 70
     1
102
RTVSPropertyOp32
 70
     1
  0
XRECORD
  5
877E
102
{ACAD_REACTORS
330
877D
102
}
330
877D
100
AcDbXrecord
280
     1
102
RTVSPropertyOp0
 70
     1
102
RTVSPropertyOp1
 70
     1
102
RTVSPropertyOp2
 70
     1
102
RTVSPropertyOp3
 70
     1
102
RTVSPropertyOp4
 70
     1
102
RTVSPropertyOp5
 70
     1
102
RTVSPropertyOp6
 70
     1
102
RTVSPropertyOp7
 70
     1
102
RTVSPropertyOp8
 70
     1
102
RTVSPropertyOp9
 70
     1
102
RTVSPropertyOp10
 70
     1
102
RTVSPropertyOp11
 70
     1
102
RTVSPropertyOp12
 70
     1
102
RTVSPropertyOp13
 70
     1
102
RTVSPropertyOp14
 70
     1
102
RTVSPropertyOp15
 70
     1
102
RTVSPropertyOp16
 70
     1
102
RTVSPropertyOp17
 70
     1
102
RTVSPropertyOp18
 70
     1
102
RTVSPropertyOp19
 70
     1
102
RTVSPropertyOp20
 70
     1
102
RTVSPropertyOp21
 70
     1
102
RTVSPropertyOp22
 70
     1
102
RTVSPropertyOp23
 70
     1
102
RTVSPropertyOp24
 70
     1
102
RTVSPropertyOp25
 70
     1
102
RTVSPropertyOp26
 70
     1
102
RTVSPropertyOp27
 70
     1
102
RTVSPropertyOp28
 70
     1
102
RTVSPropertyOp29
 70
     1
102
RTVSPropertyOp30
 70
     1
102
RTVSPropertyOp31
 70
     1
102
RTVSPropertyOp32
 70
     1
  0
XRECORD
  5
877C
102
{ACAD_REACTORS
330
877B
102
}
330
877B
100
AcDbXrecord
280
     1
102
RTVSPropertyOp0
 70
     1
102
RTVSPropertyOp1
 70
     1
102
RTVSPropertyOp2
 70
     1
102
RTVSPropertyOp3
 70
     1
102
RTVSPropertyOp4
 70
     1
102
RTVSPropertyOp5
 70
     1
102
RTVSPropertyOp6
 70
     1
102
RTVSPropertyOp7
 70
     1
102
RTVSPropertyOp8
 70
     1
102
RTVSPropertyOp9
 70
     1
102
RTVSPropertyOp10
 70
     1
102
RTVSPropertyOp11
 70
     1
102
RTVSPropertyOp12
 70
     1
102
RTVSPropertyOp13
 70
     1
102
RTVSPropertyOp14
 70
     1
102
RTVSPropertyOp15
 70
     1
102
RTVSPropertyOp16
 70
     1
102
RTVSPropertyOp17
 70
     1
102
RTVSPropertyOp18
 70
     1
102
RTVSPropertyOp19
 70
     1
102
RTVSPropertyOp20
 70
     1
102
RTVSPropertyOp21
 70
     1
102
RTVSPropertyOp22
 70
     1
102
RTVSPropertyOp23
 70
     1
102
RTVSPropertyOp24
 70
     1
102
RTVSPropertyOp25
 70
     1
102
RTVSPropertyOp26
 70
     1
102
RTVSPropertyOp27
 70
     1
102
RTVSPropertyOp28
 70
     1
102
RTVSPropertyOp29
 70
     1
102
RTVSPropertyOp30
 70
     1
102
RTVSPropertyOp31
 70
     1
102
RTVSPropertyOp32
 70
     1
  0
XRECORD
  5
8776
102
{ACAD_REACTORS
330
8775
102
}
330
8775
100
AcDbXrecord
280
     1
102
RTVSPropertyOp0
 70
     1
102
RTVSPropertyOp1
 70
     1
102
RTVSPropertyOp2
 70
     1
102
RTVSPropertyOp3
 70
     1
102
RTVSPropertyOp4
 70
     1
102
RTVSPropertyOp5
 70
     1
102
RTVSPropertyOp6
 70
     1
102
RTVSPropertyOp7
 70
     1
102
RTVSPropertyOp8
 70
     1
102
RTVSPropertyOp9
 70
     1
102
RTVSPropertyOp10
 70
     1
102
RTVSPropertyOp11
 70
     1
102
RTVSPropertyOp12
 70
     1
102
RTVSPropertyOp13
 70
     1
102
RTVSPropertyOp14
 70
     1
102
RTVSPropertyOp15
 70
     1
102
RTVSPropertyOp16
 70
     1
102
RTVSPropertyOp17
 70
     1
102
RTVSPropertyOp18
 70
     1
102
RTVSPropertyOp19
 70
     1
102
RTVSPropertyOp20
 70
     1
102
RTVSPropertyOp21
 70
     1
102
RTVSPropertyOp22
 70
     1
102
RTVSPropertyOp23
 70
     1
102
RTVSPropertyOp24
 70
     1
102
RTVSPropertyOp25
 70
     1
102
RTVSPropertyOp26
 70
     1
102
RTVSPropertyOp27
 70
     1
102
RTVSPropertyOp28
 70
     1
102
RTVSPropertyOp29
 70
     1
102
RTVSPropertyOp30
 70
     1
102
RTVSPropertyOp31
 70
     1
102
RTVSPropertyOp32
 70
     1
  0
XRECORD
  5
8778
102
{ACAD_REACTORS
330
8777
102
}
330
8777
100
AcDbXrecord
280
     1
102
RTVSPropertyOp0
 70
     1
102
RTVSPropertyOp1
 70
     1
102
RTVSPropertyOp2
 70
     1
102
RTVSPropertyOp3
 70
     1
102
RTVSPropertyOp4
 70
     1
102
RTVSPropertyOp5
 70
     1
102
RTVSPropertyOp6
 70
     1
102
RTVSPropertyOp7
 70
     1
102
RTVSPropertyOp8
 70
     1
102
RTVSPropertyOp9
 70
     1
102
RTVSPropertyOp10
 70
     1
102
RTVSPropertyOp11
 70
     1
102
RTVSPropertyOp12
 70
     1
102
RTVSPropertyOp13
 70
     1
102
RTVSPropertyOp14
 70
     1
102
RTVSPropertyOp15
 70
     1
102
RTVSPropertyOp16
 70
     1
102
RTVSPropertyOp17
 70
     1
102
RTVSPropertyOp18
 70
     1
102
RTVSPropertyOp19
 70
     1
102
RTVSPropertyOp20
 70
     1
102
RTVSPropertyOp21
 70
     1
102
RTVSPropertyOp22
 70
     1
102
RTVSPropertyOp23
 70
     1
102
RTVSPropertyOp24
 70
     1
102
RTVSPropertyOp25
 70
     1
102
RTVSPropertyOp26
 70
     1
102
RTVSPropertyOp27
 70
     1
102
RTVSPropertyOp28
 70
     1
102
RTVSPropertyOp29
 70
     1
102
RTVSPropertyOp30
 70
     1
102
RTVSPropertyOp31
 70
     1
102
RTVSPropertyOp32
 70
     1
  0
XRECORD
  5
876E
102
{ACAD_REACTORS
330
876D
102
}
330
876D
100
AcDbXrecord
280
     1
102
RTVSPropertyOp0
 70
     1
102
RTVSPropertyOp1
 70
     1
102
RTVSPropertyOp2
 70
     1
102
RTVSPropertyOp3
 70
     1
102
RTVSPropertyOp4
 70
     1
102
RTVSPropertyOp5
 70
     1
102
RTVSPropertyOp6
 70
     1
102
RTVSPropertyOp7
 70
     1
102
RTVSPropertyOp8
 70
     1
102
RTVSPropertyOp9
 70
     1
102
RTVSPropertyOp10
 70
     1
102
RTVSPropertyOp11
 70
     1
102
RTVSPropertyOp12
 70
     1
102
RTVSPropertyOp13
 70
     1
102
RTVSPropertyOp14
 70
     1
102
RTVSPropertyOp15
 70
     1
102
RTVSPropertyOp16
 70
     1
102
RTVSPropertyOp17
 70
     1
102
RTVSPropertyOp18
 70
     1
102
RTVSPropertyOp19
 70
     1
102
RTVSPropertyOp20
 70
     1
102
RTVSPropertyOp21
 70
     1
102
RTVSPropertyOp22
 70
     1
102
RTVSPropertyOp23
 70
     1
102
RTVSPropertyOp24
 70
     1
102
RTVSPropertyOp25
 70
     1
102
RTVSPropertyOp26
 70
     1
102
RTVSPropertyOp27
 70
     1
102
RTVSPropertyOp28
 70
     1
102
RTVSPropertyOp29
 70
     1
102
RTVSPropertyOp30
 70
     1
102
RTVSPropertyOp31
 70
     1
102
RTVSPropertyOp32
 70
     1
  0
XRECORD
  5
8762
102
{ACAD_REACTORS
330
8761
102
}
330
8761
100
AcDbXrecord
280
     1
102
RTVSPropertyOp0
 70
     1
102
RTVSPropertyOp1
 70
     1
102
RTVSPropertyOp2
 70
     1
102
RTVSPropertyOp3
 70
     1
102
RTVSPropertyOp4
 70
     1
102
RTVSPropertyOp5
 70
     1
102
RTVSPropertyOp6
 70
     1
102
RTVSPropertyOp7
 70
     1
102
RTVSPropertyOp8
 70
     1
102
RTVSPropertyOp9
 70
     1
102
RTVSPropertyOp10
 70
     1
102
RTVSPropertyOp11
 70
     1
102
RTVSPropertyOp12
 70
     1
102
RTVSPropertyOp13
 70
     1
102
RTVSPropertyOp14
 70
     1
102
RTVSPropertyOp15
 70
     1
102
RTVSPropertyOp16
 70
     1
102
RTVSPropertyOp17
 70
     1
102
RTVSPropertyOp18
 70
     1
102
RTVSPropertyOp19
 70
     1
102
RTVSPropertyOp20
 70
     1
102
RTVSPropertyOp21
 70
     1
102
RTVSPropertyOp22
 70
     1
102
RTVSPropertyOp23
 70
     1
102
RTVSPropertyOp24
 70
     1
102
RTVSPropertyOp25
 70
     1
102
RTVSPropertyOp26
 70
     1
102
RTVSPropertyOp27
 70
     1
102
RTVSPropertyOp28
 70
     1
102
RTVSPropertyOp29
 70
     1
102
RTVSPropertyOp30
 70
     1
102
RTVSPropertyOp31
 70
     1
102
RTVSPropertyOp32
 70
     1
  0
XRECORD
  5
877A
102
{ACAD_REACTORS
330
8779
102
}
330
8779
100
AcDbXrecord
280
     1
102
RTVSPropertyOp0
 70
     1
102
RTVSPropertyOp1
 70
     1
102
RTVSPropertyOp2
 70
     1
102
RTVSPropertyOp3
 70
     1
102
RTVSPropertyOp4
 70
     1
102
RTVSPropertyOp5
 70
     1
102
RTVSPropertyOp6
 70
     1
102
RTVSPropertyOp7
 70
     1
102
RTVSPropertyOp8
 70
     1
102
RTVSPropertyOp9
 70
     1
102
RTVSPropertyOp10
 70
     1
102
RTVSPropertyOp11
 70
     1
102
RTVSPropertyOp12
 70
     1
102
RTVSPropertyOp13
 70
     1
102
RTVSPropertyOp14
 70
     1
102
RTVSPropertyOp15
 70
     1
102
RTVSPropertyOp16
 70
     1
102
RTVSPropertyOp17
 70
     1
102
RTVSPropertyOp18
 70
     1
102
RTVSPropertyOp19
 70
     1
102
RTVSPropertyOp20
 70
     1
102
RTVSPropertyOp21
 70
     1
102
RTVSPropertyOp22
 70
     1
102
RTVSPropertyOp23
 70
     1
102
RTVSPropertyOp24
 70
     1
102
RTVSPropertyOp25
 70
     1
102
RTVSPropertyOp26
 70
     1
102
RTVSPropertyOp27
 70
     1
102
RTVSPropertyOp28
 70
     1
102
RTVSPropertyOp29
 70
     1
102
RTVSPropertyOp30
 70
     1
102
RTVSPropertyOp31
 70
     1
102
RTVSPropertyOp32
 70
     1
  0
ENDSEC
  0
EOF
