  0
SECTION
  2
HEADER
  9
$ACADVER
  1
AC1015
  9
$ACADMAINTVER
 70
    20
  9
$DWGCODEPAGE
  3
ANSI_932
  9
$INSBASE
 10
0.0
 20
0.0
 30
0.0
  9
$EXTMIN
 10
-16.87238295432121
 20
-1.806952984187319
 30
-0.0000000000000058
  9
$EXTMAX
 10
655.6556521820843
 20
531.1576540192818
 30
0.0000000000000104
  9
$LIMMIN
 10
0.0
 20
0.0
  9
$LIMMAX
 10
420.0
 20
297.0
  9
$ORTHOMODE
 70
     1
  9
$REGENMODE
 70
     1
  9
$FILLMODE
 70
     1
  9
$QTEXTMODE
 70
     0
  9
$MIRRTEXT
 70
     1
  9
$LTSCALE
 40
1.0
  9
$ATTMODE
 70
     1
  9
$TEXTSIZE
 40
70.68236852996823
  9
$TRACEWID
 40
1.0
  9
$TEXTSTYLE
  7
Standard
  9
$CLAYER
  8
DIM
  9
$CELTYPE
  6
ByLayer
  9
$CECOLOR
 62
   256
  9
$CELTSCALE
 40
1.0
  9
$DISPSILH
 70
     0
  9
$DIMSCALE
 40
2.0
  9
$DIMASZ
 40
3.9
  9
$DIMEXO
 40
2.1
  9
$DIMDLI
 40
0.0
  9
$DIMRND
 40
0.0
  9
$DIMDLE
 40
0.0
  9
$DIMEXE
 40
0.0
  9
$DIMTP
 40
0.0
  9
$DIMTM
 40
0.0
  9
$DIMTXT
 40
3.5
  9
$DIMCEN
 40
2.5
  9
$DIMTSZ
 40
0.0
  9
$DIMTOL
 70
     0
  9
$DIMLIM
 70
     0
  9
$DIMTIH
 70
     0
  9
$DIMTOH
 70
     0
  9
$DIMSE1
 70
     0
  9
$DIMSE2
 70
     0
  9
$DIMTAD
 70
     1
  9
$DIMZIN
 70
     9
  9
$DIMBLK
  1
DotSmall
  9
$DIMASO
 70
     1
  9
$DIMSHO
 70
     1
  9
$DIMPOST
  1

  9
$DIMAPOST
  1

  9
$DIMALT
 70
     0
  9
$DIMALTD
 70
     3
  9
$DIMALTF
 40
0.03937007874016
  9
$DIMLFAC
 40
1.0
  9
$DIMTOFL
 70
     1
  9
$DIMTVP
 40
0.0
  9
$DIMTIX
 70
     0
  9
$DIMSOXD
 70
     0
  9
$DIMSAH
 70
     0
  9
$DIMBLK1
  1

  9
$DIMBLK2
  1

  9
$DIMSTYLE
  2
ISO-25_2
  9
$DIMCLRD
 70
     0
  9
$DIMCLRE
 70
     0
  9
$DIMCLRT
 70
     7
  9
$DIMTFAC
 40
1.0
  9
$DIMGAP
 40
0.9
  9
$DIMJUST
 70
     0
  9
$DIMSD1
 70
     0
  9
$DIMSD2
 70
     0
  9
$DIMTOLJ
 70
     0
  9
$DIMTZIN
 70
     8
  9
$DIMALTZ
 70
     0
  9
$DIMALTTZ
 70
     0
  9
$DIMUPT
 70
     0
  9
$DIMDEC
 70
     1
  9
$DIMTDEC
 70
     1
  9
$DIMALTU
 70
     2
  9
$DIMALTTD
 70
     3
  9
$DIMTXSTY
  7
Standard
  9
$DIMAUNIT
 70
     0
  9
$DIMADEC
 70
     0
  9
$DIMALTRND
 40
0.0
  9
$DIMAZIN
 70
     0
  9
$DIMDSEP
 70
    46
  9
$DIMATFIT
 70
     3
  9
$DIMFRAC
 70
     0
  9
$DIMLDRBLK
  1

  9
$DIMLUNIT
 70
     2
  9
$DIMLWD
 70
    -2
  9
$DIMLWE
 70
    -2
  9
$DIMTMOVE
 70
     0
  9
$LUNITS
 70
     2
  9
$LUPREC
 70
     4
  9
$SKETCHINC
 40
1.0
  9
$FILLETRAD
 40
3.0
  9
$AUNITS
 70
     0
  9
$AUPREC
 70
     0
  9
$MENU
  1
.
  9
$ELEVATION
 40
0.0
  9
$PELEVATION
 40
0.0
  9
$THICKNESS
 40
0.0
  9
$LIMCHECK
 70
     0
  9
$CHAMFERA
 40
0.0
  9
$CHAMFERB
 40
0.0
  9
$CHAMFERC
 40
20.0
  9
$CHAMFERD
 40
0.0
  9
$SKPOLY
 70
     0
  9
$TDCREATE
 40
2452626.479274549
  9
$TDUCREATE
 40
2452626.104274548
  9
$TDUPDATE
 40
2456499.403617223
  9
$TDUUPDATE
 40
2456499.028617222
  9
$TDINDWG
 40
1.0613187616
  9
$TDUSRTIMER
 40
1.0613186690
  9
$USRTIMER
 70
     1
  9
$ANGBASE
 50
0.0
  9
$ANGDIR
 70
     0
  9
$PDMODE
 70
    99
  9
$PDSIZE
 40
-2.0
  9
$PLINEWID
 40
0.0
  9
$SPLFRAME
 70
     0
  9
$SPLINETYPE
 70
     6
  9
$SPLINESEGS
 70
     8
  9
$HANDSEED
  5
A34C
  9
$SURFTAB1
 70
     6
  9
$SURFTAB2
 70
     6
  9
$SURFTYPE
 70
     6
  9
$SURFU
 70
     6
  9
$SURFV
 70
     6
  9
$UCSBASE
  2

  9
$UCSNAME
  2

  9
$UCSORG
 10
0.0
 20
0.0
 30
0.0
  9
$UCSXDIR
 10
1.0
 20
0.0
 30
0.0
  9
$UCSYDIR
 10
0.0
 20
1.0
 30
0.0
  9
$UCSORTHOREF
  2

  9
$UCSORTHOVIEW
 70
     0
  9
$UCSORGTOP
 10
0.0
 20
0.0
 30
0.0
  9
$UCSORGBOTTOM
 10
0.0
 20
0.0
 30
0.0
  9
$UCSORGLEFT
 10
0.0
 20
0.0
 30
0.0
  9
$UCSORGRIGHT
 10
0.0
 20
0.0
 30
0.0
  9
$UCSORGFRONT
 10
0.0
 20
0.0
 30
0.0
  9
$UCSORGBACK
 10
0.0
 20
0.0
 30
0.0
  9
$PUCSBASE
  2

  9
$PUCSNAME
  2

  9
$PUCSORG
 10
0.0
 20
0.0
 30
0.0
  9
$PUCSXDIR
 10
1.0
 20
0.0
 30
0.0
  9
$PUCSYDIR
 10
0.0
 20
1.0
 30
0.0
  9
$PUCSORTHOREF
  2

  9
$PUCSORTHOVIEW
 70
     0
  9
$PUCSORGTOP
 10
0.0
 20
0.0
 30
0.0
  9
$PUCSORGBOTTOM
 10
0.0
 20
0.0
 30
0.0
  9
$PUCSORGLEFT
 10
0.0
 20
0.0
 30
0.0
  9
$PUCSORGRIGHT
 10
0.0
 20
0.0
 30
0.0
  9
$PUCSORGFRONT
 10
0.0
 20
0.0
 30
0.0
  9
$PUCSORGBACK
 10
0.0
 20
0.0
 30
0.0
  9
$USERI1
 70
     0
  9
$USERI2
 70
     0
  9
$USERI3
 70
     0
  9
$USERI4
 70
     0
  9
$USERI5
 70
     0
  9
$USERR1
 40
0.0
  9
$USERR2
 40
0.0
  9
$USERR3
 40
0.0
  9
$USERR4
 40
0.0
  9
$USERR5
 40
0.0
  9
$WORLDVIEW
 70
     1
  9
$SHADEDGE
 70
     3
  9
$SHADEDIF
 70
    70
  9
$TILEMODE
 70
     1
  9
$MAXACTVP
 70
    64
  9
$PINSBASE
 10
0.0
 20
0.0
 30
0.0
  9
$PLIMCHECK
 70
     0
  9
$PEXTMIN
 10
28.84593157768251
 20
20.15066723823549
 30
0.0
  9
$PEXTMAX
 10
259.6133841991425
 20
181.3560051441192
 30
0.0
  9
$PLIMMIN
 10
-4.23333740234375
 20
-4.233333110809326
  9
$PLIMMAX
 10
292.6926574707031
 20
205.7399945259094
  9
$UNITMODE
 70
     0
  9
$VISRETAIN
 70
     1
  9
$PLINEGEN
 70
     0
  9
$PSLTSCALE
 70
     1
  9
$TREEDEPTH
 70
  3020
  9
$CMLSTYLE
  2
Standard
  9
$CMLJUST
 70
     0
  9
$CMLSCALE
 40
20.0
  9
$PROXYGRAPHICS
 70
     1
  9
$MEASUREMENT
 70
     1
  9
$CELWEIGHT
370
    -1
  9
$ENDCAPS
280
     0
  9
$JOINSTYLE
280
     0
  9
$LWDISPLAY
290
     0
  9
$INSUNITS
 70
     4
  9
$HYPERLINKBASE
  1

  9
$STYLESHEET
  1
PDF.CTB
  9
$XEDIT
290
     1
  9
$CEPSNTYPE
380
     0
  9
$PSTYLEMODE
290
     1
  9
$FINGERPRINTGUID
  2
{AEAF812E-8D80-486D-9611-5903FAC53DCD}
  9
$VERSIONGUID
  2
{D8769E21-749D-4AD2-8084-5E54BB76DDD0}
  9
$EXTNAMES
290
     1
  9
$PSVPSCALE
 40
0.0
  9
$OLESTARTUP
290
     0
  0
ENDSEC
  0
SECTION
  2
CLASSES
  0
CLASS
  1
ACDBDICTIONARYWDFLT
  2
AcDbDictionaryWithDefault
  3
ObjectDBX Classes
 90
        0
280
     0
281
     0
  0
CLASS
  1
ACDBPLACEHOLDER
  2
AcDbPlaceHolder
  3
ObjectDBX Classes
 90
        0
280
     0
281
     0
  0
CLASS
  1
LAYOUT
  2
AcDbLayout
  3
ObjectDBX Classes
 90
        0
280
     0
281
     0
  0
CLASS
  1
DICTIONARYVAR
  2
AcDbDictionaryVar
  3
ObjectDBX Classes
 90
        0
280
     0
281
     0
  0
CLASS
  1
MATERIAL
  2
AcDbMaterial
  3
ObjectDBX Classes
 90
     1153
280
     0
281
     0
  0
CLASS
  1
VISUALSTYLE
  2
AcDbVisualStyle
  3
ObjectDBX Classes
 90
     4095
280
     0
281
     0
  0
CLASS
  1
TABLESTYLE
  2
AcDbTableStyle
  3
ObjectDBX Classes
 90
     4095
280
     0
281
     0
  0
CLASS
  1
SCALE
  2
AcDbScale
  3
ObjectDBX Classes
 90
     1153
280
     0
281
     0
  0
CLASS
  1
MLEADERSTYLE
  2
AcDbMLeaderStyle
  3
ACDB_MLEADERSTYLE_CLASS
 90
     4095
280
     0
281
     0
  0
CLASS
  1
SORTENTSTABLE
  2
AcDbSortentsTable
  3
ObjectDBX Classes
 90
        0
280
     0
281
     0
  0
CLASS
  1
CELLSTYLEMAP
  2
AcDbCellStyleMap
  3
ObjectDBX Classes
 90
     1152
280
     0
281
     0
  0
CLASS
  1
PLOTSETTINGS
  2
AcDbPlotSettings
  3
ObjectDBX Classes
 90
        0
280
     0
281
     0
  0
CLASS
  1
ACDB_MTEXTOBJECTCONTEXTDATA_CLASS
  2
AcDbMTextObjectContextData
  3
ObjectDBX Classes
 90
    33921
280
     0
281
     0
  0
CLASS
  1
ACDB_TEXTOBJECTCONTEXTDATA_CLASS
  2
AcDbTextObjectContextData
  3
ObjectDBX Classes
 90
    33921
280
     0
281
     0
  0
CLASS
  1
MULTILEADER
  2
AcDbMLeader
  3
ACDB_MLEADER_CLASS
 90
    33793
280
     0
281
     1
  0
ENDSEC
  0
SECTION
  2
TABLES
  0
TABLE
  2
VPORT
  5
8
102
{ACAD_XDICTIONARY
360
5764
102
}
330
0
100
AcDbSymbolTable
 70
     1
  0
VPORT
  5
4E06
330
8
100
AcDbSymbolTableRecord
100
AcDbViewportTableRecord
  2
*Active
 70
     0
 10
0.0
 20
0.0
 11
1.0
 21
1.0
 12
319.3916346138816
 22
264.6753505175473
 13
0.0
 23
0.0
 14
10.0
 24
10.0
 15
10.0
 25
10.0
 16
0.0
 26
0.0
 36
1.0
 17
0.0
 27
0.0
 37
0.0
 40
538.4030213606474
 41
2.020442930153321
 42
50.0
 43
0.0
 44
0.0
 50
0.0
 51
0.0
 71
     0
 72
 20000
 73
     1
 74
     0
 75
     0
 76
     0
 77
     0
 78
     0
281
     0
 65
     1
110
0.0
120
0.0
130
0.0
111
1.0
121
0.0
131
0.0
112
0.0
122
1.0
132
0.0
 79
     0
146
0.0
1001
ACAD_NAV_VCDISPLAY
1070
     3
  0
ENDTAB
  0
TABLE
  2
LTYPE
  5
5
330
0
100
AcDbSymbolTable
 70
     2
  0
LTYPE
  5
14
330
5
100
AcDbSymbolTableRecord
100
AcDbLinetypeTableRecord
  2
ByBlock
 70
     0
  3

 72
    65
 73
     0
 40
0.0
  0
LTYPE
  5
15
330
5
100
AcDbSymbolTableRecord
100
AcDbLinetypeTableRecord
  2
ByLayer
 70
     0
  3

 72
    65
 73
     0
 40
0.0
  0
LTYPE
  5
16
330
5
100
AcDbSymbolTableRecord
100
AcDbLinetypeTableRecord
  2
Continuous
 70
     0
  3
Solid line
 72
    65
 73
     0
 40
0.0
  0
LTYPE
  5
8803
330
5
100
AcDbSymbolTableRecord
100
AcDbLinetypeTableRecord
  2
ACAD_ISO03W100
 70
     0
  3
ISO dash space __    __    __    __    __    __
 72
    65
 73
     2
 40
30.0
 49
12.0
 74
     0
 49
-18.0
 74
     0
  0
ENDTAB
  0
TABLE
  2
LAYER
  5
2
102
{ACAD_XDICTIONARY
360
322F
102
}
330
0
100
AcDbSymbolTable
 70
     8
  0
LAYER
  5
10
102
{ACAD_XDICTIONARY
360
4E60
102
}
330
2
100
AcDbSymbolTableRecord
100
AcDbLayerTableRecord
  2
0
 70
     0
 62
     9
  6
Continuous
290
     0
370
    -3
390
F
  0
LAYER
  5
35
102
{ACAD_XDICTIONARY
360
4E62
102
}
330
2
100
AcDbSymbolTableRecord
100
AcDbLayerTableRecord
  2
図面枠
 70
     0
 62
     5
  6
Continuous
370
    20
390
F
  0
LAYER
  5
261
102
{ACAD_XDICTIONARY
360
4E6A
102
}
330
2
100
AcDbSymbolTableRecord
100
AcDbLayerTableRecord
  2
実線  太
 70
     0
 62
     7
  6
Continuous
370
    18
390
F
  0
LAYER
  5
491
330
2
100
AcDbSymbolTableRecord
100
AcDbLayerTableRecord
  2
Defpoints
 70
     0
 62
     7
  6
Continuous
290
     0
370
    -3
390
F
  0
LAYER
  5
81D3
330
2
100
AcDbSymbolTableRecord
100
AcDbLayerTableRecord
  2
DIM
 70
     0
 62
    20
  6
Continuous
370
    13
390
F
1001
AcAecLayerStandard
1000

1000

1001
AcCmTransparency
1071
        0
  0
LAYER
  5
8802
330
2
100
AcDbSymbolTableRecord
100
AcDbLayerTableRecord
  2
破線
 70
     0
 62
   221
  6
ACAD_ISO03W100
370
     5
390
F
1001
AcAecLayerStandard
1000

1000

1001
AcCmTransparency
1071
        0
  0
LAYER
  5
9891
330
2
100
AcDbSymbolTableRecord
100
AcDbLayerTableRecord
  2
寸法線
 70
     0
 62
    20
  6
Continuous
370
    13
390
F
  0
LAYER
  5
9892
330
2
100
AcDbSymbolTableRecord
100
AcDbLayerTableRecord
  2
実線  細
 70
     0
 62
   141
  6
Continuous
370
     5
390
F
  0
ENDTAB
  0
TABLE
  2
STYLE
  5
3
330
0
100
AcDbSymbolTable
 70
     1
  0
STYLE
  5
11
330
3
100
AcDbSymbolTableRecord
100
AcDbTextStyleTableRecord
  2
Standard
 70
     0
 40
0.0
 41
1.0
 50
0.0
 71
     0
 42
70.68236852996823
  3

  4

1001
AcadAnnotative
1000
AnnotativeData
1002
{
1070
     1
1070
     1
1002
}
1001
ACAD
1000
MS PGothic
1071
    32818
  0
ENDTAB
  0
TABLE
  2
VIEW
  5
6
330
0
100
AcDbSymbolTable
 70
     0
  0
ENDTAB
  0
TABLE
  2
UCS
  5
7
330
0
100
AcDbSymbolTable
 70
     0
  0
ENDTAB
  0
TABLE
  2
APPID
  5
9
330
0
100
AcDbSymbolTable
 70
    13
  0
APPID
  5
12
330
9
100
AcDbSymbolTableRecord
100
AcDbRegAppTableRecord
  2
ACAD
 70
     0
  0
APPID
  5
4E5E
330
9
100
AcDbSymbolTableRecord
100
AcDbRegAppTableRecord
  2
ACAD_EXEMPT_FROM_CAD_STANDARDS
 70
     0
  0
APPID
  5
4E74
330
9
100
AcDbSymbolTableRecord
100
AcDbRegAppTableRecord
  2
ACAD_NAV_VCDISPLAY
 70
     0
  0
APPID
  5
5679
330
9
100
AcDbSymbolTableRecord
100
AcDbRegAppTableRecord
  2
ACAD_PSEXT
 70
     0
  0
APPID
  5
57A7
330
9
100
AcDbSymbolTableRecord
100
AcDbRegAppTableRecord
  2
ACAD_MLEADERVER
 70
     0
  0
APPID
  5
60FB
330
9
100
AcDbSymbolTableRecord
100
AcDbRegAppTableRecord
  2
ACAD_DSTYLE_DIMJAG
 70
     0
  0
APPID
  5
60FC
330
9
100
AcDbSymbolTableRecord
100
AcDbRegAppTableRecord
  2
ACAD_DSTYLE_DIMBREAK
 70
     0
  0
APPID
  5
60FD
330
9
100
AcDbSymbolTableRecord
100
AcDbRegAppTableRecord
  2
ACAD_DSTYLE_DIMTALN
 70
     0
  0
APPID
  5
6169
330
9
100
AcDbSymbolTableRecord
100
AcDbRegAppTableRecord
  2
AcadAnnotative
 70
     0
  0
APPID
  5
616A
330
9
100
AcDbSymbolTableRecord
100
AcDbRegAppTableRecord
  2
AcadAnnoPO
 70
     0
  0
APPID
  5
81D4
330
9
100
AcDbSymbolTableRecord
100
AcDbRegAppTableRecord
  2
AcAecLayerStandard
 70
     0
  0
APPID
  5
81D5
330
9
100
AcDbSymbolTableRecord
100
AcDbRegAppTableRecord
  2
AcCmTransparency
 70
     0
  0
APPID
  5
8F6B
330
9
100
AcDbSymbolTableRecord
100
AcDbRegAppTableRecord
  2
ACAD_DSTYLE_DIMRADIAL_EXTENSION
 70
     0
  0
ENDTAB
  0
TABLE
  2
DIMSTYLE
  5
A
330
0
100
AcDbSymbolTable
 70
     2
100
AcDbDimStyleTable
 71
     1
340
60FE
  0
DIMSTYLE
105
D19
330
A
100
AcDbSymbolTableRecord
100
AcDbDimStyleTableRecord
  2
Standard
 70
     0
340
11
  0
DIMSTYLE
105
60FE
102
{ACAD_REACTORS
330
9BC9
330
9BBF
330
9BBE
330
9BC0
330
9BBD
330
9BBC
330
9BBB
330
9BBA
330
9BC6
330
A2AB
102
}
330
A
100
AcDbSymbolTableRecord
100
AcDbDimStyleTableRecord
  2
ISO-25_2
 70
     0
 40
2.0
 41
3.9
 42
2.1
 43
0.0
 44
0.0
 73
     0
 74
     0
 77
     1
 78
     9
140
3.5
141
2.5
143
0.03937007874016
147
0.9
171
     3
172
     1
178
     7
271
     1
272
     1
274
     3
283
     0
284
     8
340
11
342
2B
1001
ACAD_DSTYLE_DIMBREAK
1070
   391
1040
3.75
1001
ACAD_DSTYLE_DIMJAG
1070
   388
1040
1.5
1001
ACAD_DSTYLE_DIMTALN
1070
   392
1070
     0
  0
ENDTAB
  0
TABLE
  2
BLOCK_RECORD
  5
1
330
0
100
AcDbSymbolTable
 70
    14
  0
BLOCK_RECORD
  5
1F
102
{ACAD_XDICTIONARY
360
4E5B
102
}
330
1
100
AcDbSymbolTableRecord
100
AcDbBlockTableRecord
  2
*Model_Space
340
22
  0
BLOCK_RECORD
  5
23
330
1
100
AcDbSymbolTableRecord
100
AcDbBlockTableRecord
  2
*Paper_Space
340
26
  0
BLOCK_RECORD
  5
1B
330
1
100
AcDbSymbolTableRecord
100
AcDbBlockTableRecord
  2
*Paper_Space0
340
1E
  0
BLOCK_RECORD
  5
2B
330
1
100
AcDbSymbolTableRecord
100
AcDbBlockTableRecord
  2
_DotSmall
340
0
102
{BLKREFS
331
A067
331
A068
331
A070
331
A071
331
A079
331
A07A
331
A082
331
A083
331
A090
331
A091
331
A04C
331
A04D
331
A055
331
A056
331
A05E
331
A05F
331
A2BB
331
A2BC
102
}
  0
BLOCK_RECORD
  5
9BDE
330
1
100
AcDbSymbolTableRecord
100
AcDbBlockTableRecord
  2
*D2
340
0
  0
BLOCK_RECORD
  5
9BEA
330
1
100
AcDbSymbolTableRecord
100
AcDbBlockTableRecord
  2
*D3
340
0
  0
BLOCK_RECORD
  5
9BF6
330
1
100
AcDbSymbolTableRecord
100
AcDbBlockTableRecord
  2
*D4
340
0
  0
BLOCK_RECORD
  5
9C02
330
1
100
AcDbSymbolTableRecord
100
AcDbBlockTableRecord
  2
*D5
340
0
  0
BLOCK_RECORD
  5
9C0E
330
1
100
AcDbSymbolTableRecord
100
AcDbBlockTableRecord
  2
*D6
340
0
  0
BLOCK_RECORD
  5
9C1A
330
1
100
AcDbSymbolTableRecord
100
AcDbBlockTableRecord
  2
*D7
340
0
  0
BLOCK_RECORD
  5
9C26
330
1
100
AcDbSymbolTableRecord
100
AcDbBlockTableRecord
  2
*D8
340
0
  0
BLOCK_RECORD
  5
9C32
330
1
100
AcDbSymbolTableRecord
100
AcDbBlockTableRecord
  2
*D9
340
0
  0
BLOCK_RECORD
  5
9C3A
330
1
100
AcDbSymbolTableRecord
100
AcDbBlockTableRecord
  2
*D10
340
0
  0
BLOCK_RECORD
  5
A2AC
330
1
100
AcDbSymbolTableRecord
100
AcDbBlockTableRecord
  2
*D13
340
0
  0
ENDTAB
  0
ENDSEC
  0
SECTION
  2
BLOCKS
  0
BLOCK
  5
20
330
1F
100
AcDbEntity
  8
0
100
AcDbBlockBegin
  2
*Model_Space
 70
     0
 10
0.0
 20
0.0
 30
0.0
  3
*Model_Space
  1

  0
ENDBLK
  5
21
330
1F
100
AcDbEntity
  8
0
100
AcDbBlockEnd
  0
BLOCK
  5
24
330
23
100
AcDbEntity
 67
     1
  8
0
100
AcDbBlockBegin
  2
*Paper_Space
 70
     0
 10
0.0
 20
0.0
 30
0.0
  3
*Paper_Space
  1

  0
ENDBLK
  5
25
330
23
100
AcDbEntity
 67
     1
  8
0
100
AcDbBlockEnd
  0
BLOCK
  5
1C
330
1B
100
AcDbEntity
 67
     1
  8
0
100
AcDbBlockBegin
  2
*Paper_Space0
 70
     0
 10
0.0
 20
0.0
 30
0.0
  3
*Paper_Space0
  1

  0
VIEWPORT
  5
2835
102
{ACAD_XDICTIONARY
360
A311
102
}
330
1B
100
AcDbEntity
 67
     1
  8
0
100
AcDbViewport
 10
145.0671538148211
 20
105.2792470596998
 30
0.0
 40
255.4768232678978
 41
146.5118883694624
 68
     0
 69
     0
 12
145.0671538148211
 22
105.2792470596998
 13
0.0
 23
0.0
 14
10.0
 24
10.0
 15
10.0
 25
10.0
 16
0.0
 26
0.0
 36
1.0
 17
0.0
 27
0.0
 37
0.0
 42
50.0
 43
0.0
 44
0.0
 45
146.5118883694624
 50
0.0
 51
0.0
 72
 20000
 90
    32800
  1

281
     0
 71
     1
 74
     0
110
0.0
120
0.0
130
0.0
111
1.0
121
0.0
131
0.0
112
0.0
122
1.0
132
0.0
 79
     0
146
0.0
  0
VIEWPORT
  5
2837
102
{ACAD_XDICTIONARY
360
A313
102
}
330
1B
100
AcDbEntity
 67
     1
  8
実線  太
100
AcDbViewport
 10
144.2296578884125
 20
100.7533361911773
 30
0.0
 40
230.7674526214599
 41
161.2053379058837
 68
     0
 69
     0
 12
144.2273710473552
 22
92.63739313986013
 13
0.0
 23
0.0
 14
10.0
 24
10.0
 15
10.0
 25
10.0
 16
0.0
 26
0.0
 36
1.0
 17
0.0
 27
0.0
 37
0.0
 42
50.0
 43
0.0
 44
0.0
 45
237.262888478563
 50
0.0
 51
0.0
 72
 20000
 90
    32768
  1

281
     0
 71
     1
 74
     0
110
0.0
120
0.0
130
0.0
111
1.0
121
0.0
131
0.0
112
0.0
122
1.0
132
0.0
 79
     0
146
0.0
  0
ENDBLK
  5
1D
330
1B
100
AcDbEntity
 67
     1
  8
0
100
AcDbBlockEnd
  0
BLOCK
  5
2D
330
2B
100
AcDbEntity
  8
0
370
    18
100
AcDbBlockBegin
  2
_DotSmall
 70
     0
 10
0.0
 20
0.0
 30
0.0
  3
_DotSmall
  1

  0
LWPOLYLINE
  5
2C
330
2B
100
AcDbEntity
  8
0
 62
     0
370
    18
100
AcDbPolyline
 90
        2
 70
     1
 43
0.5
 10
-0.0625
 20
0.0
 42
1.0
 10
0.0625
 20
0.0
 42
1.0
  0
ENDBLK
  5
2E
330
2B
100
AcDbEntity
  8
0
370
    18
100
AcDbBlockEnd
  0
BLOCK
  5
9BDF
330
9BDE
100
AcDbEntity
  8
0
100
AcDbBlockBegin
  2
*D2
 70
     1
 10
0.0
 20
0.0
 30
0.0
  3
*D2
  1

  0
LINE
  5
A049
330
9BDE
100
AcDbEntity
  8
寸法線
 62
     0
370
    -2
100
AcDbLine
 10
80.20325244008096
 20
482.8039637398016
 30
0.0
 11
80.20325244008096
 21
520.6039637398016
 31
0.0
  0
LINE
  5
A04A
330
9BDE
100
AcDbEntity
  8
寸法線
 62
     0
370
    -2
100
AcDbLine
 10
344.2032524400814
 20
482.8039637398016
 30
0.0
 11
344.2032524400814
 21
520.6039637398016
 31
0.0
  0
LINE
  5
A04B
330
9BDE
100
AcDbEntity
  8
寸法線
 62
     0
370
    -2
100
AcDbLine
 10
80.20325244008096
 20
520.6039637398016
 30
0.0
 11
344.2032524400814
 21
520.6039637398016
 31
0.0
  0
INSERT
  5
A04C
330
9BDE
100
AcDbEntity
  8
寸法線
 62
     0
370
    -2
100
AcDbBlockReference
  2
_DotSmall
 10
80.20325244008096
 20
520.6039637398016
 30
0.0
 41
7.799999999999998
 42
7.799999999999998
 43
7.799999999999998
 50
180.0
  0
INSERT
  5
A04D
330
9BDE
100
AcDbEntity
  8
寸法線
 62
     0
370
    -2
100
AcDbBlockReference
  2
_DotSmall
 10
344.2032524400814
 20
520.6039637398016
 30
0.0
 41
7.799999999999998
 42
7.799999999999998
 43
7.799999999999998
  0
MTEXT
  5
A04E
330
9BDE
100
AcDbEntity
  8
寸法線
 62
     7
100
AcDbMText
 10
212.2032524400812
 20
525.9039637398016
 30
0.0
 40
7.0
 41
0.0
 71
     5
 72
     1
  1
264
 73
     1
 44
1.0
1001
ACAD
1000
MTEXTBEGIN
1070
    73
1070
     1
1070
    44
1040
1.0
1070
    74
1070
     0
1000
MTEXTEND
  0
POINT
  5
A04F
330
9BDE
100
AcDbEntity
  8
Defpoints
 62
     0
100
AcDbPoint
 10
80.20325244008096
 20
478.6039637398016
 30
0.0
  0
POINT
  5
A050
330
9BDE
100
AcDbEntity
  8
Defpoints
 62
     0
100
AcDbPoint
 10
344.2032524400814
 20
478.6039637398016
 30
0.0
  0
POINT
  5
A051
330
9BDE
100
AcDbEntity
  8
Defpoints
 62
     0
100
AcDbPoint
 10
344.2032524400814
 20
520.6039637398016
 30
0.0
  0
ENDBLK
  5
9BE0
330
9BDE
100
AcDbEntity
  8
0
100
AcDbBlockEnd
  0
BLOCK
  5
9BEB
330
9BEA
100
AcDbEntity
  8
0
100
AcDbBlockBegin
  2
*D3
 70
     1
 10
0.0
 20
0.0
 30
0.0
  3
*D3
  1

  0
LINE
  5
A052
330
9BEA
100
AcDbEntity
  8
寸法線
 62
     0
370
    -2
100
AcDbLine
 10
127.5032524400812
 20
98.06168308979437
 30
0.0
 11
13.70325244008116
 21
98.06168308979437
 31
0.0
  0
LINE
  5
A053
330
9BEA
100
AcDbEntity
  8
寸法線
 62
     0
370
    -2
100
AcDbLine
 10
76.00325244008121
 20
278.0616830897943
 30
0.0
 11
13.7032524400812
 21
278.0616830897943
 31
0.0
  0
LINE
  5
A054
330
9BEA
100
AcDbEntity
  8
寸法線
 62
     0
370
    -2
100
AcDbLine
 10
13.70325244008116
 20
98.06168308979437
 30
0.0
 11
13.7032524400812
 21
278.0616830897943
 31
0.0
  0
INSERT
  5
A055
330
9BEA
100
AcDbEntity
  8
寸法線
 62
     0
370
    -2
100
AcDbBlockReference
  2
_DotSmall
 10
13.70325244008116
 20
98.06168308979437
 30
0.0
 41
7.799999999999998
 42
7.799999999999998
 43
7.799999999999998
 50
270.0
  0
INSERT
  5
A056
330
9BEA
100
AcDbEntity
  8
寸法線
 62
     0
370
    -2
100
AcDbBlockReference
  2
_DotSmall
 10
13.7032524400812
 20
278.0616830897943
 30
0.0
 41
7.799999999999998
 42
7.799999999999998
 43
7.799999999999998
 50
90.0
  0
MTEXT
  5
A057
330
9BEA
100
AcDbEntity
  8
寸法線
 62
     7
100
AcDbMText
 10
8.40325244008115
 20
188.0616830897943
 30
0.0
 40
7.0
 41
0.0
 71
     5
 72
     1
  1
180
 11
0.0000000000000001
 21
1.0
 31
0.0
 73
     1
 44
1.0
1001
ACAD
1000
MTEXTBEGIN
1070
    73
1070
     1
1070
    44
1040
1.0
1070
    74
1070
     0
1000
MTEXTEND
  0
POINT
  5
A058
330
9BEA
100
AcDbEntity
  8
Defpoints
 62
     0
100
AcDbPoint
 10
131.7032524400812
 20
98.06168308979437
 30
0.0
  0
POINT
  5
A059
330
9BEA
100
AcDbEntity
  8
Defpoints
 62
     0
100
AcDbPoint
 10
80.2032524400812
 20
278.0616830897943
 30
0.0
  0
POINT
  5
A05A
330
9BEA
100
AcDbEntity
  8
Defpoints
 62
     0
100
AcDbPoint
 10
13.7032524400812
 20
278.0616830897943
 30
0.0
  0
ENDBLK
  5
9BEC
330
9BEA
100
AcDbEntity
  8
0
100
AcDbBlockEnd
  0
BLOCK
  5
9BF7
330
9BF6
100
AcDbEntity
  8
0
100
AcDbBlockBegin
  2
*D4
 70
     1
 10
0.0
 20
0.0
 30
0.0
  3
*D4
  1

  0
LINE
  5
A05B
330
9BF6
100
AcDbEntity
  8
寸法線
 62
     0
370
    -2
100
AcDbLine
 10
55.50325244008121
 20
471.6039637398016
 30
0.0
 11
13.70325244008123
 21
471.6039637398016
 31
0.0
  0
LINE
  5
A05C
330
9BF6
100
AcDbEntity
  8
寸法線
 62
     0
370
    -2
100
AcDbLine
 10
55.50325244008121
 20
342.6039637398016
 30
0.0
 11
13.7032524400812
 21
342.6039637398016
 31
0.0
  0
LINE
  5
A05D
330
9BF6
100
AcDbEntity
  8
寸法線
 62
     0
370
    -2
100
AcDbLine
 10
13.70325244008123
 20
471.6039637398016
 30
0.0
 11
13.7032524400812
 21
342.6039637398016
 31
0.0
  0
INSERT
  5
A05E
330
9BF6
100
AcDbEntity
  8
寸法線
 62
     0
370
    -2
100
AcDbBlockReference
  2
_DotSmall
 10
13.70325244008123
 20
471.6039637398016
 30
0.0
 41
7.799999999999998
 42
7.799999999999998
 43
7.799999999999998
 50
90.0
  0
INSERT
  5
A05F
330
9BF6
100
AcDbEntity
  8
寸法線
 62
     0
370
    -2
100
AcDbBlockReference
  2
_DotSmall
 10
13.7032524400812
 20
342.6039637398016
 30
0.0
 41
7.799999999999998
 42
7.799999999999998
 43
7.799999999999998
 50
270.0
  0
MTEXT
  5
A060
330
9BF6
100
AcDbEntity
  8
寸法線
 62
     7
100
AcDbMText
 10
8.40325244008115
 20
407.1039637398016
 30
0.0
 40
7.0
 41
0.0
 71
     5
 72
     1
  1
129
 11
0.0000000000000001
 21
1.0
 31
0.0
 73
     1
 44
1.0
1001
ACAD
1000
MTEXTBEGIN
1070
    73
1070
     1
1070
    44
1040
1.0
1070
    74
1070
     0
1000
MTEXTEND
  0
POINT
  5
A061
330
9BF6
100
AcDbEntity
  8
Defpoints
 62
     0
100
AcDbPoint
 10
59.70325244008121
 20
471.6039637398016
 30
0.0
  0
POINT
  5
A062
330
9BF6
100
AcDbEntity
  8
Defpoints
 62
     0
100
AcDbPoint
 10
59.70325244008121
 20
342.6039637398016
 30
0.0
  0
POINT
  5
A063
330
9BF6
100
AcDbEntity
  8
Defpoints
 62
     0
100
AcDbPoint
 10
13.7032524400812
 20
342.6039637398016
 30
0.0
  0
ENDBLK
  5
9BF8
330
9BF6
100
AcDbEntity
  8
0
100
AcDbBlockEnd
  0
BLOCK
  5
9C03
330
9C02
100
AcDbEntity
  8
0
100
AcDbBlockBegin
  2
*D5
 70
     1
 10
0.0
 20
0.0
 30
0.0
  3
*D5
  1

  0
LINE
  5
A064
330
9C02
100
AcDbEntity
  8
寸法線
 62
     0
370
    -2
100
AcDbLine
 10
49.70325244008121
 20
348.4039637398017
 30
0.0
 11
49.70325244008121
 21
306.6039637398016
 31
0.0
  0
LINE
  5
A065
330
9C02
100
AcDbEntity
  8
寸法線
 62
     0
370
    -2
100
AcDbLine
 10
374.7032524400812
 20
348.4039637398017
 30
0.0
 11
374.7032524400812
 21
306.6039637398016
 31
0.0
  0
LINE
  5
A066
330
9C02
100
AcDbEntity
  8
寸法線
 62
     0
370
    -2
100
AcDbLine
 10
49.70325244008121
 20
306.6039637398016
 30
0.0
 11
374.7032524400812
 21
306.6039637398016
 31
0.0
  0
INSERT
  5
A067
330
9C02
100
AcDbEntity
  8
寸法線
 62
     0
370
    -2
100
AcDbBlockReference
  2
_DotSmall
 10
49.70325244008121
 20
306.6039637398016
 30
0.0
 41
7.799999999999998
 42
7.799999999999998
 43
7.799999999999998
 50
180.0
  0
INSERT
  5
A068
330
9C02
100
AcDbEntity
  8
寸法線
 62
     0
370
    -2
100
AcDbBlockReference
  2
_DotSmall
 10
374.7032524400812
 20
306.6039637398016
 30
0.0
 41
7.799999999999998
 42
7.799999999999998
 43
7.799999999999998
  0
MTEXT
  5
A069
330
9C02
100
AcDbEntity
  8
寸法線
 62
     7
100
AcDbMText
 10
212.2032524400812
 20
311.9039637398017
 30
0.0
 40
7.0
 41
0.0
 71
     5
 72
     1
  1
325
 73
     1
 44
1.0
1001
ACAD
1000
MTEXTBEGIN
1070
    73
1070
     1
1070
    44
1040
1.0
1070
    74
1070
     0
1000
MTEXTEND
  0
POINT
  5
A06A
330
9C02
100
AcDbEntity
  8
Defpoints
 62
     0
100
AcDbPoint
 10
49.70325244008121
 20
352.6039637398016
 30
0.0
  0
POINT
  5
A06B
330
9C02
100
AcDbEntity
  8
Defpoints
 62
     0
100
AcDbPoint
 10
374.7032524400812
 20
352.6039637398016
 30
0.0
  0
POINT
  5
A06C
330
9C02
100
AcDbEntity
  8
Defpoints
 62
     0
100
AcDbPoint
 10
374.7032524400812
 20
306.6039637398016
 30
0.0
  0
ENDBLK
  5
9C04
330
9C02
100
AcDbEntity
  8
0
100
AcDbBlockEnd
  0
BLOCK
  5
9C0F
330
9C0E
100
AcDbEntity
  8
0
100
AcDbBlockBegin
  2
*D6
 70
     1
 10
0.0
 20
0.0
 30
0.0
  3
*D6
  1

  0
LINE
  5
A06D
330
9C0E
100
AcDbEntity
  8
寸法線
 62
     0
370
    -2
100
AcDbLine
 10
595.6417487430822
 20
267.2616830897943
 30
0.0
 11
595.6417487430822
 21
314.0616830897943
 31
0.0
  0
LINE
  5
A06E
330
9C0E
100
AcDbEntity
  8
寸法線
 62
     0
370
    -2
100
AcDbLine
 10
625.6417487430823
 20
267.2616830897943
 30
0.0
 11
625.6417487430823
 21
314.0616830897943
 31
0.0
  0
LINE
  5
A06F
330
9C0E
100
AcDbEntity
  8
寸法線
 62
     0
370
    -2
100
AcDbLine
 10
595.6417487430822
 20
314.0616830897943
 30
0.0
 11
625.6417487430823
 21
314.0616830897943
 31
0.0
  0
INSERT
  5
A070
330
9C0E
100
AcDbEntity
  8
寸法線
 62
     0
370
    -2
100
AcDbBlockReference
  2
_DotSmall
 10
595.6417487430822
 20
314.0616830897943
 30
0.0
 41
7.799999999999998
 42
7.799999999999998
 43
7.799999999999998
 50
180.0
  0
INSERT
  5
A071
330
9C0E
100
AcDbEntity
  8
寸法線
 62
     0
370
    -2
100
AcDbBlockReference
  2
_DotSmall
 10
625.6417487430823
 20
314.0616830897943
 30
0.0
 41
7.799999999999998
 42
7.799999999999998
 43
7.799999999999998
  0
MTEXT
  5
A072
330
9C0E
100
AcDbEntity
  8
寸法線
 62
     7
100
AcDbMText
 10
610.6417487430823
 20
319.3616830897943
 30
0.0
 40
7.0
 41
0.0
 71
     5
 72
     1
  1
30
 73
     1
 44
1.0
1001
ACAD
1000
MTEXTBEGIN
1070
    73
1070
     1
1070
    44
1040
1.0
1070
    74
1070
     0
1000
MTEXTEND
  0
POINT
  5
A073
330
9C0E
100
AcDbEntity
  8
Defpoints
 62
     0
100
AcDbPoint
 10
595.6417487430822
 20
263.0616830897943
 30
0.0
  0
POINT
  5
A074
330
9C0E
100
AcDbEntity
  8
Defpoints
 62
     0
100
AcDbPoint
 10
625.6417487430823
 20
263.0616830897943
 30
0.0
  0
POINT
  5
A075
330
9C0E
100
AcDbEntity
  8
Defpoints
 62
     0
100
AcDbPoint
 10
625.6417487430823
 20
314.0616830897943
 30
0.0
  0
ENDBLK
  5
9C10
330
9C0E
100
AcDbEntity
  8
0
100
AcDbBlockEnd
  0
BLOCK
  5
9C1B
330
9C1A
100
AcDbEntity
  8
0
100
AcDbBlockBegin
  2
*D7
 70
     1
 10
0.0
 20
0.0
 30
0.0
  3
*D7
  1

  0
LINE
  5
A076
330
9C1A
100
AcDbEntity
  8
寸法線
 62
     0
370
    -2
100
AcDbLine
 10
508.6417487430821
 20
121.8616830897943
 30
0.0
 11
508.6417487430821
 21
78.06168308979434
 31
0.0
  0
LINE
  5
A077
330
9C1A
100
AcDbEntity
  8
寸法線
 62
     0
370
    -2
100
AcDbLine
 10
654.6417487430822
 20
124.8616830897943
 30
0.0
 11
654.6417487430822
 21
78.06168308979434
 31
0.0
  0
LINE
  5
A078
330
9C1A
100
AcDbEntity
  8
寸法線
 62
     0
370
    -2
100
AcDbLine
 10
508.6417487430821
 20
78.06168308979434
 30
0.0
 11
654.6417487430822
 21
78.06168308979434
 31
0.0
  0
INSERT
  5
A079
330
9C1A
100
AcDbEntity
  8
寸法線
 62
     0
370
    -2
100
AcDbBlockReference
  2
_DotSmall
 10
508.6417487430821
 20
78.06168308979434
 30
0.0
 41
7.799999999999998
 42
7.799999999999998
 43
7.799999999999998
 50
180.0
  0
INSERT
  5
A07A
330
9C1A
100
AcDbEntity
  8
寸法線
 62
     0
370
    -2
100
AcDbBlockReference
  2
_DotSmall
 10
654.6417487430822
 20
78.06168308979434
 30
0.0
 41
7.799999999999998
 42
7.799999999999998
 43
7.799999999999998
  0
MTEXT
  5
A07B
330
9C1A
100
AcDbEntity
  8
寸法線
 62
     7
100
AcDbMText
 10
581.6417487430823
 20
83.36168308979434
 30
0.0
 40
7.0
 41
0.0
 71
     5
 72
     1
  1
146
 73
     1
 44
1.0
1001
ACAD
1000
MTEXTBEGIN
1070
    73
1070
     1
1070
    44
1040
1.0
1070
    74
1070
     0
1000
MTEXTEND
  0
POINT
  5
A07C
330
9C1A
100
AcDbEntity
  8
Defpoints
 62
     0
100
AcDbPoint
 10
508.6417487430821
 20
126.0616830897943
 30
0.0
  0
POINT
  5
A07D
330
9C1A
100
AcDbEntity
  8
Defpoints
 62
     0
100
AcDbPoint
 10
654.6417487430822
 20
129.0616830897943
 30
0.0
  0
POINT
  5
A07E
330
9C1A
100
AcDbEntity
  8
Defpoints
 62
     0
100
AcDbPoint
 10
654.6417487430822
 20
78.06168308979434
 30
0.0
  0
ENDBLK
  5
9C1C
330
9C1A
100
AcDbEntity
  8
0
100
AcDbBlockEnd
  0
BLOCK
  5
9C27
330
9C26
100
AcDbEntity
  8
0
100
AcDbBlockBegin
  2
*D8
 70
     1
 10
0.0
 20
0.0
 30
0.0
  3
*D8
  1

  0
LINE
  5
A07F
330
9C26
100
AcDbEntity
  8
寸法線
 62
     0
370
    -2
100
AcDbLine
 10
128.7032524400812
 20
96.86168308979436
 30
0.0
 11
128.7032524400812
 21
78.06168308979434
 31
0.0
  0
LINE
  5
A080
330
9C26
100
AcDbEntity
  8
寸法線
 62
     0
370
    -2
100
AcDbLine
 10
295.7032524400812
 20
96.86168308979436
 30
0.0
 11
295.7032524400812
 21
78.06168308979434
 31
0.0
  0
LINE
  5
A081
330
9C26
100
AcDbEntity
  8
寸法線
 62
     0
370
    -2
100
AcDbLine
 10
128.7032524400812
 20
78.06168308979434
 30
0.0
 11
295.7032524400812
 21
78.06168308979434
 31
0.0
  0
INSERT
  5
A082
330
9C26
100
AcDbEntity
  8
寸法線
 62
     0
370
    -2
100
AcDbBlockReference
  2
_DotSmall
 10
128.7032524400812
 20
78.06168308979434
 30
0.0
 41
7.799999999999998
 42
7.799999999999998
 43
7.799999999999998
 50
180.0
  0
INSERT
  5
A083
330
9C26
100
AcDbEntity
  8
寸法線
 62
     0
370
    -2
100
AcDbBlockReference
  2
_DotSmall
 10
295.7032524400812
 20
78.06168308979434
 30
0.0
 41
7.799999999999998
 42
7.799999999999998
 43
7.799999999999998
  0
MTEXT
  5
A084
330
9C26
100
AcDbEntity
  8
寸法線
 62
     7
100
AcDbMText
 10
212.2032524400812
 20
83.36168308979434
 30
0.0
 40
7.0
 41
0.0
 71
     5
 72
     1
  1
167
 73
     1
 44
1.0
1001
ACAD
1000
MTEXTBEGIN
1070
    73
1070
     1
1070
    44
1040
1.0
1070
    74
1070
     0
1000
MTEXTEND
  0
POINT
  5
A085
330
9C26
100
AcDbEntity
  8
Defpoints
 62
     0
100
AcDbPoint
 10
128.7032524400812
 20
101.0616830897943
 30
0.0
  0
POINT
  5
A086
330
9C26
100
AcDbEntity
  8
Defpoints
 62
     0
100
AcDbPoint
 10
295.7032524400812
 20
101.0616830897943
 30
0.0
  0
POINT
  5
A087
330
9C26
100
AcDbEntity
  8
Defpoints
 62
     0
100
AcDbPoint
 10
295.7032524400812
 20
78.06168308979434
 30
0.0
  0
ENDBLK
  5
9C28
330
9C26
100
AcDbEntity
  8
0
100
AcDbBlockEnd
  0
BLOCK
  5
9C33
330
9C32
100
AcDbEntity
  8
0
100
AcDbBlockBegin
  2
*D9
 70
     1
 10
0.0
 20
0.0
 30
0.0
  3
*D9
  1

  0
LINE
  5
A088
330
9C32
100
AcDbEntity
  8
寸法線
 62
     0
370
    -2
100
AcDbLine
 10
533.152849859671
 20
189.0717071035363
 30
0.0
 11
590.3711583679823
 21
123.4972756762692
 31
0.0
  0
MTEXT
  5
A089
330
9C32
100
AcDbEntity
  8
寸法線
 62
     7
100
AcDbMText
 10
543.3242607210718
 20
185.4761095452172
 30
0.0
 40
7.0
 41
0.0
 71
     5
 72
     1
  1
R55
 11
0.6574671515689098
 21
-0.753483207913663
 31
0.0
 73
     1
 44
1.0
1001
ACAD
1000
MTEXTBEGIN
1070
    73
1070
     1
1070
    44
1040
1.0
1070
    74
1070
     0
1000
MTEXTEND
  0
SOLID
  5
A08A
330
9C32
100
AcDbEntity
  8
寸法線
 62
     0
100
AcDbTrace
 10
591.3506865382702
 20
124.3519829733087
 30
0.0
 11
589.3916301976948
 21
122.6425683792296
 31
0.0
 12
595.49940215022
 22
117.6201066545426
 32
0.0
 13
595.49940215022
 23
117.6201066545426
 33
0.0
  0
POINT
  5
A08B
330
9C32
100
AcDbEntity
  8
Defpoints
 62
     0
100
AcDbPoint
 10
595.49940215022
 20
117.6201066545426
 30
0.0
  0
POINT
  5
A08C
330
9C32
100
AcDbEntity
  8
Defpoints
 62
     0
100
AcDbPoint
 10
559.3387088139296
 20
159.0616830897944
 30
0.0
  0
ENDBLK
  5
9C34
330
9C32
100
AcDbEntity
  8
0
100
AcDbBlockEnd
  0
BLOCK
  5
9C3B
330
9C3A
100
AcDbEntity
  8
0
100
AcDbBlockBegin
  2
*D10
 70
     1
 10
0.0
 20
0.0
 30
0.0
  3
*D10
  1

  0
LINE
  5
A08D
330
9C3A
100
AcDbEntity
  8
寸法線
 62
     0
370
    -2
100
AcDbLine
 10
555.1387088139294
 20
98.06168308979437
 30
0.0
 11
466.6417487430821
 21
98.06168308979437
 31
0.0
  0
LINE
  5
A08E
330
9C3A
100
AcDbEntity
  8
寸法線
 62
     0
370
    -2
100
AcDbLine
 10
498.4417487430822
 20
154.0616830897944
 30
0.0
 11
466.6417487430821
 21
154.0616830897944
 31
0.0
  0
LINE
  5
A08F
330
9C3A
100
AcDbEntity
  8
寸法線
 62
     0
370
    -2
100
AcDbLine
 10
466.6417487430821
 20
98.06168308979437
 30
0.0
 11
466.6417487430821
 21
154.0616830897944
 31
0.0
  0
INSERT
  5
A090
330
9C3A
100
AcDbEntity
  8
寸法線
 62
     0
370
    -2
100
AcDbBlockReference
  2
_DotSmall
 10
466.6417487430821
 20
98.06168308979437
 30
0.0
 41
7.799999999999998
 42
7.799999999999998
 43
7.799999999999998
 50
270.0
  0
INSERT
  5
A091
330
9C3A
100
AcDbEntity
  8
寸法線
 62
     0
370
    -2
100
AcDbBlockReference
  2
_DotSmall
 10
466.6417487430821
 20
154.0616830897944
 30
0.0
 41
7.799999999999998
 42
7.799999999999998
 43
7.799999999999998
 50
90.0
  0
MTEXT
  5
A092
330
9C3A
100
AcDbEntity
  8
寸法線
 62
     7
100
AcDbMText
 10
461.3417487430822
 20
126.0616830897944
 30
0.0
 40
7.0
 41
0.0
 71
     5
 72
     1
  1
56
 11
0.0000000000000001
 21
1.0
 31
0.0
 73
     1
 44
1.0
1001
ACAD
1000
MTEXTBEGIN
1070
    73
1070
     1
1070
    44
1040
1.0
1070
    74
1070
     0
1000
MTEXTEND
  0
POINT
  5
A093
330
9C3A
100
AcDbEntity
  8
Defpoints
 62
     0
100
AcDbPoint
 10
559.3387088139293
 20
98.06168308979437
 30
0.0
  0
POINT
  5
A094
330
9C3A
100
AcDbEntity
  8
Defpoints
 62
     0
100
AcDbPoint
 10
502.6417487430823
 20
154.0616830897944
 30
0.0
  0
POINT
  5
A095
330
9C3A
100
AcDbEntity
  8
Defpoints
 62
     0
100
AcDbPoint
 10
466.6417487430821
 20
154.0616830897944
 30
0.0
  0
ENDBLK
  5
9C3C
330
9C3A
100
AcDbEntity
  8
0
100
AcDbBlockEnd
  0
BLOCK
  5
A2AD
330
A2AC
100
AcDbEntity
  8
0
100
AcDbBlockBegin
  2
*D13
 70
     1
 10
0.0
 20
0.0
 30
0.0
  3
*D13
  1

  0
LINE
  5
A2B8
330
A2AC
100
AcDbEntity
  8
DIM
 62
     0
370
    -2
100
AcDbLine
 10
76.00325244008097
 20
494.6039637398016
 30
0.0
 11
-6.29674755991876
 21
494.6039637398016
 31
0.0
  0
LINE
  5
A2B9
330
A2AC
100
AcDbEntity
  8
DIM
 62
     0
370
    -2
100
AcDbLine
 10
55.5032524400812
 20
342.6039637398016
 30
0.0
 11
-6.2967475599188
 21
342.6039637398016
 31
0.0
  0
LINE
  5
A2BA
330
A2AC
100
AcDbEntity
  8
DIM
 62
     0
370
    -2
100
AcDbLine
 10
-6.296747559918765
 20
494.6039637398016
 30
0.0
 11
-6.296747559918799
 21
342.6039637398016
 31
0.0
  0
INSERT
  5
A2BB
330
A2AC
100
AcDbEntity
  8
DIM
 62
     0
370
    -2
100
AcDbBlockReference
  2
_DotSmall
 10
-6.296747559918765
 20
494.6039637398016
 30
0.0
 41
7.799999999999999
 42
7.799999999999999
 43
7.799999999999999
 50
90.0
  0
INSERT
  5
A2BC
330
A2AC
100
AcDbEntity
  8
DIM
 62
     0
370
    -2
100
AcDbBlockReference
  2
_DotSmall
 10
-6.296747559918799
 20
342.6039637398016
 30
0.0
 41
7.799999999999999
 42
7.799999999999999
 43
7.799999999999999
 50
270.0
  0
MTEXT
  5
A2BD
330
A2AC
100
AcDbEntity
  8
DIM
 62
     7
100
AcDbMText
 10
-11.59674755991885
 20
418.6039637398016
 30
0.0
 40
7.0
 41
0.0
 71
     5
 72
     1
  1
152
 11
0.0000000000000001
 21
1.0
 31
0.0
 73
     1
 44
1.0
1001
ACAD
1000
MTEXTBEGIN
1070
    73
1070
     1
1070
    44
1040
1.0
1070
    74
1070
     0
1000
MTEXTEND
  0
POINT
  5
A2BE
330
A2AC
100
AcDbEntity
  8
Defpoints
 62
     0
100
AcDbPoint
 10
80.20325244008096
 20
494.6039637398016
 30
0.0
  0
POINT
  5
A2BF
330
A2AC
100
AcDbEntity
  8
Defpoints
 62
     0
100
AcDbPoint
 10
59.7032524400812
 20
342.6039637398016
 30
0.0
  0
POINT
  5
A2C0
330
A2AC
100
AcDbEntity
  8
Defpoints
 62
     0
100
AcDbPoint
 10
-6.296747559918799
 20
342.6039637398016
 30
0.0
  0
ENDBLK
  5
A2AE
330
A2AC
100
AcDbEntity
  8
0
100
AcDbBlockEnd
  0
ENDSEC
  0
SECTION
  2
ENTITIES
  0
MTEXT
  5
4CF3
330
1F
100
AcDbEntity
  8
図面枠
 62
     0
100
AcDbMText
 10
0.0
 20
4.525568181818181
 30
0.0
 40
9.0
 41
0.0
 71
     4
 72
     5
  1
Art.No. 521.19.338
 73
     1
 44
1.0
1001
ACAD
1000
MTEXTBEGIN
1070
    73
1070
     1
1070
    44
1040
1.0
1070
    74
1070
     0
1000
MTEXTEND
  0
MTEXT
  5
4CF4
102
{ACAD_XDICTIONARY
360
6CF2
102
}
330
1F
100
AcDbEntity
  8
図面枠
 62
     0
100
AcDbMText
 10
0.0
 20
27.42944391999495
 30
0.0
 40
9.0
 41
0.0
 71
     4
 72
     5
  1
ﾚｰﾘﾝｸﾞｼｽﾃﾑ　LINERO　ﾍﾟｰﾊﾟｰﾎﾙﾀﾞｰ
 73
     1
 44
1.0
1001
AcadAnnotative
1000
AnnotativeData
1002
{
1070
     1
1070
     0
1002
}
1001
ACAD
1000
MTEXTBEGIN
1070
    73
1070
     1
1070
    44
1040
1.0
1070
    74
1070
     0
1000
MTEXTEND
  0
LINE
  5
9B1A
330
1F
100
AcDbEntity
  8
実線  太
100
AcDbLine
 10
49.70325244008121
 20
461.6039637398016
 30
0.0
 11
49.70325244008121
 21
352.6039637398016
 31
0.0
  0
LINE
  5
9B1B
330
1F
100
AcDbEntity
  8
実線  太
100
AcDbLine
 10
59.70325244008121
 20
342.6039637398016
 30
0.0
 11
364.7032524400812
 21
342.6039637398016
 31
0.0
  0
LINE
  5
9B1C
330
1F
100
AcDbEntity
  8
実線  太
100
AcDbLine
 10
59.70325244008121
 20
467.6039637398016
 30
0.0
 11
77.2032524400812
 21
467.6039637398016
 31
0.0
  0
LINE
  5
9B1D
330
1F
100
AcDbEntity
  8
実線  太
100
AcDbLine
 10
59.70325244008121
 20
346.6039637398016
 30
0.0
 11
364.7032524400812
 21
346.6039637398016
 31
0.0
  0
LINE
  5
9B1E
330
1F
100
AcDbEntity
  8
実線  太
100
AcDbLine
 10
53.70325244008121
 20
461.6039637398016
 30
0.0
 11
53.70325244008121
 21
352.6039637398016
 31
0.0
  0
LINE
  5
9B1F
330
1F
100
AcDbEntity
  8
実線  太
100
AcDbLine
 10
83.2032524400812
 20
438.6039637398016
 30
0.0
 11
83.2032524400812
 21
462.6039637398016
 31
0.0
  0
ARC
  5
9B20
330
1F
100
AcDbEntity
  8
実線  太
100
AcDbCircle
 10
80.2032524400812
 20
438.6039637398016
 30
0.0
 40
3.0
100
AcDbArc
 50
180.0
 51
0.0
  0
ARC
  5
9B21
330
1F
100
AcDbEntity
  8
実線  太
100
AcDbCircle
 10
80.2032524400812
 20
462.6039637398016
 30
0.0
 40
3.0
100
AcDbArc
 50
0.0
 51
180.0
  0
ARC
  5
9B22
330
1F
100
AcDbEntity
  8
実線  太
100
AcDbCircle
 10
80.2032524400812
 20
462.6039637398016
 30
0.0
 40
4.0
100
AcDbArc
 50
318.590377890729
 51
221.4096221092707
  0
ARC
  5
9B23
330
1F
100
AcDbEntity
  8
実線  太
100
AcDbCircle
 10
80.2032524400812
 20
474.6039637398016
 30
0.0
 40
3.0
100
AcDbArc
 50
0.0
 51
180.0
  0
LINE
  5
9B24
330
1F
100
AcDbEntity
  8
実線  太
100
AcDbLine
 10
76.70325244008097
 20
478.6039637398016
 30
0.0
 11
83.70325244008098
 21
478.6039637398016
 31
0.0
  0
LINE
  5
9B25
330
1F
100
AcDbEntity
  8
破線
 48
0.1
100
AcDbLine
 10
83.20325244008097
 20
492.1039637398016
 30
0.0
 11
77.20325244008098
 21
492.1039637398016
 31
0.0
  0
ARC
  5
9B26
330
1F
100
AcDbEntity
  8
実線  太
100
AcDbCircle
 10
80.20325244008096
 20
488.6039637398016
 30
0.0
 40
6.0
100
AcDbArc
 50
0.0
 51
180.0
  0
LINE
  5
9B27
330
1F
100
AcDbEntity
  8
実線  細
100
AcDbLine
 10
86.20325244008098
 20
488.6039637398016
 30
0.0
 11
74.20325244008097
 21
488.6039637398016
 31
0.0
  0
LINE
  5
9B28
330
1F
100
AcDbEntity
  8
実線  太
100
AcDbLine
 10
76.70325244008097
 20
478.6039637398016
 30
0.0
 11
74.20325244008097
 21
488.6039637398016
 31
0.0
  0
LINE
  5
9B29
330
1F
100
AcDbEntity
  8
破線
 48
0.1
100
AcDbLine
 10
77.20325244008098
 20
478.6039637398016
 30
0.0
 11
77.20325244008098
 21
492.1039637398016
 31
0.0
  0
LINE
  5
9B2A
330
1F
100
AcDbEntity
  8
破線
 48
0.1
100
AcDbLine
 10
83.20325244008097
 20
478.6039637398016
 30
0.0
 11
83.20325244008097
 21
492.1039637398016
 31
0.0
  0
LINE
  5
9B2B
330
1F
100
AcDbEntity
  8
実線  太
100
AcDbLine
 10
83.70325244008098
 20
478.6039637398016
 30
0.0
 11
86.20325244008098
 21
488.6039637398016
 31
0.0
  0
LINE
  5
9B2C
330
1F
100
AcDbEntity
  8
実線  太
100
AcDbLine
 10
77.2032524400812
 20
438.6039637398016
 30
0.0
 11
77.2032524400812
 21
462.6039637398016
 31
0.0
  0
LINE
  5
9B2D
330
1F
100
AcDbEntity
  8
実線  太
100
AcDbLine
 10
83.2032524400812
 20
471.6039637398016
 30
0.0
 11
341.2032524400812
 21
471.6039637398016
 31
0.0
  0
LINE
  5
9B2E
330
1F
100
AcDbEntity
  8
実線  太
100
AcDbLine
 10
83.2032524400812
 20
467.6039637398016
 30
0.0
 11
341.2032524400812
 21
467.6039637398016
 31
0.0
  0
LINE
  5
9B2F
330
1F
100
AcDbEntity
  8
実線  太
100
AcDbLine
 10
341.2032524400812
 20
438.6039637398016
 30
0.0
 11
341.2032524400812
 21
462.6039637398016
 31
0.0
  0
LINE
  5
9B30
330
1F
100
AcDbEntity
  8
実線  太
100
AcDbLine
 10
347.2032524400812
 20
438.6039637398016
 30
0.0
 11
347.2032524400812
 21
462.6039637398016
 31
0.0
  0
ARC
  5
9B31
330
1F
100
AcDbEntity
  8
実線  太
100
AcDbCircle
 10
344.2032524400812
 20
438.6039637398016
 30
0.0
 40
3.0
100
AcDbArc
 50
180.0
 51
0.0
  0
LINE
  5
9B32
330
1F
100
AcDbEntity
  8
実線  太
100
AcDbLine
 10
340.7032524400814
 20
478.6039637398016
 30
0.0
 11
338.2032524400814
 21
488.6039637398016
 31
0.0
  0
LINE
  5
9B33
330
1F
100
AcDbEntity
  8
破線
 48
0.1
100
AcDbLine
 10
341.2032524400814
 20
478.6039637398016
 30
0.0
 11
341.2032524400814
 21
492.1039637398016
 31
0.0
  0
LINE
  5
9B34
330
1F
100
AcDbEntity
  8
破線
 48
0.1
100
AcDbLine
 10
347.2032524400814
 20
478.6039637398016
 30
0.0
 11
347.2032524400814
 21
492.1039637398016
 31
0.0
  0
LINE
  5
9B35
330
1F
100
AcDbEntity
  8
実線  太
100
AcDbLine
 10
347.7032524400814
 20
478.6039637398016
 30
0.0
 11
350.2032524400814
 21
488.6039637398016
 31
0.0
  0
LINE
  5
9B36
330
1F
100
AcDbEntity
  8
実線  太
100
AcDbLine
 10
347.7032524400814
 20
478.6039637398016
 30
0.0
 11
340.7032524400814
 21
478.6039637398016
 31
0.0
  0
ARC
  5
9B37
330
1F
100
AcDbEntity
  8
実線  太
100
AcDbCircle
 10
344.2032524400812
 20
474.6039637398016
 30
0.0
 40
3.0
100
AcDbArc
 50
0.0
 51
180.0
  0
ARC
  5
9B38
330
1F
100
AcDbEntity
  8
実線  太
100
AcDbCircle
 10
344.2032524400812
 20
462.6039637398016
 30
0.0
 40
3.0
100
AcDbArc
 50
0.0
 51
180.0
  0
ARC
  5
9B39
330
1F
100
AcDbEntity
  8
実線  太
100
AcDbCircle
 10
344.2032524400812
 20
462.6039637398016
 30
0.0
 40
4.0
100
AcDbArc
 50
318.590377890729
 51
221.4096221092707
  0
LINE
  5
9B3A
330
1F
100
AcDbEntity
  8
実線  細
100
AcDbLine
 10
338.2032524400814
 20
488.6039637398016
 30
0.0
 11
350.2032524400814
 21
488.6039637398016
 31
0.0
  0
ARC
  5
9B3B
330
1F
100
AcDbEntity
  8
実線  太
100
AcDbCircle
 10
344.2032524400814
 20
488.6039637398016
 30
0.0
 40
6.0
100
AcDbArc
 50
0.0
 51
180.0
  0
LINE
  5
9B3C
330
1F
100
AcDbEntity
  8
破線
 48
0.1
100
AcDbLine
 10
341.2032524400814
 20
492.1039637398016
 30
0.0
 11
347.2032524400814
 21
492.1039637398016
 31
0.0
  0
LINE
  5
9B3D
330
1F
100
AcDbEntity
  8
実線  太
100
AcDbLine
 10
347.2032524400812
 20
471.6039637398016
 30
0.0
 11
364.7032524400812
 21
471.6039637398016
 31
0.0
  0
LINE
  5
9B3E
330
1F
100
AcDbEntity
  8
実線  太
100
AcDbLine
 10
347.2032524400812
 20
467.6039637398016
 30
0.0
 11
364.7032524400812
 21
467.6039637398016
 31
0.0
  0
LINE
  5
9B3F
330
1F
100
AcDbEntity
  8
実線  太
100
AcDbLine
 10
80.2032524400812
 20
477.6039637398016
 30
0.0
 11
344.2032524400812
 21
477.6039637398016
 31
0.0
  0
LINE
  5
9B40
330
1F
100
AcDbEntity
  8
実線  太
100
AcDbLine
 10
83.2032524400812
 20
471.6039637398016
 30
0.0
 11
341.2032524400812
 21
471.6039637398016
 31
0.0
  0
LINE
  5
9B41
330
1F
100
AcDbEntity
  8
実線  太
100
AcDbLine
 10
83.2032524400812
 20
477.6039637398016
 30
0.0
 11
83.2032524400812
 21
478.6039637398016
 31
0.0
  0
LINE
  5
9B42
330
1F
100
AcDbEntity
  8
実線  太
100
AcDbLine
 10
341.2032524400812
 20
477.6039637398016
 30
0.0
 11
341.2032524400812
 21
478.6039637398016
 31
0.0
  0
LINE
  5
9B43
330
1F
100
AcDbEntity
  8
実線  太
100
AcDbLine
 10
59.70325244008121
 20
471.6039637398016
 30
0.0
 11
77.2032524400812
 21
471.6039637398016
 31
0.0
  0
LINE
  5
9B44
330
1F
100
AcDbEntity
  8
破線
 48
0.1
100
AcDbLine
 10
134.7032524400812
 20
472.6039637398016
 30
0.0
 11
134.7032524400812
 21
467.6039637398016
 31
0.0
  0
LINE
  5
9B45
330
1F
100
AcDbEntity
  8
破線
 48
0.1
100
AcDbLine
 10
128.7032524400812
 20
472.6039637398016
 30
0.0
 11
128.7032524400812
 21
467.6039637398016
 31
0.0
  0
LINE
  5
9B46
330
1F
100
AcDbEntity
  8
破線
 48
0.1
100
AcDbLine
 10
129.7032524400812
 20
473.6039637398016
 30
0.0
 11
133.7032524400812
 21
473.6039637398016
 31
0.0
  0
LINE
  5
9B47
330
1F
100
AcDbEntity
  8
破線
 48
0.1
100
AcDbLine
 10
128.7032524400812
 20
472.6039637398016
 30
0.0
 11
129.7032524400812
 21
473.6039637398016
 31
0.0
  0
LINE
  5
9B48
330
1F
100
AcDbEntity
  8
破線
 48
0.1
100
AcDbLine
 10
134.7032524400812
 20
472.6039637398016
 30
0.0
 11
133.7032524400812
 21
473.6039637398016
 31
0.0
  0
LINE
  5
9B49
330
1F
100
AcDbEntity
  8
破線
 48
0.1
100
AcDbLine
 10
128.7032524400812
 20
472.6039637398016
 30
0.0
 11
134.7032524400812
 21
472.6039637398016
 31
0.0
  0
LINE
  5
9B4A
330
1F
100
AcDbEntity
  8
実線  太
100
AcDbLine
 10
128.7032524400812
 20
467.6039637398016
 30
0.0
 11
128.7032524400812
 21
358.6039637398017
 31
0.0
  0
LINE
  5
9B4B
330
1F
100
AcDbEntity
  8
実線  太
100
AcDbLine
 10
134.7032524400812
 20
467.6039637398016
 30
0.0
 11
134.7032524400812
 21
358.6039637398017
 31
0.0
  0
LINE
  5
9B4C
330
1F
100
AcDbEntity
  8
実線  太
100
AcDbLine
 10
138.7032524400812
 20
348.6039637398016
 30
0.0
 11
285.7032524400812
 21
348.6039637398016
 31
0.0
  0
LINE
  5
9B4D
330
1F
100
AcDbEntity
  8
実線  太
100
AcDbLine
 10
138.7032524400812
 20
354.6039637398016
 30
0.0
 11
285.7032524400812
 21
354.6039637398016
 31
0.0
  0
ARC
  5
9B4E
330
1F
100
AcDbEntity
  8
実線  太
100
AcDbCircle
 10
138.7032524400812
 20
358.6039637398017
 30
0.0
 40
10.0
100
AcDbArc
 50
180.0
 51
270.0
  0
ARC
  5
9B4F
330
1F
100
AcDbEntity
  8
実線  太
100
AcDbCircle
 10
138.7032524400812
 20
358.6039637398017
 30
0.0
 40
4.0
100
AcDbArc
 50
180.0
 51
270.0
  0
LINE
  5
9B50
330
1F
100
AcDbEntity
  8
実線  太
100
AcDbLine
 10
289.7032524400812
 20
467.6039637398016
 30
0.0
 11
289.7032524400812
 21
358.6039637398017
 31
0.0
  0
LINE
  5
9B51
330
1F
100
AcDbEntity
  8
実線  太
100
AcDbLine
 10
295.7032524400812
 20
467.6039637398016
 30
0.0
 11
295.7032524400812
 21
358.6039637398017
 31
0.0
  0
ARC
  5
9B52
330
1F
100
AcDbEntity
  8
実線  太
100
AcDbCircle
 10
285.7032524400812
 20
358.6039637398017
 30
0.0
 40
4.0
100
AcDbArc
 50
270.0
 51
0.0
  0
ARC
  5
9B53
330
1F
100
AcDbEntity
  8
実線  太
100
AcDbCircle
 10
285.7032524400812
 20
358.6039637398017
 30
0.0
 40
10.0
100
AcDbArc
 50
270.0
 51
0.0
  0
LINE
  5
9B54
330
1F
100
AcDbEntity
  8
破線
 48
0.1
100
AcDbLine
 10
295.7032524400812
 20
472.6039637398016
 30
0.0
 11
295.7032524400812
 21
467.6039637398016
 31
0.0
  0
LINE
  5
9B55
330
1F
100
AcDbEntity
  8
破線
 48
0.1
100
AcDbLine
 10
289.7032524400812
 20
472.6039637398016
 30
0.0
 11
289.7032524400812
 21
467.6039637398016
 31
0.0
  0
LINE
  5
9B56
330
1F
100
AcDbEntity
  8
破線
 48
0.1
100
AcDbLine
 10
295.7032524400812
 20
472.6039637398016
 30
0.0
 11
289.7032524400812
 21
472.6039637398016
 31
0.0
  0
LINE
  5
9B57
330
1F
100
AcDbEntity
  8
破線
 48
0.1
100
AcDbLine
 10
289.7032524400812
 20
472.6039637398016
 30
0.0
 11
290.7032524400812
 21
473.6039637398016
 31
0.0
  0
LINE
  5
9B58
330
1F
100
AcDbEntity
  8
破線
 48
0.1
100
AcDbLine
 10
295.7032524400812
 20
472.6039637398016
 30
0.0
 11
294.7032524400812
 21
473.6039637398016
 31
0.0
  0
LINE
  5
9B59
330
1F
100
AcDbEntity
  8
破線
 48
0.1
100
AcDbLine
 10
294.7032524400812
 20
473.6039637398016
 30
0.0
 11
290.7032524400812
 21
473.6039637398016
 31
0.0
  0
LINE
  5
9B5A
330
1F
100
AcDbEntity
  8
実線  太
100
AcDbLine
 10
49.70325244008121
 20
154.0616830897943
 30
0.0
 11
49.70325244008121
 21
144.0616830897943
 31
0.0
  0
LINE
  5
9B5B
330
1F
100
AcDbEntity
  8
実線  太
100
AcDbLine
 10
374.7032524400812
 20
154.0616830897943
 30
0.0
 11
374.7032524400812
 21
139.0616830897943
 31
0.0
  0
LINE
  5
9B5C
330
1F
100
AcDbEntity
  8
実線  太
100
AcDbLine
 10
49.70325244008121
 20
154.0616830897943
 30
0.0
 11
374.7032524400812
 21
154.0616830897943
 31
0.0
  0
LINE
  5
9B5D
330
1F
100
AcDbEntity
  8
実線  太
100
AcDbLine
 10
49.70325244008121
 20
139.0616830897943
 30
0.0
 11
129.4671844625815
 21
139.0616830897943
 31
0.0
  0
LINE
  5
9B5E
330
1F
100
AcDbEntity
  8
実線  太
100
AcDbLine
 10
77.2032524400812
 20
129.0616830897943
 30
0.0
 11
77.2032524400812
 21
139.0616830897943
 31
0.0
  0
LINE
  5
9B5F
330
1F
100
AcDbEntity
  8
実線  太
100
AcDbLine
 10
83.2032524400812
 20
129.0616830897943
 30
0.0
 11
83.2032524400812
 21
139.0616830897943
 31
0.0
  0
ARC
  5
9B60
330
1F
100
AcDbEntity
  8
実線  太
100
AcDbCircle
 10
80.2032524400812
 20
129.0616830897943
 30
0.0
 40
3.0
100
AcDbArc
 50
180.0
 51
0.0
  0
ARC
  5
9B61
330
1F
100
AcDbEntity
  8
実線  細
100
AcDbCircle
 10
80.2032524400812
 20
129.0616830897943
 30
0.0
 40
3.5
100
AcDbArc
 50
148.9972808661276
 51
31.00271913387235
  0
ARC
  5
9B62
330
1F
100
AcDbEntity
  8
実線  太
100
AcDbCircle
 10
80.2032524400812
 20
129.0616830897943
 30
0.0
 40
5.999999999999971
100
AcDbArc
 50
120.0
 51
59.99999999999997
  0
ARC
  5
9B63
330
1F
100
AcDbEntity
  8
実線  太
100
AcDbCircle
 10
80.2032524400812
 20
275.0616830897943
 30
0.0
 40
3.0
100
AcDbArc
 50
0.0
 51
180.0
  0
LINE
  5
9B64
330
1F
100
AcDbEntity
  8
実線  細
100
AcDbLine
 10
77.2032524400812
 20
200.0616830897943
 30
0.0
 11
83.2032524400812
 21
200.0616830897943
 31
0.0
  0
LINE
  5
9B65
330
1F
100
AcDbEntity
  8
実線  太
100
AcDbLine
 10
76.2032524400812
 20
266.0616830897943
 30
0.0
 11
76.2032524400812
 21
253.0616830897943
 31
0.0
  0
ARC
  5
9B66
330
1F
100
AcDbEntity
  8
実線  太
100
AcDbCircle
 10
80.2032524400812
 20
253.0616830897943
 30
0.0
 40
4.0
100
AcDbArc
 50
180.0
 51
221.4096221092708
  0
LINE
  5
9B67
330
1F
100
AcDbEntity
  8
実線  太
100
AcDbLine
 10
76.2032524400812
 20
266.0616830897943
 30
0.0
 11
77.2032524400812
 21
266.0616830897943
 31
0.0
  0
LINE
  5
9B68
330
1F
100
AcDbEntity
  8
実線  太
100
AcDbLine
 10
84.2032524400812
 20
266.0616830897943
 30
0.0
 11
84.2032524400812
 21
253.0616830897943
 31
0.0
  0
ARC
  5
9B69
330
1F
100
AcDbEntity
  8
実線  太
100
AcDbCircle
 10
80.2032524400812
 20
253.0616830897943
 30
0.0
 40
4.0
100
AcDbArc
 50
318.590377890729
 51
0.0
  0
LINE
  5
9B6A
330
1F
100
AcDbEntity
  8
実線  太
100
AcDbLine
 10
83.2032524400812
 20
266.0616830897943
 30
0.0
 11
84.2032524400812
 21
266.0616830897943
 31
0.0
  0
LINE
  5
9B6B
330
1F
100
AcDbEntity
  8
実線  太
100
AcDbLine
 10
83.2032524400812
 20
183.0616830897943
 30
0.0
 11
341.2032524400812
 21
183.0616830897943
 31
0.0
  0
LINE
  5
9B6C
330
1F
100
AcDbEntity
  8
実線  太
100
AcDbLine
 10
83.2032524400812
 20
189.0616830897943
 30
0.0
 11
341.2032524400812
 21
189.0616830897943
 31
0.0
  0
LINE
  5
9B6D
330
1F
100
AcDbEntity
  8
実線  太
100
AcDbLine
 10
77.2032524400812
 20
154.0616830897943
 30
0.0
 11
77.2032524400812
 21
275.0616830897943
 31
0.0
  0
LINE
  5
9B6E
330
1F
100
AcDbEntity
  8
実線  太
100
AcDbLine
 10
83.2032524400812
 20
154.0616830897943
 30
0.0
 11
83.2032524400812
 21
275.0616830897943
 31
0.0
  0
LINE
  5
9B6F
330
1F
100
AcDbEntity
  8
実線  太
100
AcDbLine
 10
341.2032524400812
 20
154.0616830897943
 30
0.0
 11
341.2032524400812
 21
275.0616830897943
 31
0.0
  0
LINE
  5
9B70
330
1F
100
AcDbEntity
  8
実線  太
100
AcDbLine
 10
347.2032524400812
 20
154.0616830897943
 30
0.0
 11
347.2032524400812
 21
275.0616830897943
 31
0.0
  0
LINE
  5
9B71
330
1F
100
AcDbEntity
  8
実線  太
100
AcDbLine
 10
341.2032524400812
 20
129.0616830897943
 30
0.0
 11
341.2032524400812
 21
139.0616830897943
 31
0.0
  0
LINE
  5
9B72
330
1F
100
AcDbEntity
  8
実線  太
100
AcDbLine
 10
347.2032524400812
 20
129.0616830897943
 30
0.0
 11
347.2032524400812
 21
139.0616830897943
 31
0.0
  0
ARC
  5
9B73
330
1F
100
AcDbEntity
  8
実線  太
100
AcDbCircle
 10
344.2032524400812
 20
129.0616830897943
 30
0.0
 40
5.999999999999971
100
AcDbArc
 50
120.0
 51
59.99999999999997
  0
ARC
  5
9B74
330
1F
100
AcDbEntity
  8
実線  細
100
AcDbCircle
 10
344.2032524400812
 20
129.0616830897943
 30
0.0
 40
3.5
100
AcDbArc
 50
148.9972808661276
 51
31.00271913387235
  0
ARC
  5
9B75
330
1F
100
AcDbEntity
  8
実線  太
100
AcDbCircle
 10
344.2032524400812
 20
129.0616830897943
 30
0.0
 40
3.0
100
AcDbArc
 50
180.0
 51
0.0
  0
LINE
  5
9B76
330
1F
100
AcDbEntity
  8
実線  細
100
AcDbLine
 10
347.2032524400812
 20
200.0616830897943
 30
0.0
 11
341.2032524400812
 21
200.0616830897943
 31
0.0
  0
LINE
  5
9B77
330
1F
100
AcDbEntity
  8
実線  太
100
AcDbLine
 10
348.2032524400812
 20
266.0616830897943
 30
0.0
 11
348.2032524400812
 21
253.0616830897943
 31
0.0
  0
LINE
  5
9B78
330
1F
100
AcDbEntity
  8
実線  太
100
AcDbLine
 10
340.2032524400812
 20
266.0616830897943
 30
0.0
 11
340.2032524400812
 21
253.0616830897943
 31
0.0
  0
ARC
  5
9B79
330
1F
100
AcDbEntity
  8
実線  太
100
AcDbCircle
 10
344.2032524400812
 20
253.0616830897943
 30
0.0
 40
4.0
100
AcDbArc
 50
318.590377890729
 51
0.0
  0
ARC
  5
9B7A
330
1F
100
AcDbEntity
  8
実線  太
100
AcDbCircle
 10
344.2032524400812
 20
253.0616830897943
 30
0.0
 40
4.0
100
AcDbArc
 50
180.0
 51
221.4096221092708
  0
LINE
  5
9B7B
330
1F
100
AcDbEntity
  8
実線  太
100
AcDbLine
 10
348.2032524400812
 20
266.0616830897943
 30
0.0
 11
347.2032524400812
 21
266.0616830897943
 31
0.0
  0
LINE
  5
9B7C
330
1F
100
AcDbEntity
  8
実線  太
100
AcDbLine
 10
341.2032524400812
 20
266.0616830897943
 30
0.0
 11
340.2032524400812
 21
266.0616830897943
 31
0.0
  0
ARC
  5
9B7D
330
1F
100
AcDbEntity
  8
実線  太
100
AcDbCircle
 10
344.2032524400812
 20
275.0616830897943
 30
0.0
 40
3.0
100
AcDbArc
 50
0.0
 51
180.0
  0
LINE
  5
9B7E
330
1F
100
AcDbEntity
  8
実線  太
100
AcDbLine
 10
128.7032524400812
 20
137.0616830897943
 30
0.0
 11
128.7032524400812
 21
101.0616830897943
 31
0.0
  0
LINE
  5
9B7F
330
1F
100
AcDbEntity
  8
実線  太
100
AcDbLine
 10
134.7032524400812
 20
137.0616830897943
 30
0.0
 11
134.7032524400812
 21
131.226834479706
 31
0.0
  0
ARC
  5
9B80
330
1F
100
AcDbEntity
  8
実線  太
100
AcDbCircle
 10
131.7032524400812
 20
101.0616830897943
 30
0.0
 40
3.0
100
AcDbArc
 50
180.0
 51
0.0
  0
ARC
  5
9B81
330
1F
100
AcDbEntity
  8
実線  太
100
AcDbCircle
 10
131.7032524400812
 20
137.0616830897943
 30
0.0
 40
3.0
100
AcDbArc
 50
0.0
 51
180.0
  0
LINE
  5
9B82
330
1F
100
AcDbEntity
  8
実線  太
100
AcDbLine
 10
138.7032524400812
 20
132.0616830897943
 30
0.0
 11
285.7032524400812
 21
132.0616830897943
 31
0.0
  0
LINE
  5
9B83
330
1F
100
AcDbEntity
  8
実線  太
100
AcDbLine
 10
133.9393204175809
 20
139.0616830897943
 30
0.0
 11
290.4671844625815
 21
139.0616830897943
 31
0.0
  0
LINE
  5
9B84
330
1F
100
AcDbEntity
  8
実線  太
100
AcDbLine
 10
138.7032524400812
 20
126.0616830897943
 30
0.0
 11
285.7032524400812
 21
126.0616830897943
 31
0.0
  0
ARC
  5
9B85
330
1F
100
AcDbEntity
  8
実線  太
100
AcDbCircle
 10
138.7032524400812
 20
122.0616830897943
 30
0.0
 40
10.0
100
AcDbArc
 50
90.0
 51
180.0
  0
ARC
  5
9B86
330
1F
100
AcDbEntity
  8
実線  太
100
AcDbCircle
 10
138.7032524400812
 20
122.0616830897943
 30
0.0
 40
4.0
100
AcDbArc
 50
90.0
 51
180.0
  0
LINE
  5
9B87
330
1F
100
AcDbEntity
  8
実線  太
100
AcDbLine
 10
134.7032524400812
 20
122.0616830897943
 30
0.0
 11
134.7032524400812
 21
101.0616830897943
 31
0.0
  0
LINE
  5
9B88
330
1F
100
AcDbEntity
  8
実線  太
100
AcDbLine
 10
289.7032524400812
 20
122.0616830897943
 30
0.0
 11
289.7032524400812
 21
101.0616830897943
 31
0.0
  0
LINE
  5
9B89
330
1F
100
AcDbEntity
  8
実線  太
100
AcDbLine
 10
295.7032524400812
 20
137.0616830897943
 30
0.0
 11
295.7032524400812
 21
101.0616830897943
 31
0.0
  0
ARC
  5
9B8A
330
1F
100
AcDbEntity
  8
実線  太
100
AcDbCircle
 10
292.7032524400812
 20
101.0616830897943
 30
0.0
 40
3.0
100
AcDbArc
 50
180.0
 51
0.0
  0
ARC
  5
9B8B
330
1F
100
AcDbEntity
  8
実線  太
100
AcDbCircle
 10
285.7032524400812
 20
122.0616830897943
 30
0.0
 40
10.0
100
AcDbArc
 50
0.0
 51
90.0
  0
LINE
  5
9B8C
330
1F
100
AcDbEntity
  8
実線  太
100
AcDbLine
 10
289.7032524400812
 20
137.0616830897943
 30
0.0
 11
289.7032524400812
 21
131.226834479706
 31
0.0
  0
ARC
  5
9B8D
330
1F
100
AcDbEntity
  8
実線  太
100
AcDbCircle
 10
285.7032524400812
 20
122.0616830897943
 30
0.0
 40
4.0
100
AcDbArc
 50
0.0
 51
90.0
  0
ARC
  5
9B8E
330
1F
100
AcDbEntity
  8
実線  太
100
AcDbCircle
 10
292.7032524400812
 20
137.0616830897943
 30
0.0
 40
3.0
100
AcDbArc
 50
0.0
 51
180.0
  0
LINE
  5
9B8F
330
1F
100
AcDbEntity
  8
実線  太
100
AcDbLine
 10
294.9393204175809
 20
139.0616830897943
 30
0.0
 11
374.7032524400812
 21
139.0616830897943
 31
0.0
  0
LINE
  5
9B90
330
1F
100
AcDbEntity
  8
実線  太
100
AcDbLine
 10
631.6417487430823
 20
139.0616830897943
 30
0.0
 11
502.6417487430823
 21
139.0616830897943
 31
0.0
  0
LINE
  5
9B91
330
1F
100
AcDbEntity
  8
実線  太
100
AcDbLine
 10
631.6417487430823
 20
154.0616830897944
 30
0.0
 11
502.6417487430823
 21
154.0616830897944
 31
0.0
  0
LINE
  5
9B92
330
1F
100
AcDbEntity
  8
実線  太
100
AcDbLine
 10
502.6417487430823
 20
154.0616830897944
 30
0.0
 11
502.6417487430823
 21
139.0616830897943
 31
0.0
  0
LINE
  5
9B93
330
1F
100
AcDbEntity
  8
実線  太
100
AcDbLine
 10
628.2734767267275
 20
203.429955106149
 30
0.0
 11
600.7673800723177
 21
230.9360517605588
 31
0.0
  0
LINE
  5
9B94
330
1F
100
AcDbEntity
  8
実線  太
100
AcDbLine
 10
632.5161174138469
 20
207.6725957932681
 30
0.0
 11
605.0100207594368
 21
235.1786924476781
 31
0.0
  0
ARC
  5
9B95
330
1F
100
AcDbEntity
  8
実線  太
100
AcDbCircle
 10
620.1417487430825
 20
195.2982271225037
 30
0.0
 40
17.5
100
AcDbArc
 50
0.0
 51
45.00000000000855
  0
ARC
  5
9B96
330
1F
100
AcDbEntity
  8
実線  太
100
AcDbCircle
 10
620.1417487430825
 20
195.2982271225037
 30
0.0
 40
11.5
100
AcDbArc
 50
0.0
 51
45.00000000000855
  0
LINE
  5
9B97
330
1F
100
AcDbEntity
  8
実線  太
100
AcDbLine
 10
626.6417487430823
 20
265.5616830897943
 30
0.0
 11
618.6417487430823
 21
265.5616830897943
 31
0.0
  0
LINE
  5
9B98
330
1F
100
AcDbEntity
  8
破線
 48
0.1
100
AcDbLine
 10
619.6417487430823
 20
252.5616830897944
 30
0.0
 11
625.6417487430823
 21
252.5616830897944
 31
0.0
  0
LINE
  5
9B99
330
1F
100
AcDbEntity
  8
実線  太
100
AcDbLine
 10
621.5810885547889
 20
249.5010229180143
 30
0.0
 11
619.2275351807092
 21
251.8545763086077
 31
0.0
  0
ARC
  5
9B9A
330
1F
100
AcDbEntity
  8
実線  太
100
AcDbCircle
 10
610.6417487430823
 20
263.0616830897943
 30
0.0
 40
15.0
100
AcDbArc
 50
9.594068226860112
 51
180.0
  0
LINE
  5
9B9B
330
1F
100
AcDbEntity
  8
実線  太
100
AcDbLine
 10
595.6417487430822
 20
263.0616830897943
 30
0.0
 11
595.6417487430822
 21
243.3104204313236
 31
0.0
  0
LINE
  5
9B9C
330
1F
100
AcDbEntity
  8
実線  太
100
AcDbLine
 10
601.6417487430823
 20
263.0616830897943
 30
0.0
 11
601.6417487430823
 21
243.3104204313234
 31
0.0
  0
LINE
  5
9B9D
330
1F
100
AcDbEntity
  8
破線
 48
0.1
100
AcDbLine
 10
619.6417487430823
 20
263.0616830897943
 30
0.0
 11
619.6417487430823
 21
252.5616830897944
 31
0.0
  0
LINE
  5
9B9E
330
1F
100
AcDbEntity
  8
実線  太
100
AcDbLine
 10
618.6417487430823
 20
265.5616830897943
 30
0.0
 11
618.6417487430823
 21
253.2687898709808
 31
0.0
  0
ARC
  5
9B9F
330
1F
100
AcDbEntity
  8
実線  太
100
AcDbCircle
 10
613.1417487430823
 20
243.3104204313236
 30
0.0
 40
11.5
100
AcDbArc
 50
180.0
 51
225.0000000000086
  0
ARC
  5
9BA0
330
1F
100
AcDbEntity
  8
実線  太
100
AcDbCircle
 10
613.1417487430823
 20
243.3104204313236
 30
0.0
 40
17.5
100
AcDbArc
 50
180.0
 51
225.0000000000086
  0
ARC
  5
9BA1
330
1F
100
AcDbEntity
  8
実線  太
100
AcDbCircle
 10
620.6417487430822
 20
253.2687898709808
 30
0.0
 40
2.0
100
AcDbArc
 50
179.9999999999984
 51
224.9999999999907
  0
ARC
  5
9BA2
330
1F
100
AcDbEntity
  8
実線  太
100
AcDbCircle
 10
610.6417487430823
 20
263.0616830897943
 30
0.0
 40
9.0
100
AcDbArc
 50
16.1276202131642
 51
180.0
  0
ARC
  5
9BA3
330
1F
100
AcDbEntity
  8
破線
 48
0.1
100
AcDbCircle
 10
610.6417487430823
 20
263.0616830897943
 30
0.0
 40
9.0
100
AcDbArc
 50
0.0
 51
16.1276202131642
  0
LINE
  5
9BA4
330
1F
100
AcDbEntity
  8
破線
 48
0.1
100
AcDbLine
 10
625.6417487430823
 20
263.0616830897943
 30
0.0
 11
625.6417487430823
 21
252.5616830897944
 31
0.0
  0
LINE
  5
9BA5
330
1F
100
AcDbEntity
  8
実線  太
100
AcDbLine
 10
626.6417487430823
 20
265.5616830897943
 30
0.0
 11
626.6417487430823
 21
253.2687898709808
 31
0.0
  0
ARC
  5
9BA6
330
1F
100
AcDbEntity
  8
実線  太
100
AcDbCircle
 10
624.6417487430822
 20
253.2687898709808
 30
0.0
 40
2.0
100
AcDbArc
 50
315.0000000000094
 51
0.0000000000016284
  0
ARC
  5
9BA7
330
1F
100
AcDbEntity
  8
実線  太
100
AcDbCircle
 10
622.6417487265687
 20
250.5616830897944
 30
0.0
 40
1.5
100
AcDbArc
 50
225.0000000000086
 51
314.9999999999914
  0
LINE
  5
9BA8
330
1F
100
AcDbEntity
  8
実線  太
100
AcDbLine
 10
623.7024088983486
 20
249.5010229180143
 30
0.0
 11
626.0559623054554
 21
251.8545763086077
 31
0.0
  0
ARC
  5
9BA9
330
1F
100
AcDbEntity
  8
破線
 48
0.1
100
AcDbCircle
 10
610.6417487430823
 20
263.0616830897943
 30
0.0
 40
15.0
100
AcDbArc
 50
0.0
 51
9.594068226860112
  0
LINE
  5
9BAA
330
1F
100
AcDbEntity
  8
実線  太
100
AcDbLine
 10
637.6417487430822
 20
195.2982271225037
 30
0.0
 11
637.6417487430822
 21
136.0616830897943
 31
0.0
  0
LINE
  5
9BAB
330
1F
100
AcDbEntity
  8
実線  太
100
AcDbLine
 10
631.6417487430823
 20
195.2982271225037
 30
0.0
 11
631.6417487430823
 21
136.0616830897943
 31
0.0
  0
ARC
  5
9BAC
330
1F
100
AcDbEntity
  8
実線  太
100
AcDbCircle
 10
641.6417487430822
 20
136.0616830897943
 30
0.0
 40
10.0
100
AcDbArc
 50
180.0
 51
252.5423968762807
  0
LINE
  5
9BAD
330
1F
100
AcDbEntity
  8
実線  太
100
AcDbLine
 10
638.6417487430823
 20
125.5616830897943
 30
0.0
 11
638.6417487430823
 21
132.5616830897943
 31
0.0
  0
ARC
  5
9BAE
330
1F
100
AcDbEntity
  8
実線  太
100
AcDbCircle
 10
648.6417487430823
 20
129.0616830897943
 30
0.0
 40
6.0
100
AcDbArc
 50
270.0
 51
90.0
  0
LINE
  5
9BAF
330
1F
100
AcDbEntity
  8
実線  細
100
AcDbLine
 10
648.6417487430823
 20
135.0616830897943
 30
0.0
 11
648.6417487430823
 21
123.0616830897943
 31
0.0
  0
LINE
  5
9BB0
330
1F
100
AcDbEntity
  8
実線  太
100
AcDbLine
 10
638.6417487430823
 20
125.5616830897943
 30
0.0
 11
648.6417487430823
 21
123.0616830897943
 31
0.0
  0
ARC
  5
9BB1
330
1F
100
AcDbEntity
  8
破線
 48
0.1
100
AcDbCircle
 10
641.6417487430822
 20
136.0616830897943
 30
0.0
 40
4.0
100
AcDbArc
 50
235.8701082506545
 51
270.0
  0
ARC
  5
9BB2
330
1F
100
AcDbEntity
  8
破線
 48
0.1
100
AcDbCircle
 10
641.6417487430822
 20
136.0616830897943
 30
0.0
 40
10.0
100
AcDbArc
 50
252.5423968762807
 51
270.0
  0
LINE
  5
9BB3
330
1F
100
AcDbEntity
  8
実線  太
100
AcDbLine
 10
638.6417487430823
 20
132.5616830897943
 30
0.0
 11
648.6417487430823
 21
135.0616830897943
 31
0.0
  0
ARC
  5
9BB4
330
1F
100
AcDbEntity
  8
実線  太
100
AcDbCircle
 10
641.6417487430822
 20
136.0616830897943
 30
0.0
 40
4.0
100
AcDbArc
 50
180.0
 51
235.8701082506545
  0
LINE
  5
9BB5
330
1F
100
AcDbEntity
  8
破線
 48
0.1
100
AcDbLine
 10
641.6417487430822
 20
126.0616830897943
 30
0.0
 11
652.1417487430823
 21
126.0616830897943
 31
0.0
  0
LINE
  5
9BB6
330
1F
100
AcDbEntity
  8
破線
 48
0.1
100
AcDbLine
 10
641.6417487430822
 20
132.0616830897943
 30
0.0
 11
652.1417487430823
 21
132.0616830897943
 31
0.0
  0
LINE
  5
9BB7
330
1F
100
AcDbEntity
  8
破線
 48
0.1
100
AcDbLine
 10
652.1417487430823
 20
132.0616830897943
 30
0.0
 11
652.1417487430823
 21
126.0616830897943
 31
0.0
  0
LINE
  5
9BB8
330
1F
100
AcDbEntity
  8
実線  太
100
AcDbLine
 10
617.2445310631055
 20
138.7146010929554
 30
0.0
 11
621.2116964403207
 21
139.0616830897943
 31
0.0
  0
LINE
  5
9BB9
330
1F
100
AcDbEntity
  8
実線  太
100
AcDbLine
 10
617.7674655195914
 20
132.737432904405
 30
0.0
 11
631.8628203163215
 21
133.9706166574946
 31
0.0
  0
DIMENSION
  5
9BBA
330
1F
100
AcDbEntity
  8
寸法線
100
AcDbDimension
  2
*D2
 10
344.2032524400814
 20
520.6039637398016
 30
0.0
 11
212.2032524400812
 21
525.9039637398016
 31
0.0
 70
    32
 71
     5
 42
264.0000000000005
  3
ISO-25_2
100
AcDbAlignedDimension
 13
80.20325244008096
 23
478.6039637398016
 33
0.0
 14
344.2032524400814
 24
478.6039637398016
 34
0.0
100
AcDbRotatedDimension
  0
DIMENSION
  5
9BBB
330
1F
100
AcDbEntity
  8
寸法線
100
AcDbDimension
  2
*D3
 10
13.7032524400812
 20
278.0616830897943
 30
0.0
 11
8.40325244008115
 21
188.0616830897943
 31
0.0
 70
    32
 71
     5
 42
179.9999999999999
  3
ISO-25_2
100
AcDbAlignedDimension
 13
131.7032524400812
 23
98.06168308979437
 33
0.0
 14
80.2032524400812
 24
278.0616830897943
 34
0.0
 50
90.0
100
AcDbRotatedDimension
  0
DIMENSION
  5
9BBC
330
1F
100
AcDbEntity
  8
寸法線
100
AcDbDimension
  2
*D4
 10
13.7032524400812
 20
342.6039637398016
 30
0.0
 11
8.40325244008115
 21
407.1039637398016
 31
0.0
 70
    32
 71
     5
 42
129.0
  3
ISO-25_2
100
AcDbAlignedDimension
 13
59.70325244008121
 23
471.6039637398016
 33
0.0
 14
59.70325244008121
 24
342.6039637398016
 34
0.0
 50
90.0
100
AcDbRotatedDimension
  0
DIMENSION
  5
9BBD
330
1F
100
AcDbEntity
  8
寸法線
100
AcDbDimension
  2
*D5
 10
374.7032524400812
 20
306.6039637398016
 30
0.0
 11
212.2032524400812
 21
311.9039637398017
 31
0.0
 70
    32
 71
     5
 42
325.0
  3
ISO-25_2
100
AcDbAlignedDimension
 13
49.70325244008121
 23
352.6039637398016
 33
0.0
 14
374.7032524400812
 24
352.6039637398016
 34
0.0
100
AcDbRotatedDimension
  0
DIMENSION
  5
9BBE
330
1F
100
AcDbEntity
  8
寸法線
100
AcDbDimension
  2
*D6
 10
625.6417487430823
 20
314.0616830897943
 30
0.0
 11
610.6417487430823
 21
319.3616830897943
 31
0.0
 70
    32
 71
     5
 42
30.0
  3
ISO-25_2
100
AcDbAlignedDimension
 13
595.6417487430822
 23
263.0616830897943
 33
0.0
 14
625.6417487430823
 24
263.0616830897943
 34
0.0
100
AcDbRotatedDimension
  0
DIMENSION
  5
9BBF
330
1F
100
AcDbEntity
  8
寸法線
100
AcDbDimension
  2
*D7
 10
654.6417487430822
 20
78.06168308979434
 30
0.0
 11
581.6417487430823
 21
83.36168308979434
 31
0.0
 70
    32
 71
     5
 42
146.0
  3
ISO-25_2
100
AcDbAlignedDimension
 13
508.6417487430821
 23
126.0616830897943
 33
0.0
 14
654.6417487430822
 24
129.0616830897943
 34
0.0
100
AcDbRotatedDimension
  0
DIMENSION
  5
9BC0
330
1F
100
AcDbEntity
  8
寸法線
100
AcDbDimension
  2
*D8
 10
295.7032524400812
 20
78.06168308979434
 30
0.0
 11
212.2032524400812
 21
83.36168308979434
 31
0.0
 70
    32
 71
     5
 42
167.0
  3
ISO-25_2
100
AcDbAlignedDimension
 13
128.7032524400812
 23
101.0616830897943
 33
0.0
 14
295.7032524400812
 24
101.0616830897943
 34
0.0
100
AcDbRotatedDimension
  0
ARC
  5
9BC1
330
1F
100
AcDbEntity
  8
実線  太
100
AcDbCircle
 10
559.3387088139293
 20
159.0616830897943
 30
0.0
 40
55.0
100
AcDbArc
 50
214.6781195866612
 51
330.9273159471335
  0
ARC
  5
9BC2
330
1F
100
AcDbEntity
  8
実線  太
100
AcDbCircle
 10
559.3387088139293
 20
159.0616830897943
 30
0.0
 40
61.0
100
AcDbArc
 50
214.6781195866612
 51
330.9273159471335
  0
ARC
  5
9BC3
330
1F
100
AcDbEntity
  8
実線  太
100
AcDbCircle
 10
511.6417487430823
 20
126.0616830897943
 30
0.0
 40
3.0
100
AcDbArc
 50
34.67811958666147
 51
214.6781195866614
  0
ARC
  5
9BC4
330
1F
100
AcDbEntity
  8
実線  太
100
AcDbCircle
 10
618.3339778474512
 20
126.2621673668085
 30
0.0
 40
12.5
100
AcDbArc
 50
94.99999999999976
 51
150.9273159471335
  0
ARC
  5
9BC5
330
1F
100
AcDbEntity
  8
実線  太
100
AcDbCircle
 10
618.3339778474512
 20
126.2621673668085
 30
0.0
 40
6.5
100
AcDbArc
 50
94.99999999999976
 51
150.9273159471335
  0
DIMENSION
  5
9BC6
330
1F
100
AcDbEntity
  8
寸法線
100
AcDbDimension
  2
*D9
 10
559.3387088139296
 20
159.0616830897944
 30
0.0
 11
539.3307997191293
 21
181.9915336419021
 31
0.0
 70
   164
 71
     5
 42
55.00000000000037
  3
ISO-25_2
100
AcDbRadialDimension
 15
595.49940215022
 25
117.6201066545426
 35
0.0
 40
0.0
1001
ACAD
1000
DSTYLE
1002
{
1070
   344
1005
0
1070
   342
1005
0
1070
   173
1070
     1
1002
}
  0
LEADER
  5
9BC7
330
1F
100
AcDbEntity
  8
寸法線
100
AcDbLeader
  3
ISO-25_2
 73
     0
 40
9.758522727272728
 41
13.55113636363636
 76
     3
 10
148.2091595303519
 20
189.0616830897943
 30
0.0
 10
164.95022223636
 20
235.0573748522255
 30
0.0
 10
175.855310957912
 20
235.0573748522255
 30
0.0
340
9BC8
213
0.0
223
-3.75
233
0.0
1001
ACAD
1000
DSTYLE
1002
{
1070
   147
1040
2.7
1070
    77
1070
     0
1002
}
  0
MTEXT
  5
9BC8
102
{ACAD_REACTORS
330
9BC7
102
}
330
1F
100
AcDbEntity
  8
寸法線
 62
     7
100
AcDbMText
 10
181.255310957912
 20
238.8073748522256
 30
0.0
 40
7.5
 41
0.0
 71
     1
 72
     1
  1
\U+03C66
 73
     1
 44
1.0
1001
ACAD
1000
MTEXTBEGIN
1070
    73
1070
     1
1070
    44
1040
1.0
1070
    74
1070
     0
1000
MTEXTEND
  0
DIMENSION
  5
9BC9
330
1F
100
AcDbEntity
  8
寸法線
100
AcDbDimension
  2
*D10
 10
466.6417487430821
 20
154.0616830897944
 30
0.0
 11
461.3417487430822
 21
126.0616830897944
 31
0.0
 70
    32
 71
     5
 42
56.00000000000001
  3
ISO-25_2
100
AcDbAlignedDimension
 13
559.3387088139293
 23
98.06168308979437
 33
0.0
 14
502.6417487430823
 24
154.0616830897944
 34
0.0
 50
90.0
100
AcDbRotatedDimension
  0
LINE
  5
9BCA
330
1F
100
AcDbEntity
  8
実線  太
100
AcDbLine
 10
77.2032524400812
 20
465.249715050866
 30
0.0
 11
77.2032524400812
 21
478.6039637398016
 31
0.0
  0
LINE
  5
9BCB
330
1F
100
AcDbEntity
  8
実線  太
100
AcDbLine
 10
83.2032524400812
 20
465.249715050866
 30
0.0
 11
83.2032524400812
 21
474.6039637398016
 31
0.0
  0
LINE
  5
9BCC
330
1F
100
AcDbEntity
  8
実線  太
100
AcDbLine
 10
341.2032524400812
 20
465.249715050866
 30
0.0
 11
341.2032524400812
 21
474.6039637398016
 31
0.0
  0
LINE
  5
9BCD
330
1F
100
AcDbEntity
  8
実線  太
100
AcDbLine
 10
347.2032524400812
 20
465.249715050866
 30
0.0
 11
347.2032524400812
 21
478.6039637398016
 31
0.0
  0
ARC
  5
9BCE
330
1F
100
AcDbEntity
  8
実線  太
100
AcDbCircle
 10
59.70325244008121
 20
461.6039637398016
 30
0.0
 40
10.0
100
AcDbArc
 50
90.0
 51
180.0
  0
ARC
  5
9BCF
330
1F
100
AcDbEntity
  8
実線  太
100
AcDbCircle
 10
59.70325244008121
 20
461.6039637398016
 30
0.0
 40
6.0
100
AcDbArc
 50
90.0
 51
180.0
  0
ARC
  5
9BD0
330
1F
100
AcDbEntity
  8
実線  太
100
AcDbCircle
 10
59.70325244008121
 20
352.6039637398016
 30
0.0
 40
10.0
100
AcDbArc
 50
180.0
 51
270.0
  0
ARC
  5
9BD1
330
1F
100
AcDbEntity
  8
実線  太
100
AcDbCircle
 10
59.70325244008121
 20
352.6039637398016
 30
0.0
 40
6.0
100
AcDbArc
 50
180.0
 51
270.0
  0
ARC
  5
9BD2
330
1F
100
AcDbEntity
  8
実線  太
100
AcDbCircle
 10
364.7032524400812
 20
352.6039637398016
 30
0.0
 40
10.0
100
AcDbArc
 50
270.0
 51
0.0
  0
ARC
  5
9BD3
330
1F
100
AcDbEntity
  8
実線  太
100
AcDbCircle
 10
364.7032524400812
 20
461.6039637398016
 30
0.0
 40
10.0
100
AcDbArc
 50
0.0
 51
90.0
  0
LINE
  5
9BD4
330
1F
100
AcDbEntity
  8
実線  太
100
AcDbLine
 10
374.7032524400812
 20
461.6039637398016
 30
0.0
 11
374.7032524400812
 21
352.6039637398016
 31
0.0
  0
LINE
  5
9BD5
330
1F
100
AcDbEntity
  8
実線  太
100
AcDbLine
 10
370.7032524400812
 20
461.6039637398016
 30
0.0
 11
370.7032524400812
 21
352.6039637398016
 31
0.0
  0
ARC
  5
9BD6
330
1F
100
AcDbEntity
  8
実線  太
100
AcDbCircle
 10
364.7032524400812
 20
352.6039637398016
 30
0.0
 40
6.0
100
AcDbArc
 50
270.0
 51
0.0
  0
ARC
  5
9BD7
330
1F
100
AcDbEntity
  8
実線  太
100
AcDbCircle
 10
364.7032524400812
 20
461.6039637398016
 30
0.0
 40
6.0
100
AcDbArc
 50
0.0
 51
90.0
  0
LINE
  5
A2AA
330
1F
100
AcDbEntity
  8
実線  太
100
AcDbLine
 10
49.7032524400812
 20
154.0616830897943
 30
0.0
 11
49.7032524400812
 21
139.0616830897943
 31
0.0
  0
DIMENSION
  5
A2AB
330
1F
100
AcDbEntity
  8
DIM
100
AcDbDimension
  2
*D13
 10
-6.296747559918799
 20
342.6039637398016
 30
0.0
 11
-11.59674755991885
 21
418.6039637398016
 31
0.0
 70
    32
 71
     5
 42
152.0
  3
ISO-25_2
100
AcDbAlignedDimension
 13
80.20325244008096
 23
494.6039637398016
 33
0.0
 14
59.7032524400812
 24
342.6039637398016
 34
0.0
 50
90.0
100
AcDbRotatedDimension
  0
VIEWPORT
  5
283B
102
{ACAD_XDICTIONARY
360
A315
102
}
330
23
100
AcDbEntity
 67
     1
  8
0
100
AcDbViewport
 10
144.2296600341797
 20
100.75333070755
 30
0.0
 40
387.3721909720035
 41
222.1517806396485
 68
     1
 69
     1
 12
144.2296600341797
 22
100.75333070755
 13
0.0
 23
0.0
 14
10.0
 24
10.0
 15
10.0
 25
10.0
 16
0.0
 26
0.0
 36
1.0
 17
0.0
 27
0.0
 37
0.0
 42
50.0
 43
0.0
 44
0.0
 45
222.1517806396485
 50
0.0
 51
0.0
 72
 20000
 90
    32800
  1

281
     0
 71
     1
 74
     0
110
0.0
120
0.0
130
0.0
111
1.0
121
0.0
131
0.0
112
0.0
122
1.0
132
0.0
 79
     0
146
0.0
  0
VIEWPORT
  5
283D
102
{ACAD_XDICTIONARY
360
A317
102
}
330
23
100
AcDbEntity
 67
     1
  8
実線  太
100
AcDbViewport
 10
144.2296578884125
 20
100.7533361911773
 30
0.0
 40
230.7674526214599
 41
161.2053379058837
 68
     2
 69
     2
 12
144.2273710473552
 22
92.63739313986013
 13
0.0
 23
0.0
 14
10.0
 24
10.0
 15
10.0
 25
10.0
 16
0.0
 26
0.0
 36
1.0
 17
0.0
 27
0.0
 37
0.0
 42
50.0
 43
0.0
 44
0.0
 45
237.262888478563
 50
0.0
 51
0.0
 72
 20000
 90
    32768
  1

281
     0
 71
     1
 74
     0
110
0.0
120
0.0
130
0.0
111
1.0
121
0.0
131
0.0
112
0.0
122
1.0
132
0.0
 79
     0
146
0.0
  0
ENDSEC
  0
SECTION
  2
OBJECTS
  0
DICTIONARY
  5
C
330
0
100
AcDbDictionary
281
     1
  3
ACAD_CIP_PREVIOUS_PRODUCT_INFO
350
4E57
  3
ACAD_COLOR
350
4E3A
  3
ACAD_GROUP
350
D
  3
ACAD_LAYOUT
350
1A
  3
ACAD_MATERIAL
350
4E08
  3
ACAD_MLEADERSTYLE
350
4E4F
  3
ACAD_MLINESTYLE
350
17
  3
ACAD_PLOTSETTINGS
350
19
  3
ACAD_PLOTSTYLENAME
350
E
  3
ACAD_SCALELIST
350
4E3D
  3
ACAD_TABLESTYLE
350
4E3B
  3
ACAD_VISUALSTYLE
350
4E21
  3
AcadDim
350
389A
  3
ACDB_RECOMPOSE_DATA
350
A30A
  3
AcDbVariableDictionary
350
5AA
  3
DWGPROPS
350
A30B
  0
DICTIONARY
  5
5764
330
8
100
AcDbDictionary
280
     1
281
     1
  0
DICTIONARY
  5
322F
330
2
100
AcDbDictionary
280
     1
281
     1
  3
ACAD_LAYERFILTERS
360
40B9
  3
ACAD_LAYERSTATES
360
3230
  0
DICTIONARY
  5
4E60
330
10
100
AcDbDictionary
280
     1
281
     1
  3
ADSK_XREC_LAYER_RECONCILED
360
4E61
  0
DICTIONARY
  5
4E62
330
35
100
AcDbDictionary
280
     1
281
     1
  3
ADSK_XREC_LAYER_RECONCILED
360
4E63
  0
DICTIONARY
  5
4E6A
330
261
100
AcDbDictionary
280
     1
281
     1
  3
ADSK_XREC_LAYER_RECONCILED
360
4E6B
  0
DICTIONARY
  5
4E5B
330
1F
100
AcDbDictionary
280
     1
281
     1
  3
ACAD_SORTENTS
360
4E5C
  0
DICTIONARY
  5
A311
330
2835
100
AcDbDictionary
280
     1
281
     1
  3
ACAD_XREC_ROUNDTRIP
360
A312
  0
DICTIONARY
  5
A313
330
2837
100
AcDbDictionary
280
     1
281
     1
  3
ACAD_XREC_ROUNDTRIP
360
A314
  0
DICTIONARY
  5
6CF2
330
4CF4
100
AcDbDictionary
280
     1
281
     1
  3
AcDbContextDataManager
360
6CF3
  0
DICTIONARY
  5
A315
330
283B
100
AcDbDictionary
280
     1
281
     1
  3
ACAD_XREC_ROUNDTRIP
360
A316
  0
DICTIONARY
  5
A317
330
283D
100
AcDbDictionary
280
     1
281
     1
  3
ACAD_XREC_ROUNDTRIP
360
A318
  0
XRECORD
  5
4E57
102
{ACAD_REACTORS
330
C
102
}
330
C
100
AcDbXrecord
280
     1
300
ACDLT
300
2012
300
ACDLT_F_S
  0
DICTIONARY
  5
4E3A
102
{ACAD_REACTORS
330
C
102
}
330
C
100
AcDbDictionary
281
     1
  0
DICTIONARY
  5
D
102
{ACAD_REACTORS
330
C
102
}
330
C
100
AcDbDictionary
281
     1
  0
DICTIONARY
  5
1A
102
{ACAD_REACTORS
330
C
102
}
330
C
100
AcDbDictionary
281
     1
  3
Model
350
22
  3
ﾚｲｱｳﾄ1
350
1E
  3
ﾚｲｱｳﾄ2
350
26
  0
DICTIONARY
  5
4E08
102
{ACAD_REACTORS
330
C
102
}
330
C
100
AcDbDictionary
281
     1
  3
ByBlock
350
4E11
  3
ByLayer
350
4E09
  3
Global
350
4E19
  0
DICTIONARY
  5
4E4F
102
{ACAD_REACTORS
330
C
102
}
330
C
100
AcDbDictionary
281
     1
  3
Standard
350
4E50
  0
DICTIONARY
  5
17
102
{ACAD_REACTORS
330
C
102
}
330
C
100
AcDbDictionary
281
     1
  3
Standard
350
18
  0
DICTIONARY
  5
19
102
{ACAD_REACTORS
330
C
102
}
330
C
100
AcDbDictionary
281
     1
  0
ACDBDICTIONARYWDFLT
  5
E
102
{ACAD_REACTORS
330
C
102
}
330
C
100
AcDbDictionary
281
     1
  3
Normal
350
F
100
AcDbDictionaryWithDefault
340
F
  0
DICTIONARY
  5
4E3D
102
{ACAD_REACTORS
330
C
102
}
330
C
100
AcDbDictionary
281
     1
  3
A0
350
4E3E
  3
A1
350
4E3F
  3
A2
350
4E40
  3
A3
350
4E41
  3
A4
350
4E42
  3
A5
350
4E43
  3
A6
350
4E44
  3
A7
350
4E45
  3
A8
350
4E46
  3
A9
350
4E47
  3
B0
350
4E48
  3
B1
350
4E49
  3
B2
350
4E4A
  3
B3
350
4E4B
  3
B4
350
4E4C
  3
B5
350
4E4D
  3
B6
350
4E4E
  0
DICTIONARY
  5
4E3B
102
{ACAD_REACTORS
330
C
102
}
330
C
100
AcDbDictionary
281
     1
  3
Standard
350
4E3C
  0
DICTIONARY
  5
4E21
102
{ACAD_REACTORS
330
C
102
}
330
C
100
AcDbDictionary
281
     1
  3
2dWireframe
350
4E27
  3
Basic
350
4E26
  3
Brighten
350
4E2D
  3
ColorChange
350
4E31
  3
Conceptual
350
4E2A
  3
Dim
350
4E2C
  3
EdgeColorOff
350
4E39
  3
Facepattern
350
4E30
  3
Flat
350
4E22
  3
FlatWithEdges
350
4E23
  3
Gouraud
350
4E24
  3
GouraudWithEdges
350
4E25
  3
Hidden
350
4E29
  3
JitterOff
350
4E37
  3
Linepattern
350
4E2F
  3
OverhangOff
350
4E38
  3
Realistic
350
4E2B
  3
Shaded
350
4E36
  3
Shaded with edges
350
4E35
  3
Shades of Gray
350
4E32
  3
Sketchy
350
4E33
  3
Thicken
350
4E2E
  3
Wireframe
350
4E28
  3
X-Ray
350
4E34
  0
XRECORD
  5
389A
102
{ACAD_REACTORS
330
C
102
}
330
C
100
AcDbXrecord
280
     1
 90
   990106
  3

 60
     0
 61
     0
 62
     1
 63
     3
 64
     0
 65
     0
 66
     0
 67
     3
 68
     1
 69
     0
 70
     0
 71
     0
 72
     0
 40
0.0
170
     0
340
0
  0
XRECORD
  5
A30A
102
{ACAD_REACTORS
330
C
102
}
330
C
100
AcDbXrecord
280
     1
 90
        1
330
4E3C
  0
DICTIONARY
  5
5AA
102
{ACAD_REACTORS
330
C
102
}
330
C
100
AcDbDictionary
281
     1
  3
CANNOSCALE
350
57AC
  3
CMLEADERSTYLE
350
57AB
  3
CTABLESTYLE
350
57AA
  3
DIMASSOC
350
5AB
  3
EXPORTMODELSPACE
350
567B
  3
EXPORTPAGESETUP
350
567A
  3
INDEXCTL
350
57AE
  3
SORTENTS
350
57AD
  3
XCLIPFRAME
350
A2C1
  0
XRECORD
  5
A30B
102
{ACAD_REACTORS
330
C
102
}
330
C
100
AcDbXrecord
280
     1
  1
DWGPROPS COOKIE
  2

  3

  4

  6

  7

  8
okubom
  9

300
=
301
=
302
=
303
=
304
=
305
=
306
=
307
=
308
=
309
=
 40
1.061318437499999
 41
2452626.479274549
 42
2456499.403617223
  1

 90
        0
  0
DICTIONARY
  5
40B9
102
{ACAD_REACTORS
330
322F
102
}
330
322F
100
AcDbDictionary
280
     1
281
     1
  0
DICTIONARY
  5
3230
102
{ACAD_REACTORS
330
322F
102
}
330
322F
100
AcDbDictionary
281
     1
  0
XRECORD
  5
4E61
102
{ACAD_REACTORS
330
4E60
102
}
330
4E60
100
AcDbXrecord
280
     1
290
     1
  0
XRECORD
  5
4E63
102
{ACAD_REACTORS
330
4E62
102
}
330
4E62
100
AcDbXrecord
280
     1
290
     1
  0
XRECORD
  5
4E6B
102
{ACAD_REACTORS
330
4E6A
102
}
330
4E6A
100
AcDbXrecord
280
     1
290
     1
  0
SORTENTSTABLE
  5
4E5C
102
{ACAD_REACTORS
330
4E5B
102
}
330
4E5B
100
AcDbSortentsTable
330
1F
331
4CF3
  5
4CF3
331
4CF4
  5
4CF4
  0
XRECORD
  5
A312
102
{ACAD_REACTORS
330
A311
102
}
330
A311
100
AcDbXrecord
280
     1
102
SHADEPLOT
 70
     0
  0
XRECORD
  5
A314
102
{ACAD_REACTORS
330
A313
102
}
330
A313
100
AcDbXrecord
280
     1
102
SHADEPLOT
 70
     0
  0
DICTIONARY
  5
6CF3
102
{ACAD_REACTORS
330
6CF2
102
}
330
6CF2
100
AcDbDictionary
281
     1
  3
ACDB_ANNOTATIONSCALES
350
6CF4
  0
XRECORD
  5
A316
102
{ACAD_REACTORS
330
A315
102
}
330
A315
100
AcDbXrecord
280
     1
102
SHADEPLOT
 70
     0
  0
XRECORD
  5
A318
102
{ACAD_REACTORS
330
A317
102
}
330
A317
100
AcDbXrecord
280
     1
102
SHADEPLOT
 70
     0
  0
LAYOUT
  5
22
102
{ACAD_XDICTIONARY
360
5677
102
}
102
{ACAD_REACTORS
330
1A
102
}
330
1A
100
AcDbPlotSettings
  1

  2
\\HJA-ISS\HP LaserJet 8150 PCL 6
  4
A3
  6

 40
4.233333110809326
 41
4.233341693878172
 42
4.23333740234375
 43
4.23333740234375
 44
296.9259948730469
 45
419.8619995117186
 46
0.0
 47
0.0
 48
0.0
 49
0.0
140
411.3999999999998
141
288.46
142
1.0
143
1.000011374909414
 70
 11952
 72
     1
 73
     1
 74
     4
  7
pdf.ctb
 75
     0
147
0.9999886252199727
148
0.0
149
0.0
100
AcDbLayout
  1
Model
 70
     1
 71
     0
 10
0.0
 20
0.0
 11
12.0
 21
9.0
 12
0.0
 22
0.0
 32
0.0
 14
0.0
 24
0.0
 34
0.0
 15
0.0
 25
0.0
 35
0.0
146
0.0
 13
0.0
 23
0.0
 33
0.0
 16
1.0
 26
0.0
 36
0.0
 17
0.0
 27
1.0
 37
0.0
 76
     0
330
1F
331
4E06
  0
LAYOUT
  5
1E
102
{ACAD_XDICTIONARY
360
A30C
102
}
102
{ACAD_REACTORS
330
1A
102
}
330
1A
100
AcDbPlotSettings
  1

  2
\\HJA-ISS\HP LaserJet 8150 PCL 6
  4
A4
  6

 40
4.233333110809326
 41
4.233341693878172
 42
4.233322143554686
 43
4.23333740234375
 44
209.9733276367186
 45
296.9259948730469
 46
0.0
 47
0.0
 48
49.94588226953315
 49
38.8311605353754
140
240.1884225297883
141
167.9243128548342
142
1.0
143
0.6595125546489263
 70
   688
 72
     1
 73
     1
 74
     4
  7
pdf.ctb
 75
     0
147
1.516271362767799
148
-49.94588226953315
149
-38.8311605353754
100
AcDbLayout
  1
ﾚｲｱｳﾄ1
 70
     1
 71
     1
 10
47.15394310462257
 20
36.03922420078566
 11
242.9803645250197
 21
174.519269918614
 12
0.0
 22
0.0
 32
0.0
 14
28.82629495675951
 24
20.13505625693949
 34
-0.0015258207003583
 15
259.6353157326059
 25
181.3786474074919
 35
0.0000000349246037
146
0.0
 13
0.0
 23
0.0
 33
0.0
 16
1.0
 26
0.0
 36
0.0
 17
0.0
 27
1.0
 37
0.0
 76
     0
330
1B
331
2835
  0
LAYOUT
  5
26
102
{ACAD_XDICTIONARY
360
A30F
102
}
102
{ACAD_REACTORS
330
1A
102
}
330
1A
100
AcDbPlotSettings
  1

  2
\\HJA-ISS\HP LaserJet 8150 PCL 6
  4
A4
  6

 40
4.233333110809326
 41
4.233341693878172
 42
4.233322143554686
 43
4.23333740234375
 44
209.9733276367186
 45
296.9259948730469
 46
0.0
 47
0.0
 48
0.0
 49
0.0
140
0.0
141
0.0
142
1.0
143
1.0
 70
   688
 72
     1
 73
     1
 74
     5
  7
pdf.ctb
 75
    16
147
1.0
148
0.0
149
0.0
100
AcDbLayout
  1
ﾚｲｱｳﾄ2
 70
     1
 71
     2
 10
-4.23333740234375
 20
-4.233333110809326
 11
292.6926574707031
 21
205.7399945259094
 12
0.0
 22
0.0
 32
0.0
 14
28.84593157768251
 24
20.15066723823549
 34
0.0
 15
259.6133841991425
 25
181.3560051441192
 35
0.0
146
0.0
 13
0.0
 23
0.0
 33
0.0
 16
1.0
 26
0.0
 36
0.0
 17
0.0
 27
1.0
 37
0.0
 76
     0
330
23
331
283B
  0
MATERIAL
  5
4E11
102
{ACAD_XDICTIONARY
360
4E12
102
}
102
{ACAD_REACTORS
330
4E08
102
}
330
4E08
100
AcDbMaterial
  1
ByBlock
 72
     0
 43
0.0008202099737533
 43
0.0
 43
0.0
 43
0.0
 43
0.0
 43
0.0008202099737533
 43
0.0
 43
0.0
 43
0.0
 43
0.0
 43
1.0
 43
0.0
 43
0.0
 43
0.0
 43
0.0
 43
1.0
 77
     0
 47
0.0008202099737533
 47
0.0
 47
0.0
 47
0.0
 47
0.0
 47
0.0008202099737533
 47
0.0
 47
0.0
 47
0.0
 47
0.0
 47
1.0
 47
0.0
 47
0.0
 47
0.0
 47
0.0
 47
1.0
171
     0
 49
0.0008202099737533
 49
0.0
 49
0.0
 49
0.0
 49
0.0
 49
0.0008202099737533
 49
0.0
 49
0.0
 49
0.0
 49
0.0
 49
1.0
 49
0.0
 49
0.0
 49
0.0
 49
0.0
 49
1.0
175
     0
142
0.0008202099737533
142
0.0
142
0.0
142
0.0
142
0.0
142
0.0008202099737533
142
0.0
142
0.0
142
0.0
142
0.0
142
1.0
142
0.0
142
0.0
142
0.0
142
0.0
142
1.0
179
     0
144
0.0008202099737533
144
0.0
144
0.0
144
0.0
144
0.0
144
0.0008202099737533
144
0.0
144
0.0
144
0.0
144
0.0
144
1.0
144
0.0
144
0.0
144
0.0
144
0.0
144
1.0
147
0.0008202099737533
147
0.0
147
0.0
147
0.0
147
0.0
147
0.0008202099737533
147
0.0
147
0.0
147
0.0
147
0.0
147
1.0
147
0.0
147
0.0
147
0.0
147
0.0
147
1.0
  0
MATERIAL
  5
4E09
102
{ACAD_XDICTIONARY
360
4E0A
102
}
102
{ACAD_REACTORS
330
4E08
102
}
330
4E08
100
AcDbMaterial
  1
ByLayer
 72
     0
 43
0.0008202099737533
 43
0.0
 43
0.0
 43
0.0
 43
0.0
 43
0.0008202099737533
 43
0.0
 43
0.0
 43
0.0
 43
0.0
 43
1.0
 43
0.0
 43
0.0
 43
0.0
 43
0.0
 43
1.0
 77
     0
 47
0.0008202099737533
 47
0.0
 47
0.0
 47
0.0
 47
0.0
 47
0.0008202099737533
 47
0.0
 47
0.0
 47
0.0
 47
0.0
 47
1.0
 47
0.0
 47
0.0
 47
0.0
 47
0.0
 47
1.0
171
     0
 49
0.0008202099737533
 49
0.0
 49
0.0
 49
0.0
 49
0.0
 49
0.0008202099737533
 49
0.0
 49
0.0
 49
0.0
 49
0.0
 49
1.0
 49
0.0
 49
0.0
 49
0.0
 49
0.0
 49
1.0
175
     0
142
0.0008202099737533
142
0.0
142
0.0
142
0.0
142
0.0
142
0.0008202099737533
142
0.0
142
0.0
142
0.0
142
0.0
142
1.0
142
0.0
142
0.0
142
0.0
142
0.0
142
1.0
179
     0
144
0.0008202099737533
144
0.0
144
0.0
144
0.0
144
0.0
144
0.0008202099737533
144
0.0
144
0.0
144
0.0
144
0.0
144
1.0
144
0.0
144
0.0
144
0.0
144
0.0
144
1.0
147
0.0008202099737533
147
0.0
147
0.0
147
0.0
147
0.0
147
0.0008202099737533
147
0.0
147
0.0
147
0.0
147
0.0
147
1.0
147
0.0
147
0.0
147
0.0
147
0.0
147
1.0
  0
MATERIAL
  5
4E19
102
{ACAD_XDICTIONARY
360
4E1A
102
}
102
{ACAD_REACTORS
330
4E08
102
}
330
4E08
100
AcDbMaterial
  1
Global
 72
     0
 43
0.0008202099737533
 43
0.0
 43
0.0
 43
0.0
 43
0.0
 43
0.0008202099737533
 43
0.0
 43
0.0
 43
0.0
 43
0.0
 43
1.0
 43
0.0
 43
0.0
 43
0.0
 43
0.0
 43
1.0
 77
     0
 47
0.0008202099737533
 47
0.0
 47
0.0
 47
0.0
 47
0.0
 47
0.0008202099737533
 47
0.0
 47
0.0
 47
0.0
 47
0.0
 47
1.0
 47
0.0
 47
0.0
 47
0.0
 47
0.0
 47
1.0
171
     0
 49
0.0008202099737533
 49
0.0
 49
0.0
 49
0.0
 49
0.0
 49
0.0008202099737533
 49
0.0
 49
0.0
 49
0.0
 49
0.0
 49
1.0
 49
0.0
 49
0.0
 49
0.0
 49
0.0
 49
1.0
175
     0
142
0.0008202099737533
142
0.0
142
0.0
142
0.0
142
0.0
142
0.0008202099737533
142
0.0
142
0.0
142
0.0
142
0.0
142
1.0
142
0.0
142
0.0
142
0.0
142
0.0
142
1.0
179
     0
144
0.0008202099737533
144
0.0
144
0.0
144
0.0
144
0.0
144
0.0008202099737533
144
0.0
144
0.0
144
0.0
144
0.0
144
1.0
144
0.0
144
0.0
144
0.0
144
0.0
144
1.0
147
0.0008202099737533
147
0.0
147
0.0
147
0.0
147
0.0
147
0.0008202099737533
147
0.0
147
0.0
147
0.0
147
0.0
147
1.0
147
0.0
147
0.0
147
0.0
147
0.0
147
1.0
  0
MLEADERSTYLE
  5
4E50
102
{ACAD_XDICTIONARY
360
A308
102
}
102
{ACAD_REACTORS
330
4E4F
102
}
330
4E4F
100
AcDbMLeaderStyle
170
     2
171
     1
172
     0
 90
        2
 40
0.0
 41
0.0
173
     1
 91
-1056964608
340
14
 92
       -2
290
     1
 42
2.0
291
     1
 43
0.36
  3
Standard
 44
4.0
300

342
11
174
     1
178
     6
175
     1
176
     0
 93
-1056964608
 45
4.0
292
     0
297
     0
 46
4.0
 94
-1056964608
 47
1.0
 49
1.0
140
1.0
293
     1
141
0.0
294
     1
177
     0
142
1.0
295
     0
296
     0
143
0.125
1001
ACAD_MLEADERVER
1070
     2
  0
MLINESTYLE
  5
18
102
{ACAD_REACTORS
330
17
102
}
330
17
100
AcDbMlineStyle
  2
STANDARD
 70
     0
  3

 62
   256
 51
90.0
 52
90.0
 71
     2
 49
0.5
 62
   256
  6
BYLAYER
 49
-0.5
 62
   256
  6
BYLAYER
  0
ACDBPLACEHOLDER
  5
F
102
{ACAD_REACTORS
330
E
102
}
330
E
  0
SCALE
  5
4E3E
102
{ACAD_REACTORS
330
4E3D
102
}
330
4E3D
100
AcDbScale
 70
     0
300
1:1
140
1.0
141
1.0
290
     1
  0
SCALE
  5
4E3F
102
{ACAD_REACTORS
330
4E3D
102
}
330
4E3D
100
AcDbScale
 70
     0
300
1:2
140
1.0
141
2.0
290
     0
  0
SCALE
  5
4E40
102
{ACAD_REACTORS
330
4E3D
102
}
330
4E3D
100
AcDbScale
 70
     0
300
1:4
140
1.0
141
4.0
290
     0
  0
SCALE
  5
4E41
102
{ACAD_REACTORS
330
4E3D
102
}
330
4E3D
100
AcDbScale
 70
     0
300
1:5
140
1.0
141
5.0
290
     0
  0
SCALE
  5
4E42
102
{ACAD_REACTORS
330
4E3D
102
}
330
4E3D
100
AcDbScale
 70
     0
300
1:8
140
1.0
141
8.0
290
     0
  0
SCALE
  5
4E43
102
{ACAD_REACTORS
330
4E3D
102
}
330
4E3D
100
AcDbScale
 70
     0
300
1:10
140
1.0
141
10.0
290
     0
  0
SCALE
  5
4E44
102
{ACAD_REACTORS
330
4E3D
102
}
330
4E3D
100
AcDbScale
 70
     0
300
1:16
140
1.0
141
16.0
290
     0
  0
SCALE
  5
4E45
102
{ACAD_REACTORS
330
4E3D
102
}
330
4E3D
100
AcDbScale
 70
     0
300
1:20
140
1.0
141
20.0
290
     0
  0
SCALE
  5
4E46
102
{ACAD_REACTORS
330
4E3D
102
}
330
4E3D
100
AcDbScale
 70
     0
300
1:30
140
1.0
141
30.0
290
     0
  0
SCALE
  5
4E47
102
{ACAD_REACTORS
330
4E3D
102
}
330
4E3D
100
AcDbScale
 70
     0
300
1:40
140
1.0
141
40.0
290
     0
  0
SCALE
  5
4E48
102
{ACAD_REACTORS
330
4E3D
102
}
330
4E3D
100
AcDbScale
 70
     0
300
1:50
140
1.0
141
50.0
290
     0
  0
SCALE
  5
4E49
102
{ACAD_REACTORS
330
4E3D
102
}
330
4E3D
100
AcDbScale
 70
     0
300
1:100
140
1.0
141
100.0
290
     0
  0
SCALE
  5
4E4A
102
{ACAD_REACTORS
330
4E3D
102
}
330
4E3D
100
AcDbScale
 70
     0
300
2:1
140
2.0
141
1.0
290
     0
  0
SCALE
  5
4E4B
102
{ACAD_REACTORS
330
4E3D
102
}
330
4E3D
100
AcDbScale
 70
     0
300
4:1
140
4.0
141
1.0
290
     0
  0
SCALE
  5
4E4C
102
{ACAD_REACTORS
330
4E3D
102
}
330
4E3D
100
AcDbScale
 70
     0
300
8:1
140
8.0
141
1.0
290
     0
  0
SCALE
  5
4E4D
102
{ACAD_REACTORS
330
4E3D
102
}
330
4E3D
100
AcDbScale
 70
     0
300
10:1
140
10.0
141
1.0
290
     0
  0
SCALE
  5
4E4E
102
{ACAD_REACTORS
330
4E3D
102
}
330
4E3D
100
AcDbScale
 70
     0
300
100:1
140
100.0
141
1.0
290
     0
  0
TABLESTYLE
  5
4E3C
102
{ACAD_XDICTIONARY
360
575E
102
}
102
{ACAD_REACTORS
330
4E3B
102
}
330
4E3B
100
AcDbTableStyle
  3
Standard
 70
     0
 71
     0
 40
1.5
 41
1.5
280
     0
281
     0
  7
Standard
140
4.5
170
     2
 62
     0
 63
     7
283
     0
274
    -2
284
     1
 64
     0
275
    -2
285
     1
 65
     0
276
    -2
286
     1
 66
     0
277
    -2
287
     1
 67
     0
278
    -2
288
     1
 68
     0
279
    -2
289
     1
 69
     0
  7
Standard
140
6.0
170
     5
 62
     0
 63
     7
283
     0
274
    -2
284
     1
 64
     0
275
    -2
285
     1
 65
     0
276
    -2
286
     1
 66
     0
277
    -2
287
     1
 67
     0
278
    -2
288
     1
 68
     0
279
    -2
289
     1
 69
     0
  7
Standard
140
4.5
170
     5
 62
     0
 63
     7
283
     0
274
    -2
284
     1
 64
     0
275
    -2
285
     1
 65
     0
276
    -2
286
     1
 66
     0
277
    -2
287
     1
 67
     0
278
    -2
288
     1
 68
     0
279
    -2
289
     1
 69
     0
  0
VISUALSTYLE
  5
4E27
102
{ACAD_XDICTIONARY
360
A323
102
}
102
{ACAD_REACTORS
330
4E21
102
}
330
4E21
100
AcDbVisualStyle
  2

 70
     4
 71
     0
 72
     2
 73
     0
 90
        0
 40
-0.6
 41
-30.0
 62
     5
 63
     7
 74
     1
 91
        4
 64
     7
 65
   257
 75
     1
175
     1
 42
1.0
 92
        0
 66
   257
 43
1.0
 76
     1
 77
     6
 78
     2
 67
     7
 79
     5
170
     0
171
     0
290
     0
174
     0
 93
        1
 44
0.0
173
     0
291
     0
 45
0.0
1001
ACAD
1000
AcDbSavedByObjectVersion
1070
     0
  0
VISUALSTYLE
  5
4E26
102
{ACAD_XDICTIONARY
360
A321
102
}
102
{ACAD_REACTORS
330
4E21
102
}
330
4E21
100
AcDbVisualStyle
  2

 70
     7
 71
     1
 72
     0
 73
     1
 90
        0
 40
-0.6
 41
-30.0
 62
     5
 63
     7
 74
     0
 91
        4
 64
     7
 65
   257
 75
     1
175
     1
 42
1.0
 92
        8
 66
     7
 43
1.0
 76
     1
 77
     6
 78
     2
 67
     7
 79
     5
170
     0
171
     0
290
     0
174
     0
 93
        1
 44
0.0
173
     0
291
     1
 45
0.0
1001
ACAD
1000
AcDbSavedByObjectVersion
1070
     0
  0
VISUALSTYLE
  5
4E2D
102
{ACAD_XDICTIONARY
360
A32F
102
}
102
{ACAD_REACTORS
330
4E21
102
}
330
4E21
100
AcDbVisualStyle
  2

 70
    12
 71
     2
 72
     2
 73
     0
 90
        0
 40
-0.6
 41
-30.0
 62
     5
 63
     7
 74
     1
 91
        4
 64
     7
 65
   257
 75
     1
175
     1
 42
1.0
 92
        8
 66
     7
 43
1.0
 76
     1
 77
     6
 78
     2
 67
     7
 79
     5
170
     0
171
     0
290
     0
174
     0
 93
        1
 44
50.0
173
     0
291
     1
 45
0.0
1001
ACAD
1000
AcDbSavedByObjectVersion
1070
     0
  0
VISUALSTYLE
  5
4E31
102
{ACAD_XDICTIONARY
360
A337
102
}
102
{ACAD_REACTORS
330
4E21
102
}
330
4E21
100
AcDbVisualStyle
  2

 70
    16
 71
     2
 72
     2
 73
     3
 90
        0
 40
-0.6
 41
-30.0
 62
     5
 63
     8
 74
     1
 91
        4
 64
     7
 65
   257
 75
     1
175
     1
 42
1.0
 92
        8
 66
     8
 43
1.0
 76
     1
 77
     6
 78
     2
 67
     7
 79
     5
170
     0
171
     0
290
     0
174
     0
 93
        1
 44
0.0
173
     0
291
     1
 45
0.0
1001
ACAD
1000
AcDbSavedByObjectVersion
1070
     0
  0
VISUALSTYLE
  5
4E2A
102
{ACAD_XDICTIONARY
360
A329
102
}
102
{ACAD_REACTORS
330
4E21
102
}
330
4E21
100
AcDbVisualStyle
  2

 70
     9
 71
     3
 72
     2
 73
     0
 90
        0
 40
-0.6
 41
-30.0
 62
     5
 63
     7
 74
     2
 91
        2
 64
     7
 65
   257
 75
     1
175
     1
 42
179.0
 92
        8
 66
     7
 43
1.0
 76
     1
 77
     6
 78
     2
 67
     7
 79
     3
170
     0
171
     0
290
     0
174
     0
 93
        1
 44
0.0
173
     0
291
     0
 45
0.0
1001
ACAD
1000
AcDbSavedByObjectVersion
1070
     0
  0
VISUALSTYLE
  5
4E2C
102
{ACAD_XDICTIONARY
360
A32D
102
}
102
{ACAD_REACTORS
330
4E21
102
}
330
4E21
100
AcDbVisualStyle
  2

 70
    11
 71
     2
 72
     2
 73
     0
 90
        0
 40
-0.6
 41
-30.0
 62
     5
 63
     7
 74
     1
 91
        4
 64
     7
 65
   257
 75
     1
175
     1
 42
1.0
 92
        8
 66
     7
 43
1.0
 76
     1
 77
     6
 78
     2
 67
     7
 79
     5
170
     0
171
     0
290
     0
174
     0
 93
        1
 44
-50.0
173
     0
291
     1
 45
0.0
1001
ACAD
1000
AcDbSavedByObjectVersion
1070
     0
  0
VISUALSTYLE
  5
4E39
102
{ACAD_XDICTIONARY
360
A347
102
}
102
{ACAD_REACTORS
330
4E21
102
}
330
4E21
100
AcDbVisualStyle
  2

 70
    22
 71
     2
 72
     2
 73
     0
 90
        0
 40
-0.6
 41
-30.0
 62
     5
 63
     7
 74
     1
 91
        4
 64
     7
 65
   257
 75
     1
175
     1
 42
1.0
 92
        8
 66
     7
 43
1.0
 76
     1
 77
     6
 78
     2
 67
     7
 79
     5
170
     0
171
     0
290
     0
174
     0
 93
        1
 44
0.0
173
     0
291
     1
 45
0.0
1001
ACAD
1000
AcDbSavedByObjectVersion
1070
     0
  0
VISUALSTYLE
  5
4E30
102
{ACAD_XDICTIONARY
360
A335
102
}
102
{ACAD_REACTORS
330
4E21
102
}
330
4E21
100
AcDbVisualStyle
  2

 70
    15
 71
     2
 72
     2
 73
     0
 90
        0
 40
-0.6
 41
-30.0
 62
     5
 63
     7
 74
     1
 91
        4
 64
     7
 65
   257
 75
     1
175
     1
 42
1.0
 92
        8
 66
     7
 43
1.0
 76
     1
 77
     6
 78
     2
 67
     7
 79
     5
170
     0
171
     0
290
     0
174
     0
 93
        1
 44
0.0
173
     0
291
     1
 45
0.0
1001
ACAD
1000
AcDbSavedByObjectVersion
1070
     0
  0
VISUALSTYLE
  5
4E22
102
{ACAD_XDICTIONARY
360
A319
102
}
102
{ACAD_REACTORS
330
4E21
102
}
330
4E21
100
AcDbVisualStyle
  2

 70
     0
 71
     2
 72
     1
 73
     1
 90
        2
 40
-0.6
 41
30.0
 62
     5
 63
     7
 74
     0
 91
        0
 64
     7
 65
   257
 75
     1
175
     1
 42
1.0
 92
        8
 66
     7
 43
1.0
 76
     1
 77
     6
 78
     2
 67
     7
 79
     5
170
     0
171
     0
290
     0
174
     0
 93
       13
 44
0.0
173
     0
291
     1
 45
0.0
1001
ACAD
1000
AcDbSavedByObjectVersion
1070
     0
  0
VISUALSTYLE
  5
4E23
102
{ACAD_XDICTIONARY
360
A31B
102
}
102
{ACAD_REACTORS
330
4E21
102
}
330
4E21
100
AcDbVisualStyle
  2

 70
     1
 71
     2
 72
     1
 73
     1
 90
        2
 40
-0.6
 41
30.0
 62
     5
 63
     7
 74
     1
 91
        0
 64
     7
 65
   257
 75
     1
175
     1
 42
1.0
 92
        0
 66
   257
 43
1.0
 76
     1
 77
     6
 78
     2
 67
     7
 79
     5
170
     0
171
     0
290
     0
174
     0
 93
       13
 44
0.0
173
     0
291
     1
 45
0.0
1001
ACAD
1000
AcDbSavedByObjectVersion
1070
     0
  0
VISUALSTYLE
  5
4E24
102
{ACAD_XDICTIONARY
360
A31D
102
}
102
{ACAD_REACTORS
330
4E21
102
}
330
4E21
100
AcDbVisualStyle
  2

 70
     2
 71
     2
 72
     2
 73
     1
 90
        2
 40
-0.6
 41
30.0
 62
     5
 63
     7
 74
     0
 91
        0
 64
     7
 65
   257
 75
     1
175
     1
 42
1.0
 92
        0
 66
     7
 43
1.0
 76
     1
 77
     6
 78
     2
 67
     7
 79
     5
170
     0
171
     0
290
     0
174
     0
 93
       13
 44
0.0
173
     0
291
     1
 45
0.0
1001
ACAD
1000
AcDbSavedByObjectVersion
1070
     0
  0
VISUALSTYLE
  5
4E25
102
{ACAD_XDICTIONARY
360
A31F
102
}
102
{ACAD_REACTORS
330
4E21
102
}
330
4E21
100
AcDbVisualStyle
  2

 70
     3
 71
     2
 72
     2
 73
     1
 90
        2
 40
-0.6
 41
30.0
 62
     5
 63
     7
 74
     1
 91
        0
 64
     7
 65
   257
 75
     1
175
     1
 42
1.0
 92
        0
 66
   257
 43
1.0
 76
     1
 77
     6
 78
     2
 67
     7
 79
     5
170
     0
171
     0
290
     0
174
     0
 93
       13
 44
0.0
173
     0
291
     1
 45
0.0
1001
ACAD
1000
AcDbSavedByObjectVersion
1070
     0
  0
VISUALSTYLE
  5
4E29
102
{ACAD_XDICTIONARY
360
A327
102
}
102
{ACAD_REACTORS
330
4E21
102
}
330
4E21
100
AcDbVisualStyle
  2

 70
     6
 71
     1
 72
     2
 73
     2
 90
        0
 40
-0.6
 41
-30.0
 62
     5
 63
     7
 74
     2
 91
        2
 64
     7
 65
   257
 75
     2
175
     1
 42
40.0
 92
        0
 66
   257
 43
1.0
 76
     1
 77
     6
 78
     2
 67
     7
 79
     3
170
     0
171
     0
290
     0
174
     0
 93
        1
 44
0.0
173
     0
291
     0
 45
0.0
1001
ACAD
1000
AcDbSavedByObjectVersion
1070
     0
  0
VISUALSTYLE
  5
4E37
102
{ACAD_XDICTIONARY
360
A343
102
}
102
{ACAD_REACTORS
330
4E21
102
}
330
4E21
100
AcDbVisualStyle
  2

 70
    20
 71
     2
 72
     2
 73
     0
 90
        0
 40
-0.6
 41
-30.0
 62
     5
 63
     7
 74
     1
 91
        4
 64
     7
 65
   257
 75
     1
175
     1
 42
1.0
 92
       10
 66
     7
 43
1.0
 76
     1
 77
     6
 78
     2
 67
     7
 79
     5
170
     0
171
     0
290
     0
174
     0
 93
        1
 44
0.0
173
     0
291
     1
 45
0.0
1001
ACAD
1000
AcDbSavedByObjectVersion
1070
     0
  0
VISUALSTYLE
  5
4E2F
102
{ACAD_XDICTIONARY
360
A333
102
}
102
{ACAD_REACTORS
330
4E21
102
}
330
4E21
100
AcDbVisualStyle
  2

 70
    14
 71
     2
 72
     2
 73
     0
 90
        0
 40
-0.6
 41
-30.0
 62
     5
 63
     7
 74
     1
 91
        4
 64
     7
 65
   257
 75
     7
175
     7
 42
1.0
 92
        8
 66
     7
 43
1.0
 76
     1
 77
     6
 78
     2
 67
     7
 79
     5
170
     0
171
     0
290
     0
174
     0
 93
        1
 44
0.0
173
     0
291
     1
 45
0.0
1001
ACAD
1000
AcDbSavedByObjectVersion
1070
     0
  0
VISUALSTYLE
  5
4E38
102
{ACAD_XDICTIONARY
360
A345
102
}
102
{ACAD_REACTORS
330
4E21
102
}
330
4E21
100
AcDbVisualStyle
  2

 70
    21
 71
     2
 72
     2
 73
     0
 90
        0
 40
-0.6
 41
-30.0
 62
     5
 63
     7
 74
     1
 91
        4
 64
     7
 65
   257
 75
     1
175
     1
 42
1.0
 92
        9
 66
     7
 43
1.0
 76
     1
 77
     6
 78
     2
 67
     7
 79
     5
170
     0
171
     0
290
     0
174
     0
 93
        1
 44
0.0
173
     0
291
     1
 45
0.0
1001
ACAD
1000
AcDbSavedByObjectVersion
1070
     0
  0
VISUALSTYLE
  5
4E2B
102
{ACAD_XDICTIONARY
360
A32B
102
}
102
{ACAD_REACTORS
330
4E21
102
}
330
4E21
100
AcDbVisualStyle
  2

 70
     8
 71
     2
 72
     2
 73
     0
 90
        2
 40
-0.6
 41
30.0
 62
     5
 63
     7
 74
     0
 91
        0
 64
     7
 65
   257
 75
     1
175
     1
 42
1.0
 92
        8
 66
   257
 43
1.0
 76
     1
 77
     6
 78
     2
 67
     7
 79
     3
170
     0
171
     0
290
     0
174
     0
 93
       13
 44
0.0
173
     0
291
     0
 45
0.0
1001
ACAD
1000
AcDbSavedByObjectVersion
1070
     0
  0
VISUALSTYLE
  5
4E36
102
{ACAD_XDICTIONARY
360
A341
102
}
102
{ACAD_REACTORS
330
4E21
102
}
330
4E21
100
AcDbVisualStyle
  2

 70
    27
 71
     2
 72
     2
 73
     1
 90
        2
 40
-0.6
 41
30.0
 62
     5
 63
     7
 74
     0
 91
        4
 64
     7
 65
   257
 75
     1
175
     1
 42
1.0
 92
        8
 66
   257
 43
1.0
 76
     1
 77
     6
 78
     2
 67
     8
 79
     3
170
     0
171
     0
290
     0
174
     0
 93
        5
 44
0.0
173
     0
291
     0
 45
0.0
1001
ACAD
1000
AcDbSavedByObjectVersion
1070
     0
  0
VISUALSTYLE
  5
4E35
102
{ACAD_XDICTIONARY
360
A33F
102
}
102
{ACAD_REACTORS
330
4E21
102
}
330
4E21
100
AcDbVisualStyle
  2

 70
    26
 71
     2
 72
     2
 73
     1
 90
        2
 40
-0.6
 41
30.0
 62
     5
 63
     7
 74
     1
 91
       10
 64
     7
 65
   257
 75
     2
175
     1
 42
1.0
 92
        8
 66
   257
 43
1.0
 76
     1
 77
     6
 78
     2
 67
     7
 79
     3
170
     0
171
     0
290
     0
174
     0
 93
        5
 44
0.0
173
     0
291
     0
 45
0.0
1001
ACAD
1000
AcDbSavedByObjectVersion
1070
     0
  0
VISUALSTYLE
  5
4E32
102
{ACAD_XDICTIONARY
360
A339
102
}
102
{ACAD_REACTORS
330
4E21
102
}
330
4E21
100
AcDbVisualStyle
  2

 70
    23
 71
     2
 72
     2
 73
     3
 90
        0
 40
-0.6
 41
-30.0
 62
     5
 63
     7
 74
     2
 91
        2
 64
     7
 65
     7
 75
     1
175
     1
 42
40.0
 92
        8
 66
     7
 43
1.0
 76
     1
 77
     6
 78
     2
 67
     7
 79
     3
170
     0
171
     0
290
     0
174
     0
 93
        1
 44
0.0
173
     0
291
     0
 45
0.0
1001
ACAD
1000
AcDbSavedByObjectVersion
1070
     0
  0
VISUALSTYLE
  5
4E33
102
{ACAD_XDICTIONARY
360
A33B
102
}
102
{ACAD_REACTORS
330
4E21
102
}
330
4E21
100
AcDbVisualStyle
  2

 70
    24
 71
     1
 72
     2
 73
     2
 90
        0
 40
-0.6
 41
-30.0
 62
     5
 63
     7
 74
     2
 91
        2
 64
     7
 65
     7
 75
     1
175
     1
 42
40.0
 92
       11
 66
     7
 43
1.0
 76
     1
 77
     6
 78
     2
 67
     7
 79
     6
170
     0
171
     0
290
     0
174
     0
 93
        1
 44
0.0
173
     0
291
     0
 45
0.0
1001
ACAD
1000
AcDbSavedByObjectVersion
1070
     0
  0
VISUALSTYLE
  5
4E2E
102
{ACAD_XDICTIONARY
360
A331
102
}
102
{ACAD_REACTORS
330
4E21
102
}
330
4E21
100
AcDbVisualStyle
  2

 70
    13
 71
     2
 72
     2
 73
     0
 90
        0
 40
-0.6
 41
-30.0
 62
     5
 63
     7
 74
     1
 91
        4
 64
     7
 65
   257
 75
     1
175
     1
 42
1.0
 92
       12
 66
     7
 43
1.0
 76
     1
 77
     6
 78
     2
 67
     7
 79
     5
170
     0
171
     0
290
     0
174
     0
 93
        1
 44
0.0
173
     0
291
     1
 45
0.0
1001
ACAD
1000
AcDbSavedByObjectVersion
1070
     0
  0
VISUALSTYLE
  5
4E28
102
{ACAD_XDICTIONARY
360
A325
102
}
102
{ACAD_REACTORS
330
4E21
102
}
330
4E21
100
AcDbVisualStyle
  2

 70
     5
 71
     0
 72
     2
 73
     0
 90
        0
 40
-0.6
 41
-30.0
 62
     5
 63
     7
 74
     1
 91
        4
 64
     7
 65
   257
 75
     1
175
     1
 42
1.0
 92
        0
 66
   257
 43
1.0
 76
     1
 77
     6
 78
     2
 67
     7
 79
     3
170
     0
171
     0
290
     0
174
     0
 93
        1
 44
0.0
173
     0
291
     0
 45
0.0
1001
ACAD
1000
AcDbSavedByObjectVersion
1070
     0
  0
VISUALSTYLE
  5
4E34
102
{ACAD_XDICTIONARY
360
A33D
102
}
102
{ACAD_REACTORS
330
4E21
102
}
330
4E21
100
AcDbVisualStyle
  2

 70
    25
 71
     2
 72
     2
 73
     1
 90
        1
 40
0.5
 41
-30.0
 62
     5
 63
     7
 74
     1
 91
        0
 64
     7
 65
   257
 75
     1
175
     1
 42
1.0
 92
        8
 66
     7
 43
1.0
 76
     1
 77
     6
 78
     2
 67
     7
 79
     3
170
     0
171
     0
290
     0
174
     0
 93
       13
 44
0.0
173
     0
291
     0
 45
0.0
1001
ACAD
1000
AcDbSavedByObjectVersion
1070
     0
  0
DICTIONARYVAR
  5
57AC
102
{ACAD_REACTORS
330
5AA
102
}
330
5AA
100
DictionaryVariables
280
     0
  1
1:2
  0
DICTIONARYVAR
  5
57AB
102
{ACAD_REACTORS
330
5AA
102
}
330
5AA
100
DictionaryVariables
280
     0
  1
STANDARD
  0
DICTIONARYVAR
  5
57AA
102
{ACAD_REACTORS
330
5AA
102
}
330
5AA
100
DictionaryVariables
280
     0
  1
STANDARD
  0
DICTIONARYVAR
  5
5AB
102
{ACAD_REACTORS
330
5AA
102
}
330
5AA
100
DictionaryVariables
280
     0
  1
1
  0
DICTIONARYVAR
  5
567B
102
{ACAD_REACTORS
330
5AA
102
}
330
5AA
100
DictionaryVariables
280
     0
  1
2
  0
DICTIONARYVAR
  5
567A
102
{ACAD_REACTORS
330
5AA
102
}
330
5AA
100
DictionaryVariables
280
     0
  1
1
  0
DICTIONARYVAR
  5
57AE
102
{ACAD_REACTORS
330
5AA
102
}
330
5AA
100
DictionaryVariables
280
     0
  1
0
  0
DICTIONARYVAR
  5
57AD
102
{ACAD_REACTORS
330
5AA
102
}
330
5AA
100
DictionaryVariables
280
     0
  1
127
  0
DICTIONARYVAR
  5
A2C1
102
{ACAD_REACTORS
330
5AA
102
}
330
5AA
100
DictionaryVariables
280
     0
  1
2
  0
DICTIONARY
  5
6CF4
102
{ACAD_REACTORS
330
6CF3
102
}
330
6CF3
100
AcDbDictionary
281
     1
  0
DICTIONARY
  5
5677
330
22
100
AcDbDictionary
280
     1
281
     1
  3
ACAD_XREC_ROUNDTRIP
360
A30E
  3
AcPublish_PlotSettingsOverride
360
5678
  0
DICTIONARY
  5
A30C
330
1E
100
AcDbDictionary
280
     1
281
     1
  3
ACAD_XREC_ROUNDTRIP
360
A30D
  0
DICTIONARY
  5
A30F
330
26
100
AcDbDictionary
280
     1
281
     1
  3
ACAD_XREC_ROUNDTRIP
360
A310
  0
DICTIONARY
  5
4E12
330
4E11
100
AcDbDictionary
280
     1
281
     1
  3
ACAD_XREC_ROUNDTRIP
360
A259
  3
BUMPTILE
360
4E14
  3
DIFFUSETILE
360
4E13
  3
OPACITYTILE
360
4E17
  3
REFLECTIONTILE
360
4E16
  3
REFRACTIONTILE
360
4E18
  3
SPECULARTILE
360
4E15
  0
DICTIONARY
  5
4E0A
330
4E09
100
AcDbDictionary
280
     1
281
     1
  3
ACAD_XREC_ROUNDTRIP
360
A258
  3
BUMPTILE
360
4E0C
  3
DIFFUSETILE
360
4E0B
  3
OPACITYTILE
360
4E0F
  3
REFLECTIONTILE
360
4E0E
  3
REFRACTIONTILE
360
4E10
  3
SPECULARTILE
360
4E0D
  0
DICTIONARY
  5
4E1A
330
4E19
100
AcDbDictionary
280
     1
281
     1
  3
ACAD_XREC_ROUNDTRIP
360
A25A
  3
BUMPTILE
360
4E1C
  3
DIFFUSETILE
360
4E1B
  3
OPACITYTILE
360
4E1F
  3
REFLECTIONTILE
360
4E1E
  3
REFRACTIONTILE
360
4E20
  3
SPECULARTILE
360
4E1D
  0
DICTIONARY
  5
A308
330
4E50
100
AcDbDictionary
280
     1
281
     1
  3
ACAD_XREC_ROUNDTRIP
360
A309
  0
DICTIONARY
  5
575E
330
4E3C
100
AcDbDictionary
280
     1
281
     1
  3
ACAD_ROUNDTRIP_2008_TABLESTYLE_CELLSTYLEMAP
360
A307
  3
ACAD_XREC_ROUNDTRIP
360
A349
  0
DICTIONARY
  5
A323
330
4E27
100
AcDbDictionary
280
     1
281
     1
  3
ACAD_XREC_ROUNDTRIP
360
A324
  0
DICTIONARY
  5
A321
330
4E26
100
AcDbDictionary
280
     1
281
     1
  3
ACAD_XREC_ROUNDTRIP
360
A322
  0
DICTIONARY
  5
A32F
330
4E2D
100
AcDbDictionary
280
     1
281
     1
  3
ACAD_XREC_ROUNDTRIP
360
A330
  0
DICTIONARY
  5
A337
330
4E31
100
AcDbDictionary
280
     1
281
     1
  3
ACAD_XREC_ROUNDTRIP
360
A338
  0
DICTIONARY
  5
A329
330
4E2A
100
AcDbDictionary
280
     1
281
     1
  3
ACAD_XREC_ROUNDTRIP
360
A32A
  0
DICTIONARY
  5
A32D
330
4E2C
100
AcDbDictionary
280
     1
281
     1
  3
ACAD_XREC_ROUNDTRIP
360
A32E
  0
DICTIONARY
  5
A347
330
4E39
100
AcDbDictionary
280
     1
281
     1
  3
ACAD_XREC_ROUNDTRIP
360
A348
  0
DICTIONARY
  5
A335
330
4E30
100
AcDbDictionary
280
     1
281
     1
  3
ACAD_XREC_ROUNDTRIP
360
A336
  0
DICTIONARY
  5
A319
330
4E22
100
AcDbDictionary
280
     1
281
     1
  3
ACAD_XREC_ROUNDTRIP
360
A31A
  0
DICTIONARY
  5
A31B
330
4E23
100
AcDbDictionary
280
     1
281
     1
  3
ACAD_XREC_ROUNDTRIP
360
A31C
  0
DICTIONARY
  5
A31D
330
4E24
100
AcDbDictionary
280
     1
281
     1
  3
ACAD_XREC_ROUNDTRIP
360
A31E
  0
DICTIONARY
  5
A31F
330
4E25
100
AcDbDictionary
280
     1
281
     1
  3
ACAD_XREC_ROUNDTRIP
360
A320
  0
DICTIONARY
  5
A327
330
4E29
100
AcDbDictionary
280
     1
281
     1
  3
ACAD_XREC_ROUNDTRIP
360
A328
  0
DICTIONARY
  5
A343
330
4E37
100
AcDbDictionary
280
     1
281
     1
  3
ACAD_XREC_ROUNDTRIP
360
A344
  0
DICTIONARY
  5
A333
330
4E2F
100
AcDbDictionary
280
     1
281
     1
  3
ACAD_XREC_ROUNDTRIP
360
A334
  0
DICTIONARY
  5
A345
330
4E38
100
AcDbDictionary
280
     1
281
     1
  3
ACAD_XREC_ROUNDTRIP
360
A346
  0
DICTIONARY
  5
A32B
330
4E2B
100
AcDbDictionary
280
     1
281
     1
  3
ACAD_XREC_ROUNDTRIP
360
A32C
  0
DICTIONARY
  5
A341
330
4E36
100
AcDbDictionary
280
     1
281
     1
  3
ACAD_XREC_ROUNDTRIP
360
A342
  0
DICTIONARY
  5
A33F
330
4E35
100
AcDbDictionary
280
     1
281
     1
  3
ACAD_XREC_ROUNDTRIP
360
A340
  0
DICTIONARY
  5
A339
330
4E32
100
AcDbDictionary
280
     1
281
     1
  3
ACAD_XREC_ROUNDTRIP
360
A33A
  0
DICTIONARY
  5
A33B
330
4E33
100
AcDbDictionary
280
     1
281
     1
  3
ACAD_XREC_ROUNDTRIP
360
A33C
  0
DICTIONARY
  5
A331
330
4E2E
100
AcDbDictionary
280
     1
281
     1
  3
ACAD_XREC_ROUNDTRIP
360
A332
  0
DICTIONARY
  5
A325
330
4E28
100
AcDbDictionary
280
     1
281
     1
  3
ACAD_XREC_ROUNDTRIP
360
A326
  0
DICTIONARY
  5
A33D
330
4E34
100
AcDbDictionary
280
     1
281
     1
  3
ACAD_XREC_ROUNDTRIP
360
A33E
  0
XRECORD
  5
A30E
102
{ACAD_REACTORS
330
5677
102
}
330
5677
100
AcDbXrecord
280
     1
102
SHADEPLOT
 70
     0
102
SHADEPLOTRESLEVEL
 70
     2
102
SHADEPLOTCUSTOMDPI
 70
   300
  0
PLOTSETTINGS
  5
5678
102
{ACAD_XDICTIONARY
360
A34A
102
}
102
{ACAD_REACTORS
330
5677
102
}
330
5677
100
AcDbPlotSettings
  1

  2
DWG To PDF.pc3
  4
ISO_A3_(420.00_x_297.00_MM)
  6

 40
5.793749809265136
 41
17.79375076293945
 42
5.79376220703125
 43
17.79376220703125
 44
420.0
 45
297.0
 46
0.0
 47
0.0
 48
6.055212148281157
 49
6.055212148280475
140
406.0552121482804
141
283.0552121482805
142
1.0
143
1.0
 70
 11936
 72
     1
 73
     0
 74
     4
  7
pdf.ctb
 75
     0
147
0.9684309382199892
148
-6.055212148281157
149
-6.055212148280475
1001
ACAD_PSEXT
1000
DWG To PDF.pc3
1000
DWG To PDF
1000
ファイル
1000

1070
     0
  0
XRECORD
  5
A30D
102
{ACAD_REACTORS
330
A30C
102
}
330
A30C
100
AcDbXrecord
280
     1
102
SHADEPLOT
 70
     0
102
SHADEPLOTRESLEVEL
 70
     2
102
SHADEPLOTCUSTOMDPI
 70
   300
  0
XRECORD
  5
A310
102
{ACAD_REACTORS
330
A30F
102
}
330
A30F
100
AcDbXrecord
280
     1
102
SHADEPLOT
 70
     0
102
SHADEPLOTRESLEVEL
 70
     2
102
SHADEPLOTCUSTOMDPI
 70
   300
  0
XRECORD
  5
A259
102
{ACAD_REACTORS
330
4E12
102
}
330
4E12
100
AcDbXrecord
280
     1
102
MATERIAL
148
0.0
149
0.0
149
0.0
 93
        0
 94
      127
282
     0
 72
     0
 77
     0
171
     0
175
     0
179
     0
273
     0
  0
XRECORD
  5
4E14
102
{ACAD_REACTORS
330
4E12
102
}
330
4E12
100
AcDbXrecord
280
     1
270
     1
271
     1
  0
XRECORD
  5
4E13
102
{ACAD_REACTORS
330
4E12
102
}
330
4E12
100
AcDbXrecord
280
     1
270
     1
271
     1
  0
XRECORD
  5
4E17
102
{ACAD_REACTORS
330
4E12
102
}
330
4E12
100
AcDbXrecord
280
     1
270
     1
271
     1
  0
XRECORD
  5
4E16
102
{ACAD_REACTORS
330
4E12
102
}
330
4E12
100
AcDbXrecord
280
     1
270
     1
271
     1
  0
XRECORD
  5
4E18
102
{ACAD_REACTORS
330
4E12
102
}
330
4E12
100
AcDbXrecord
280
     1
270
     1
271
     1
  0
XRECORD
  5
4E15
102
{ACAD_REACTORS
330
4E12
102
}
330
4E12
100
AcDbXrecord
280
     1
270
     1
271
     1
  0
XRECORD
  5
A258
102
{ACAD_REACTORS
330
4E0A
102
}
330
4E0A
100
AcDbXrecord
280
     1
102
MATERIAL
148
0.0
149
0.0
149
0.0
 93
        0
 94
      127
282
     0
 72
     0
 77
     0
171
     0
175
     0
179
     0
273
     0
  0
XRECORD
  5
4E0C
102
{ACAD_REACTORS
330
4E0A
102
}
330
4E0A
100
AcDbXrecord
280
     1
270
     1
271
     1
  0
XRECORD
  5
4E0B
102
{ACAD_REACTORS
330
4E0A
102
}
330
4E0A
100
AcDbXrecord
280
     1
270
     1
271
     1
  0
XRECORD
  5
4E0F
102
{ACAD_REACTORS
330
4E0A
102
}
330
4E0A
100
AcDbXrecord
280
     1
270
     1
271
     1
  0
XRECORD
  5
4E0E
102
{ACAD_REACTORS
330
4E0A
102
}
330
4E0A
100
AcDbXrecord
280
     1
270
     1
271
     1
  0
XRECORD
  5
4E10
102
{ACAD_REACTORS
330
4E0A
102
}
330
4E0A
100
AcDbXrecord
280
     1
270
     1
271
     1
  0
XRECORD
  5
4E0D
102
{ACAD_REACTORS
330
4E0A
102
}
330
4E0A
100
AcDbXrecord
280
     1
270
     1
271
     1
  0
XRECORD
  5
A25A
102
{ACAD_REACTORS
330
4E1A
102
}
330
4E1A
100
AcDbXrecord
280
     1
102
MATERIAL
148
0.0
149
0.0
149
0.0
 93
        0
 94
      127
282
     0
 72
     0
 77
     0
171
     0
175
     0
179
     0
273
     0
  0
XRECORD
  5
4E1C
102
{ACAD_REACTORS
330
4E1A
102
}
330
4E1A
100
AcDbXrecord
280
     1
270
     1
271
     1
  0
XRECORD
  5
4E1B
102
{ACAD_REACTORS
330
4E1A
102
}
330
4E1A
100
AcDbXrecord
280
     1
270
     1
271
     1
  0
XRECORD
  5
4E1F
102
{ACAD_REACTORS
330
4E1A
102
}
330
4E1A
100
AcDbXrecord
280
     1
270
     1
271
     1
  0
XRECORD
  5
4E1E
102
{ACAD_REACTORS
330
4E1A
102
}
330
4E1A
100
AcDbXrecord
280
     1
270
     1
271
     1
  0
XRECORD
  5
4E20
102
{ACAD_REACTORS
330
4E1A
102
}
330
4E1A
100
AcDbXrecord
280
     1
270
     1
271
     1
  0
XRECORD
  5
4E1D
102
{ACAD_REACTORS
330
4E1A
102
}
330
4E1A
100
AcDbXrecord
280
     1
270
     1
271
     1
  0
XRECORD
  5
A309
102
{ACAD_REACTORS
330
A308
102
}
330
A308
100
AcDbXrecord
280
     1
102
ACAD_ROUNDTRIP_2012_MLEADER_STYLE
298
     1
  0
CELLSTYLEMAP
  5
A307
102
{ACAD_REACTORS
330
575E
102
}
330
575E
100
AcDbCellStyleMap
 90
        3
300
CELLSTYLE
  1
TABLEFORMAT_BEGIN
 90
        5
170
     1
 91
        0
 92
    32768
 62
   257
 93
        1
300
CONTENTFORMAT
  1
CONTENTFORMAT_BEGIN
 90
        0
 91
        0
 92
      512
 93
        0
300

 40
0.0
140
1.0
 94
        5
 62
     0
340
11
144
6.0
309
CONTENTFORMAT_END
171
     1
301
MARGIN
  1
CELLMARGIN_BEGIN
 40
1.5
 40
1.5
 40
1.5
 40
1.5
 40
0.18
 40
0.18
309
CELLMARGIN_END
 94
        6
 95
        1
302
GRIDFORMAT
  1
GRIDFORMAT_BEGIN
 90
        0
 91
        1
 62
     0
 92
       -2
340
0
 93
        0
 40
1.125
309
GRIDFORMAT_END
 95
        2
302
GRIDFORMAT
  1
GRIDFORMAT_BEGIN
 90
        0
 91
        1
 62
     0
 92
       -2
340
0
 93
        0
 40
1.125
309
GRIDFORMAT_END
 95
        4
302
GRIDFORMAT
  1
GRIDFORMAT_BEGIN
 90
        0
 91
        1
 62
     0
 92
       -2
340
0
 93
        0
 40
1.125
309
GRIDFORMAT_END
 95
        8
302
GRIDFORMAT
  1
GRIDFORMAT_BEGIN
 90
        0
 91
        1
 62
     0
 92
       -2
340
0
 93
        0
 40
1.125
309
GRIDFORMAT_END
 95
       16
302
GRIDFORMAT
  1
GRIDFORMAT_BEGIN
 90
        0
 91
        1
 62
     0
 92
       -2
340
0
 93
        0
 40
1.125
309
GRIDFORMAT_END
 95
       32
302
GRIDFORMAT
  1
GRIDFORMAT_BEGIN
 90
        0
 91
        1
 62
     0
 92
       -2
340
0
 93
        0
 40
1.125
309
GRIDFORMAT_END
309
TABLEFORMAT_END
  1
CELLSTYLE_BEGIN
 90
        1
 91
        1
300
_TITLE
309
CELLSTYLE_END
300
CELLSTYLE
  1
TABLEFORMAT_BEGIN
 90
        5
170
     1
 91
        0
 92
        0
 62
   257
 93
        1
300
CONTENTFORMAT
  1
CONTENTFORMAT_BEGIN
 90
        0
 91
        0
 92
      512
 93
        0
300

 40
0.0
140
1.0
 94
        5
 62
     0
340
11
144
4.5
309
CONTENTFORMAT_END
171
     1
301
MARGIN
  1
CELLMARGIN_BEGIN
 40
1.5
 40
1.5
 40
1.5
 40
1.5
 40
0.18
 40
0.18
309
CELLMARGIN_END
 94
        6
 95
        1
302
GRIDFORMAT
  1
GRIDFORMAT_BEGIN
 90
        0
 91
        1
 62
     0
 92
       -2
340
0
 93
        0
 40
1.125
309
GRIDFORMAT_END
 95
        2
302
GRIDFORMAT
  1
GRIDFORMAT_BEGIN
 90
        0
 91
        1
 62
     0
 92
       -2
340
0
 93
        0
 40
1.125
309
GRIDFORMAT_END
 95
        4
302
GRIDFORMAT
  1
GRIDFORMAT_BEGIN
 90
        0
 91
        1
 62
     0
 92
       -2
340
0
 93
        0
 40
1.125
309
GRIDFORMAT_END
 95
        8
302
GRIDFORMAT
  1
GRIDFORMAT_BEGIN
 90
        0
 91
        1
 62
     0
 92
       -2
340
0
 93
        0
 40
1.125
309
GRIDFORMAT_END
 95
       16
302
GRIDFORMAT
  1
GRIDFORMAT_BEGIN
 90
        0
 91
        1
 62
     0
 92
       -2
340
0
 93
        0
 40
1.125
309
GRIDFORMAT_END
 95
       32
302
GRIDFORMAT
  1
GRIDFORMAT_BEGIN
 90
        0
 91
        1
 62
     0
 92
       -2
340
0
 93
        0
 40
1.125
309
GRIDFORMAT_END
309
TABLEFORMAT_END
  1
CELLSTYLE_BEGIN
 90
        2
 91
        1
300
_HEADER
309
CELLSTYLE_END
300
CELLSTYLE
  1
TABLEFORMAT_BEGIN
 90
        5
170
     1
 91
        0
 92
        0
 62
   257
 93
        1
300
CONTENTFORMAT
  1
CONTENTFORMAT_BEGIN
 90
        0
 91
        0
 92
      512
 93
        0
300

 40
0.0
140
1.0
 94
        2
 62
     0
340
11
144
4.5
309
CONTENTFORMAT_END
171
     1
301
MARGIN
  1
CELLMARGIN_BEGIN
 40
1.5
 40
1.5
 40
1.5
 40
1.5
 40
0.18
 40
0.18
309
CELLMARGIN_END
 94
        6
 95
        1
302
GRIDFORMAT
  1
GRIDFORMAT_BEGIN
 90
        0
 91
        1
 62
     0
 92
       -2
340
0
 93
        0
 40
1.125
309
GRIDFORMAT_END
 95
        2
302
GRIDFORMAT
  1
GRIDFORMAT_BEGIN
 90
        0
 91
        1
 62
     0
 92
       -2
340
0
 93
        0
 40
1.125
309
GRIDFORMAT_END
 95
        4
302
GRIDFORMAT
  1
GRIDFORMAT_BEGIN
 90
        0
 91
        1
 62
     0
 92
       -2
340
0
 93
        0
 40
1.125
309
GRIDFORMAT_END
 95
        8
302
GRIDFORMAT
  1
GRIDFORMAT_BEGIN
 90
        0
 91
        1
 62
     0
 92
       -2
340
0
 93
        0
 40
1.125
309
GRIDFORMAT_END
 95
       16
302
GRIDFORMAT
  1
GRIDFORMAT_BEGIN
 90
        0
 91
        1
 62
     0
 92
       -2
340
0
 93
        0
 40
1.125
309
GRIDFORMAT_END
 95
       32
302
GRIDFORMAT
  1
GRIDFORMAT_BEGIN
 90
        0
 91
        1
 62
     0
 92
       -2
340
0
 93
        0
 40
1.125
309
GRIDFORMAT_END
309
TABLEFORMAT_END
  1
CELLSTYLE_BEGIN
 90
        3
 91
        2
300
_DATA
309
CELLSTYLE_END
  0
XRECORD
  5
A349
102
{ACAD_REACTORS
330
575E
102
}
330
575E
100
AcDbXrecord
280
     1
102
ACAD_ROUNDTRIP_PRE2007_TABLESTYLE
 90
      512
 91
        0
  1

 92
      512
 93
        0
  2

 94
      512
 95
        0
  3

  0
XRECORD
  5
A324
102
{ACAD_REACTORS
330
A323
102
}
330
A323
100
AcDbXrecord
280
     1
102
RTVSPropertyOp0
 70
     1
102
RTVSPropertyOp1
 70
     1
102
RTVSPropertyOp2
 70
     1
102
RTVSPropertyOp3
 70
     1
102
RTVSPropertyOp4
 70
     1
102
RTVSPropertyOp5
 70
     1
102
RTVSPropertyOp6
 70
     1
102
RTVSPropertyOp7
 70
     1
102
RTVSPropertyOp8
 70
     1
102
RTVSPropertyOp9
 70
     1
102
RTVSPropertyOp10
 70
     1
102
RTVSPropertyOp11
 70
     1
102
RTVSPropertyOp12
 70
     1
102
RTVSPropertyOp13
 70
     1
102
RTVSPropertyOp14
 70
     1
102
RTVSPropertyOp15
 70
     1
102
RTVSPropertyOp16
 70
     1
102
RTVSPropertyOp17
 70
     1
102
RTVSPropertyOp18
 70
     1
102
RTVSPropertyOp19
 70
     1
102
RTVSPropertyOp20
 70
     1
102
RTVSPropertyOp21
 70
     1
102
RTVSPropertyOp22
 70
     1
102
RTVSPropertyOp23
 70
     1
102
RTVSPropertyOp24
 70
     1
102
RTVSPropertyOp25
 70
     1
102
RTVSPropertyOp26
 70
     1
102
RTVSPropertyOp27
 70
     1
102
RTVSPropertyOp28
 70
     1
102
RTVSPropertyOp29
 70
     1
102
RTVSPropertyOp30
 70
     1
102
RTVSPropertyOp31
 70
     1
102
RTVSPropertyOp32
 70
     1
  0
XRECORD
  5
A322
102
{ACAD_REACTORS
330
A321
102
}
330
A321
100
AcDbXrecord
280
     1
102
RTVSPropertyOp0
 70
     1
102
RTVSPropertyOp1
 70
     1
102
RTVSPropertyOp2
 70
     1
102
RTVSPropertyOp3
 70
     1
102
RTVSPropertyOp4
 70
     1
102
RTVSPropertyOp5
 70
     1
102
RTVSPropertyOp6
 70
     1
102
RTVSPropertyOp7
 70
     1
102
RTVSPropertyOp8
 70
     1
102
RTVSPropertyOp9
 70
     1
102
RTVSPropertyOp10
 70
     1
102
RTVSPropertyOp11
 70
     1
102
RTVSPropertyOp12
 70
     1
102
RTVSPropertyOp13
 70
     1
102
RTVSPropertyOp14
 70
     1
102
RTVSPropertyOp15
 70
     1
102
RTVSPropertyOp16
 70
     1
102
RTVSPropertyOp17
 70
     1
102
RTVSPropertyOp18
 70
     1
102
RTVSPropertyOp19
 70
     1
102
RTVSPropertyOp20
 70
     1
102
RTVSPropertyOp21
 70
     1
102
RTVSPropertyOp22
 70
     1
102
RTVSPropertyOp23
 70
     1
102
RTVSPropertyOp24
 70
     1
102
RTVSPropertyOp25
 70
     1
102
RTVSPropertyOp26
 70
     1
102
RTVSPropertyOp27
 70
     1
102
RTVSPropertyOp28
 70
     1
102
RTVSPropertyOp29
 70
     1
102
RTVSPropertyOp30
 70
     1
102
RTVSPropertyOp31
 70
     1
102
RTVSPropertyOp32
 70
     1
  0
XRECORD
  5
A330
102
{ACAD_REACTORS
330
A32F
102
}
330
A32F
100
AcDbXrecord
280
     1
102
RTVSPropertyOp0
 70
     1
102
RTVSPropertyOp1
 70
     1
102
RTVSPropertyOp2
 70
     1
102
RTVSPropertyOp3
 70
     1
102
RTVSPropertyOp4
 70
     1
102
RTVSPropertyOp5
 70
     1
102
RTVSPropertyOp6
 70
     1
102
RTVSPropertyOp7
 70
     1
102
RTVSPropertyOp8
 70
     1
102
RTVSPropertyOp9
 70
     1
102
RTVSPropertyOp10
 70
     1
102
RTVSPropertyOp11
 70
     1
102
RTVSPropertyOp12
 70
     1
102
RTVSPropertyOp13
 70
     1
102
RTVSPropertyOp14
 70
     1
102
RTVSPropertyOp15
 70
     1
102
RTVSPropertyOp16
 70
     1
102
RTVSPropertyOp17
 70
     1
102
RTVSPropertyOp18
 70
     1
102
RTVSPropertyOp19
 70
     1
102
RTVSPropertyOp20
 70
     1
102
RTVSPropertyOp21
 70
     1
102
RTVSPropertyOp22
 70
     1
102
RTVSPropertyOp23
 70
     1
102
RTVSPropertyOp24
 70
     1
102
RTVSPropertyOp25
 70
     1
102
RTVSPropertyOp26
 70
     1
102
RTVSPropertyOp27
 70
     1
102
RTVSPropertyOp28
 70
     1
102
RTVSPropertyOp29
 70
     1
102
RTVSPropertyOp30
 70
     1
102
RTVSPropertyOp31
 70
     1
102
RTVSPropertyOp32
 70
     1
  0
XRECORD
  5
A338
102
{ACAD_REACTORS
330
A337
102
}
330
A337
100
AcDbXrecord
280
     1
102
RTVSPropertyOp0
 70
     1
102
RTVSPropertyOp1
 70
     1
102
RTVSPropertyOp2
 70
     1
102
RTVSPropertyOp3
 70
     1
102
RTVSPropertyOp4
 70
     1
102
RTVSPropertyOp5
 70
     1
102
RTVSPropertyOp6
 70
     1
102
RTVSPropertyOp7
 70
     1
102
RTVSPropertyOp8
 70
     1
102
RTVSPropertyOp9
 70
     1
102
RTVSPropertyOp10
 70
     1
102
RTVSPropertyOp11
 70
     1
102
RTVSPropertyOp12
 70
     1
102
RTVSPropertyOp13
 70
     1
102
RTVSPropertyOp14
 70
     1
102
RTVSPropertyOp15
 70
     1
102
RTVSPropertyOp16
 70
     1
102
RTVSPropertyOp17
 70
     1
102
RTVSPropertyOp18
 70
     1
102
RTVSPropertyOp19
 70
     1
102
RTVSPropertyOp20
 70
     1
102
RTVSPropertyOp21
 70
     1
102
RTVSPropertyOp22
 70
     1
102
RTVSPropertyOp23
 70
     1
102
RTVSPropertyOp24
 70
     1
102
RTVSPropertyOp25
 70
     1
102
RTVSPropertyOp26
 70
     1
102
RTVSPropertyOp27
 70
     1
102
RTVSPropertyOp28
 70
     1
102
RTVSPropertyOp29
 70
     1
102
RTVSPropertyOp30
 70
     1
102
RTVSPropertyOp31
 70
     1
102
RTVSPropertyOp32
 70
     1
  0
XRECORD
  5
A32A
102
{ACAD_REACTORS
330
A329
102
}
330
A329
100
AcDbXrecord
280
     1
102
RTVSPropertyOp0
 70
     1
102
RTVSPropertyOp1
 70
     1
102
RTVSPropertyOp2
 70
     1
102
RTVSPropertyOp3
 70
     1
102
RTVSPropertyOp4
 70
     1
102
RTVSPropertyOp5
 70
     1
102
RTVSPropertyOp6
 70
     1
102
RTVSPropertyOp7
 70
     1
102
RTVSPropertyOp8
 70
     1
102
RTVSPropertyOp9
 70
     1
102
RTVSPropertyOp10
 70
     1
102
RTVSPropertyOp11
 70
     1
102
RTVSPropertyOp12
 70
     1
102
RTVSPropertyOp13
 70
     1
102
RTVSPropertyOp14
 70
     1
102
RTVSPropertyOp15
 70
     1
102
RTVSPropertyOp16
 70
     1
102
RTVSPropertyOp17
 70
     1
102
RTVSPropertyOp18
 70
     1
102
RTVSPropertyOp19
 70
     1
102
RTVSPropertyOp20
 70
     1
102
RTVSPropertyOp21
 70
     1
102
RTVSPropertyOp22
 70
     1
102
RTVSPropertyOp23
 70
     1
102
RTVSPropertyOp24
 70
     1
102
RTVSPropertyOp25
 70
     1
102
RTVSPropertyOp26
 70
     1
102
RTVSPropertyOp27
 70
     1
102
RTVSPropertyOp28
 70
     1
102
RTVSPropertyOp29
 70
     1
102
RTVSPropertyOp30
 70
     1
102
RTVSPropertyOp31
 70
     1
102
RTVSPropertyOp32
 70
     1
  0
XRECORD
  5
A32E
102
{ACAD_REACTORS
330
A32D
102
}
330
A32D
100
AcDbXrecord
280
     1
102
RTVSPropertyOp0
 70
     1
102
RTVSPropertyOp1
 70
     1
102
RTVSPropertyOp2
 70
     1
102
RTVSPropertyOp3
 70
     1
102
RTVSPropertyOp4
 70
     1
102
RTVSPropertyOp5
 70
     1
102
RTVSPropertyOp6
 70
     1
102
RTVSPropertyOp7
 70
     1
102
RTVSPropertyOp8
 70
     1
102
RTVSPropertyOp9
 70
     1
102
RTVSPropertyOp10
 70
     1
102
RTVSPropertyOp11
 70
     1
102
RTVSPropertyOp12
 70
     1
102
RTVSPropertyOp13
 70
     1
102
RTVSPropertyOp14
 70
     1
102
RTVSPropertyOp15
 70
     1
102
RTVSPropertyOp16
 70
     1
102
RTVSPropertyOp17
 70
     1
102
RTVSPropertyOp18
 70
     1
102
RTVSPropertyOp19
 70
     1
102
RTVSPropertyOp20
 70
     1
102
RTVSPropertyOp21
 70
     1
102
RTVSPropertyOp22
 70
     1
102
RTVSPropertyOp23
 70
     1
102
RTVSPropertyOp24
 70
     1
102
RTVSPropertyOp25
 70
     1
102
RTVSPropertyOp26
 70
     1
102
RTVSPropertyOp27
 70
     1
102
RTVSPropertyOp28
 70
     1
102
RTVSPropertyOp29
 70
     1
102
RTVSPropertyOp30
 70
     1
102
RTVSPropertyOp31
 70
     1
102
RTVSPropertyOp32
 70
     1
  0
XRECORD
  5
A348
102
{ACAD_REACTORS
330
A347
102
}
330
A347
100
AcDbXrecord
280
     1
102
RTVSPropertyOp0
 70
     0
102
RTVSPropertyOp1
 70
     0
102
RTVSPropertyOp2
 70
     0
102
RTVSPropertyOp3
 70
     0
102
RTVSPropertyOp4
 70
     0
102
RTVSPropertyOp5
 70
     0
102
RTVSPropertyOp6
 70
     0
102
RTVSPropertyOp7
 70
     0
102
RTVSPropertyOp8
 70
     0
102
RTVSPropertyOp9
 70
     0
102
RTVSPropertyOp10
 70
     0
102
RTVSPropertyOp11
 70
     0
102
RTVSPropertyOp12
 70
     0
102
RTVSPropertyOp13
 70
     0
102
RTVSPropertyOp14
 70
     2
102
RTVSPropertyOp15
 70
     0
102
RTVSPropertyOp16
 70
     0
102
RTVSPropertyOp17
 70
     0
102
RTVSPropertyOp18
 70
     0
102
RTVSPropertyOp19
 70
     0
102
RTVSPropertyOp20
 70
     0
102
RTVSPropertyOp21
 70
     0
102
RTVSPropertyOp22
 70
     0
102
RTVSPropertyOp23
 70
     0
102
RTVSPropertyOp24
 70
     0
102
RTVSPropertyOp25
 70
     0
102
RTVSPropertyOp26
 70
     0
102
RTVSPropertyOp27
 70
     0
102
RTVSPropertyOp28
 70
     0
102
RTVSPropertyOp29
 70
     0
102
RTVSPropertyOp30
 70
     0
102
RTVSPropertyOp31
 70
     0
102
RTVSPropertyOp32
 70
     0
  0
XRECORD
  5
A336
102
{ACAD_REACTORS
330
A335
102
}
330
A335
100
AcDbXrecord
280
     1
102
RTVSPropertyOp0
 70
     1
102
RTVSPropertyOp1
 70
     1
102
RTVSPropertyOp2
 70
     1
102
RTVSPropertyOp3
 70
     1
102
RTVSPropertyOp4
 70
     1
102
RTVSPropertyOp5
 70
     1
102
RTVSPropertyOp6
 70
     1
102
RTVSPropertyOp7
 70
     1
102
RTVSPropertyOp8
 70
     1
102
RTVSPropertyOp9
 70
     1
102
RTVSPropertyOp10
 70
     1
102
RTVSPropertyOp11
 70
     1
102
RTVSPropertyOp12
 70
     1
102
RTVSPropertyOp13
 70
     1
102
RTVSPropertyOp14
 70
     1
102
RTVSPropertyOp15
 70
     1
102
RTVSPropertyOp16
 70
     1
102
RTVSPropertyOp17
 70
     1
102
RTVSPropertyOp18
 70
     1
102
RTVSPropertyOp19
 70
     1
102
RTVSPropertyOp20
 70
     1
102
RTVSPropertyOp21
 70
     1
102
RTVSPropertyOp22
 70
     1
102
RTVSPropertyOp23
 70
     1
102
RTVSPropertyOp24
 70
     1
102
RTVSPropertyOp25
 70
     1
102
RTVSPropertyOp26
 70
     1
102
RTVSPropertyOp27
 70
     1
102
RTVSPropertyOp28
 70
     1
102
RTVSPropertyOp29
 70
     1
102
RTVSPropertyOp30
 70
     1
102
RTVSPropertyOp31
 70
     1
102
RTVSPropertyOp32
 70
     1
  0
XRECORD
  5
A31A
102
{ACAD_REACTORS
330
A319
102
}
330
A319
100
AcDbXrecord
280
     1
102
RTVSPropertyOp0
 70
     1
102
RTVSPropertyOp1
 70
     1
102
RTVSPropertyOp2
 70
     1
102
RTVSPropertyOp3
 70
     1
102
RTVSPropertyOp4
 70
     1
102
RTVSPropertyOp5
 70
     1
102
RTVSPropertyOp6
 70
     1
102
RTVSPropertyOp7
 70
     1
102
RTVSPropertyOp8
 70
     1
102
RTVSPropertyOp9
 70
     1
102
RTVSPropertyOp10
 70
     1
102
RTVSPropertyOp11
 70
     1
102
RTVSPropertyOp12
 70
     1
102
RTVSPropertyOp13
 70
     1
102
RTVSPropertyOp14
 70
     1
102
RTVSPropertyOp15
 70
     1
102
RTVSPropertyOp16
 70
     1
102
RTVSPropertyOp17
 70
     1
102
RTVSPropertyOp18
 70
     1
102
RTVSPropertyOp19
 70
     1
102
RTVSPropertyOp20
 70
     1
102
RTVSPropertyOp21
 70
     1
102
RTVSPropertyOp22
 70
     1
102
RTVSPropertyOp23
 70
     1
102
RTVSPropertyOp24
 70
     1
102
RTVSPropertyOp25
 70
     1
102
RTVSPropertyOp26
 70
     1
102
RTVSPropertyOp27
 70
     1
102
RTVSPropertyOp28
 70
     1
102
RTVSPropertyOp29
 70
     1
102
RTVSPropertyOp30
 70
     1
102
RTVSPropertyOp31
 70
     1
102
RTVSPropertyOp32
 70
     1
  0
XRECORD
  5
A31C
102
{ACAD_REACTORS
330
A31B
102
}
330
A31B
100
AcDbXrecord
280
     1
102
RTVSPropertyOp0
 70
     1
102
RTVSPropertyOp1
 70
     1
102
RTVSPropertyOp2
 70
     1
102
RTVSPropertyOp3
 70
     1
102
RTVSPropertyOp4
 70
     1
102
RTVSPropertyOp5
 70
     1
102
RTVSPropertyOp6
 70
     1
102
RTVSPropertyOp7
 70
     1
102
RTVSPropertyOp8
 70
     1
102
RTVSPropertyOp9
 70
     1
102
RTVSPropertyOp10
 70
     1
102
RTVSPropertyOp11
 70
     1
102
RTVSPropertyOp12
 70
     1
102
RTVSPropertyOp13
 70
     1
102
RTVSPropertyOp14
 70
     1
102
RTVSPropertyOp15
 70
     1
102
RTVSPropertyOp16
 70
     1
102
RTVSPropertyOp17
 70
     1
102
RTVSPropertyOp18
 70
     1
102
RTVSPropertyOp19
 70
     1
102
RTVSPropertyOp20
 70
     1
102
RTVSPropertyOp21
 70
     1
102
RTVSPropertyOp22
 70
     1
102
RTVSPropertyOp23
 70
     1
102
RTVSPropertyOp24
 70
     1
102
RTVSPropertyOp25
 70
     1
102
RTVSPropertyOp26
 70
     1
102
RTVSPropertyOp27
 70
     1
102
RTVSPropertyOp28
 70
     1
102
RTVSPropertyOp29
 70
     1
102
RTVSPropertyOp30
 70
     1
102
RTVSPropertyOp31
 70
     1
102
RTVSPropertyOp32
 70
     1
  0
XRECORD
  5
A31E
102
{ACAD_REACTORS
330
A31D
102
}
330
A31D
100
AcDbXrecord
280
     1
102
RTVSPropertyOp0
 70
     1
102
RTVSPropertyOp1
 70
     1
102
RTVSPropertyOp2
 70
     1
102
RTVSPropertyOp3
 70
     1
102
RTVSPropertyOp4
 70
     1
102
RTVSPropertyOp5
 70
     1
102
RTVSPropertyOp6
 70
     1
102
RTVSPropertyOp7
 70
     1
102
RTVSPropertyOp8
 70
     1
102
RTVSPropertyOp9
 70
     1
102
RTVSPropertyOp10
 70
     1
102
RTVSPropertyOp11
 70
     1
102
RTVSPropertyOp12
 70
     1
102
RTVSPropertyOp13
 70
     1
102
RTVSPropertyOp14
 70
     1
102
RTVSPropertyOp15
 70
     1
102
RTVSPropertyOp16
 70
     1
102
RTVSPropertyOp17
 70
     1
102
RTVSPropertyOp18
 70
     1
102
RTVSPropertyOp19
 70
     1
102
RTVSPropertyOp20
 70
     1
102
RTVSPropertyOp21
 70
     1
102
RTVSPropertyOp22
 70
     1
102
RTVSPropertyOp23
 70
     1
102
RTVSPropertyOp24
 70
     1
102
RTVSPropertyOp25
 70
     1
102
RTVSPropertyOp26
 70
     1
102
RTVSPropertyOp27
 70
     1
102
RTVSPropertyOp28
 70
     1
102
RTVSPropertyOp29
 70
     1
102
RTVSPropertyOp30
 70
     1
102
RTVSPropertyOp31
 70
     1
102
RTVSPropertyOp32
 70
     1
  0
XRECORD
  5
A320
102
{ACAD_REACTORS
330
A31F
102
}
330
A31F
100
AcDbXrecord
280
     1
102
RTVSPropertyOp0
 70
     1
102
RTVSPropertyOp1
 70
     1
102
RTVSPropertyOp2
 70
     1
102
RTVSPropertyOp3
 70
     1
102
RTVSPropertyOp4
 70
     1
102
RTVSPropertyOp5
 70
     1
102
RTVSPropertyOp6
 70
     1
102
RTVSPropertyOp7
 70
     1
102
RTVSPropertyOp8
 70
     1
102
RTVSPropertyOp9
 70
     1
102
RTVSPropertyOp10
 70
     1
102
RTVSPropertyOp11
 70
     1
102
RTVSPropertyOp12
 70
     1
102
RTVSPropertyOp13
 70
     1
102
RTVSPropertyOp14
 70
     1
102
RTVSPropertyOp15
 70
     1
102
RTVSPropertyOp16
 70
     1
102
RTVSPropertyOp17
 70
     1
102
RTVSPropertyOp18
 70
     1
102
RTVSPropertyOp19
 70
     1
102
RTVSPropertyOp20
 70
     1
102
RTVSPropertyOp21
 70
     1
102
RTVSPropertyOp22
 70
     1
102
RTVSPropertyOp23
 70
     1
102
RTVSPropertyOp24
 70
     1
102
RTVSPropertyOp25
 70
     1
102
RTVSPropertyOp26
 70
     1
102
RTVSPropertyOp27
 70
     1
102
RTVSPropertyOp28
 70
     1
102
RTVSPropertyOp29
 70
     1
102
RTVSPropertyOp30
 70
     1
102
RTVSPropertyOp31
 70
     1
102
RTVSPropertyOp32
 70
     1
  0
XRECORD
  5
A328
102
{ACAD_REACTORS
330
A327
102
}
330
A327
100
AcDbXrecord
280
     1
102
RTVSPropertyOp0
 70
     1
102
RTVSPropertyOp1
 70
     1
102
RTVSPropertyOp2
 70
     1
102
RTVSPropertyOp3
 70
     1
102
RTVSPropertyOp4
 70
     1
102
RTVSPropertyOp5
 70
     1
102
RTVSPropertyOp6
 70
     1
102
RTVSPropertyOp7
 70
     1
102
RTVSPropertyOp8
 70
     1
102
RTVSPropertyOp9
 70
     1
102
RTVSPropertyOp10
 70
     1
102
RTVSPropertyOp11
 70
     1
102
RTVSPropertyOp12
 70
     1
102
RTVSPropertyOp13
 70
     1
102
RTVSPropertyOp14
 70
     1
102
RTVSPropertyOp15
 70
     1
102
RTVSPropertyOp16
 70
     1
102
RTVSPropertyOp17
 70
     1
102
RTVSPropertyOp18
 70
     1
102
RTVSPropertyOp19
 70
     1
102
RTVSPropertyOp20
 70
     1
102
RTVSPropertyOp21
 70
     1
102
RTVSPropertyOp22
 70
     1
102
RTVSPropertyOp23
 70
     1
102
RTVSPropertyOp24
 70
     1
102
RTVSPropertyOp25
 70
     1
102
RTVSPropertyOp26
 70
     1
102
RTVSPropertyOp27
 70
     1
102
RTVSPropertyOp28
 70
     1
102
RTVSPropertyOp29
 70
     1
102
RTVSPropertyOp30
 70
     1
102
RTVSPropertyOp31
 70
     1
102
RTVSPropertyOp32
 70
     1
  0
XRECORD
  5
A344
102
{ACAD_REACTORS
330
A343
102
}
330
A343
100
AcDbXrecord
280
     1
102
RTVSPropertyOp0
 70
     0
102
RTVSPropertyOp1
 70
     0
102
RTVSPropertyOp2
 70
     0
102
RTVSPropertyOp3
 70
     0
102
RTVSPropertyOp4
 70
     0
102
RTVSPropertyOp5
 70
     0
102
RTVSPropertyOp6
 70
     0
102
RTVSPropertyOp7
 70
     0
102
RTVSPropertyOp8
 70
     0
102
RTVSPropertyOp9
 70
     0
102
RTVSPropertyOp10
 70
     0
102
RTVSPropertyOp11
 70
     0
102
RTVSPropertyOp12
 70
     0
102
RTVSPropertyOp13
 70
     0
102
RTVSPropertyOp14
 70
     2
102
RTVSPropertyOp15
 70
     0
102
RTVSPropertyOp16
 70
     0
102
RTVSPropertyOp17
 70
     0
102
RTVSPropertyOp18
 70
     0
102
RTVSPropertyOp19
 70
     0
102
RTVSPropertyOp20
 70
     0
102
RTVSPropertyOp21
 70
     0
102
RTVSPropertyOp22
 70
     0
102
RTVSPropertyOp23
 70
     0
102
RTVSPropertyOp24
 70
     0
102
RTVSPropertyOp25
 70
     0
102
RTVSPropertyOp26
 70
     0
102
RTVSPropertyOp27
 70
     0
102
RTVSPropertyOp28
 70
     0
102
RTVSPropertyOp29
 70
     0
102
RTVSPropertyOp30
 70
     0
102
RTVSPropertyOp31
 70
     0
102
RTVSPropertyOp32
 70
     0
  0
XRECORD
  5
A334
102
{ACAD_REACTORS
330
A333
102
}
330
A333
100
AcDbXrecord
280
     1
102
RTVSPropertyOp0
 70
     1
102
RTVSPropertyOp1
 70
     1
102
RTVSPropertyOp2
 70
     1
102
RTVSPropertyOp3
 70
     1
102
RTVSPropertyOp4
 70
     1
102
RTVSPropertyOp5
 70
     1
102
RTVSPropertyOp6
 70
     1
102
RTVSPropertyOp7
 70
     1
102
RTVSPropertyOp8
 70
     1
102
RTVSPropertyOp9
 70
     1
102
RTVSPropertyOp10
 70
     1
102
RTVSPropertyOp11
 70
     1
102
RTVSPropertyOp12
 70
     1
102
RTVSPropertyOp13
 70
     1
102
RTVSPropertyOp14
 70
     1
102
RTVSPropertyOp15
 70
     1
102
RTVSPropertyOp16
 70
     1
102
RTVSPropertyOp17
 70
     1
102
RTVSPropertyOp18
 70
     1
102
RTVSPropertyOp19
 70
     1
102
RTVSPropertyOp20
 70
     1
102
RTVSPropertyOp21
 70
     1
102
RTVSPropertyOp22
 70
     1
102
RTVSPropertyOp23
 70
     1
102
RTVSPropertyOp24
 70
     1
102
RTVSPropertyOp25
 70
     1
102
RTVSPropertyOp26
 70
     1
102
RTVSPropertyOp27
 70
     1
102
RTVSPropertyOp28
 70
     1
102
RTVSPropertyOp29
 70
     1
102
RTVSPropertyOp30
 70
     1
102
RTVSPropertyOp31
 70
     1
102
RTVSPropertyOp32
 70
     1
  0
XRECORD
  5
A346
102
{ACAD_REACTORS
330
A345
102
}
330
A345
100
AcDbXrecord
280
     1
102
RTVSPropertyOp0
 70
     0
102
RTVSPropertyOp1
 70
     0
102
RTVSPropertyOp2
 70
     0
102
RTVSPropertyOp3
 70
     0
102
RTVSPropertyOp4
 70
     0
102
RTVSPropertyOp5
 70
     0
102
RTVSPropertyOp6
 70
     0
102
RTVSPropertyOp7
 70
     0
102
RTVSPropertyOp8
 70
     0
102
RTVSPropertyOp9
 70
     0
102
RTVSPropertyOp10
 70
     0
102
RTVSPropertyOp11
 70
     0
102
RTVSPropertyOp12
 70
     0
102
RTVSPropertyOp13
 70
     0
102
RTVSPropertyOp14
 70
     2
102
RTVSPropertyOp15
 70
     0
102
RTVSPropertyOp16
 70
     0
102
RTVSPropertyOp17
 70
     0
102
RTVSPropertyOp18
 70
     0
102
RTVSPropertyOp19
 70
     0
102
RTVSPropertyOp20
 70
     0
102
RTVSPropertyOp21
 70
     0
102
RTVSPropertyOp22
 70
     0
102
RTVSPropertyOp23
 70
     0
102
RTVSPropertyOp24
 70
     0
102
RTVSPropertyOp25
 70
     0
102
RTVSPropertyOp26
 70
     0
102
RTVSPropertyOp27
 70
     0
102
RTVSPropertyOp28
 70
     0
102
RTVSPropertyOp29
 70
     0
102
RTVSPropertyOp30
 70
     0
102
RTVSPropertyOp31
 70
     0
102
RTVSPropertyOp32
 70
     0
  0
XRECORD
  5
A32C
102
{ACAD_REACTORS
330
A32B
102
}
330
A32B
100
AcDbXrecord
280
     1
102
RTVSPropertyOp0
 70
     1
102
RTVSPropertyOp1
 70
     1
102
RTVSPropertyOp2
 70
     1
102
RTVSPropertyOp3
 70
     1
102
RTVSPropertyOp4
 70
     1
102
RTVSPropertyOp5
 70
     1
102
RTVSPropertyOp6
 70
     1
102
RTVSPropertyOp7
 70
     1
102
RTVSPropertyOp8
 70
     1
102
RTVSPropertyOp9
 70
     1
102
RTVSPropertyOp10
 70
     1
102
RTVSPropertyOp11
 70
     1
102
RTVSPropertyOp12
 70
     1
102
RTVSPropertyOp13
 70
     1
102
RTVSPropertyOp14
 70
     1
102
RTVSPropertyOp15
 70
     1
102
RTVSPropertyOp16
 70
     1
102
RTVSPropertyOp17
 70
     1
102
RTVSPropertyOp18
 70
     1
102
RTVSPropertyOp19
 70
     1
102
RTVSPropertyOp20
 70
     1
102
RTVSPropertyOp21
 70
     1
102
RTVSPropertyOp22
 70
     1
102
RTVSPropertyOp23
 70
     1
102
RTVSPropertyOp24
 70
     1
102
RTVSPropertyOp25
 70
     1
102
RTVSPropertyOp26
 70
     1
102
RTVSPropertyOp27
 70
     1
102
RTVSPropertyOp28
 70
     1
102
RTVSPropertyOp29
 70
     1
102
RTVSPropertyOp30
 70
     1
102
RTVSPropertyOp31
 70
     1
102
RTVSPropertyOp32
 70
     1
  0
XRECORD
  5
A342
102
{ACAD_REACTORS
330
A341
102
}
330
A341
100
AcDbXrecord
280
     1
102
RTVSPropertyOp0
 70
     1
102
RTVSPropertyOp1
 70
     1
102
RTVSPropertyOp2
 70
     1
102
RTVSPropertyOp3
 70
     1
102
RTVSPropertyOp4
 70
     1
102
RTVSPropertyOp5
 70
     1
102
RTVSPropertyOp6
 70
     1
102
RTVSPropertyOp7
 70
     1
102
RTVSPropertyOp8
 70
     1
102
RTVSPropertyOp9
 70
     1
102
RTVSPropertyOp10
 70
     1
102
RTVSPropertyOp11
 70
     1
102
RTVSPropertyOp12
 70
     1
102
RTVSPropertyOp13
 70
     1
102
RTVSPropertyOp14
 70
     1
102
RTVSPropertyOp15
 70
     1
102
RTVSPropertyOp16
 70
     1
102
RTVSPropertyOp17
 70
     1
102
RTVSPropertyOp18
 70
     1
102
RTVSPropertyOp19
 70
     1
102
RTVSPropertyOp20
 70
     1
102
RTVSPropertyOp21
 70
     1
102
RTVSPropertyOp22
 70
     1
102
RTVSPropertyOp23
 70
     1
102
RTVSPropertyOp24
 70
     1
102
RTVSPropertyOp25
 70
     1
102
RTVSPropertyOp26
 70
     1
102
RTVSPropertyOp27
 70
     1
102
RTVSPropertyOp28
 70
     1
102
RTVSPropertyOp29
 70
     1
102
RTVSPropertyOp30
 70
     1
102
RTVSPropertyOp31
 70
     1
102
RTVSPropertyOp32
 70
     1
  0
XRECORD
  5
A340
102
{ACAD_REACTORS
330
A33F
102
}
330
A33F
100
AcDbXrecord
280
     1
102
RTVSPropertyOp0
 70
     1
102
RTVSPropertyOp1
 70
     1
102
RTVSPropertyOp2
 70
     1
102
RTVSPropertyOp3
 70
     1
102
RTVSPropertyOp4
 70
     1
102
RTVSPropertyOp5
 70
     1
102
RTVSPropertyOp6
 70
     1
102
RTVSPropertyOp7
 70
     1
102
RTVSPropertyOp8
 70
     1
102
RTVSPropertyOp9
 70
     1
102
RTVSPropertyOp10
 70
     1
102
RTVSPropertyOp11
 70
     1
102
RTVSPropertyOp12
 70
     1
102
RTVSPropertyOp13
 70
     1
102
RTVSPropertyOp14
 70
     1
102
RTVSPropertyOp15
 70
     1
102
RTVSPropertyOp16
 70
     1
102
RTVSPropertyOp17
 70
     1
102
RTVSPropertyOp18
 70
     1
102
RTVSPropertyOp19
 70
     1
102
RTVSPropertyOp20
 70
     1
102
RTVSPropertyOp21
 70
     1
102
RTVSPropertyOp22
 70
     1
102
RTVSPropertyOp23
 70
     1
102
RTVSPropertyOp24
 70
     1
102
RTVSPropertyOp25
 70
     1
102
RTVSPropertyOp26
 70
     1
102
RTVSPropertyOp27
 70
     1
102
RTVSPropertyOp28
 70
     1
102
RTVSPropertyOp29
 70
     1
102
RTVSPropertyOp30
 70
     1
102
RTVSPropertyOp31
 70
     1
102
RTVSPropertyOp32
 70
     1
  0
XRECORD
  5
A33A
102
{ACAD_REACTORS
330
A339
102
}
330
A339
100
AcDbXrecord
280
     1
102
RTVSPropertyOp0
 70
     1
102
RTVSPropertyOp1
 70
     1
102
RTVSPropertyOp2
 70
     1
102
RTVSPropertyOp3
 70
     1
102
RTVSPropertyOp4
 70
     1
102
RTVSPropertyOp5
 70
     1
102
RTVSPropertyOp6
 70
     1
102
RTVSPropertyOp7
 70
     1
102
RTVSPropertyOp8
 70
     1
102
RTVSPropertyOp9
 70
     1
102
RTVSPropertyOp10
 70
     1
102
RTVSPropertyOp11
 70
     1
102
RTVSPropertyOp12
 70
     1
102
RTVSPropertyOp13
 70
     1
102
RTVSPropertyOp14
 70
     1
102
RTVSPropertyOp15
 70
     1
102
RTVSPropertyOp16
 70
     1
102
RTVSPropertyOp17
 70
     1
102
RTVSPropertyOp18
 70
     1
102
RTVSPropertyOp19
 70
     1
102
RTVSPropertyOp20
 70
     1
102
RTVSPropertyOp21
 70
     1
102
RTVSPropertyOp22
 70
     1
102
RTVSPropertyOp23
 70
     1
102
RTVSPropertyOp24
 70
     1
102
RTVSPropertyOp25
 70
     1
102
RTVSPropertyOp26
 70
     1
102
RTVSPropertyOp27
 70
     1
102
RTVSPropertyOp28
 70
     1
102
RTVSPropertyOp29
 70
     1
102
RTVSPropertyOp30
 70
     1
102
RTVSPropertyOp31
 70
     1
102
RTVSPropertyOp32
 70
     1
  0
XRECORD
  5
A33C
102
{ACAD_REACTORS
330
A33B
102
}
330
A33B
100
AcDbXrecord
280
     1
102
RTVSPropertyOp0
 70
     1
102
RTVSPropertyOp1
 70
     1
102
RTVSPropertyOp2
 70
     1
102
RTVSPropertyOp3
 70
     1
102
RTVSPropertyOp4
 70
     1
102
RTVSPropertyOp5
 70
     1
102
RTVSPropertyOp6
 70
     1
102
RTVSPropertyOp7
 70
     1
102
RTVSPropertyOp8
 70
     1
102
RTVSPropertyOp9
 70
     1
102
RTVSPropertyOp10
 70
     1
102
RTVSPropertyOp11
 70
     1
102
RTVSPropertyOp12
 70
     1
102
RTVSPropertyOp13
 70
     1
102
RTVSPropertyOp14
 70
     1
102
RTVSPropertyOp15
 70
     1
102
RTVSPropertyOp16
 70
     1
102
RTVSPropertyOp17
 70
     1
102
RTVSPropertyOp18
 70
     1
102
RTVSPropertyOp19
 70
     1
102
RTVSPropertyOp20
 70
     1
102
RTVSPropertyOp21
 70
     1
102
RTVSPropertyOp22
 70
     1
102
RTVSPropertyOp23
 70
     1
102
RTVSPropertyOp24
 70
     1
102
RTVSPropertyOp25
 70
     1
102
RTVSPropertyOp26
 70
     1
102
RTVSPropertyOp27
 70
     1
102
RTVSPropertyOp28
 70
     1
102
RTVSPropertyOp29
 70
     1
102
RTVSPropertyOp30
 70
     1
102
RTVSPropertyOp31
 70
     1
102
RTVSPropertyOp32
 70
     1
  0
XRECORD
  5
A332
102
{ACAD_REACTORS
330
A331
102
}
330
A331
100
AcDbXrecord
280
     1
102
RTVSPropertyOp0
 70
     1
102
RTVSPropertyOp1
 70
     1
102
RTVSPropertyOp2
 70
     1
102
RTVSPropertyOp3
 70
     1
102
RTVSPropertyOp4
 70
     1
102
RTVSPropertyOp5
 70
     1
102
RTVSPropertyOp6
 70
     1
102
RTVSPropertyOp7
 70
     1
102
RTVSPropertyOp8
 70
     1
102
RTVSPropertyOp9
 70
     1
102
RTVSPropertyOp10
 70
     1
102
RTVSPropertyOp11
 70
     1
102
RTVSPropertyOp12
 70
     1
102
RTVSPropertyOp13
 70
     1
102
RTVSPropertyOp14
 70
     1
102
RTVSPropertyOp15
 70
     1
102
RTVSPropertyOp16
 70
     1
102
RTVSPropertyOp17
 70
     1
102
RTVSPropertyOp18
 70
     1
102
RTVSPropertyOp19
 70
     1
102
RTVSPropertyOp20
 70
     1
102
RTVSPropertyOp21
 70
     1
102
RTVSPropertyOp22
 70
     1
102
RTVSPropertyOp23
 70
     1
102
RTVSPropertyOp24
 70
     1
102
RTVSPropertyOp25
 70
     1
102
RTVSPropertyOp26
 70
     1
102
RTVSPropertyOp27
 70
     1
102
RTVSPropertyOp28
 70
     1
102
RTVSPropertyOp29
 70
     1
102
RTVSPropertyOp30
 70
     1
102
RTVSPropertyOp31
 70
     1
102
RTVSPropertyOp32
 70
     1
  0
XRECORD
  5
A326
102
{ACAD_REACTORS
330
A325
102
}
330
A325
100
AcDbXrecord
280
     1
102
RTVSPropertyOp0
 70
     1
102
RTVSPropertyOp1
 70
     1
102
RTVSPropertyOp2
 70
     1
102
RTVSPropertyOp3
 70
     1
102
RTVSPropertyOp4
 70
     1
102
RTVSPropertyOp5
 70
     1
102
RTVSPropertyOp6
 70
     1
102
RTVSPropertyOp7
 70
     1
102
RTVSPropertyOp8
 70
     1
102
RTVSPropertyOp9
 70
     1
102
RTVSPropertyOp10
 70
     1
102
RTVSPropertyOp11
 70
     1
102
RTVSPropertyOp12
 70
     1
102
RTVSPropertyOp13
 70
     1
102
RTVSPropertyOp14
 70
     1
102
RTVSPropertyOp15
 70
     1
102
RTVSPropertyOp16
 70
     1
102
RTVSPropertyOp17
 70
     1
102
RTVSPropertyOp18
 70
     1
102
RTVSPropertyOp19
 70
     1
102
RTVSPropertyOp20
 70
     1
102
RTVSPropertyOp21
 70
     1
102
RTVSPropertyOp22
 70
     1
102
RTVSPropertyOp23
 70
     1
102
RTVSPropertyOp24
 70
     1
102
RTVSPropertyOp25
 70
     1
102
RTVSPropertyOp26
 70
     1
102
RTVSPropertyOp27
 70
     1
102
RTVSPropertyOp28
 70
     1
102
RTVSPropertyOp29
 70
     1
102
RTVSPropertyOp30
 70
     1
102
RTVSPropertyOp31
 70
     1
102
RTVSPropertyOp32
 70
     1
  0
XRECORD
  5
A33E
102
{ACAD_REACTORS
330
A33D
102
}
330
A33D
100
AcDbXrecord
280
     1
102
RTVSPropertyOp0
 70
     1
102
RTVSPropertyOp1
 70
     1
102
RTVSPropertyOp2
 70
     1
102
RTVSPropertyOp3
 70
     1
102
RTVSPropertyOp4
 70
     1
102
RTVSPropertyOp5
 70
     1
102
RTVSPropertyOp6
 70
     1
102
RTVSPropertyOp7
 70
     1
102
RTVSPropertyOp8
 70
     1
102
RTVSPropertyOp9
 70
     1
102
RTVSPropertyOp10
 70
     1
102
RTVSPropertyOp11
 70
     1
102
RTVSPropertyOp12
 70
     1
102
RTVSPropertyOp13
 70
     1
102
RTVSPropertyOp14
 70
     1
102
RTVSPropertyOp15
 70
     1
102
RTVSPropertyOp16
 70
     1
102
RTVSPropertyOp17
 70
     1
102
RTVSPropertyOp18
 70
     1
102
RTVSPropertyOp19
 70
     1
102
RTVSPropertyOp20
 70
     1
102
RTVSPropertyOp21
 70
     1
102
RTVSPropertyOp22
 70
     1
102
RTVSPropertyOp23
 70
     1
102
RTVSPropertyOp24
 70
     1
102
RTVSPropertyOp25
 70
     1
102
RTVSPropertyOp26
 70
     1
102
RTVSPropertyOp27
 70
     1
102
RTVSPropertyOp28
 70
     1
102
RTVSPropertyOp29
 70
     1
102
RTVSPropertyOp30
 70
     1
102
RTVSPropertyOp31
 70
     1
102
RTVSPropertyOp32
 70
     1
  0
DICTIONARY
  5
A34A
330
5678
100
AcDbDictionary
280
     1
281
     1
  3
ACAD_XREC_ROUNDTRIP
360
A34B
  0
XRECORD
  5
A34B
102
{ACAD_REACTORS
330
A34A
102
}
330
A34A
100
AcDbXrecord
280
     1
102
SHADEPLOT
 70
     0
102
SHADEPLOTRESLEVEL
 70
     2
102
SHADEPLOTCUSTOMDPI
 70
   300
  0
ENDSEC
  0
EOF
