  0
SECTION
  2
HEADER
  9
$ACADVER
  1
AC1021
  9
$ACADMAINTVER
 70
    25
  9
$DWGCODEPAGE
  3
ANSI_932
  9
$LASTSAVEDBY
  1
Shimosaki
  9
$INSBASE
 10
0.0
 20
0.0
 30
0.0
  9
$EXTMIN
 10
-975.000000000241
 20
-1431.525522471113
 30
-14.83430555555555
  9
$EXTMAX
 10
975.0000000002415
 20
1405.997292641299
 30
14.83430555555555
  9
$LIMMIN
 10
0.0
 20
0.0
  9
$LIMMAX
 10
0.0
 20
0.0
  9
$ORTHOMODE
 70
     1
  9
$REGENMODE
 70
     1
  9
$FILLMODE
 70
     1
  9
$QTEXTMODE
 70
     0
  9
$MIRRTEXT
 70
     1
  9
$LTSCALE
 40
50.8
  9
$ATTMODE
 70
     1
  9
$TEXTSIZE
 40
0.0
  9
$TRACEWID
 40
1.0
  9
$TEXTSTYLE
  7
Standard
  9
$CLAYER
  8
template
  9
$CELTYPE
  6
Continuous
  9
$CECOLOR
 62
   256
  9
$CELTSCALE
 40
1.0
  9
$DISPSILH
 70
     0
  9
$DIMSCALE
 40
1.0
  9
$DIMASZ
 40
31.75
  9
$DIMEXO
 40
0.0
  9
$DIMDLI
 40
6.99999999999994
  9
$DIMRND
 40
0.0
  9
$DIMDLE
 40
0.0
  9
$DIMEXE
 40
19.9999999999962
  9
$DIMTP
 40
0.0
  9
$DIMTM
 40
0.0
  9
$DIMTXT
 40
24.4326171875
  9
$DIMCEN
 40
0.0
  9
$DIMTSZ
 40
0.0
  9
$DIMTOL
 70
     0
  9
$DIMLIM
 70
     0
  9
$DIMTIH
 70
     0
  9
$DIMTOH
 70
     0
  9
$DIMSE1
 70
     0
  9
$DIMSE2
 70
     0
  9
$DIMTAD
 70
     1
  9
$DIMZIN
 70
    11
  9
$DIMBLK
  1
VW_FILLEDARROW
  9
$DIMASO
 70
     1
  9
$DIMSHO
 70
     1
  9
$DIMPOST
  1
<>
  9
$DIMAPOST
  1
[]
  9
$DIMALT
 70
     0
  9
$DIMALTD
 70
     1
  9
$DIMALTF
 40
1.0
  9
$DIMLFAC
 40
1.0
  9
$DIMTOFL
 70
     0
  9
$DIMTVP
 40
0.0
  9
$DIMTIX
 70
     1
  9
$DIMSOXD
 70
     0
  9
$DIMSAH
 70
     0
  9
$DIMBLK1
  1

  9
$DIMBLK2
  1

  9
$DIMSTYLE
  2
JIS
  9
$DIMCLRD
 70
     0
  9
$DIMCLRE
 70
     0
  9
$DIMCLRT
 70
     0
  9
$DIMTFAC
 40
1.0
  9
$DIMGAP
 40
1.00000000000108
  9
$DIMJUST
 70
     0
  9
$DIMSD1
 70
     0
  9
$DIMSD2
 70
     0
  9
$DIMTOLJ
 70
     1
  9
$DIMTZIN
 70
    11
  9
$DIMALTZ
 70
    11
  9
$DIMALTTZ
 70
    11
  9
$DIMUPT
 70
     0
  9
$DIMDEC
 70
     1
  9
$DIMTDEC
 70
     1
  9
$DIMALTU
 70
     2
  9
$DIMALTTD
 70
     2
  9
$DIMTXSTY
  7
ＭＳ ゴシック
  9
$DIMAUNIT
 70
     0
  9
$DIMADEC
 70
     2
  9
$DIMALTRND
 40
0.0
  9
$DIMAZIN
 70
     0
  9
$DIMDSEP
 70
    46
  9
$DIMATFIT
 70
     0
  9
$DIMFRAC
 70
     2
  9
$DIMLDRBLK
  1

  9
$DIMLUNIT
 70
     2
  9
$DIMLWD
 70
    -2
  9
$DIMLWE
 70
    -2
  9
$DIMTMOVE
 70
     0
  9
$DIMFXL
 40
1.0
  9
$DIMFXLON
 70
     0
  9
$DIMJOGANG
 40
0.7853981633974483
  9
$DIMTFILL
 70
     0
  9
$DIMTFILLCLR
 70
     0
  9
$DIMARCSYM
 70
     0
  9
$DIMLTYPE
  6

  9
$DIMLTEX1
  6

  9
$DIMLTEX2
  6

  9
$LUNITS
 70
     2
  9
$LUPREC
 70
     4
  9
$SKETCHINC
 40
0.1
  9
$FILLETRAD
 40
0.0
  9
$AUNITS
 70
     0
  9
$AUPREC
 70
     0
  9
$MENU
  1
acad
  9
$ELEVATION
 40
0.0
  9
$PELEVATION
 40
0.0
  9
$THICKNESS
 40
0.0
  9
$LIMCHECK
 70
     0
  9
$CHAMFERA
 40
0.0
  9
$CHAMFERB
 40
0.0
  9
$CHAMFERC
 40
0.0
  9
$CHAMFERD
 40
0.0
  9
$SKPOLY
 70
     0
  9
$TDCREATE
 40
2447893.375
  9
$TDUCREATE
 40
0.0
  9
$TDUPDATE
 40
2456819.469085509
  9
$TDUUPDATE
 40
2456819.094085509
  9
$TDINDWG
 40
0.0156856366
  9
$TDUSRTIMER
 40
2456819.078750995
  9
$USRTIMER
 70
     1
  9
$ANGBASE
 50
0.0
  9
$ANGDIR
 70
     0
  9
$PDMODE
 70
     1
  9
$PDSIZE
 40
-2.0
  9
$PLINEWID
 40
0.0
  9
$SPLFRAME
 70
     0
  9
$SPLINETYPE
 70
     6
  9
$SPLINESEGS
 70
     8
  9
$HANDSEED
  5
236
  9
$SURFTAB1
 70
     6
  9
$SURFTAB2
 70
     6
  9
$SURFTYPE
 70
     6
  9
$SURFU
 70
     6
  9
$SURFV
 70
     6
  9
$UCSBASE
  2

  9
$UCSNAME
  2

  9
$UCSORG
 10
0.0
 20
0.0
 30
0.0
  9
$UCSXDIR
 10
1.0
 20
0.0
 30
0.0
  9
$UCSYDIR
 10
0.0
 20
1.0
 30
0.0
  9
$UCSORTHOREF
  2

  9
$UCSORTHOVIEW
 70
     0
  9
$UCSORGTOP
 10
0.0
 20
0.0
 30
0.0
  9
$UCSORGBOTTOM
 10
0.0
 20
0.0
 30
0.0
  9
$UCSORGLEFT
 10
0.0
 20
0.0
 30
0.0
  9
$UCSORGRIGHT
 10
0.0
 20
0.0
 30
0.0
  9
$UCSORGFRONT
 10
0.0
 20
0.0
 30
0.0
  9
$UCSORGBACK
 10
0.0
 20
0.0
 30
0.0
  9
$PUCSBASE
  2

  9
$PUCSNAME
  2

  9
$PUCSORG
 10
0.0
 20
0.0
 30
0.0
  9
$PUCSXDIR
 10
1.0
 20
0.0
 30
0.0
  9
$PUCSYDIR
 10
0.0
 20
1.0
 30
0.0
  9
$PUCSORTHOREF
  2

  9
$PUCSORTHOVIEW
 70
     0
  9
$PUCSORGTOP
 10
0.0
 20
0.0
 30
0.0
  9
$PUCSORGBOTTOM
 10
0.0
 20
0.0
 30
0.0
  9
$PUCSORGLEFT
 10
0.0
 20
0.0
 30
0.0
  9
$PUCSORGRIGHT
 10
0.0
 20
0.0
 30
0.0
  9
$PUCSORGFRONT
 10
0.0
 20
0.0
 30
0.0
  9
$PUCSORGBACK
 10
0.0
 20
0.0
 30
0.0
  9
$USERI1
 70
     0
  9
$USERI2
 70
     0
  9
$USERI3
 70
     0
  9
$USERI4
 70
     0
  9
$USERI5
 70
     0
  9
$USERR1
 40
0.0
  9
$USERR2
 40
0.0
  9
$USERR3
 40
0.0
  9
$USERR4
 40
0.0
  9
$USERR5
 40
0.0
  9
$WORLDVIEW
 70
     1
  9
$SHADEDGE
 70
     3
  9
$SHADEDIF
 70
    70
  9
$TILEMODE
 70
     1
  9
$MAXACTVP
 70
    64
  9
$PINSBASE
 10
0.0
 20
0.0
 30
0.0
  9
$PLIMCHECK
 70
     0
  9
$PEXTMIN
 10
1.000000000000000E+20
 20
1.000000000000000E+20
 30
1.000000000000000E+20
  9
$PEXTMAX
 10
-1.000000000000000E+20
 20
-1.000000000000000E+20
 30
-1.000000000000000E+20
  9
$PLIMMIN
 10
0.0
 20
0.0
  9
$PLIMMAX
 10
0.0
 20
0.0
  9
$UNITMODE
 70
     0
  9
$VISRETAIN
 70
     0
  9
$PLINEGEN
 70
     1
  9
$PSLTSCALE
 70
     0
  9
$TREEDEPTH
 70
  3020
  9
$CMLSTYLE
  2
Standard
  9
$CMLJUST
 70
     0
  9
$CMLSCALE
 40
1.0
  9
$PROXYGRAPHICS
 70
     0
  9
$MEASUREMENT
 70
     1
  9
$CELWEIGHT
370
     0
  9
$ENDCAPS
280
     0
  9
$JOINSTYLE
280
     0
  9
$LWDISPLAY
290
     1
  9
$INSUNITS
 70
     4
  9
$HYPERLINKBASE
  1

  9
$STYLESHEET
  1

  9
$XEDIT
290
     1
  9
$CEPSNTYPE
380
     0
  9
$PSTYLEMODE
290
     1
  9
$FINGERPRINTGUID
  2

  9
$VERSIONGUID
  2

  9
$EXTNAMES
290
     1
  9
$PSVPSCALE
 40
0.0
  9
$OLESTARTUP
290
     0
  9
$SORTENTS
280
   127
  9
$INDEXCTL
280
     0
  9
$HIDETEXT
280
     1
  9
$XCLIPFRAME
290
     0
  9
$HALOGAP
280
     0
  9
$OBSCOLOR
 70
   257
  9
$OBSLTYPE
280
     0
  9
$INTERSECTIONDISPLAY
280
     0
  9
$INTERSECTIONCOLOR
 70
   257
  9
$DIMASSOC
280
     2
  9
$PROJECTNAME
  1

  9
$CAMERADISPLAY
290
     0
  9
$LENSLENGTH
 40
50.0
  9
$CAMERAHEIGHT
 40
0.0
  9
$STEPSPERSEC
 40
2.0
  9
$STEPSIZE
 40
6.0
  9
$3DDWFPREC
 40
2.0
  9
$PSOLWIDTH
 40
0.25
  9
$PSOLHEIGHT
 40
4.0
  9
$LOFTANG1
 40
1.570796326794897
  9
$LOFTANG2
 40
1.570796326794897
  9
$LOFTMAG1
 40
0.0
  9
$LOFTMAG2
 40
0.0
  9
$LOFTPARAM
 70
     7
  9
$LOFTNORMALS
280
     1
  9
$LATITUDE
 40
37.795
  9
$LONGITUDE
 40
-122.394
  9
$NORTHDIRECTION
 40
0.0
  9
$TIMEZONE
 70
 -8000
  9
$LIGHTGLYPHDISPLAY
280
     1
  9
$TILEMODELIGHTSYNCH
280
     1
  9
$SOLIDHIST
280
     1
  9
$SHOWHIST
280
     1
  9
$DWFFRAME
280
     2
  9
$DGNFRAME
280
     2
  9
$REALWORLDSCALE
290
     1
  9
$INTERFERECOLOR
 62
   256
  9
$CSHADOW
280
     0
  9
$SHADOWPLANELOCATION
 40
0.0
  0
ENDSEC
  0
SECTION
  2
CLASSES
  0
CLASS
  1
LWPOLYLINE
  2
AcDbPolyline
  3
ObjectDBX Classes
 90
        0
 91
        1
280
     0
281
     1
  0
CLASS
  1
IMAGE
  2
AcDbRasterImage
  3
ISM
 90
      127
 91
        5
280
     0
281
     1
  0
CLASS
  1
OLE2FRAME
  2
AcDbOle2Frame
  3
ObjectDBX Classes
 90
        0
 91
        1
280
     0
281
     1
  0
CLASS
  1
HATCH
  2
AcDbHatch
  3
ObjectDBX Classes
 90
        0
 91
        1
280
     0
281
     1
  0
CLASS
  1
DICTIONARYVAR
  2
AcDbDictionaryVar
  3
ObjectDBX Classes
 90
        0
 91
        4
280
     0
281
     0
  0
CLASS
  1
RASTERVARIABLES
  2
AcDbRasterVariables
  3
ISM
 90
        0
 91
        5
280
     0
281
     0
  0
CLASS
  1
IMAGEDEF
  2
AcDbRasterImageDef
  3
ISM
 90
        0
 91
        4
280
     0
281
     0
  0
CLASS
  1
IMAGEDEF_REACTOR
  2
AcDbRasterImageDefReactor
  3
ISM
 90
        1
 91
        4
280
     0
281
     0
  0
CLASS
  1
IDBUFFER
  2
AcDbIdBuffer
  3
ObjectDBX Classes
 90
        0
 91
        4
280
     0
281
     0
  0
CLASS
  1
SPATIAL_FILTER
  2
AcDbSpatialFilter
  3
ObjectDBX Classes
 90
        0
 91
        4
280
     0
281
     0
  0
CLASS
  1
XRECORD
  2
AcDbXrecord
  3
ObjectDBX Classes
 90
        0
 91
        1
280
     0
281
     0
  0
CLASS
  1
SORTENTSTABLE
  2
AcDbSortentsTable
  3
ObjectDBX Classes
 90
        0
 91
        4
280
     0
281
     0
  0
CLASS
  1
LAYER_INDEX
  2
AcDbLayerIndex
  3
ObjectDBX Classes
 90
        0
 91
        4
280
     0
281
     0
  0
CLASS
  1
SPATIAL_INDEX
  2
AcDbSpatialIndex
  3
AutoCAD 2000
 90
        0
 91
        4
280
     0
281
     0
  0
CLASS
  1
OBJECT_PTR
  2
CAseDLPNTableRecord
  3
ASE-LPNTableRecord
 90
        1
 91
        4
280
     0
281
     0
  0
CLASS
  1
LAYOUT
  2
AcDbLayout
  3
ObjectDBX Classes
 90
        0
 91
        1
280
     0
281
     0
  0
CLASS
  1
PLOTSETTINGS
  2
AcDbPlotSettings
  3
ObjectDBX Classes
 90
        0
 91
        4
280
     0
281
     0
  0
CLASS
  1
ACDBDICTIONARYWDFLT
  2
AcDbDictionaryWithDefault
  3
ObjectDBX Classes
 90
        0
 91
        5
280
     0
281
     0
  0
CLASS
  1
ACDBPLACEHOLDER
  2
AcDbPlaceHolder
  3
ObjectDBX Classes
 90
        0
 91
        1
280
     0
281
     0
  0
CLASS
  1
SCALE
  2
AcDbScale
  3
ObjectDBX Classes
 90
     1153
 91
        5
280
     0
281
     0
  0
CLASS
  1
VISUALSTYLE
  2
AcDbVisualStyle
  3
ObjectDBX Classes
 90
     4095
 91
        5
280
     0
281
     0
  0
CLASS
  1
MATERIAL
  2
AcDbMaterial
  3
ObjectDBX Classes
 90
     1153
 91
        5
280
     0
281
     0
  0
CLASS
  1
TABLESTYLE
  2
AcDbTableStyle
  3
ObjectDBX Classes
 90
     4095
 91
        5
280
     0
281
     0
  0
CLASS
  1
SUN
  2
AcDbSun
  3
SCENEOE
 90
     1153
 91
        5
280
     0
281
     0
  0
CLASS
  1
CELLSTYLEMAP
  2
AcDbCellStyleMap
  3
ObjectDBX Classes
 90
     1152
 91
        4
280
     0
281
     0
  0
CLASS
  1
DIMASSOC
  2
AcDbDimAssoc
  3
"AcDbDimAssoc|Product Desc:     AcDim ARX App For Dimension|Company:          Autodesk, Inc.|WEB Address:      www.autodesk.com"
 90
        0
 91
        4
280
     0
281
     0
  0
ENDSEC
  0
SECTION
  2
TABLES
  0
TABLE
  2
VPORT
  5
7
330
0
100
AcDbSymbolTable
 70
     1
  0
VPORT
  5
15
330
7
100
AcDbSymbolTableRecord
100
AcDbViewportTableRecord
  2
*ACTIVE
 70
     0
 10
0.0
 20
0.0
 11
1.0
 21
1.0
 12
-375.7808456492845
 22
-553.3010820236465
 13
0.0
 23
0.0
 14
1.0
 24
1.0
 15
0.0
 25
0.0
 16
0.0
 26
0.0
 36
1.0
 17
0.0
 27
0.0
 37
0.0
 40
476.057331740689
 41
2.213422818791946
 42
50.0
 43
0.0
 44
0.0
 50
0.0
 51
0.0
 71
    16
 72
  2000
 73
     1
 74
     1
 75
     0
 76
     0
 77
     0
 78
     0
281
     0
 65
     0
110
0.0
120
0.0
130
0.0
111
1.0
121
0.0
131
0.0
112
0.0
122
1.0
132
0.0
 79
     0
146
0.0
348
1BB
 60
     3
 61
     5
292
     1
282
     1
141
0.0
142
0.0
 63
   250
361
1D6
  0
ENDTAB
  0
TABLE
  2
LTYPE
  5
4
330
0
100
AcDbSymbolTable
 70
    12
  0
LTYPE
  5
11
330
4
100
AcDbSymbolTableRecord
100
AcDbLinetypeTableRecord
  2
ByBlock
 70
     0
  3

 72
    65
 73
     0
 40
0.0
  0
LTYPE
  5
12
330
4
100
AcDbSymbolTableRecord
100
AcDbLinetypeTableRecord
  2
ByLayer
 70
     0
  3

 72
    65
 73
     0
 40
0.0
  0
LTYPE
  5
13
330
4
100
AcDbSymbolTableRecord
100
AcDbLinetypeTableRecord
  2
Continuous
 70
     0
  3
Solid line
 72
    65
 73
     0
 40
0.0
  0
LTYPE
  5
35
330
4
100
AcDbSymbolTableRecord
100
AcDbLinetypeTableRecord
  2
STYLE_01
 70
     0
  3

 72
    65
 73
     2
 40
0.7381889763779528
 49
0.4921259842519685
 74
     0
 49
-0.2460629921259843
 74
     0
  0
LTYPE
  5
36
330
4
100
AcDbSymbolTableRecord
100
AcDbLinetypeTableRecord
  2
STYLE_02
 70
     0
  3

 72
    65
 73
     2
 40
0.6944250000000001
 49
0.48607
 74
     0
 49
-0.2083550000000001
 74
     0
  0
LTYPE
  5
37
330
4
100
AcDbSymbolTableRecord
100
AcDbLinetypeTableRecord
  2
STYLE_03
 70
     0
  3

 72
    65
 73
     2
 40
1.25
 49
1.04164
 74
     0
 49
-0.2083599999999999
 74
     0
  0
LTYPE
  5
38
330
4
100
AcDbSymbolTableRecord
100
AcDbLinetypeTableRecord
  2
STYLE_04
 70
     0
  3

 72
    65
 73
     2
 40
1.52771
 49
1.319425
 74
     0
 49
-0.208285
 74
     0
  0
LTYPE
  5
39
330
4
100
AcDbSymbolTableRecord
100
AcDbLinetypeTableRecord
  2
STYLE_05
 70
     0
  3

 72
    65
 73
     2
 40
0.20828
 49
0.069425
 74
     0
 49
-0.138855
 74
     0
  0
LTYPE
  5
3A
330
4
100
AcDbSymbolTableRecord
100
AcDbLinetypeTableRecord
  2
STYLE_06
 70
     0
  3

 72
    65
 73
     4
 40
1.04164
 49
0.625
 74
     0
 49
-0.20828
 74
     0
 49
0.06943
 74
     0
 49
-0.13893
 74
     0
  0
LTYPE
  5
3B
330
4
100
AcDbSymbolTableRecord
100
AcDbLinetypeTableRecord
  2
STYLE_07
 70
     0
  3

 72
    65
 73
     6
 40
1.875
 49
0.625
 74
     0
 49
-0.20828
 74
     0
 49
0.6250000000000001
 74
     0
 49
-0.2083599999999999
 74
     0
 49
0.06943
 74
     0
 49
-0.1389299999999999
 74
     0
  0
LTYPE
  5
3C
330
4
100
AcDbSymbolTableRecord
100
AcDbLinetypeTableRecord
  2
STYLE_08
 70
     0
  3

 72
    65
 73
     6
 40
1.25
 49
0.625
 74
     0
 49
-0.20828
 74
     0
 49
0.06943
 74
     0
 49
-0.13893
 74
     0
 49
0.0694299999999999
 74
     0
 49
-0.13893
 74
     0
  0
LTYPE
  5
3D
330
4
100
AcDbSymbolTableRecord
100
AcDbLinetypeTableRecord
  2
STYLE_09
 70
     0
  3

 72
    65
 73
     4
 40
5.0
 49
3.75
 74
     0
 49
-0.2777849999999998
 74
     0
 49
0.6944300000000003
 74
     0
 49
-0.2777849999999998
 74
     0
  0
LTYPE
  5
3E
330
4
100
AcDbSymbolTableRecord
100
AcDbLinetypeTableRecord
  2
STYLE_10
 70
     0
  3

 72
    65
 73
     6
 40
5.9375
 49
3.75
 74
     0
 49
-0.2777849999999998
 74
     0
 49
0.6944300000000003
 74
     0
 49
-0.2777849999999998
 74
     0
 49
0.625
 74
     0
 49
-0.3125
 74
     0
  0
LTYPE
  5
3F
330
4
100
AcDbSymbolTableRecord
100
AcDbLinetypeTableRecord
  2
STYLE_11
 70
     0
  3

 72
    65
 73
     2
 40
0.3937007874015748
 49
0.1968503937007874
 74
     0
 49
-0.1968503937007874
 74
     0
  0
ENDTAB
  0
TABLE
  2
LAYER
  5
2
330
0
100
AcDbSymbolTable
 70
     5
  0
LAYER
  5
14
330
2
100
AcDbSymbolTableRecord
100
AcDbLayerTableRecord
  2
0
 70
     0
 62
     7
  6
Continuous
370
    -3
390
1D
347
1D2
  0
LAYER
  5
40
330
2
100
AcDbSymbolTableRecord
100
AcDbLayerTableRecord
  2
Defpoints
 70
     0
 62
     7
  6
Continuous
290
     0
370
    -3
390
1D
347
1D2
  0
LAYER
  5
41
330
2
100
AcDbSymbolTableRecord
100
AcDbLayerTableRecord
  2
template
 70
     0
 62
     7
  6
Continuous
370
    -3
390
1D
347
1D2
  0
LAYER
  5
42
330
2
100
AcDbSymbolTableRecord
100
AcDbLayerTableRecord
  2
notes
 70
     0
 62
     7
  6
Continuous
370
    -3
390
1D
347
1D2
  0
LAYER
  5
43
330
2
100
AcDbSymbolTableRecord
100
AcDbLayerTableRecord
  2
ADF70-0003
 70
     0
 62
     7
  6
Continuous
370
    -3
390
1D
347
1D2
  0
ENDTAB
  0
TABLE
  2
STYLE
  5
3
330
0
100
AcDbSymbolTable
 70
     2
  0
STYLE
  5
17
330
3
100
AcDbSymbolTableRecord
100
AcDbTextStyleTableRecord
  2
Standard
 70
     0
 40
0.0
 41
1.0
 50
0.0
 71
     0
 42
0.0
  3
txt
  4
BIGFONT.SHX
  0
STYLE
  5
34
330
3
100
AcDbSymbolTableRecord
100
AcDbTextStyleTableRecord
  2
ＭＳ ゴシック
 70
     0
 40
0.0
 41
1.0
 50
0.0
 71
     0
 42
0.0
  3
msgothic.ttc
  4
ＭＳ ゴシック
1001
ACAD
1000
ＭＳ ゴシック
1071
        0
  0
ENDTAB
  0
TABLE
  2
VIEW
  5
5
330
0
100
AcDbSymbolTable
 70
     0
  0
ENDTAB
  0
TABLE
  2
UCS
  5
6
330
0
100
AcDbSymbolTable
 70
     0
  0
ENDTAB
  0
TABLE
  2
APPID
  5
8
330
0
100
AcDbSymbolTable
 70
     1
  0
APPID
  5
16
330
8
100
AcDbSymbolTableRecord
100
AcDbRegAppTableRecord
  2
ACAD
 70
     0
  0
ENDTAB
  0
TABLE
  2
DIMSTYLE
  5
9
330
0
100
AcDbSymbolTable
 70
     3
100
AcDbDimStyleTable
  0
DIMSTYLE
105
18
330
9
100
AcDbSymbolTableRecord
100
AcDbDimStyleTableRecord
  2
Standard
 70
     0
178
     0
340
17
  0
DIMSTYLE
105
4C
330
9
100
AcDbSymbolTableRecord
100
AcDbDimStyleTableRecord
  2
tform線あり
 70
     0
  3
<>
  4
[]
 41
3.999755859375
 42
25.0
 43
0.9999999999999999
 44
0.0
 73
     0
 74
     0
 77
     1
 78
    11
140
24.4326171875
141
0.0
143
1.0
146
0.8
147
0.4999999999999999
171
     1
172
     1
174
     1
178
     0
179
     2
271
     1
272
     1
276
     2
284
    11
285
    11
286
    11
289
     0
340
34
341
44
342
44
  0
DIMSTYLE
105
51
330
9
100
AcDbSymbolTableRecord
100
AcDbDimStyleTableRecord
  2
JIS
 70
     0
  3
<>
  4
[]
 41
31.75
 42
0.0
 43
6.99999999999994
 44
19.9999999999962
 73
     0
 74
     0
 77
     1
 78
    11
140
24.4326171875
141
0.0
143
1.0
147
1.00000000000108
171
     1
174
     1
178
     0
179
     2
271
     1
272
     1
276
     2
284
    11
285
    11
286
    11
289
     0
340
34
341
4D
342
4D
  0
ENDTAB
  0
TABLE
  2
BLOCK_RECORD
  5
1
330
0
100
AcDbSymbolTable
 70
    21
  0
BLOCK_RECORD
  5
A
330
1
100
AcDbSymbolTableRecord
100
AcDbBlockTableRecord
  2
*MODEL_SPACE
340
20
 70
     0
280
     1
281
     0
  0
BLOCK_RECORD
  5
B
330
1
100
AcDbSymbolTableRecord
100
AcDbBlockTableRecord
  2
*PAPER_SPACE
340
21
 70
     0
280
     1
281
     0
  0
BLOCK_RECORD
  5
44
330
1
100
AcDbSymbolTableRecord
100
AcDbBlockTableRecord
  2
_DOT
340
0
 70
     0
280
     1
281
     0
  0
BLOCK_RECORD
  5
4D
330
1
100
AcDbSymbolTableRecord
100
AcDbBlockTableRecord
  2
VW_FILLEDARROW
340
0
102
{BLKREFS
331
1F1
331
1F0
331
200
331
1FF
102
}
 70
     0
280
     1
281
     0
  0
BLOCK_RECORD
  5
23
330
1
100
AcDbSymbolTableRecord
100
AcDbBlockTableRecord
  2
グループ
340
0
102
{BLKREFS
331
132
102
}
 70
     0
280
     1
281
     0
  0
BLOCK_RECORD
  5
24
330
1
100
AcDbSymbolTableRecord
100
AcDbBlockTableRecord
  2
*D3
340
0
 70
     0
280
     1
281
     0
  0
BLOCK_RECORD
  5
25
330
1
100
AcDbSymbolTableRecord
100
AcDbBlockTableRecord
  2
*D4
340
0
 70
     0
280
     1
281
     0
  0
BLOCK_RECORD
  5
26
330
1
100
AcDbSymbolTableRecord
100
AcDbBlockTableRecord
  2
*D5
340
0
 70
     0
280
     1
281
     0
  0
BLOCK_RECORD
  5
27
330
1
100
AcDbSymbolTableRecord
100
AcDbBlockTableRecord
  2
*D6
340
0
 70
     0
280
     1
281
     0
  0
BLOCK_RECORD
  5
28
330
1
100
AcDbSymbolTableRecord
100
AcDbBlockTableRecord
  2
*D7
340
0
 70
     0
280
     1
281
     0
  0
BLOCK_RECORD
  5
29
330
1
100
AcDbSymbolTableRecord
100
AcDbBlockTableRecord
  2
*D8
340
0
 70
     0
280
     1
281
     0
  0
BLOCK_RECORD
  5
2A
330
1
100
AcDbSymbolTableRecord
100
AcDbBlockTableRecord
  2
*D9
340
0
 70
     0
280
     1
281
     0
  0
BLOCK_RECORD
  5
2B
330
1
100
AcDbSymbolTableRecord
100
AcDbBlockTableRecord
  2
*D10
340
0
 70
     0
280
     1
281
     0
  0
BLOCK_RECORD
  5
2C
330
1
100
AcDbSymbolTableRecord
100
AcDbBlockTableRecord
  2
*D11
340
0
 70
     0
280
     1
281
     0
  0
BLOCK_RECORD
  5
2D
330
1
100
AcDbSymbolTableRecord
100
AcDbBlockTableRecord
  2
*D12
340
0
 70
     0
280
     1
281
     0
  0
BLOCK_RECORD
  5
2E
330
1
100
AcDbSymbolTableRecord
100
AcDbBlockTableRecord
  2
*D13
340
0
 70
     0
280
     1
281
     0
  0
BLOCK_RECORD
  5
2F
330
1
100
AcDbSymbolTableRecord
100
AcDbBlockTableRecord
  2
*D14
340
0
 70
     0
280
     1
281
     0
  0
BLOCK_RECORD
  5
30
330
1
100
AcDbSymbolTableRecord
100
AcDbBlockTableRecord
  2
*D15
340
0
 70
     0
280
     1
281
     0
  0
BLOCK_RECORD
  5
31
330
1
100
AcDbSymbolTableRecord
100
AcDbBlockTableRecord
  2
*D16
340
0
 70
     0
280
     1
281
     0
  0
BLOCK_RECORD
  5
32
330
1
100
AcDbSymbolTableRecord
100
AcDbBlockTableRecord
  2
*D17
340
0
 70
     0
280
     1
281
     0
  0
BLOCK_RECORD
  5
33
330
1
100
AcDbSymbolTableRecord
100
AcDbBlockTableRecord
  2
*D18
340
0
 70
     0
280
     1
281
     0
  0
BLOCK_RECORD
  5
1E9
330
1
100
AcDbSymbolTableRecord
100
AcDbBlockTableRecord
  2
*D19
340
0
 70
     0
280
     1
281
     0
  0
BLOCK_RECORD
  5
1F9
330
1
100
AcDbSymbolTableRecord
100
AcDbBlockTableRecord
  2
*D20
340
0
 70
     0
280
     1
281
     0
  0
ENDTAB
  0
ENDSEC
  0
SECTION
  2
BLOCKS
  0
BLOCK
  5
D
330
A
100
AcDbEntity
  8
0
390
1D
100
AcDbBlockBegin
  2
*MODEL_SPACE
 70
     0
 10
0.0
 20
0.0
 30
0.0
  3
*MODEL_SPACE
  1
*MODEL_SPACE
  0
ENDBLK
  5
E
330
A
100
AcDbEntity
  8
0
390
1D
100
AcDbBlockEnd
  0
BLOCK
  5
F
330
B
100
AcDbEntity
 67
     1
  8
0
390
1D
100
AcDbBlockBegin
  2
*PAPER_SPACE
 70
     0
 10
0.0
 20
0.0
 30
0.0
  3
*PAPER_SPACE
  1
*PAPER_SPACE
  0
ENDBLK
  5
10
330
B
100
AcDbEntity
 67
     1
  8
0
390
1D
100
AcDbBlockEnd
  0
BLOCK
  5
45
330
44
100
AcDbEntity
  8
0
390
1D
100
AcDbBlockBegin
  2
_DOT
 70
     0
 10
0.0
 20
0.0
 30
0.0
  3
_DOT
  1
_DOT
  0
POLYLINE
  5
46
330
44
100
AcDbEntity
  8
0
  6
ByBlock
 62
     0
370
    -2
390
1D
100
AcDb2dPolyline
 66
     1
 10
0.0
 20
0.0
 30
0.0
 70
     1
 40
0.5
 41
0.5
  0
VERTEX
  5
47
330
46
100
AcDbEntity
  8
0
  6
ByBlock
 62
     0
370
    -2
390
1D
100
AcDbVertex
100
AcDb2dVertex
 10
-0.25
 20
0.0
 30
0.0
 42
1.0
  0
VERTEX
  5
48
330
46
100
AcDbEntity
  8
0
  6
ByBlock
 62
     0
370
    -2
390
1D
100
AcDbVertex
100
AcDb2dVertex
 10
0.25
 20
0.0
 30
0.0
 42
1.0
  0
SEQEND
  5
49
330
46
100
AcDbEntity
  8
0
390
1D
  0
LINE
  5
4A
330
44
100
AcDbEntity
  8
0
  6
ByBlock
 62
     0
370
    -2
390
1D
100
AcDbLine
 10
-0.5
 20
0.0
 30
0.0
 11
-1.0
 21
0.0
 31
0.0
  0
ENDBLK
  5
4B
330
44
100
AcDbEntity
  8
0
390
1D
100
AcDbBlockEnd
  0
BLOCK
  5
4E
330
4D
100
AcDbEntity
  8
0
  6
ByBlock
 62
     0
370
    -2
390
1D
100
AcDbBlockBegin
  2
VW_FILLEDARROW
 70
     0
 10
0.0
 20
0.0
 30
0.0
  3
VW_FILLEDARROW
  1
VW_FILLEDARROW
  0
SOLID
  5
4F
330
4D
100
AcDbEntity
  8
0
 62
     0
370
    -2
390
1D
100
AcDbTrace
 10
0.0
 20
0.0
 30
0.0
 11
-0.9921874999999999
 21
-0.2658558393652545
 31
0.0
 12
-0.9921874999999999
 22
0.2658558393652548
 32
0.0
 13
-0.9921874999999999
 23
0.2658558393652548
 33
0.0
  0
ENDBLK
  5
50
330
4D
100
AcDbEntity
  8
0
390
1D
100
AcDbBlockEnd
  0
BLOCK
  5
52
330
23
100
AcDbEntity
  8
template
390
1D
100
AcDbBlockBegin
  2
グループ
 70
     0
 10
0.0
 20
0.0
 30
0.0
  3
グループ
  1
グループ
  0
LWPOLYLINE
  5
53
330
23
100
AcDbEntity
  8
0
  6
Continuous
 62
     7
370
    15
390
1D
100
AcDbPolyline
 90
        8
 70
   129
 43
0.0
 10
-1138.781151262198
 20
-9462.22913715394
 10
-1138.781151262198
 20
-9468.226525847514
 10
-1148.282348180202
 20
-9468.226525847514
 10
-1148.282348180202
 20
-9492.677489111024
 10
-1156.637725441984
 20
-9492.677489111024
 10
-1156.637725441984
 20
-9468.226525847514
 10
-1165.970682388294
 20
-9468.226525847514
 10
-1165.970682388294
 20
-9462.22913715394
  0
LWPOLYLINE
  5
54
330
23
100
AcDbEntity
  8
0
  6
Continuous
 62
     7
370
    15
390
1D
100
AcDbPolyline
 90
      101
 70
   128
 43
0.0
 10
-1126.052859431641
 20
-9462.957385646874
 10
-1126.037509402844
 20
-9462.953024890186
 42
-0.0222221607795626
 10
-1125.747504826185
 20
-9462.884400424946
 10
-1125.731711062166
 20
-9462.881397001844
 42
-0.0146883565549298
 10
-1125.469008356967
 20
-9462.839393814898
 42
-0.0127458844192216
 10
-1125.204369389842
 20
-9462.811856846829
 10
-1125.141914311502
 20
-9462.806963424238
 42
-0.0198099018572945
 10
-1124.751065202031
 20
-9462.791878266842
 10
-1124.699253732581
 20
-9462.791932042506
 42
-0.0147617382742922
 10
-1124.204630271583
 20
-9462.807052067754
 10
-1124.131938816696
 20
-9462.811424674643
 42
-0.0162624548995169
 10
-1123.741785187267
 20
-9462.847657549912
 10
-1123.620252796098
 20
-9462.862944108896
 42
-0.0080020874677204
 10
-1123.474673764916
 20
-9462.883626956176
 10
-1123.436354294293
 20
-9462.889698233992
 42
-0.0053821929679555
 10
-1123.367870189007
 20
-9462.901305757809
 10
-1124.094275888205
 20
-9465.082234213523
 42
0.0108667757310878
 10
-1124.161592958309
 20
-9465.069047098308
 10
-1124.199060981525
 20
-9465.062549355709
 42
0.0170663203358353
 10
-1124.342277768449
 20
-9465.042719758418
 10
-1124.410153101124
 20
-9465.03567258783
 42
0.0220162375269644
 10
-1124.690532508959
 20
-9465.018990227061
 10
-1124.768388076038
 20
-9465.017790859793
 42
0.0282606915801039
 10
-1125.104024399609
 20
-9465.031594136763
 10
-1125.147937673339
 20
-9465.035894126762
 42
0.0169677213704069
 10
-1125.393862168341
 20
-9465.068431176318
 42
0.0190576269889918
 10
-1125.636770130901
 20
-9465.11857804842
 10
-1125.643029319031
 20
-9465.120121022534
 42
0.0213685642857502
 10
-1125.893413803515
 20
-9465.193321307639
 10
-1125.898903698425
 20
-9465.195184303697
 42
0.0237595297539097
 10
-1126.152398583302
 20
-9465.294868825582
 10
-1126.157500657354
 20
-9465.29716060107
 42
0.026185746882602
 10
-1126.409671433592
 20
-9465.42669693845
 10
-1126.420097622672
 20
-9465.432762412915
 42
0.0272553061997287
 10
-1126.656527397909
 20
-9465.588134618858
 10
-1126.691290411428
 20
-9465.613795766958
 42
0.0325996893188692
 10
-1126.84144575507
 20
-9465.740543639922
 10
-1126.865155184188
 20
-9465.763361668429
 42
0.0138050960556926
 10
-1126.957038340403
 20
-9465.856811329986
 42
0.0125280103729941
 10
-1127.043880873223
 20
-9465.954974656568
 10
-1127.067561318145
 20
-9465.983133154772
 42
0.0205218024712062
 10
-1127.192661393659
 20
-9466.144926469004
 10
-1127.215127734146
 20
-9466.17658619883
 42
0.0163110129571263
 10
-1127.3708381134
 20
-9466.411916633904
 10
-1127.373562009449
 20
-9466.416340395885
 42
0.0131897341885222
 10
-1127.520362530351
 20
-9466.669472488242
 10
-1127.522062625721
 20
-9466.672590727385
 42
0.0107895576088072
 10
-1127.659839327931
 20
-9466.93880593702
 10
-1127.660572217457
 20
-9466.940300169666
 42
0.0091371507220759
 10
-1127.789052166107
 20
-9467.214825367428
 10
-1127.818797797515
 20
-9467.281531874585
 42
0.0135418326360595
 10
-1127.990511736589
 20
-9467.696469659859
 10
-1128.02411654502
 20
-9467.784335802133
 42
0.0092834542399499
 10
-1128.195345604942
 20
-9468.25823430044
 10
-1128.220962732664
 20
-9468.333475370246
 42
0.0054261043559456
 10
-1128.328600880953
 20
-9468.661239343299
 10
-1128.346126867141
 20
-9468.716627505564
 42
0.0008225090819292
 10
-1128.41479691896
 20
-9468.934896263678
 10
-1129.399486050894
 20
-9471.959787556934
 10
-1126.16686221082
 20
-9471.959787556934
 10
-1126.671054640673
 20
-9473.864265855287
 10
-1129.927110922657
 20
-9473.864265855287
 10
-1135.75625995501
 20
-9492.677488921292
 10
-1137.581357565321
 20
-9492.677488921292
 10
-1131.74667952982
 20
-9473.864265855287
 10
-1134.15179589886
 20
-9473.864265855287
 10
-1133.647603469007
 20
-9471.959787556934
 10
-1131.219054658057
 20
-9471.959787556934
 10
-1130.358899739868
 20
-9469.323374556236
 42
-0.0005863560650262
 10
-1130.322165061735
 20
-9469.206548136168
 10
-1130.246077228004
 20
-9468.96555583656
 42
-0.008752237891854
 10
-1130.046609084542
 20
-9468.370279749399
 10
-1129.95434480914
 20
-9468.110139580916
 42
-0.0077400953830724
 10
-1129.696411150003
 20
-9467.417134903351
 10
-1129.680646178419
 20
-9467.376704019955
 42
-0.0082369946343191
 10
-1129.433561707812
 20
-9466.77262495377
 42
-0.0085725238358376
 10
-1129.166315611809
 20
-9466.17719891448
 10
-1129.064686010799
 20
-9465.96077781249
 42
-0.0168109410599433
 10
-1128.777741582071
 20
-9465.399570286394
 10
-1128.651898191645
 20
-9465.172606253456
 42
-0.000781772679776
 10
-1128.597613841556
 20
-9465.075062008364
 10
-1128.597485535539
 20
-9465.074832299628
 42
-0.0036626142111634
 10
-1128.542597671517
 20
-9464.97823441966
 42
-0.0080221150596257
 10
-1128.485473416106
 20
-9464.8829551849
 10
-1128.454773464749
 20
-9464.833564235785
 42
-0.020213932556588
 10
-1128.327117724943
 20
-9464.645582635103
 10
-1128.273050259755
 20
-9464.572503770862
 42
-0.0249323791773236
 10
-1128.01388746603
 20
-9464.2564585287
 10
-1127.989747651909
 20
-9464.229844255795
 42
-0.0242132121542811
 10
-1127.650066910375
 20
-9463.889960769597
 10
-1127.602155337626
 20
-9463.846451633413
 42
-0.0251017527897953
 10
-1127.318173636976
 20
-9463.613458887641
 10
-1127.316728160155
 20
-9463.612389630058
 42
-0.0130868069072448
 10
-1127.018467510205
 20
-9463.40360916152
 10
-1127.016905691064
 20
-9463.402575721246
 42
-0.0290329526403034
 10
-1126.705794549669
 20
-9463.221750219614
 10
-1126.675948987705
 20
-9463.206647836787
 42
-0.0160250190059894
 10
-1126.410044573918
 20
-9463.082631726562
 42
-0.0267600374775231
 10
-1126.134768496438
 20
-9462.98188340601
 10
-1126.108032576928
 20
-9462.973690847188
 42
-0.0049981587705958
 10
-1126.052859431641
 20
-9462.957385646874
 42
-0.0049981587705958
  0
LWPOLYLINE
  5
55
330
23
100
AcDbEntity
  8
0
  6
Continuous
 62
     7
370
    15
390
1D
100
AcDbPolyline
 90
      118
 70
   128
 43
0.0
 10
-1106.238491867194
 20
-9472.033770884762
 10
-1104.363369942695
 20
-9472.033770884762
 10
-1105.201408848295
 20
-9474.715337411162
 42
-0.0010587229395984
 10
-1105.1699530328
 20
-9474.678432877898
 10
-1105.111758942091
 20
-9474.610450621632
 42
-0.007187474040197
 10
-1104.961383723998
 20
-9474.439809929609
 10
-1104.81966095073
 20
-9474.283573788289
 42
-0.0148118053505133
 10
-1104.369531658045
 20
-9473.815959942303
 10
-1104.282309323096
 20
-9473.730562621402
 42
-0.0086273358700329
 10
-1103.946760522108
 20
-9473.413186987407
 10
-1103.902926805915
 20
-9473.373137343104
 42
-0.0103138323099411
 10
-1103.644903103648
 20
-9473.146974205734
 10
-1103.599128697259
 20
-9473.108492158422
 42
-0.0060206748517648
 10
-1103.426280633209
 20
-9472.96669750772
 10
-1103.424249502342
 20
-9472.965071802104
 42
-0.0067069027310222
 10
-1103.25195668766
 20
-9472.830921168294
 10
-1103.249407921732
 20
-9472.828990998416
 42
-0.0076184351988815
 10
-1103.078502655863
 20
-9472.703616123174
 42
-0.0089652861634997
 10
-1102.903541693111
 20
-9472.58398286283
 10
-1102.867189972977
 20
-9472.560071649354
 42
-0.0156916245918348
 10
-1102.671230475823
 20
-9472.439809162885
 42
-0.0023299011079045
 10
-1102.470968431819
 20
-9472.32663122333
 10
-1102.455584299464
 20
-9472.318031228278
 42
-0.0107669341489224
 10
-1102.221347474357
 20
-9472.193631094928
 10
-1102.199082673288
 20
-9472.182414344981
 42
-0.0078058045899278
 10
-1101.915492555346
 20
-9472.045052889347
 10
-1101.905585467626
 20
-9472.040443761474
 42
-0.0181829330486183
 10
-1101.595276063
 20
-9471.909580020374
 10
-1101.541220620443
 20
-9471.889064900433
 42
-0.0208411536013572
 10
-1101.192135652993
 20
-9471.77297443794
 10
-1101.177779552866
 20
-9471.768855992987
 42
-0.0222799817141021
 10
-1100.849059758948
 20
-9471.690214426846
 10
-1100.840170795709
 20
-9471.68850241626
 42
-0.0215509523898123
 10
-1100.523699827432
 20
-9471.641586727728
 10
-1100.481217866379
 20
-9471.637149200937
 42
-0.0182545924850589
 10
-1100.247109087077
 20
-9471.621305375545
 10
-1100.207708070747
 20
-9471.620080830467
 42
-0.0072962856519029
 10
-1100.05178519104
 20
-9471.617511501945
 10
-1100.022685520436
 20
-9471.617456666541
 42
-0.0059227516247645
 10
-1099.924936021323
 20
-9471.61843037833
 10
-1099.895693803891
 20
-9471.619068144933
 42
-0.001183311188649
 10
-1099.856442520119
 20
-9471.620017149244
 10
-1100.651829115726
 20
-9474.158751094343
 42
0.0143932051475619
 10
-1100.678230498105
 20
-9474.148552124287
 10
-1100.685502470494
 20
-9474.14598090544
 42
0.0234388603369972
 10
-1100.727333336426
 20
-9474.133361669725
 10
-1100.736014999339
 20
-9474.13118070772
 42
0.0199162743001755
 10
-1100.796303833415
 20
-9474.118563972386
 10
-1100.817117771225
 20
-9474.115066772956
 42
0.0293643550675379
 10
-1100.920192629996
 20
-9474.103916727305
 10
-1100.944877810705
 20
-9474.102705110286
 42
0.0214606686886185
 10
-1101.098018726638
 20
-9474.101766549868
 10
-1101.107390637475
 20
-9474.102111461412
 42
0.0167564054184544
 10
-1101.278910828594
 20
-9474.114188503781
 10
-1101.287370621343
 20
-9474.115069844207
 42
0.0137677553249582
 10
-1101.474723934582
 20
-9474.139819152746
 10
-1101.482075674115
 20
-9474.140997072718
 42
0.0118497261498337
 10
-1101.682573438238
 20
-9474.178014422912
 10
-1101.688723445464
 20
-9474.179301285629
 42
0.0106421143880442
 10
-1101.899604332685
 20
-9474.228133661187
 10
-1101.904513141138
 20
-9474.229381003888
 42
0.0099746379705472
 10
-1102.122971610356
 20
-9474.28955553222
 10
-1102.184519650471
 20
-9474.307837410834
 42
0.0191613675848762
 10
-1102.520504112993
 20
-9474.421814791122
 10
-1102.608563885706
 20
-9474.455501701434
 42
0.0205274080118936
 10
-1102.993870657632
 20
-9474.62133010927
 10
-1103.0515199396
 20
-9474.648998073835
 42
0.0181256912176081
 10
-1103.309796880281
 20
-9474.784681892821
 10
-1103.362752263572
 20
-9474.814999506023
 42
0.0140709242410611
 10
-1103.507707198223
 20
-9474.90349417947
 10
-1103.533956066823
 20
-9474.920550998173
 42
0.0086667884302726
 10
-1103.622882228384
 20
-9474.980553666068
 42
0.0036408191997726
 10
-1103.710315466452
 20
-9475.042734523886
 10
-1103.745542340886
 20
-9475.068175469773
 42
0.0052260781252722
 10
-1103.901771038201
 20
-9475.18350785635
 10
-1103.917977894537
 20
-9475.195735967027
 42
0.0050024435898913
 10
-1104.103981237651
 20
-9475.339018535331
 10
-1104.119299394111
 20
-9475.351064557733
 42
0.0136138710250517
 10
-1104.329740662448
 20
-9475.526031062656
 10
-1104.36340853823
 20
-9475.55561003536
 42
0.0172815186895832
 10
-1104.627812079899
 20
-9475.80460670799
 10
-1104.630374425735
 20
-9475.807192525132
 42
0.0189403857985324
 10
-1104.880956224313
 20
-9476.079997789933
 10
-1104.913587717849
 20
-9476.11834172143
 42
0.0185044199480932
 10
-1105.10554415683
 20
-9476.361590302557
 42
0.0088565243876584
 10
-1105.284004263449
 20
-9476.615106722691
 10
-1105.293182243107
 20
-9476.628648102465
 42
0.0157195347215793
 10
-1105.476402849438
 20
-9476.918170311777
 10
-1105.522485791379
 20
-9476.996322508816
 42
0.0095451879787
 10
-1105.68757134151
 20
-9477.28891715116
 10
-1105.69871926044
 20
-9477.309587823293
 42
0.0100351706244875
 10
-1105.830763009599
 20
-9477.566643383781
 42
0.0086935915403872
 10
-1105.9530941614
 20
-9477.828476529201
 10
-1105.956414902807
 20
-9477.835918852157
 42
0.0072580174862806
 10
-1106.076761354752
 20
-9478.11651084374
 10
-1106.080022988059
 20
-9478.12443086976
 42
0.0060005122599275
 10
-1106.199223656415
 20
-9478.4240405404
 10
-1106.202434634743
 20
-9478.432402068269
 42
0.0049017786984335
 10
-1106.321334793598
 20
-9478.751331048868
 10
-1106.324500599991
 20
-9478.760083986104
 42
0.0039415167588709
 10
-1106.443936878051
 20
-9479.098626048526
 10
-1106.4470679807
 20
-9479.107729249394
 42
0.0031035838773751
 10
-1106.567872766385
 20
-9479.466169111143
 10
-1106.570982810923
 20
-9479.475589732541
 42
0.002507074716544
 10
-1106.693884162243
 20
-9479.8542369495
 10
-1106.731178058664
 20
-9479.97112861474
 42
0.0029081910285217
 10
-1106.923196356478
 20
-9480.58529227304
 10
-1106.963999524992
 20
-9480.718515515306
 42
0.0009266453722156
 10
-1107.232416899264
 20
-9481.60073997509
 10
-1107.253304371907
 20
-9481.669851854334
 42
-0.000580999367001
 10
-1107.530641052538
 20
-9482.583659961105
 10
-1107.59692285081
 20
-9482.801144893261
 42
-0.0012018708175249
 10
-1107.74390716024
 20
-9483.279307557785
 10
-1107.79622701175
 20
-9483.44806669847
 42
-0.0002691059653837
 10
-1107.839796492975
 20
-9483.588334318993
 10
-1110.672752391264
 20
-9492.677488921292
 10
-1112.490741283242
 20
-9492.677488921292
 10
-1106.238491867194
 20
-9472.033770884762
  0
SPLINE
  5
56
330
23
100
AcDbEntity
  8
0
  6
Continuous
 62
     7
370
    15
390
1D
100
AcDbSpline
210
0.0
220
0.0
230
1.0
 70
    15
 71
     2
 72
   782
 73
   779
 74
     0
 42
0.000000001
 43
0.000001
 40
0.0
 40
0.0
 40
0.0
 40
1.0
 40
1.0
 40
2.0
 40
2.0
 40
3.0
 40
3.0
 40
4.0
 40
4.0
 40
5.0
 40
5.0
 40
6.0
 40
6.0
 40
7.0
 40
7.0
 40
8.0
 40
8.0
 40
9.0
 40
9.0
 40
10.0
 40
10.0
 40
11.0
 40
11.0
 40
12.0
 40
12.0
 40
13.0
 40
13.0
 40
14.0
 40
14.0
 40
15.0
 40
15.0
 40
16.0
 40
16.0
 40
17.0
 40
17.0
 40
18.0
 40
18.0
 40
19.0
 40
19.0
 40
20.0
 40
20.0
 40
21.0
 40
21.0
 40
22.0
 40
22.0
 40
23.0
 40
23.0
 40
24.0
 40
24.0
 40
25.0
 40
25.0
 40
26.0
 40
26.0
 40
27.0
 40
27.0
 40
28.0
 40
28.0
 40
29.0
 40
29.0
 40
30.0
 40
30.0
 40
31.0
 40
31.0
 40
32.0
 40
32.0
 40
33.0
 40
33.0
 40
34.0
 40
34.0
 40
35.0
 40
35.0
 40
36.0
 40
36.0
 40
37.0
 40
37.0
 40
38.0
 40
38.0
 40
39.0
 40
39.0
 40
40.0
 40
40.0
 40
41.0
 40
41.0
 40
42.0
 40
42.0
 40
43.0
 40
43.0
 40
44.0
 40
44.0
 40
45.0
 40
45.0
 40
46.0
 40
46.0
 40
47.0
 40
47.0
 40
48.0
 40
48.0
 40
49.0
 40
49.0
 40
50.0
 40
50.0
 40
51.0
 40
51.0
 40
52.0
 40
52.0
 40
53.0
 40
53.0
 40
54.0
 40
54.0
 40
55.0
 40
55.0
 40
56.0
 40
56.0
 40
57.0
 40
57.0
 40
58.0
 40
58.0
 40
59.0
 40
59.0
 40
60.0
 40
60.0
 40
61.0
 40
61.0
 40
62.0
 40
62.0
 40
63.0
 40
63.0
 40
64.0
 40
64.0
 40
65.0
 40
65.0
 40
66.0
 40
66.0
 40
67.0
 40
67.0
 40
68.0
 40
68.0
 40
69.0
 40
69.0
 40
70.0
 40
70.0
 40
71.0
 40
71.0
 40
72.0
 40
72.0
 40
73.0
 40
73.0
 40
74.0
 40
74.0
 40
75.0
 40
75.0
 40
76.0
 40
76.0
 40
77.0
 40
77.0
 40
78.0
 40
78.0
 40
79.0
 40
79.0
 40
80.0
 40
80.0
 40
81.0
 40
81.0
 40
82.0
 40
82.0
 40
83.0
 40
83.0
 40
84.0
 40
84.0
 40
85.0
 40
85.0
 40
86.0
 40
86.0
 40
87.0
 40
87.0
 40
88.0
 40
88.0
 40
89.0
 40
89.0
 40
90.0
 40
90.0
 40
91.0
 40
91.0
 40
92.0
 40
92.0
 40
93.0
 40
93.0
 40
94.0
 40
94.0
 40
95.0
 40
95.0
 40
96.0
 40
96.0
 40
97.0
 40
97.0
 40
98.0
 40
98.0
 40
99.0
 40
99.0
 40
100.0
 40
100.0
 40
101.0
 40
101.0
 40
102.0
 40
102.0
 40
103.0
 40
103.0
 40
104.0
 40
104.0
 40
105.0
 40
105.0
 40
106.0
 40
106.0
 40
107.0
 40
107.0
 40
108.0
 40
108.0
 40
109.0
 40
109.0
 40
110.0
 40
110.0
 40
111.0
 40
111.0
 40
112.0
 40
112.0
 40
113.0
 40
113.0
 40
114.0
 40
114.0
 40
115.0
 40
115.0
 40
116.0
 40
116.0
 40
117.0
 40
117.0
 40
118.0
 40
118.0
 40
119.0
 40
119.0
 40
120.0
 40
120.0
 40
121.0
 40
121.0
 40
122.0
 40
122.0
 40
123.0
 40
123.0
 40
124.0
 40
124.0
 40
125.0
 40
125.0
 40
126.0
 40
126.0
 40
127.0
 40
127.0
 40
128.0
 40
128.0
 40
129.0
 40
129.0
 40
130.0
 40
130.0
 40
131.0
 40
131.0
 40
132.0
 40
132.0
 40
133.0
 40
133.0
 40
134.0
 40
134.0
 40
135.0
 40
135.0
 40
136.0
 40
136.0
 40
137.0
 40
137.0
 40
138.0
 40
138.0
 40
139.0
 40
139.0
 40
140.0
 40
140.0
 40
141.0
 40
141.0
 40
142.0
 40
142.0
 40
143.0
 40
143.0
 40
144.0
 40
144.0
 40
145.0
 40
145.0
 40
146.0
 40
146.0
 40
147.0
 40
147.0
 40
148.0
 40
148.0
 40
149.0
 40
149.0
 40
150.0
 40
150.0
 40
151.0
 40
151.0
 40
152.0
 40
152.0
 40
153.0
 40
153.0
 40
154.0
 40
154.0
 40
155.0
 40
155.0
 40
156.0
 40
156.0
 40
157.0
 40
157.0
 40
158.0
 40
158.0
 40
159.0
 40
159.0
 40
160.0
 40
160.0
 40
161.0
 40
161.0
 40
162.0
 40
162.0
 40
163.0
 40
163.0
 40
164.0
 40
164.0
 40
165.0
 40
165.0
 40
166.0
 40
166.0
 40
167.0
 40
167.0
 40
168.0
 40
168.0
 40
169.0
 40
169.0
 40
170.0
 40
170.0
 40
171.0
 40
171.0
 40
172.0
 40
172.0
 40
173.0
 40
173.0
 40
174.0
 40
174.0
 40
175.0
 40
175.0
 40
176.0
 40
176.0
 40
177.0
 40
177.0
 40
178.0
 40
178.0
 40
179.0
 40
179.0
 40
180.0
 40
180.0
 40
181.0
 40
181.0
 40
182.0
 40
182.0
 40
183.0
 40
183.0
 40
184.0
 40
184.0
 40
185.0
 40
185.0
 40
186.0
 40
186.0
 40
187.0
 40
187.0
 40
188.0
 40
188.0
 40
189.0
 40
189.0
 40
190.0
 40
190.0
 40
191.0
 40
191.0
 40
192.0
 40
192.0
 40
193.0
 40
193.0
 40
194.0
 40
194.0
 40
195.0
 40
195.0
 40
196.0
 40
196.0
 40
197.0
 40
197.0
 40
198.0
 40
198.0
 40
199.0
 40
199.0
 40
200.0
 40
200.0
 40
201.0
 40
201.0
 40
202.0
 40
202.0
 40
203.0
 40
203.0
 40
204.0
 40
204.0
 40
205.0
 40
205.0
 40
206.0
 40
206.0
 40
207.0
 40
207.0
 40
208.0
 40
208.0
 40
209.0
 40
209.0
 40
210.0
 40
210.0
 40
211.0
 40
211.0
 40
212.0
 40
212.0
 40
213.0
 40
213.0
 40
214.0
 40
214.0
 40
215.0
 40
215.0
 40
216.0
 40
216.0
 40
217.0
 40
217.0
 40
218.0
 40
218.0
 40
219.0
 40
219.0
 40
220.0
 40
220.0
 40
221.0
 40
221.0
 40
222.0
 40
222.0
 40
223.0
 40
223.0
 40
224.0
 40
224.0
 40
225.0
 40
225.0
 40
226.0
 40
226.0
 40
227.0
 40
227.0
 40
228.0
 40
228.0
 40
229.0
 40
229.0
 40
230.0
 40
230.0
 40
231.0
 40
231.0
 40
232.0
 40
232.0
 40
233.0
 40
233.0
 40
234.0
 40
234.0
 40
235.0
 40
235.0
 40
236.0
 40
236.0
 40
237.0
 40
237.0
 40
238.0
 40
238.0
 40
239.0
 40
239.0
 40
240.0
 40
240.0
 40
241.0
 40
241.0
 40
242.0
 40
242.0
 40
243.0
 40
243.0
 40
244.0
 40
244.0
 40
245.0
 40
245.0
 40
246.0
 40
246.0
 40
247.0
 40
247.0
 40
248.0
 40
248.0
 40
249.0
 40
249.0
 40
250.0
 40
250.0
 40
251.0
 40
251.0
 40
252.0
 40
252.0
 40
253.0
 40
253.0
 40
254.0
 40
254.0
 40
255.0
 40
255.0
 40
256.0
 40
256.0
 40
257.0
 40
257.0
 40
258.0
 40
258.0
 40
259.0
 40
259.0
 40
260.0
 40
260.0
 40
261.0
 40
261.0
 40
262.0
 40
262.0
 40
263.0
 40
263.0
 40
264.0
 40
264.0
 40
265.0
 40
265.0
 40
266.0
 40
266.0
 40
267.0
 40
267.0
 40
268.0
 40
268.0
 40
269.0
 40
269.0
 40
270.0
 40
270.0
 40
271.0
 40
271.0
 40
272.0
 40
272.0
 40
273.0
 40
273.0
 40
274.0
 40
274.0
 40
275.0
 40
275.0
 40
276.0
 40
276.0
 40
277.0
 40
277.0
 40
278.0
 40
278.0
 40
279.0
 40
279.0
 40
280.0
 40
280.0
 40
281.0
 40
281.0
 40
282.0
 40
282.0
 40
283.0
 40
283.0
 40
284.0
 40
284.0
 40
285.0
 40
285.0
 40
286.0
 40
286.0
 40
287.0
 40
287.0
 40
288.0
 40
288.0
 40
289.0
 40
289.0
 40
290.0
 40
290.0
 40
291.0
 40
291.0
 40
292.0
 40
292.0
 40
293.0
 40
293.0
 40
294.0
 40
294.0
 40
295.0
 40
295.0
 40
296.0
 40
296.0
 40
297.0
 40
297.0
 40
298.0
 40
298.0
 40
299.0
 40
299.0
 40
300.0
 40
300.0
 40
301.0
 40
301.0
 40
302.0
 40
302.0
 40
303.0
 40
303.0
 40
304.0
 40
304.0
 40
305.0
 40
305.0
 40
306.0
 40
306.0
 40
307.0
 40
307.0
 40
308.0
 40
308.0
 40
309.0
 40
309.0
 40
310.0
 40
310.0
 40
311.0
 40
311.0
 40
312.0
 40
312.0
 40
313.0
 40
313.0
 40
314.0
 40
314.0
 40
315.0
 40
315.0
 40
316.0
 40
316.0
 40
317.0
 40
317.0
 40
318.0
 40
318.0
 40
319.0
 40
319.0
 40
320.0
 40
320.0
 40
321.0
 40
321.0
 40
322.0
 40
322.0
 40
323.0
 40
323.0
 40
324.0
 40
324.0
 40
325.0
 40
325.0
 40
326.0
 40
326.0
 40
327.0
 40
327.0
 40
328.0
 40
328.0
 40
329.0
 40
329.0
 40
330.0
 40
330.0
 40
331.0
 40
331.0
 40
332.0
 40
332.0
 40
333.0
 40
333.0
 40
334.0
 40
334.0
 40
335.0
 40
335.0
 40
336.0
 40
336.0
 40
337.0
 40
337.0
 40
338.0
 40
338.0
 40
339.0
 40
339.0
 40
340.0
 40
340.0
 40
341.0
 40
341.0
 40
342.0
 40
342.0
 40
343.0
 40
343.0
 40
344.0
 40
344.0
 40
345.0
 40
345.0
 40
346.0
 40
346.0
 40
347.0
 40
347.0
 40
348.0
 40
348.0
 40
349.0
 40
349.0
 40
350.0
 40
350.0
 40
351.0
 40
351.0
 40
352.0
 40
352.0
 40
353.0
 40
353.0
 40
354.0
 40
354.0
 40
355.0
 40
355.0
 40
356.0
 40
356.0
 40
357.0
 40
357.0
 40
358.0
 40
358.0
 40
359.0
 40
359.0
 40
360.0
 40
360.0
 40
361.0
 40
361.0
 40
362.0
 40
362.0
 40
363.0
 40
363.0
 40
364.0
 40
364.0
 40
365.0
 40
365.0
 40
366.0
 40
366.0
 40
367.0
 40
367.0
 40
368.0
 40
368.0
 40
369.0
 40
369.0
 40
370.0
 40
370.0
 40
371.0
 40
371.0
 40
372.0
 40
372.0
 40
373.0
 40
373.0
 40
374.0
 40
374.0
 40
375.0
 40
375.0
 40
376.0
 40
376.0
 40
377.0
 40
377.0
 40
378.0
 40
378.0
 40
379.0
 40
379.0
 40
380.0
 40
380.0
 40
381.0
 40
381.0
 40
382.0
 40
382.0
 40
383.0
 40
383.0
 40
384.0
 40
384.0
 40
385.0
 40
385.0
 40
386.0
 40
386.0
 40
387.0
 40
387.0
 40
388.0
 40
388.0
 40
389.0
 40
389.0
 40
389.0
 10
-1095.909787416462
 20
-9472.0228445214
 30
0.0
 41
1.0
 10
-1095.091363307741
 20
-9472.0228445214
 30
0.0
 41
1.0
 10
-1094.272939199021
 20
-9472.0228445214
 30
0.0
 41
1.0
 10
-1094.686692934537
 20
-9473.36547078565
 30
0.0
 41
1.0
 10
-1095.100446670054
 20
-9474.7080970499
 30
0.0
 41
1.0
 10
-1095.082107174922
 20
-9474.679396277043
 30
0.0
 41
0.999995726434981
 10
-1095.063600178054
 20
-9474.650803226836
 30
0.0
 41
1.0
 10
-1095.033170853918
 20
-9474.603790348461
 30
0.0
 41
1.0
 10
-1095.002741529781
 20
-9474.556777470085
 30
0.0
 41
1.0
 10
-1094.923375884671
 20
-9474.434158663176
 30
0.0
 41
0.9995394069081376
 10
-1094.836717493125
 20
-9474.316580601442
 30
0.0
 41
1.0
 10
-1094.800960630862
 20
-9474.268065708844
 30
0.0
 41
1.0
 10
-1094.765203768598
 20
-9474.219550816246
 30
0.0
 41
1.0
 10
-1094.631477100779
 20
-9474.03811054112
 30
0.0
 41
0.9994460617143789
 10
-1094.485976619497
 20
-9473.865968143476
 30
0.0
 41
1.0
 10
-1094.481588438524
 20
-9473.860776463096
 30
0.0
 41
1.0
 10
-1094.477200257551
 20
-9473.855584782716
 30
0.0
 41
1.0
 10
-1094.340476138207
 20
-9473.693825745824
 30
0.0
 41
0.9994359394934269
 10
-1094.193201907858
 20
-9473.541609544664
 30
0.0
 41
1.0
 10
-1094.190818553889
 20
-9473.539146214274
 30
0.0
 41
1.0
 10
-1094.188435199919
 20
-9473.536682883885
 30
0.0
 41
1.0
 10
-1094.045927677489
 20
-9473.389393343481
 30
0.0
 41
0.9995293688566986
 10
-1093.894655996524
 20
-9473.251120131334
 30
0.0
 41
1.0
 10
-1093.875362237265
 20
-9473.233484245686
 30
0.0
 41
1.0
 10
-1093.856068478006
 20
-9473.215848360038
 30
0.0
 41
1.0
 10
-1093.743384315551
 20
-9473.112846919177
 30
0.0
 41
0.9997087614803749
 10
-1093.625861426587
 20
-9473.015402638372
 30
0.0
 41
1.0
 10
-1093.606695353359
 20
-9472.999511059821
 30
0.0
 41
1.0
 10
-1093.587529280132
 20
-9472.983619481269
 30
0.0
 41
1.0
 10
-1093.508338537554
 20
-9472.917958357513
 30
0.0
 41
0.9999595338695185
 10
-1093.427979266777
 20
-9472.85373262692
 30
0.0
 41
1.0
 10
-1093.347619995855
 20
-9472.789506896212
 30
0.0
 41
0.999974941750853
 10
-1093.266359461506
 20
-9472.726425342262
 30
0.0
 41
1.0
 10
-1093.245373315357
 20
-9472.71013405497
 30
0.0
 41
1.0
 10
-1093.22438716921
 20
-9472.69384276768
 30
0.0
 41
1.0
 10
-1093.139819283903
 20
-9472.628193757837
 30
0.0
 41
0.9999792037121158
 10
-1093.054411684176
 20
-9472.563640976225
 30
0.0
 41
1.0
 10
-1093.033586858726
 20
-9472.547901154316
 30
0.0
 41
1.0
 10
-1093.012762033276
 20
-9472.532161332407
 30
0.0
 41
1.0
 10
-1092.969004085011
 20
-9472.49908819504
 30
0.0
 41
0.9999993373702449
 10
-1092.925322398263
 20
-9472.465914399158
 30
0.0
 41
1.0
 10
-1092.881640712148
 20
-9472.432740603754
 30
0.0
 41
0.9999160953812676
 10
-1092.837114301272
 20
-9472.400709538588
 30
0.0
 41
1.0
 10
-1092.804292413817
 20
-9472.377098382978
 30
0.0
 41
1.0
 10
-1092.771470526362
 20
-9472.353487227367
 30
0.0
 41
1.0
 10
-1092.661300340593
 20
-9472.274233850992
 30
0.0
 41
0.9980964527232133
 10
-1092.542211347088
 20
-9472.209146378134
 30
0.0
 41
1.0
 10
-1092.505178740169
 20
-9472.188906398545
 30
0.0
 41
1.0
 10
-1092.468146133248
 20
-9472.168666418956
 30
0.0
 41
1.0
 10
-1092.288819119974
 20
-9472.070656168255
 30
0.0
 41
0.9984572810572601
 10
-1092.099730553614
 20
-9471.993133906908
 30
0.0
 41
1.0
 10
-1092.096084284229
 20
-9471.991639014574
 30
0.0
 41
1.0
 10
-1092.092438014844
 20
-9471.990144122241
 30
0.0
 41
1.0
 10
-1091.910641987269
 20
-9471.915611645565
 30
0.0
 41
0.9987838528031148
 10
-1091.722389328696
 20
-9471.859346005396
 30
0.0
 41
1.0
 10
-1091.718151379494
 20
-9471.858079351705
 30
0.0
 41
1.0
 10
-1091.713913430293
 20
-9471.856812698014
 30
0.0
 41
1.0
 10
-1091.534136670134
 20
-9471.80308036523
 30
0.0
 41
0.9990652816205833
 10
-1091.350390738421
 20
-9471.765076685688
 30
0.0
 41
1.0
 10
-1091.345202337394
 20
-9471.764003582583
 30
0.0
 41
1.0
 10
-1091.340013936366
 20
-9471.762930479477
 30
0.0
 41
1.0
 10
-1091.16664480671
 20
-9471.727073006146
 30
0.0
 41
0.9992909934269387
 10
-1090.991069040247
 20
-9471.70436257368
 30
0.0
 41
1.0
 10
-1090.815493273802
 20
-9471.681652141213
 30
0.0
 41
0.9994553539447919
 10
-1090.638801840724
 20
-9471.670572837007
 30
0.0
 41
1.0
 10
-1090.603367432902
 20
-9471.668350948958
 30
0.0
 41
1.0
 10
-1090.56793302508
 20
-9471.666129060908
 30
0.0
 41
1.0
 10
-1090.401707258523
 20
-9471.655705998499
 30
0.0
 41
0.9990928098295107
 10
-1090.235197466632
 20
-9471.659465639734
 30
0.0
 41
1.0
 10
-1090.196635631349
 20
-9471.660336331268
 30
0.0
 41
1.0
 10
-1090.158073796065
 20
-9471.6612070228
 30
0.0
 41
1.0
 10
-1090.068687674719
 20
-9471.663225280969
 30
0.0
 41
0.999838208920557
 10
-1089.979431991943
 20
-9471.668457407497
 30
0.0
 41
1.0
 10
-1089.97900208573
 20
-9471.668482608398
 30
0.0
 41
1.0
 10
-1089.978572179517
 20
-9471.668507809301
 30
0.0
 41
1.0
 10
-1089.890176309164
 20
-9471.673689534024
 30
0.0
 41
0.9997558016756024
 10
-1089.802095731956
 20
-9471.68277204939
 30
0.0
 41
1.0
 10
-1089.801619593534
 20
-9471.682821146871
 30
0.0
 41
1.0
 10
-1089.801143455112
 20
-9471.682870244353
 30
0.0
 41
1.0
 10
-1089.714015154762
 20
-9471.691854564755
 30
0.0
 41
0.9996565144181775
 10
-1089.627477301413
 20
-9471.705391871446
 30
0.0
 41
1.0
 10
-1089.627011376013
 20
-9471.705464757182
 30
0.0
 41
1.0
 10
-1089.626545450613
 20
-9471.705537642916
 30
0.0
 41
1.0
 10
-1089.540939448051
 20
-9471.71892917814
 30
0.0
 41
0.9995321806871406
 10
-1089.456312367743
 20
-9471.737529666565
 30
0.0
 41
1.0
 10
-1089.455923173164
 20
-9471.737615209033
 30
0.0
 41
1.0
 10
-1089.455533978586
 20
-9471.7377007515
 30
0.0
 41
1.0
 10
-1089.37168528741
 20
-9471.756130154996
 30
0.0
 41
0.9993819199217618
 10
-1089.289338753219
 20
-9471.780405538255
 30
0.0
 41
1.0
 10
-1089.289100319729
 20
-9471.780475827361
 30
0.0
 41
1.0
 10
-1089.288861886239
 20
-9471.780546116468
 30
0.0
 41
1.0
 10
-1089.206992219028
 20
-9471.804680921514
 30
0.0
 41
0.9992088568509659
 10
-1089.127299700035
 20
-9471.835246157309
 30
0.0
 41
1.0
 10
-1089.047618709153
 20
-9471.865805758043
 30
0.0
 41
0.9990226101769609
 10
-1088.970948039248
 20
-9471.903283189658
 30
0.0
 41
1.0
 10
-1088.894288897461
 20
-9471.940754986204
 30
0.0
 41
0.9988424273972526
 10
-1088.821585270258
 20
-9471.985419761451
 30
0.0
 41
1.0
 10
-1088.821317561869
 20
-9471.985584225531
 30
0.0
 41
1.0
 10
-1088.821049853479
 20
-9471.985748689609
 30
0.0
 41
1.0
 10
-1088.747810809502
 20
-9472.03074239301
 30
0.0
 41
0.998692884448915
 10
-1088.679547942789
 20
-9472.082978127293
 30
0.0
 41
1.0
 10
-1088.678966650571
 20
-9472.083422940517
 30
0.0
 41
1.0
 10
-1088.678385358353
 20
-9472.083867753741
 30
0.0
 41
1.0
 10
-1088.608959907196
 20
-9472.136993114478
 30
0.0
 41
0.9986007262283244
 10
-1088.545533737428
 20
-9472.197153884172
 30
0.0
 41
1.0
 10
-1088.544639321972
 20
-9472.198002252006
 30
0.0
 41
1.0
 10
-1088.543744906517
 20
-9472.19885061984
 30
0.0
 41
1.0
 10
-1088.478529905836
 20
-9472.260708125203
 30
0.0
 41
0.9985581491382799
 10
-1088.420322294137
 20
-9472.329200615473
 30
0.0
 41
1.0
 10
-1088.41106384054
 20
-9472.340094973177
 30
0.0
 41
1.0
 10
-1088.401805386942
 20
-9472.35098933088
 30
0.0
 41
1.0
 10
-1088.325080868049
 20
-9472.441270536554
 30
0.0
 41
0.9970460233523573
 10
-1088.263088966889
 20
-9472.542237620735
 30
0.0
 41
1.0
 10
-1088.248619601809
 20
-9472.565804079815
 30
0.0
 41
1.0
 10
-1088.23415023673
 20
-9472.589370538897
 30
0.0
 41
1.0
 10
-1088.194413536719
 20
-9472.65409026293
 30
0.0
 41
0.9988468816640977
 10
-1088.161067165967
 20
-9472.722322715357
 30
0.0
 41
1.0
 10
-1088.154031143477
 20
-9472.73671963649
 30
0.0
 41
1.0
 10
-1088.146995120987
 20
-9472.751116557625
 30
0.0
 41
1.0
 10
-1088.127720795213
 20
-9472.790555167792
 30
0.0
 41
0.999843119000147
 10
-1088.10985546772
 20
-9472.830651722226
 30
0.0
 41
1.0
 10
-1088.091990140237
 20
-9472.87074827664
 30
0.0
 41
0.9999989989708841
 10
-1088.074011416823
 20
-9472.910794114207
 30
0.0
 41
1.0
 10
-1088.067839105219
 20
-9472.924542331042
 30
0.0
 41
1.0
 10
-1088.061666793615
 20
-9472.938290547876
 30
0.0
 41
1.0
 10
-1088.031343447008
 20
-9473.005832819073
 30
0.0
 41
0.9998790356318795
 10
-1088.003135566865
 20
-9473.074285571025
 30
0.0
 41
1.0
 10
-1087.996300385582
 20
-9473.090872672448
 30
0.0
 41
1.0
 10
-1087.989465204299
 20
-9473.107459773873
 30
0.0
 41
1.0
 10
-1087.965907541911
 20
-9473.164627728782
 30
0.0
 41
0.9998227574564313
 10
-1087.944518793528
 20
-9473.222642037039
 30
0.0
 41
1.0
 10
-1087.92313004514
 20
-9473.280656345312
 30
0.0
 41
0.9996797971040525
 10
-1087.904703760181
 20
-9473.339678464434
 30
0.0
 41
1.0
 10
-1087.900799957455
 20
-9473.352182922605
 30
0.0
 41
1.0
 10
-1087.896896154728
 20
-9473.364687380774
 30
0.0
 41
1.0
 10
-1087.870662264319
 20
-9473.448718416228
 30
0.0
 41
0.9979274938737295
 10
-1087.855437740838
 20
-9473.535422774894
 30
0.0
 41
1.0
 10
-1087.853214053579
 20
-9473.548086775707
 30
0.0
 41
1.0
 10
-1087.850990366319
 20
-9473.56075077652
 30
0.0
 41
1.0
 10
-1087.840060426619
 20
-9473.622997283817
 30
0.0
 41
0.9994985982134317
 10
-1087.833092261441
 20
-9473.685810784966
 30
0.0
 41
1.0
 10
-1087.826124096264
 20
-9473.748624286112
 30
0.0
 41
0.9996372611203268
 10
-1087.822548230496
 20
-9473.8117218648
 30
0.0
 41
1.0
 10
-1087.822379653007
 20
-9473.814696481877
 30
0.0
 41
1.0
 10
-1087.822211075518
 20
-9473.817671098954
 30
0.0
 41
1.0
 10
-1087.818298054772
 20
-9473.886717911791
 30
0.0
 41
0.9997730630737989
 10
-1087.817329741284
 20
-9473.955868735831
 30
0.0
 41
1.0
 10
-1087.817272634866
 20
-9473.959946914973
 30
0.0
 41
1.0
 10
-1087.817215528447
 20
-9473.964025094116
 30
0.0
 41
1.0
 10
-1087.816133002123
 20
-9474.041332276465
 30
0.0
 41
0.9998772614071832
 10
-1087.817473088855
 20
-9474.118635423003
 30
0.0
 41
1.0
 10
-1087.817562352054
 20
-9474.123784586835
 30
0.0
 41
1.0
 10
-1087.817651615252
 20
-9474.128933750668
 30
0.0
 41
1.0
 10
-1087.819170228383
 20
-9474.21653522494
 30
0.0
 41
0.9999415567325941
 10
-1087.822582538628
 20
-9474.304083386593
 30
0.0
 41
1.0
 10
-1087.822823859303
 20
-9474.310274846322
 30
0.0
 41
1.0
 10
-1087.823065179978
 20
-9474.316466306052
 30
0.0
 41
1.0
 10
-1087.826960131575
 20
-9474.416397387213
 30
0.0
 41
0.9999716810428563
 10
-1087.832358714693
 20
-9474.516258525422
 30
0.0
 41
1.0
 10
-1087.835571513481
 20
-9474.575687775072
 30
0.0
 41
1.0
 10
-1087.838784312269
 20
-9474.635117024722
 30
0.0
 41
1.0
 10
-1087.846858221419
 20
-9474.784465425959
 30
0.0
 41
0.999981912990018
 10
-1087.85672801304
 20
-9474.933705903739
 30
0.0
 41
1.0
 10
-1087.866597804657
 20
-9475.08294638145
 30
0.0
 41
1.0
 10
-1087.869037125221
 20
-9475.1201394273
 30
0.0
 41
1.0
 10
-1087.846338891329
 20
-9475.081398429866
 30
0.0
 41
0.9999982128183922
 10
-1087.823494332662
 20
-9475.042743536058
 30
0.0
 41
1.0
 10
-1087.796584772763
 20
-9474.997210321979
 30
0.0
 41
1.0
 10
-1087.769675212865
 20
-9474.9516771079
 30
0.0
 41
1.0
 10
-1087.693011534336
 20
-9474.821955785827
 30
0.0
 41
0.9998609190059632
 10
-1087.612064221477
 20
-9474.694863403902
 30
0.0
 41
1.0
 10
-1087.582415899997
 20
-9474.648313670947
 30
0.0
 41
1.0
 10
-1087.552767578517
 20
-9474.601763937992
 30
0.0
 41
1.0
 10
-1087.470495358269
 20
-9474.472591367981
 30
0.0
 41
0.9999067609733159
 10
-1087.384726348812
 20
-9474.345713678551
 30
0.0
 41
1.0
 10
-1087.382321645603
 20
-9474.342156412484
 30
0.0
 41
1.0
 10
-1087.379916942394
 20
-9474.338599146417
 30
0.0
 41
1.0
 10
-1087.29895733933
 20
-9474.218835989084
 30
0.0
 41
0.9998784952150359
 10
-1087.214303729667
 20
-9474.101654772401
 30
0.0
 41
1.0
 10
-1087.129650119982
 20
-9473.984473555689
 30
0.0
 41
0.9998532968283322
 10
-1087.041032499169
 20
-9473.870260647229
 30
0.0
 41
1.0
 10
-1087.021070710168
 20
-9473.844533326197
 30
0.0
 41
1.0
 10
-1087.001108921168
 20
-9473.818806005165
 30
0.0
 41
1.0
 10
-1086.882624871416
 20
-9473.666100394208
 30
0.0
 41
0.9991551975798274
 10
-1086.752000421798
 20
-9473.523640832129
 30
0.0
 41
1.0
 10
-1086.748490805822
 20
-9473.519813230509
 30
0.0
 41
1.0
 10
-1086.744981189846
 20
-9473.515985628888
 30
0.0
 41
1.0
 10
-1086.621375972169
 20
-9473.38118127004
 30
0.0
 41
0.9997418144181198
 10
-1086.491773832474
 20
-9473.252131859434
 30
0.0
 41
1.0
 10
-1086.362171692775
 20
-9473.123082448823
 30
0.0
 41
0.9989238204632401
 10
-1086.221169144532
 20
-9473.00659748679
 30
0.0
 41
1.0
 10
-1086.175921466385
 20
-9472.969217495176
 30
0.0
 41
1.0
 10
-1086.130673788239
 20
-9472.931837503562
 30
0.0
 41
1.0
 10
-1085.99043373102
 20
-9472.815982450273
 30
0.0
 41
0.9990825084096053
 10
-1085.840793798418
 20
-9472.712553452442
 30
0.0
 41
1.0
 10
-1085.830748434344
 20
-9472.70561023935
 30
0.0
 41
1.0
 10
-1085.82070307027
 20
-9472.69866702626
 30
0.0
 41
1.0
 10
-1085.691153865802
 20
-9472.6091244546
 30
0.0
 41
0.9998164899825707
 10
-1085.558269662438
 20
-9472.524610213091
 30
0.0
 41
1.0
 10
-1085.546424101905
 20
-9472.517076446562
 30
0.0
 41
1.0
 10
-1085.534578541373
 20
-9472.50954268003
 30
0.0
 41
1.0
 10
-1085.425385459054
 20
-9472.440095971571
 30
0.0
 41
0.9997473449131594
 10
-1085.313181501812
 20
-9472.37562701376
 30
0.0
 41
1.0
 10
-1085.200977544621
 20
-9472.311158055976
 30
0.0
 41
0.9999327861139334
 10
-1085.087308933889
 20
-9472.24930806431
 30
0.0
 41
1.0
 10
-1085.086756931284
 20
-9472.249007705606
 30
0.0
 41
1.0
 10
-1085.086204928678
 20
-9472.248707346904
 30
0.0
 41
1.0
 10
-1084.971432312796
 20
-9472.186256637866
 30
0.0
 41
0.999695642048376
 10
-1084.853718986959
 20
-9472.129543170893
 30
0.0
 41
1.0
 10
-1084.823278582053
 20
-9472.114877194155
 30
0.0
 41
1.0
 10
-1084.792838177146
 20
-9472.10021121742
 30
0.0
 41
1.0
 10
-1084.689861070405
 20
-9472.050597558979
 30
0.0
 41
0.9998070570178685
 10
-1084.585014681483
 20
-9472.005066972084
 30
0.0
 41
1.0
 10
-1084.48016829258
 20
-9471.959536385199
 30
0.0
 41
0.9997827436148748
 10
-1084.373515355994
 20
-9471.918415213895
 30
0.0
 41
1.0
 10
-1084.354292506332
 20
-9471.91100364025
 30
0.0
 41
1.0
 10
-1084.335069656669
 20
-9471.903592066607
 30
0.0
 41
1.0
 10
-1084.189971020792
 20
-9471.847647748029
 30
0.0
 41
0.9988031841979002
 10
-1084.040100658177
 20
-9471.80614768386
 30
0.0
 41
1.0
 10
-1084.015183409826
 20
-9471.799247938055
 30
0.0
 41
1.0
 10
-1083.990266161474
 20
-9471.792348192252
 30
0.0
 41
1.0
 10
-1083.822996135821
 20
-9471.746030049842
 30
0.0
 41
0.9984748040551163
 10
-1083.651639227169
 20
-9471.718435817576
 30
0.0
 41
1.0
 10
-1083.646900090919
 20
-9471.717672657063
 30
0.0
 41
1.0
 10
-1083.64216095467
 20
-9471.71690949655
 30
0.0
 41
1.0
 10
-1083.48028231852
 20
-9471.690841585312
 30
0.0
 41
0.9984436495478406
 10
-1083.316507574795
 20
-9471.682963631494
 30
0.0
 41
1.0
 10
-1083.294810366657
 20
-9471.681919944294
 30
0.0
 41
1.0
 10
-1083.273113158519
 20
-9471.680876257094
 30
0.0
 41
1.0
 10
-1083.152732831064
 20
-9471.675085677674
 30
0.0
 41
0.9987954789334037
 10
-1083.032364586161
 20
-9471.681122205417
 30
0.0
 41
1.0
 10
-1083.012399793656
 20
-9471.682123449755
 30
0.0
 41
1.0
 10
-1082.992435001151
 20
-9471.683124694095
 30
0.0
 41
1.0
 10
-1082.91199634124
 20
-9471.687158733159
 30
0.0
 41
0.9997941595879072
 10
-1082.831787563156
 20
-9471.69445279908
 30
0.0
 41
1.0
 10
-1082.751578785071
 20
-9471.701746865
 30
0.0
 41
0.99985894662381
 10
-1082.671660238227
 20
-9471.711730719448
 30
0.0
 41
1.0
 10
-1082.639254036409
 20
-9471.715779076369
 30
0.0
 41
1.0
 10
-1082.60684783459
 20
-9471.71982743329
 30
0.0
 41
1.0
 10
-1082.46211688413
 20
-9471.737908001576
 30
0.0
 41
0.9993495063247261
 10
-1082.319065640376
 20
-9471.766373711316
 30
0.0
 41
1.0
 10
-1082.286131943197
 20
-9471.772927174537
 30
0.0
 41
1.0
 10
-1082.253198246018
 20
-9471.779480637757
 30
0.0
 41
1.0
 10
-1082.143904422825
 20
-9471.801228971892
 30
0.0
 41
0.9996788715561755
 10
-1082.035852850888
 20
-9471.82848677125
 30
0.0
 41
1.0
 10
-1082.033789848346
 20
-9471.829007197823
 30
0.0
 41
1.0
 10
-1082.031726845804
 20
-9471.829527624397
 30
0.0
 41
1.0
 10
-1081.92780127893
 20
-9471.855744570612
 30
0.0
 41
0.9995480654491952
 10
-1081.825639043702
 20
-9471.888159527236
 30
0.0
 41
1.0
 10
-1081.823949401582
 20
-9471.888695632148
 30
0.0
 41
1.0
 10
-1081.822259759461
 20
-9471.88923173706
 30
0.0
 41
1.0
 10
-1081.72347680848
 20
-9471.920574483856
 30
0.0
 41
0.9993867959454786
 10
-1081.627129650031
 20
-9471.958753853149
 30
0.0
 41
1.0
 10
-1081.625886700949
 20
-9471.959246395043
 30
0.0
 41
1.0
 10
-1081.624643751868
 20
-9471.95973893694
 30
0.0
 41
1.0
 10
-1081.530782491595
 20
-9471.996933222435
 30
0.0
 41
0.9992050256520449
 10
-1081.440182816555
 20
-9472.041487121678
 30
0.0
 41
1.0
 10
-1081.439448133842
 20
-9472.04184841414
 30
0.0
 41
1.0
 10
-1081.438713451129
 20
-9472.0422097066
 30
0.0
 41
1.0
 10
-1081.349583141518
 20
-9472.086041020919
 30
0.0
 41
0.9990222350742722
 10
-1081.264673080128
 20
-9472.137574288616
 30
0.0
 41
1.0
 10
-1081.264489194844
 20
-9472.137685891521
 30
0.0
 41
1.0
 10
-1081.264305309561
 20
-9472.137797494426
 30
0.0
 41
1.0
 10
-1081.17976301873
 20
-9472.189107556318
 30
0.0
 41
0.998864274380512
 10
-1081.100488484115
 20
-9472.24823174384
 30
0.0
 41
1.0
 10
-1081.021213949493
 20
-9472.307355931369
 30
0.0
 41
0.9987681233312604
 10
-1080.948190165214
 20
-9472.37404662277
 30
0.0
 41
1.0
 10
-1080.947861237251
 20
-9472.374347023982
 30
0.0
 41
1.0
 10
-1080.947532309288
 20
-9472.374647425193
 30
0.0
 41
1.0
 10
-1080.87385066908
 20
-9472.441938919023
 30
0.0
 41
0.9987496570899682
 10
-1080.807256863753
 20
-9472.51625173311
 30
0.0
 41
1.0
 10
-1080.806484693992
 20
-9472.517113406468
 30
0.0
 41
1.0
 10
-1080.805712524232
 20
-9472.517975079825
 30
0.0
 41
1.0
 10
-1080.737574379382
 20
-9472.594011240632
 30
0.0
 41
0.9988147669832003
 10
-1080.677152125161
 20
-9472.676312247468
 30
0.0
 41
1.0
 10
-1080.676032799082
 20
-9472.677836878822
 30
0.0
 41
1.0
 10
-1080.674913473004
 20
-9472.679361510174
 30
0.0
 41
1.0
 10
-1080.612252566622
 20
-9472.764711779726
 30
0.0
 41
0.9989452636217433
 10
-1080.557685653659
 20
-9472.855450468885
 30
0.0
 41
1.0
 10
-1080.556336927575
 20
-9472.857693249909
 30
0.0
 41
1.0
 10
-1080.554988201491
 20
-9472.859936030933
 30
0.0
 41
1.0
 10
-1080.497723836357
 20
-9472.955160282147
 30
0.0
 41
0.9991046436073421
 10
-1080.448714623036
 20
-9473.054884715168
 30
0.0
 41
1.0
 10
-1080.447250761446
 20
-9473.05786339524
 30
0.0
 41
1.0
 10
-1080.445786899856
 20
-9473.060842075312
 30
0.0
 41
1.0
 10
-1080.393849963356
 20
-9473.166523868478
 30
0.0
 41
0.9992763831097389
 10
-1080.350096834802
 20
-9473.275847930434
 30
0.0
 41
1.0
 10
-1080.348617565137
 20
-9473.27954411797
 30
0.0
 41
1.0
 10
-1080.347138295473
 20
-9473.283240305507
 30
0.0
 41
1.0
 10
-1080.300426627588
 20
-9473.39995674254
 30
0.0
 41
0.9994163472883636
 10
-1080.261793596402
 20
-9473.519590330992
 30
0.0
 41
1.0
 10
-1080.260555444154
 20
-9473.52342447478
 30
0.0
 41
1.0
 10
-1080.259317291905
 20
-9473.52725861857
 30
0.0
 41
1.0
 10
-1080.219433730894
 20
-9473.650764680027
 30
0.0
 41
0.9997268055891019
 10
-1080.185365674979
 20
-9473.77599971199
 30
0.0
 41
1.0
 10
-1080.184435494711
 20
-9473.779419078093
 30
0.0
 41
1.0
 10
-1080.183505314443
 20
-9473.782838444196
 30
0.0
 41
1.0
 10
-1080.151297619065
 20
-9473.901234743944
 30
0.0
 41
0.9996701318998914
 10
-1080.125212002296
 20
-9474.021128697204
 30
0.0
 41
1.0
 10
-1080.099126385525
 20
-9474.141022650472
 30
0.0
 41
0.9995785451109777
 10
-1080.080042808187
 20
-9474.262228411493
 30
0.0
 41
1.0
 10
-1080.075823026013
 20
-9474.289029566262
 30
0.0
 41
1.0
 10
-1080.071603243839
 20
-9474.315830721029
 30
0.0
 41
1.0
 10
-1080.045028267899
 20
-9474.484616694739
 30
0.0
 41
0.9979925101216637
 10
-1080.040002681973
 20
-9474.655408022823
 30
0.0
 41
1.0
 10
-1080.039177869549
 20
-9474.683438746299
 30
0.0
 41
1.0
 10
-1080.038353057124
 20
-9474.711469469774
 30
0.0
 41
1.0
 10
-1080.034977096047
 20
-9474.8261993509
 30
0.0
 41
0.9995314902261917
 10
-1080.038627288186
 20
-9474.940920834666
 30
0.0
 41
1.0
 10
-1080.042277480324
 20
-9475.055642318423
 30
0.0
 41
0.9996245486944094
 10
-1080.052206575455
 20
-9475.169991589544
 30
0.0
 41
1.0
 10
-1080.052369623449
 20
-9475.171869345679
 30
0.0
 41
1.0
 10
-1080.052532671443
 20
-9475.173747101813
 30
0.0
 41
1.0
 10
-1080.062787862561
 20
-9475.291851885198
 30
0.0
 41
0.9997286095000386
 10
-1080.078533186134
 20
-9475.409350794102
 30
0.0
 41
1.0
 10
-1080.078926678785
 20
-9475.412287218804
 30
0.0
 41
1.0
 10
-1080.079320171435
 20
-9475.415223643506
 30
0.0
 41
1.0
 10
-1080.095852480305
 20
-9475.538595401791
 30
0.0
 41
0.9998265533967949
 10
-1080.116967939039
 20
-9475.661265876588
 30
0.0
 41
1.0
 10
-1080.117644481177
 20
-9475.665196255097
 30
0.0
 41
1.0
 10
-1080.118321023314
 20
-9475.669126633607
 30
0.0
 41
1.0
 10
-1080.14078956632
 20
-9475.799657865404
 30
0.0
 41
0.999902253085504
 10
-1080.16689903093
 20
-9475.929509834048
 30
0.0
 41
1.0
 10
-1080.167877672096
 20
-9475.934376976436
 30
0.0
 41
1.0
 10
-1080.168856313262
 20
-9475.939244118825
 30
0.0
 41
1.0
 10
-1080.196923060202
 20
-9476.078830372233
 30
0.0
 41
0.9999524761933195
 10
-1080.227706029035
 20
-9476.217842865392
 30
0.0
 41
1.0
 10
-1080.228982136211
 20
-9476.223605624698
 30
0.0
 41
1.0
 10
-1080.230258243388
 20
-9476.229368384007
 30
0.0
 41
1.0
 10
-1080.263593426585
 20
-9476.379906395821
 30
0.0
 41
0.9999813588720385
 10
-1080.298764427374
 20
-9476.530026108452
 30
0.0
 41
1.0
 10
-1080.300318352829
 20
-9476.536658698864
 30
0.0
 41
1.0
 10
-1080.301872278283
 20
-9476.543291289276
 30
0.0
 41
1.0
 10
-1080.340151129992
 20
-9476.706676182781
 30
0.0
 41
0.9999955237689849
 10
-1080.379407007974
 20
-9476.869829086392
 30
0.0
 41
1.0
 10
-1080.391688643607
 20
-9476.920873276911
 30
0.0
 41
1.0
 10
-1080.403970279241
 20
-9476.97191746743
 30
0.0
 41
1.0
 10
-1080.46778942858
 20
-9477.237158752449
 30
0.0
 41
0.9999993604767261
 10
-1080.532208375658
 20
-9477.502255002766
 30
0.0
 41
1.0
 10
-1080.536927211205
 20
-9477.521673910807
 30
0.0
 41
1.0
 10
-1080.541646046752
 20
-9477.541092818847
 30
0.0
 41
1.0
 10
-1080.615502665
 20
-9477.845026885558
 30
0.0
 41
0.9999659914733725
 10
-1080.6943622609
 20
-9478.147701432174
 30
0.0
 41
1.0
 10
-1080.699314949829
 20
-9478.166710569352
 30
0.0
 41
1.0
 10
-1080.704267638759
 20
-9478.185719706531
 30
0.0
 41
1.0
 10
-1080.793032612502
 20
-9478.52641252744
 30
0.0
 41
0.9999441976024367
 10
-1080.888975645468
 20
-9478.865153952751
 30
0.0
 41
1.0
 10
-1080.905676163894
 20
-9478.924117665278
 30
0.0
 41
1.0
 10
-1080.922376682319
 20
-9478.983081377804
 30
0.0
 41
1.0
 10
-1081.051720752119
 20
-9479.439750228112
 30
0.0
 41
0.9999625120729763
 10
-1081.188953519457
 20
-9479.894110762156
 30
0.0
 41
1.0
 10
-1081.224743462539
 20
-9480.01260678878
 30
0.0
 41
1.0
 10
-1081.260533405621
 20
-9480.131102815401
 30
0.0
 41
1.0
 10
-1081.335053609673
 20
-9480.37782989354
 30
0.0
 41
0.9999793386305856
 10
-1081.412739632802
 20
-9480.623578532746
 30
0.0
 41
1.0
 10
-1081.490425655939
 20
-9480.869327171982
 30
0.0
 41
1.0
 10
-1081.50120521481
 20
-9480.903345076356
 30
0.0
 41
1.0
 10
-1083.351578268079
 20
-9486.790416998825
 30
0.0
 41
1.0
 10
-1085.201951321348
 20
-9492.677488921292
 30
0.0
 41
1.0
 10
-1086.163208011372
 20
-9492.677488921292
 30
0.0
 41
1.0
 10
-1087.124464701395
 20
-9492.677488921292
 30
0.0
 41
1.0
 10
-1085.505519922717
 20
-9487.529460419502
 30
0.0
 41
1.0
 10
-1083.886575144038
 20
-9482.381431917713
 30
0.0
 41
1.0
 10
-1083.841409320863
 20
-9482.237400695441
 30
0.0
 41
1.0
 10
-1083.796243497689
 20
-9482.09336947317
 30
0.0
 41
1.0
 10
-1083.625939080348
 20
-9481.55027844408
 30
0.0
 41
0.9999911657881659
 10
-1083.460206268647
 20
-9481.005774912646
 30
0.0
 41
1.0
 10
-1083.430510325159
 20
-9480.908210972637
 30
0.0
 41
1.0
 10
-1083.40081438167
 20
-9480.810647032626
 30
0.0
 41
1.0
 10
-1083.294473456969
 20
-9480.46127138129
 30
0.0
 41
0.9999952428125104
 10
-1083.190289867642
 20
-9480.111246356933
 30
0.0
 41
1.0
 10
-1083.18523039731
 20
-9480.09424808266
 30
0.0
 41
1.0
 10
-1083.180170926978
 20
-9480.077249808386
 30
0.0
 41
1.0
 10
-1083.086106278342
 20
-9479.761221332665
 30
0.0
 41
0.9999931687503021
 10
-1082.994380440443
 20
-9479.444506119315
 30
0.0
 41
1.0
 10
-1082.989445175988
 20
-9479.427465410059
 30
0.0
 41
1.0
 10
-1082.984509911533
 20
-9479.410424700805
 30
0.0
 41
1.0
 10
-1082.902654602588
 20
-9479.127790906105
 30
0.0
 41
0.9999893840782619
 10
-1082.823407376113
 20
-9478.844414776797
 30
0.0
 41
1.0
 10
-1082.744160149641
 20
-9478.5610386475
 30
0.0
 41
0.9999833980085792
 10
-1082.668183908909
 20
-9478.276768064501
 30
0.0
 41
1.0
 10
-1082.659179972189
 20
-9478.243079186032
 30
0.0
 41
1.0
 10
-1082.650176035469
 20
-9478.209390307564
 30
0.0
 41
1.0
 10
-1082.581211486597
 20
-9477.951354475243
 30
0.0
 41
0.9999233658066083
 10
-1082.518656515382
 20
-9477.691690316544
 30
0.0
 41
1.0
 10
-1082.456101544162
 20
-9477.432026157821
 30
0.0
 41
1.0
 10
-1082.416618125304
 20
-9477.268219493395
 30
0.0
 41
1.0
 10
-1082.411639521327
 20
-9477.247564531524
 30
0.0
 41
1.0
 10
-1082.406660917349
 20
-9477.226909569652
 30
0.0
 41
1.0
 10
-1082.37713470645
 20
-9477.104412828985
 30
0.0
 41
0.9999868670846694
 10
-1082.348865622451
 20
-9476.981619883323
 30
0.0
 41
1.0
 10
-1082.344968135291
 20
-9476.964690295896
 30
0.0
 41
1.0
 10
-1082.341070648131
 20
-9476.947760708468
 30
0.0
 41
1.0
 10
-1082.320596538467
 20
-9476.858826937736
 30
0.0
 41
0.9999778173348891
 10
-1082.301308940339
 20
-9476.769628320448
 30
0.0
 41
1.0
 10
-1082.282021342218
 20
-9476.68042970319
 30
0.0
 41
0.9999602692864108
 10
-1082.264326983596
 20
-9476.590901414807
 30
0.0
 41
1.0
 10
-1082.261123151517
 20
-9476.574690959915
 30
0.0
 41
1.0
 10
-1082.257919319438
 20
-9476.55848050502
 30
0.0
 41
1.0
 10
-1082.23381729665
 20
-9476.436531306817
 30
0.0
 41
0.9995617985320218
 10
-1082.216973949432
 20
-9476.313369559113
 30
0.0
 41
1.0
 10
-1082.214509459526
 20
-9476.295348741749
 30
0.0
 41
1.0
 10
-1082.21204496962
 20
-9476.277327924385
 30
0.0
 41
1.0
 10
-1082.191761708571
 20
-9476.129012874677
 30
0.0
 41
0.9991121410638242
 10
-1082.184036354984
 20
-9475.979516775878
 30
0.0
 41
1.0
 10
-1082.183117564959
 20
-9475.9617369393
 30
0.0
 41
1.0
 10
-1082.182198774934
 20
-9475.943957102721
 30
0.0
 41
1.0
 10
-1082.176311001395
 20
-9475.830020677064
 30
0.0
 41
0.9989792494903552
 10
-1082.180730093513
 20
-9475.716017841172
 30
0.0
 41
1.0
 10
-1082.181378065382
 20
-9475.699301595247
 30
0.0
 41
1.0
 10
-1082.18202603725
 20
-9475.682585349321
 30
0.0
 41
1.0
 10
-1082.185149185631
 20
-9475.602015005281
 30
0.0
 41
0.9997820295396792
 10
-1082.191633183006
 20
-9475.52164528353
 30
0.0
 41
1.0
 10
-1082.19811718038
 20
-9475.441275561796
 30
0.0
 41
0.9998335105971974
 10
-1082.207529375893
 20
-9475.361195945345
 30
0.0
 41
1.0
 10
-1082.209124300569
 20
-9475.347626214858
 30
0.0
 41
1.0
 10
-1082.210719225246
 20
-9475.334056484371
 30
0.0
 41
1.0
 10
-1082.223321270108
 20
-9475.226837406972
 30
0.0
 41
0.9996876457880417
 10
-1082.241265182906
 20
-9475.120381979254
 30
0.0
 41
1.0
 10
-1082.243496846052
 20
-9475.107142244005
 30
0.0
 41
1.0
 10
-1082.245728509199
 20
-9475.093902508757
 30
0.0
 41
1.0
 10
-1082.259524330622
 20
-9475.01205636479
 30
0.0
 41
0.9995547496494002
 10
-1082.278177652513
 20
-9474.931178867606
 30
0.0
 41
1.0
 10
-1082.278551609384
 20
-9474.9295574569
 30
0.0
 41
1.0
 10
-1082.278925566256
 20
-9474.927936046195
 30
0.0
 41
1.0
 10
-1082.296830974408
 20
-9474.850301370401
 30
0.0
 41
0.9994899427169996
 10
-1082.319655883085
 20
-9474.773968087578
 30
0.0
 41
1.0
 10
-1082.320114409825
 20
-9474.77243463779
 30
0.0
 41
1.0
 10
-1082.320572936565
 20
-9474.770901188005
 30
0.0
 41
1.0
 10
-1082.342480791763
 20
-9474.697634804748
 30
0.0
 41
0.9993784877588482
 10
-1082.369496426871
 20
-9474.626094099585
 30
0.0
 41
1.0
 10
-1082.370028117846
 20
-9474.62468611687
 30
0.0
 41
1.0
 10
-1082.370559808821
 20
-9474.623278134153
 30
0.0
 41
1.0
 10
-1082.396512061979
 20
-9474.554553394424
 30
0.0
 41
0.9992430832252954
 10
-1082.427728597137
 20
-9474.48805424236
 30
0.0
 41
1.0
 10
-1082.428310713193
 20
-9474.486814187243
 30
0.0
 41
1.0
 10
-1082.42889282925
 20
-9474.485574132126
 30
0.0
 41
1.0
 10
-1082.458945132298
 20
-9474.421555090288
 30
0.0
 41
0.9990789632797777
 10
-1082.494375759073
 20
-9474.360348478542
 30
0.0
 41
1.0
 10
-1082.494971465256
 20
-9474.35931939268
 30
0.0
 41
1.0
 10
-1082.495567171439
 20
-9474.35829030682
 30
0.0
 41
1.0
 10
-1082.529806385846
 20
-9474.299141866797
 30
0.0
 41
0.998887480111865
 10
-1082.569465661882
 20
-9474.243482154374
 30
0.0
 41
1.0
 10
-1082.570021187943
 20
-9474.242702502703
 30
0.0
 41
1.0
 10
-1082.570576714004
 20
-9474.241922851033
 30
0.0
 41
1.0
 10
-1082.609124937915
 20
-9474.187822441954
 30
0.0
 41
0.9986762060687628
 10
-1082.65302740919
 20
-9474.137968727517
 30
0.0
 41
1.0
 10
-1082.653471369521
 20
-9474.137464585701
 30
0.0
 41
1.0
 10
-1082.653915329852
 20
-9474.136960443886
 30
0.0
 41
1.0
 10
-1082.696929880464
 20
-9474.088115013079
 30
0.0
 41
0.9984621642489108
 10
-1082.745087437244
 20
-9474.044331712606
 30
0.0
 41
1.0
 10
-1082.745334071766
 20
-9474.044107480437
 30
0.0
 41
1.0
 10
-1082.745580706289
 20
-9474.043883248269
 30
0.0
 41
1.0
 10
-1082.793244994028
 20
-9474.00054841213
 30
0.0
 41
0.9982724693845634
 10
-1082.845663625863
 20
-9473.963104061619
 30
0.0
 41
1.0
 10
-1082.898082257709
 20
-9473.925659711096
 30
0.0
 41
0.9981399180146385
 10
-1082.954668321106
 20
-9473.894873191653
 30
0.0
 41
1.0
 10
-1082.95471398318
 20
-9473.894848348498
 30
0.0
 41
1.0
 10
-1082.954759645255
 20
-9473.894823505343
 30
0.0
 41
1.0
 10
-1083.011437032809
 20
-9473.863987299583
 30
0.0
 41
0.9980927086833951
 10
-1083.071482383875
 20
-9473.84037049073
 30
0.0
 41
1.0
 10
-1083.071922553585
 20
-9473.840197364856
 30
0.0
 41
1.0
 10
-1083.072362723295
 20
-9473.840024238982
 30
0.0
 41
1.0
 10
-1083.133288413786
 20
-9473.816061178379
 30
0.0
 41
0.9981411356552372
 10
-1083.196676935188
 20
-9473.799688536874
 30
0.0
 41
1.0
 10
-1083.197559051887
 20
-9473.799460694669
 30
0.0
 41
1.0
 10
-1083.198441168587
 20
-9473.799232852463
 30
0.0
 41
1.0
 10
-1083.26359392339
 20
-9473.782404526546
 30
0.0
 41
0.9983031812930611
 10
-1083.330261352385
 20
-9473.77326516537
 30
0.0
 41
1.0
 10
-1083.339132377778
 20
-9473.7720490467
 30
0.0
 41
1.0
 10
-1083.348003403171
 20
-9473.77083292803
 30
0.0
 41
1.0
 10
-1083.402353045686
 20
-9473.763382198038
 30
0.0
 41
0.998388770827526
 10
-1083.457196894989
 20
-9473.762137524402
 30
0.0
 41
1.0
 10
-1083.46526030019
 20
-9473.761954526526
 30
0.0
 41
1.0
 10
-1083.473323705393
 20
-9473.761771528652
 30
0.0
 41
1.0
 10
-1083.512040744266
 20
-9473.760892850769
 30
0.0
 41
0.9998869563084818
 10
-1083.550766697484
 20
-9473.761178720128
 30
0.0
 41
1.0
 10
-1083.589492650713
 20
-9473.761464589488
 30
0.0
 41
0.9999972320121594
 10
-1083.628216829954
 20
-9473.761932689018
 30
0.0
 41
1.0
 10
-1083.647569846506
 20
-9473.762166629107
 30
0.0
 41
1.0
 10
-1083.666922863058
 20
-9473.762400569196
 30
0.0
 41
1.0
 10
-1083.744353075436
 20
-9473.763336548904
 30
0.0
 41
0.9997304945087441
 10
-1083.821656381681
 20
-9473.76786564269
 30
0.0
 41
1.0
 10
-1083.830706023378
 20
-9473.76839584868
 30
0.0
 41
1.0
 10
-1083.839755665074
 20
-9473.768926054669
 30
0.0
 41
1.0
 10
-1083.935158254754
 20
-9473.774515560437
 30
0.0
 41
0.9997888306414684
 10
-1084.030250590627
 20
-9473.78402052493
 30
0.0
 41
1.0
 10
-1084.038971652168
 20
-9473.78489223956
 30
0.0
 41
1.0
 10
-1084.047692713709
 20
-9473.785763954189
 30
0.0
 41
1.0
 10
-1084.160227172695
 20
-9473.797012347943
 30
0.0
 41
0.9984170238191069
 10
-1084.270786320045
 20
-9473.820828429878
 30
0.0
 41
1.0
 10
-1084.307167451027
 20
-9473.828665465684
 30
0.0
 41
1.0
 10
-1084.343548582009
 20
-9473.836502501488
 30
0.0
 41
1.0
 10
-1084.458739650435
 20
-9473.861316367998
 30
0.0
 41
0.9976592854205434
 10
-1084.569467816847
 20
-9473.901615045146
 30
0.0
 41
1.0
 10
-1084.680195983255
 20
-9473.941913722296
 30
0.0
 41
0.9993255074351368
 10
-1084.787667782051
 20
-9473.990230620791
 30
0.0
 41
1.0
 10
-1084.79229296097
 20
-9473.99230999699
 30
0.0
 41
1.0
 10
-1084.79691813989
 20
-9473.994389373187
 30
0.0
 41
1.0
 10
-1084.913640296528
 20
-9474.046865024078
 30
0.0
 41
0.9976475078271686
 10
-1085.02208764084
 20
-9474.114813013739
 30
0.0
 41
1.0
 10
-1085.04043003498
 20
-9474.126305492557
 30
0.0
 41
1.0
 10
-1085.058772429119
 20
-9474.137797971374
 30
0.0
 41
1.0
 10
-1085.142974620659
 20
-9474.190555092135
 30
0.0
 41
0.99951313364085
 10
-1085.223722335617
 20
-9474.248461304087
 30
0.0
 41
1.0
 10
-1085.304470050583
 20
-9474.306367516047
 30
0.0
 41
0.9995810107607156
 10
-1085.381731698308
 20
-9474.36884919851
 30
0.0
 41
1.0
 10
-1085.384701729516
 20
-9474.371251069973
 30
0.0
 41
1.0
 10
-1085.387671760723
 20
-9474.373652941435
 30
0.0
 41
1.0
 10
-1085.470873470883
 20
-9474.440938366839
 30
0.0
 41
0.9996617837952831
 10
-1085.550464158036
 20
-9474.512458822417
 30
0.0
 41
1.0
 10
-1085.562594908901
 20
-9474.523359555396
 30
0.0
 41
1.0
 10
-1085.574725659765
 20
-9474.534260288376
 30
0.0
 41
1.0
 10
-1085.643001187158
 20
-9474.595612903846
 30
0.0
 41
0.9997267750053427
 10
-1085.708334695443
 20
-9474.660089440371
 30
0.0
 41
1.0
 10
-1085.773668203695
 20
-9474.724565976865
 30
0.0
 41
0.9999667288965176
 10
-1085.837941146823
 20
-9474.79009978374
 30
0.0
 41
1.0
 10
-1085.906768594623
 20
-9474.860277442524
 30
0.0
 41
1.0
 10
-1085.975596042423
 20
-9474.930455101307
 30
0.0
 41
1.0
 10
-1086.177523881122
 20
-9475.13634422572
 30
0.0
 41
0.9988205335175185
 10
-1086.358529498099
 20
-9475.360848457778
 30
0.0
 41
1.0
 10
-1086.389169463004
 20
-9475.398851708207
 30
0.0
 41
1.0
 10
-1086.419809427909
 20
-9475.436854958638
 30
0.0
 41
1.0
 10
-1086.662094974704
 20
-9475.737365691568
 30
0.0
 41
0.9997077826755292
 10
-1086.889572925803
 20
-9476.049235485774
 30
0.0
 41
1.0
 10
-1086.891296340933
 20
-9476.051598269154
 30
0.0
 41
1.0
 10
-1086.893019756064
 20
-9476.053961052534
 30
0.0
 41
1.0
 10
-1087.123944537427
 20
-9476.370556413503
 30
0.0
 41
0.9989147567079332
 10
-1087.324408040314
 20
-9476.707265874693
 30
0.0
 41
1.0
 10
-1087.349149185624
 20
-9476.74882245525
 30
0.0
 41
1.0
 10
-1087.373890330935
 20
-9476.79037903581
 30
0.0
 41
1.0
 10
-1087.529101629571
 20
-9477.05108042026
 30
0.0
 41
0.9997476598181625
 10
-1087.672446617074
 20
-9477.318490168835
 30
0.0
 41
1.0
 10
-1087.81579160458
 20
-9477.58589991741
 30
0.0
 41
0.9996258967110179
 10
-1087.944299856513
 20
-9477.860747854036
 30
0.0
 41
1.0
 10
-1087.957499765962
 20
-9477.888979254129
 30
0.0
 41
1.0
 10
-1087.97069967541
 20
-9477.917210654221
 30
0.0
 41
1.0
 10
-1088.1109083964
 20
-9478.217083052154
 30
0.0
 41
0.9998735413946828
 10
-1088.241509743136
 20
-9478.521262651653
 30
0.0
 41
1.0
 10
-1088.244952571196
 20
-9478.529281237119
 30
0.0
 41
1.0
 10
-1088.248395399257
 20
-9478.537299822583
 30
0.0
 41
1.0
 10
-1088.372111089849
 20
-9478.825442251104
 30
0.0
 41
0.9999377418861437
 10
-1088.48936589203
 20
-9479.116273718795
 30
0.0
 41
1.0
 10
-1088.606620694206
 20
-9479.407105186474
 30
0.0
 41
0.9999508299503373
 10
-1088.718084637584
 20
-9479.700204863295
 30
0.0
 41
1.0
 10
-1088.721165406246
 20
-9479.708305889257
 30
0.0
 41
1.0
 10
-1088.724246174908
 20
-9479.71640691522
 30
0.0
 41
1.0
 10
-1088.84187165562
 20
-9480.025708643994
 30
0.0
 41
0.9999609228434321
 10
-1088.954010258487
 20
-9480.337041659994
 30
0.0
 41
1.0
 10
-1088.956966268835
 20
-9480.345248500398
 30
0.0
 41
1.0
 10
-1088.959922279184
 20
-9480.353455340804
 30
0.0
 41
1.0
 10
-1089.077972902774
 20
-9480.681202037687
 30
0.0
 41
0.9999674607402029
 10
-1089.190720428833
 20
-9481.010810657657
 30
0.0
 41
1.0
 10
-1089.242118819392
 20
-9481.16106985334
 30
0.0
 41
1.0
 10
-1089.293517209951
 20
-9481.311329049024
 30
0.0
 41
1.0
 10
-1089.409527816721
 20
-9481.650477031559
 30
0.0
 41
0.9999287532306047
 10
-1089.517409220679
 20
-9481.992297770497
 30
0.0
 41
1.0
 10
-1089.563886476862
 20
-9482.139560315009
 30
0.0
 41
1.0
 10
-1089.610363733046
 20
-9482.28682285952
 30
0.0
 41
1.0
 10
-1089.625290624478
 20
-9482.334118508927
 30
0.0
 41
0.9999998224480997
 10
-1089.64016113338
 20
-9482.381431917713
 30
0.0
 41
1.0
 10
-1091.260817270175
 20
-9487.529460419502
 30
0.0
 41
1.0
 10
-1092.881473406971
 20
-9492.677488921292
 30
0.0
 41
1.0
 10
-1093.786781850862
 20
-9492.677488921292
 30
0.0
 41
1.0
 10
-1094.692090294753
 20
-9492.677488921292
 30
0.0
 41
1.0
 10
-1092.840005883367
 20
-9486.790416998825
 30
0.0
 41
1.0
 10
-1090.987921471981
 20
-9480.903345076356
 30
0.0
 41
1.0
 10
-1090.977799713678
 20
-9480.871301862908
 30
0.0
 41
1.0
 10
-1090.905192044828
 20
-9480.641002321081
 30
0.0
 41
1.0
 10
-1090.832584375974
 20
-9480.410702779243
 30
0.0
 41
0.9999825681975526
 10
-1090.762701336759
 20
-9480.179561884166
 30
0.0
 41
1.0
 10
-1090.714410274602
 20
-9480.019837300682
 30
0.0
 41
1.0
 10
-1090.666119212445
 20
-9479.860112717199
 30
0.0
 41
1.0
 10
-1090.568966859141
 20
-9479.538777495465
 30
0.0
 41
0.9999672528961073
 10
-1090.477028053506
 20
-9479.215911949841
 30
0.0
 41
1.0
 10
-1090.474239169834
 20
-9479.206118104443
 30
0.0
 41
1.0
 10
-1090.471450286162
 20
-9479.196324259045
 30
0.0
 41
1.0
 10
-1090.38508924788
 20
-9478.893046404242
 30
0.0
 41
0.9999899749142888
 10
-1090.301447638348
 20
-9478.589007315803
 30
0.0
 41
1.0
 10
-1090.291341719329
 20
-9478.55227207812
 30
0.0
 41
1.0
 10
-1090.28123580031
 20
-9478.515536840438
 30
0.0
 41
1.0
 10
-1090.217806028815
 20
-9478.284968227357
 30
0.0
 41
0.9999214200502934
 10
-1090.160176600436
 20
-9478.052881885142
 30
0.0
 41
1.0
 10
-1090.147410748254
 20
-9478.001470999741
 30
0.0
 41
1.0
 10
-1090.134644896073
 20
-9477.950060114343
 30
0.0
 41
1.0
 10
-1090.102547172053
 20
-9477.820795542912
 30
0.0
 41
0.9999828681681469
 10
-1090.071964920062
 20
-9477.691164068463
 30
0.0
 41
1.0
 10
-1090.041382668064
 20
-9477.561532593983
 30
0.0
 41
0.9999389844481412
 10
-1090.013671679277
 20
-9477.431257138092
 30
0.0
 41
1.0
 10
-1090.006533935557
 20
-9477.397701034257
 30
0.0
 41
1.0
 10
-1089.999396191837
 20
-9477.364144930421
 30
0.0
 41
1.0
 10
-1089.957409715606
 20
-9477.166757266841
 30
0.0
 41
0.9998933699440479
 10
-1089.921205451206
 20
-9476.968227659092
 30
0.0
 41
1.0
 10
-1089.91983262599
 20
-9476.960699638392
 30
0.0
 41
1.0
 10
-1089.918459800773
 20
-9476.953171617693
 30
0.0
 41
1.0
 10
-1089.879509885938
 20
-9476.739585968542
 30
0.0
 41
0.9996850305193159
 10
-1089.851326209679
 20
-9476.524314963106
 30
0.0
 41
1.0
 10
-1089.84933117631
 20
-9476.509076608985
 30
0.0
 41
1.0
 10
-1089.847336142941
 20
-9476.493838254863
 30
0.0
 41
1.0
 10
-1089.819928280481
 20
-9476.284493027699
 30
0.0
 41
0.9994697936706971
 10
-1089.806203721262
 20
-9476.073807832377
 30
0.0
 41
1.0
 10
-1089.805726652012
 20
-9476.06648436017
 30
0.0
 41
1.0
 10
-1089.805249582763
 20
-9476.05916088796
 30
0.0
 41
1.0
 10
-1089.792479162042
 20
-9475.863122637049
 30
0.0
 41
0.999180489313689
 10
-1089.795607478315
 20
-9475.666693787072
 30
0.0
 41
1.0
 10
-1089.795691357137
 20
-9475.66142698566
 30
0.0
 41
1.0
 10
-1089.795775235959
 20
-9475.656160184248
 30
0.0
 41
1.0
 10
-1089.798735794587
 20
-9475.470264937094
 30
0.0
 41
0.9988448329319217
 10
-1089.819527340212
 20
-9475.285512347265
 30
0.0
 41
1.0
 10
-1089.821121413915
 20
-9475.271347491496
 30
0.0
 41
1.0
 10
-1089.822715487617
 20
-9475.257182635725
 30
0.0
 41
1.0
 10
-1089.840318885836
 20
-9475.100759757435
 30
0.0
 41
0.9985503209461717
 10
-1089.874635158135
 20
-9474.947135573344
 30
0.0
 41
1.0
 10
-1089.882221150207
 20
-9474.913175245942
 30
0.0
 41
1.0
 10
-1089.889807142278
 20
-9474.87921491854
 30
0.0
 41
1.0
 10
-1089.908951430435
 20
-9474.793511389254
 30
0.0
 41
0.9991036781373069
 10
-1089.935276292086
 20
-9474.70973430193
 30
0.0
 41
1.0
 10
-1089.939258517542
 20
-9474.69706113942
 30
0.0
 41
1.0
 10
-1089.943240742998
 20
-9474.68438797691
 30
0.0
 41
1.0
 10
-1089.961601153738
 20
-9474.625957214597
 30
0.0
 41
0.9998874504367287
 10
-1089.981706361415
 20
-9474.56810361238
 30
0.0
 41
1.0
 10
-1090.001811569099
 20
-9474.510250010142
 30
0.0
 41
0.9994041637543141
 10
-1090.025860182034
 20
-9474.453921306253
 30
0.0
 41
1.0
 10
-1090.030056966252
 20
-9474.444091241785
 30
0.0
 41
1.0
 10
-1090.034253750471
 20
-9474.434261177315
 30
0.0
 41
1.0
 10
-1090.062132581464
 20
-9474.368961011352
 30
0.0
 41
0.9991846840711496
 10
-1090.095188938164
 20
-9474.306122980055
 30
0.0
 41
1.0
 10
-1090.09632554456
 20
-9474.303962363596
 30
0.0
 41
1.0
 10
-1090.097462150957
 20
-9474.301801747139
 30
0.0
 41
1.0
 10
-1090.128245294856
 20
-9474.24328494878
 30
0.0
 41
0.9989253167932505
 10
-1090.164314718912
 20
-9474.187870020385
 30
0.0
 41
1.0
 10
-1090.165368843586
 20
-9474.186250525623
 30
0.0
 41
1.0
 10
-1090.16642296826
 20
-9474.184631030861
 30
0.0
 41
1.0
 10
-1090.200384142967
 20
-9474.132455091998
 30
0.0
 41
0.9986467172841637
 10
-1090.239581295604
 20
-9474.084089058368
 30
0.0
 41
1.0
 10
-1090.240455424305
 20
-9474.083010456088
 30
0.0
 41
1.0
 10
-1090.241329553006
 20
-9474.08193185381
 30
0.0
 41
1.0
 10
-1090.278778448244
 20
-9474.035723024735
 30
0.0
 41
0.9984001104272984
 10
-1090.321205178759
 20
-9473.994037917368
 30
0.0
 41
1.0
 10
-1090.321792316862
 20
-9473.993461042493
 30
0.0
 41
1.0
 10
-1090.322379454965
 20
-9473.992884167617
 30
0.0
 41
1.0
 10
-1090.363631909272
 20
-9473.952352810005
 30
0.0
 41
0.9982442159097731
 10
-1090.409388010611
 20
-9473.916984248739
 30
0.0
 41
1.0
 10
-1090.409602806077
 20
-9473.916818216094
 30
0.0
 41
1.0
 10
-1090.409817601542
 20
-9473.916652183447
 30
0.0
 41
1.0
 10
-1090.455144111948
 20
-9473.881615687476
 30
0.0
 41
0.9982450060831742
 10
-1090.504295091019
 20
-9473.852183904444
 30
0.0
 41
1.0
 10
-1090.553446070083
 20
-9473.822752121418
 30
0.0
 41
0.998392263965263
 10
-1090.605612376241
 20
-9473.799072486763
 30
0.0
 41
1.0
 10
-1090.605839253573
 20
-9473.798969501278
 30
0.0
 41
1.0
 10
-1090.606066130904
 20
-9473.798866515794
 30
0.0
 41
1.0
 10
-1090.65868619172
 20
-9473.774980910177
 30
0.0
 41
0.9986517147153089
 10
-1090.713499164587
 20
-9473.756679791055
 30
0.0
 41
1.0
 10
-1090.714177086014
 20
-9473.756453444625
 30
0.0
 41
1.0
 10
-1090.714855007442
 20
-9473.756227098193
 30
0.0
 41
1.0
 10
-1090.771023823184
 20
-9473.7374732862
 30
0.0
 41
0.9989435598952772
 10
-1090.828677210352
 20
-9473.723955583964
 30
0.0
 41
1.0
 10
-1090.829757329916
 20
-9473.723702333715
 30
0.0
 41
1.0
 10
-1090.83083744948
 20
-9473.723449083467
 30
0.0
 41
1.0
 10
-1090.890651075797
 20
-9473.709424880728
 30
0.0
 41
0.9992249241245359
 10
-1090.951382584693
 20
-9473.700149538012
 30
0.0
 41
1.0
 10
-1090.952796272984
 20
-9473.699933629603
 30
0.0
 41
1.0
 10
-1090.954209961275
 20
-9473.699717721196
 30
0.0
 41
1.0
 10
-1091.017768846745
 20
-9473.690010561668
 30
0.0
 41
0.9994396597835852
 10
-1091.081834783273
 20
-9473.684577639322
 30
0.0
 41
1.0
 10
-1091.10097545076
 20
-9473.682954471602
 30
0.0
 41
1.0
 10
-1091.120116118246
 20
-9473.681331303884
 30
0.0
 41
1.0
 10
-1091.222463389736
 20
-9473.6726520461
 30
0.0
 41
0.9987693403118328
 10
-1091.32516701332
 20
-9473.674155109553
 30
0.0
 41
1.0
 10
-1091.335421347563
 20
-9473.674305181328
 30
0.0
 41
1.0
 10
-1091.345675681805
 20
-9473.674455253102
 30
0.0
 41
1.0
 10
-1091.455231447972
 20
-9473.676058597388
 30
0.0
 41
0.9989753644959699
 10
-1091.564193447976
 20
-9473.687561604314
 30
0.0
 41
1.0
 10
-1091.673155447998
 20
-9473.699064611239
 30
0.0
 41
0.9983190067300739
 10
-1091.780054258966
 20
-9473.723099603028
 30
0.0
 41
1.0
 10
-1091.788955210568
 20
-9473.725100881591
 30
0.0
 41
1.0
 10
-1091.797856162171
 20
-9473.727102160152
 30
0.0
 41
1.0
 10
-1091.922556876364
 20
-9473.755139709066
 30
0.0
 41
0.9985539388297319
 10
-1092.043526630052
 20
-9473.796403385117
 30
0.0
 41
1.0
 10
-1092.045872061
 20
-9473.797203428929
 30
0.0
 41
1.0
 10
-1092.048217491948
 20
-9473.79800347274
 30
0.0
 41
1.0
 10
-1092.173878107541
 20
-9473.840867236415
 30
0.0
 41
0.9988468746491176
 10
-1092.294848449833
 20
-9473.895585321474
 30
0.0
 41
1.0
 10
-1092.298031271829
 20
-9473.897024996037
 30
0.0
 41
1.0
 10
-1092.301214093824
 20
-9473.8984646706
 30
0.0
 41
1.0
 10
-1092.428550080101
 20
-9473.956062104782
 30
0.0
 41
0.9991322885919067
 10
-1092.550650664165
 20
-9474.024057436969
 30
0.0
 41
1.0
 10
-1092.568252675207
 20
-9474.033859638957
 30
0.0
 41
1.0
 10
-1092.585854686249
 20
-9474.043661840946
 30
0.0
 41
1.0
 10
-1092.688031367303
 20
-9474.100561956724
 30
0.0
 41
0.9993860037848179
 10
-1092.785972371377
 20
-9474.164477972314
 30
0.0
 41
1.0
 10
-1092.791590684204
 20
-9474.168144466992
 30
0.0
 41
1.0
 10
-1092.797208997031
 20
-9474.17181096167
 30
0.0
 41
1.0
 10
-1092.883913375421
 20
-9474.228393987883
 30
0.0
 41
0.9998821494954613
 10
-1092.968839751263
 20
-9474.287612217977
 30
0.0
 41
1.0
 10
-1093.05376612706
 20
-9474.346830448043
 30
0.0
 41
0.9997976482743812
 10
-1093.136241757468
 20
-9474.409416856088
 30
0.0
 41
1.0
 10
-1093.150878022279
 20
-9474.420523545872
 30
0.0
 41
1.0
 10
-1093.16551428709
 20
-9474.431630235656
 30
0.0
 41
1.0
 10
-1093.277262447094
 20
-9474.51643002325
 30
0.0
 41
0.9998091630799928
 10
-1093.385612725102
 20
-9474.605530373936
 30
0.0
 41
1.0
 10
-1093.398618477594
 20
-9474.616225474394
 30
0.0
 41
1.0
 10
-1093.411624230085
 20
-9474.62692057485
 30
0.0
 41
1.0
 10
-1093.545986013081
 20
-9474.737411126454
 30
0.0
 41
0.9995035112315006
 10
-1093.673121890846
 20
-9474.856144943473
 30
0.0
 41
1.0
 10
-1093.68276920122
 20
-9474.865154689618
 30
0.0
 41
1.0
 10
-1093.692416511594
 20
-9474.874164435763
 30
0.0
 41
1.0
 10
-1093.815839574368
 20
-9474.989430807529
 30
0.0
 41
0.9994630424300597
 10
-1093.931447980155
 20
-9475.112533550766
 30
0.0
 41
1.0
 10
-1093.935130818929
 20
-9475.116455130283
 30
0.0
 41
1.0
 10
-1093.938813657704
 20
-9475.120376709798
 30
0.0
 41
1.0
 10
-1094.047056385944
 20
-9475.235636294008
 30
0.0
 41
0.9995160693749996
 10
-1094.14792241547
 20
-9475.357403711874
 30
0.0
 41
1.0
 10
-1094.149856135551
 20
-9475.359738136081
 30
0.0
 41
1.0
 10
-1094.151789855631
 20
-9475.362072560289
 30
0.0
 41
1.0
 10
-1094.248788445001
 20
-9475.479171129744
 30
0.0
 41
0.9996561470514143
 10
-1094.339514663669
 20
-9475.601193892195
 30
0.0
 41
1.0
 10
-1094.345672329565
 20
-9475.60947568123
 30
0.0
 41
1.0
 10
-1094.351829995462
 20
-9475.617757470265
 30
0.0
 41
1.0
 10
-1094.430240882318
 20
-9475.723216654622
 30
0.0
 41
0.9998349055175038
 10
-1094.504768164267
 20
-9475.831455238309
 30
0.0
 41
1.0
 10
-1094.579295446204
 20
-9475.939693821978
 30
0.0
 41
0.999972810956436
 10
-1094.652218342115
 20
-9476.049019747537
 30
0.0
 41
1.0
 10
-1094.653533557524
 20
-9476.050991517035
 30
0.0
 41
1.0
 10
-1094.654848772932
 20
-9476.052963286533
 30
0.0
 41
1.0
 10
-1094.730402099756
 20
-9476.166232751228
 30
0.0
 41
0.9999972147326517
 10
-1094.805419910083
 20
-9476.279857593992
 30
0.0
 41
1.0
 10
-1094.810391452684
 20
-9476.287387682432
 30
0.0
 41
1.0
 10
-1094.815362995285
 20
-9476.294917770872
 30
0.0
 41
1.0
 10
-1094.900323890904
 20
-9476.423602790654
 30
0.0
 41
0.9999371979008619
 10
-1094.982379240291
 20
-9476.554159704405
 30
0.0
 41
1.0
 10
-1094.985888124662
 20
-9476.559742632482
 30
0.0
 41
1.0
 10
-1094.989397009032
 20
-9476.565325560561
 30
0.0
 41
1.0
 10
-1095.078470127166
 20
-9476.707048330478
 30
0.0
 41
0.9998272025609121
 10
-1095.162213518042
 20
-9476.851984207211
 30
0.0
 41
1.0
 10
-1095.177428690066
 20
-9476.878317321669
 30
0.0
 41
1.0
 10
-1095.192643862091
 20
-9476.904650436125
 30
0.0
 41
1.0
 10
-1095.30681759702
 20
-9477.10225254178
 30
0.0
 41
0.9995217214838947
 10
-1095.408557286579
 20
-9477.306534869647
 30
0.0
 41
1.0
 10
-1095.416200849215
 20
-9477.321882319353
 30
0.0
 41
1.0
 10
-1095.423844411851
 20
-9477.337229769057
 30
0.0
 41
1.0
 10
-1095.510749704445
 20
-9477.511726227149
 30
0.0
 41
0.9998269762608569
 10
-1095.591104170708
 20
-9477.689334513854
 30
0.0
 41
1.0
 10
-1095.671458636985
 20
-9477.866942800589
 30
0.0
 41
0.9998944747384553
 10
-1095.746619431548
 20
-9478.046810526215
 30
0.0
 41
1.0
 10
-1095.751573101129
 20
-9478.058665181106
 30
0.0
 41
1.0
 10
-1095.756526770709
 20
-9478.070519835997
 30
0.0
 41
1.0
 10
-1095.837173831279
 20
-9478.263516776056
 30
0.0
 41
0.9999506734411946
 10
-1095.913971360184
 20
-9478.458077580917
 30
0.0
 41
1.0
 10
-1095.928571325457
 20
-9478.495065502728
 30
0.0
 41
1.0
 10
-1095.94317129073
 20
-9478.53205342454
 30
0.0
 41
1.0
 10
-1095.990768889082
 20
-9478.652638385762
 30
0.0
 41
0.9999912393959793
 10
-1096.03735533311
 20
-9478.77361758847
 30
0.0
 41
1.0
 10
-1096.083941777142
 20
-9478.894596791193
 30
0.0
 41
0.9999927113954946
 10
-1096.129603071528
 20
-9479.01592819867
 30
0.0
 41
1.0
 10
-1096.143571502925
 20
-9479.053045180668
 30
0.0
 41
1.0
 10
-1096.157539934322
 20
-9479.090162162665
 30
0.0
 41
1.0
 10
-1096.231138091493
 20
-9479.28572753411
 30
0.0
 41
0.9999487550950859
 10
-1096.300761716474
 20
-9479.48274289932
 30
0.0
 41
1.0
 10
-1096.324355326421
 20
-9479.549506209642
 30
0.0
 41
1.0
 10
-1096.347948936368
 20
-9479.616269519962
 30
0.0
 41
1.0
 10
-1096.44263457072
 20
-9479.884203354735
 30
0.0
 41
0.9999808436943911
 10
-1096.533996159369
 20
-9480.153288786021
 30
0.0
 41
1.0
 10
-1096.625357748016
 20
-9480.4223742173
 30
0.0
 41
0.9999873932909487
 10
-1096.714012456711
 20
-9480.692363572247
 30
0.0
 41
1.0
 10
-1096.734104813589
 20
-9480.753552905026
 30
0.0
 41
1.0
 10
-1096.754197170467
 20
-9480.814742237806
 30
0.0
 41
1.0
 10
-1096.883036592923
 20
-9481.207110258318
 30
0.0
 41
0.9999794883036429
 10
-1097.006839377879
 20
-9481.601096464594
 30
0.0
 41
1.0
 10
-1097.017991637317
 20
-9481.63658707483
 30
0.0
 41
1.0
 10
-1097.029143896754
 20
-9481.672077685069
 30
0.0
 41
1.0
 10
-1097.171702060702
 20
-9482.125750437315
 30
0.0
 41
0.9999982761696142
 10
-1097.31257450067
 20
-9482.579949459287
 30
0.0
 41
1.0
 10
-1098.900714833243
 20
-9487.628719190288
 30
0.0
 41
1.0
 10
-1100.488855165815
 20
-9492.677488921292
 30
0.0
 41
1.0
 10
-1101.437605777292
 20
-9492.677488921292
 30
0.0
 41
1.0
 10
-1102.386356388768
 20
-9492.677488921292
 30
0.0
 41
1.0
 10
-1099.148071902615
 20
-9482.350166721346
 30
0.0
 41
1.0
 10
-1095.909787416462
 20
-9472.0228445214
 30
0.0
 41
1.0
  0
LWPOLYLINE
  5
57
330
23
100
AcDbEntity
  8
0
  6
Continuous
 62
     7
370
    15
390
1D
100
AcDbPolyline
 90
      232
 70
   128
 43
0.0
 10
-1121.613333190289
 20
-9473.107187352914
 42
0.0004370800658302
 10
-1121.666210364295
 20
-9473.175853992087
 10
-1121.705494595488
 20
-9473.226961105069
 42
0.003048199216035
 10
-1121.835833312594
 20
-9473.398682797395
 10
-1121.874344984358
 20
-9473.4500695812
 42
0.0042058245776754
 10
-1122.078330035048
 20
-9473.727075326304
 10
-1122.130735157528
 20
-9473.799508173055
 42
0.0120948898730012
 10
-1122.426779074283
 20
-9474.230257777594
 10
-1122.52297157341
 20
-9474.377738512827
 42
0.0141601263956037
 10
-1122.826615620334
 20
-9474.873407849565
 10
-1122.866152887748
 20
-9474.942251816978
 42
0.0071131081314277
 10
-1123.071425210998
 20
-9475.311754615834
 42
0.006845879099556
 10
-1123.266304737826
 20
-9475.686846179278
 10
-1123.273116600299
 20
-9475.700407893033
 42
0.0064120880290392
 10
-1123.471258850345
 20
-9476.107832367958
 10
-1123.47879353586
 20
-9476.123844224674
 42
0.0058857236427201
 10
-1123.68154892773
 20
-9476.568220335706
 10
-1123.689723854026
 20
-9476.586710489344
 42
0.0053189741895661
 10
-1123.8984281667
 20
-9477.072673963277
 10
-1123.907175972375
 20
-9477.093655841458
 42
0.004750365040628
 10
-1124.123149698514
 20
-9477.625855274635
 10
-1124.132417946874
 20
-9477.649331650773
 42
0.0042071762171192
 10
-1124.356965330604
 20
-9478.23242524485
 10
-1124.36671473295
 20
-9478.258391419713
 42
0.0036680086494796
 10
-1124.601169376274
 20
-9478.89702680428
 10
-1124.61137715611
 20
-9478.92547533859
 42
0.0032573142620798
 10
-1124.85700944207
 20
-9479.624327998325
 10
-1124.925659962916
 20
-9479.823791082394
 42
0.002613336664558
 10
-1125.274105161675
 20
-9480.853654366067
 10
-1125.337361949183
 20
-9481.043885201481
 42
0.0020592950745731
 10
-1125.551225018143
 20
-9481.695988854073
 10
-1125.554276809309
 20
-9481.705425342492
 42
0.0025609928539591
 10
-1125.756097310792
 20
-9482.340570564851
 10
-1125.75868867792
 20
-9482.348872905795
 42
0.0031362356253284
 10
-1125.948179463596
 20
-9482.969635761969
 10
-1125.950310506525
 20
-9482.976777068186
 42
0.0037229918020375
 10
-1126.127110893449
 20
-9483.585762370156
 10
-1126.128789482657
 20
-9483.591709260334
 42
0.0043077623716884
 10
-1126.292530284721
 20
-9484.191527992098
 42
0.0047654161829515
 10
-1126.445359007232
 20
-9484.794214080981
 10
-1126.479823616076
 20
-9484.93577585815
 42
0.0112969368438442
 10
-1126.675687974219
 20
-9485.827468018773
 10
-1126.703694363316
 20
-9485.970296064872
 42
0.0130056762565103
 10
-1126.904531606963
 20
-9487.157237136518
 10
-1126.925071357109
 20
-9487.30131524999
 42
0.0138721532147303
 10
-1127.028774361648
 20
-9488.208144735821
 10
-1127.048069849556
 20
-9488.431642457752
 42
0.0071254697033527
 10
-1127.081416495478
 20
-9488.894829466593
 10
-1127.086377469642
 20
-9488.980833461157
 42
0.0028881799221217
 10
-1127.101515762931
 20
-9489.272575170995
 42
0.0060297297111782
 10
-1127.111447962707
 20
-9489.564524107107
 10
-1127.112510244374
 20
-9489.61291647904
 42
0.0229523164189095
 10
-1127.104779216588
 20
-9489.935671325326
 10
-1127.100553443067
 20
-9489.996074859353
 42
0.0123673300641462
 10
-1127.08147479655
 20
-9490.197195584518
 42
0.012857767441106
 10
-1127.052279406144
 20
-9490.39709343444
 10
-1127.045153532756
 20
-9490.43842224904
 42
0.0285717853746296
 10
-1126.980659531061
 20
-9490.716538400353
 10
-1126.966991007396
 20
-9490.763193169823
 42
0.0316283099121285
 10
-1126.85118042748
 20
-9491.082207671658
 10
-1126.848131735726
 20
-9491.08919404398
 42
0.0338984824220571
 10
-1126.698700024757
 20
-9491.376760008174
 10
-1126.696391295388
 20
-9491.380551037448
 42
0.0350228718358776
 10
-1126.514031004714
 20
-9491.637603022125
 10
-1126.513145752941
 20
-9491.638682099887
 42
0.0347476747525877
 10
-1126.298721065699
 20
-9491.86586714711
 42
0.0331337701917999
 10
-1126.055477739944
 20
-9492.061995809192
 10
-1126.054377641436
 20
-9492.062768512358
 42
0.0305233319078246
 10
-1125.785832945848
 20
-9492.22789668246
 10
-1125.782602901361
 20
-9492.229620694314
 42
0.0273744481159732
 10
-1125.490049189781
 20
-9492.365758838205
 10
-1125.48494465465
 20
-9492.367802422672
 42
0.0240964406213516
 10
-1125.169467578993
 20
-9492.476786148958
 10
-1125.162884249794
 20
-9492.47871088863
 42
0.0209636179793581
 10
-1124.825484097134
 20
-9492.562179036564
 10
-1124.817851636693
 20
-9492.563730949563
 42
0.0181388704710325
 10
-1124.459529244702
 20
-9492.623147042776
 10
-1124.451248396316
 20
-9492.624213226594
 42
0.01560865475634
 10
-1124.073061032128
 20
-9492.660949413172
 10
-1124.029865779813
 20
-9492.66378791565
 42
0.0137148329031268
 10
-1123.702192634501
 20
-9492.676308170901
 10
-1123.656256444607
 20
-9492.676802604015
 42
0.0051057823871266
 10
-1123.420110857983
 20
-9492.676932858425
 42
0.0052256693327475
 10
-1123.184013574258
 20
-9492.672184033961
 10
-1123.113786790455
 20
-9492.670037067946
 42
0.016150717907547
 10
-1122.738049712332
 20
-9492.64638669762
 10
-1122.718036751981
 20
-9492.644476502333
 42
0.010121673782702
 10
-1122.304009530505
 20
-9492.59648357197
 10
-1122.269956241063
 20
-9492.591835875159
 42
0.0245291776397398
 10
-1121.793166585502
 20
-9492.502760797079
 10
-1121.708343269992
 20
-9492.482564876736
 42
0.0143509212586905
 10
-1121.351712166048
 20
-9492.386760242956
 42
0.0156557857030908
 10
-1121.001496101321
 20
-9492.269749027138
 10
-1120.993994886827
 20
-9492.266978865384
 42
0.0170137333627157
 10
-1120.63739889113
 20
-9492.121321250506
 10
-1120.630294968738
 20
-9492.11813341495
 42
0.018310536441357
 10
-1120.270945300603
 20
-9491.940798373142
 10
-1120.263998535933
 20
-9491.937047938252
 42
0.0194899958145032
 10
-1119.905517794945
 20
-9491.72506895636
 10
-1119.898503915612
 20
-9491.720543614068
 42
0.0204869852953318
 10
-1119.544489613495
 20
-9491.471023598964
 10
-1119.537224004931
 20
-9491.465443533634
 42
0.0212516938536791
 10
-1119.191234073826
 20
-9491.175539536742
 10
-1119.144717379751
 20
-9491.133072226648
 42
0.0215248918228153
 10
-1118.88469121086
 20
-9490.874307947652
 10
-1118.839661476477
 20
-9490.825463826299
 42
0.0114578554960181
 10
-1118.684869322802
 20
-9490.649640892843
 10
-1118.673674786808
 20
-9490.636322129289
 42
0.0061531305118963
 10
-1118.547200140821
 20
-9490.482032595992
 42
0.0006325587099458
 10
-1118.422821656785
 20
-9490.326029220461
 10
-1118.399781521618
 20
-9490.297055699655
 42
0.0041897761570355
 10
-1118.231326117617
 20
-9490.081536323558
 10
-1118.172863997753
 20
-9490.005434976609
 42
0.0092993880001223
 10
-1117.896252070529
 20
-9489.631156212727
 10
-1117.813857577332
 20
-9489.51521920916
 42
0.015932172707115
 10
-1117.467251094688
 20
-9488.993044988401
 10
-1117.422894959289
 20
-9488.921365424136
 42
0.0085547317031606
 10
-1117.188383193973
 20
-9488.527490474926
 42
0.0084601156872452
 10
-1116.967407016534
 20
-9488.1258636259
 10
-1116.9592915427
 20
-9488.11050394362
 42
0.0081429654287302
 10
-1116.736042272269
 20
-9487.67078243109
 10
-1116.727182108079
 20
-9487.65260358906
 42
0.007657458131645
 10
-1116.500774597508
 20
-9487.169420713799
 10
-1116.491294956788
 20
-9487.148356235504
 42
0.0070682724207208
 10
-1116.260850048973
 20
-9486.616318930704
 10
-1116.250859765
 20
-9486.592329741712
 42
0.0064559514449339
 10
-1116.015526556816
 20
-9486.006017475187
 10
-1116.005117198653
 20
-9485.979082549751
 42
0.0058311413904494
 10
-1115.764070461889
 20
-9485.333050455361
 10
-1115.753315384503
 20
-9485.303166114205
 42
0.005231242582504
 10
-1115.50573410646
 20
-9484.591963700366
 10
-1115.494690270082
 20
-9484.559136988302
 42
0.0046680544791609
 10
-1115.239761842347
 20
-9483.777310672542
 10
-1115.197769692308
 20
-9483.644327435266
 42
0.0041666856433232
 10
-1114.99448367991
 20
-9482.981358660249
 10
-1114.956821239265
 20
-9482.85477755266
 42
0.0015170975130518
 10
-1114.835634660833
 20
-9482.442909201101
 42
-0.0004887993089914
 10
-1114.715294887744
 20
-9482.030790789177
 10
-1114.638817630214
 20
-9481.76983340312
 42
0.0002583378920599
 10
-1114.36560306026
 20
-9480.835776700316
 10
-1114.283830210566
 20
-9480.555677440329
 42
0.0006636169692228
 10
-1114.089962450562
 20
-9479.888324516769
 10
-1114.084865796244
 20
-9479.870692933991
 42
0.0010589131303472
 10
-1113.903417095298
 20
-9479.23796159084
 10
-1113.898435024822
 20
-9479.220448683833
 42
0.0015655524451112
 10
-1113.730164817635
 20
-9478.621832004621
 10
-1113.725334617232
 20
-9478.604439845729
 42
0.0021640440473214
 10
-1113.571044645234
 20
-9478.039412827666
 10
-1113.566410425806
 20
-9478.02214809768
 42
0.0028763871841315
 10
-1113.426894707751
 20
-9477.490180146826
 10
-1113.422508843589
 20
-9477.473056168688
 42
0.0037310511955814
 10
-1113.298552151747
 20
-9476.973608574648
 10
-1113.294476931458
 20
-9476.956648303401
 42
0.0047652197744333
 10
-1113.18685303095
 20
-9476.489170535096
 10
-1113.183162431629
 20
-9476.472410979957
 42
0.0060276699306743
 10
-1113.092632332473
 20
-9476.036335184803
 10
-1113.089413642184
 20
-9476.019833970495
 42
0.0075824337758418
 10
-1113.016724332768
 20
-9475.614566806067
 10
-1113.014078955386
 20
-9475.598411858606
 42
0.0095130624597527
 10
-1112.959963719757
 20
-9475.223322505544
 10
-1112.952977495874
 20
-9475.167388947428
 42
0.0121054653214841
 10
-1112.926386165296
 20
-9474.902493118954
 10
-1112.925519675537
 20
-9474.891089676024
 42
0.0069050827387635
 10
-1112.910430857499
 20
-9474.648148449181
 10
-1112.90929555783
 20
-9474.624622192123
 42
0.0169063976652162
 10
-1112.90646827885
 20
-9474.428429464835
 10
-1112.907638930381
 20
-9474.368093703482
 42
0.0052007732960805
 10
-1112.909892378974
 20
-9474.292500313333
 42
0.0054038123256387
 10
-1112.929855890812
 20
-9474.17248201733
 10
-1112.934941746684
 20
-9474.143823530743
 42
0.011205046052653
 10
-1112.970326108741
 20
-9473.96749709241
 10
-1112.988151070783
 20
-9473.887955505683
 42
0.0240764468026574
 10
-1113.07904843693
 20
-9473.557718470178
 10
-1113.097607199744
 20
-9473.501098305183
 42
0.0256812331820944
 10
-1113.240970119932
 20
-9473.129374098931
 10
-1113.246379545753
 20
-9473.117242763943
 42
0.0268360501227358
 10
-1113.415806786603
 20
-9472.78624962992
 10
-1113.421343194243
 20
-9472.7767299596
 42
0.0274670231737293
 10
-1113.613544170651
 20
-9472.48444258469
 10
-1113.618925470615
 20
-9472.477163437146
 42
0.027503596710338
 10
-1113.830498350176
 20
-9472.221647546845
 10
-1113.835567851138
 20
-9472.21616845922
 42
0.0269557673516323
 10
-1114.062971394582
 20
-9471.995526173252
 10
-1114.067714452369
 20
-9471.991396218787
 42
0.0259124802202393
 10
-1114.307269283795
 20
-9471.80370569164
 10
-1114.311800128967
 20
-9471.800520189317
 42
0.0245162153006185
 10
-1114.559716482072
 20
-9471.643787180197
 10
-1114.564243028393
 20
-9471.641226982998
 42
0.0229282588832097
 10
-1114.816662585224
 20
-9471.513358790498
 10
-1114.821443079078
 20
-9471.511206490728
 42
0.0212984135685497
 10
-1115.074481031522
 20
-9471.410007573493
 10
-1115.079785316491
 20
-9471.408144010733
 42
0.0197555462301116
 10
-1115.329563654215
 20
-9471.331328592769
 42
0.018351189680966
 10
-1115.584492379696
 20
-9471.2737456858
 10
-1115.670857576388
 20
-9471.25754289542
 42
0.0338057877125367
 10
-1115.956364925661
 20
-9471.223734490279
 10
-1116.047370330721
 20
-9471.219154835017
 42
0.0091990524446953
 10
-1116.153217439337
 20
-9471.215778979094
 42
0.0028333980754951
 10
-1116.259131355472
 20
-9471.214950871577
 10
-1116.260046808379
 20
-9471.214948901754
 42
-0.0023619827857479
 10
-1116.367792823449
 20
-9471.214208060677
 10
-1116.404197993661
 20
-9471.213785754213
 42
0.0008824598486713
 10
-1116.584753983122
 20
-9471.212009975978
 10
-1116.628615415917
 20
-9471.21165601445
 42
0.0038132665801849
 10
-1116.896898311744
 20
-9471.211537078383
 10
-1116.913431966589
 20
-9471.211655844527
 42
0.0060665569372529
 10
-1117.214712458307
 20
-9471.217476143951
 10
-1117.228962790206
 20
-9471.217924451914
 42
0.0080356953319611
 10
-1117.558421506497
 20
-9471.233592173976
 10
-1117.570491521632
 20
-9471.23436075692
 42
0.0098996399104227
 10
-1117.923254606285
 20
-9471.263845986121
 10
-1117.933300315658
 20
-9471.264886282319
 42
0.0117740981340479
 10
-1118.304457173943
 20
-9471.312178529837
 10
-1118.312679870489
 20
-9471.313423646418
 42
0.0137435215127703
 10
-1118.697268689916
 20
-9471.382520619969
 10
-1118.703925729098
 20
-9471.383906516214
 42
0.0158359869370405
 10
-1119.0969228229
 20
-9471.478798604694
 10
-1119.102336009767
 20
-9471.480288545565
 42
0.0180554124000031
 10
-1119.498651054377
 20
-9471.604926561802
 10
-1119.503207842463
 20
-9471.60654259807
 42
0.0203657431300422
 10
-1119.897685360303
 20
-9471.764802939599
 10
-1119.901828899282
 20
-9471.766664561028
 42
0.0226819684634803
 10
-1120.289264955473
 20
-9471.96230713969
 10
-1120.293464746504
 20
-9471.964672731618
 42
0.0248634984596228
 10
-1120.668646687677
 20
-9472.20129937756
 10
-1120.716841616473
 20
-9472.235156419396
 42
0.0267044190906084
 10
-1120.991134313385
 20
-9472.450596795261
 42
0.0139303002234305
 10
-1121.247301479333
 20
-9472.687835636181
 10
-1121.252154865045
 20
-9472.692588299033
 42
0.0283460963472787
 10
-1121.496227459271
 20
-9472.960318959475
 10
-1121.535895964429
 20
-9473.00912053695
 42
0.0070695364834747
 10
-1121.613333190289
 20
-9473.107187352914
 42
0.0070695364834747
  0
LWPOLYLINE
  5
58
330
23
100
AcDbEntity
  8
0
  6
Continuous
 62
     7
370
    15
390
1D
100
AcDbPolyline
 90
      226
 70
   128
 43
0.0
 10
-1125.142153627535
 20
-9488.828776159098
 42
-0.0026277636649361
 10
-1125.142231511335
 20
-9488.762004233417
 10
-1125.142014153103
 20
-9488.708849015913
 42
-0.0088680296697067
 10
-1125.13823753681
 20
-9488.535833233496
 10
-1125.135891177698
 20
-9488.476553208056
 42
-0.0077381705594839
 10
-1125.119845066935
 20
-9488.185292712267
 10
-1125.118977155762
 20
-9488.173004478573
 42
-0.0068872530534948
 10
-1125.092345076014
 20
-9487.85778272651
 10
-1125.091140851827
 20
-9487.845541747485
 42
-0.0062130021465348
 10
-1125.053547135
 20
-9487.506672056248
 10
-1125.052043231464
 20
-9487.49449818433
 42
-0.0056726929663332
 10
-1125.003121371962
 20
-9487.132302962214
 10
-1125.001347926318
 20
-9487.12020916197
 42
-0.0052341884472521
 10
-1124.940737340058
 20
-9486.735015906454
 10
-1124.938719351281
 20
-9486.72301097646
 42
-0.0049768450149906
 10
-1124.865980669854
 20
-9486.315166409027
 10
-1124.841731655133
 20
-9486.186618426022
 42
-0.0089029805630396
 10
-1124.704650803339
 20
-9485.524842978602
 10
-1124.671905428019
 20
-9485.379811548077
 42
-0.0080318257096931
 10
-1124.442356813679
 20
-9484.434101916224
 10
-1124.430371887231
 20
-9484.387971281034
 42
-0.0074265721321525
 10
-1124.146360348378
 20
-9483.357906702642
 10
-1124.126480805267
 20
-9483.289772642072
 42
-0.0069711922700772
 10
-1123.799176226757
 20
-9482.223504901736
 10
-1123.739224279654
 20
-9482.037483543372
 42
-0.0052070422897942
 10
-1123.509799054392
 20
-9481.350211466333
 10
-1123.492517862226
 20
-9481.300184185733
 42
-0.0009167004435449
 10
-1123.289425974931
 20
-9480.715728337562
 42
-0.0025162726944841
 10
-1123.082328344686
 20
-9480.13268707345
 10
-1123.045103732859
 20
-9480.029537527484
 42
-0.0028212681449318
 10
-1122.7969278139
 20
-9479.353806895324
 10
-1122.787097051143
 20
-9479.32749945063
 42
-0.0031964916818332
 10
-1122.550804793487
 20
-9478.70729468852
 10
-1122.541170339477
 20
-9478.682484698347
 42
-0.0036281836437697
 10
-1122.316064378386
 20
-9478.115044017482
 10
-1122.30662596823
 20
-9478.091746585984
 42
-0.0041269166834447
 10
-1122.09200827157
 20
-9477.574305690003
 10
-1122.059375315143
 20
-9477.497427243628
 42
-0.0047472213033278
 10
-1121.902330509595
 20
-9477.137005775756
 10
-1121.895436428375
 20
-9477.121585178396
 42
-0.0025651659996559
 10
-1121.747078394537
 20
-9476.794257122678
 42
-0.0057144635015499
 10
-1121.593328700777
 20
-9476.469447449339
 10
-1121.565297995355
 20
-9476.411939066898
 42
-0.0065388068356857
 10
-1121.381830967625
 20
-9476.047706570254
 10
-1121.37337251184
 20
-9476.031446990874
 42
-0.007451084301727
 10
-1121.197190265968
 20
-9475.704758709762
 10
-1121.189010595431
 20
-9475.690117932481
 42
-0.0084648979841971
 10
-1121.019376742337
 20
-9475.398208921533
 10
-1121.011520615848
 20
-9475.38520192988
 42
-0.0095638542783683
 10
-1120.847685168255
 20
-9475.125313057903
 10
-1120.840210224584
 20
-9475.113943696448
 42
-0.0107191626828578
 10
-1120.681408644196
 20
-9474.883332461905
 10
-1120.67439191046
 20
-9474.873596369533
 42
-0.0118458573879804
 10
-1120.519843811952
 20
-9474.669524174227
 42
-0.012918451818003
 10
-1120.355391188347
 20
-9474.473363658053
 10
-1120.325246415989
 20
-9474.43923757916
 42
-0.0217742579660514
 10
-1120.148634093652
 20
-9474.256030808909
 10
-1120.137888549213
 20
-9474.245813975725
 42
-0.0097266568640892
 10
-1119.971830930336
 20
-9474.09396640127
 42
-0.0187720905745781
 10
-1119.797483354449
 20
-9473.95189754788
 10
-1119.766777363773
 20
-9473.928738465482
 42
-0.0179428207506315
 10
-1119.534356643776
 20
-9473.766186288372
 10
-1119.530704316865
 20
-9473.763822353489
 42
-0.017004787771063
 10
-1119.29494067933
 20
-9473.622361839332
 10
-1119.291157690596
 20
-9473.620263534303
 42
-0.0160190788388248
 10
-1119.054249142948
 20
-9473.498612232308
 42
-0.0151102861494811
 10
-1118.810217360499
 20
-9473.391929456253
 10
-1118.75783085829
 20
-9473.37088932336
 42
-0.027194544188516
 10
-1118.399168299232
 20
-9473.249024512652
 10
-1118.330103498723
 20
-9473.22967497138
 42
-0.0237596594009991
 10
-1117.914306651721
 20
-9473.134224259404
 10
-1117.846243797971
 20
-9473.121969571273
 42
-0.0213715440503993
 10
-1117.560368866545
 20
-9473.083022539768
 10
-1117.500221700292
 20
-9473.077432825063
 42
-0.0101465655838346
 10
-1117.332729168333
 20
-9473.065289281803
 10
-1117.323388782151
 20
-9473.064802366807
 42
-0.0100375910866722
 10
-1117.174234681572
 20
-9473.06002654888
 10
-1117.163975411903
 20
-9473.059904109865
 42
-0.0103625633403709
 10
-1117.035267417237
 20
-9473.061035543393
 10
-1117.01300176597
 20
-9473.061692901858
 42
-0.0115689250263111
 10
-1116.928951028442
 20
-9473.066122408101
 42
-0.0072438037410921
 10
-1116.845112749052
 20
-9473.073711607847
 10
-1116.82831223953
 20
-9473.075478150577
 42
-0.0217917313095323
 10
-1116.711742476207
 20
-9473.0928980433
 10
-1116.646142385631
 20
-9473.105644651718
 42
-0.033294355674411
 10
-1116.441750220622
 20
-9473.159684943019
 10
-1116.411577652074
 20
-9473.169853020136
 42
-0.0184824084830066
 10
-1116.273072595606
 20
-9473.222304035524
 42
-0.0198002050613254
 10
-1116.138998255084
 20
-9473.285188095735
 10
-1116.13711161773
 20
-9473.286165882604
 42
-0.0212242342971277
 10
-1116.00497267532
 20
-9473.3619286214
 10
-1116.003157379784
 20
-9473.363074423603
 42
-0.0226090605826131
 10
-1115.874653478575
 20
-9473.452554067162
 10
-1115.872809036825
 20
-9473.453966320158
 42
-0.0238457052258865
 10
-1115.749626955541
 20
-9473.557962216011
 10
-1115.747674226973
 20
-9473.559777093786
 42
-0.0248160564096441
 10
-1115.631472719666
 20
-9473.679051695002
 10
-1115.62936908627
 20
-9473.6814370287
 42
-0.025410959145174
 10
-1115.521763868407
 20
-9473.816725414657
 10
-1115.51951584649
 20
-9473.819866963062
 42
-0.0255528488323872
 10
-1115.422069167694
 20
-9473.971894017297
 10
-1115.419738067777
 20
-9473.975975628906
 42
-0.0252146793206648
 10
-1115.333957041762
 20
-9474.145477874916
 10
-1115.331654802611
 20
-9474.150659956815
 42
-0.0244265635976318
 10
-1115.259000108849
 20
-9474.338406528861
 10
-1115.249753707382
 20
-9474.366271947194
 42
-0.0231319612899151
 10
-1115.203830928388
 20
-9474.529572994
 42
-0.0112130424374672
 10
-1115.169194905849
 20
-9474.695776594193
 10
-1115.167992380738
 20
-9474.702273181076
 42
-0.0210527881201584
 10
-1115.142305905367
 20
-9474.883328826518
 10
-1115.138795310545
 20
-9474.918734375064
 42
-0.0190029892399095
 10
-1115.123353837
 20
-9475.172270221341
 10
-1115.122543860557
 20
-9475.207745835705
 42
-0.0137974553657014
 10
-1115.124092713392
 20
-9475.532777242439
 10
-1115.124938168348
 20
-9475.558895987035
 42
-0.0081336634218298
 10
-1115.13979750357
 20
-9475.864243454631
 42
-0.0073526923575821
 10
-1115.164106036945
 20
-9476.168991698918
 10
-1115.165367460728
 20
-9476.182328373583
 42
-0.0066886138702962
 10
-1115.201103046774
 20
-9476.512914417082
 10
-1115.202760136244
 20
-9476.526536036072
 42
-0.0061359187343754
 10
-1115.250610738294
 20
-9476.883300016167
 10
-1115.252648239368
 20
-9476.897194819001
 42
-0.0056698610073535
 10
-1115.313298570136
 20
-9477.280473387847
 10
-1115.315704003458
 20
-9477.29463250707
 42
-0.0052721077259122
 10
-1115.389836204257
 20
-9477.704759846743
 10
-1115.392599353099
 20
-9477.719176482133
 42
-0.0049289272174363
 10
-1115.480893471196
 20
-9478.156484993244
 10
-1115.484005965882
 20
-9478.171153846073
 42
-0.0047415956705878
 10
-1115.587243957413
 20
-9478.635950603479
 10
-1115.622012167774
 20
-9478.785757698866
 42
-0.0084404470895411
 10
-1115.812028611344
 20
-9479.545981723391
 10
-1115.818155299331
 20
-9479.56884584755
 42
-0.0039635940255926
 10
-1116.039608983622
 20
-9480.36983471182
 10
-1116.052985778795
 20
-9480.41676632839
 42
-0.0072475040840067
 10
-1116.320432666659
 20
-9481.305986044783
 10
-1116.390644993486
 20
-9481.527726394756
 42
-0.0051345458821031
 10
-1116.677404365544
 20
-9482.402051582563
 10
-1116.698930632321
 20
-9482.46547784972
 42
-0.001915001660533
 10
-1116.954464039178
 20
-9483.209026969918
 10
-1116.960931643562
 20
-9483.227614434802
 42
-0.0021524362745434
 10
-1117.209409694638
 20
-9483.931940256549
 10
-1117.218620115328
 20
-9483.957693834831
 42
-0.0024331286807751
 10
-1117.454875374371
 20
-9484.608293142968
 10
-1117.463923326914
 20
-9484.632836449302
 42
-0.0027449721791281
 10
-1117.688537897757
 20
-9485.231966328247
 10
-1117.697427905137
 20
-9485.255288918068
 42
-0.0031083229751992
 10
-1117.910970391759
 20
-9485.805212955678
 10
-1117.919706523422
 20
-9485.827302671503
 42
-0.0035311343291385
 10
-1118.122747709026
 20
-9486.330285797267
 10
-1118.131333048192
 20
-9486.35112852082
 42
-0.0040245640947653
 10
-1118.324444851969
 20
-9486.809437843369
 10
-1118.332880965552
 20
-9486.829017211394
 42
-0.0046015135861416
 10
-1118.516637258735
 20
-9487.244922241083
 10
-1118.524923436581
 20
-9487.263219380573
 42
-0.0052768638255349
 10
-1118.699900955519
 20
-9487.638992264805
 10
-1118.708033166164
 20
-9487.655985603385
 42
-0.0060672675652039
 10
-1118.874812778912
 20
-9487.993901226462
 10
-1118.882782259391
 20
-9488.009566485454
 42
-0.0069904648856721
 10
-1119.041950653395
 20
-9488.311902292124
 10
-1119.049742053005
 20
-9488.326212841348
 42
-0.0080637022781676
 10
-1119.201893913352
 20
-9488.595248144506
 10
-1119.209482945977
 20
-9488.608176010095
 42
-0.0093006455668125
 10
-1119.355223622515
 20
-9488.846190408609
 10
-1119.362574289258
 20
-9488.857708377782
 42
-0.0107060778032842
 10
-1119.502522832697
 20
-9489.066978695162
 10
-1119.509584600975
 20
-9489.077064237727
 42
-0.0122723111375648
 10
-1119.644378319174
 20
-9489.259857567216
 10
-1119.644704542716
 20
-9489.26027795501
 42
-0.0141836319606781
 10
-1119.788286145703
 20
-9489.434847712855
 10
-1119.795233901356
 20
-9489.442822713121
 42
-0.017595747723159
 10
-1119.935140069389
 20
-9489.592443601525
 42
-0.0080466359655047
 10
-1120.082603834442
 20
-9489.734766129697
 10
-1120.128638378937
 20
-9489.777786567767
 42
-0.0269600260406785
 10
-1120.381918624917
 20
-9489.990109826274
 10
-1120.448485761199
 20
-9490.040061240888
 42
-0.0178362839750105
 10
-1120.688430250873
 20
-9490.207079167152
 10
-1120.695675221863
 20
-9490.21174767935
 42
-0.0174650732649047
 10
-1120.932011419314
 20
-9490.352608644316
 42
-0.0169240130153111
 10
-1121.177477665211
 20
-9490.476900904112
 10
-1121.22346382073
 20
-9490.49826285966
 42
-0.0318883036834555
 10
-1121.573814676349
 20
-9490.634601169171
 10
-1121.642180211528
 20
-9490.656301789651
 42
-0.028443590988101
 10
-1122.018230337806
 20
-9490.752519225121
 10
-1122.053388498301
 20
-9490.75941282095
 42
-0.0243909341021993
 10
-1122.366831959223
 20
-9490.80513385198
 10
-1122.417112685985
 20
-9490.80997939888
 42
-0.0196639292928067
 10
-1122.632708263522
 20
-9490.822227684395
 10
-1122.684532334704
 20
-9490.823130945133
 42
-0.0100501510711104
 10
-1122.796955616349
 20
-9490.822830546778
 10
-1122.828615477392
 20
-9490.8221094749
 42
-0.001975203126948
 10
-1122.877707814375
 20
-9490.820797314684
 10
-1122.880468117655
 20
-9490.820712622855
 42
0.0065378752122108
 10
-1122.924044692352
 20
-9490.819945731642
 42
-0.0167974694486286
 10
-1122.967575515316
 20
-9490.818285833115
 10
-1122.971654854546
 20
-9490.817992822222
 42
-0.0081283276399846
 10
-1123.023214652273
 20
-9490.813445828584
 10
-1123.034954226162
 20
-9490.812217911005
 42
-0.012670344016038
 10
-1123.109672521919
 20
-9490.80248311994
 10
-1123.132460389633
 20
-9490.798924864019
 42
-0.0117852088353176
 10
-1123.25199937547
 20
-9490.77736186886
 10
-1123.307379827228
 20
-9490.766018328626
 42
-0.0251774592321046
 10
-1123.53422386621
 20
-9490.707520319202
 10
-1123.5789430561
 20
-9490.693553499854
 42
-0.0146525199917104
 10
-1123.765336043626
 20
-9490.62928697266
 42
-0.0166929435861908
 10
-1123.947313699746
 20
-9490.553479839607
 10
-1123.951970331025
 20
-9490.55135493899
 42
-0.0191684358458037
 10
-1124.137153962273
 20
-9490.458118855204
 10
-1124.140486548032
 20
-9490.45627760765
 42
-0.0221181781759834
 10
-1124.32379685194
 20
-9490.344144109273
 10
-1124.326146655942
 20
-9490.342559811286
 42
-0.0254984685383341
 10
-1124.502436806336
 20
-9490.210148661308
 10
-1124.524918954041
 20
-9490.19139635237
 42
-0.0292492648814251
 10
-1124.649687892873
 20
-9490.074303552738
 42
-0.0159048957534611
 10
-1124.76352789032
 20
-9489.946283561143
 10
-1124.764846680902
 20
-9489.94470194812
 42
-0.0343813379554765
 10
-1124.86748394253
 20
-9489.802830622346
 10
-1124.89897547389
 20
-9489.752327230253
 42
-0.036911727570114
 10
-1124.984867975787
 20
-9489.588849989308
 42
-0.0191751379872925
 10
-1125.052061361345
 20
-9489.416445383298
 10
-1125.053824685103
 20
-9489.411352038627
 42
-0.0378178042177246
 10
-1125.103619403888
 20
-9489.22241126254
 10
-1125.109614699616
 20
-9489.189850644358
 42
-0.018484604643221
 10
-1125.130331898912
 20
-9489.048097823803
 42
-0.017986635136108
 10
-1125.140664903985
 20
-9488.905207010725
 10
-1125.140721346431
 20
-9488.90364932411
 42
-0.0085497186017776
 10
-1125.142153627535
 20
-9488.828776159098
 42
-0.0085497186017776
  0
ENDBLK
  5
59
330
23
100
AcDbEntity
  8
template
390
1D
100
AcDbBlockEnd
  0
BLOCK
  5
5A
330
24
100
AcDbEntity
  8
notes
390
1D
100
AcDbBlockBegin
  2
*D3
 70
     1
 10
0.0
 20
0.0
 30
0.0
  3
*D3
  1
*D3
  0
LINE
  5
5B
330
24
100
AcDbEntity
  8
0
  6
Continuous
 62
     0
370
    -2
390
1D
100
AcDbLine
 10
-710.7173300041682
 20
540.3423921130861
 30
0.0
 11
-833.6444741654173
 21
540.3423921130861
 31
0.0
  0
LINE
  5
5C
330
24
100
AcDbEntity
  8
0
  6
Continuous
 62
     0
370
    -2
390
1D
100
AcDbLine
 10
-603.9412872687026
 20
215.3423921130861
 30
0.0
 11
-833.6444741654173
 21
215.3423921130861
 31
0.0
  0
LINE
  5
5D
330
24
100
AcDbEntity
  8
0
  6
Continuous
 62
     0
370
    -2
390
1D
100
AcDbLine
 10
-833.6444741654173
 20
540.3423921130861
 30
0.0
 11
-833.6444741654173
 21
215.3423921130861
 31
0.0
  0
CIRCLE
  5
5E
102
{ACAD_REACTORS
330
5F
102
}
330
24
100
AcDbEntity
  8
0
  6
Continuous
 62
     0
370
    -2
390
1D
100
AcDbCircle
 10
-833.6444741654173
 20
540.3423921130861
 30
0.0
 40
1.9998779296875
  0
HATCH
  5
5F
330
24
100
AcDbEntity
  8
0
  6
Continuous
 62
     0
370
    -2
390
1D
100
AcDbHatch
 10
0.0
 20
0.0
 30
0.0
210
0.0
220
0.0
230
1.0
  2
SOLID
 70
     1
 71
     1
 91
        1
 92
        1
 93
        1
 72
     2
 10
-833.6444741654173
 20
540.3423921130861
 40
1.9998779296875
 50
0.0
 51
360.0
 73
     0
 97
        1
330
5E
 75
     0
 76
     1
 98
        1
 10
0.0
 20
0.0
  0
CIRCLE
  5
60
102
{ACAD_REACTORS
330
61
102
}
330
24
100
AcDbEntity
  8
0
  6
Continuous
 62
     0
370
    -2
390
1D
100
AcDbCircle
 10
-833.6444741654173
 20
215.3423921130861
 30
0.0
 40
1.9998779296875
  0
HATCH
  5
61
330
24
100
AcDbEntity
  8
0
  6
Continuous
 62
     0
370
    -2
390
1D
100
AcDbHatch
 10
0.0
 20
0.0
 30
0.0
210
0.0
220
0.0
230
1.0
  2
SOLID
 70
     1
 71
     1
 91
        1
 92
        1
 93
        1
 72
     2
 10
-833.6444741654173
 20
215.3423921130861
 40
1.9998779296875
 50
0.0
 51
360.0
 73
     0
 97
        1
330
60
 75
     0
 76
     1
 98
        1
 10
0.0
 20
0.0
  0
MTEXT
  5
62
330
24
100
AcDbEntity
  8
0
 62
     0
390
1D
100
AcDbMText
 10
-867.5220913529174
 20
354.0298904309102
 30
0.0
 40
24.4326171875
 41
0.0
 46
0.0
 71
     1
 72
     1
  1
325
  7
ＭＳ ゴシック
 11
0.0
 21
1.0
 31
0.0
 73
     1
 44
0.7828267384257843
  0
POINT
  5
63
330
24
100
AcDbEntity
  8
Defpoints
 62
     0
370
     0
390
1D
100
AcDbPoint
 10
-578.9412872687026
 20
215.3423921130861
 30
0.0
  0
POINT
  5
64
330
24
100
AcDbEntity
  8
Defpoints
 62
     0
370
     0
390
1D
100
AcDbPoint
 10
-685.7173300041682
 20
540.3423921130861
 30
0.0
  0
POINT
  5
65
330
24
100
AcDbEntity
  8
Defpoints
 62
     0
370
     0
390
1D
100
AcDbPoint
 10
-833.6444741654173
 20
540.3423921130861
 30
0.0
  0
ENDBLK
  5
66
330
24
100
AcDbEntity
  8
notes
390
1D
100
AcDbBlockEnd
  0
BLOCK
  5
67
330
25
100
AcDbEntity
  8
notes
390
1D
100
AcDbBlockBegin
  2
*D4
 70
     1
 10
0.0
 20
0.0
 30
0.0
  3
*D4
  1
*D4
  0
LINE
  5
68
330
25
100
AcDbEntity
  8
0
  6
Continuous
 62
     0
370
    -2
390
1D
100
AcDbLine
 10
-548.6444741654168
 20
609.1802445358271
 30
0.0
 11
-548.6444741654168
 21
745.3423921130861
 31
0.0
  0
LINE
  5
69
330
25
100
AcDbEntity
  8
0
  6
Continuous
 62
     0
370
    -2
390
1D
100
AcDbLine
 10
-448.6444741654163
 20
619.1423921130863
 30
0.0
 11
-448.6444741654163
 21
745.3423921130861
 31
0.0
  0
LINE
  5
6A
330
25
100
AcDbEntity
  8
0
  6
Continuous
 62
     0
370
    -2
390
1D
100
AcDbLine
 10
-548.6444741654168
 20
745.3423921130861
 30
0.0
 11
-448.6444741654163
 21
745.3423921130861
 31
0.0
  0
CIRCLE
  5
6B
102
{ACAD_REACTORS
330
6C
102
}
330
25
100
AcDbEntity
  8
0
  6
Continuous
 62
     0
370
    -2
390
1D
100
AcDbCircle
 10
-548.6444741654168
 20
745.3423921130861
 30
0.0
 40
1.9998779296875
  0
HATCH
  5
6C
330
25
100
AcDbEntity
  8
0
  6
Continuous
 62
     0
370
    -2
390
1D
100
AcDbHatch
 10
0.0
 20
0.0
 30
0.0
210
0.0
220
0.0
230
1.0
  2
SOLID
 70
     1
 71
     1
 91
        1
 92
        1
 93
        1
 72
     2
 10
-548.6444741654168
 20
745.3423921130861
 40
1.9998779296875
 50
0.0
 51
360.0
 73
     0
 97
        1
330
6B
 75
     0
 76
     1
 98
        1
 10
0.0
 20
0.0
  0
CIRCLE
  5
6D
102
{ACAD_REACTORS
330
6E
102
}
330
25
100
AcDbEntity
  8
0
  6
Continuous
 62
     0
370
    -2
390
1D
100
AcDbCircle
 10
-448.6444741654163
 20
745.3423921130861
 30
0.0
 40
1.9998779296875
  0
HATCH
  5
6E
330
25
100
AcDbEntity
  8
0
  6
Continuous
 62
     0
370
    -2
390
1D
100
AcDbHatch
 10
0.0
 20
0.0
 30
0.0
210
0.0
220
0.0
230
1.0
  2
SOLID
 70
     1
 71
     1
 91
        1
 92
        1
 93
        1
 72
     2
 10
-448.6444741654163
 20
745.3423921130861
 40
1.9998779296875
 50
0.0
 51
360.0
 73
     0
 97
        1
330
6D
 75
     0
 76
     1
 98
        1
 10
0.0
 20
0.0
  0
MTEXT
  5
6F
330
25
100
AcDbEntity
  8
0
 62
     0
390
1D
100
AcDbMText
 10
-522.4569758475918
 20
779.2200093005858
 30
0.0
 40
24.4326171875
 41
0.0
 46
0.0
 71
     1
 72
     1
  1
100
  7
ＭＳ ゴシック
 73
     1
 44
0.7828267384257843
  0
POINT
  5
70
330
25
100
AcDbEntity
  8
Defpoints
 62
     0
370
     0
390
1D
100
AcDbPoint
 10
-448.6444741654163
 20
594.1423921130863
 30
0.0
  0
POINT
  5
71
330
25
100
AcDbEntity
  8
Defpoints
 62
     0
370
     0
390
1D
100
AcDbPoint
 10
-548.6444741654168
 20
584.1802445358271
 30
0.0
  0
POINT
  5
72
330
25
100
AcDbEntity
  8
Defpoints
 62
     0
370
     0
390
1D
100
AcDbPoint
 10
-548.6444741654168
 20
745.3423921130861
 30
0.0
  0
ENDBLK
  5
73
330
25
100
AcDbEntity
  8
notes
390
1D
100
AcDbBlockEnd
  0
BLOCK
  5
74
330
26
100
AcDbEntity
  8
notes
390
1D
100
AcDbBlockBegin
  2
*D5
 70
     1
 10
0.0
 20
0.0
 30
0.0
  3
*D5
  1
*D5
  0
LINE
  5
75
330
26
100
AcDbEntity
  8
0
  6
Continuous
 62
     0
370
    -2
390
1D
100
AcDbLine
 10
-448.6444741654163
 20
619.1423921130863
 30
0.0
 11
-448.6444741654163
 21
745.3423921130861
 31
0.0
  0
LINE
  5
76
330
26
100
AcDbEntity
  8
0
  6
Continuous
 62
     0
370
    -2
390
1D
100
AcDbLine
 10
-348.6444741654154
 20
609.1802445358271
 30
0.0
 11
-348.6444741654154
 21
745.3423921130861
 31
0.0
  0
LINE
  5
77
330
26
100
AcDbEntity
  8
0
  6
Continuous
 62
     0
370
    -2
390
1D
100
AcDbLine
 10
-448.6444741654163
 20
745.3423921130861
 30
0.0
 11
-348.6444741654154
 21
745.3423921130861
 31
0.0
  0
CIRCLE
  5
78
102
{ACAD_REACTORS
330
79
102
}
330
26
100
AcDbEntity
  8
0
  6
Continuous
 62
     0
370
    -2
390
1D
100
AcDbCircle
 10
-448.6444741654163
 20
745.3423921130861
 30
0.0
 40
1.9998779296875
  0
HATCH
  5
79
330
26
100
AcDbEntity
  8
0
  6
Continuous
 62
     0
370
    -2
390
1D
100
AcDbHatch
 10
0.0
 20
0.0
 30
0.0
210
0.0
220
0.0
230
1.0
  2
SOLID
 70
     1
 71
     1
 91
        1
 92
        1
 93
        1
 72
     2
 10
-448.6444741654163
 20
745.3423921130861
 40
1.9998779296875
 50
0.0
 51
360.0
 73
     0
 97
        1
330
78
 75
     0
 76
     1
 98
        1
 10
0.0
 20
0.0
  0
CIRCLE
  5
7A
102
{ACAD_REACTORS
330
7B
102
}
330
26
100
AcDbEntity
  8
0
  6
Continuous
 62
     0
370
    -2
390
1D
100
AcDbCircle
 10
-348.6444741654154
 20
745.3423921130861
 30
0.0
 40
1.9998779296875
  0
HATCH
  5
7B
330
26
100
AcDbEntity
  8
0
  6
Continuous
 62
     0
370
    -2
390
1D
100
AcDbHatch
 10
0.0
 20
0.0
 30
0.0
210
0.0
220
0.0
230
1.0
  2
SOLID
 70
     1
 71
     1
 91
        1
 92
        1
 93
        1
 72
     2
 10
-348.6444741654154
 20
745.3423921130861
 40
1.9998779296875
 50
0.0
 51
360.0
 73
     0
 97
        1
330
7A
 75
     0
 76
     1
 98
        1
 10
0.0
 20
0.0
  0
MTEXT
  5
7C
330
26
100
AcDbEntity
  8
0
 62
     0
390
1D
100
AcDbMText
 10
-422.4569758475914
 20
779.2200093005858
 30
0.0
 40
24.4326171875
 41
0.0
 46
0.0
 71
     1
 72
     1
  1
100
  7
ＭＳ ゴシック
 73
     1
 44
0.7828267384257843
  0
POINT
  5
7D
330
26
100
AcDbEntity
  8
Defpoints
 62
     0
370
     0
390
1D
100
AcDbPoint
 10
-348.6444741654154
 20
584.1802445358271
 30
0.0
  0
POINT
  5
7E
330
26
100
AcDbEntity
  8
Defpoints
 62
     0
370
     0
390
1D
100
AcDbPoint
 10
-448.6444741654163
 20
594.1423921130863
 30
0.0
  0
POINT
  5
7F
330
26
100
AcDbEntity
  8
Defpoints
 62
     0
370
     0
390
1D
100
AcDbPoint
 10
-448.6444741654163
 20
745.3423921130861
 30
0.0
  0
ENDBLK
  5
80
330
26
100
AcDbEntity
  8
notes
390
1D
100
AcDbBlockEnd
  0
BLOCK
  5
81
330
27
100
AcDbEntity
  8
notes
390
1D
100
AcDbBlockBegin
  2
*D6
 70
     1
 10
0.0
 20
0.0
 30
0.0
  3
*D6
  1
*D6
  0
LINE
  5
82
330
27
100
AcDbEntity
  8
0
  6
Continuous
 62
     0
370
    -2
390
1D
100
AcDbLine
 10
-733.6444741654168
 20
463.9423921130865
 30
0.0
 11
-733.6444741654168
 21
795.3423921130861
 31
0.0
  0
LINE
  5
83
330
27
100
AcDbEntity
  8
0
  6
Continuous
 62
     0
370
    -2
390
1D
100
AcDbLine
 10
-163.6444741654154
 20
463.9423921130865
 30
0.0
 11
-163.6444741654154
 21
795.3423921130861
 31
0.0
  0
LINE
  5
84
330
27
100
AcDbEntity
  8
0
  6
Continuous
 62
     0
370
    -2
390
1D
100
AcDbLine
 10
-733.6444741654168
 20
795.3423921130861
 30
0.0
 11
-163.6444741654154
 21
795.3423921130861
 31
0.0
  0
CIRCLE
  5
85
102
{ACAD_REACTORS
330
86
102
}
330
27
100
AcDbEntity
  8
0
  6
Continuous
 62
     0
370
    -2
390
1D
100
AcDbCircle
 10
-733.6444741654168
 20
795.3423921130861
 30
0.0
 40
1.9998779296875
  0
HATCH
  5
86
330
27
100
AcDbEntity
  8
0
  6
Continuous
 62
     0
370
    -2
390
1D
100
AcDbHatch
 10
0.0
 20
0.0
 30
0.0
210
0.0
220
0.0
230
1.0
  2
SOLID
 70
     1
 71
     1
 91
        1
 92
        1
 93
        1
 72
     2
 10
-733.6444741654168
 20
795.3423921130861
 40
1.9998779296875
 50
0.0
 51
360.0
 73
     0
 97
        1
330
85
 75
     0
 76
     1
 98
        1
 10
0.0
 20
0.0
  0
CIRCLE
  5
87
102
{ACAD_REACTORS
330
88
102
}
330
27
100
AcDbEntity
  8
0
  6
Continuous
 62
     0
370
    -2
390
1D
100
AcDbCircle
 10
-163.6444741654154
 20
795.3423921130861
 30
0.0
 40
1.9998779296875
  0
HATCH
  5
88
330
27
100
AcDbEntity
  8
0
  6
Continuous
 62
     0
370
    -2
390
1D
100
AcDbHatch
 10
0.0
 20
0.0
 30
0.0
210
0.0
220
0.0
230
1.0
  2
SOLID
 70
     1
 71
     1
 91
        1
 92
        1
 93
        1
 72
     2
 10
-163.6444741654154
 20
795.3423921130861
 40
1.9998779296875
 50
0.0
 51
360.0
 73
     0
 97
        1
330
87
 75
     0
 76
     1
 98
        1
 10
0.0
 20
0.0
  0
MTEXT
  5
89
330
27
100
AcDbEntity
  8
0
 62
     0
390
1D
100
AcDbMText
 10
-472.4569758475918
 20
829.2200093005858
 30
0.0
 40
24.4326171875
 41
0.0
 46
0.0
 71
     1
 72
     1
  1
570
  7
ＭＳ ゴシック
 73
     1
 44
0.7828267384257843
  0
POINT
  5
8A
330
27
100
AcDbEntity
  8
Defpoints
 62
     0
370
     0
390
1D
100
AcDbPoint
 10
-163.6444741654154
 20
438.9423921130865
 30
0.0
  0
POINT
  5
8B
330
27
100
AcDbEntity
  8
Defpoints
 62
     0
370
     0
390
1D
100
AcDbPoint
 10
-733.6444741654168
 20
438.9423921130865
 30
0.0
  0
POINT
  5
8C
330
27
100
AcDbEntity
  8
Defpoints
 62
     0
370
     0
390
1D
100
AcDbPoint
 10
-733.6444741654168
 20
795.3423921130861
 30
0.0
  0
ENDBLK
  5
8D
330
27
100
AcDbEntity
  8
notes
390
1D
100
AcDbBlockEnd
  0
BLOCK
  5
8E
330
28
100
AcDbEntity
  8
notes
390
1D
100
AcDbBlockBegin
  2
*D7
 70
     1
 10
0.0
 20
0.0
 30
0.0
  3
*D7
  1
*D7
  0
LINE
  5
8F
330
28
100
AcDbEntity
  8
0
  6
Continuous
 62
     0
370
    -2
390
1D
100
AcDbLine
 10
-434.3785128412023
 20
604.2780888082352
 30
0.0
 11
-313.1899985746668
 21
690.3802445358269
 31
0.0
  0
CIRCLE
  5
90
102
{ACAD_REACTORS
330
91
102
}
330
28
100
AcDbEntity
  8
0
  6
Continuous
 62
     0
370
    -2
390
1D
100
AcDbCircle
 10
-434.3785128412023
 20
604.2780888082352
 30
0.0
 40
1.9998779296875
  0
HATCH
  5
91
330
28
100
AcDbEntity
  8
0
  6
Continuous
 62
     0
370
    -2
390
1D
100
AcDbHatch
 10
0.0
 20
0.0
 30
0.0
210
0.0
220
0.0
230
1.0
  2
SOLID
 70
     1
 71
     1
 91
        1
 92
        1
 93
        1
 72
     2
 10
-434.3785128412023
 20
604.2780888082352
 40
1.9998779296875
 50
0.0
 51
360.0
 73
     0
 97
        1
330
90
 75
     0
 76
     1
 98
        1
 10
0.0
 20
0.0
  0
LINE
  5
92
330
28
100
AcDbEntity
  8
0
  6
Continuous
 62
     0
370
    -2
390
1D
100
AcDbLine
 10
-313.1899985746668
 20
690.3802445358269
 30
0.0
 11
-186.1899985746668
 21
690.3802445358269
 31
0.0
  0
MTEXT
  5
93
330
28
100
AcDbEntity
  8
0
 62
     0
390
1D
100
AcDbMText
 10
-249.6899985746668
 20
724.2578617233266
 30
0.0
 40
24.4326171875
 41
0.0
 46
0.0
 71
     1
 72
     1
  1
φ35
  7
ＭＳ ゴシック
 73
     1
 44
0.7828267384257843
  0
POINT
  5
94
330
28
100
AcDbEntity
  8
Defpoints
 62
     0
370
     0
390
1D
100
AcDbPoint
 10
-462.9104354896303
 20
584.0066954179383
 30
0.0
  0
POINT
  5
95
330
28
100
AcDbEntity
  8
Defpoints
 62
     0
370
     0
390
1D
100
AcDbPoint
 10
-434.3785128412023
 20
604.2780888082352
 30
0.0
  0
ENDBLK
  5
96
330
28
100
AcDbEntity
  8
notes
390
1D
100
AcDbBlockEnd
  0
BLOCK
  5
97
330
29
100
AcDbEntity
  8
notes
390
1D
100
AcDbBlockBegin
  2
*D8
 70
     1
 10
0.0
 20
0.0
 30
0.0
  3
*D8
  1
*D8
  0
LINE
  5
98
330
29
100
AcDbEntity
  8
0
  6
Continuous
 62
     0
370
    -2
390
1D
100
AcDbLine
 10
-218.6444741654154
 20
256.4545835284998
 30
0.0
 11
-218.6444741654154
 21
85.34239211308613
 31
0.0
  0
LINE
  5
99
330
29
100
AcDbEntity
  8
0
  6
Continuous
 62
     0
370
    -2
390
1D
100
AcDbLine
 10
-678.6444741654168
 20
256.4545835284998
 30
0.0
 11
-678.6444741654168
 21
85.34239211308613
 31
0.0
  0
LINE
  5
9A
330
29
100
AcDbEntity
  8
0
  6
Continuous
 62
     0
370
    -2
390
1D
100
AcDbLine
 10
-218.6444741654154
 20
85.34239211308613
 30
0.0
 11
-678.6444741654168
 21
85.34239211308613
 31
0.0
  0
CIRCLE
  5
9B
102
{ACAD_REACTORS
330
9C
102
}
330
29
100
AcDbEntity
  8
0
  6
Continuous
 62
     0
370
    -2
390
1D
100
AcDbCircle
 10
-218.6444741654154
 20
85.34239211308613
 30
0.0
 40
1.9998779296875
  0
HATCH
  5
9C
330
29
100
AcDbEntity
  8
0
  6
Continuous
 62
     0
370
    -2
390
1D
100
AcDbHatch
 10
0.0
 20
0.0
 30
0.0
210
0.0
220
0.0
230
1.0
  2
SOLID
 70
     1
 71
     1
 91
        1
 92
        1
 93
        1
 72
     2
 10
-218.6444741654154
 20
85.34239211308613
 40
1.9998779296875
 50
0.0
 51
360.0
 73
     0
 97
        1
330
9B
 75
     0
 76
     1
 98
        1
 10
0.0
 20
0.0
  0
CIRCLE
  5
9D
102
{ACAD_REACTORS
330
9E
102
}
330
29
100
AcDbEntity
  8
0
  6
Continuous
 62
     0
370
    -2
390
1D
100
AcDbCircle
 10
-678.6444741654168
 20
85.34239211308613
 30
0.0
 40
1.9998779296875
  0
HATCH
  5
9E
330
29
100
AcDbEntity
  8
0
  6
Continuous
 62
     0
370
    -2
390
1D
100
AcDbHatch
 10
0.0
 20
0.0
 30
0.0
210
0.0
220
0.0
230
1.0
  2
SOLID
 70
     1
 71
     1
 91
        1
 92
        1
 93
        1
 72
     2
 10
-678.6444741654168
 20
85.34239211308613
 40
1.9998779296875
 50
0.0
 51
360.0
 73
     0
 97
        1
330
9D
 75
     0
 76
     1
 98
        1
 10
0.0
 20
0.0
  0
MTEXT
  5
9F
330
29
100
AcDbEntity
  8
0
 62
     0
390
1D
100
AcDbMText
 10
-472.4569758475918
 20
119.2200093005858
 30
0.0
 40
24.4326171875
 41
0.0
 46
0.0
 71
     1
 72
     1
  1
460
  7
ＭＳ ゴシック
 73
     1
 44
0.7828267384257843
  0
POINT
  5
A0
330
29
100
AcDbEntity
  8
Defpoints
 62
     0
370
     0
390
1D
100
AcDbPoint
 10
-678.6444741654168
 20
281.4545835284998
 30
0.0
  0
POINT
  5
A1
330
29
100
AcDbEntity
  8
Defpoints
 62
     0
370
     0
390
1D
100
AcDbPoint
 10
-218.6444741654154
 20
281.4545835284998
 30
0.0
  0
POINT
  5
A2
330
29
100
AcDbEntity
  8
Defpoints
 62
     0
370
     0
390
1D
100
AcDbPoint
 10
-218.6444741654154
 20
85.34239211308613
 30
0.0
  0
ENDBLK
  5
A3
330
29
100
AcDbEntity
  8
notes
390
1D
100
AcDbBlockEnd
  0
BLOCK
  5
A4
330
2A
100
AcDbEntity
  8
notes
390
1D
100
AcDbBlockBegin
  2
*D9
 70
     1
 10
0.0
 20
0.0
 30
0.0
  3
*D9
  1
*D9
  0
LINE
  5
A5
330
2A
100
AcDbEntity
  8
0
  6
Continuous
 62
     0
370
    -2
390
1D
100
AcDbLine
 10
-493.6444741654163
 20
645.3423921130861
 30
0.0
 11
-833.6444741654173
 21
645.3423921130861
 31
0.0
  0
LINE
  5
A6
330
2A
100
AcDbEntity
  8
0
  6
Continuous
 62
     0
370
    -2
390
1D
100
AcDbLine
 10
-710.7173300041682
 20
540.3423921130861
 30
0.0
 11
-833.6444741654173
 21
540.3423921130861
 31
0.0
  0
LINE
  5
A7
330
2A
100
AcDbEntity
  8
0
  6
Continuous
 62
     0
370
    -2
390
1D
100
AcDbLine
 10
-833.6444741654173
 20
645.3423921130861
 30
0.0
 11
-833.6444741654173
 21
540.3423921130861
 31
0.0
  0
CIRCLE
  5
A8
102
{ACAD_REACTORS
330
A9
102
}
330
2A
100
AcDbEntity
  8
0
  6
Continuous
 62
     0
370
    -2
390
1D
100
AcDbCircle
 10
-833.6444741654173
 20
645.3423921130861
 30
0.0
 40
1.9998779296875
  0
HATCH
  5
A9
330
2A
100
AcDbEntity
  8
0
  6
Continuous
 62
     0
370
    -2
390
1D
100
AcDbHatch
 10
0.0
 20
0.0
 30
0.0
210
0.0
220
0.0
230
1.0
  2
SOLID
 70
     1
 71
     1
 91
        1
 92
        1
 93
        1
 72
     2
 10
-833.6444741654173
 20
645.3423921130861
 40
1.9998779296875
 50
0.0
 51
360.0
 73
     0
 97
        1
330
A8
 75
     0
 76
     1
 98
        1
 10
0.0
 20
0.0
  0
CIRCLE
  5
AA
102
{ACAD_REACTORS
330
AB
102
}
330
2A
100
AcDbEntity
  8
0
  6
Continuous
 62
     0
370
    -2
390
1D
100
AcDbCircle
 10
-833.6444741654173
 20
540.3423921130861
 30
0.0
 40
1.9998779296875
  0
HATCH
  5
AB
330
2A
100
AcDbEntity
  8
0
  6
Continuous
 62
     0
370
    -2
390
1D
100
AcDbHatch
 10
0.0
 20
0.0
 30
0.0
210
0.0
220
0.0
230
1.0
  2
SOLID
 70
     1
 71
     1
 91
        1
 92
        1
 93
        1
 72
     2
 10
-833.6444741654173
 20
540.3423921130861
 40
1.9998779296875
 50
0.0
 51
360.0
 73
     0
 97
        1
330
AA
 75
     0
 76
     1
 98
        1
 10
0.0
 20
0.0
  0
MTEXT
  5
AC
330
2A
100
AcDbEntity
  8
0
 62
     0
390
1D
100
AcDbMText
 10
-867.5220913529174
 20
569.0298904309102
 30
0.0
 40
24.4326171875
 41
0.0
 46
0.0
 71
     1
 72
     1
  1
105
  7
ＭＳ ゴシック
 11
0.0
 21
1.0
 31
0.0
 73
     1
 44
0.7828267384257843
  0
POINT
  5
AD
330
2A
100
AcDbEntity
  8
Defpoints
 62
     0
370
     0
390
1D
100
AcDbPoint
 10
-685.7173300041682
 20
540.3423921130861
 30
0.0
  0
POINT
  5
AE
330
2A
100
AcDbEntity
  8
Defpoints
 62
     0
370
     0
390
1D
100
AcDbPoint
 10
-468.6444741654163
 20
645.3423921130861
 30
0.0
  0
POINT
  5
AF
330
2A
100
AcDbEntity
  8
Defpoints
 62
     0
370
     0
390
1D
100
AcDbPoint
 10
-833.6444741654173
 20
645.3423921130861
 30
0.0
  0
ENDBLK
  5
B0
330
2A
100
AcDbEntity
  8
notes
390
1D
100
AcDbBlockEnd
  0
BLOCK
  5
B1
330
2B
100
AcDbEntity
  8
notes
390
1D
100
AcDbBlockBegin
  2
*D10
 70
     1
 10
0.0
 20
0.0
 30
0.0
  3
*D10
  1
*D10
  0
LINE
  5
B2
330
2B
100
AcDbEntity
  8
0
  6
Continuous
 62
     0
370
    -2
390
1D
100
AcDbLine
 10
-403.6444741654163
 20
645.3423921130861
 30
0.0
 11
-63.64447416541589
 21
645.3423921130861
 31
0.0
  0
LINE
  5
B3
330
2B
100
AcDbEntity
  8
0
  6
Continuous
 62
     0
370
    -2
390
1D
100
AcDbLine
 10
-403.6444741654163
 20
175.3423921130861
 30
0.0
 11
-63.64447416541589
 21
175.3423921130861
 31
0.0
  0
LINE
  5
B4
330
2B
100
AcDbEntity
  8
0
  6
Continuous
 62
     0
370
    -2
390
1D
100
AcDbLine
 10
-63.64447416541589
 20
645.3423921130861
 30
0.0
 11
-63.64447416541589
 21
175.3423921130861
 31
0.0
  0
CIRCLE
  5
B5
102
{ACAD_REACTORS
330
B6
102
}
330
2B
100
AcDbEntity
  8
0
  6
Continuous
 62
     0
370
    -2
390
1D
100
AcDbCircle
 10
-63.64447416541589
 20
645.3423921130861
 30
0.0
 40
1.9998779296875
  0
HATCH
  5
B6
330
2B
100
AcDbEntity
  8
0
  6
Continuous
 62
     0
370
    -2
390
1D
100
AcDbHatch
 10
0.0
 20
0.0
 30
0.0
210
0.0
220
0.0
230
1.0
  2
SOLID
 70
     1
 71
     1
 91
        1
 92
        1
 93
        1
 72
     2
 10
-63.64447416541589
 20
645.3423921130861
 40
1.9998779296875
 50
0.0
 51
360.0
 73
     0
 97
        1
330
B5
 75
     0
 76
     1
 98
        1
 10
0.0
 20
0.0
  0
CIRCLE
  5
B7
102
{ACAD_REACTORS
330
B8
102
}
330
2B
100
AcDbEntity
  8
0
  6
Continuous
 62
     0
370
    -2
390
1D
100
AcDbCircle
 10
-63.64447416541589
 20
175.3423921130861
 30
0.0
 40
1.9998779296875
  0
HATCH
  5
B8
330
2B
100
AcDbEntity
  8
0
  6
Continuous
 62
     0
370
    -2
390
1D
100
AcDbHatch
 10
0.0
 20
0.0
 30
0.0
210
0.0
220
0.0
230
1.0
  2
SOLID
 70
     1
 71
     1
 91
        1
 92
        1
 93
        1
 72
     2
 10
-63.64447416541589
 20
175.3423921130861
 40
1.9998779296875
 50
0.0
 51
360.0
 73
     0
 97
        1
330
B7
 75
     0
 76
     1
 98
        1
 10
0.0
 20
0.0
  0
MTEXT
  5
B9
330
2B
100
AcDbEntity
  8
0
 62
     0
390
1D
100
AcDbMText
 10
-97.52209135291605
 20
386.5298904309102
 30
0.0
 40
24.4326171875
 41
0.0
 46
0.0
 71
     1
 72
     1
  1
470
  7
ＭＳ ゴシック
 11
0.0
 21
1.0
 31
0.0
 73
     1
 44
0.7828267384257843
  0
POINT
  5
BA
330
2B
100
AcDbEntity
  8
Defpoints
 62
     0
370
     0
390
1D
100
AcDbPoint
 10
-428.6444741654163
 20
175.3423921130861
 30
0.0
  0
POINT
  5
BB
330
2B
100
AcDbEntity
  8
Defpoints
 62
     0
370
     0
390
1D
100
AcDbPoint
 10
-428.6444741654163
 20
645.3423921130861
 30
0.0
  0
POINT
  5
BC
330
2B
100
AcDbEntity
  8
Defpoints
 62
     0
370
     0
390
1D
100
AcDbPoint
 10
-63.64447416541589
 20
645.3423921130861
 30
0.0
  0
ENDBLK
  5
BD
330
2B
100
AcDbEntity
  8
notes
390
1D
100
AcDbBlockEnd
  0
BLOCK
  5
BE
330
2C
100
AcDbEntity
  8
notes
390
1D
100
AcDbBlockBegin
  2
*D11
 70
     1
 10
0.0
 20
0.0
 30
0.0
  3
*D11
  1
*D11
  0
LINE
  5
BF
330
2C
100
AcDbEntity
  8
0
  6
Continuous
 62
     0
370
    -2
390
1D
100
AcDbLine
 10
-573.6444741654168
 20
584.1802445358271
 30
0.0
 11
-678.9412872687021
 21
584.1802445358271
 31
0.0
  0
LINE
  5
C0
330
2C
100
AcDbEntity
  8
0
  6
Continuous
 62
     0
370
    -2
390
1D
100
AcDbLine
 10
-473.6444741654163
 20
594.1423921130863
 30
0.0
 11
-678.9412872687021
 21
594.1423921130863
 31
0.0
  0
LINE
  5
C1
330
2C
100
AcDbEntity
  8
0
  6
Continuous
 62
     0
370
    -2
390
1D
100
AcDbLine
 10
-678.9412872687021
 20
594.1423921130863
 30
0.0
 11
-678.9412872687021
 21
634.3302445358268
 31
0.0
  0
LINE
  5
C2
330
2C
100
AcDbEntity
  8
0
  6
Continuous
 62
     0
370
    -2
390
1D
100
AcDbLine
 10
-678.9412872687021
 20
584.1802445358271
 30
0.0
 11
-678.9412872687021
 21
594.1423921130863
 31
0.0
  0
CIRCLE
  5
C3
102
{ACAD_REACTORS
330
C4
102
}
330
2C
100
AcDbEntity
  8
0
  6
Continuous
 62
     0
370
    -2
390
1D
100
AcDbCircle
 10
-678.9412872687021
 20
584.1802445358271
 30
0.0
 40
1.9998779296875
  0
HATCH
  5
C4
330
2C
100
AcDbEntity
  8
0
  6
Continuous
 62
     0
370
    -2
390
1D
100
AcDbHatch
 10
0.0
 20
0.0
 30
0.0
210
0.0
220
0.0
230
1.0
  2
SOLID
 70
     1
 71
     1
 91
        1
 92
        1
 93
        1
 72
     2
 10
-678.9412872687021
 20
584.1802445358271
 40
1.9998779296875
 50
0.0
 51
360.0
 73
     0
 97
        1
330
C3
 75
     0
 76
     1
 98
        1
 10
0.0
 20
0.0
  0
CIRCLE
  5
C5
102
{ACAD_REACTORS
330
C6
102
}
330
2C
100
AcDbEntity
  8
0
  6
Continuous
 62
     0
370
    -2
390
1D
100
AcDbCircle
 10
-678.9412872687021
 20
594.1423921130863
 30
0.0
 40
1.9998779296875
  0
HATCH
  5
C6
330
2C
100
AcDbEntity
  8
0
  6
Continuous
 62
     0
370
    -2
390
1D
100
AcDbHatch
 10
0.0
 20
0.0
 30
0.0
210
0.0
220
0.0
230
1.0
  2
SOLID
 70
     1
 71
     1
 91
        1
 92
        1
 93
        1
 72
     2
 10
-678.9412872687021
 20
594.1423921130863
 40
1.9998779296875
 50
0.0
 51
360.0
 73
     0
 97
        1
330
C5
 75
     0
 76
     1
 98
        1
 10
0.0
 20
0.0
  0
MTEXT
  5
C7
330
2C
100
AcDbEntity
  8
0
 62
     0
390
1D
100
AcDbMText
 10
-712.8189044562023
 20
602.5802445358268
 30
0.0
 40
24.4326171875
 41
0.0
 46
0.0
 71
     1
 72
     1
  1
10
  7
ＭＳ ゴシック
 11
0.0
 21
1.0
 31
0.0
 73
     1
 44
0.7828267384257843
  0
POINT
  5
C8
330
2C
100
AcDbEntity
  8
Defpoints
 62
     0
370
     0
390
1D
100
AcDbPoint
 10
-448.6444741654163
 20
594.1423921130863
 30
0.0
  0
POINT
  5
C9
330
2C
100
AcDbEntity
  8
Defpoints
 62
     0
370
     0
390
1D
100
AcDbPoint
 10
-548.6444741654168
 20
584.1802445358271
 30
0.0
  0
POINT
  5
CA
330
2C
100
AcDbEntity
  8
Defpoints
 62
     0
370
     0
390
1D
100
AcDbPoint
 10
-678.9412872687021
 20
584.1802445358271
 30
0.0
  0
ENDBLK
  5
CB
330
2C
100
AcDbEntity
  8
notes
390
1D
100
AcDbBlockEnd
  0
BLOCK
  5
CC
330
2D
100
AcDbEntity
  8
notes
390
1D
100
AcDbBlockBegin
  2
*D12
 70
     1
 10
0.0
 20
0.0
 30
0.0
  3
*D12
  1
*D12
  0
LINE
  5
CD
330
2D
100
AcDbEntity
  8
0
  6
Continuous
 62
     0
370
    -2
390
1D
100
AcDbLine
 10
200.7971925012482
 20
365.3423921130861
 30
0.0
 11
200.7971925012482
 21
90.34239211308522
 31
0.0
  0
LINE
  5
CE
330
2D
100
AcDbEntity
  8
0
  6
Continuous
 62
     0
370
    -2
390
1D
100
AcDbLine
 10
730.7971925012482
 20
366.024357651514
 30
0.0
 11
730.7971925012482
 21
90.34239211308522
 31
0.0
  0
LINE
  5
CF
330
2D
100
AcDbEntity
  8
0
  6
Continuous
 62
     0
370
    -2
390
1D
100
AcDbLine
 10
200.7971925012482
 20
90.34239211308522
 30
0.0
 11
730.7971925012482
 21
90.34239211308522
 31
0.0
  0
CIRCLE
  5
D0
102
{ACAD_REACTORS
330
D1
102
}
330
2D
100
AcDbEntity
  8
0
  6
Continuous
 62
     0
370
    -2
390
1D
100
AcDbCircle
 10
200.7971925012482
 20
90.34239211308522
 30
0.0
 40
1.9998779296875
  0
HATCH
  5
D1
330
2D
100
AcDbEntity
  8
0
  6
Continuous
 62
     0
370
    -2
390
1D
100
AcDbHatch
 10
0.0
 20
0.0
 30
0.0
210
0.0
220
0.0
230
1.0
  2
SOLID
 70
     1
 71
     1
 91
        1
 92
        1
 93
        1
 72
     2
 10
200.7971925012482
 20
90.34239211308522
 40
1.9998779296875
 50
0.0
 51
360.0
 73
     0
 97
        1
330
D0
 75
     0
 76
     1
 98
        1
 10
0.0
 20
0.0
  0
CIRCLE
  5
D2
102
{ACAD_REACTORS
330
D3
102
}
330
2D
100
AcDbEntity
  8
0
  6
Continuous
 62
     0
370
    -2
390
1D
100
AcDbCircle
 10
730.7971925012482
 20
90.34239211308522
 30
0.0
 40
1.9998779296875
  0
HATCH
  5
D3
330
2D
100
AcDbEntity
  8
0
  6
Continuous
 62
     0
370
    -2
390
1D
100
AcDbHatch
 10
0.0
 20
0.0
 30
0.0
210
0.0
220
0.0
230
1.0
  2
SOLID
 70
     1
 71
     1
 91
        1
 92
        1
 93
        1
 72
     2
 10
730.7971925012482
 20
90.34239211308522
 40
1.9998779296875
 50
0.0
 51
360.0
 73
     0
 97
        1
330
D2
 75
     0
 76
     1
 98
        1
 10
0.0
 20
0.0
  0
MTEXT
  5
D4
330
2D
100
AcDbEntity
  8
0
 62
     0
390
1D
100
AcDbMText
 10
441.9846908190727
 20
124.2200093005849
 30
0.0
 40
24.4326171875
 41
0.0
 46
0.0
 71
     1
 72
     1
  1
530
  7
ＭＳ ゴシック
 73
     1
 44
0.7828267384257843
  0
POINT
  5
D5
330
2D
100
AcDbEntity
  8
Defpoints
 62
     0
370
     0
390
1D
100
AcDbPoint
 10
730.7971925012482
 20
391.024357651514
 30
0.0
  0
POINT
  5
D6
330
2D
100
AcDbEntity
  8
Defpoints
 62
     0
370
     0
390
1D
100
AcDbPoint
 10
200.7971925012482
 20
390.3423921130861
 30
0.0
  0
POINT
  5
D7
330
2D
100
AcDbEntity
  8
Defpoints
 62
     0
370
     0
390
1D
100
AcDbPoint
 10
200.7971925012482
 20
90.34239211308522
 30
0.0
  0
ENDBLK
  5
D8
330
2D
100
AcDbEntity
  8
notes
390
1D
100
AcDbBlockEnd
  0
BLOCK
  5
D9
330
2E
100
AcDbEntity
  8
notes
390
1D
100
AcDbBlockBegin
  2
*D13
 70
     1
 10
0.0
 20
0.0
 30
0.0
  3
*D13
  1
*D13
  0
LINE
  5
DA
330
2E
100
AcDbEntity
  8
0
  6
Continuous
 62
     0
370
    -2
390
1D
100
AcDbLine
 10
510.7971925012482
 20
630.3423921130861
 30
0.0
 11
830.7971925012482
 21
630.3423921130861
 31
0.0
  0
LINE
  5
DB
330
2E
100
AcDbEntity
  8
0
  6
Continuous
 62
     0
370
    -2
390
1D
100
AcDbLine
 10
510.7971925012482
 20
190.3423921130861
 30
0.0
 11
830.7971925012482
 21
190.3423921130861
 31
0.0
  0
LINE
  5
DC
330
2E
100
AcDbEntity
  8
0
  6
Continuous
 62
     0
370
    -2
390
1D
100
AcDbLine
 10
830.7971925012482
 20
630.3423921130861
 30
0.0
 11
830.7971925012482
 21
190.3423921130861
 31
0.0
  0
CIRCLE
  5
DD
102
{ACAD_REACTORS
330
DE
102
}
330
2E
100
AcDbEntity
  8
0
  6
Continuous
 62
     0
370
    -2
390
1D
100
AcDbCircle
 10
830.7971925012482
 20
630.3423921130861
 30
0.0
 40
1.9998779296875
  0
HATCH
  5
DE
330
2E
100
AcDbEntity
  8
0
  6
Continuous
 62
     0
370
    -2
390
1D
100
AcDbHatch
 10
0.0
 20
0.0
 30
0.0
210
0.0
220
0.0
230
1.0
  2
SOLID
 70
     1
 71
     1
 91
        1
 92
        1
 93
        1
 72
     2
 10
830.7971925012482
 20
630.3423921130861
 40
1.9998779296875
 50
0.0
 51
360.0
 73
     0
 97
        1
330
DD
 75
     0
 76
     1
 98
        1
 10
0.0
 20
0.0
  0
CIRCLE
  5
DF
102
{ACAD_REACTORS
330
E0
102
}
330
2E
100
AcDbEntity
  8
0
  6
Continuous
 62
     0
370
    -2
390
1D
100
AcDbCircle
 10
830.7971925012482
 20
190.3423921130861
 30
0.0
 40
1.9998779296875
  0
HATCH
  5
E0
330
2E
100
AcDbEntity
  8
0
  6
Continuous
 62
     0
370
    -2
390
1D
100
AcDbHatch
 10
0.0
 20
0.0
 30
0.0
210
0.0
220
0.0
230
1.0
  2
SOLID
 70
     1
 71
     1
 91
        1
 92
        1
 93
        1
 72
     2
 10
830.7971925012482
 20
190.3423921130861
 40
1.9998779296875
 50
0.0
 51
360.0
 73
     0
 97
        1
330
DF
 75
     0
 76
     1
 98
        1
 10
0.0
 20
0.0
  0
MTEXT
  5
E1
330
2E
100
AcDbEntity
  8
0
 62
     0
390
1D
100
AcDbMText
 10
796.9195753137483
 20
386.5298904309102
 30
0.0
 40
24.4326171875
 41
0.0
 46
0.0
 71
     1
 72
     1
  1
440
  7
ＭＳ ゴシック
 11
0.0
 21
1.0
 31
0.0
 73
     1
 44
0.7828267384257843
  0
POINT
  5
E2
330
2E
100
AcDbEntity
  8
Defpoints
 62
     0
370
     0
390
1D
100
AcDbPoint
 10
485.7971925012482
 20
190.3423921130861
 30
0.0
  0
POINT
  5
E3
330
2E
100
AcDbEntity
  8
Defpoints
 62
     0
370
     0
390
1D
100
AcDbPoint
 10
485.7971925012482
 20
630.3423921130861
 30
0.0
  0
POINT
  5
E4
330
2E
100
AcDbEntity
  8
Defpoints
 62
     0
370
     0
390
1D
100
AcDbPoint
 10
830.7971925012482
 20
630.3423921130861
 30
0.0
  0
ENDBLK
  5
E5
330
2E
100
AcDbEntity
  8
notes
390
1D
100
AcDbBlockEnd
  0
BLOCK
  5
E6
330
2F
100
AcDbEntity
  8
notes
390
1D
100
AcDbBlockBegin
  2
*D14
 70
     1
 10
0.0
 20
0.0
 30
0.0
  3
*D14
  1
*D14
  0
LINE
  5
E7
330
2F
100
AcDbEntity
  8
0
  6
Continuous
 62
     0
370
    -2
390
1D
100
AcDbLine
 10
-156.8339589550105
 20
-431.4519741977001
 30
0.0
 11
-63.64447416541543
 21
-431.4519741977001
 31
0.0
  0
LINE
  5
E8
330
2F
100
AcDbEntity
  8
0
  6
Continuous
 62
     0
370
    -2
390
1D
100
AcDbLine
 10
-394.5442843385877
 20
-611.4185465374667
 30
0.0
 11
-63.64447416541543
 21
-611.4185465374667
 31
0.0
  0
LINE
  5
E9
330
2F
100
AcDbEntity
  8
0
  6
Continuous
 62
     0
370
    -2
390
1D
100
AcDbLine
 10
-63.64447416541543
 20
-431.4519741977001
 30
0.0
 11
-63.64447416541543
 21
-611.4185465374667
 31
0.0
  0
CIRCLE
  5
EA
102
{ACAD_REACTORS
330
EB
102
}
330
2F
100
AcDbEntity
  8
0
  6
Continuous
 62
     0
370
    -2
390
1D
100
AcDbCircle
 10
-63.64447416541543
 20
-431.4519741977001
 30
0.0
 40
1.9998779296875
  0
HATCH
  5
EB
330
2F
100
AcDbEntity
  8
0
  6
Continuous
 62
     0
370
    -2
390
1D
100
AcDbHatch
 10
0.0
 20
0.0
 30
0.0
210
0.0
220
0.0
230
1.0
  2
SOLID
 70
     1
 71
     1
 91
        1
 92
        1
 93
        1
 72
     2
 10
-63.64447416541543
 20
-431.4519741977001
 40
1.9998779296875
 50
0.0
 51
360.0
 73
     0
 97
        1
330
EA
 75
     0
 76
     1
 98
        1
 10
0.0
 20
0.0
  0
CIRCLE
  5
EC
102
{ACAD_REACTORS
330
ED
102
}
330
2F
100
AcDbEntity
  8
0
  6
Continuous
 62
     0
370
    -2
390
1D
100
AcDbCircle
 10
-63.64447416541543
 20
-611.4185465374667
 30
0.0
 40
1.9998779296875
  0
HATCH
  5
ED
330
2F
100
AcDbEntity
  8
0
  6
Continuous
 62
     0
370
    -2
390
1D
100
AcDbHatch
 10
0.0
 20
0.0
 30
0.0
210
0.0
220
0.0
230
1.0
  2
SOLID
 70
     1
 71
     1
 91
        1
 92
        1
 93
        1
 72
     2
 10
-63.64447416541543
 20
-611.4185465374667
 40
1.9998779296875
 50
0.0
 51
360.0
 73
     0
 97
        1
330
EC
 75
     0
 76
     1
 98
        1
 10
0.0
 20
0.0
  0
MTEXT
  5
EE
330
2F
100
AcDbEntity
  8
0
 62
     0
390
1D
100
AcDbMText
 10
-97.5220913529156
 20
-555.9267816287866
 30
0.0
 40
24.4326171875
 41
0.0
 46
0.0
 71
     1
 72
     1
  1
180
  7
ＭＳ ゴシック
 11
0.0
 21
1.0
 31
0.0
 73
     1
 44
0.7828267384257843
  0
POINT
  5
EF
330
2F
100
AcDbEntity
  8
Defpoints
 62
     0
370
     0
390
1D
100
AcDbPoint
 10
-419.5442843385877
 20
-611.4185465374667
 30
0.0
  0
POINT
  5
F0
330
2F
100
AcDbEntity
  8
Defpoints
 62
     0
370
     0
390
1D
100
AcDbPoint
 10
-181.8339589550105
 20
-431.4519741977001
 30
0.0
  0
POINT
  5
F1
330
2F
100
AcDbEntity
  8
Defpoints
 62
     0
370
     0
390
1D
100
AcDbPoint
 10
-63.64447416541543
 20
-431.4519741977001
 30
0.0
  0
ENDBLK
  5
F2
330
2F
100
AcDbEntity
  8
notes
390
1D
100
AcDbBlockEnd
  0
BLOCK
  5
F3
330
30
100
AcDbEntity
  8
notes
390
1D
100
AcDbBlockBegin
  2
*D15
 70
     1
 10
0.0
 20
0.0
 30
0.0
  3
*D15
  1
*D15
  0
LINE
  5
F4
330
30
100
AcDbEntity
  8
0
  6
Continuous
 62
     0
370
    -2
390
1D
100
AcDbLine
 10
-761.158785053618
 20
-456.4448474034671
 30
0.0
 11
-836.0444741654169
 21
-456.4448474034671
 31
0.0
  0
LINE
  5
F5
330
30
100
AcDbEntity
  8
0
  6
Continuous
 62
     0
370
    -2
390
1D
100
AcDbLine
 10
-749.6117796698254
 20
-431.4448474034671
 30
0.0
 11
-836.0444741654169
 21
-431.4448474034671
 31
0.0
  0
LINE
  5
F6
330
30
100
AcDbEntity
  8
0
  6
Continuous
 62
     0
370
    -2
390
1D
100
AcDbLine
 10
-836.0444741654169
 20
-456.4448474034671
 30
0.0
 11
-836.0444741654169
 21
-431.4448474034671
 31
0.0
  0
CIRCLE
  5
F7
102
{ACAD_REACTORS
330
F8
102
}
330
30
100
AcDbEntity
  8
0
  6
Continuous
 62
     0
370
    -2
390
1D
100
AcDbCircle
 10
-836.0444741654169
 20
-456.4448474034671
 30
0.0
 40
1.9998779296875
  0
HATCH
  5
F8
330
30
100
AcDbEntity
  8
0
  6
Continuous
 62
     0
370
    -2
390
1D
100
AcDbHatch
 10
0.0
 20
0.0
 30
0.0
210
0.0
220
0.0
230
1.0
  2
SOLID
 70
     1
 71
     1
 91
        1
 92
        1
 93
        1
 72
     2
 10
-836.0444741654169
 20
-456.4448474034671
 40
1.9998779296875
 50
0.0
 51
360.0
 73
     0
 97
        1
330
F7
 75
     0
 76
     1
 98
        1
 10
0.0
 20
0.0
  0
CIRCLE
  5
F9
102
{ACAD_REACTORS
330
FA
102
}
330
30
100
AcDbEntity
  8
0
  6
Continuous
 62
     0
370
    -2
390
1D
100
AcDbCircle
 10
-836.0444741654169
 20
-431.4448474034671
 30
0.0
 40
1.9998779296875
  0
HATCH
  5
FA
330
30
100
AcDbEntity
  8
0
  6
Continuous
 62
     0
370
    -2
390
1D
100
AcDbHatch
 10
0.0
 20
0.0
 30
0.0
210
0.0
220
0.0
230
1.0
  2
SOLID
 70
     1
 71
     1
 91
        1
 92
        1
 93
        1
 72
     2
 10
-836.0444741654169
 20
-431.4448474034671
 40
1.9998779296875
 50
0.0
 51
360.0
 73
     0
 97
        1
330
F9
 75
     0
 76
     1
 98
        1
 10
0.0
 20
0.0
  0
MTEXT
  5
FB
330
30
100
AcDbEntity
  8
0
 62
     0
390
1D
100
AcDbMText
 10
-869.922091352917
 20
-459.8198474034671
 30
0.0
 40
24.4326171875
 41
0.0
 46
0.0
 71
     1
 72
     1
  1
25
  7
ＭＳ ゴシック
 11
0.0
 21
1.0
 31
0.0
 73
     1
 44
0.7828267384257843
  0
POINT
  5
FC
330
30
100
AcDbEntity
  8
Defpoints
 62
     0
370
     0
390
1D
100
AcDbPoint
 10
-724.6117796698254
 20
-431.4448474034671
 30
0.0
  0
POINT
  5
FD
330
30
100
AcDbEntity
  8
Defpoints
 62
     0
370
     0
390
1D
100
AcDbPoint
 10
-736.158785053618
 20
-456.4448474034671
 30
0.0
  0
POINT
  5
FE
330
30
100
AcDbEntity
  8
Defpoints
 62
     0
370
     0
390
1D
100
AcDbPoint
 10
-836.0444741654169
 20
-456.4448474034671
 30
0.0
  0
ENDBLK
  5
FF
330
30
100
AcDbEntity
  8
notes
390
1D
100
AcDbBlockEnd
  0
BLOCK
  5
100
330
31
100
AcDbEntity
  8
notes
390
1D
100
AcDbBlockBegin
  2
*D16
 70
     1
 10
0.0
 20
0.0
 30
0.0
  3
*D16
  1
*D16
  0
LINE
  5
101
330
31
100
AcDbEntity
  8
0
  6
Continuous
 62
     0
370
    -2
390
1D
100
AcDbLine
 10
639.1681383739246
 20
-406.4192907127599
 30
0.0
 11
639.1681383739246
 21
-331.213124855205
 31
0.0
  0
LINE
  5
102
330
31
100
AcDbEntity
  8
0
  6
Continuous
 62
     0
370
    -2
390
1D
100
AcDbLine
 10
689.1681383739246
 20
-412.0192907127621
 30
0.0
 11
689.1681383739246
 21
-331.213124855205
 31
0.0
  0
LINE
  5
103
330
31
100
AcDbEntity
  8
0
  6
Continuous
 62
     0
370
    -2
390
1D
100
AcDbLine
 10
639.1681383739246
 20
-331.213124855205
 30
0.0
 11
689.1681383739246
 21
-331.213124855205
 31
0.0
  0
CIRCLE
  5
104
102
{ACAD_REACTORS
330
105
102
}
330
31
100
AcDbEntity
  8
0
  6
Continuous
 62
     0
370
    -2
390
1D
100
AcDbCircle
 10
639.1681383739246
 20
-331.213124855205
 30
0.0
 40
1.9998779296875
  0
HATCH
  5
105
330
31
100
AcDbEntity
  8
0
  6
Continuous
 62
     0
370
    -2
390
1D
100
AcDbHatch
 10
0.0
 20
0.0
 30
0.0
210
0.0
220
0.0
230
1.0
  2
SOLID
 70
     1
 71
     1
 91
        1
 92
        1
 93
        1
 72
     2
 10
639.1681383739246
 20
-331.213124855205
 40
1.9998779296875
 50
0.0
 51
360.0
 73
     0
 97
        1
330
104
 75
     0
 76
     1
 98
        1
 10
0.0
 20
0.0
  0
CIRCLE
  5
106
102
{ACAD_REACTORS
330
107
102
}
330
31
100
AcDbEntity
  8
0
  6
Continuous
 62
     0
370
    -2
390
1D
100
AcDbCircle
 10
689.1681383739246
 20
-331.213124855205
 30
0.0
 40
1.9998779296875
  0
HATCH
  5
107
330
31
100
AcDbEntity
  8
0
  6
Continuous
 62
     0
370
    -2
390
1D
100
AcDbHatch
 10
0.0
 20
0.0
 30
0.0
210
0.0
220
0.0
230
1.0
  2
SOLID
 70
     1
 71
     1
 91
        1
 92
        1
 93
        1
 72
     2
 10
689.1681383739246
 20
-331.213124855205
 40
1.9998779296875
 50
0.0
 51
360.0
 73
     0
 97
        1
330
106
 75
     0
 76
     1
 98
        1
 10
0.0
 20
0.0
  0
MTEXT
  5
108
330
31
100
AcDbEntity
  8
0
 62
     0
390
1D
100
AcDbMText
 10
648.2931383739246
 20
-297.3355076677053
 30
0.0
 40
24.4326171875
 41
0.0
 46
0.0
 71
     1
 72
     1
  1
50
  7
ＭＳ ゴシック
 73
     1
 44
0.7828267384257843
  0
POINT
  5
109
330
31
100
AcDbEntity
  8
Defpoints
 62
     0
370
     0
390
1D
100
AcDbPoint
 10
689.1681383739246
 20
-437.0192907127621
 30
0.0
  0
POINT
  5
10A
330
31
100
AcDbEntity
  8
Defpoints
 62
     0
370
     0
390
1D
100
AcDbPoint
 10
639.1681383739246
 20
-431.4192907127599
 30
0.0
  0
POINT
  5
10B
330
31
100
AcDbEntity
  8
Defpoints
 62
     0
370
     0
390
1D
100
AcDbPoint
 10
639.1681383739246
 20
-331.213124855205
 30
0.0
  0
ENDBLK
  5
10C
330
31
100
AcDbEntity
  8
notes
390
1D
100
AcDbBlockEnd
  0
BLOCK
  5
10D
330
32
100
AcDbEntity
  8
notes
390
1D
100
AcDbBlockBegin
  2
*D17
 70
     1
 10
0.0
 20
0.0
 30
0.0
  3
*D17
  1
*D17
  0
LINE
  5
10E
330
32
100
AcDbEntity
  8
0
  6
Continuous
 62
     0
370
    -2
390
1D
100
AcDbLine
 10
451.9648275940021
 20
-431.4192907127599
 30
0.0
 11
464.8901512573484
 21
-431.4192907127599
 31
0.0
  0
LINE
  5
10F
330
32
100
AcDbEntity
  8
0
  6
Continuous
 62
     0
370
    -2
390
1D
100
AcDbLine
 10
451.9648275940021
 20
-566.4192907127599
 30
0.0
 11
464.8901512573484
 21
-566.4192907127599
 31
0.0
  0
LINE
  5
110
330
32
100
AcDbEntity
  8
0
  6
Continuous
 62
     0
370
    -2
390
1D
100
AcDbLine
 10
464.8901512573484
 20
-431.4192907127599
 30
0.0
 11
464.8901512573484
 21
-282.5447554641723
 31
0.0
  0
LINE
  5
111
330
32
100
AcDbEntity
  8
0
  6
Continuous
 62
     0
370
    -2
390
1D
100
AcDbLine
 10
464.8901512573484
 20
-431.4192907127599
 30
0.0
 11
464.8901512573484
 21
-566.4192907127599
 31
0.0
  0
CIRCLE
  5
112
102
{ACAD_REACTORS
330
113
102
}
330
32
100
AcDbEntity
  8
0
  6
Continuous
 62
     0
370
    -2
390
1D
100
AcDbCircle
 10
464.8901512573484
 20
-431.4192907127599
 30
0.0
 40
1.9998779296875
  0
HATCH
  5
113
330
32
100
AcDbEntity
  8
0
  6
Continuous
 62
     0
370
    -2
390
1D
100
AcDbHatch
 10
0.0
 20
0.0
 30
0.0
210
0.0
220
0.0
230
1.0
  2
SOLID
 70
     1
 71
     1
 91
        1
 92
        1
 93
        1
 72
     2
 10
464.8901512573484
 20
-431.4192907127599
 40
1.9998779296875
 50
0.0
 51
360.0
 73
     0
 97
        1
330
112
 75
     0
 76
     1
 98
        1
 10
0.0
 20
0.0
  0
CIRCLE
  5
114
102
{ACAD_REACTORS
330
115
102
}
330
32
100
AcDbEntity
  8
0
  6
Continuous
 62
     0
370
    -2
390
1D
100
AcDbCircle
 10
464.8901512573484
 20
-566.4192907127599
 30
0.0
 40
1.9998779296875
  0
HATCH
  5
115
330
32
100
AcDbEntity
  8
0
  6
Continuous
 62
     0
370
    -2
390
1D
100
AcDbHatch
 10
0.0
 20
0.0
 30
0.0
210
0.0
220
0.0
230
1.0
  2
SOLID
 70
     1
 71
     1
 91
        1
 92
        1
 93
        1
 72
     2
 10
464.8901512573484
 20
-566.4192907127599
 40
1.9998779296875
 50
0.0
 51
360.0
 73
     0
 97
        1
330
114
 75
     0
 76
     1
 98
        1
 10
0.0
 20
0.0
  0
MTEXT
  5
116
330
32
100
AcDbEntity
  8
0
 62
     0
390
1D
100
AcDbMText
 10
431.0125340698485
 20
-425.4197554641723
 30
0.0
 40
24.4326171875
 41
0.0
 46
0.0
 71
     1
 72
     1
  1
135(深さ)
  7
ＭＳ ゴシック
 11
0.0
 21
1.0
 31
0.0
 73
     1
 44
0.7828267384257843
  0
POINT
  5
117
330
32
100
AcDbEntity
  8
Defpoints
 62
     0
370
     0
390
1D
100
AcDbPoint
 10
476.9648275940021
 20
-566.4192907127599
 30
0.0
  0
POINT
  5
118
330
32
100
AcDbEntity
  8
Defpoints
 62
     0
370
     0
390
1D
100
AcDbPoint
 10
476.9648275940021
 20
-431.4192907127599
 30
0.0
  0
POINT
  5
119
330
32
100
AcDbEntity
  8
Defpoints
 62
     0
370
     0
390
1D
100
AcDbPoint
 10
464.8901512573484
 20
-431.4192907127599
 30
0.0
  0
ENDBLK
  5
11A
330
32
100
AcDbEntity
  8
notes
390
1D
100
AcDbBlockEnd
  0
BLOCK
  5
11B
330
33
100
AcDbEntity
  8
notes
390
1D
100
AcDbBlockBegin
  2
*D18
 70
     1
 10
0.0
 20
0.0
 30
0.0
  3
*D18
  1
*D18
  0
LINE
  5
11C
330
33
100
AcDbEntity
  8
0
  6
Continuous
 62
     0
370
    -2
390
1D
100
AcDbLine
 10
687.2158220706306
 20
-475.4221112654977
 30
0.0
 11
687.2158220706306
 21
-707.367238906807
 31
0.0
  0
LINE
  5
11D
330
33
100
AcDbEntity
  8
0
  6
Continuous
 62
     0
370
    -2
390
1D
100
AcDbLine
 10
467.2643548981493
 20
-636.4192907127599
 30
0.0
 11
467.2643548981493
 21
-707.367238906807
 31
0.0
  0
LINE
  5
11E
330
33
100
AcDbEntity
  8
0
  6
Continuous
 62
     0
370
    -2
390
1D
100
AcDbLine
 10
687.2158220706306
 20
-707.367238906807
 30
0.0
 11
467.2643548981493
 21
-707.367238906807
 31
0.0
  0
CIRCLE
  5
11F
102
{ACAD_REACTORS
330
120
102
}
330
33
100
AcDbEntity
  8
0
  6
Continuous
 62
     0
370
    -2
390
1D
100
AcDbCircle
 10
687.2158220706306
 20
-707.367238906807
 30
0.0
 40
1.9998779296875
  0
HATCH
  5
120
330
33
100
AcDbEntity
  8
0
  6
Continuous
 62
     0
370
    -2
390
1D
100
AcDbHatch
 10
0.0
 20
0.0
 30
0.0
210
0.0
220
0.0
230
1.0
  2
SOLID
 70
     1
 71
     1
 91
        1
 92
        1
 93
        1
 72
     2
 10
687.2158220706306
 20
-707.367238906807
 40
1.9998779296875
 50
0.0
 51
360.0
 73
     0
 97
        1
330
11F
 75
     0
 76
     1
 98
        1
 10
0.0
 20
0.0
  0
CIRCLE
  5
121
102
{ACAD_REACTORS
330
122
102
}
330
33
100
AcDbEntity
  8
0
  6
Continuous
 62
     0
370
    -2
390
1D
100
AcDbCircle
 10
467.2643548981493
 20
-707.367238906807
 30
0.0
 40
1.9998779296875
  0
HATCH
  5
122
330
33
100
AcDbEntity
  8
0
  6
Continuous
 62
     0
370
    -2
390
1D
100
AcDbHatch
 10
0.0
 20
0.0
 30
0.0
210
0.0
220
0.0
230
1.0
  2
SOLID
 70
     1
 71
     1
 91
        1
 92
        1
 93
        1
 72
     2
 10
467.2643548981493
 20
-707.367238906807
 40
1.9998779296875
 50
0.0
 51
360.0
 73
     0
 97
        1
330
121
 75
     0
 76
     1
 98
        1
 10
0.0
 20
0.0
  0
MTEXT
  5
123
330
33
100
AcDbEntity
  8
0
 62
     0
390
1D
100
AcDbMText
 10
553.4275868022146
 20
-673.4896217193073
 30
0.0
 40
24.4326171875
 41
0.0
 46
0.0
 71
     1
 72
     1
  1
220
  7
ＭＳ ゴシック
 73
     1
 44
0.7828267384257843
  0
POINT
  5
124
330
33
100
AcDbEntity
  8
Defpoints
 62
     0
370
     0
390
1D
100
AcDbPoint
 10
467.2643548981493
 20
-611.4192907127599
 30
0.0
  0
POINT
  5
125
330
33
100
AcDbEntity
  8
Defpoints
 62
     0
370
     0
390
1D
100
AcDbPoint
 10
687.2158220706306
 20
-450.4221112654977
 30
0.0
  0
POINT
  5
126
330
33
100
AcDbEntity
  8
Defpoints
 62
     0
370
     0
390
1D
100
AcDbPoint
 10
687.2158220706306
 20
-707.367238906807
 30
0.0
  0
ENDBLK
  5
127
330
33
100
AcDbEntity
  8
notes
390
1D
100
AcDbBlockEnd
  0
BLOCK
  5
1EA
330
1E9
100
AcDbEntity
  8
0
100
AcDbBlockBegin
  2
*D19
 70
     1
 10
0.0
 20
0.0
 30
0.0
  3
*D19
  1
*D19
  0
LINE
  5
1EC
330
1E9
100
AcDbEntity
  8
template
  6
Continuous
 62
     0
370
    -2
100
AcDbLine
 10
-443.6324656768261
 20
445.5173123033464
 30
0.0
 11
-336.0997585063307
 21
445.5173123033464
 31
0.0
  0
LINE
  5
1ED
330
1E9
100
AcDbEntity
  8
template
  6
Continuous
 62
     0
370
    -2
100
AcDbLine
 10
-443.6324656768265
 20
402.6770422372656
 30
0.0
 11
-336.0997585063307
 21
402.6770422372656
 31
0.0
  0
LINE
  5
1EE
330
1E9
100
AcDbEntity
  8
template
  6
Continuous
 62
     0
370
    -2
100
AcDbLine
 10
-356.0997585063269
 20
477.2673123033464
 30
0.0
 11
-356.0997585063269
 21
509.0173123033464
 31
0.0
  0
LINE
  5
1EF
330
1E9
100
AcDbEntity
  8
template
  6
Continuous
 62
     0
370
    -2
100
AcDbLine
 10
-356.0997585063269
 20
370.9270422372656
 30
0.0
 11
-356.0997585063269
 21
339.1770422372656
 31
0.0
  0
INSERT
  5
1F0
330
1E9
100
AcDbEntity
  8
template
 62
     0
370
    -2
100
AcDbBlockReference
  2
VW_FILLEDARROW
 10
-356.0997585063269
 20
445.5173123033464
 30
0.0
 41
31.75
 42
31.75
 43
31.75
 50
270.0
  0
INSERT
  5
1F1
330
1E9
100
AcDbEntity
  8
template
 62
     0
370
    -2
100
AcDbBlockReference
  2
VW_FILLEDARROW
 10
-356.0997585063269
 20
402.6770422372656
 30
0.0
 41
31.75
 42
31.75
 43
31.75
 50
90.0
  0
MTEXT
  5
1F2
330
1E9
100
AcDbEntity
  8
template
  6
Continuous
 62
     0
370
     0
100
AcDbMText
 10
-369.316067100078
 20
424.097177270306
 30
0.0
 40
24.4326171875
 41
0.0
 46
0.0
 71
     5
 72
     1
  1
\A1;42.8
  7
ＭＳ ゴシック
 11
0.0
 21
1.0
 31
0.0
 73
     1
 44
1.0
  0
POINT
  5
1F3
330
1E9
100
AcDbEntity
  8
Defpoints
 62
     0
100
AcDbPoint
 10
-443.6324656768261
 20
445.5173123033464
 30
0.0
  0
POINT
  5
1F4
330
1E9
100
AcDbEntity
  8
Defpoints
 62
     0
100
AcDbPoint
 10
-443.6324656768265
 20
402.6770422372656
 30
0.0
  0
POINT
  5
1F5
330
1E9
100
AcDbEntity
  8
Defpoints
 62
     0
100
AcDbPoint
 10
-356.0997585063269
 20
402.6770422372656
 30
0.0
  0
ENDBLK
  5
1EB
330
1E9
100
AcDbEntity
  8
0
100
AcDbBlockEnd
  0
BLOCK
  5
1FA
330
1F9
100
AcDbEntity
  8
0
100
AcDbBlockBegin
  2
*D20
 70
     1
 10
0.0
 20
0.0
 30
0.0
  3
*D20
  1
*D20
  0
LINE
  5
1FC
330
1F9
100
AcDbEntity
  8
template
  6
Continuous
 62
     0
370
    -2
100
AcDbLine
 10
-443.6444741654163
 20
461.7633858979061
 30
0.0
 11
-257.2518843074754
 21
461.7633858979061
 31
0.0
  0
LINE
  5
1FD
330
1F9
100
AcDbEntity
  8
template
  6
Continuous
 62
     0
370
    -2
100
AcDbLine
 10
-443.6444741654163
 20
386.4309686427059
 30
0.0
 11
-257.2518843074754
 21
386.4309686427059
 31
0.0
  0
LINE
  5
1FE
330
1F9
100
AcDbEntity
  8
template
  6
Continuous
 62
     0
370
    -2
100
AcDbLine
 10
-277.2518843074716
 20
430.0133858979061
 30
0.0
 11
-277.2518843074716
 21
418.1809686427059
 31
0.0
  0
INSERT
  5
1FF
330
1F9
100
AcDbEntity
  8
template
 62
     0
370
    -2
100
AcDbBlockReference
  2
VW_FILLEDARROW
 10
-277.2518843074716
 20
461.7633858979061
 30
0.0
 41
31.75
 42
31.75
 43
31.75
 50
90.0
  0
INSERT
  5
200
330
1F9
100
AcDbEntity
  8
template
 62
     0
370
    -2
100
AcDbBlockReference
  2
VW_FILLEDARROW
 10
-277.2518843074716
 20
386.4309686427059
 30
0.0
 41
31.75
 42
31.75
 43
31.75
 50
270.0
  0
MTEXT
  5
201
330
1F9
100
AcDbEntity
  8
template
  6
Continuous
 62
     0
370
     0
100
AcDbMText
 10
-290.4681929012227
 20
424.097177270306
 30
0.0
 40
24.4326171875
 41
0.0
 46
0.0
 71
     5
 72
     1
  1
\A1;75.3
  7
ＭＳ ゴシック
 11
0.0
 21
1.0
 31
0.0
 73
     1
 44
1.0
  0
POINT
  5
202
330
1F9
100
AcDbEntity
  8
Defpoints
 62
     0
100
AcDbPoint
 10
-443.6444741654163
 20
461.7633858979061
 30
0.0
  0
POINT
  5
203
330
1F9
100
AcDbEntity
  8
Defpoints
 62
     0
100
AcDbPoint
 10
-443.6444741654163
 20
386.4309686427059
 30
0.0
  0
POINT
  5
204
330
1F9
100
AcDbEntity
  8
Defpoints
 62
     0
100
AcDbPoint
 10
-277.2518843074716
 20
386.4309686427059
 30
0.0
  0
ENDBLK
  5
1FB
330
1F9
100
AcDbEntity
  8
0
100
AcDbBlockEnd
  0
ENDSEC
  0
SECTION
  2
ENTITIES
  0
MTEXT
  5
128
330
A
100
AcDbEntity
  8
template
 62
     7
390
1D
100
AcDbMText
 10
-967.999999999759
 20
-1147.417629233702
 30
0.0
 40
16.28841145833333
 41
0.0
 46
0.0
 71
     1
 72
     1
  1
品名
  7
ＭＳ ゴシック
 73
     1
 44
0.7828267384257843
  0
MTEXT
  5
129
330
A
100
AcDbEntity
  8
template
 62
     7
390
1D
100
AcDbMText
 10
-967.999999999759
 20
-1232.417629233702
 30
0.0
 40
16.28841145833333
 41
0.0
 46
0.0
 71
     1
 72
     1
  1
仕様
  7
ＭＳ ゴシック
 73
     1
 44
0.7828267384257843
  0
MTEXT
  5
12A
330
A
100
AcDbEntity
  8
template
 62
     7
390
1D
100
AcDbMText
 10
-914.999999999759
 20
-1176.000090171201
 30
0.0
 40
24.4326171875
 41
0.0
 46
0.0
 71
     1
 72
     1
  1
洗面器 -CATALANO,Zero-
  7
ＭＳ ゴシック
 73
     1
 44
0.7828267384257843
  0
LINE
  5
12B
330
A
100
AcDbEntity
  8
template
  6
Continuous
 62
     7
370
     5
390
1D
100
AcDbLine
 10
974.999999999759
 20
-1224.002707358701
 30
0.0
 11
-975.000000000241
 21
-1224.002707358701
 31
0.0
  0
LWPOLYLINE
  5
12C
330
A
100
AcDbEntity
  8
template
  6
Continuous
 62
     7
370
     5
390
1D
100
AcDbPolyline
 90
        5
 70
   128
 43
0.0
 10
975.0000000002415
 20
1405.997292641299
 10
-974.999999999759
 20
1405.997292641299
 10
-974.999999999759
 20
-1394.002707358701
 10
975.0000000002415
 20
-1394.002707358701
 10
975.0000000002415
 20
1405.997292641299
  0
LINE
  5
12D
330
A
100
AcDbEntity
  8
template
  6
Continuous
 62
     7
370
     5
390
1D
100
AcDbLine
 10
974.999999999759
 20
-1139.002707358701
 30
0.0
 11
-975.000000000241
 21
-1139.002707358701
 31
0.0
  0
LINE
  5
12E
330
A
100
AcDbEntity
  8
template
  6
Continuous
 62
     7
370
     5
390
1D
100
AcDbLine
 10
975.0000000002415
 20
-1309.002707358701
 30
0.0
 11
222.0000000002415
 21
-1309.002707358701
 31
0.0
  0
MTEXT
  5
12F
330
A
100
AcDbEntity
  8
template
 62
     7
390
1D
100
AcDbMText
 10
-914.999999999759
 20
-1261.000090171201
 30
0.0
 40
24.4326171875
 41
0.0
 46
0.0
 71
     1
 72
     1
  1
オーバーカウンター/オーバーフロー付き/陶器/ホワイト
  7
ＭＳ ゴシック
 73
     1
 44
1.130749733281688
  0
MTEXT
  5
130
330
A
100
AcDbEntity
  8
template
 62
     7
390
1D
100
AcDbMText
 10
-974.9999999995557
 20
-1405.856529415556
 30
0.0
 40
21.71788194444445
 41
0.0
 46
0.0
 71
     1
 72
     1
  1
100701HS
  7
ＭＳ ゴシック
 73
     1
 44
0.7828267384257843
  0
MTEXT
  5
131
330
A
100
AcDbEntity
  8
template
 62
     7
390
1D
100
AcDbMText
 10
251.8714062525012
 20
-1338.913101832008
 30
0.0
 40
24.4326171875
 41
0.0
 46
0.0
 71
     1
 72
     1
  1
大洋金物株式会社 ティーフォルム事業部
  7
ＭＳ ゴシック
 73
     1
 44
0.7828267384257843
  0
INSERT
  5
132
330
A
100
AcDbEntity
  8
template
 62
     7
390
1D
100
AcDbBlockReference
  2
グループ
 10
2026.209659065273
 20
8127.739416130253
 30
0.0
  0
MTEXT
  5
133
330
A
100
AcDbEntity
  8
template
 62
     7
390
1D
100
AcDbMText
 10
784.0000000005002
 20
-1261.000090171201
 30
0.0
 40
24.4326171875
 41
0.0
 46
0.0
 71
     1
 72
     1
  1
1:10
  7
ＭＳ ゴシック
 73
     1
 44
0.7828267384257843
  0
MTEXT
  5
134
330
A
100
AcDbEntity
  8
template
 62
     7
390
1D
100
AcDbMText
 10
731.0000000005002
 20
-1232.417629233702
 30
0.0
 40
16.28841145833333
 41
0.0
 46
0.0
 71
     1
 72
     1
  1
縮尺
  7
ＭＳ ゴシック
 73
     1
 44
0.7828267384257843
  0
LINE
  5
135
330
A
100
AcDbEntity
  8
template
  6
Continuous
 62
     7
370
     5
390
1D
100
AcDbLine
 10
724.0000000005002
 20
-1309.002707358701
 30
0.0
 11
724.0000000005002
 21
-1224.002707358701
 31
0.0
  0
MTEXT
  5
136
330
A
100
AcDbEntity
  8
template
 62
     7
390
1D
100
AcDbMText
 10
480.0000000005002
 20
-1232.417629233702
 30
0.0
 40
16.28841145833333
 41
0.0
 46
0.0
 71
     1
 72
     1
  1
容量
  7
ＭＳ ゴシック
 73
     1
 44
0.7828267384257843
  0
MTEXT
  5
137
330
A
100
AcDbEntity
  8
template
 62
     7
390
1D
100
AcDbMText
 10
533.0000000005002
 20
-1261.000090171201
 30
0.0
 40
24.4326171875
 41
0.0
 46
0.0
 71
     1
 72
     1
  1
9L
  7
ＭＳ ゴシック
 73
     1
 44
0.7828267384257843
  0
LINE
  5
138
330
A
100
AcDbEntity
  8
template
  6
Continuous
 62
     7
370
     5
390
1D
100
AcDbLine
 10
473.0000000005002
 20
-1309.002707358701
 30
0.0
 11
473.0000000005002
 21
-1224.002707358701
 31
0.0
  0
MTEXT
  5
139
330
A
100
AcDbEntity
  8
template
 62
     7
390
1D
100
AcDbMText
 10
229.0000000005002
 20
-1147.417629233702
 30
0.0
 40
16.28841145833333
 41
0.0
 46
0.0
 71
     1
 72
     1
  1
品番
  7
ＭＳ ゴシック
 73
     1
 44
0.7828267384257843
  0
MTEXT
  5
13A
330
A
100
AcDbEntity
  8
template
 62
     7
390
1D
100
AcDbMText
 10
229.0000000005002
 20
-1232.417629233702
 30
0.0
 40
16.28841145833333
 41
0.0
 46
0.0
 71
     1
 72
     1
  1
重量
  7
ＭＳ ゴシック
 73
     1
 44
0.7828267384257843
  0
MTEXT
  5
13B
330
A
100
AcDbEntity
  8
template
 62
     7
390
1D
100
AcDbMText
 10
282.0000000005002
 20
-1176.000090171201
 30
0.0
 40
24.4326171875
 41
0.0
 46
0.0
 71
     1
 72
     1
  1
ADF70-0003
  7
ＭＳ ゴシック
 73
     1
 44
0.7828267384257843
  0
MTEXT
  5
13C
330
A
100
AcDbEntity
  8
template
 62
     7
390
1D
100
AcDbMText
 10
282.0000000005002
 20
-1261.000090171201
 30
0.0
 40
24.4326171875
 41
0.0
 46
0.0
 71
     1
 72
     1
  1
8kg
  7
ＭＳ ゴシック
 73
     1
 44
0.7828267384257843
  0
LINE
  5
13D
330
A
100
AcDbEntity
  8
template
  6
Continuous
 62
     7
370
     5
390
1D
100
AcDbLine
 10
222.0000000005002
 20
-1394.002707358701
 30
0.0
 11
222.0000000005002
 21
-1139.002707358701
 31
0.0
  0
DIMENSION
  5
13E
330
A
100
AcDbEntity
  8
notes
  6
Continuous
 62
     7
370
     5
390
1D
100
AcDbDimension
  2
*D3
 10
-833.6444741654173
 20
540.3423921130861
 30
0.0
 11
-833.6444741654173
 21
377.8423921130861
 31
0.0
 70
    32
 71
     5
 42
0.0
 73
     0
 74
     0
 75
     0
  3
tform線あり
100
AcDbAlignedDimension
 13
-578.9412872687026
 23
215.3423921130861
 33
0.0
 14
-685.7173300041682
 24
540.3423921130861
 34
0.0
 50
90.0
100
AcDbRotatedDimension
1001
ACAD
1000
DSTYLE
1002
{
1070
   279
1070
     2
1070
   340
1005
34
1070
   147
1040
5.0
1002
}
  0
DIMENSION
  5
13F
330
A
100
AcDbEntity
  8
notes
  6
Continuous
 62
     7
370
     5
390
1D
100
AcDbDimension
  2
*D4
 10
-548.6444741654168
 20
745.3423921130861
 30
0.0
 11
-498.6444741654163
 21
745.3423921130861
 31
0.0
 70
    32
 71
     5
 42
0.0
 73
     0
 74
     0
 75
     0
  3
tform線あり
100
AcDbAlignedDimension
 13
-448.6444741654163
 23
594.1423921130863
 33
0.0
 14
-548.6444741654168
 24
584.1802445358271
 34
0.0
100
AcDbRotatedDimension
1001
ACAD
1000
DSTYLE
1002
{
1070
   279
1070
     2
1070
   340
1005
34
1070
   147
1040
5.0
1002
}
  0
DIMENSION
  5
140
330
A
100
AcDbEntity
  8
notes
  6
Continuous
 62
     7
370
     5
390
1D
100
AcDbDimension
  2
*D5
 10
-448.6444741654163
 20
745.3423921130861
 30
0.0
 11
-398.6444741654159
 21
745.3423921130861
 31
0.0
 70
    32
 71
     5
 42
0.0
 73
     0
 74
     0
 75
     0
  3
tform線あり
100
AcDbAlignedDimension
 13
-348.6444741654154
 23
584.1802445358271
 33
0.0
 14
-448.6444741654163
 24
594.1423921130863
 34
0.0
100
AcDbRotatedDimension
1001
ACAD
1000
DSTYLE
1002
{
1070
   279
1070
     2
1070
   340
1005
34
1070
   147
1040
5.0
1002
}
  0
DIMENSION
  5
141
330
A
100
AcDbEntity
  8
notes
  6
Continuous
 62
     7
370
     5
390
1D
100
AcDbDimension
  2
*D6
 10
-733.6444741654168
 20
795.3423921130861
 30
0.0
 11
-448.6444741654163
 21
795.3423921130861
 31
0.0
 70
    32
 71
     5
 42
0.0
 73
     0
 74
     0
 75
     0
  3
tform線あり
100
AcDbAlignedDimension
 13
-163.6444741654154
 23
438.9423921130865
 33
0.0
 14
-733.6444741654168
 24
438.9423921130865
 34
0.0
100
AcDbRotatedDimension
1001
ACAD
1000
DSTYLE
1002
{
1070
   279
1070
     2
1070
   340
1005
34
1070
   147
1040
5.0
1002
}
  0
DIMENSION
  5
142
330
A
100
AcDbEntity
  8
notes
  6
Continuous
 62
     7
370
     5
390
1D
100
AcDbDimension
  2
*D7
 10
-462.9104354896303
 20
584.0066954179383
 30
0.0
 11
-249.6899985746686
 21
690.3802445358297
 31
0.0
 70
     3
 71
     5
 42
0.0
 73
     0
 74
     0
 75
     0
  3
tform線あり
100
AcDbDiametricDimension
 15
-434.3785128412023
 25
604.2780888082352
 35
0.0
 40
148.661485298206
1001
ACAD
1000
DSTYLE
1002
{
1070
   172
1070
     0
1070
   289
1070
     0
1070
   342
1005
44
1070
   340
1005
34
1070
    73
1070
     1
1070
    74
1070
     1
1070
     3
1000

1070
   174
1070
     0
1070
   147
1040
5.0
1002
}
  0
DIMENSION
  5
143
330
A
100
AcDbEntity
  8
notes
  6
Continuous
 62
     7
370
     5
390
1D
100
AcDbDimension
  2
*D8
 10
-218.6444741654154
 20
85.34239211308613
 30
0.0
 11
-448.6444741654163
 21
85.34239211308613
 31
0.0
 70
    32
 71
     5
 42
0.0
 73
     0
 74
     0
 75
     0
  3
tform線あり
100
AcDbAlignedDimension
 13
-678.6444741654168
 23
281.4545835284998
 33
0.0
 14
-218.6444741654154
 24
281.4545835284998
 34
0.0
100
AcDbRotatedDimension
1001
ACAD
1000
DSTYLE
1002
{
1070
   279
1070
     2
1070
   340
1005
34
1070
   147
1040
5.0
1002
}
  0
DIMENSION
  5
144
330
A
100
AcDbEntity
  8
notes
  6
Continuous
 62
     7
370
     5
390
1D
100
AcDbDimension
  2
*D9
 10
-833.6444741654173
 20
645.3423921130861
 30
0.0
 11
-833.6444741654173
 21
592.8423921130861
 31
0.0
 70
    32
 71
     5
 42
0.0
 73
     0
 74
     0
 75
     0
  3
tform線あり
100
AcDbAlignedDimension
 13
-685.7173300041682
 23
540.3423921130861
 33
0.0
 14
-468.6444741654163
 24
645.3423921130861
 34
0.0
 50
90.0
100
AcDbRotatedDimension
1001
ACAD
1000
DSTYLE
1002
{
1070
   279
1070
     2
1070
   340
1005
34
1070
   147
1040
5.0
1002
}
  0
DIMENSION
  5
145
330
A
100
AcDbEntity
  8
notes
  6
Continuous
 62
     7
370
     5
390
1D
100
AcDbDimension
  2
*D10
 10
-63.64447416541589
 20
645.3423921130861
 30
0.0
 11
-63.64447416541589
 21
410.3423921130861
 31
0.0
 70
    32
 71
     5
 42
0.0
 73
     0
 74
     0
 75
     0
  3
tform線あり
100
AcDbAlignedDimension
 13
-428.6444741654163
 23
175.3423921130861
 33
0.0
 14
-428.6444741654163
 24
645.3423921130861
 34
0.0
 50
90.0
100
AcDbRotatedDimension
1001
ACAD
1000
DSTYLE
1002
{
1070
   279
1070
     2
1070
   340
1005
34
1070
   147
1040
5.0
1002
}
  0
DIMENSION
  5
146
330
A
100
AcDbEntity
  8
notes
  6
Continuous
 62
     7
370
     5
390
1D
100
AcDbDimension
  2
*D11
 10
-678.9412872687021
 20
584.1802445358271
 30
0.0
 11
-683.9412872687021
 21
602.5802445358268
 31
0.0
 70
   128
 71
     5
 42
0.0
 73
     0
 74
     0
 75
     0
  3
tform線あり
100
AcDbAlignedDimension
 13
-448.6444741654163
 23
594.1423921130863
 33
0.0
 14
-548.6444741654168
 24
584.1802445358271
 34
0.0
 50
90.0
100
AcDbRotatedDimension
1001
ACAD
1000
DSTYLE
1002
{
1070
   279
1070
     2
1070
   340
1005
34
1070
   174
1070
     0
1070
   147
1040
5.0
1002
}
  0
MTEXT
  5
147
330
A
100
AcDbEntity
  8
notes
 62
     7
390
1D
100
AcDbMText
 10
-783.9584804596748
 20
27.88178133370366
 30
0.0
 40
24.4326171875
 41
835.3460632043335
 46
0.0
 71
     1
 72
     1
  1
＝φ30もしくはφ35の水栓取付用穴あけ加工を承ります。\P  必要な場合、ご注文の際にご指示ください。
  7
ＭＳ ゴシック
 73
     1
 44
1.043768984567712
  0
CIRCLE
  5
148
330
A
100
AcDbEntity
  8
notes
  6
STYLE_11
 62
     7
370
     5
390
1D
100
AcDbCircle
 10
-808.6580311026819
 20
16.60325727188228
 30
0.0
 40
15.0
  0
DIMENSION
  5
149
330
A
100
AcDbEntity
  8
notes
  6
Continuous
 62
     7
370
     5
390
1D
100
AcDbDimension
  2
*D12
 10
200.7971925012482
 20
90.34239211308522
 30
0.0
 11
465.7971925012482
 21
90.34239211308522
 31
0.0
 70
    32
 71
     5
 42
0.0
 73
     0
 74
     0
 75
     0
  3
tform線あり
100
AcDbAlignedDimension
 13
730.7971925012482
 23
391.024357651514
 33
0.0
 14
200.7971925012482
 24
390.3423921130861
 34
0.0
100
AcDbRotatedDimension
1001
ACAD
1000
DSTYLE
1002
{
1070
   279
1070
     2
1070
   340
1005
34
1070
   147
1040
5.0
1002
}
  0
MTEXT
  5
14A
330
A
100
AcDbEntity
  8
notes
 62
     7
390
1D
100
AcDbMText
 10
124.0587127312974
 20
28.23332219690292
 30
0.0
 40
24.4326171875
 41
770.0
 46
0.0
 71
     1
 72
     1
  1
※陶器製品には寸法公差があります。\P  洗面器の収め方をご確認の上、必ず現物に合わせて\P  カウンター切込を行ってください。
  7
ＭＳ ゴシック
 73
     1
 44
1.043768984567712
  0
DIMENSION
  5
14B
330
A
100
AcDbEntity
  8
notes
  6
Continuous
 62
     7
370
     5
390
1D
100
AcDbDimension
  2
*D13
 10
830.7971925012482
 20
630.3423921130861
 30
0.0
 11
830.7971925012482
 21
410.3423921130861
 31
0.0
 70
    32
 71
     5
 42
0.0
 73
     0
 74
     0
 75
     0
  3
tform線あり
100
AcDbAlignedDimension
 13
485.7971925012482
 23
190.3423921130861
 33
0.0
 14
485.7971925012482
 24
630.3423921130861
 34
0.0
 50
90.0
100
AcDbRotatedDimension
1001
ACAD
1000
DSTYLE
1002
{
1070
   279
1070
     2
1070
   340
1005
34
1070
   147
1040
5.0
1002
}
  0
DIMENSION
  5
14C
330
A
100
AcDbEntity
  8
notes
  6
Continuous
 62
     7
370
     5
390
1D
100
AcDbDimension
  2
*D14
 10
-63.64447416541543
 20
-431.4519741977001
 30
0.0
 11
-58.64447416541543
 21
-532.1142799466106
 31
0.0
 70
   128
 71
     5
 42
0.0
 73
     0
 74
     0
 75
     0
  3
tform線あり
100
AcDbAlignedDimension
 13
-419.5442843385877
 23
-611.4185465374667
 33
0.0
 14
-181.8339589550105
 24
-431.4519741977001
 34
0.0
 50
90.0
100
AcDbRotatedDimension
1001
ACAD
1000
DSTYLE
1002
{
1070
   279
1070
     2
1070
   340
1005
34
1070
   147
1040
5.0
1002
}
  0
DIMENSION
  5
14D
330
A
100
AcDbEntity
  8
notes
  6
Continuous
 62
     7
370
     5
390
1D
100
AcDbDimension
  2
*D15
 10
-836.0444741654169
 20
-456.4448474034671
 30
0.0
 11
-836.0444741654169
 21
-443.9448474034671
 31
0.0
 70
    32
 71
     5
 42
0.0
 73
     0
 74
     0
 75
     0
  3
tform線あり
100
AcDbAlignedDimension
 13
-724.6117796698254
 23
-431.4448474034671
 33
0.0
 14
-736.158785053618
 24
-456.4448474034671
 34
0.0
 50
90.0
100
AcDbRotatedDimension
1001
ACAD
1000
DSTYLE
1002
{
1070
   279
1070
     2
1070
   340
1005
34
1070
   147
1040
5.0
1002
}
  0
DIMENSION
  5
14E
330
A
100
AcDbEntity
  8
notes
  6
Continuous
 62
     7
370
     5
390
1D
100
AcDbDimension
  2
*D16
 10
639.1681383739246
 20
-331.213124855205
 30
0.0
 11
664.1681383739246
 21
-331.213124855205
 31
0.0
 70
    32
 71
     5
 42
0.0
 73
     0
 74
     0
 75
     0
  3
tform線あり
100
AcDbAlignedDimension
 13
689.1681383739246
 23
-437.0192907127621
 33
0.0
 14
639.1681383739246
 24
-431.4192907127599
 34
0.0
100
AcDbRotatedDimension
1001
ACAD
1000
DSTYLE
1002
{
1070
   279
1070
     2
1070
   340
1005
34
1070
   147
1040
5.0
1002
}
  0
DIMENSION
  5
14F
330
A
100
AcDbEntity
  8
notes
  6
Continuous
 62
     7
370
     5
390
1D
100
AcDbDimension
  2
*D17
 10
464.8901512573484
 20
-431.4192907127599
 30
0.0
 11
459.8901512573484
 21
-425.4197554641723
 31
0.0
 70
   128
 71
     5
 42
0.0
 73
     0
 74
     0
 75
     0
  3
tform線あり
100
AcDbAlignedDimension
 13
476.9648275940021
 23
-566.4192907127599
 33
0.0
 14
476.9648275940021
 24
-431.4192907127599
 34
0.0
 50
90.0
100
AcDbRotatedDimension
1001
ACAD
1000
DSTYLE
1002
{
1070
   279
1070
     2
1070
   340
1005
34
1070
     3
1000
<>(深さ)
1070
   174
1070
     0
1070
   147
1040
5.0
1002
}
  0
DIMENSION
  5
150
330
A
100
AcDbEntity
  8
notes
  6
Continuous
 62
     7
370
     5
390
1D
100
AcDbDimension
  2
*D18
 10
687.2158220706306
 20
-707.367238906807
 30
0.0
 11
577.2400884843901
 21
-707.367238906807
 31
0.0
 70
    32
 71
     5
 42
0.0
 73
     0
 74
     0
 75
     0
  3
tform線あり
100
AcDbAlignedDimension
 13
467.2643548981493
 23
-611.4192907127599
 33
0.0
 14
687.2158220706306
 24
-450.4221112654977
 34
0.0
100
AcDbRotatedDimension
1001
ACAD
1000
DSTYLE
1002
{
1070
   279
1070
     2
1070
   340
1005
34
1070
   147
1040
5.0
1002
}
  0
MTEXT
  5
151
330
A
100
AcDbEntity
  8
notes
 62
     7
390
1D
100
AcDbMText
 10
322.9342009898378
 20
894.7078617233265
 30
0.0
 40
24.4326171875
 41
0.0
 46
0.0
 71
     1
 72
     1
  1
カウンター切込寸法
  7
ＭＳ ゴシック
 73
     1
 44
0.7828267384257843
  0
LINE
  5
152
330
A
100
AcDbEntity
  8
ADF70-0003
  6
Continuous
 62
     7
370
    15
390
1D
100
AcDbLine
 10
671.5081807329141
 20
-431.411982550504
 30
0.0
 11
239.0663213738162
 21
-431.4527183729933
 31
0.0
  0
LINE
  5
153
330
A
100
AcDbEntity
  8
ADF70-0003
  6
STYLE_11
 62
     7
370
    15
390
1D
100
AcDbLine
 10
507.4274645123533
 20
-567.5977616938999
 30
0.0
 11
425.1137173995605
 21
-567.5977616938999
 31
0.0
  0
LINE
  5
154
330
A
100
AcDbEntity
  8
ADF70-0003
  6
Continuous
 62
     7
370
    15
390
1D
100
AcDbLine
 10
502.7143548981494
 20
-611.4192907127599
 30
0.0
 11
431.8143548981493
 21
-611.4192907127599
 31
0.0
  0
LINE
  5
155
330
A
100
AcDbEntity
  8
ADF70-0003
  6
STYLE_11
 62
     7
370
    15
390
1D
100
AcDbLine
 10
496.6332703547355
 20
-578.8840740359683
 30
0.0
 11
437.0845421688805
 21
-578.8840740359683
 31
0.0
  0
LINE
  5
156
330
A
100
AcDbEntity
  8
ADF70-0003
  6
Continuous
 62
     7
370
    15
390
1D
100
AcDbLine
 10
687.2158220706306
 20
-456.4454712561655
 30
0.0
 11
223.3680942781791
 21
-456.4454712561655
 31
0.0
  0
LINE
  5
157
330
A
100
AcDbEntity
  8
ADF70-0003
  6
STYLE_11
 62
     7
370
    15
390
1D
100
AcDbLine
 10
497.4143548981494
 20
-577.7537017592622
 30
0.0
 11
497.4143548981494
 21
-611.7492463287799
 31
0.0
  0
LINE
  5
158
330
A
100
AcDbEntity
  8
ADF70-0003
  6
STYLE_11
 62
     7
370
    15
390
1D
100
AcDbLine
 10
507.4274645123533
 20
-567.5977616938999
 30
0.0
 11
496.6332703547355
 21
-578.8840740359683
 31
0.0
  0
LINE
  5
159
330
A
100
AcDbEntity
  8
ADF70-0003
  6
STYLE_11
 62
     7
370
    15
390
1D
100
AcDbLine
 10
437.0845421688805
 20
-578.8840740359683
 30
0.0
 11
425.1135978827447
 21
-567.5976490112607
 31
0.0
  0
LINE
  5
15A
330
A
100
AcDbEntity
  8
ADF70-0003
  6
STYLE_11
 62
     7
370
    15
390
1D
100
AcDbLine
 10
437.0845421688805
 20
-611.4192907127599
 30
0.0
 11
437.0845421688805
 21
-578.8840740359683
 31
0.0
  0
LINE
  5
15E
330
A
100
AcDbEntity
  8
ADF70-0003
  6
Continuous
 62
     7
370
    15
390
1D
100
AcDbLine
 10
-720.0
 20
-431.4519741977001
 30
0.0
 11
-182.0
 21
-431.4519741977001
 31
0.0
  0
LINE
  5
15F
330
A
100
AcDbEntity
  8
ADF70-0003
  6
STYLE_11
 62
     7
370
    15
390
1D
100
AcDbLine
 10
-491.1596444640363
 20
-564.0645461110271
 30
0.0
 11
-411.1612066391085
 21
-564.0645461110271
 31
0.0
  0
LINE
  5
160
330
A
100
AcDbEntity
  8
ADF70-0003
  6
STYLE_11
 62
     7
370
    15
390
1D
100
AcDbLine
 10
-477.7781369502386
 20
-576.6808759227806
 30
0.0
 11
-423.9092347108813
 21
-576.8693311212755
 31
0.0
  0
LINE
  5
161
330
A
100
AcDbEntity
  8
ADF70-0003
  6
Continuous
 62
     7
370
    15
390
1D
100
AcDbLine
 10
-419.5442843385877
 20
-611.4185465374667
 30
0.0
 11
-480.8607573199047
 21
-611.4185465374667
 31
0.0
  0
LINE
  5
162
330
A
100
AcDbEntity
  8
ADF70-0003
  6
Continuous
 62
     7
370
    15
390
1D
100
AcDbLine
 10
-166.1626800184526
 20
-456.4519741977001
 30
0.0
 11
-736.158785053618
 21
-456.4519741977001
 31
0.0
  0
LINE
  5
163
330
A
100
AcDbEntity
  8
ADF70-0003
  6
Continuous
 62
     7
370
    15
390
1D
100
AcDbLine
 10
-407.385446609183
 20
-567.4197554641742
 30
0.0
 11
-404.0897623451515
 21
-567.1115505780308
 31
0.0
  0
LINE
  5
164
330
A
100
AcDbEntity
  8
ADF70-0003
  6
Continuous
 62
     7
370
    15
390
1D
100
AcDbLine
 10
-419.5442843385877
 20
-578.8833298606714
 30
0.0
 11
-407.385446609183
 21
-567.4197554641742
 31
0.0
  0
LINE
  5
165
330
A
100
AcDbEntity
  8
ADF70-0003
  6
Continuous
 62
     7
370
    15
390
1D
100
AcDbLine
 10
-419.5442843385877
 20
-611.4185465374667
 30
0.0
 11
-419.5442843385877
 21
-578.8833298606714
 31
0.0
  0
LINE
  5
166
330
A
100
AcDbEntity
  8
ADF70-0003
  6
Continuous
 62
     7
370
    15
390
1D
100
AcDbLine
 10
-166.1620660495269
 20
-437.0519741976987
 30
0.0
 11
-166.1626800184526
 21
-456.5566329767698
 31
0.0
  0
LINE
  5
167
330
A
100
AcDbEntity
  8
ADF70-0003
  6
Continuous
 62
     7
370
    15
390
1D
100
AcDbLine
 10
-172.2620660495268
 20
-432.5519741976987
 30
0.0
 11
-166.1620660495269
 21
-437.0519741976987
 31
0.0
  0
LINE
  5
168
330
A
100
AcDbEntity
  8
ADF70-0003
  6
Continuous
 62
     7
370
    15
390
1D
100
AcDbLine
 10
-181.8339589550105
 20
-431.4519741977001
 30
0.0
 11
-172.2339589550106
 21
-432.5519741976987
 31
0.0
  0
LINE
  5
169
330
A
100
AcDbEntity
  8
ADF70-0003
  6
STYLE_11
 62
     7
370
    15
390
1D
100
AcDbLine
 10
-424.5427141529062
 20
-576.6808759227806
 30
0.0
 11
-409.0897623451515
 21
-562.1115505780308
 31
0.0
  0
LINE
  5
16A
330
A
100
AcDbEntity
  8
ADF70-0003
  6
STYLE_11
 62
     7
370
    15
390
1D
100
AcDbLine
 10
-424.5244933578419
 20
-611.4073032668766
 30
0.0
 11
-424.5427141529062
 21
-576.6808759227806
 31
0.0
  0
LINE
  5
16B
330
A
100
AcDbEntity
  8
ADF70-0003
  6
Continuous
 62
     7
370
    15
390
1D
100
AcDbLine
 10
-424.5442843385877
 20
-611.4185465374667
 30
0.0
 11
-419.5442843385877
 21
-611.4185465374667
 31
0.0
  0
LINE
  5
16C
330
A
100
AcDbEntity
  8
ADF70-0003
  6
Continuous
 62
     7
370
    15
390
1D
100
AcDbLine
 10
-482.7765667645567
 20
-578.8833298606714
 30
0.0
 11
-495.214921727254
 21
-567.1562215088506
 31
0.0
  0
LINE
  5
16D
330
A
100
AcDbEntity
  8
ADF70-0003
  6
Continuous
 62
     7
370
    15
390
1D
100
AcDbLine
 10
-482.7765667645567
 20
-611.4185465374667
 30
0.0
 11
-482.7765667645567
 21
-578.8833298606714
 31
0.0
  0
LINE
  5
16E
330
A
100
AcDbEntity
  8
ADF70-0003
  6
Continuous
 62
     7
370
    15
390
1D
100
AcDbLine
 10
-736.158785053618
 20
-437.0519741976987
 30
0.0
 11
-736.158785053618
 21
-456.4448474034671
 31
0.0
  0
LINE
  5
16F
330
A
100
AcDbEntity
  8
ADF70-0003
  6
Continuous
 62
     7
370
    15
390
1D
100
AcDbLine
 10
-730.0587850536181
 20
-432.5519741976987
 30
0.0
 11
-736.158785053618
 21
-437.0519741976987
 31
0.0
  0
LINE
  5
170
330
A
100
AcDbEntity
  8
ADF70-0003
  6
Continuous
 62
     7
370
    15
390
1D
100
AcDbLine
 10
-720.4868921481343
 20
-431.4519741977001
 30
0.0
 11
-730.0868921481342
 21
-432.5519741976987
 31
0.0
  0
LINE
  5
171
330
A
100
AcDbEntity
  8
ADF70-0003
  6
STYLE_11
 62
     7
370
    15
390
1D
100
AcDbLine
 10
-477.7781369502386
 20
-576.6808759227806
 30
0.0
 11
-493.2310887579929
 21
-562.1115505780308
 31
0.0
  0
LINE
  5
172
330
A
100
AcDbEntity
  8
ADF70-0003
  6
STYLE_11
 62
     7
370
    15
390
1D
100
AcDbLine
 10
-477.7963577453024
 20
-611.4073032668766
 30
0.0
 11
-477.7781369502386
 21
-576.6808759227806
 31
0.0
  0
LINE
  5
173
330
A
100
AcDbEntity
  8
ADF70-0003
  6
Continuous
 62
     7
370
    15
390
1D
100
AcDbLine
 10
-477.7765667645567
 20
-611.4185465374667
 30
0.0
 11
-482.7765667645567
 21
-611.4185465374667
 31
0.0
  0
LINE
  5
174
330
A
100
AcDbEntity
  8
ADF70-0003
  6
Continuous
 62
     7
370
    15
390
1D
100
AcDbLine
 10
687.2158220706306
 20
-437.0192907127621
 30
0.0
 11
687.2158220706306
 21
-456.4454712561655
 31
0.0
  0
LINE
  5
175
330
A
100
AcDbEntity
  8
ADF70-0003
  6
Continuous
 62
     7
370
    15
390
1D
100
AcDbLine
 10
681.1158220706307
 20
-432.5192907127621
 30
0.0
 11
687.2158220706306
 21
-437.0192907127621
 31
0.0
  0
LINE
  5
176
330
A
100
AcDbEntity
  8
ADF70-0003
  6
Continuous
 62
     7
370
    15
390
1D
100
AcDbLine
 10
671.5439291651469
 20
-431.4192907127599
 30
0.0
 11
681.1439291651468
 21
-432.5192907127621
 31
0.0
  0
LINE
  5
177
330
A
100
AcDbEntity
  8
ADF70-0003
  6
Continuous
 62
     7
370
    15
390
1D
100
AcDbLine
 10
654.7140050705225
 20
-431.4192907127599
 30
0.0
 11
654.7140050705225
 21
-446.4192907127599
 31
0.0
  0
LINE
  5
178
330
A
100
AcDbEntity
  8
ADF70-0003
  6
Continuous
 62
     7
370
    15
390
1D
100
AcDbLine
 10
619.7140050705225
 20
-446.4192907127599
 30
0.0
 11
619.7140050705225
 21
-431.4192907127599
 31
0.0
  0
LINE
  5
179
330
A
100
AcDbEntity
  8
ADF70-0003
  6
Continuous
 62
     7
370
    15
390
1D
100
AcDbLine
 10
502.7143548981494
 20
-611.4192907127599
 30
0.0
 11
502.7143548981494
 21
-600.0066430121078
 31
0.0
  0
CIRCLE
  5
17A
330
A
100
AcDbEntity
  8
ADF70-0003
  6
Continuous
 62
     7
370
    15
390
1D
100
AcDbCircle
 10
-448.6444741654163
 20
594.1423921130863
 30
0.0
 40
17.50000000000045
  0
CIRCLE
  5
17B
330
A
100
AcDbEntity
  8
ADF70-0003
  6
STYLE_11
 62
     7
370
    15
390
1D
100
AcDbCircle
 10
-348.6444741654154
 20
584.1802445358271
 30
0.0
 40
14.99999999999968
  0
CIRCLE
  5
17C
330
A
100
AcDbEntity
  8
ADF70-0003
  6
STYLE_11
 62
     7
370
    15
390
1D
100
AcDbCircle
 10
-548.6444741654168
 20
584.1802445358271
 30
0.0
 40
15.00000000000011
  0
LWPOLYLINE
  5
17E
330
A
100
AcDbEntity
  8
ADF70-0003
  6
STYLE_11
 62
     7
370
     5
390
1D
100
AcDbPolyline
 90
        5
 70
   129
 43
0.0
 10
444.3890659567974
 20
424.0802445358268
 42
0.414213562373095
 10
465.8092009898378
 20
402.6601095027863
 42
0.4142135623730826
 10
487.2293360228782
 20
424.0802445358268
 42
0.414213562373095
 10
465.8092009898378
 20
445.5003795688672
 42
0.4142135623731075
 10
444.3890659567974
 20
424.0802445358268
  0
CIRCLE
  5
17F
330
A
100
AcDbEntity
  8
ADF70-0003
  6
STYLE_11
 62
     7
370
     5
390
1D
100
AcDbCircle
 10
465.7971925012482
 20
595.3423921130861
 30
0.0
 40
17.5
  0
CIRCLE
  5
180
330
A
100
AcDbEntity
  8
ADF70-0003
  6
STYLE_11
 62
     7
370
     5
390
1D
100
AcDbCircle
 10
365.7971925012482
 20
584.856540949314
 30
0.0
 40
15.0
  0
LWPOLYLINE
  5
182
330
A
100
AcDbEntity
  8
ADF70-0003
  6
Continuous
 62
     7
370
    15
390
1D
100
AcDbPolyline
 90
        3
 70
   128
 43
0.0
 10
502.7143548981505
 20
-600.0066430121151
 42
0.3309012835584616
 10
593.9493093852045
 20
-507.5323623276145
 10
601.1241841739272
 20
-456.4454712561655
  0
SPLINE
  5
183
330
A
100
AcDbEntity
  8
ADF70-0003
  6
STYLE_11
 62
     7
370
    15
390
1D
100
AcDbSpline
210
0.0
220
0.0
230
1.0
 70
     8
 71
     2
 72
     6
 73
     3
 74
     0
 42
0.000000001
 43
0.000001
 40
0.0
 40
0.0
 40
0.0
 40
1.0
 40
1.0
 40
1.0
 10
425.1137173995605
 20
-567.5977616938999
 30
0.0
 10
263.627946432513
 20
-540.2763755581145
 30
0.0
 10
248.1663213738161
 20
-432.6527183729941
 30
0.0
  0
LINE
  5
184
330
A
100
AcDbEntity
  8
ADF70-0003
  6
Continuous
 62
     7
370
    15
390
1D
100
AcDbLine
 10
431.8143548981493
 20
-611.4192907127599
 30
0.0
 11
431.8143548981493
 21
-586.4382205052043
 31
0.0
  0
LINE
  5
185
330
A
100
AcDbEntity
  8
ADF70-0003
  6
Continuous
 62
     7
370
    15
390
1D
100
AcDbLine
 10
223.3680942781791
 20
-456.4454712561655
 30
0.0
 11
223.3663213738159
 21
-437.0527183729919
 31
0.0
  0
LINE
  5
186
330
A
100
AcDbEntity
  8
ADF70-0003
  6
Continuous
 62
     7
370
    15
390
1D
100
AcDbLine
 10
223.3663213738159
 20
-437.0527183729919
 30
0.0
 11
229.4663213738158
 21
-432.5527183729919
 31
0.0
  0
LINE
  5
187
330
A
100
AcDbEntity
  8
ADF70-0003
  6
Continuous
 62
     7
370
    15
390
1D
100
AcDbLine
 10
229.4663213738158
 20
-432.5527183729919
 30
0.0
 11
239.0663213738162
 21
-431.4527183729933
 31
0.0
  0
SPLINE
  5
188
330
A
100
AcDbEntity
  8
ADF70-0003
  6
Continuous
 62
     7
370
    15
390
1D
100
AcDbSpline
210
0.0
220
0.0
230
1.0
 70
     8
 71
     2
 72
     6
 73
     3
 74
     0
 42
0.000000001
 43
0.000001
 40
0.0
 40
0.0
 40
0.0
 40
1.0
 40
1.0
 40
1.0
 10
425.7523476612619
 20
-577.5821375245196
 30
0.0
 10
273.7519607507104
 20
-551.9185887720669
 30
0.0
 10
243.623124466397
 20
-456.4451782589531
 30
0.0
  0
ARC
  5
189
330
A
100
AcDbEntity
  8
ADF70-0003
  6
Continuous
 62
     7
370
    15
390
1D
100
AcDbCircle
 10
422.3143548981493
 20
-586.4382205052043
 30
0.0
 40
9.5
100
AcDbArc
 50
0.0
 51
68.78344284057971
  0
SPLINE
  5
18A
330
A
100
AcDbEntity
  8
ADF70-0003
  6
STYLE_11
 62
     7
370
    15
390
1D
100
AcDbSpline
210
0.0
220
0.0
230
1.0
 70
     8
 71
     2
 72
     7
 73
     4
 74
     0
 42
0.000000001
 43
0.000001
 40
0.0
 40
0.0
 40
0.0
 40
1.0
 40
2.0
 40
2.0
 40
2.0
 10
-409.0897623451515
 20
-562.1115505780308
 30
0.0
 10
-300.0807286454669
 20
-550.7947259237608
 30
0.0
 10
-224.9589347729634
 20
-430.0105359889003
 30
0.0
 10
-203.3260635435236
 20
-431.4519741977001
 30
0.0
  0
SPLINE
  5
18B
330
A
100
AcDbEntity
  8
ADF70-0003
  6
Continuous
 62
     7
370
    15
390
1D
100
AcDbSpline
210
0.0
220
0.0
230
1.0
 70
     8
 71
     2
 72
     8
 73
     5
 74
     0
 42
0.000000001
 43
0.000001
 40
0.0
 40
0.0
 40
0.0
 40
1.0
 40
1.0
 40
2.0
 40
2.0
 40
2.0
 10
-404.0897623451515
 20
-567.1115505780308
 30
0.0
 10
-295.4228372072225
 20
-556.1420519545482
 30
0.0
 10
-256.8335319945963
 20
-494.7058645422239
 30
0.0
 10
-241.7531075591637
 20
-470.6970419742174
 30
0.0
 10
-229.5241221700703
 20
-456.5566929048691
 30
0.0
  0
LINE
  5
18C
330
A
100
AcDbEntity
  8
ADF70-0003
  6
Continuous
 62
     7
370
    15
390
1D
100
AcDbLine
 10
-482.7765667645567
 20
-611.4185465374667
 30
0.0
 11
-482.7765667645567
 21
-578.8833298606714
 31
0.0
  0
SPLINE
  5
18D
330
A
100
AcDbEntity
  8
ADF70-0003
  6
STYLE_11
 62
     7
370
    15
390
1D
100
AcDbSpline
210
0.0
220
0.0
230
1.0
 70
     8
 71
     2
 72
     7
 73
     4
 74
     0
 42
0.000000001
 43
0.000001
 40
0.0
 40
0.0
 40
0.0
 40
1.0
 40
2.0
 40
2.0
 40
2.0
 10
-493.2310887579929
 20
-562.1115505780308
 30
0.0
 10
-602.2401224576774
 20
-550.7947259237608
 30
0.0
 10
-677.361916330181
 20
-430.0105359889003
 30
0.0
 10
-698.9947875596208
 20
-431.4519741977001
 30
0.0
  0
SPLINE
  5
18E
330
A
100
AcDbEntity
  8
ADF70-0003
  6
Continuous
 62
     7
370
    15
390
1D
100
AcDbSpline
210
0.0
220
0.0
230
1.0
 70
     8
 71
     2
 72
     8
 73
     5
 74
     0
 42
0.000000001
 43
0.000001
 40
0.0
 40
0.0
 40
0.0
 40
1.0
 40
1.0
 40
2.0
 40
2.0
 40
2.0
 10
-498.2310887579929
 20
-567.1115505780308
 30
0.0
 10
-606.8980138959218
 20
-556.1420519545482
 30
0.0
 10
-645.4873191085485
 20
-494.7058645422239
 30
0.0
 10
-660.5678907504976
 20
-470.6968076137618
 30
0.0
 10
-672.7969676775888
 20
-456.5564168457367
 30
0.0
  0
LINE
  5
18F
330
A
100
AcDbEntity
  8
ADF70-0003
  6
Continuous
 62
     7
370
    15
390
1D
100
AcDbLine
 10
-495.214921727254
 20
-567.1562215088506
 30
0.0
 11
-498.2310887579929
 21
-567.1115505780308
 31
0.0
  0
CIRCLE
  5
190
330
A
100
AcDbEntity
  8
ADF70-0003
  6
STYLE_11
 62
     7
370
     5
390
1D
100
AcDbCircle
 10
565.7971925012482
 20
584.856540949314
 30
0.0
 40
15.0
  0
SPLINE
  5
192
330
A
100
AcDbEntity
  8
ADF70-0003
  6
STYLE_11
 62
     7
370
    15
390
1D
100
AcDbSpline
210
0.0
220
0.0
230
1.0
 70
     8
 71
     2
 72
     7
 73
     4
 74
     0
 42
0.000000001
 43
0.000001
 40
0.0
 40
0.0
 40
0.0
 40
1.0
 40
2.0
 40
2.0
 40
2.0
 10
507.3309334578439
 20
-567.6986936964186
 30
0.0
 10
548.0
 20
-561.0
 30
0.0
 10
578.0
 20
-491.0
 30
0.0
 10
584.676473922782
 20
-441.9936343804584
 30
0.0
  0
ARC
  5
193
330
A
100
AcDbEntity
  8
ADF70-0003
  6
STYLE_11
 62
     7
370
    15
390
1D
100
AcDbCircle
 10
593.9740957635472
 20
-440.4192907127617
 30
0.0
 40
9.000000000001819
100
AcDbArc
 50
89.99999999999712
 51
172.241964616975
  0
CIRCLE
  5
205
330
A
100
AcDbEntity
  8
template
  6
Continuous
370
     0
100
AcDbCircle
 10
-448.644474165416
 20
424.0971467072458
 30
0.0
 40
21.4
  0
CIRCLE
  5
206
330
A
100
AcDbEntity
  8
template
  6
Continuous
370
     0
100
AcDbCircle
 10
-448.644474165416
 20
424.0971467072458
 30
0.0
 40
37.65
  0
ELLIPSE
  5
210
330
A
100
AcDbEntity
  8
template
  6
Continuous
370
     0
100
AcDbEllipse
 10
-448.6444741654161
 20
410.3423921130862
 30
0.0
 11
285.0000000000001
 21
0.0
 31
0.0
210
0.0
220
0.0
230
1.0
 40
0.8245614035087714
 41
0.0
 42
6.283185307179586
  0
ELLIPSE
  5
226
330
A
100
AcDbEntity
  8
template
  6
Continuous
370
     0
100
AcDbEllipse
 10
-448.6444741654158
 20
377.842392110329
 30
0.0
 11
230.0000000000003
 21
-2.757104766715202E-9
 31
0.0
210
0.0
220
0.0
230
1.0
 40
0.7065217391424214
 41
0.0
 42
6.283185307179586
  0
ELLIPSE
  5
229
330
A
100
AcDbEntity
  8
template
  6
STYLE_11
370
     0
100
AcDbEllipse
 10
465.5249489438476
 20
411.3697089473941
 30
0.0
 11
285.0000000000001
 21
0.0
 31
0.0
210
0.0
220
0.0
230
1.0
 40
0.8245614035087714
 41
0.0
 42
6.283185307179586
  0
ELLIPSE
  5
231
330
A
100
AcDbEntity
  8
template
  6
Continuous
370
     0
100
AcDbEllipse
 10
465.7971925012482
 20
410.3423921130861
 30
0.0
 11
265.0
 21
0.0
 31
0.0
210
0.0
220
0.0
230
1.0
 40
0.830188679245283
 41
0.0
 42
6.283185307179586
  0
ENDSEC
  0
SECTION
  2
OBJECTS
  0
DICTIONARY
  5
19
330
0
100
AcDbDictionary
281
     1
  3
ACAD_DETAILVIEWSTYLE
350
1E1
  3
ACAD_GROUP
350
1A
  3
ACAD_IMAGE_VARS
350
1D7
  3
ACAD_LAYOUT
350
1E
  3
ACAD_MATERIAL
350
1CF
  3
ACAD_MLEADERSTYLE
350
1DF
  3
ACAD_MLINESTYLE
350
1B
  3
ACAD_PLOTSETTINGS
350
22
  3
ACAD_PLOTSTYLENAME
350
1F
  3
ACAD_SCALELIST
350
194
  3
ACAD_SECTIONVIEWSTYLE
350
1E2
  3
ACAD_TABLESTYLE
350
1D3
  3
ACAD_VISUALSTYLE
350
1B6
  3
ACDB_RECOMPOSE_DATA
350
234
  3
AcDbVariableDictionary
350
1D8
  3
APPDATA
350
1D5
  0
SUN
  5
1D6
330
15
100
AcDbSun
 90
        1
290
     0
 63
     7
421
 16777215
 40
1.0
291
     1
 91
  2455826
 92
 54000000
292
     0
 70
     2
 71
   256
280
     1
  0
DICTIONARY
  5
1E1
102
{ACAD_REACTORS
330
19
102
}
330
19
100
AcDbDictionary
281
     1
  0
DICTIONARY
  5
1A
102
{ACAD_REACTORS
330
19
102
}
330
19
100
AcDbDictionary
281
     1
  0
RASTERVARIABLES
  5
1D7
102
{ACAD_REACTORS
330
19
102
}
330
19
100
AcDbRasterVariables
 90
        0
 70
     1
 71
     1
 72
     1
  0
DICTIONARY
  5
1E
102
{ACAD_REACTORS
330
19
102
}
330
19
100
AcDbDictionary
281
     1
  3
Layout1
350
21
  3
Model
350
20
  0
DICTIONARY
  5
1CF
102
{ACAD_REACTORS
330
19
102
}
330
19
100
AcDbDictionary
281
     1
  3
ByBlock
350
1D1
  3
ByLayer
350
1D0
  3
Global
350
1D2
  0
DICTIONARY
  5
1DF
102
{ACAD_REACTORS
330
19
102
}
330
19
100
AcDbDictionary
281
     1
  0
DICTIONARY
  5
1B
102
{ACAD_REACTORS
330
19
102
}
330
19
100
AcDbDictionary
281
     1
  3
Standard
350
1C
  0
DICTIONARY
  5
22
102
{ACAD_REACTORS
330
19
102
}
330
19
100
AcDbDictionary
281
     1
  0
ACDBDICTIONARYWDFLT
  5
1F
102
{ACAD_REACTORS
330
19
102
}
330
19
100
AcDbDictionary
281
     1
  3
Normal
350
1D
100
AcDbDictionaryWithDefault
340
1D
  0
DICTIONARY
  5
194
102
{ACAD_REACTORS
330
19
102
}
330
19
100
AcDbDictionary
281
     1
  3
A0
350
195
  3
A1
350
196
  3
A2
350
197
  3
A3
350
198
  3
A4
350
199
  3
A5
350
19A
  3
A6
350
19B
  3
A7
350
19C
  3
A8
350
19D
  3
A9
350
19E
  3
B0
350
19F
  3
B1
350
1A0
  3
B2
350
1A1
  3
B3
350
1A2
  3
B4
350
1A3
  3
B5
350
1A4
  3
B6
350
1A5
  3
B7
350
1A6
  3
B8
350
1A7
  3
B9
350
1A8
  3
C0
350
1A9
  3
C1
350
1AA
  3
C2
350
1AB
  3
C3
350
1AC
  3
C4
350
1AD
  3
C5
350
1AE
  3
C6
350
1AF
  3
C7
350
1B0
  3
C8
350
1B1
  3
C9
350
1B2
  3
D0
350
1B3
  3
D1
350
1B4
  3
D2
350
1B5
  0
DICTIONARY
  5
1E2
102
{ACAD_REACTORS
330
19
102
}
330
19
100
AcDbDictionary
281
     1
  0
DICTIONARY
  5
1D3
102
{ACAD_REACTORS
330
19
102
}
330
19
100
AcDbDictionary
281
     1
  3
Standard
350
1D4
  0
DICTIONARY
  5
1B6
102
{ACAD_REACTORS
330
19
102
}
330
19
100
AcDbDictionary
281
     1
  3
2dWireframe
350
1BB
  3
Basic
350
1BE
  3
Brighten
350
1C2
  3
ColorChange
350
1C6
  3
Conceptual
350
1C0
  3
Dim
350
1C1
  3
EdgeColorOff
350
1C9
  3
Facepattern
350
1C5
  3
Flat
350
1B7
  3
FlatWithEdges
350
1B8
  3
Gouraud
350
1B9
  3
GouraudWithEdges
350
1BA
  3
Hidden
350
1BD
  3
JitterOff
350
1C7
  3
Linepattern
350
1C4
  3
OverhangOff
350
1C8
  3
Realistic
350
1BF
  3
Shaded
350
1CE
  3
Shaded with edges
350
1CD
  3
Shades of Gray
350
1CA
  3
Sketchy
350
1CB
  3
Thicken
350
1C3
  3
Wireframe
350
1BC
  3
X-Ray
350
1CC
  0
XRECORD
  5
234
102
{ACAD_REACTORS
330
19
102
}
330
19
100
AcDbXrecord
280
     1
 90
        1
330
1D4
  0
DICTIONARY
  5
1D8
102
{ACAD_REACTORS
330
19
102
}
330
19
100
AcDbDictionary
281
     1
  3
CANNOSCALE
350
1D9
  3
CTABLESTYLE
350
1DE
  3
LIGHTINGUNITS
350
1DA
  3
MSLTSCALE
350
1E0
  3
XCLIPFRAME
350
235
  0
DICTIONARY
  5
1D5
102
{ACAD_REACTORS
330
19
102
}
330
19
100
AcDbDictionary
281
     1
  0
LAYOUT
  5
21
102
{ACAD_REACTORS
330
1E
102
}
330
1E
100
AcDbPlotSettings
  1

  2

  4

  6

 40
0.0
 41
0.0
 42
0.0
 43
0.0
 44
0.0
 45
0.0
 46
0.0
 47
0.0
 48
0.0
 49
0.0
140
0.0
141
0.0
142
1.0
143
1.0
 70
     0
 72
     0
 73
     0
 74
     0
  7

 75
     0
 76
     0
 77
     2
 78
   300
147
1.0
148
0.0
149
0.0
100
AcDbLayout
  1
Layout1
 70
     0
 71
     0
 10
0.0
 20
0.0
 11
0.0
 21
0.0
 12
0.0
 22
0.0
 32
0.0
 14
0.0
 24
0.0
 34
0.0
 15
0.0
 25
0.0
 35
0.0
146
0.0
 13
0.0
 23
0.0
 33
0.0
 16
0.0
 26
0.0
 36
0.0
 17
0.0
 27
0.0
 37
0.0
 76
     0
330
B
  0
LAYOUT
  5
20
102
{ACAD_REACTORS
330
1E
102
}
330
1E
100
AcDbPlotSettings
  1

  2

  4

  6

 40
0.0
 41
0.0
 42
0.0
 43
0.0
 44
0.0
 45
0.0
 46
0.0
 47
0.0
 48
0.0
 49
0.0
140
0.0
141
0.0
142
1.0
143
1.0
 70
  1024
 72
     0
 73
     0
 74
     0
  7

 75
     0
 76
     0
 77
     2
 78
   300
147
1.0
148
0.0
149
0.0
100
AcDbLayout
  1
Model
 70
     0
 71
     1
 10
0.0
 20
0.0
 11
0.0
 21
0.0
 12
0.0
 22
0.0
 32
0.0
 14
0.0
 24
0.0
 34
0.0
 15
0.0
 25
0.0
 35
0.0
146
0.0
 13
0.0
 23
0.0
 33
0.0
 16
0.0
 26
0.0
 36
0.0
 17
0.0
 27
0.0
 37
0.0
 76
     0
330
A
331
15
  0
MATERIAL
  5
1D1
102
{ACAD_REACTORS
330
1CF
102
}
330
1CF
100
AcDbMaterial
  1
ByBlock
 72
     1
 94
      127
  0
MATERIAL
  5
1D0
102
{ACAD_REACTORS
330
1CF
102
}
330
1CF
100
AcDbMaterial
  1
ByLayer
 72
     1
 94
      127
  0
MATERIAL
  5
1D2
102
{ACAD_REACTORS
330
1CF
102
}
330
1CF
100
AcDbMaterial
  1
Global
 72
     1
 94
      127
  0
MLINESTYLE
  5
1C
102
{ACAD_REACTORS
330
1B
102
}
330
1B
100
AcDbMlineStyle
  2
Standard
 70
     0
  3

 62
     0
 51
90.0
 52
90.0
 71
     2
 49
0.5
 62
   256
  6
BYLAYER
 49
-0.5
 62
   256
  6
BYLAYER
  0
ACDBPLACEHOLDER
  5
1D
102
{ACAD_REACTORS
330
1F
102
}
330
1F
  0
SCALE
  5
195
102
{ACAD_REACTORS
330
194
102
}
330
194
100
AcDbScale
 70
     0
300
1:1
140
1.0
141
1.0
290
     1
  0
SCALE
  5
196
102
{ACAD_REACTORS
330
194
102
}
330
194
100
AcDbScale
 70
     0
300
1:2
140
1.0
141
2.0
290
     0
  0
SCALE
  5
197
102
{ACAD_REACTORS
330
194
102
}
330
194
100
AcDbScale
 70
     0
300
1:4
140
1.0
141
4.0
290
     0
  0
SCALE
  5
198
102
{ACAD_REACTORS
330
194
102
}
330
194
100
AcDbScale
 70
     0
300
1:5
140
1.0
141
5.0
290
     0
  0
SCALE
  5
199
102
{ACAD_REACTORS
330
194
102
}
330
194
100
AcDbScale
 70
     0
300
1:8
140
1.0
141
8.0
290
     0
  0
SCALE
  5
19A
102
{ACAD_REACTORS
330
194
102
}
330
194
100
AcDbScale
 70
     0
300
1:10
140
1.0
141
10.0
290
     0
  0
SCALE
  5
19B
102
{ACAD_REACTORS
330
194
102
}
330
194
100
AcDbScale
 70
     0
300
1:16
140
1.0
141
16.0
290
     0
  0
SCALE
  5
19C
102
{ACAD_REACTORS
330
194
102
}
330
194
100
AcDbScale
 70
     0
300
1:20
140
1.0
141
20.0
290
     0
  0
SCALE
  5
19D
102
{ACAD_REACTORS
330
194
102
}
330
194
100
AcDbScale
 70
     0
300
1:30
140
1.0
141
30.0
290
     0
  0
SCALE
  5
19E
102
{ACAD_REACTORS
330
194
102
}
330
194
100
AcDbScale
 70
     0
300
1:40
140
1.0
141
40.0
290
     0
  0
SCALE
  5
19F
102
{ACAD_REACTORS
330
194
102
}
330
194
100
AcDbScale
 70
     0
300
1:50
140
1.0
141
50.0
290
     0
  0
SCALE
  5
1A0
102
{ACAD_REACTORS
330
194
102
}
330
194
100
AcDbScale
 70
     0
300
1:100
140
1.0
141
100.0
290
     0
  0
SCALE
  5
1A1
102
{ACAD_REACTORS
330
194
102
}
330
194
100
AcDbScale
 70
     0
300
2:1
140
2.0
141
1.0
290
     0
  0
SCALE
  5
1A2
102
{ACAD_REACTORS
330
194
102
}
330
194
100
AcDbScale
 70
     0
300
4:1
140
4.0
141
1.0
290
     0
  0
SCALE
  5
1A3
102
{ACAD_REACTORS
330
194
102
}
330
194
100
AcDbScale
 70
     0
300
8:1
140
8.0
141
1.0
290
     0
  0
SCALE
  5
1A4
102
{ACAD_REACTORS
330
194
102
}
330
194
100
AcDbScale
 70
     0
300
10:1
140
10.0
141
1.0
290
     0
  0
SCALE
  5
1A5
102
{ACAD_REACTORS
330
194
102
}
330
194
100
AcDbScale
 70
     0
300
100:1
140
100.0
141
1.0
290
     0
  0
SCALE
  5
1A6
102
{ACAD_REACTORS
330
194
102
}
330
194
100
AcDbScale
 70
     0
300
1/128" = 1'-0"
140
0.0078125
141
12.0
290
     0
  0
SCALE
  5
1A7
102
{ACAD_REACTORS
330
194
102
}
330
194
100
AcDbScale
 70
     0
300
1/64" = 1'-0"
140
0.015625
141
12.0
290
     0
  0
SCALE
  5
1A8
102
{ACAD_REACTORS
330
194
102
}
330
194
100
AcDbScale
 70
     0
300
1/32" = 1'-0"
140
0.03125
141
12.0
290
     0
  0
SCALE
  5
1A9
102
{ACAD_REACTORS
330
194
102
}
330
194
100
AcDbScale
 70
     0
300
1/16" = 1'-0"
140
0.0625
141
12.0
290
     0
  0
SCALE
  5
1AA
102
{ACAD_REACTORS
330
194
102
}
330
194
100
AcDbScale
 70
     0
300
3/32" = 1'-0"
140
0.09375
141
12.0
290
     0
  0
SCALE
  5
1AB
102
{ACAD_REACTORS
330
194
102
}
330
194
100
AcDbScale
 70
     0
300
1/8" = 1'-0"
140
0.125
141
12.0
290
     0
  0
SCALE
  5
1AC
102
{ACAD_REACTORS
330
194
102
}
330
194
100
AcDbScale
 70
     0
300
3/16" = 1'-0"
140
0.1875
141
12.0
290
     0
  0
SCALE
  5
1AD
102
{ACAD_REACTORS
330
194
102
}
330
194
100
AcDbScale
 70
     0
300
1/4" = 1'-0"
140
0.25
141
12.0
290
     0
  0
SCALE
  5
1AE
102
{ACAD_REACTORS
330
194
102
}
330
194
100
AcDbScale
 70
     0
300
3/8" = 1'-0"
140
0.375
141
12.0
290
     0
  0
SCALE
  5
1AF
102
{ACAD_REACTORS
330
194
102
}
330
194
100
AcDbScale
 70
     0
300
1/2" = 1'-0"
140
0.5
141
12.0
290
     0
  0
SCALE
  5
1B0
102
{ACAD_REACTORS
330
194
102
}
330
194
100
AcDbScale
 70
     0
300
3/4" = 1'-0"
140
0.75
141
12.0
290
     0
  0
SCALE
  5
1B1
102
{ACAD_REACTORS
330
194
102
}
330
194
100
AcDbScale
 70
     0
300
1" = 1'-0"
140
1.0
141
12.0
290
     0
  0
SCALE
  5
1B2
102
{ACAD_REACTORS
330
194
102
}
330
194
100
AcDbScale
 70
     0
300
1-1/2" = 1'-0"
140
1.5
141
12.0
290
     0
  0
SCALE
  5
1B3
102
{ACAD_REACTORS
330
194
102
}
330
194
100
AcDbScale
 70
     0
300
3" = 1'-0"
140
3.0
141
12.0
290
     0
  0
SCALE
  5
1B4
102
{ACAD_REACTORS
330
194
102
}
330
194
100
AcDbScale
 70
     0
300
6" = 1'-0"
140
6.0
141
12.0
290
     0
  0
SCALE
  5
1B5
102
{ACAD_REACTORS
330
194
102
}
330
194
100
AcDbScale
 70
     0
300
1'-0" = 1'-0"
140
12.0
141
12.0
290
     0
  0
TABLESTYLE
  5
1D4
102
{ACAD_REACTORS
330
1D3
102
}
102
{ACAD_XDICTIONARY
360
232
102
}
330
1D3
100
AcDbTableStyle
  3
Standard
 70
     0
 71
     0
 40
0.06
 41
0.06
280
     0
281
     0
  7
Standard
140
4.5
170
     2
 62
     0
 63
   257
283
     0
 90
        4
 91
        0
  1

274
    -2
284
     1
 64
     0
275
    -2
285
     1
 65
     0
276
    -2
286
     1
 66
     0
277
    -2
287
     1
 67
     0
278
    -2
288
     1
 68
     0
279
    -2
289
     1
 69
     0
  7
Standard
140
6.0
170
     5
 62
     0
 63
   257
283
     0
 90
        4
 91
        0
  1

274
    -2
284
     1
 64
     0
275
    -2
285
     1
 65
     0
276
    -2
286
     1
 66
     0
277
    -2
287
     1
 67
     0
278
    -2
288
     1
 68
     0
279
    -2
289
     1
 69
     0
  7
Standard
140
4.5
170
     5
 62
     0
 63
   257
283
     0
 90
        4
 91
        0
  1

274
    -2
284
     1
 64
     0
275
    -2
285
     1
 65
     0
276
    -2
286
     1
 66
     0
277
    -2
287
     1
 67
     0
278
    -2
288
     1
 68
     0
279
    -2
289
     1
 69
     0
  0
VISUALSTYLE
  5
1BB
102
{ACAD_REACTORS
330
1B6
102
}
330
1B6
100
AcDbVisualStyle
  2
2dWireframe
 70
     4
 71
     0
 72
     2
 73
     0
 90
        0
 40
0.6
 41
30.0
 62
     5
 63
     7
421
 16777215
 74
     1
 91
        4
 64
     7
 65
   257
 75
     1
175
     1
 42
1.0
 92
        0
 66
   257
 43
1.0
 76
     1
 77
     6
 78
     2
 67
     7
 79
     5
170
     0
171
     0
290
     0
174
     0
 93
        1
 44
0.0
173
     0
291
     0
 45
0.0
  0
VISUALSTYLE
  5
1BE
102
{ACAD_REACTORS
330
1B6
102
}
330
1B6
100
AcDbVisualStyle
  2
Basic
 70
     7
 71
     1
 72
     0
 73
     1
 90
        0
 40
0.6
 41
30.0
 62
     5
 63
     7
421
 16777215
 74
     0
 91
        4
 64
     7
 65
   257
 75
     1
175
     1
 42
1.0
 92
        8
 66
     7
 43
1.0
 76
     1
 77
     6
 78
     2
 67
     7
 79
     5
170
     0
171
     0
290
     0
174
     0
 93
        1
 44
0.0
173
     0
291
     1
 45
0.0
  0
VISUALSTYLE
  5
1C2
102
{ACAD_REACTORS
330
1B6
102
}
330
1B6
100
AcDbVisualStyle
  2
Brighten
 70
    12
 71
     2
 72
     2
 73
     0
 90
        0
 40
0.6
 41
30.0
 62
     5
 63
     7
421
 16777215
 74
     1
 91
        4
 64
     7
 65
   257
 75
     1
175
     1
 42
1.0
 92
        8
 66
     7
 43
1.0
 76
     1
 77
     6
 78
     2
 67
     7
 79
     5
170
     0
171
     0
290
     0
174
     0
 93
        1
 44
50.0
173
     0
291
     1
 45
0.0
  0
VISUALSTYLE
  5
1C6
102
{ACAD_REACTORS
330
1B6
102
}
330
1B6
100
AcDbVisualStyle
  2
ColorChange
 70
    16
 71
     2
 72
     2
 73
     3
 90
        0
 40
0.6
 41
30.0
 62
     5
 63
     8
421
  8421504
 74
     1
 91
        4
 64
     7
 65
   257
 75
     1
175
     1
 42
1.0
 92
        8
 66
     8
424
  8421504
 43
1.0
 76
     1
 77
     6
 78
     2
 67
     7
 79
     5
170
     0
171
     0
290
     0
174
     0
 93
        1
 44
0.0
173
     0
291
     1
 45
0.0
  0
VISUALSTYLE
  5
1C0
102
{ACAD_REACTORS
330
1B6
102
}
330
1B6
100
AcDbVisualStyle
  2
Conceptual
 70
     9
 71
     3
 72
     2
 73
     0
 90
        0
 40
0.6
 41
30.0
 62
     5
 63
     7
421
 16777215
 74
     2
 91
        2
 64
     7
 65
   257
 75
     1
175
     1
 42
179.0
 92
        8
 66
     7
 43
1.0
 76
     1
 77
     6
 78
     2
 67
     7
 79
     3
170
     0
171
     0
290
     0
174
     0
 93
        1
 44
0.0
173
     0
291
     0
 45
0.0
  0
VISUALSTYLE
  5
1C1
102
{ACAD_REACTORS
330
1B6
102
}
330
1B6
100
AcDbVisualStyle
  2
Dim
 70
    11
 71
     2
 72
     2
 73
     0
 90
        0
 40
0.6
 41
30.0
 62
     5
 63
     7
421
 16777215
 74
     1
 91
        4
 64
     7
 65
   257
 75
     1
175
     1
 42
1.0
 92
        8
 66
     7
 43
1.0
 76
     1
 77
     6
 78
     2
 67
     7
 79
     5
170
     0
171
     0
290
     0
174
     0
 93
        1
 44
-50.0
173
     0
291
     1
 45
0.0
  0
VISUALSTYLE
  5
1C9
102
{ACAD_REACTORS
330
1B6
102
}
330
1B6
100
AcDbVisualStyle
  2
EdgeColorOff
 70
    22
 71
     2
 72
     2
 73
     0
 90
        0
 40
0.6
 41
30.0
 62
     5
 63
     7
421
 16777215
 74
     1
 91
        4
 64
     7
 65
   257
 75
     1
175
     1
 42
1.0
 92
        8
 66
     7
 43
1.0
 76
     1
 77
     6
 78
     2
 67
     7
 79
     5
170
     0
171
     0
290
     0
174
     0
 93
        1
 44
0.0
173
     0
291
     1
 45
0.0
  0
VISUALSTYLE
  5
1C5
102
{ACAD_REACTORS
330
1B6
102
}
330
1B6
100
AcDbVisualStyle
  2
Facepattern
 70
    15
 71
     2
 72
     2
 73
     0
 90
        0
 40
0.6
 41
30.0
 62
     5
 63
     7
421
 16777215
 74
     1
 91
        4
 64
     7
 65
   257
 75
     1
175
     1
 42
1.0
 92
        8
 66
     7
 43
1.0
 76
     1
 77
     6
 78
     2
 67
     7
 79
     5
170
     0
171
     0
290
     0
174
     0
 93
        1
 44
0.0
173
     0
291
     1
 45
0.0
  0
VISUALSTYLE
  5
1B7
102
{ACAD_REACTORS
330
1B6
102
}
330
1B6
100
AcDbVisualStyle
  2
Flat
 70
     0
 71
     2
 72
     1
 73
     1
 90
        2
 40
0.6
 41
30.0
 62
     5
 63
     7
421
 16777215
 74
     0
 91
        0
 64
     7
 65
   257
 75
     1
175
     1
 42
1.0
 92
        8
 66
     7
 43
1.0
 76
     1
 77
     6
 78
     2
 67
     7
 79
     5
170
     0
171
     0
290
     0
174
     0
 93
       13
 44
0.0
173
     0
291
     1
 45
0.0
  0
VISUALSTYLE
  5
1B8
102
{ACAD_REACTORS
330
1B6
102
}
330
1B6
100
AcDbVisualStyle
  2
FlatWithEdges
 70
     1
 71
     2
 72
     1
 73
     1
 90
        2
 40
0.6
 41
30.0
 62
     5
 63
     7
421
 16777215
 74
     1
 91
        0
 64
     7
 65
   257
 75
     1
175
     1
 42
1.0
 92
        0
 66
   257
 43
1.0
 76
     1
 77
     6
 78
     2
 67
     7
 79
     5
170
     0
171
     0
290
     0
174
     0
 93
       13
 44
0.0
173
     0
291
     1
 45
0.0
  0
VISUALSTYLE
  5
1B9
102
{ACAD_REACTORS
330
1B6
102
}
330
1B6
100
AcDbVisualStyle
  2
Gouraud
 70
     2
 71
     2
 72
     2
 73
     1
 90
        2
 40
0.6
 41
30.0
 62
     5
 63
     7
421
 16777215
 74
     0
 91
        0
 64
     7
 65
   257
 75
     1
175
     1
 42
1.0
 92
        0
 66
     7
 43
1.0
 76
     1
 77
     6
 78
     2
 67
     7
 79
     5
170
     0
171
     0
290
     0
174
     0
 93
       13
 44
0.0
173
     0
291
     1
 45
0.0
  0
VISUALSTYLE
  5
1BA
102
{ACAD_REACTORS
330
1B6
102
}
330
1B6
100
AcDbVisualStyle
  2
GouraudWithEdges
 70
     3
 71
     2
 72
     2
 73
     1
 90
        2
 40
0.6
 41
30.0
 62
     5
 63
     7
421
 16777215
 74
     1
 91
        0
 64
     7
 65
   257
 75
     1
175
     1
 42
1.0
 92
        0
 66
   257
 43
1.0
 76
     1
 77
     6
 78
     2
 67
     7
 79
     5
170
     0
171
     0
290
     0
174
     0
 93
       13
 44
0.0
173
     0
291
     1
 45
0.0
  0
VISUALSTYLE
  5
1BD
102
{ACAD_REACTORS
330
1B6
102
}
330
1B6
100
AcDbVisualStyle
  2
Hidden
 70
     6
 71
     1
 72
     2
 73
     2
 90
        0
 40
0.6
 41
30.0
 62
     5
 63
     7
421
 16777215
 74
     2
 91
        2
 64
     7
 65
   257
 75
     2
175
     1
 42
40.0
 92
        0
 66
   257
 43
1.0
 76
     1
 77
     6
 78
     2
 67
     7
 79
     3
170
     0
171
     0
290
     0
174
     0
 93
        1
 44
0.0
173
     0
291
     0
 45
0.0
  0
VISUALSTYLE
  5
1C7
102
{ACAD_REACTORS
330
1B6
102
}
330
1B6
100
AcDbVisualStyle
  2
JitterOff
 70
    20
 71
     2
 72
     2
 73
     0
 90
        0
 40
0.6
 41
30.0
 62
     5
 63
     7
421
 16777215
 74
     1
 91
        4
 64
     7
 65
   257
 75
     1
175
     1
 42
1.0
 92
       10
 66
     7
 43
1.0
 76
     1
 77
     6
 78
     2
 67
     7
 79
     5
170
     0
171
     0
290
     0
174
     0
 93
        1
 44
0.0
173
     0
291
     1
 45
0.0
  0
VISUALSTYLE
  5
1C4
102
{ACAD_REACTORS
330
1B6
102
}
330
1B6
100
AcDbVisualStyle
  2
Linepattern
 70
    14
 71
     2
 72
     2
 73
     0
 90
        0
 40
0.6
 41
30.0
 62
     5
 63
     7
421
 16777215
 74
     1
 91
        4
 64
     7
 65
   257
 75
     7
175
     7
 42
1.0
 92
        8
 66
     7
 43
1.0
 76
     1
 77
     6
 78
     2
 67
     7
 79
     5
170
     0
171
     0
290
     0
174
     0
 93
        1
 44
0.0
173
     0
291
     1
 45
0.0
  0
VISUALSTYLE
  5
1C8
102
{ACAD_REACTORS
330
1B6
102
}
330
1B6
100
AcDbVisualStyle
  2
OverhangOff
 70
    21
 71
     2
 72
     2
 73
     0
 90
        0
 40
0.6
 41
30.0
 62
     5
 63
     7
421
 16777215
 74
     1
 91
        4
 64
     7
 65
   257
 75
     1
175
     1
 42
1.0
 92
        9
 66
     7
 43
1.0
 76
     1
 77
     6
 78
     2
 67
     7
 79
     5
170
     0
171
     0
290
     0
174
     0
 93
        1
 44
0.0
173
     0
291
     1
 45
0.0
  0
VISUALSTYLE
  5
1BF
102
{ACAD_REACTORS
330
1B6
102
}
330
1B6
100
AcDbVisualStyle
  2
Realistic
 70
     8
 71
     2
 72
     3
 73
     0
 90
        2
 40
0.6
 41
30.0
 62
     5
 63
     7
421
 16777215
 74
     0
 91
        0
 64
     7
 65
   257
 75
     1
175
     1
 42
1.0
 92
        8
 66
   257
 43
1.0
 76
     1
 77
     6
 78
     2
 67
     7
 79
     3
170
     0
171
     0
290
     0
174
     0
 93
       13
 44
0.0
173
     0
291
     0
 45
0.0
  0
VISUALSTYLE
  5
1CE
102
{ACAD_REACTORS
330
1B6
102
}
330
1B6
100
AcDbVisualStyle
  2
Shaded
 70
    27
 71
     2
 72
     2
 73
     1
 90
        2
 40
0.6
 41
30.0
 62
     5
 63
     7
421
 16777215
 74
     0
 91
        4
 64
     7
 65
   257
 75
     1
175
     1
 42
1.0
 92
        8
 66
   257
 43
1.0
 76
     1
 77
     6
 78
     2
 67
     8
425
  7895160
 79
     3
170
     0
171
     0
290
     0
174
     0
 93
        5
 44
0.0
173
     0
291
     0
 45
0.0
  0
VISUALSTYLE
  5
1CD
102
{ACAD_REACTORS
330
1B6
102
}
330
1B6
100
AcDbVisualStyle
  2
Shaded with edges
 70
    26
 71
     2
 72
     2
 73
     1
 90
        2
 40
0.6
 41
30.0
 62
     5
 63
     7
421
 16777215
 74
     1
 91
       10
 64
     7
 65
   257
 75
     2
175
     1
 42
1.0
 92
        8
 66
   257
 43
1.0
 76
     1
 77
     6
 78
     2
 67
     7
 79
     3
170
     0
171
     0
290
     0
174
     0
 93
        5
 44
0.0
173
     0
291
     0
 45
0.0
  0
VISUALSTYLE
  5
1CA
102
{ACAD_REACTORS
330
1B6
102
}
330
1B6
100
AcDbVisualStyle
  2
Shades of Gray
 70
    23
 71
     2
 72
     2
 73
     3
 90
        0
 40
0.6
 41
30.0
 62
     5
 63
     7
421
 16777215
 74
     2
 91
        2
 64
     7
 65
     7
 75
     1
175
     1
 42
40.0
 92
        8
 66
     7
 43
1.0
 76
     1
 77
     6
 78
     2
 67
     7
 79
     3
170
     0
171
     0
290
     0
174
     0
 93
        1
 44
0.0
173
     0
291
     0
 45
0.0
  0
VISUALSTYLE
  5
1CB
102
{ACAD_REACTORS
330
1B6
102
}
330
1B6
100
AcDbVisualStyle
  2
Sketchy
 70
    24
 71
     1
 72
     2
 73
     2
 90
        0
 40
0.6
 41
30.0
 62
     5
 63
     7
421
 16777215
 74
     2
 91
        2
 64
     7
 65
     7
 75
     1
175
     1
 42
40.0
 92
       11
 66
     7
 43
1.0
 76
     1
 77
     6
 78
     2
 67
     7
 79
     6
170
     0
171
     0
290
     0
174
     0
 93
        1
 44
0.0
173
     0
291
     0
 45
0.0
  0
VISUALSTYLE
  5
1C3
102
{ACAD_REACTORS
330
1B6
102
}
330
1B6
100
AcDbVisualStyle
  2
Thicken
 70
    13
 71
     2
 72
     2
 73
     0
 90
        0
 40
0.6
 41
30.0
 62
     5
 63
     7
421
 16777215
 74
     1
 91
        4
 64
     7
 65
   257
 75
     1
175
     1
 42
1.0
 92
       12
 66
     7
 43
1.0
 76
     1
 77
     6
 78
     2
 67
     7
 79
     5
170
     0
171
     0
290
     0
174
     0
 93
        1
 44
0.0
173
     0
291
     1
 45
0.0
  0
VISUALSTYLE
  5
1BC
102
{ACAD_REACTORS
330
1B6
102
}
330
1B6
100
AcDbVisualStyle
  2
Wireframe
 70
     5
 71
     0
 72
     2
 73
     0
 90
        0
 40
0.6
 41
30.0
 62
     5
 63
     7
421
 16777215
 74
     1
 91
        4
 64
     7
 65
   257
 75
     1
175
     1
 42
1.0
 92
        0
 66
   257
 43
1.0
 76
     1
 77
     6
 78
     2
 67
     7
 79
     3
170
     0
171
     0
290
     0
174
     0
 93
        1
 44
0.0
173
     0
291
     0
 45
0.0
  0
VISUALSTYLE
  5
1CC
102
{ACAD_REACTORS
330
1B6
102
}
330
1B6
100
AcDbVisualStyle
  2
X-Ray
 70
    25
 71
     2
 72
     2
 73
     1
 90
        1
 40
0.5
 41
30.0
 62
     5
 63
     7
421
 16777215
 74
     1
 91
        0
 64
     7
 65
   257
 75
     1
175
     1
 42
1.0
 92
        8
 66
     7
 43
1.0
 76
     1
 77
     6
 78
     2
 67
     7
 79
     3
170
     0
171
     0
290
     0
174
     0
 93
       13
 44
0.0
173
     0
291
     0
 45
0.0
  0
DICTIONARYVAR
  5
1D9
102
{ACAD_REACTORS
330
1D8
102
}
330
1D8
100
DictionaryVariables
280
     0
  1
1:1
  0
DICTIONARYVAR
  5
1DE
102
{ACAD_REACTORS
330
1D8
102
}
330
1D8
100
DictionaryVariables
280
     0
  1
Standard
  0
DICTIONARYVAR
  5
1DA
102
{ACAD_REACTORS
330
1D8
102
}
330
1D8
100
DictionaryVariables
280
     0
  1
0
  0
DICTIONARYVAR
  5
1E0
102
{ACAD_REACTORS
330
1D8
102
}
330
1D8
100
DictionaryVariables
280
     0
  1
0
  0
DICTIONARYVAR
  5
235
102
{ACAD_REACTORS
330
1D8
102
}
330
1D8
100
DictionaryVariables
280
     0
  1
0
  0
DICTIONARY
  5
232
330
1D4
100
AcDbDictionary
280
     1
281
     1
  3
ACAD_ROUNDTRIP_2008_TABLESTYLE_CELLSTYLEMAP
360
233
  0
CELLSTYLEMAP
  5
233
102
{ACAD_REACTORS
330
232
102
}
330
232
100
AcDbCellStyleMap
 90
        3
300
CELLSTYLE
  1
TABLEFORMAT_BEGIN
 90
        5
170
     1
 91
        0
 92
        0
 62
   257
 93
        1
300
CONTENTFORMAT
  1
CONTENTFORMAT_BEGIN
 90
        0
 91
        0
 92
        4
 93
        0
300

 40
0.0
140
1.0
 94
        5
 62
     0
340
17
144
6.0
309
CONTENTFORMAT_END
171
     1
301
MARGIN
  1
CELLMARGIN_BEGIN
 40
1.5
 40
1.5
 40
1.5
 40
1.5
 40
1.5
 40
1.5
309
CELLMARGIN_END
 94
        6
 95
        1
302
GRIDFORMAT
  1
GRIDFORMAT_BEGIN
 90
        0
 91
        1
 62
     0
 92
       -2
340
11
 93
        0
 40
0.045
309
GRIDFORMAT_END
 95
        2
302
GRIDFORMAT
  1
GRIDFORMAT_BEGIN
 90
        0
 91
        1
 62
     0
 92
       -2
340
11
 93
        0
 40
0.045
309
GRIDFORMAT_END
 95
        4
302
GRIDFORMAT
  1
GRIDFORMAT_BEGIN
 90
        0
 91
        1
 62
     0
 92
       -2
340
11
 93
        0
 40
0.045
309
GRIDFORMAT_END
 95
        8
302
GRIDFORMAT
  1
GRIDFORMAT_BEGIN
 90
        0
 91
        1
 62
     0
 92
       -2
340
11
 93
        0
 40
0.045
309
GRIDFORMAT_END
 95
       16
302
GRIDFORMAT
  1
GRIDFORMAT_BEGIN
 90
        0
 91
        1
 62
     0
 92
       -2
340
11
 93
        0
 40
0.045
309
GRIDFORMAT_END
 95
       32
302
GRIDFORMAT
  1
GRIDFORMAT_BEGIN
 90
        0
 91
        1
 62
     0
 92
       -2
340
11
 93
        0
 40
0.045
309
GRIDFORMAT_END
309
TABLEFORMAT_END
  1
CELLSTYLE_BEGIN
 90
        1
 91
        1
300
_TITLE
309
CELLSTYLE_END
300
CELLSTYLE
  1
TABLEFORMAT_BEGIN
 90
        5
170
     1
 91
        0
 92
        0
 62
   257
 93
        1
300
CONTENTFORMAT
  1
CONTENTFORMAT_BEGIN
 90
        0
 91
        0
 92
        4
 93
        0
300

 40
0.0
140
1.0
 94
        5
 62
     0
340
17
144
4.5
309
CONTENTFORMAT_END
171
     1
301
MARGIN
  1
CELLMARGIN_BEGIN
 40
1.5
 40
1.5
 40
1.5
 40
1.5
 40
1.5
 40
1.5
309
CELLMARGIN_END
 94
        6
 95
        1
302
GRIDFORMAT
  1
GRIDFORMAT_BEGIN
 90
        0
 91
        1
 62
     0
 92
       -2
340
11
 93
        0
 40
0.045
309
GRIDFORMAT_END
 95
        2
302
GRIDFORMAT
  1
GRIDFORMAT_BEGIN
 90
        0
 91
        1
 62
     0
 92
       -2
340
11
 93
        0
 40
0.045
309
GRIDFORMAT_END
 95
        4
302
GRIDFORMAT
  1
GRIDFORMAT_BEGIN
 90
        0
 91
        1
 62
     0
 92
       -2
340
11
 93
        0
 40
0.045
309
GRIDFORMAT_END
 95
        8
302
GRIDFORMAT
  1
GRIDFORMAT_BEGIN
 90
        0
 91
        1
 62
     0
 92
       -2
340
11
 93
        0
 40
0.045
309
GRIDFORMAT_END
 95
       16
302
GRIDFORMAT
  1
GRIDFORMAT_BEGIN
 90
        0
 91
        1
 62
     0
 92
       -2
340
11
 93
        0
 40
0.045
309
GRIDFORMAT_END
 95
       32
302
GRIDFORMAT
  1
GRIDFORMAT_BEGIN
 90
        0
 91
        1
 62
     0
 92
       -2
340
11
 93
        0
 40
0.045
309
GRIDFORMAT_END
309
TABLEFORMAT_END
  1
CELLSTYLE_BEGIN
 90
        2
 91
        1
300
_HEADER
309
CELLSTYLE_END
300
CELLSTYLE
  1
TABLEFORMAT_BEGIN
 90
        5
170
     1
 91
        0
 92
        0
 62
   257
 93
        1
300
CONTENTFORMAT
  1
CONTENTFORMAT_BEGIN
 90
        0
 91
        0
 92
        4
 93
        0
300

 40
0.0
140
1.0
 94
        2
 62
     0
340
17
144
4.5
309
CONTENTFORMAT_END
171
     1
301
MARGIN
  1
CELLMARGIN_BEGIN
 40
1.5
 40
1.5
 40
1.5
 40
1.5
 40
1.5
 40
1.5
309
CELLMARGIN_END
 94
        6
 95
        1
302
GRIDFORMAT
  1
GRIDFORMAT_BEGIN
 90
        0
 91
        1
 62
     0
 92
       -2
340
11
 93
        0
 40
0.045
309
GRIDFORMAT_END
 95
        2
302
GRIDFORMAT
  1
GRIDFORMAT_BEGIN
 90
        0
 91
        1
 62
     0
 92
       -2
340
11
 93
        0
 40
0.045
309
GRIDFORMAT_END
 95
        4
302
GRIDFORMAT
  1
GRIDFORMAT_BEGIN
 90
        0
 91
        1
 62
     0
 92
       -2
340
11
 93
        0
 40
0.045
309
GRIDFORMAT_END
 95
        8
302
GRIDFORMAT
  1
GRIDFORMAT_BEGIN
 90
        0
 91
        1
 62
     0
 92
       -2
340
11
 93
        0
 40
0.045
309
GRIDFORMAT_END
 95
       16
302
GRIDFORMAT
  1
GRIDFORMAT_BEGIN
 90
        0
 91
        1
 62
     0
 92
       -2
340
11
 93
        0
 40
0.045
309
GRIDFORMAT_END
 95
       32
302
GRIDFORMAT
  1
GRIDFORMAT_BEGIN
 90
        0
 91
        1
 62
     0
 92
       -2
340
11
 93
        0
 40
0.045
309
GRIDFORMAT_END
309
TABLEFORMAT_END
  1
CELLSTYLE_BEGIN
 90
        3
 91
        2
300
_DATA
309
CELLSTYLE_END
  0
ENDSEC
  0
EOF
