  0
SECTION
  2
HEADER
  9
$ACADVER
  1
AC1021
  9
$ACADMAINTVER
 70
    25
  9
$DWGCODEPAGE
  3
ANSI_932
  9
$LASTSAVEDBY
  1
howeNelson
  9
$INSBASE
 10
0.0
 20
0.0
 30
0.0
  9
$EXTMIN
 10
71.28500597548839
 20
66.05811786924455
 30
0.0
  9
$EXTMAX
 10
2021.285005975971
 20
2899.412643051102
 30
0.0
  9
$LIMMIN
 10
0.0
 20
0.0
  9
$LIMMAX
 10
2100.0
 20
2970.0
  9
$ORTHOMODE
 70
     0
  9
$REGENMODE
 70
     1
  9
$FILLMODE
 70
     1
  9
$QTEXTMODE
 70
     0
  9
$MIRRTEXT
 70
     1
  9
$LTSCALE
 40
50.8
  9
$ATTMODE
 70
     1
  9
$TEXTSIZE
 40
0.0
  9
$TRACEWID
 40
1.0
  9
$TEXTSTYLE
  7
Standard
  9
$CLAYER
  8
notes
  9
$CELTYPE
  6
Continuous
  9
$CECOLOR
 62
   256
  9
$CELTSCALE
 40
1.0
  9
$DISPSILH
 70
     0
  9
$DIMSCALE
 40
1.0
  9
$DIMASZ
 40
31.75
  9
$DIMEXO
 40
0.0
  9
$DIMDLI
 40
6.99999999999994
  9
$DIMRND
 40
0.0
  9
$DIMDLE
 40
0.0
  9
$DIMEXE
 40
19.9999999999962
  9
$DIMTP
 40
0.0
  9
$DIMTM
 40
0.0
  9
$DIMTXT
 40
24.4326171875
  9
$DIMCEN
 40
0.0
  9
$DIMTSZ
 40
0.0
  9
$DIMTOL
 70
     0
  9
$DIMLIM
 70
     0
  9
$DIMTIH
 70
     0
  9
$DIMTOH
 70
     0
  9
$DIMSE1
 70
     0
  9
$DIMSE2
 70
     0
  9
$DIMTAD
 70
     1
  9
$DIMZIN
 70
    11
  9
$DIMBLK
  1
VW_FILLEDARROW
  9
$DIMASO
 70
     1
  9
$DIMSHO
 70
     1
  9
$DIMPOST
  1
<>
  9
$DIMAPOST
  1
[]
  9
$DIMALT
 70
     0
  9
$DIMALTD
 70
     1
  9
$DIMALTF
 40
1.0
  9
$DIMLFAC
 40
1.0
  9
$DIMTOFL
 70
     0
  9
$DIMTVP
 40
0.0
  9
$DIMTIX
 70
     1
  9
$DIMSOXD
 70
     0
  9
$DIMSAH
 70
     0
  9
$DIMBLK1
  1

  9
$DIMBLK2
  1

  9
$DIMSTYLE
  2
JIS
  9
$DIMCLRD
 70
     0
  9
$DIMCLRE
 70
     0
  9
$DIMCLRT
 70
     0
  9
$DIMTFAC
 40
1.0
  9
$DIMGAP
 40
1.00000000000108
  9
$DIMJUST
 70
     0
  9
$DIMSD1
 70
     0
  9
$DIMSD2
 70
     0
  9
$DIMTOLJ
 70
     1
  9
$DIMTZIN
 70
    11
  9
$DIMALTZ
 70
    11
  9
$DIMALTTZ
 70
    11
  9
$DIMUPT
 70
     0
  9
$DIMDEC
 70
     1
  9
$DIMTDEC
 70
     1
  9
$DIMALTU
 70
     2
  9
$DIMALTTD
 70
     2
  9
$DIMTXSTY
  7
ＭＳ ゴシック
  9
$DIMAUNIT
 70
     0
  9
$DIMADEC
 70
     2
  9
$DIMALTRND
 40
0.0
  9
$DIMAZIN
 70
     0
  9
$DIMDSEP
 70
    46
  9
$DIMATFIT
 70
     0
  9
$DIMFRAC
 70
     2
  9
$DIMLDRBLK
  1

  9
$DIMLUNIT
 70
     2
  9
$DIMLWD
 70
    -2
  9
$DIMLWE
 70
    -2
  9
$DIMTMOVE
 70
     0
  9
$DIMFXL
 40
1.0
  9
$DIMFXLON
 70
     0
  9
$DIMJOGANG
 40
0.7853981633974483
  9
$DIMTFILL
 70
     0
  9
$DIMTFILLCLR
 70
     0
  9
$DIMARCSYM
 70
     0
  9
$DIMLTYPE
  6

  9
$DIMLTEX1
  6

  9
$DIMLTEX2
  6

  9
$LUNITS
 70
     2
  9
$LUPREC
 70
     4
  9
$SKETCHINC
 40
0.1
  9
$FILLETRAD
 40
0.0
  9
$AUNITS
 70
     0
  9
$AUPREC
 70
     0
  9
$MENU
  1
acad
  9
$ELEVATION
 40
0.0
  9
$PELEVATION
 40
0.0
  9
$THICKNESS
 40
0.0
  9
$LIMCHECK
 70
     0
  9
$CHAMFERA
 40
0.0
  9
$CHAMFERB
 40
0.0
  9
$CHAMFERC
 40
0.0
  9
$CHAMFERD
 40
0.0
  9
$SKPOLY
 70
     0
  9
$TDCREATE
 40
2447893.375
  9
$TDUCREATE
 40
0.0
  9
$TDUPDATE
 40
2457346.393748275
  9
$TDUUPDATE
 40
2457346.018748275
  9
$TDINDWG
 40
0.008578669
  9
$TDUSRTIMER
 40
2457346.018496366
  9
$USRTIMER
 70
     1
  9
$ANGBASE
 50
0.0
  9
$ANGDIR
 70
     0
  9
$PDMODE
 70
     1
  9
$PDSIZE
 40
-2.0
  9
$PLINEWID
 40
0.0
  9
$SPLFRAME
 70
     0
  9
$SPLINETYPE
 70
     6
  9
$SPLINESEGS
 70
     8
  9
$HANDSEED
  5
33C
  9
$SURFTAB1
 70
     6
  9
$SURFTAB2
 70
     6
  9
$SURFTYPE
 70
     6
  9
$SURFU
 70
     6
  9
$SURFV
 70
     6
  9
$UCSBASE
  2

  9
$UCSNAME
  2

  9
$UCSORG
 10
0.0
 20
0.0
 30
0.0
  9
$UCSXDIR
 10
1.0
 20
0.0
 30
0.0
  9
$UCSYDIR
 10
0.0
 20
1.0
 30
0.0
  9
$UCSORTHOREF
  2

  9
$UCSORTHOVIEW
 70
     0
  9
$UCSORGTOP
 10
0.0
 20
0.0
 30
0.0
  9
$UCSORGBOTTOM
 10
0.0
 20
0.0
 30
0.0
  9
$UCSORGLEFT
 10
0.0
 20
0.0
 30
0.0
  9
$UCSORGRIGHT
 10
0.0
 20
0.0
 30
0.0
  9
$UCSORGFRONT
 10
0.0
 20
0.0
 30
0.0
  9
$UCSORGBACK
 10
0.0
 20
0.0
 30
0.0
  9
$PUCSBASE
  2

  9
$PUCSNAME
  2

  9
$PUCSORG
 10
0.0
 20
0.0
 30
0.0
  9
$PUCSXDIR
 10
1.0
 20
0.0
 30
0.0
  9
$PUCSYDIR
 10
0.0
 20
1.0
 30
0.0
  9
$PUCSORTHOREF
  2

  9
$PUCSORTHOVIEW
 70
     0
  9
$PUCSORGTOP
 10
0.0
 20
0.0
 30
0.0
  9
$PUCSORGBOTTOM
 10
0.0
 20
0.0
 30
0.0
  9
$PUCSORGLEFT
 10
0.0
 20
0.0
 30
0.0
  9
$PUCSORGRIGHT
 10
0.0
 20
0.0
 30
0.0
  9
$PUCSORGFRONT
 10
0.0
 20
0.0
 30
0.0
  9
$PUCSORGBACK
 10
0.0
 20
0.0
 30
0.0
  9
$USERI1
 70
     0
  9
$USERI2
 70
     0
  9
$USERI3
 70
     0
  9
$USERI4
 70
     0
  9
$USERI5
 70
     0
  9
$USERR1
 40
0.0
  9
$USERR2
 40
0.0
  9
$USERR3
 40
0.0
  9
$USERR4
 40
0.0
  9
$USERR5
 40
0.0
  9
$WORLDVIEW
 70
     1
  9
$SHADEDGE
 70
     3
  9
$SHADEDIF
 70
    70
  9
$TILEMODE
 70
     1
  9
$MAXACTVP
 70
    64
  9
$PINSBASE
 10
0.0
 20
0.0
 30
0.0
  9
$PLIMCHECK
 70
     0
  9
$PEXTMIN
 10
1.000000000000000E+20
 20
1.000000000000000E+20
 30
1.000000000000000E+20
  9
$PEXTMAX
 10
-1.000000000000000E+20
 20
-1.000000000000000E+20
 30
-1.000000000000000E+20
  9
$PLIMMIN
 10
-95.87226993865028
 20
-25.69999999999999
  9
$PLIMMAX
 10
201.1277300613497
 20
184.3
  9
$UNITMODE
 70
     0
  9
$VISRETAIN
 70
     0
  9
$PLINEGEN
 70
     1
  9
$PSLTSCALE
 70
     0
  9
$TREEDEPTH
 70
  3020
  9
$CMLSTYLE
  2
Standard
  9
$CMLJUST
 70
     0
  9
$CMLSCALE
 40
1.0
  9
$PROXYGRAPHICS
 70
     0
  9
$MEASUREMENT
 70
     1
  9
$CELWEIGHT
370
     0
  9
$ENDCAPS
280
     0
  9
$JOINSTYLE
280
     0
  9
$LWDISPLAY
290
     1
  9
$INSUNITS
 70
     4
  9
$HYPERLINKBASE
  1

  9
$STYLESHEET
  1

  9
$XEDIT
290
     1
  9
$CEPSNTYPE
380
     0
  9
$PSTYLEMODE
290
     1
  9
$FINGERPRINTGUID
  2

  9
$VERSIONGUID
  2

  9
$EXTNAMES
290
     1
  9
$PSVPSCALE
 40
0.0
  9
$OLESTARTUP
290
     0
  9
$SORTENTS
280
   127
  9
$INDEXCTL
280
     0
  9
$HIDETEXT
280
     1
  9
$XCLIPFRAME
290
     0
  9
$HALOGAP
280
     0
  9
$OBSCOLOR
 70
   257
  9
$OBSLTYPE
280
     0
  9
$INTERSECTIONDISPLAY
280
     0
  9
$INTERSECTIONCOLOR
 70
   257
  9
$DIMASSOC
280
     2
  9
$PROJECTNAME
  1

  9
$CAMERADISPLAY
290
     0
  9
$LENSLENGTH
 40
50.0
  9
$CAMERAHEIGHT
 40
0.0
  9
$STEPSPERSEC
 40
2.0
  9
$STEPSIZE
 40
6.0
  9
$3DDWFPREC
 40
2.0
  9
$PSOLWIDTH
 40
0.25
  9
$PSOLHEIGHT
 40
4.0
  9
$LOFTANG1
 40
1.570796326794897
  9
$LOFTANG2
 40
1.570796326794897
  9
$LOFTMAG1
 40
0.0
  9
$LOFTMAG2
 40
0.0
  9
$LOFTPARAM
 70
     7
  9
$LOFTNORMALS
280
     1
  9
$LATITUDE
 40
37.795
  9
$LONGITUDE
 40
-122.394
  9
$NORTHDIRECTION
 40
0.0
  9
$TIMEZONE
 70
 -8000
  9
$LIGHTGLYPHDISPLAY
280
     1
  9
$TILEMODELIGHTSYNCH
280
     1
  9
$SOLIDHIST
280
     1
  9
$SHOWHIST
280
     1
  9
$DWFFRAME
280
     2
  9
$DGNFRAME
280
     2
  9
$REALWORLDSCALE
290
     1
  9
$INTERFERECOLOR
 62
   256
  9
$CSHADOW
280
     0
  9
$SHADOWPLANELOCATION
 40
0.0
  0
ENDSEC
  0
SECTION
  2
CLASSES
  0
CLASS
  1
LWPOLYLINE
  2
AcDbPolyline
  3
ObjectDBX Classes
 90
        0
 91
        1
280
     0
281
     1
  0
CLASS
  1
IMAGE
  2
AcDbRasterImage
  3
ISM
 90
      127
 91
        5
280
     0
281
     1
  0
CLASS
  1
OLE2FRAME
  2
AcDbOle2Frame
  3
ObjectDBX Classes
 90
        0
 91
        1
280
     0
281
     1
  0
CLASS
  1
HATCH
  2
AcDbHatch
  3
ObjectDBX Classes
 90
        0
 91
        1
280
     0
281
     1
  0
CLASS
  1
DICTIONARYVAR
  2
AcDbDictionaryVar
  3
ObjectDBX Classes
 90
        0
 91
        4
280
     0
281
     0
  0
CLASS
  1
RASTERVARIABLES
  2
AcDbRasterVariables
  3
ISM
 90
        0
 91
        5
280
     0
281
     0
  0
CLASS
  1
IMAGEDEF
  2
AcDbRasterImageDef
  3
ISM
 90
        0
 91
        4
280
     0
281
     0
  0
CLASS
  1
IMAGEDEF_REACTOR
  2
AcDbRasterImageDefReactor
  3
ISM
 90
        1
 91
        4
280
     0
281
     0
  0
CLASS
  1
IDBUFFER
  2
AcDbIdBuffer
  3
ObjectDBX Classes
 90
        0
 91
        4
280
     0
281
     0
  0
CLASS
  1
SPATIAL_FILTER
  2
AcDbSpatialFilter
  3
ObjectDBX Classes
 90
        0
 91
        4
280
     0
281
     0
  0
CLASS
  1
XRECORD
  2
AcDbXrecord
  3
ObjectDBX Classes
 90
        0
 91
        1
280
     0
281
     0
  0
CLASS
  1
SORTENTSTABLE
  2
AcDbSortentsTable
  3
ObjectDBX Classes
 90
        0
 91
        4
280
     0
281
     0
  0
CLASS
  1
LAYER_INDEX
  2
AcDbLayerIndex
  3
ObjectDBX Classes
 90
        0
 91
        4
280
     0
281
     0
  0
CLASS
  1
SPATIAL_INDEX
  2
AcDbSpatialIndex
  3
AutoCAD 2000
 90
        0
 91
        4
280
     0
281
     0
  0
CLASS
  1
OBJECT_PTR
  2
CAseDLPNTableRecord
  3
ASE-LPNTableRecord
 90
        1
 91
        4
280
     0
281
     0
  0
CLASS
  1
LAYOUT
  2
AcDbLayout
  3
ObjectDBX Classes
 90
        0
 91
        1
280
     0
281
     0
  0
CLASS
  1
PLOTSETTINGS
  2
AcDbPlotSettings
  3
ObjectDBX Classes
 90
        0
 91
        4
280
     0
281
     0
  0
CLASS
  1
ACDBDICTIONARYWDFLT
  2
AcDbDictionaryWithDefault
  3
ObjectDBX Classes
 90
        0
 91
        5
280
     0
281
     0
  0
CLASS
  1
ACDBPLACEHOLDER
  2
AcDbPlaceHolder
  3
ObjectDBX Classes
 90
        0
 91
        1
280
     0
281
     0
  0
CLASS
  1
SCALE
  2
AcDbScale
  3
ObjectDBX Classes
 90
     1153
 91
        5
280
     0
281
     0
  0
CLASS
  1
VISUALSTYLE
  2
AcDbVisualStyle
  3
ObjectDBX Classes
 90
     4095
 91
        5
280
     0
281
     0
  0
CLASS
  1
MATERIAL
  2
AcDbMaterial
  3
ObjectDBX Classes
 90
     1153
 91
        5
280
     0
281
     0
  0
CLASS
  1
TABLESTYLE
  2
AcDbTableStyle
  3
ObjectDBX Classes
 90
     4095
 91
        5
280
     0
281
     0
  0
CLASS
  1
SUN
  2
AcDbSun
  3
SCENEOE
 90
     1153
 91
        5
280
     0
281
     0
  0
CLASS
  1
CELLSTYLEMAP
  2
AcDbCellStyleMap
  3
ObjectDBX Classes
 90
     1152
 91
        4
280
     0
281
     0
  0
ENDSEC
  0
SECTION
  2
TABLES
  0
TABLE
  2
VPORT
  5
7
330
0
100
AcDbSymbolTable
 70
     1
  0
VPORT
  5
15
330
7
100
AcDbSymbolTableRecord
100
AcDbViewportTableRecord
  2
*ACTIVE
 70
     0
 10
0.0
 20
0.0
 11
1.0
 21
1.0
 12
1046.28500597573
 22
1482.735380460173
 13
0.0
 23
0.0
 14
1.0
 24
1.0
 15
0.0
 25
0.0
 16
0.0
 26
0.0
 36
1.0
 17
0.0
 27
0.0
 37
0.0
 40
2890.021615685495
 41
1.187579214195184
 42
50.0
 43
0.0
 44
0.0
 50
0.0
 51
0.0
 71
    16
 72
  2000
 73
     1
 74
     1
 75
     0
 76
     0
 77
     0
 78
     0
281
     0
 65
     0
110
0.0
120
0.0
130
0.0
111
1.0
121
0.0
131
0.0
112
0.0
122
1.0
132
0.0
 79
     0
146
0.0
348
27D
 60
     3
 61
     5
292
     1
282
     1
141
0.0
142
0.0
 63
   250
361
298
  0
ENDTAB
  0
TABLE
  2
LTYPE
  5
4
330
0
100
AcDbSymbolTable
 70
    14
  0
LTYPE
  5
11
330
4
100
AcDbSymbolTableRecord
100
AcDbLinetypeTableRecord
  2
ByBlock
 70
     0
  3

 72
    65
 73
     0
 40
0.0
  0
LTYPE
  5
12
330
4
100
AcDbSymbolTableRecord
100
AcDbLinetypeTableRecord
  2
ByLayer
 70
     0
  3

 72
    65
 73
     0
 40
0.0
  0
LTYPE
  5
13
330
4
100
AcDbSymbolTableRecord
100
AcDbLinetypeTableRecord
  2
Continuous
 70
     0
  3
Solid line
 72
    65
 73
     0
 40
0.0
  0
LTYPE
  5
3D
330
4
100
AcDbSymbolTableRecord
100
AcDbLinetypeTableRecord
  2
STYLE_01
 70
     0
  3

 72
    65
 73
     2
 40
0.3690944881889764
 49
0.2460629921259843
 74
     0
 49
-0.1230314960629922
 74
     0
  0
LTYPE
  5
3E
330
4
100
AcDbSymbolTableRecord
100
AcDbLinetypeTableRecord
  2
STYLE_02
 70
     0
  3

 72
    65
 73
     2
 40
0.6944250000000001
 49
0.48607
 74
     0
 49
-0.2083550000000001
 74
     0
  0
LTYPE
  5
3F
330
4
100
AcDbSymbolTableRecord
100
AcDbLinetypeTableRecord
  2
STYLE_03
 70
     0
  3

 72
    65
 73
     2
 40
1.25
 49
1.04164
 74
     0
 49
-0.2083599999999999
 74
     0
  0
LTYPE
  5
40
330
4
100
AcDbSymbolTableRecord
100
AcDbLinetypeTableRecord
  2
STYLE_04
 70
     0
  3

 72
    65
 73
     2
 40
1.52771
 49
1.319425
 74
     0
 49
-0.208285
 74
     0
  0
LTYPE
  5
41
330
4
100
AcDbSymbolTableRecord
100
AcDbLinetypeTableRecord
  2
STYLE_05
 70
     0
  3

 72
    65
 73
     2
 40
0.20828
 49
0.069425
 74
     0
 49
-0.138855
 74
     0
  0
LTYPE
  5
42
330
4
100
AcDbSymbolTableRecord
100
AcDbLinetypeTableRecord
  2
STYLE_06
 70
     0
  3

 72
    65
 73
     4
 40
1.04164
 49
0.625
 74
     0
 49
-0.20828
 74
     0
 49
0.06943
 74
     0
 49
-0.13893
 74
     0
  0
LTYPE
  5
43
330
4
100
AcDbSymbolTableRecord
100
AcDbLinetypeTableRecord
  2
STYLE_07
 70
     0
  3

 72
    65
 73
     6
 40
1.875
 49
0.625
 74
     0
 49
-0.20828
 74
     0
 49
0.6250000000000001
 74
     0
 49
-0.2083599999999999
 74
     0
 49
0.06943
 74
     0
 49
-0.1389299999999999
 74
     0
  0
LTYPE
  5
44
330
4
100
AcDbSymbolTableRecord
100
AcDbLinetypeTableRecord
  2
STYLE_08
 70
     0
  3

 72
    65
 73
     6
 40
1.25
 49
0.625
 74
     0
 49
-0.20828
 74
     0
 49
0.06943
 74
     0
 49
-0.13893
 74
     0
 49
0.0694299999999999
 74
     0
 49
-0.13893
 74
     0
  0
LTYPE
  5
45
330
4
100
AcDbSymbolTableRecord
100
AcDbLinetypeTableRecord
  2
STYLE_09
 70
     0
  3

 72
    65
 73
     4
 40
5.0
 49
3.75
 74
     0
 49
-0.2777849999999998
 74
     0
 49
0.6944300000000003
 74
     0
 49
-0.2777849999999998
 74
     0
  0
LTYPE
  5
46
330
4
100
AcDbSymbolTableRecord
100
AcDbLinetypeTableRecord
  2
STYLE_10
 70
     0
  3

 72
    65
 73
     6
 40
5.9375
 49
3.75
 74
     0
 49
-0.2777849999999998
 74
     0
 49
0.6944300000000003
 74
     0
 49
-0.2777849999999998
 74
     0
 49
0.625
 74
     0
 49
-0.3125
 74
     0
  0
LTYPE
  5
47
330
4
100
AcDbSymbolTableRecord
100
AcDbLinetypeTableRecord
  2
STYLE_11
 70
     0
  3

 72
    65
 73
     2
 40
0.516732283464567
 49
0.344488188976378
 74
     0
 49
-0.172244094488189
 74
     0
  0
LTYPE
  5
48
330
4
100
AcDbSymbolTableRecord
100
AcDbLinetypeTableRecord
  2
STYLE_12
 70
     0
  3

 72
    65
 73
     2
 40
0.0694444881889764
 49
0.0347222440944882
 74
     0
 49
-0.0347222440944882
 74
     0
  0
LTYPE
  5
49
330
4
100
AcDbSymbolTableRecord
100
AcDbLinetypeTableRecord
  2
STYLE_13
 70
     0
  3

 72
    65
 73
     2
 40
0.3937007874015748
 49
0.1968503937007874
 74
     0
 49
-0.1968503937007874
 74
     0
  0
ENDTAB
  0
TABLE
  2
LAYER
  5
2
102
{ACAD_XDICTIONARY
360
2A5
102
}
330
0
100
AcDbSymbolTable
 70
     5
  0
LAYER
  5
14
330
2
100
AcDbSymbolTableRecord
100
AcDbLayerTableRecord
  2
0
 70
     0
 62
     7
  6
Continuous
370
    -3
390
1D
347
294
  0
LAYER
  5
4A
330
2
100
AcDbSymbolTableRecord
100
AcDbLayerTableRecord
  2
Defpoints
 70
     0
 62
     7
  6
Continuous
290
     0
370
    -3
390
1D
347
294
  0
LAYER
  5
4B
330
2
100
AcDbSymbolTableRecord
100
AcDbLayerTableRecord
  2
template
 70
     0
 62
     7
  6
Continuous
370
    20
390
1D
347
294
  0
LAYER
  5
4C
330
2
100
AcDbSymbolTableRecord
100
AcDbLayerTableRecord
  2
notes
 70
     0
 62
     7
  6
Continuous
370
    13
390
1D
347
294
  0
LAYER
  5
4D
330
2
100
AcDbSymbolTableRecord
100
AcDbLayerTableRecord
  2
ADF70-0010
 70
     0
 62
     7
  6
Continuous
370
    20
390
1D
347
294
  0
ENDTAB
  0
TABLE
  2
STYLE
  5
3
330
0
100
AcDbSymbolTable
 70
     2
  0
STYLE
  5
17
330
3
100
AcDbSymbolTableRecord
100
AcDbTextStyleTableRecord
  2
Standard
 70
     0
 40
0.0
 41
1.0
 50
0.0
 71
     0
 42
0.0
  3
txt
  4
BIGFONT.SHX
  0
STYLE
  5
3C
330
3
100
AcDbSymbolTableRecord
100
AcDbTextStyleTableRecord
  2
ＭＳ ゴシック
 70
     0
 40
0.0
 41
1.0
 50
0.0
 71
     0
 42
0.0
  3
msgothic.ttc
  4
ＭＳ ゴシック
1001
ACAD
1000
ＭＳ ゴシック
1071
        0
  0
ENDTAB
  0
TABLE
  2
VIEW
  5
5
330
0
100
AcDbSymbolTable
 70
     0
  0
ENDTAB
  0
TABLE
  2
UCS
  5
6
330
0
100
AcDbSymbolTable
 70
     0
  0
ENDTAB
  0
TABLE
  2
APPID
  5
8
330
0
100
AcDbSymbolTable
 70
     1
  0
APPID
  5
16
330
8
100
AcDbSymbolTableRecord
100
AcDbRegAppTableRecord
  2
ACAD
 70
     0
  0
ENDTAB
  0
TABLE
  2
DIMSTYLE
  5
9
330
0
100
AcDbSymbolTable
 70
     4
100
AcDbDimStyleTable
  0
DIMSTYLE
105
18
330
9
100
AcDbSymbolTableRecord
100
AcDbDimStyleTableRecord
  2
Standard
 70
     0
178
     0
340
17
  0
DIMSTYLE
105
56
330
9
100
AcDbSymbolTableRecord
100
AcDbDimStyleTableRecord
  2
tfrom線あり
 70
     0
  3
<>
  4
[]
 41
9.999389648437498
 42
25.0
 43
0.9999999999999999
 44
0.0
 73
     0
 74
     0
 77
     1
 78
    11
140
24.4326171875
141
0.0
143
1.0
147
0.4999999999999999
171
     1
174
     1
178
     0
179
     2
271
     1
272
     1
276
     2
284
    11
285
    11
286
    11
289
     0
340
3C
341
4E
342
4E
  0
DIMSTYLE
105
57
330
9
100
AcDbSymbolTableRecord
100
AcDbDimStyleTableRecord
  2
tform線あり
 70
     0
  3
<>
  4
[]
 41
9.999389648437498
 42
25.0
 43
0.9999999999999999
 44
0.0
 73
     0
 74
     0
 77
     1
 78
    11
140
24.4326171875
141
0.0
143
1.0
147
0.4999999999999999
171
     1
174
     1
178
     0
179
     2
271
     1
272
     1
276
     2
284
    11
285
    11
286
    11
289
     0
340
3C
341
4E
342
4E
  0
DIMSTYLE
105
5C
330
9
100
AcDbSymbolTableRecord
100
AcDbDimStyleTableRecord
  2
JIS
 70
     0
  3
<>
  4
[]
 41
31.75
 42
0.0
 43
6.99999999999994
 44
19.9999999999962
 73
     0
 74
     0
 77
     1
 78
    11
140
24.4326171875
141
0.0
143
1.0
147
1.00000000000108
171
     1
174
     1
178
     0
179
     2
271
     1
272
     1
276
     2
284
    11
285
    11
286
    11
289
     0
340
3C
341
58
342
58
  0
ENDTAB
  0
TABLE
  2
BLOCK_RECORD
  5
1
330
0
100
AcDbSymbolTable
 70
    31
  0
BLOCK_RECORD
  5
A
330
1
100
AcDbSymbolTableRecord
100
AcDbBlockTableRecord
  2
*MODEL_SPACE
340
20
 70
     0
280
     1
281
     0
  0
BLOCK_RECORD
  5
B
330
1
100
AcDbSymbolTableRecord
100
AcDbBlockTableRecord
  2
*PAPER_SPACE
340
21
 70
     0
280
     1
281
     0
  0
BLOCK_RECORD
  5
4E
330
1
100
AcDbSymbolTableRecord
100
AcDbBlockTableRecord
  2
_DOT
340
0
102
{BLKREFS
331
69
331
6A
331
76
331
77
331
90
331
91
331
9D
331
9E
331
AA
331
AB
331
B7
331
B8
331
C4
331
C5
331
D1
331
D2
331
DE
331
DF
331
EB
331
EC
331
F8
331
F9
331
105
331
106
331
112
331
113
331
11F
331
120
331
12C
331
12D
331
154
331
155
331
161
331
162
331
16E
331
16F
331
17B
331
17C
331
196
331
197
331
2E4
331
2E5
331
2F1
331
2F2
331
2FE
331
2FF
331
30A
331
30B
102
}
 70
     0
280
     1
281
     0
  0
BLOCK_RECORD
  5
58
330
1
100
AcDbSymbolTableRecord
100
AcDbBlockTableRecord
  2
VW_FILLEDARROW
340
0
 70
     0
280
     1
281
     0
  0
BLOCK_RECORD
  5
23
330
1
100
AcDbSymbolTableRecord
100
AcDbBlockTableRecord
  2
グループ
340
0
102
{BLKREFS
331
1A8
102
}
 70
     0
280
     1
281
     0
  0
BLOCK_RECORD
  5
24
330
1
100
AcDbSymbolTableRecord
100
AcDbBlockTableRecord
  2
*D3
340
0
 70
     0
280
     1
281
     0
  0
BLOCK_RECORD
  5
25
330
1
100
AcDbSymbolTableRecord
100
AcDbBlockTableRecord
  2
*D4
340
0
 70
     0
280
     1
281
     0
  0
BLOCK_RECORD
  5
26
330
1
100
AcDbSymbolTableRecord
100
AcDbBlockTableRecord
  2
*D5
340
0
 70
     0
280
     1
281
     0
  0
BLOCK_RECORD
  5
27
330
1
100
AcDbSymbolTableRecord
100
AcDbBlockTableRecord
  2
*D6
340
0
 70
     0
280
     1
281
     0
  0
BLOCK_RECORD
  5
28
330
1
100
AcDbSymbolTableRecord
100
AcDbBlockTableRecord
  2
*D7
340
0
 70
     0
280
     1
281
     0
  0
BLOCK_RECORD
  5
29
330
1
100
AcDbSymbolTableRecord
100
AcDbBlockTableRecord
  2
*D8
340
0
 70
     0
280
     1
281
     0
  0
BLOCK_RECORD
  5
2A
330
1
100
AcDbSymbolTableRecord
100
AcDbBlockTableRecord
  2
*D9
340
0
 70
     0
280
     1
281
     0
  0
BLOCK_RECORD
  5
2B
330
1
100
AcDbSymbolTableRecord
100
AcDbBlockTableRecord
  2
*D10
340
0
 70
     0
280
     1
281
     0
  0
BLOCK_RECORD
  5
2C
330
1
100
AcDbSymbolTableRecord
100
AcDbBlockTableRecord
  2
*D11
340
0
 70
     0
280
     1
281
     0
  0
BLOCK_RECORD
  5
2D
330
1
100
AcDbSymbolTableRecord
100
AcDbBlockTableRecord
  2
*D12
340
0
 70
     0
280
     1
281
     0
  0
BLOCK_RECORD
  5
2E
330
1
100
AcDbSymbolTableRecord
100
AcDbBlockTableRecord
  2
*D13
340
0
 70
     0
280
     1
281
     0
  0
BLOCK_RECORD
  5
2F
330
1
100
AcDbSymbolTableRecord
100
AcDbBlockTableRecord
  2
*D14
340
0
 70
     0
280
     1
281
     0
  0
BLOCK_RECORD
  5
30
330
1
100
AcDbSymbolTableRecord
100
AcDbBlockTableRecord
  2
*D15
340
0
 70
     0
280
     1
281
     0
  0
BLOCK_RECORD
  5
31
330
1
100
AcDbSymbolTableRecord
100
AcDbBlockTableRecord
  2
*D16
340
0
 70
     0
280
     1
281
     0
  0
BLOCK_RECORD
  5
32
330
1
100
AcDbSymbolTableRecord
100
AcDbBlockTableRecord
  2
*D17
340
0
 70
     0
280
     1
281
     0
  0
BLOCK_RECORD
  5
33
330
1
100
AcDbSymbolTableRecord
100
AcDbBlockTableRecord
  2
*D18
340
0
 70
     0
280
     1
281
     0
  0
BLOCK_RECORD
  5
34
330
1
100
AcDbSymbolTableRecord
100
AcDbBlockTableRecord
  2
*D19
340
0
 70
     0
280
     1
281
     0
  0
BLOCK_RECORD
  5
35
330
1
100
AcDbSymbolTableRecord
100
AcDbBlockTableRecord
  2
*D20
340
0
 70
     0
280
     1
281
     0
  0
BLOCK_RECORD
  5
36
330
1
100
AcDbSymbolTableRecord
100
AcDbBlockTableRecord
  2
*D21
340
0
 70
     0
280
     1
281
     0
  0
BLOCK_RECORD
  5
37
330
1
100
AcDbSymbolTableRecord
100
AcDbBlockTableRecord
  2
*D22
340
0
 70
     0
280
     1
281
     0
  0
BLOCK_RECORD
  5
38
330
1
100
AcDbSymbolTableRecord
100
AcDbBlockTableRecord
  2
*D23
340
0
 70
     0
280
     1
281
     0
  0
BLOCK_RECORD
  5
39
330
1
100
AcDbSymbolTableRecord
100
AcDbBlockTableRecord
  2
*D24
340
0
 70
     0
280
     1
281
     0
  0
BLOCK_RECORD
  5
3A
330
1
100
AcDbSymbolTableRecord
100
AcDbBlockTableRecord
  2
*D25
340
0
 70
     0
280
     1
281
     0
  0
BLOCK_RECORD
  5
3B
330
1
100
AcDbSymbolTableRecord
100
AcDbBlockTableRecord
  2
*D26
340
0
 70
     0
280
     1
281
     0
  0
BLOCK_RECORD
  5
2DE
330
1
100
AcDbSymbolTableRecord
100
AcDbBlockTableRecord
  2
*D27
340
0
 70
     0
280
     1
281
     0
  0
BLOCK_RECORD
  5
2EB
330
1
100
AcDbSymbolTableRecord
100
AcDbBlockTableRecord
  2
*D28
340
0
 70
     0
280
     1
281
     0
  0
BLOCK_RECORD
  5
2F7
330
1
100
AcDbSymbolTableRecord
100
AcDbBlockTableRecord
  2
*D29
340
0
 70
     0
280
     1
281
     0
  0
BLOCK_RECORD
  5
304
330
1
100
AcDbSymbolTableRecord
100
AcDbBlockTableRecord
  2
*D30
340
0
 70
     0
280
     1
281
     0
  0
ENDTAB
  0
ENDSEC
  0
SECTION
  2
BLOCKS
  0
BLOCK
  5
D
330
A
100
AcDbEntity
  8
0
390
1D
100
AcDbBlockBegin
  2
*MODEL_SPACE
 70
     0
 10
0.0
 20
0.0
 30
0.0
  3
*MODEL_SPACE
  1
*MODEL_SPACE
  0
ENDBLK
  5
E
330
A
100
AcDbEntity
  8
0
390
1D
100
AcDbBlockEnd
  0
BLOCK
  5
F
330
B
100
AcDbEntity
 67
     1
  8
0
390
1D
100
AcDbBlockBegin
  2
*PAPER_SPACE
 70
     0
 10
0.0
 20
0.0
 30
0.0
  3
*PAPER_SPACE
  1
*PAPER_SPACE
  0
ENDBLK
  5
10
330
B
100
AcDbEntity
 67
     1
  8
0
390
1D
100
AcDbBlockEnd
  0
BLOCK
  5
4F
330
4E
100
AcDbEntity
  8
0
390
1D
100
AcDbBlockBegin
  2
_DOT
 70
     0
 10
0.0
 20
0.0
 30
0.0
  3
_DOT
  1
_DOT
  0
POLYLINE
  5
50
330
4E
100
AcDbEntity
  8
0
  6
ByBlock
 62
     0
370
    -2
390
1D
100
AcDb2dPolyline
 66
     1
 10
0.0
 20
0.0
 30
0.0
 70
     1
 40
0.5
 41
0.5
  0
VERTEX
  5
51
330
50
100
AcDbEntity
  8
0
  6
ByBlock
 62
     0
370
    -2
390
1D
100
AcDbVertex
100
AcDb2dVertex
 10
-0.25
 20
0.0
 30
0.0
 42
1.0
  0
VERTEX
  5
52
330
50
100
AcDbEntity
  8
0
  6
ByBlock
 62
     0
370
    -2
390
1D
100
AcDbVertex
100
AcDb2dVertex
 10
0.25
 20
0.0
 30
0.0
 42
1.0
  0
SEQEND
  5
53
330
50
100
AcDbEntity
  8
0
390
1D
  0
LINE
  5
54
330
4E
100
AcDbEntity
  8
0
  6
ByBlock
 62
     0
370
    -2
390
1D
100
AcDbLine
 10
-0.5
 20
0.0
 30
0.0
 11
-1.0
 21
0.0
 31
0.0
  0
ENDBLK
  5
55
330
4E
100
AcDbEntity
  8
0
390
1D
100
AcDbBlockEnd
  0
BLOCK
  5
59
330
58
100
AcDbEntity
  8
0
  6
ByBlock
 62
     0
370
    -2
390
1D
100
AcDbBlockBegin
  2
VW_FILLEDARROW
 70
     0
 10
0.0
 20
0.0
 30
0.0
  3
VW_FILLEDARROW
  1
VW_FILLEDARROW
  0
SOLID
  5
5A
330
58
100
AcDbEntity
  8
0
 62
     0
370
    -2
390
1D
100
AcDbTrace
 10
0.0
 20
0.0
 30
0.0
 11
-0.9921874999999999
 21
-0.2658558393652545
 31
0.0
 12
-0.9921874999999999
 22
0.2658558393652548
 32
0.0
 13
-0.9921874999999999
 23
0.2658558393652548
 33
0.0
  0
ENDBLK
  5
5B
330
58
100
AcDbEntity
  8
0
390
1D
100
AcDbBlockEnd
  0
BLOCK
  5
5D
330
23
100
AcDbEntity
  8
template
390
1D
100
AcDbBlockBegin
  2
グループ
 70
     0
 10
0.0
 20
0.0
 30
0.0
  3
グループ
  1
グループ
  0
LWPOLYLINE
  5
5E
330
23
100
AcDbEntity
  8
0
  6
Continuous
 62
     7
370
    15
390
1D
100
AcDbPolyline
 90
        8
 70
   129
 43
0.0
 10
71.96803804998433
 20
-3308.205584786163
 10
71.96803804998433
 20
-3314.202973479739
 10
62.46684113198103
 20
-3314.202973479739
 10
62.46684113198103
 20
-3338.653936743247
 10
54.11146387019824
 20
-3338.653936743247
 10
54.11146387019824
 20
-3314.202973479739
 10
44.77850692388881
 20
-3314.202973479739
 10
44.77850692388881
 20
-3308.205584786163
  0
LWPOLYLINE
  5
5F
330
23
100
AcDbEntity
  8
0
  6
Continuous
 62
     7
370
    15
390
1D
100
AcDbPolyline
 90
      101
 70
   128
 43
0.0
 10
84.69632988054127
 20
-3308.933833279099
 10
84.7116799093255
 20
-3308.929472522414
 42
-0.0222221607819908
 10
85.00168448599737
 20
-3308.860848057169
 10
85.01747824997882
 20
-3308.857844634075
 42
-0.0146883565601918
 10
85.28018095521514
 20
-3308.815841447123
 42
-0.0127458844177579
 10
85.5448199223705
 20
-3308.788304479051
 10
85.60727500068094
 20
-3308.783411056463
 42
-0.0198099018566287
 10
85.99812411015358
 20
-3308.768325899066
 10
86.0499355796016
 20
-3308.768379674731
 42
-0.0147617382757417
 10
86.54455904058877
 20
-3308.783499699976
 10
86.61725049546213
 20
-3308.787872306864
 42
-0.0162624548998215
 10
87.0074041249153
 20
-3308.824105182136
 10
87.12893651618155
 20
-3308.839391741134
 42
-0.0080020874669632
 10
87.27451554726605
 20
-3308.8600745884
 10
87.31283501786663
 20
-3308.866145866212
 42
-0.0053821929647424
 10
87.3813191231759
 20
-3308.877753390033
 10
86.65491342397729
 20
-3311.058681845747
 42
0.0108667757382787
 10
86.58759635384557
 20
-3311.045494730527
 10
86.55012833065695
 20
-3311.038996987933
 42
0.0170663203308501
 10
86.40691154373154
 20
-3311.01916739064
 10
86.33903621105844
 20
-3311.012120220053
 42
0.0220162375268886
 10
86.05865680320248
 20
-3310.995437859283
 10
85.98080123614865
 20
-3310.994238492017
 42
0.028260691578293
 10
85.64516491257314
 20
-3311.008041768986
 10
85.60125163880545
 20
-3311.012341758989
 42
0.0169677213686219
 10
85.35532714384186
 20
-3311.044878808541
 42
0.0190576269853983
 10
85.11241918126888
 20
-3311.095025680646
 10
85.10615999315098
 20
-3311.096568654757
 42
0.0213685642851737
 10
84.85577550866599
 20
-3311.169768939865
 10
84.85028561375702
 20
-3311.171631935921
 42
0.0237595297578416
 10
84.5967907288645
 20
-3311.271316457814
 10
84.59168865482866
 20
-3311.273608233295
 42
0.026185746881351
 10
84.33951787860067
 20
-3311.403144570669
 10
84.32909168951056
 20
-3311.409210045139
 42
0.0272553062018539
 10
84.09266191427326
 20
-3311.564582251082
 10
84.05789890076232
 20
-3311.590243399176
 42
0.0325996893175426
 10
83.90774355711227
 20
-3311.716991272146
 10
83.88403412799101
 20
-3311.739809300657
 42
0.0138050960640201
 10
83.79215097177905
 20
-3311.83325896221
 42
0.0125280103816171
 10
83.70530843895004
 20
-3311.931422288805
 10
83.68162799403717
 20
-3311.959580786998
 42
0.0205218024725779
 10
83.55652791852313
 20
-3312.121374101228
 10
83.53406157803636
 20
-3312.153033831054
 42
0.0163110129584239
 10
83.3783511987839
 20
-3312.388364266126
 10
83.37562730273407
 20
-3312.392788028109
 42
0.0131897341888791
 10
83.22882678182664
 20
-3312.645920120476
 10
83.2271266864617
 20
-3312.649038359609
 42
0.0107895576067161
 10
83.08934998425293
 20
-3312.91525356924
 10
83.08861709472586
 20
-3312.916747801891
 42
0.0091371507220455
 10
82.96013714607616
 20
-3313.191272999651
 10
82.93039151466718
 20
-3313.25797950681
 42
0.0135418326350919
 10
82.75867757559529
 20
-3313.672917292079
 10
82.72507276716053
 20
-3313.760783434361
 42
0.0092834542413855
 10
82.55384370724033
 20
-3314.234681932665
 10
82.52822657952224
 20
-3314.30992300246
 42
0.0054261043583935
 10
82.42058843122976
 20
-3314.637686975523
 10
82.40306244502246
 20
-3314.693075137848
 42
0.0008225090819967
 10
82.33439239322229
 20
-3314.911343895903
 10
81.34970326128882
 20
-3317.936235189159
 10
84.5823271013627
 20
-3317.936235189159
 10
84.07813467150925
 20
-3319.840713487511
 10
80.82207838952593
 20
-3319.840713487511
 10
74.9929293571721
 20
-3338.653936553516
 10
73.1678317468618
 20
-3338.653936553516
 10
79.00250978236272
 20
-3319.840713487511
 10
76.59739341332238
 20
-3319.840713487511
 10
77.10158584317583
 20
-3317.936235189159
 10
79.53013465412585
 20
-3317.936235189159
 10
80.39028957231449
 20
-3315.29982218846
 42
-0.0005863560652037
 10
80.4270242504987
 20
-3315.18299576823
 10
80.50311208417838
 20
-3314.942003468783
 42
-0.008752237892421
 10
80.7025802276358
 20
-3314.346727381635
 10
80.79484450304886
 20
-3314.086587213123
 42
-0.0077400953826267
 10
81.05277816217983
 20
-3313.393582535576
 10
81.06854313375905
 20
-3313.353151652189
 42
-0.008236994633045
 10
81.31562760437066
 20
-3312.749072585993
 42
-0.0085725238363719
 10
81.58287370037297
 20
-3312.153646546707
 10
81.68450330138216
 20
-3311.937225444719
 42
-0.0168109410596755
 10
81.97144773011092
 20
-3311.376017918617
 10
82.0972911205796
 20
-3311.149053885602
 42
-0.0007817726862553
 10
82.1515754706266
 20
-3311.051509640589
 10
82.1517037766364
 20
-3311.051279931866
 42
-0.0036626142163243
 10
82.20659164066512
 20
-3310.954682051884
 42
-0.0080221150672654
 10
82.26371589606997
 20
-3310.859402817134
 10
82.29441584743302
 20
-3310.810011868009
 42
-0.020213932557417
 10
82.4220715872405
 20
-3310.622030267326
 10
82.47613905242736
 20
-3310.548951403086
 42
-0.024932379179852
 10
82.73530184614785
 20
-3310.23290616093
 10
82.75944166027352
 20
-3310.206291888019
 42
-0.0242132121542667
 10
83.09912240181136
 20
-3309.866408401819
 10
83.14703397456628
 20
-3309.822899265629
 42
-0.0251017527866812
 10
83.43101567520688
 20
-3309.589906519865
 10
83.43246115202234
 20
-3309.588837262284
 42
-0.0130868069040284
 10
83.73072180197795
 20
-3309.380056793743
 10
83.73228362112087
 20
-3309.379023353468
 42
-0.029032952639695
 10
84.04339476251397
 20
-3309.198197851839
 10
84.07324032451001
 20
-3309.183095468994
 42
-0.0160250190041182
 10
84.33914473826468
 20
-3309.059079358786
 42
-0.0267600374787237
 10
84.61442081573053
 20
-3308.958331038238
 10
84.6411567352543
 20
-3308.950138479412
 42
-0.0049981587689047
 10
84.69632988054127
 20
-3308.933833279099
 42
-0.0049981587689047
  0
LWPOLYLINE
  5
60
330
23
100
AcDbEntity
  8
0
  6
Continuous
 62
     7
370
    15
390
1D
100
AcDbPolyline
 90
      118
 70
   128
 43
0.0
 10
104.5106974449882
 20
-3318.010218516986
 10
106.3858193694876
 20
-3318.010218516986
 10
105.5477804638878
 20
-3320.691785043387
 42
-0.0010587229246814
 10
105.5792362794538
 20
-3320.654880510038
 10
105.6374303700916
 20
-3320.586898253855
 42
-0.007187474042051
 10
105.7878055881813
 20
-3320.416257561836
 10
105.929528361452
 20
-3320.260021420513
 42
-0.0148118053507487
 10
106.3796576541666
 20
-3319.792407574498
 10
106.4668799890615
 20
-3319.707010253651
 42
-0.0086273358693522
 10
106.8024287900749
 20
-3319.38963461963
 10
106.8462625063013
 20
-3319.349584975297
 42
-0.0103138323112582
 10
107.1042862085343
 20
-3319.123421837959
 10
107.1500606148794
 20
-3319.084939790684
 42
-0.0060206748560458
 10
107.3229086789736
 20
-3318.943145139944
 10
107.3249398098544
 20
-3318.941519434317
 42
-0.0067069027285967
 10
107.497232624522
 20
-3318.807368800518
 10
107.4997813904539
 20
-3318.805438630638
 42
-0.0076184352027241
 10
107.6706866563194
 20
-3318.680063755399
 42
-0.0089652861664355
 10
107.8456476190626
 20
-3318.56043049506
 10
107.8819993391963
 20
-3318.536519281585
 42
-0.0156916245936938
 10
108.077958836359
 20
-3318.416256795109
 42
-0.0023299011066149
 10
108.2782208803483
 20
-3318.303078855563
 10
108.2936050127187
 20
-3318.294478860504
 42
-0.0107669341474427
 10
108.5278418378328
 20
-3318.170078727147
 10
108.5501066388949
 20
-3318.158861977204
 42
-0.0078058045893338
 10
108.8336967568435
 20
-3318.021500521567
 10
108.8436038445568
 20
-3318.016891393697
 42
-0.0181829330468793
 10
109.1539132491717
 20
-3317.886027652602
 10
109.2079686917386
 20
-3317.865512532658
 42
-0.0208411536028621
 10
109.5570536591894
 20
-3317.749422070165
 10
109.5714097593111
 20
-3317.745303625213
 42
-0.0222799817136737
 10
109.9001295532341
 20
-3317.666662059071
 10
109.9090185164688
 20
-3317.664950048487
 42
-0.0215509523895074
 10
110.2254894847509
 20
-3317.618034359952
 10
110.2679714457968
 20
-3317.613596833161
 42
-0.0182545924881602
 10
110.5020802251051
 20
-3317.59775300777
 10
110.5414812414715
 20
-3317.59652846269
 42
-0.0072962856508594
 10
110.697404121142
 20
-3317.593959134168
 10
110.7265037917033
 20
-3317.593904298765
 42
-0.0059227516338032
 10
110.824253290859
 20
-3317.594878010555
 10
110.8534955083186
 20
-3317.595515777158
 42
-0.001183311191669
 10
110.8927467920633
 20
-3317.596464781469
 10
110.0973601964562
 20
-3320.135198726568
 42
0.014393205143425
 10
110.0709588141136
 20
-3320.124999756525
 10
110.0636868416883
 20
-3320.122428537665
 42
0.0234388603481543
 10
110.0218559757551
 20
-3320.109809301949
 10
110.0131743128435
 20
-3320.107628339944
 42
0.0199162742975357
 10
109.9528854787621
 20
-3320.095011604609
 10
109.9320715409573
 20
-3320.091514405181
 42
0.0293643550669498
 10
109.8289966822013
 20
-3320.080364359528
 10
109.8043115014778
 20
-3320.079152742509
 42
0.0214606686849254
 10
109.6511705855222
 20
-3320.078214182091
 10
109.6417986747074
 20
-3320.078559093636
 42
0.0167564054191724
 10
109.4702784835987
 20
-3320.090636136004
 10
109.4618186908399
 20
-3320.091517476431
 42
0.0137677553229987
 10
109.274465377583
 20
-3320.116266784973
 10
109.2671136380674
 20
-3320.117444704942
 42
0.0118497261486191
 10
109.0666158739632
 20
-3320.154462055133
 10
109.0604658667189
 20
-3320.155748917852
 42
0.0106421143889339
 10
108.8495849794299
 20
-3320.204581293428
 10
108.8446761710447
 20
-3320.205828636112
 42
0.0099746379697177
 10
108.6262177018858
 20
-3320.266003164425
 10
108.564669661712
 20
-3320.284285043057
 42
0.0191613675859406
 10
108.2286851991921
 20
-3320.398262423346
 10
108.1406254264566
 20
-3320.431949333666
 42
0.0205274080143265
 10
107.7553186545503
 20
-3320.597777741495
 10
107.6976693725646
 20
-3320.625445706069
 42
0.0181256912197267
 10
107.4393924319013
 20
-3320.761129525045
 10
107.3864370485924
 20
-3320.791447138257
 42
0.0140709242400682
 10
107.241482113959
 20
-3320.879941811694
 10
107.21523324533
 20
-3320.896998630416
 42
0.0086667884409378
 10
107.1263070837979
 20
-3320.957001298292
 42
0.003640819200676
 10
107.0388738457763
 20
-3321.019182156077
 10
107.003646971296
 20
-3321.044623101998
 42
0.0052260781284764
 10
106.8474182738814
 20
-3321.159955488649
 10
106.8312114176453
 20
-3321.17218359925
 42
0.0050024435903491
 10
106.6452080745905
 20
-3321.315466167509
 10
106.6298899180713
 20
-3321.327512189958
 42
0.0136138710266717
 10
106.4194486497549
 20
-3321.502478694863
 10
106.3857807739524
 20
-3321.532057667585
 42
0.0172815186918231
 10
106.121377232289
 20
-3321.78105434021
 10
106.1188148864473
 20
-3321.783640157356
 42
0.0189403857995454
 10
105.8682330878662
 20
-3322.056445422163
 10
105.835601594334
 20
-3322.094789353655
 42
0.0185044199500206
 10
105.6436451553521
 20
-3322.33803793478
 42
0.0088565243901757
 10
105.4651850487235
 20
-3322.591554354931
 10
105.4560070690752
 20
-3322.605095734691
 42
0.0157195347233246
 10
105.2727864627396
 20
-3322.894617944009
 10
105.2267035208073
 20
-3322.972770141032
 42
0.0095451879790091
 10
105.0616179706726
 20
-3323.265364783384
 10
105.0504700517431
 20
-3323.286035455515
 42
0.0100351706246473
 10
104.9184263025837
 20
-3323.543091016006
 42
0.0086935915435249
 10
104.7960951507893
 20
-3323.804924161412
 10
104.7927744093752
 20
-3323.812366484382
 42
0.0072580174862663
 10
104.6724279574308
 20
-3324.092958475964
 10
104.6691663241239
 20
-3324.100878501984
 42
0.0060005122615212
 10
104.5499656557811
 20
-3324.400488172589
 10
104.5467546774396
 20
-3324.408849700493
 42
0.0049017786979578
 10
104.4278545185822
 20
-3324.727778681097
 10
104.4246887121917
 20
-3324.736531618328
 42
0.0039415167597512
 10
104.3052524341361
 20
-3325.075073680738
 10
104.3021213314829
 20
-3325.084176881617
 42
0.0031035838768363
 10
104.1813165457941
 20
-3325.442616743378
 10
104.1782065012594
 20
-3325.452037364766
 42
0.0025070747146148
 10
104.055305149947
 20
-3325.8306845817
 10
104.0180112535186
 20
-3325.947576246962
 42
0.002908191028097
 10
103.8259929557031
 20
-3326.561739905269
 10
103.7851897871908
 20
-3326.69496314753
 42
0.0009266453731966
 10
103.5167724128808
 20
-3327.577187607438
 10
103.4958849402369
 20
-3327.646299486685
 42
-0.0005809993665233
 10
103.2185482596443
 20
-3328.560107593329
 10
103.1522664613649
 20
-3328.77759252551
 42
-0.0012018708165376
 10
103.0052821519421
 20
-3329.255755190009
 10
102.9529623003686
 20
-3329.4245143309
 42
-0.0002691059603557
 10
102.9093928192081
 20
-3329.564781951217
 10
100.0764369209188
 20
-3338.653936553516
 10
98.25844802894028
 20
-3338.653936553516
 10
104.5106974449882
 20
-3318.010218516986
  0
SPLINE
  5
61
330
23
100
AcDbEntity
  8
0
  6
Continuous
 62
     7
370
    15
390
1D
100
AcDbSpline
210
0.0
220
0.0
230
1.0
 70
    15
 71
     2
 72
   782
 73
   779
 74
     0
 42
0.000000001
 43
0.000001
 40
0.0
 40
0.0
 40
0.0
 40
1.0
 40
1.0
 40
2.0
 40
2.0
 40
3.0
 40
3.0
 40
4.0
 40
4.0
 40
5.0
 40
5.0
 40
6.0
 40
6.0
 40
7.0
 40
7.0
 40
8.0
 40
8.0
 40
9.0
 40
9.0
 40
10.0
 40
10.0
 40
11.0
 40
11.0
 40
12.0
 40
12.0
 40
13.0
 40
13.0
 40
14.0
 40
14.0
 40
15.0
 40
15.0
 40
16.0
 40
16.0
 40
17.0
 40
17.0
 40
18.0
 40
18.0
 40
19.0
 40
19.0
 40
20.0
 40
20.0
 40
21.0
 40
21.0
 40
22.0
 40
22.0
 40
23.0
 40
23.0
 40
24.0
 40
24.0
 40
25.0
 40
25.0
 40
26.0
 40
26.0
 40
27.0
 40
27.0
 40
28.0
 40
28.0
 40
29.0
 40
29.0
 40
30.0
 40
30.0
 40
31.0
 40
31.0
 40
32.0
 40
32.0
 40
33.0
 40
33.0
 40
34.0
 40
34.0
 40
35.0
 40
35.0
 40
36.0
 40
36.0
 40
37.0
 40
37.0
 40
38.0
 40
38.0
 40
39.0
 40
39.0
 40
40.0
 40
40.0
 40
41.0
 40
41.0
 40
42.0
 40
42.0
 40
43.0
 40
43.0
 40
44.0
 40
44.0
 40
45.0
 40
45.0
 40
46.0
 40
46.0
 40
47.0
 40
47.0
 40
48.0
 40
48.0
 40
49.0
 40
49.0
 40
50.0
 40
50.0
 40
51.0
 40
51.0
 40
52.0
 40
52.0
 40
53.0
 40
53.0
 40
54.0
 40
54.0
 40
55.0
 40
55.0
 40
56.0
 40
56.0
 40
57.0
 40
57.0
 40
58.0
 40
58.0
 40
59.0
 40
59.0
 40
60.0
 40
60.0
 40
61.0
 40
61.0
 40
62.0
 40
62.0
 40
63.0
 40
63.0
 40
64.0
 40
64.0
 40
65.0
 40
65.0
 40
66.0
 40
66.0
 40
67.0
 40
67.0
 40
68.0
 40
68.0
 40
69.0
 40
69.0
 40
70.0
 40
70.0
 40
71.0
 40
71.0
 40
72.0
 40
72.0
 40
73.0
 40
73.0
 40
74.0
 40
74.0
 40
75.0
 40
75.0
 40
76.0
 40
76.0
 40
77.0
 40
77.0
 40
78.0
 40
78.0
 40
79.0
 40
79.0
 40
80.0
 40
80.0
 40
81.0
 40
81.0
 40
82.0
 40
82.0
 40
83.0
 40
83.0
 40
84.0
 40
84.0
 40
85.0
 40
85.0
 40
86.0
 40
86.0
 40
87.0
 40
87.0
 40
88.0
 40
88.0
 40
89.0
 40
89.0
 40
90.0
 40
90.0
 40
91.0
 40
91.0
 40
92.0
 40
92.0
 40
93.0
 40
93.0
 40
94.0
 40
94.0
 40
95.0
 40
95.0
 40
96.0
 40
96.0
 40
97.0
 40
97.0
 40
98.0
 40
98.0
 40
99.0
 40
99.0
 40
100.0
 40
100.0
 40
101.0
 40
101.0
 40
102.0
 40
102.0
 40
103.0
 40
103.0
 40
104.0
 40
104.0
 40
105.0
 40
105.0
 40
106.0
 40
106.0
 40
107.0
 40
107.0
 40
108.0
 40
108.0
 40
109.0
 40
109.0
 40
110.0
 40
110.0
 40
111.0
 40
111.0
 40
112.0
 40
112.0
 40
113.0
 40
113.0
 40
114.0
 40
114.0
 40
115.0
 40
115.0
 40
116.0
 40
116.0
 40
117.0
 40
117.0
 40
118.0
 40
118.0
 40
119.0
 40
119.0
 40
120.0
 40
120.0
 40
121.0
 40
121.0
 40
122.0
 40
122.0
 40
123.0
 40
123.0
 40
124.0
 40
124.0
 40
125.0
 40
125.0
 40
126.0
 40
126.0
 40
127.0
 40
127.0
 40
128.0
 40
128.0
 40
129.0
 40
129.0
 40
130.0
 40
130.0
 40
131.0
 40
131.0
 40
132.0
 40
132.0
 40
133.0
 40
133.0
 40
134.0
 40
134.0
 40
135.0
 40
135.0
 40
136.0
 40
136.0
 40
137.0
 40
137.0
 40
138.0
 40
138.0
 40
139.0
 40
139.0
 40
140.0
 40
140.0
 40
141.0
 40
141.0
 40
142.0
 40
142.0
 40
143.0
 40
143.0
 40
144.0
 40
144.0
 40
145.0
 40
145.0
 40
146.0
 40
146.0
 40
147.0
 40
147.0
 40
148.0
 40
148.0
 40
149.0
 40
149.0
 40
150.0
 40
150.0
 40
151.0
 40
151.0
 40
152.0
 40
152.0
 40
153.0
 40
153.0
 40
154.0
 40
154.0
 40
155.0
 40
155.0
 40
156.0
 40
156.0
 40
157.0
 40
157.0
 40
158.0
 40
158.0
 40
159.0
 40
159.0
 40
160.0
 40
160.0
 40
161.0
 40
161.0
 40
162.0
 40
162.0
 40
163.0
 40
163.0
 40
164.0
 40
164.0
 40
165.0
 40
165.0
 40
166.0
 40
166.0
 40
167.0
 40
167.0
 40
168.0
 40
168.0
 40
169.0
 40
169.0
 40
170.0
 40
170.0
 40
171.0
 40
171.0
 40
172.0
 40
172.0
 40
173.0
 40
173.0
 40
174.0
 40
174.0
 40
175.0
 40
175.0
 40
176.0
 40
176.0
 40
177.0
 40
177.0
 40
178.0
 40
178.0
 40
179.0
 40
179.0
 40
180.0
 40
180.0
 40
181.0
 40
181.0
 40
182.0
 40
182.0
 40
183.0
 40
183.0
 40
184.0
 40
184.0
 40
185.0
 40
185.0
 40
186.0
 40
186.0
 40
187.0
 40
187.0
 40
188.0
 40
188.0
 40
189.0
 40
189.0
 40
190.0
 40
190.0
 40
191.0
 40
191.0
 40
192.0
 40
192.0
 40
193.0
 40
193.0
 40
194.0
 40
194.0
 40
195.0
 40
195.0
 40
196.0
 40
196.0
 40
197.0
 40
197.0
 40
198.0
 40
198.0
 40
199.0
 40
199.0
 40
200.0
 40
200.0
 40
201.0
 40
201.0
 40
202.0
 40
202.0
 40
203.0
 40
203.0
 40
204.0
 40
204.0
 40
205.0
 40
205.0
 40
206.0
 40
206.0
 40
207.0
 40
207.0
 40
208.0
 40
208.0
 40
209.0
 40
209.0
 40
210.0
 40
210.0
 40
211.0
 40
211.0
 40
212.0
 40
212.0
 40
213.0
 40
213.0
 40
214.0
 40
214.0
 40
215.0
 40
215.0
 40
216.0
 40
216.0
 40
217.0
 40
217.0
 40
218.0
 40
218.0
 40
219.0
 40
219.0
 40
220.0
 40
220.0
 40
221.0
 40
221.0
 40
222.0
 40
222.0
 40
223.0
 40
223.0
 40
224.0
 40
224.0
 40
225.0
 40
225.0
 40
226.0
 40
226.0
 40
227.0
 40
227.0
 40
228.0
 40
228.0
 40
229.0
 40
229.0
 40
230.0
 40
230.0
 40
231.0
 40
231.0
 40
232.0
 40
232.0
 40
233.0
 40
233.0
 40
234.0
 40
234.0
 40
235.0
 40
235.0
 40
236.0
 40
236.0
 40
237.0
 40
237.0
 40
238.0
 40
238.0
 40
239.0
 40
239.0
 40
240.0
 40
240.0
 40
241.0
 40
241.0
 40
242.0
 40
242.0
 40
243.0
 40
243.0
 40
244.0
 40
244.0
 40
245.0
 40
245.0
 40
246.0
 40
246.0
 40
247.0
 40
247.0
 40
248.0
 40
248.0
 40
249.0
 40
249.0
 40
250.0
 40
250.0
 40
251.0
 40
251.0
 40
252.0
 40
252.0
 40
253.0
 40
253.0
 40
254.0
 40
254.0
 40
255.0
 40
255.0
 40
256.0
 40
256.0
 40
257.0
 40
257.0
 40
258.0
 40
258.0
 40
259.0
 40
259.0
 40
260.0
 40
260.0
 40
261.0
 40
261.0
 40
262.0
 40
262.0
 40
263.0
 40
263.0
 40
264.0
 40
264.0
 40
265.0
 40
265.0
 40
266.0
 40
266.0
 40
267.0
 40
267.0
 40
268.0
 40
268.0
 40
269.0
 40
269.0
 40
270.0
 40
270.0
 40
271.0
 40
271.0
 40
272.0
 40
272.0
 40
273.0
 40
273.0
 40
274.0
 40
274.0
 40
275.0
 40
275.0
 40
276.0
 40
276.0
 40
277.0
 40
277.0
 40
278.0
 40
278.0
 40
279.0
 40
279.0
 40
280.0
 40
280.0
 40
281.0
 40
281.0
 40
282.0
 40
282.0
 40
283.0
 40
283.0
 40
284.0
 40
284.0
 40
285.0
 40
285.0
 40
286.0
 40
286.0
 40
287.0
 40
287.0
 40
288.0
 40
288.0
 40
289.0
 40
289.0
 40
290.0
 40
290.0
 40
291.0
 40
291.0
 40
292.0
 40
292.0
 40
293.0
 40
293.0
 40
294.0
 40
294.0
 40
295.0
 40
295.0
 40
296.0
 40
296.0
 40
297.0
 40
297.0
 40
298.0
 40
298.0
 40
299.0
 40
299.0
 40
300.0
 40
300.0
 40
301.0
 40
301.0
 40
302.0
 40
302.0
 40
303.0
 40
303.0
 40
304.0
 40
304.0
 40
305.0
 40
305.0
 40
306.0
 40
306.0
 40
307.0
 40
307.0
 40
308.0
 40
308.0
 40
309.0
 40
309.0
 40
310.0
 40
310.0
 40
311.0
 40
311.0
 40
312.0
 40
312.0
 40
313.0
 40
313.0
 40
314.0
 40
314.0
 40
315.0
 40
315.0
 40
316.0
 40
316.0
 40
317.0
 40
317.0
 40
318.0
 40
318.0
 40
319.0
 40
319.0
 40
320.0
 40
320.0
 40
321.0
 40
321.0
 40
322.0
 40
322.0
 40
323.0
 40
323.0
 40
324.0
 40
324.0
 40
325.0
 40
325.0
 40
326.0
 40
326.0
 40
327.0
 40
327.0
 40
328.0
 40
328.0
 40
329.0
 40
329.0
 40
330.0
 40
330.0
 40
331.0
 40
331.0
 40
332.0
 40
332.0
 40
333.0
 40
333.0
 40
334.0
 40
334.0
 40
335.0
 40
335.0
 40
336.0
 40
336.0
 40
337.0
 40
337.0
 40
338.0
 40
338.0
 40
339.0
 40
339.0
 40
340.0
 40
340.0
 40
341.0
 40
341.0
 40
342.0
 40
342.0
 40
343.0
 40
343.0
 40
344.0
 40
344.0
 40
345.0
 40
345.0
 40
346.0
 40
346.0
 40
347.0
 40
347.0
 40
348.0
 40
348.0
 40
349.0
 40
349.0
 40
350.0
 40
350.0
 40
351.0
 40
351.0
 40
352.0
 40
352.0
 40
353.0
 40
353.0
 40
354.0
 40
354.0
 40
355.0
 40
355.0
 40
356.0
 40
356.0
 40
357.0
 40
357.0
 40
358.0
 40
358.0
 40
359.0
 40
359.0
 40
360.0
 40
360.0
 40
361.0
 40
361.0
 40
362.0
 40
362.0
 40
363.0
 40
363.0
 40
364.0
 40
364.0
 40
365.0
 40
365.0
 40
366.0
 40
366.0
 40
367.0
 40
367.0
 40
368.0
 40
368.0
 40
369.0
 40
369.0
 40
370.0
 40
370.0
 40
371.0
 40
371.0
 40
372.0
 40
372.0
 40
373.0
 40
373.0
 40
374.0
 40
374.0
 40
375.0
 40
375.0
 40
376.0
 40
376.0
 40
377.0
 40
377.0
 40
378.0
 40
378.0
 40
379.0
 40
379.0
 40
380.0
 40
380.0
 40
381.0
 40
381.0
 40
382.0
 40
382.0
 40
383.0
 40
383.0
 40
384.0
 40
384.0
 40
385.0
 40
385.0
 40
386.0
 40
386.0
 40
387.0
 40
387.0
 40
388.0
 40
388.0
 40
389.0
 40
389.0
 40
389.0
 10
114.8394018957208
 20
-3317.999292153624
 30
0.0
 41
1.0
 10
115.6578260044413
 20
-3317.999292153624
 30
0.0
 41
1.0
 10
116.4762501131618
 20
-3317.999292153624
 30
0.0
 41
1.0
 10
116.062496377645
 20
-3319.341918417874
 30
0.0
 41
1.0
 10
115.6487426421282
 20
-3320.684544682123
 30
0.0
 41
1.0
 10
115.6670821373187
 20
-3320.655843909177
 30
0.0
 41
0.9999957264403089
 10
115.6855891341488
 20
-3320.627250859027
 30
0.0
 41
1.0
 10
115.7160184582751
 20
-3320.580237980668
 30
0.0
 41
1.0
 10
115.7464477824015
 20
-3320.53322510231
 30
0.0
 41
1.0
 10
115.8258134275057
 20
-3320.410606295409
 30
0.0
 41
0.9995394069081424
 10
115.912471819059
 20
-3320.293028233665
 30
0.0
 41
1.0
 10
115.9482286813186
 20
-3320.244513341072
 30
0.0
 41
1.0
 10
115.9839855435782
 20
-3320.195998448479
 30
0.0
 41
1.0
 10
116.1177122113971
 20
-3320.014558173351
 30
0.0
 41
0.9994460617143183
 10
116.2632126926852
 20
-3319.842415775701
 30
0.0
 41
1.0
 10
116.2676008736604
 20
-3319.837224095318
 30
0.0
 41
1.0
 10
116.2719890546356
 20
-3319.832032414935
 30
0.0
 41
1.0
 10
116.4087131739725
 20
-3319.670273378053
 30
0.0
 41
0.9994359394934714
 10
116.5559874043245
 20
-3319.518057176887
 30
0.0
 41
1.0
 10
116.5583707582779
 20
-3319.515593846514
 30
0.0
 41
1.0
 10
116.5607541122313
 20
-3319.51313051614
 30
0.0
 41
1.0
 10
116.7032616346748
 20
-3319.365840975724
 30
0.0
 41
0.9995293688568188
 10
116.8545333156582
 20
-3319.227567763558
 30
0.0
 41
1.0
 10
116.8738270749237
 20
-3319.209931877905
 30
0.0
 41
1.0
 10
116.8931208341892
 20
-3319.192295992252
 30
0.0
 41
1.0
 10
117.005804996643
 20
-3319.089294551392
 30
0.0
 41
0.9997087614803145
 10
117.1233278855953
 20
-3318.991850270596
 30
0.0
 41
1.0
 10
117.1424939587657
 20
-3318.975958692093
 30
0.0
 41
1.0
 10
117.161660031936
 20
-3318.960067113589
 30
0.0
 41
1.0
 10
117.2408507745452
 20
-3318.894405989803
 30
0.0
 41
0.9999595338692664
 10
117.3212100454055
 20
-3318.830180259143
 30
0.0
 41
1.0
 10
117.4015693162587
 20
-3318.76595452849
 30
0.0
 41
0.9999749417505778
 10
117.482829850615
 20
-3318.702872974533
 30
0.0
 41
1.0
 10
117.503815996766
 20
-3318.686581687241
 30
0.0
 41
1.0
 10
117.5248021429171
 20
-3318.670290399948
 30
0.0
 41
1.0
 10
117.6093700282173
 20
-3318.604641390108
 30
0.0
 41
0.9999792037127793
 10
117.6947776280065
 20
-3318.540088608449
 30
0.0
 41
1.0
 10
117.7156024538713
 20
-3318.524348786226
 30
0.0
 41
1.0
 10
117.7364272797361
 20
-3318.508608964004
 30
0.0
 41
1.0
 10
117.7801852276887
 20
-3318.475535826871
 30
0.0
 41
0.9999993373779398
 10
117.8238669139192
 20
-3318.442362031381
 30
0.0
 41
1.0
 10
117.867548600064
 20
-3318.409188235956
 30
0.0
 41
0.9999160953816777
 10
117.9120750109908
 20
-3318.377157170753
 30
0.0
 41
1.0
 10
117.9448968984059
 20
-3318.353546015171
 30
0.0
 41
1.0
 10
117.977718785821
 20
-3318.329934859589
 30
0.0
 41
1.0
 10
118.0878889715789
 20
-3318.250681483222
 30
0.0
 41
0.9980964527233669
 10
118.2069779650786
 20
-3318.185594010366
 30
0.0
 41
1.0
 10
118.2440105720063
 20
-3318.165354030773
 30
0.0
 41
1.0
 10
118.281043178934
 20
-3318.14511405118
 30
0.0
 41
1.0
 10
118.4603701922073
 20
-3318.047103800479
 30
0.0
 41
0.9984572810572772
 10
118.6494587585683
 20
-3317.969581539131
 30
0.0
 41
1.0
 10
118.6531050279625
 20
-3317.968086646794
 30
0.0
 41
1.0
 10
118.6567512973567
 20
-3317.966591754457
 30
0.0
 41
1.0
 10
118.8385473249259
 20
-3317.892059277786
 30
0.0
 41
0.9987838528034075
 10
119.0267999834865
 20
-3317.83579363762
 30
0.0
 41
1.0
 10
119.031037932686
 20
-3317.834526983929
 30
0.0
 41
1.0
 10
119.0352758818856
 20
-3317.833260330239
 30
0.0
 41
1.0
 10
119.2150526420463
 20
-3317.779527997454
 30
0.0
 41
0.9990652816207104
 10
119.3987985737616
 20
-3317.741524317912
 30
0.0
 41
1.0
 10
119.4039869747957
 20
-3317.740451214805
 30
0.0
 41
1.0
 10
119.4091753758298
 20
-3317.739378111698
 30
0.0
 41
1.0
 10
119.58254450548
 20
-3317.703520638369
 30
0.0
 41
0.9992909934270224
 10
119.7581202719358
 20
-3317.680810205903
 30
0.0
 41
1.0
 10
119.9336960383913
 20
-3317.658099773437
 30
0.0
 41
0.9994553539448504
 10
120.1103874714819
 20
-3317.647020469231
 30
0.0
 41
1.0
 10
120.1458218792849
 20
-3317.644798581183
 30
0.0
 41
1.0
 10
120.1812562870879
 20
-3317.642576693135
 30
0.0
 41
1.0
 10
120.3474820536526
 20
-3317.632153630723
 30
0.0
 41
0.999092809829305
 10
120.5139918455505
 20
-3317.635913271958
 30
0.0
 41
1.0
 10
120.5525536808143
 20
-3317.63678396349
 30
0.0
 41
1.0
 10
120.5911155160781
 20
-3317.637654655023
 30
0.0
 41
1.0
 10
120.6805016374453
 20
-3317.639672913192
 30
0.0
 41
0.9998382089206246
 10
120.7697573202394
 20
-3317.64490503972
 30
0.0
 41
1.0
 10
120.7701872264614
 20
-3317.644930240623
 30
0.0
 41
1.0
 10
120.7706171326834
 20
-3317.644955441525
 30
0.0
 41
1.0
 10
120.8590130030278
 20
-3317.650137166249
 30
0.0
 41
0.9997558016758776
 10
120.9470935802264
 20
-3317.659219681615
 30
0.0
 41
1.0
 10
120.9475697186602
 20
-3317.659268779098
 30
0.0
 41
1.0
 10
120.948045857094
 20
-3317.659317876581
 30
0.0
 41
1.0
 10
121.0351741574315
 20
-3317.668302196982
 30
0.0
 41
0.9996565144181515
 10
121.1217120107693
 20
-3317.68183950367
 30
0.0
 41
1.0
 10
121.1221779361418
 20
-3317.681912389401
 30
0.0
 41
1.0
 10
121.1226438615144
 20
-3317.681985275131
 30
0.0
 41
1.0
 10
121.2082498641065
 20
-3317.695376810359
 30
0.0
 41
0.9995321806867565
 10
121.2928769444393
 20
-3317.713977298788
 30
0.0
 41
1.0
 10
121.2932661390077
 20
-3317.714062841254
 30
0.0
 41
1.0
 10
121.2936553335761
 20
-3317.714148383719
 30
0.0
 41
1.0
 10
121.3775040247631
 20
-3317.732577787217
 30
0.0
 41
0.9993819199220195
 10
121.4598505589635
 20
-3317.756853170478
 30
0.0
 41
1.0
 10
121.4600889924606
 20
-3317.756923459588
 30
0.0
 41
1.0
 10
121.4603274259577
 20
-3317.756993748696
 30
0.0
 41
1.0
 10
121.542197093159
 20
-3317.781128553739
 30
0.0
 41
0.9992088568504726
 10
121.6218896121479
 20
-3317.811693789534
 30
0.0
 41
1.0
 10
121.7015706030271
 20
-3317.842253390267
 30
0.0
 41
0.9990226101772304
 10
121.7782412729341
 20
-3317.879730821882
 30
0.0
 41
1.0
 10
121.8549004147316
 20
-3317.917202618435
 30
0.0
 41
0.9988424273972497
 10
121.9276040419445
 20
-3317.961867393688
 30
0.0
 41
1.0
 10
121.9278717503238
 20
-3317.96203185776
 30
0.0
 41
1.0
 10
121.9281394587032
 20
-3317.962196321832
 30
0.0
 41
1.0
 10
122.0013785026731
 20
-3318.007190025229
 30
0.0
 41
0.9986928844489148
 10
122.0696413693825
 20
-3318.059425759508
 30
0.0
 41
1.0
 10
122.0702226616059
 20
-3318.059870572737
 30
0.0
 41
1.0
 10
122.0708039538294
 20
-3318.060315385965
 30
0.0
 41
1.0
 10
122.1402294049862
 20
-3318.113440746702
 30
0.0
 41
0.9986007262278923
 10
122.2036555747553
 20
-3318.173601516398
 30
0.0
 41
1.0
 10
122.2045499902106
 20
-3318.174449884231
 30
0.0
 41
1.0
 10
122.2054444056658
 20
-3318.175298252064
 30
0.0
 41
1.0
 10
122.270659406345
 20
-3318.237155757426
 30
0.0
 41
0.9985581491380211
 10
122.3288670180463
 20
-3318.305648247697
 30
0.0
 41
1.0
 10
122.3381254716433
 20
-3318.3165426054
 30
0.0
 41
1.0
 10
122.3473839252403
 20
-3318.327436963103
 30
0.0
 41
1.0
 10
122.4241084441336
 20
-3318.417718168779
 30
0.0
 41
0.997046023352179
 10
122.4861003452932
 20
-3318.51868525296
 30
0.0
 41
1.0
 10
122.5005697103728
 20
-3318.542251712041
 30
0.0
 41
1.0
 10
122.5150390754524
 20
-3318.565818171123
 30
0.0
 41
1.0
 10
122.5547757754644
 20
-3318.630537895154
 30
0.0
 41
0.9988468816635044
 10
122.5881221462158
 20
-3318.698770347582
 30
0.0
 41
1.0
 10
122.5951581687078
 20
-3318.71316726872
 30
0.0
 41
1.0
 10
122.6021941911998
 20
-3318.727564189859
 30
0.0
 41
1.0
 10
122.6214685169695
 20
-3318.767002800014
 30
0.0
 41
0.9998431189998357
 10
122.6393338444623
 20
-3318.80709935445
 30
0.0
 41
1.0
 10
122.65719917196
 20
-3318.847195908897
 30
0.0
 41
0.9999989989882596
 10
122.6751778953808
 20
-3318.887241746478
 30
0.0
 41
1.0
 10
122.6813502069743
 20
-3318.900989963289
 30
0.0
 41
1.0
 10
122.6875225185678
 20
-3318.9147381801
 30
0.0
 41
1.0
 10
122.7178458651773
 20
-3318.982280451307
 30
0.0
 41
0.9998790356322159
 10
122.7460537453163
 20
-3319.050733203246
 30
0.0
 41
1.0
 10
122.7528889266009
 20
-3319.067320304674
 30
0.0
 41
1.0
 10
122.7597241078856
 20
-3319.083907406103
 30
0.0
 41
1.0
 10
122.7832817702666
 20
-3319.14107536099
 30
0.0
 41
0.9998227574560306
 10
122.8046705186545
 20
-3319.199089669264
 30
0.0
 41
1.0
 10
122.8260592670437
 20
-3319.257103977541
 30
0.0
 41
0.9996797971041792
 10
122.8444855520017
 20
-3319.316126096655
 30
0.0
 41
1.0
 10
122.8483893547279
 20
-3319.328630554826
 30
0.0
 41
1.0
 10
122.8522931574541
 20
-3319.341135012997
 30
0.0
 41
1.0
 10
122.8785270478648
 20
-3319.425166048454
 30
0.0
 41
0.9979274938733558
 10
122.8937515713436
 20
-3319.511870407114
 30
0.0
 41
1.0
 10
122.8959752586049
 20
-3319.524534407936
 30
0.0
 41
1.0
 10
122.8981989458662
 20
-3319.537198408758
 30
0.0
 41
1.0
 10
122.9091288855643
 20
-3319.599444916049
 30
0.0
 41
0.9994985982138991
 10
122.9160970507411
 20
-3319.662258417188
 30
0.0
 41
1.0
 10
122.923065215918
 20
-3319.725071918328
 30
0.0
 41
0.9996372611200948
 10
122.9266410816859
 20
-3319.788169497013
 30
0.0
 41
1.0
 10
122.9268096591752
 20
-3319.791144114095
 30
0.0
 41
1.0
 10
122.9269782366645
 20
-3319.794118731177
 30
0.0
 41
1.0
 10
122.9308912574108
 20
-3319.86316554402
 30
0.0
 41
0.9997730630736686
 10
122.9318595708989
 20
-3319.932316368057
 30
0.0
 41
1.0
 10
122.931916677317
 20
-3319.936394547199
 30
0.0
 41
1.0
 10
122.9319737837351
 20
-3319.940472726341
 30
0.0
 41
1.0
 10
122.9330563100596
 20
-3320.017779908663
 30
0.0
 41
0.9998772614071431
 10
122.9317162233277
 20
-3320.095083055221
 30
0.0
 41
1.0
 10
122.931626960129
 20
-3320.100232219057
 30
0.0
 41
1.0
 10
122.9315376969302
 20
-3320.105381382893
 30
0.0
 41
1.0
 10
122.9300190838013
 20
-3320.192982857119
 30
0.0
 41
0.9999415567325157
 10
122.926606773555
 20
-3320.280531018803
 30
0.0
 41
1.0
 10
122.9263654528797
 20
-3320.28672247854
 30
0.0
 41
1.0
 10
122.9261241322044
 20
-3320.292913938277
 30
0.0
 41
1.0
 10
122.9222291806084
 20
-3320.392845019413
 30
0.0
 41
0.9999716810432796
 10
122.9168305974895
 20
-3320.492706157651
 30
0.0
 41
1.0
 10
122.9136177987008
 20
-3320.552135407307
 30
0.0
 41
1.0
 10
122.910404999912
 20
-3320.611564656963
 30
0.0
 41
1.0
 10
122.9023310907592
 20
-3320.760913058245
 30
0.0
 41
0.9999819129894524
 10
122.8924612991424
 20
-3320.910153535962
 30
0.0
 41
1.0
 10
122.8825915075258
 20
-3321.059394013674
 30
0.0
 41
1.0
 10
122.8801521869619
 20
-3321.096587059523
 30
0.0
 41
1.0
 10
122.9028504208023
 20
-3321.057846062177
 30
0.0
 41
0.9999982128178448
 10
122.9256949795531
 20
-3321.019191168227
 30
0.0
 41
1.0
 10
122.9526045394356
 20
-3320.973657954176
 30
0.0
 41
1.0
 10
122.9795140993181
 20
-3320.928124740125
 30
0.0
 41
1.0
 10
123.0561777778421
 20
-3320.798403418059
 30
0.0
 41
0.9998609190060128
 10
123.1371250907072
 20
-3320.671311036123
 30
0.0
 41
1.0
 10
123.16677341219
 20
-3320.624761303165
 30
0.0
 41
1.0
 10
123.1964217336728
 20
-3320.578211570206
 30
0.0
 41
1.0
 10
123.2786939539068
 20
-3320.449039000216
 30
0.0
 41
0.9999067609732305
 10
123.3644629633703
 20
-3320.322161310775
 30
0.0
 41
1.0
 10
123.3668676665691
 20
-3320.318604044724
 30
0.0
 41
1.0
 10
123.3692723697679
 20
-3320.315046778672
 30
0.0
 41
1.0
 10
123.4502319728316
 20
-3320.195283621338
 30
0.0
 41
0.9998784952148341
 10
123.5348855825157
 20
-3320.078102404625
 30
0.0
 41
1.0
 10
123.619539192198
 20
-3319.960921187915
 30
0.0
 41
0.9998532968283594
 10
123.7081568130232
 20
-3319.846708279441
 30
0.0
 41
1.0
 10
123.7281186020112
 20
-3319.820980958425
 30
0.0
 41
1.0
 10
123.7480803909992
 20
-3319.795253637409
 30
0.0
 41
1.0
 10
123.866564440758
 20
-3319.64254802644
 30
0.0
 41
0.9991551975794658
 10
123.9971888903843
 20
-3319.500088464354
 30
0.0
 41
1.0
 10
124.0006985063669
 20
-3319.496260862727
 30
0.0
 41
1.0
 10
124.0042081223495
 20
-3319.492433261099
 30
0.0
 41
1.0
 10
124.1278133400096
 20
-3319.357628902269
 30
0.0
 41
0.9997418144181233
 10
124.2574154797084
 20
-3319.228579491658
 30
0.0
 41
1.0
 10
124.3870176194075
 20
-3319.099530081046
 30
0.0
 41
0.9989238204632918
 10
124.5280201676588
 20
-3318.983045119007
 30
0.0
 41
1.0
 10
124.5732678458002
 20
-3318.945665127397
 30
0.0
 41
1.0
 10
124.6185155239415
 20
-3318.908285135787
 30
0.0
 41
1.0
 10
124.7587555811619
 20
-3318.792430082497
 30
0.0
 41
0.9990825084096809
 10
124.9083955137645
 20
-3318.689001084665
 30
0.0
 41
1.0
 10
124.9184408778207
 20
-3318.682057871586
 30
0.0
 41
1.0
 10
124.9284862418769
 20
-3318.675114658507
 30
0.0
 41
1.0
 10
125.0580354463672
 20
-3318.585572086833
 30
0.0
 41
0.9998164899827024
 10
125.1909196497447
 20
-3318.501057845316
 30
0.0
 41
1.0
 10
125.2027652102686
 20
-3318.493524078791
 30
0.0
 41
1.0
 10
125.2146107707925
 20
-3318.485990312267
 30
0.0
 41
1.0
 10
125.3238038531181
 20
-3318.416543603801
 30
0.0
 41
0.9997473449130295
 10
125.4360078103704
 20
-3318.352074645984
 30
0.0
 41
1.0
 10
125.5482117676185
 20
-3318.287605688168
 30
0.0
 41
0.9999327861140861
 10
125.6618803783849
 20
-3318.225755696486
 30
0.0
 41
1.0
 10
125.6624323809448
 20
-3318.225455337807
 30
0.0
 41
1.0
 10
125.6629843835047
 20
-3318.225154979128
 30
0.0
 41
1.0
 10
125.7777569993908
 20
-3318.162704270088
 30
0.0
 41
0.9996956420483278
 10
125.8954703252324
 20
-3318.105990803112
 30
0.0
 41
1.0
 10
125.9259107301176
 20
-3318.091324826386
 30
0.0
 41
1.0
 10
125.9563511350028
 20
-3318.07665884966
 30
0.0
 41
1.0
 10
126.0593282417517
 20
-3318.027045191214
 30
0.0
 41
0.9998070570177552
 10
126.1641746307
 20
-3317.981514604309
 30
0.0
 41
1.0
 10
126.2690210196466
 20
-3317.935984017406
 30
0.0
 41
0.9997827436147088
 10
126.3756739562638
 20
-3317.894862846092
 30
0.0
 41
1.0
 10
126.3948968058887
 20
-3317.887451272461
 30
0.0
 41
1.0
 10
126.4141196555136
 20
-3317.880039698832
 30
0.0
 41
1.0
 10
126.5592182913899
 20
-3317.824095380254
 30
0.0
 41
0.9988031841976222
 10
126.7090886539985
 20
-3317.782595316085
 30
0.0
 41
1.0
 10
126.7340059023564
 20
-3317.77569557028
 30
0.0
 41
1.0
 10
126.7589231507143
 20
-3317.768795824475
 30
0.0
 41
1.0
 10
126.9261931763626
 20
-3317.722477682067
 30
0.0
 41
0.998474804054967
 10
127.0975500850136
 20
-3317.694883449802
 30
0.0
 41
1.0
 10
127.1022892212632
 20
-3317.694120289288
 30
0.0
 41
1.0
 10
127.1070283575129
 20
-3317.693357128775
 30
0.0
 41
1.0
 10
127.2689069936634
 20
-3317.667289217537
 30
0.0
 41
0.9984436495479126
 10
127.4326817373873
 20
-3317.659411263718
 30
0.0
 41
1.0
 10
127.4543789455211
 20
-3317.658367576519
 30
0.0
 41
1.0
 10
127.4760761536548
 20
-3317.657323889319
 30
0.0
 41
1.0
 10
127.5964564811144
 20
-3317.6515333099
 30
0.0
 41
0.9987954789335639
 10
127.7168247260219
 20
-3317.657569837642
 30
0.0
 41
1.0
 10
127.7367895185164
 20
-3317.65857108198
 30
0.0
 41
1.0
 10
127.756754311011
 20
-3317.659572326319
 30
0.0
 41
1.0
 10
127.837192970932
 20
-3317.663606365384
 30
0.0
 41
0.9997941595877451
 10
127.9174017490261
 20
-3317.670900431305
 30
0.0
 41
1.0
 10
127.9976105271217
 20
-3317.678194497226
 30
0.0
 41
0.9998589466237576
 10
128.0775290739789
 20
-3317.688178351676
 30
0.0
 41
1.0
 10
128.1099352757855
 20
-3317.692226708596
 30
0.0
 41
1.0
 10
128.142341477592
 20
-3317.696275065515
 30
0.0
 41
1.0
 10
128.2870724280593
 20
-3317.714355633802
 30
0.0
 41
0.999349506324899
 10
128.4301236718213
 20
-3317.742821343543
 30
0.0
 41
1.0
 10
128.4630573689826
 20
-3317.74937480676
 30
0.0
 41
1.0
 10
128.4959910661439
 20
-3317.755928269977
 30
0.0
 41
1.0
 10
128.6052848893422
 20
-3317.777676604111
 30
0.0
 41
0.999678871556106
 10
128.7133364612941
 20
-3317.804934403473
 30
0.0
 41
1.0
 10
128.7153994638329
 20
-3317.805454830045
 30
0.0
 41
1.0
 10
128.7174624663715
 20
-3317.805975256618
 30
0.0
 41
1.0
 10
128.8213880332505
 20
-3317.832192202836
 30
0.0
 41
0.9995480654492842
 10
128.92355026848
 20
-3317.86460715946
 30
0.0
 41
1.0
 10
128.9252399106095
 20
-3317.865143264375
 30
0.0
 41
1.0
 10
128.926929552739
 20
-3317.865679369289
 30
0.0
 41
1.0
 10
129.025712503709
 20
-3317.897022116084
 30
0.0
 41
0.9993867959455005
 10
129.122059662152
 20
-3317.935201485374
 30
0.0
 41
1.0
 10
129.1233026112377
 20
-3317.935694027271
 30
0.0
 41
1.0
 10
129.1245455603234
 20
-3317.936186569168
 30
0.0
 41
1.0
 10
129.2184068205958
 20
-3317.973380854665
 30
0.0
 41
0.9992050256523116
 10
129.3090064956278
 20
-3318.017934753903
 30
0.0
 41
1.0
 10
129.3097411783409
 20
-3318.018296046364
 30
0.0
 41
1.0
 10
129.310475861054
 20
-3318.018657338825
 30
0.0
 41
1.0
 10
129.3996061706616
 20
-3318.062488653142
 30
0.0
 41
0.99902223507408
 10
129.4845162320549
 20
-3318.11402192084
 30
0.0
 41
1.0
 10
129.4847001173353
 20
-3318.114133523743
 30
0.0
 41
1.0
 10
129.4848840026157
 20
-3318.114245126647
 30
0.0
 41
1.0
 10
129.5694262934473
 20
-3318.165555188537
 30
0.0
 41
0.9988642743804824
 10
129.6487008280675
 20
-3318.224679376063
 30
0.0
 41
1.0
 10
129.7279753626856
 20
-3318.283803563588
 30
0.0
 41
0.9987681233311536
 10
129.8009991469618
 20
-3318.350494254988
 30
0.0
 41
1.0
 10
129.8013280749281
 20
-3318.350794656203
 30
0.0
 41
1.0
 10
129.8016570028943
 20
-3318.351095057418
 30
0.0
 41
1.0
 10
129.8753386431002
 20
-3318.418386551245
 30
0.0
 41
0.9987496570898308
 10
129.9419324484267
 20
-3318.492699365331
 30
0.0
 41
1.0
 10
129.9427046181884
 20
-3318.49356103869
 30
0.0
 41
1.0
 10
129.9434767879501
 20
-3318.49442271205
 30
0.0
 41
1.0
 10
130.0116149327989
 20
-3318.570458872853
 30
0.0
 41
0.9988147669826921
 10
130.0720371870263
 20
-3318.652759879699
 30
0.0
 41
1.0
 10
130.0731565131025
 20
-3318.654284511049
 30
0.0
 41
1.0
 10
130.0742758391787
 20
-3318.655809142399
 30
0.0
 41
1.0
 10
130.1369367455576
 20
-3318.741159411944
 30
0.0
 41
0.998945263621497
 10
130.1915036585193
 20
-3318.831898101103
 30
0.0
 41
1.0
 10
130.1928523846055
 20
-3318.83414088213
 30
0.0
 41
1.0
 10
130.1942011106918
 20
-3318.836383663157
 30
0.0
 41
1.0
 10
130.2514654758246
 20
-3318.931607914368
 30
0.0
 41
0.9991046436071755
 10
130.3004746891471
 20
-3319.031332347394
 30
0.0
 41
1.0
 10
130.3019385507366
 20
-3319.034311027466
 30
0.0
 41
1.0
 10
130.3034024123261
 20
-3319.037289707538
 30
0.0
 41
1.0
 10
130.3553393488266
 20
-3319.142971500705
 30
0.0
 41
0.999276383110002
 10
130.3990924773814
 20
-3319.25229556266
 30
0.0
 41
1.0
 10
130.4005717470455
 20
-3319.255991750196
 30
0.0
 41
1.0
 10
130.4020510167095
 20
-3319.259687937731
 30
0.0
 41
1.0
 10
130.4487626845918
 20
-3319.376404374756
 30
0.0
 41
0.9994163472884187
 10
130.4873957157819
 20
-3319.496037963221
 30
0.0
 41
1.0
 10
130.4886338680279
 20
-3319.499872107001
 30
0.0
 41
1.0
 10
130.4898720202739
 20
-3319.503706250782
 30
0.0
 41
1.0
 10
130.5297555812911
 20
-3319.627212312259
 30
0.0
 41
0.9997268055890478
 10
130.5638236372039
 20
-3319.752447344213
 30
0.0
 41
1.0
 10
130.5647538174735
 20
-3319.755866710322
 30
0.0
 41
1.0
 10
130.5656839977431
 20
-3319.759286076431
 30
0.0
 41
1.0
 10
130.597891693116
 20
-3319.877682376165
 30
0.0
 41
0.9996701319000426
 10
130.6239773098864
 20
-3319.997576329427
 30
0.0
 41
1.0
 10
130.6500629266568
 20
-3320.11747028269
 30
0.0
 41
0.9995785451109089
 10
130.6691465039966
 20
-3320.238676043722
 30
0.0
 41
1.0
 10
130.6733662861702
 20
-3320.265477198486
 30
0.0
 41
1.0
 10
130.6775860683438
 20
-3320.292278353251
 30
0.0
 41
1.0
 10
130.7041610442824
 20
-3320.461064326954
 30
0.0
 41
0.9979925101216923
 10
130.7091866302089
 20
-3320.631855655047
 30
0.0
 41
1.0
 10
130.7100114426336
 20
-3320.659886378528
 30
0.0
 41
1.0
 10
130.7108362550582
 20
-3320.687917102008
 30
0.0
 41
1.0
 10
130.7142122161355
 20
-3320.802646983134
 30
0.0
 41
0.9995314902262716
 10
130.7105620239968
 20
-3320.91736846689
 30
0.0
 41
1.0
 10
130.7069118318582
 20
-3321.032089950641
 30
0.0
 41
0.9996245486944606
 10
130.6969827367274
 20
-3321.146439221767
 30
0.0
 41
1.0
 10
130.6968196887331
 20
-3321.148316977902
 30
0.0
 41
1.0
 10
130.6966566407389
 20
-3321.150194734037
 30
0.0
 41
1.0
 10
130.6864014496192
 20
-3321.268299517434
 30
0.0
 41
0.9997286095001277
 10
130.6706561260484
 20
-3321.385798426324
 30
0.0
 41
1.0
 10
130.670262633398
 20
-3321.388734851027
 30
0.0
 41
1.0
 10
130.6698691407474
 20
-3321.39167127573
 30
0.0
 41
1.0
 10
130.6533368318742
 20
-3321.515043034035
 30
0.0
 41
0.9998265533969206
 10
130.6322213731422
 20
-3321.63771350882
 30
0.0
 41
1.0
 10
130.6315448310053
 20
-3321.641643887326
 30
0.0
 41
1.0
 10
130.6308682888684
 20
-3321.645574265832
 30
0.0
 41
1.0
 10
130.6083997458617
 20
-3321.776105497633
 30
0.0
 41
0.9999022530854531
 10
130.5822902812523
 20
-3321.905957466269
 30
0.0
 41
1.0
 10
130.5813116400865
 20
-3321.910824608659
 30
0.0
 41
1.0
 10
130.5803329989208
 20
-3321.915691751048
 30
0.0
 41
1.0
 10
130.5522662519803
 20
-3322.055278004461
 30
0.0
 41
0.9999524761938353
 10
130.5214832831447
 20
-3322.194290497628
 30
0.0
 41
1.0
 10
130.5202071759695
 20
-3322.200053256929
 30
0.0
 41
1.0
 10
130.5189310687944
 20
-3322.205816016231
 30
0.0
 41
1.0
 10
130.4855958856038
 20
-3322.356354028021
 30
0.0
 41
0.99998135887207
 10
130.450424884811
 20
-3322.506473740664
 30
0.0
 41
1.0
 10
130.4488709593554
 20
-3322.513106331082
 30
0.0
 41
1.0
 10
130.4473170338998
 20
-3322.5197389215
 30
0.0
 41
1.0
 10
130.4090381821894
 20
-3322.683123815007
 30
0.0
 41
0.9999955237733422
 10
130.3697823042151
 20
-3322.846276718588
 30
0.0
 41
1.0
 10
130.3575006685783
 20
-3322.897320909121
 30
0.0
 41
1.0
 10
130.3452190329416
 20
-3322.948365099654
 30
0.0
 41
1.0
 10
130.2813998837046
 20
-3323.213606384255
 30
0.0
 41
0.9999993604490409
 10
130.2169809365125
 20
-3323.47870263504
 30
0.0
 41
1.0
 10
130.2122621009714
 20
-3323.498121543056
 30
0.0
 41
1.0
 10
130.2075432654303
 20
-3323.517540451071
 30
0.0
 41
1.0
 10
130.1336866471682
 20
-3323.821474517837
 30
0.0
 41
0.999965991472742
 10
130.0548270512816
 20
-3324.124149064401
 30
0.0
 41
1.0
 10
130.0498743623524
 20
-3324.143158201578
 30
0.0
 41
1.0
 10
130.0449216734233
 20
-3324.162167338754
 30
0.0
 41
1.0
 10
129.9561566996758
 20
-3324.50286015968
 30
0.0
 41
0.9999441976023122
 10
129.8602136667143
 20
-3324.841601584973
 30
0.0
 41
1.0
 10
129.8435131482888
 20
-3324.9005652975
 30
0.0
 41
1.0
 10
129.8268126298634
 20
-3324.959529010028
 30
0.0
 41
1.0
 10
129.697468560048
 20
-3325.416197860384
 30
0.0
 41
0.9999625120737675
 10
129.5602357927263
 20
-3325.870558394375
 30
0.0
 41
1.0
 10
129.5244458496402
 20
-3325.989054421012
 30
0.0
 41
1.0
 10
129.4886559065542
 20
-3326.10755044765
 30
0.0
 41
1.0
 10
129.4141357025175
 20
-3326.354277525738
 30
0.0
 41
0.9999793386310204
 10
129.3364496793808
 20
-3326.600026164971
 30
0.0
 41
1.0
 10
129.2587636562432
 20
-3326.845774804206
 30
0.0
 41
1.0
 10
129.2479840973725
 20
-3326.879792708582
 30
0.0
 41
1.0
 10
127.3976110441034
 20
-3332.766864631049
 30
0.0
 41
1.0
 10
125.5472379908342
 20
-3338.653936553516
 30
0.0
 41
1.0
 10
124.5859813008107
 20
-3338.653936553516
 30
0.0
 41
1.0
 10
123.6247246107871
 20
-3338.653936553516
 30
0.0
 41
1.0
 10
125.2436693894655
 20
-3333.505908051727
 30
0.0
 41
1.0
 10
126.862614168144
 20
-3328.357879549937
 30
0.0
 41
1.0
 10
126.9077799913203
 20
-3328.213848327661
 30
0.0
 41
1.0
 10
126.9529458144967
 20
-3328.069817105385
 30
0.0
 41
1.0
 10
127.1232502318542
 20
-3327.526726076238
 30
0.0
 41
0.9999911657871052
 10
127.2889830435356
 20
-3326.982222544872
 30
0.0
 41
1.0
 10
127.318678987034
 20
-3326.884658604828
 30
0.0
 41
1.0
 10
127.3483749305324
 20
-3326.787094664784
 30
0.0
 41
1.0
 10
127.4547158552136
 20
-3326.437719013516
 30
0.0
 41
0.9999952428144936
 10
127.5588994445407
 20
-3326.087693989159
 30
0.0
 41
1.0
 10
127.5639589148706
 20
-3326.070695714892
 30
0.0
 41
1.0
 10
127.5690183852006
 20
-3326.053697440625
 30
0.0
 41
1.0
 10
127.6630830338665
 20
-3325.737668964806
 30
0.0
 41
0.9999931687513307
 10
127.7548088717393
 20
-3325.420953751538
 30
0.0
 41
1.0
 10
127.7597441361997
 20
-3325.403913042264
 30
0.0
 41
1.0
 10
127.76467940066
 20
-3325.386872332991
 30
0.0
 41
1.0
 10
127.8465347096087
 20
-3325.104238538282
 30
0.0
 41
0.9999893840779959
 10
127.9257819360698
 20
-3324.820862409021
 30
0.0
 41
1.0
 10
128.0050291625255
 20
-3324.537486279778
 30
0.0
 41
0.9999833980057935
 10
128.0810054032669
 20
-3324.253215696752
 30
0.0
 41
1.0
 10
128.0900093399902
 20
-3324.21952681827
 30
0.0
 41
1.0
 10
128.0990132767135
 20
-3324.185837939787
 30
0.0
 41
1.0
 10
128.1679778255779
 20
-3323.927802107498
 30
0.0
 41
0.9999233658067564
 10
128.2305327968002
 20
-3323.668137948768
 30
0.0
 41
1.0
 10
128.2930877680204
 20
-3323.408473790046
 30
0.0
 41
1.0
 10
128.332571186878
 20
-3323.244667125619
 30
0.0
 41
1.0
 10
128.3375497908556
 20
-3323.224012163748
 30
0.0
 41
1.0
 10
128.3425283948332
 20
-3323.203357201876
 30
0.0
 41
1.0
 10
128.3720546057316
 20
-3323.08086046121
 30
0.0
 41
0.9999868670879646
 10
128.4003236897317
 20
-3322.958067515548
 30
0.0
 41
1.0
 10
128.40422117689
 20
-3322.941137928129
 30
0.0
 41
1.0
 10
128.4081186640483
 20
-3322.924208340709
 30
0.0
 41
1.0
 10
128.4285927737267
 20
-3322.835274569908
 30
0.0
 41
0.9999778173340015
 10
128.4478803718434
 20
-3322.746075952672
 30
0.0
 41
1.0
 10
128.467167969959
 20
-3322.656877335442
 30
0.0
 41
0.9999602692859474
 10
128.4848623285906
 20
-3322.56734904701
 30
0.0
 41
1.0
 10
128.4880661606677
 20
-3322.551138592127
 30
0.0
 41
1.0
 10
128.4912699927448
 20
-3322.534928137244
 30
0.0
 41
1.0
 10
128.5153720155298
 20
-3322.412978939051
 30
0.0
 41
0.9995617985320989
 10
128.5322153627491
 20
-3322.289817191344
 30
0.0
 41
1.0
 10
128.5346798526557
 20
-3322.271796373975
 30
0.0
 41
1.0
 10
128.5371443425623
 20
-3322.253775556607
 30
0.0
 41
1.0
 10
128.5574276036104
 20
-3322.105460506907
 30
0.0
 41
0.9991121410639764
 10
128.5651529571986
 20
-3321.955964408101
 30
0.0
 41
1.0
 10
128.5660717472232
 20
-3321.938184571525
 30
0.0
 41
1.0
 10
128.5669905372477
 20
-3321.920404734949
 30
0.0
 41
1.0
 10
128.5728783107868
 20
-3321.806468309298
 30
0.0
 41
0.9989792494905895
 10
128.5684592186695
 20
-3321.692465473397
 30
0.0
 41
1.0
 10
128.5678112468009
 20
-3321.675749227471
 30
0.0
 41
1.0
 10
128.5671632749323
 20
-3321.659032981544
 30
0.0
 41
1.0
 10
128.5640401265526
 20
-3321.578462637504
 30
0.0
 41
0.9997820295393389
 10
128.5575561291765
 20
-3321.498092915755
 30
0.0
 41
1.0
 10
128.5510721318006
 20
-3321.417723194007
 30
0.0
 41
0.9998335105972956
 10
128.5416599362888
 20
-3321.337643577558
 30
0.0
 41
1.0
 10
128.5400650116126
 20
-3321.324073847076
 30
0.0
 41
1.0
 10
128.5384700869365
 20
-3321.310504116595
 30
0.0
 41
1.0
 10
128.5258680420719
 20
-3321.203285039176
 30
0.0
 41
0.9996876457878582
 10
128.5079241292736
 20
-3321.096829611461
 30
0.0
 41
1.0
 10
128.5056924661284
 20
-3321.083589876221
 30
0.0
 41
1.0
 10
128.5034608029833
 20
-3321.07035014098
 30
0.0
 41
1.0
 10
128.4896649815618
 20
-3320.98850399702
 30
0.0
 41
0.9995547496495336
 10
128.4710116596694
 20
-3320.907626499829
 30
0.0
 41
1.0
 10
128.4706377027981
 20
-3320.906005089123
 30
0.0
 41
1.0
 10
128.4702637459266
 20
-3320.904383678418
 30
0.0
 41
1.0
 10
128.4523583377771
 20
-3320.82674900264
 30
0.0
 41
0.9994899427175932
 10
128.4295334290975
 20
-3320.750415719804
 30
0.0
 41
1.0
 10
128.4290749023563
 20
-3320.748882270013
 30
0.0
 41
1.0
 10
128.4286163756152
 20
-3320.747348820224
 30
0.0
 41
1.0
 10
128.4067085204189
 20
-3320.67408243697
 30
0.0
 41
0.9993784877590025
 10
128.3796928853116
 20
-3320.60254173181
 30
0.0
 41
1.0
 10
128.3791611943347
 20
-3320.60113374909
 30
0.0
 41
1.0
 10
128.3786295033578
 20
-3320.599725766369
 30
0.0
 41
1.0
 10
128.3526772502055
 20
-3320.531001026653
 30
0.0
 41
0.9992430832254585
 10
128.3214607150456
 20
-3320.464501874583
 30
0.0
 41
1.0
 10
128.3208785989894
 20
-3320.463261819466
 30
0.0
 41
1.0
 10
128.3202964829332
 20
-3320.46202176435
 30
0.0
 41
1.0
 10
128.2902441798862
 20
-3320.398002722514
 30
0.0
 41
0.9990789632798176
 10
128.2548135531096
 20
-3320.336796110765
 30
0.0
 41
1.0
 10
128.2542178469269
 20
-3320.335767024904
 30
0.0
 41
1.0
 10
128.2536221407443
 20
-3320.334737939044
 30
0.0
 41
1.0
 10
128.2193829263329
 20
-3320.275589499015
 30
0.0
 41
0.9988874801122334
 10
128.1797236503008
 20
-3320.219929786597
 30
0.0
 41
1.0
 10
128.1791681242373
 20
-3320.219150134923
 30
0.0
 41
1.0
 10
128.1786125981738
 20
-3320.21837048325
 30
0.0
 41
1.0
 10
128.1400643742692
 20
-3320.16427007418
 30
0.0
 41
0.9986762060691919
 10
128.0961619029926
 20
-3320.114416359741
 30
0.0
 41
1.0
 10
128.0957179426614
 20
-3320.113912217925
 30
0.0
 41
1.0
 10
128.0952739823301
 20
-3320.113408076109
 30
0.0
 41
1.0
 10
128.0522594317169
 20
-3320.064562645302
 30
0.0
 41
0.9984621642487199
 10
128.0041018749386
 20
-3320.02077934483
 30
0.0
 41
1.0
 10
128.0038552404213
 20
-3320.020555112666
 30
0.0
 41
1.0
 10
128.0036086059039
 20
-3320.020330880502
 30
0.0
 41
1.0
 10
127.95594431816
 20
-3319.976996044359
 30
0.0
 41
0.9982724693852582
 10
127.9035256863194
 20
-3319.939551693841
 30
0.0
 41
1.0
 10
127.8511070544784
 20
-3319.902107343324
 30
0.0
 41
0.9981399180159143
 10
127.7945209910838
 20
-3319.87132082388
 30
0.0
 41
1.0
 10
127.7944753290057
 20
-3319.871295980723
 30
0.0
 41
1.0
 10
127.7944296669277
 20
-3319.871271137566
 30
0.0
 41
1.0
 10
127.7377522793757
 20
-3319.840434931807
 30
0.0
 41
0.9980927086836956
 10
127.6777069283072
 20
-3319.816818122954
 30
0.0
 41
1.0
 10
127.6772667585974
 20
-3319.816644997079
 30
0.0
 41
1.0
 10
127.6768265888876
 20
-3319.816471871206
 30
0.0
 41
1.0
 10
127.6159008984002
 20
-3319.792508810604
 30
0.0
 41
0.9981411356561917
 10
127.5525123770023
 20
-3319.776136169099
 30
0.0
 41
1.0
 10
127.551630260299
 20
-3319.775908326893
 30
0.0
 41
1.0
 10
127.5507481435956
 20
-3319.775680484687
 30
0.0
 41
1.0
 10
127.4855953887928
 20
-3319.75885215877
 30
0.0
 41
0.9983031812934916
 10
127.4189279597976
 20
-3319.749712797593
 30
0.0
 41
1.0
 10
127.4100569343942
 20
-3319.748496678922
 30
0.0
 41
1.0
 10
127.4011859089909
 20
-3319.747280560251
 30
0.0
 41
1.0
 10
127.3468362664866
 20
-3319.73982983026
 30
0.0
 41
0.9983887708263179
 10
127.2919924171938
 20
-3319.738585156627
 30
0.0
 41
1.0
 10
127.2839290119792
 20
-3319.738402158752
 30
0.0
 41
1.0
 10
127.2758656067645
 20
-3319.738219160877
 30
0.0
 41
1.0
 10
127.2371485679038
 20
-3319.737340482993
 30
0.0
 41
0.9998869563077945
 10
127.1984226146983
 20
-3319.737626352353
 30
0.0
 41
1.0
 10
127.1596966615243
 20
-3319.737912221713
 30
0.0
 41
0.9999972320099688
 10
127.12097248234
 20
-3319.738380321241
 30
0.0
 41
1.0
 10
127.1016194657324
 20
-3319.73861426133
 30
0.0
 41
1.0
 10
127.0822664491249
 20
-3319.73884820142
 30
0.0
 41
1.0
 10
127.0048362367565
 20
-3319.739784181128
 30
0.0
 41
0.9997304945087403
 10
126.9275329305209
 20
-3319.744313274914
 30
0.0
 41
1.0
 10
126.9184832888145
 20
-3319.744843480905
 30
0.0
 41
1.0
 10
126.909433647108
 20
-3319.745373686895
 30
0.0
 41
1.0
 10
126.814031057453
 20
-3319.750963192661
 30
0.0
 41
0.999788830641567
 10
126.7189387216024
 20
-3319.760468157151
 30
0.0
 41
1.0
 10
126.7102176600381
 20
-3319.761339871782
 30
0.0
 41
1.0
 10
126.7014965984738
 20
-3319.762211586414
 30
0.0
 41
1.0
 10
126.5889621394872
 20
-3319.773459980167
 30
0.0
 41
0.9984170238191483
 10
126.478402992137
 20
-3319.797276062102
 30
0.0
 41
1.0
 10
126.4420218611484
 20
-3319.805113097908
 30
0.0
 41
1.0
 10
126.4056407301599
 20
-3319.812950133715
 30
0.0
 41
1.0
 10
126.2904496617388
 20
-3319.837764000225
 30
0.0
 41
0.9976592854198093
 10
126.179721495335
 20
-3319.878062677372
 30
0.0
 41
1.0
 10
126.0689933289336
 20
-3319.918361354518
 30
0.0
 41
0.9993255074352994
 10
125.9615215301449
 20
-3319.966678253009
 30
0.0
 41
1.0
 10
125.9568963512188
 20
-3319.96875762921
 30
0.0
 41
1.0
 10
125.9522711722926
 20
-3319.970837005411
 30
0.0
 41
1.0
 10
125.8355490156552
 20
-3320.023312656303
 30
0.0
 41
0.9976475078275339
 10
125.7271016713461
 20
-3320.09126064596
 30
0.0
 41
1.0
 10
125.7087592772091
 20
-3320.102753124776
 30
0.0
 41
1.0
 10
125.6904168830721
 20
-3320.114245603592
 30
0.0
 41
1.0
 10
125.6062146915228
 20
-3320.167002724359
 30
0.0
 41
0.9995131336406573
 10
125.5254669765657
 20
-3320.224908936312
 30
0.0
 41
1.0
 10
125.4447192616103
 20
-3320.282815148264
 30
0.0
 41
0.9995810107606512
 10
125.3674576138805
 20
-3320.34529683073
 30
0.0
 41
1.0
 10
125.3644875826699
 20
-3320.347698702195
 30
0.0
 41
1.0
 10
125.3615175514593
 20
-3320.35010057366
 30
0.0
 41
1.0
 10
125.2783158413122
 20
-3320.417385999054
 30
0.0
 41
0.9996617837955223
 10
125.1987251541753
 20
-3320.488906454615
 30
0.0
 41
1.0
 10
125.1865944032965
 20
-3320.499807187607
 30
0.0
 41
1.0
 10
125.1744636524178
 20
-3320.510707920599
 30
0.0
 41
1.0
 10
125.1061881250229
 20
-3320.57206053607
 30
0.0
 41
0.9997267750052307
 10
125.0408546167399
 20
-3320.636537072595
 30
0.0
 41
1.0
 10
124.9755211084565
 20
-3320.70101360912
 30
0.0
 41
0.9999667288959521
 10
124.9112481653189
 20
-3320.766547416005
 30
0.0
 41
1.0
 10
124.8424207175391
 20
-3320.836725074768
 30
0.0
 41
1.0
 10
124.7735932697593
 20
-3320.906902733531
 30
0.0
 41
1.0
 10
124.5716654310621
 20
-3321.112791857942
 30
0.0
 41
0.9988205335174933
 10
124.3906598140829
 20
-3321.337296090002
 30
0.0
 41
1.0
 10
124.3600198491783
 20
-3321.375299340432
 30
0.0
 41
1.0
 10
124.3293798842736
 20
-3321.413302590862
 30
0.0
 41
1.0
 10
124.0870943374853
 20
-3321.713813323782
 30
0.0
 41
0.9997077826755502
 10
123.8596163863785
 20
-3322.025683118
 30
0.0
 41
1.0
 10
123.8578929712485
 20
-3322.028045901379
 30
0.0
 41
1.0
 10
123.8561695561185
 20
-3322.030408684758
 30
0.0
 41
1.0
 10
123.6252447747522
 20
-3322.347004045734
 30
0.0
 41
0.9989147567078781
 10
123.4247812718679
 20
-3322.68371350692
 30
0.0
 41
1.0
 10
123.4000401265617
 20
-3322.725270087471
 30
0.0
 41
1.0
 10
123.3752989812555
 20
-3322.766826668022
 30
0.0
 41
1.0
 10
123.2200876826197
 20
-3323.027528052472
 30
0.0
 41
0.9997476598181978
 10
123.076742695108
 20
-3323.294937801058
 30
0.0
 41
1.0
 10
122.9333977075995
 20
-3323.562347549639
 30
0.0
 41
0.9996258967110616
 10
122.8048894556679
 20
-3323.837195486262
 30
0.0
 41
1.0
 10
122.7916895462158
 20
-3323.865426886363
 30
0.0
 41
1.0
 10
122.7784896367638
 20
-3323.893658286464
 30
0.0
 41
1.0
 10
122.6382809157657
 20
-3324.193530684413
 30
0.0
 41
0.9998735413946437
 10
122.5076795690469
 20
-3324.497710283877
 30
0.0
 41
1.0
 10
122.5042367409874
 20
-3324.50572886934
 30
0.0
 41
1.0
 10
122.5007939129279
 20
-3324.513747454802
 30
0.0
 41
1.0
 10
122.3770782223311
 20
-3324.801889883334
 30
0.0
 41
0.9999377418861123
 10
122.2598234201518
 20
-3325.09272135102
 30
0.0
 41
1.0
 10
122.14256861798
 20
-3325.383552818687
 30
0.0
 41
0.99995082995047
 10
122.0311046746002
 20
-3325.676652495515
 30
0.0
 41
1.0
 10
122.0280239059373
 20
-3325.68475352148
 30
0.0
 41
1.0
 10
122.0249431372743
 20
-3325.692854547445
 30
0.0
 41
1.0
 10
121.9073176565738
 20
-3326.00215627619
 30
0.0
 41
0.9999609228434116
 10
121.7951790536953
 20
-3326.313489292217
 30
0.0
 41
1.0
 10
121.792223043347
 20
-3326.321696132623
 30
0.0
 41
1.0
 10
121.7892670329987
 20
-3326.329902973029
 30
0.0
 41
1.0
 10
121.6712164094283
 20
-3326.657649669855
 30
0.0
 41
0.9999674607400102
 10
121.5584688833578
 20
-3326.987258289857
 30
0.0
 41
1.0
 10
121.5070704927966
 20
-3327.137517485545
 30
0.0
 41
1.0
 10
121.4556721022355
 20
-3327.287776681233
 30
0.0
 41
1.0
 10
121.3396614954735
 20
-3327.626924663748
 30
0.0
 41
0.9999287532306446
 10
121.2317800915037
 20
-3327.968745402721
 30
0.0
 41
1.0
 10
121.1853028353576
 20
-3328.116007947114
 30
0.0
 41
1.0
 10
121.1388255792115
 20
-3328.263270491507
 30
0.0
 41
1.0
 10
121.1238986874911
 20
-3328.310566141829
 30
0.0
 41
0.9999998223605422
 10
121.1090281788025
 20
-3328.357879549937
 30
0.0
 41
1.0
 10
119.4883720420071
 20
-3333.505908051727
 30
0.0
 41
1.0
 10
117.8677159052116
 20
-3338.653936553516
 30
0.0
 41
1.0
 10
116.9624074613207
 20
-3338.653936553516
 30
0.0
 41
1.0
 10
116.0570990174298
 20
-3338.653936553516
 30
0.0
 41
1.0
 10
117.9091834288158
 20
-3332.766864631049
 30
0.0
 41
1.0
 10
119.7612678402019
 20
-3326.879792708582
 30
0.0
 41
1.0
 10
119.7713895985046
 20
-3326.847749495132
 30
0.0
 41
1.0
 10
119.8439972673543
 20
-3326.617449953306
 30
0.0
 41
1.0
 10
119.9166049362074
 20
-3326.38715041147
 30
0.0
 41
0.9999825681973038
 10
119.9864879754154
 20
-3326.156009516416
 30
0.0
 41
1.0
 10
120.0347790375765
 20
-3325.996284932919
 30
0.0
 41
1.0
 10
120.0830700997376
 20
-3325.836560349422
 30
0.0
 41
1.0
 10
120.1802224530522
 20
-3325.515225127655
 30
0.0
 41
0.9999672528955358
 10
120.2721612586764
 20
-3325.192359582065
 30
0.0
 41
1.0
 10
120.2749501423436
 20
-3325.182565736684
 30
0.0
 41
1.0
 10
120.2777390260108
 20
-3325.172771891303
 30
0.0
 41
1.0
 10
120.3641000642924
 20
-3324.869494036505
 30
0.0
 41
0.999989974913892
 10
120.4477416738345
 20
-3324.565454948026
 30
0.0
 41
1.0
 10
120.4578475928533
 20
-3324.528719710343
 30
0.0
 41
1.0
 10
120.4679535118722
 20
-3324.491984472659
 30
0.0
 41
1.0
 10
120.5313832833696
 20
-3324.261415859572
 30
0.0
 41
0.9999214200505726
 10
120.5890127117469
 20
-3324.029329517364
 30
0.0
 41
1.0
 10
120.6017785639286
 20
-3323.977918631964
 30
0.0
 41
1.0
 10
120.6145444161103
 20
-3323.926507746563
 30
0.0
 41
1.0
 10
120.6466421401245
 20
-3323.797243175156
 30
0.0
 41
0.9999828681663113
 10
120.67722439212
 20
-3323.667611700688
 30
0.0
 41
1.0
 10
120.7078066441139
 20
-3323.537980226227
 30
0.0
 41
0.9999389844481011
 10
120.7355176329059
 20
-3323.407704770315
 30
0.0
 41
1.0
 10
120.7426553766255
 20
-3323.37414866648
 30
0.0
 41
1.0
 10
120.7497931203451
 20
-3323.340592562646
 30
0.0
 41
1.0
 10
120.7917795965754
 20
-3323.143204899069
 30
0.0
 41
0.9998933699440216
 10
120.827983860976
 20
-3322.944675291317
 30
0.0
 41
1.0
 10
120.8293566861929
 20
-3322.937147270618
 30
0.0
 41
1.0
 10
120.8307295114097
 20
-3322.929619249919
 30
0.0
 41
1.0
 10
120.8696794262449
 20
-3322.716033600766
 30
0.0
 41
0.9996850305193461
 10
120.8978631025035
 20
-3322.500762595329
 30
0.0
 41
1.0
 10
120.8998581358727
 20
-3322.485524241208
 30
0.0
 41
1.0
 10
120.901853169242
 20
-3322.470285887086
 30
0.0
 41
1.0
 10
120.9292610317013
 20
-3322.260940659928
 30
0.0
 41
0.9994697936706795
 10
120.9429855909206
 20
-3322.050255464601
 30
0.0
 41
1.0
 10
120.9434626601703
 20
-3322.042931992391
 30
0.0
 41
1.0
 10
120.9439397294199
 20
-3322.03560852018
 30
0.0
 41
1.0
 10
120.9567101501399
 20
-3321.839570269273
 30
0.0
 41
0.9991804893137146
 10
120.9535818338674
 20
-3321.643141419297
 30
0.0
 41
1.0
 10
120.9534979550453
 20
-3321.637874617884
 30
0.0
 41
1.0
 10
120.9534140762232
 20
-3321.632607816472
 30
0.0
 41
1.0
 10
120.9504535175945
 20
-3321.446712569325
 30
0.0
 41
0.9988448329322273
 10
120.9296619719709
 20
-3321.26195997949
 30
0.0
 41
1.0
 10
120.9280678982678
 20
-3321.247795123719
 30
0.0
 41
1.0
 10
120.9264738245648
 20
-3321.233630267948
 30
0.0
 41
1.0
 10
120.9088704263473
 20
-3321.077207389657
 30
0.0
 41
0.9985503209457798
 10
120.8745541540475
 20
-3320.923583205567
 30
0.0
 41
1.0
 10
120.8669681619764
 20
-3320.889622878168
 30
0.0
 41
1.0
 10
120.8593821699053
 20
-3320.855662550768
 30
0.0
 41
1.0
 10
120.8402378817482
 20
-3320.769959021479
 30
0.0
 41
0.999103678137093
 10
120.8139130200968
 20
-3320.686181934153
 30
0.0
 41
1.0
 10
120.8099307946407
 20
-3320.673508771642
 30
0.0
 41
1.0
 10
120.8059485691847
 20
-3320.660835609131
 30
0.0
 41
1.0
 10
120.7875881584466
 20
-3320.602404846832
 30
0.0
 41
0.9998874504368302
 10
120.7674829507671
 20
-3320.544551244605
 30
0.0
 41
1.0
 10
120.7473777430875
 20
-3320.486697642379
 30
0.0
 41
0.9994041637544385
 10
120.7233291301536
 20
-3320.43036893849
 30
0.0
 41
1.0
 10
120.7191323459295
 20
-3320.420538874008
 30
0.0
 41
1.0
 10
120.7149355617054
 20
-3320.410708809526
 30
0.0
 41
1.0
 10
120.6870567307121
 20
-3320.345408643561
 30
0.0
 41
0.9991846840701046
 10
120.6540003740188
 20
-3320.28257061228
 30
0.0
 41
1.0
 10
120.6528637676238
 20
-3320.280409995826
 30
0.0
 41
1.0
 10
120.6517271612289
 20
-3320.278249379371
 30
0.0
 41
1.0
 10
120.6209440173263
 20
-3320.219732581001
 30
0.0
 41
0.9989253167923756
 10
120.5848745932707
 20
-3320.16431765261
 30
0.0
 41
1.0
 10
120.5838204685971
 20
-3320.162698157848
 30
0.0
 41
1.0
 10
120.5827663439235
 20
-3320.161078663087
 30
0.0
 41
1.0
 10
120.5488051692169
 20
-3320.108902724221
 30
0.0
 41
0.9986467172836456
 10
120.5096080165784
 20
-3320.06053669059
 30
0.0
 41
1.0
 10
120.5087338878776
 20
-3320.059458088312
 30
0.0
 41
1.0
 10
120.5078597591769
 20
-3320.058379486034
 30
0.0
 41
1.0
 10
120.4704108639406
 20
-3320.01217065696
 30
0.0
 41
0.9984001104269232
 10
120.4279841334238
 20
-3319.970485549592
 30
0.0
 41
1.0
 10
120.4273969953145
 20
-3319.96990867471
 30
0.0
 41
1.0
 10
120.4268098572052
 20
-3319.969331799829
 30
0.0
 41
1.0
 10
120.3855574029074
 20
-3319.928800442224
 30
0.0
 41
0.9982442159084665
 10
120.3398013015711
 20
-3319.893431880963
 30
0.0
 41
1.0
 10
120.3395865061102
 20
-3319.89326584832
 30
0.0
 41
1.0
 10
120.3393717106492
 20
-3319.893099815678
 30
0.0
 41
1.0
 10
120.2940452002364
 20
-3319.858063319703
 30
0.0
 41
0.998245006083526
 10
120.2448942211637
 20
-3319.828631536669
 30
0.0
 41
1.0
 10
120.1957432420917
 20
-3319.799199753636
 30
0.0
 41
0.9983922639633603
 10
120.1435769359275
 20
-3319.775520118982
 30
0.0
 41
1.0
 10
120.1433500586028
 20
-3319.7754171335
 30
0.0
 41
1.0
 10
120.1431231812782
 20
-3319.775314148019
 30
0.0
 41
1.0
 10
120.0905031204648
 20
-3319.751428542402
 30
0.0
 41
0.9986517147149755
 10
120.0356901475971
 20
-3319.73312742328
 30
0.0
 41
1.0
 10
120.0350122261689
 20
-3319.732901076849
 30
0.0
 41
1.0
 10
120.0343343047408
 20
-3319.732674730417
 30
0.0
 41
1.0
 10
119.9781654890186
 20
-3319.713920918433
 30
0.0
 41
0.9989435598958399
 10
119.9205121018692
 20
-3319.700403216199
 30
0.0
 41
1.0
 10
119.9194319822857
 20
-3319.700149965945
 30
0.0
 41
1.0
 10
119.9183518627023
 20
-3319.699896715692
 30
0.0
 41
1.0
 10
119.8585382363856
 20
-3319.685872512951
 30
0.0
 41
0.9992249241240799
 10
119.7978067274861
 20
-3319.676597170235
 30
0.0
 41
1.0
 10
119.7963930391971
 20
-3319.676381261828
 30
0.0
 41
1.0
 10
119.7949793509081
 20
-3319.67616535342
 30
0.0
 41
1.0
 10
119.731420465432
 20
-3319.66645819389
 30
0.0
 41
0.9994396597834091
 10
119.6673545288983
 20
-3319.661025271544
 30
0.0
 41
1.0
 10
119.6482138614172
 20
-3319.659402103825
 30
0.0
 41
1.0
 10
119.6290731939361
 20
-3319.657778936106
 30
0.0
 41
1.0
 10
119.5267259224414
 20
-3319.649099678324
 30
0.0
 41
0.9987693403120541
 10
119.4240222988524
 20
-3319.650602741777
 30
0.0
 41
1.0
 10
119.4137679646272
 20
-3319.650752813551
 30
0.0
 41
1.0
 10
119.4035136304021
 20
-3319.650902885325
 30
0.0
 41
1.0
 10
119.2939578642232
 20
-3319.652506229612
 30
0.0
 41
0.9989753644965705
 10
119.1849958642066
 20
-3319.664009236537
 30
0.0
 41
1.0
 10
119.0760338641886
 20
-3319.675512243462
 30
0.0
 41
0.9983190067305815
 10
118.9691350532225
 20
-3319.69954723525
 30
0.0
 41
1.0
 10
118.9602341016171
 20
-3319.701548513812
 30
0.0
 41
1.0
 10
118.9513331500117
 20
-3319.703549792374
 30
0.0
 41
1.0
 10
118.8266324358351
 20
-3319.731587341286
 30
0.0
 41
0.9985539388303241
 10
118.7056626821584
 20
-3319.772851017332
 30
0.0
 41
1.0
 10
118.7033172511966
 20
-3319.773651061148
 30
0.0
 41
1.0
 10
118.7009718202347
 20
-3319.774451104964
 30
0.0
 41
1.0
 10
118.5753112046368
 20
-3319.817314868641
 30
0.0
 41
0.9988468746493272
 10
118.4543408623382
 20
-3319.872032953702
 30
0.0
 41
1.0
 10
118.4511580403483
 20
-3319.873472628263
 30
0.0
 41
1.0
 10
118.4479752183585
 20
-3319.874912302823
 30
0.0
 41
1.0
 10
118.3206392320826
 20
-3319.932509737005
 30
0.0
 41
0.9991322885919687
 10
118.1985386480254
 20
-3320.000505069187
 30
0.0
 41
1.0
 10
118.1809366369807
 20
-3320.010307271177
 30
0.0
 41
1.0
 10
118.1633346259361
 20
-3320.020109473167
 30
0.0
 41
1.0
 10
118.0611579448778
 20
-3320.077009588948
 30
0.0
 41
0.9993860037849666
 10
117.9632169408055
 20
-3320.140925604536
 30
0.0
 41
1.0
 10
117.9575986279497
 20
-3320.144592099234
 30
0.0
 41
1.0
 10
117.951980315094
 20
-3320.148258593931
 30
0.0
 41
1.0
 10
117.8652759367288
 20
-3320.204841620127
 30
0.0
 41
0.9998821494954867
 10
117.7803495609193
 20
-3320.264059850202
 30
0.0
 41
1.0
 10
117.6954231851108
 20
-3320.323278080275
 30
0.0
 41
0.9997976482743655
 10
117.6129475547076
 20
-3320.385864488317
 30
0.0
 41
1.0
 10
117.5983112899003
 20
-3320.396971178098
 30
0.0
 41
1.0
 10
117.583675025093
 20
-3320.40807786788
 30
0.0
 41
1.0
 10
117.4719268650787
 20
-3320.492877655482
 30
0.0
 41
0.9998091630800153
 10
117.3635765870462
 20
-3320.581978006187
 30
0.0
 41
1.0
 10
117.3505708345718
 20
-3320.592673106631
 30
0.0
 41
1.0
 10
117.3375650820973
 20
-3320.603368207075
 30
0.0
 41
1.0
 10
117.2032032991143
 20
-3320.713858758669
 30
0.0
 41
0.9995035112317421
 10
117.0760674213486
 20
-3320.832592575686
 30
0.0
 41
1.0
 10
117.0664201109605
 20
-3320.841602321844
 30
0.0
 41
1.0
 10
117.0567728005725
 20
-3320.850612068003
 30
0.0
 41
1.0
 10
116.9333497378114
 20
-3320.965878439755
 30
0.0
 41
0.9994630424299245
 10
116.8177413320278
 20
-3321.08898118299
 30
0.0
 41
1.0
 10
116.814058493257
 20
-3321.092902762502
 30
0.0
 41
1.0
 10
116.8103756544862
 20
-3321.096824342015
 30
0.0
 41
1.0
 10
116.7021329262438
 20
-3321.212083926225
 30
0.0
 41
0.9995160693750162
 10
116.6012668967119
 20
-3321.333851344098
 30
0.0
 41
1.0
 10
116.5993331766312
 20
-3321.336185768306
 30
0.0
 41
1.0
 10
116.5973994565506
 20
-3321.338520192514
 30
0.0
 41
1.0
 10
116.5004008671781
 20
-3321.455618761973
 30
0.0
 41
0.9996561470514627
 10
116.4096746485141
 20
-3321.57764152442
 30
0.0
 41
1.0
 10
116.4035169826151
 20
-3321.585923313458
 30
0.0
 41
1.0
 10
116.397359316716
 20
-3321.594205102496
 30
0.0
 41
1.0
 10
116.3189484298506
 20
-3321.699664286865
 30
0.0
 41
0.9998349055172063
 10
116.2444211479159
 20
-3321.807902870532
 30
0.0
 41
1.0
 10
116.1698938659764
 20
-3321.916141454206
 30
0.0
 41
0.9999728109560038
 10
116.0969709700723
 20
-3322.025467379753
 30
0.0
 41
1.0
 10
116.0956557546612
 20
-3322.027439149254
 30
0.0
 41
1.0
 10
116.0943405392501
 20
-3322.029410918756
 30
0.0
 41
1.0
 10
116.0187872125323
 20
-3322.142680383292
 30
0.0
 41
0.9999972147402614
 10
115.9437694021528
 20
-3322.256305226136
 30
0.0
 41
1.0
 10
115.9387978595253
 20
-3322.263835314616
 30
0.0
 41
1.0
 10
115.9338263168977
 20
-3322.271365403096
 30
0.0
 41
1.0
 10
115.8488654212792
 20
-3322.400050422876
 30
0.0
 41
0.9999371979007826
 10
115.766810071875
 20
-3322.530607336654
 30
0.0
 41
1.0
 10
115.7633011875128
 20
-3322.536190264719
 30
0.0
 41
1.0
 10
115.7597923031506
 20
-3322.541773192785
 30
0.0
 41
1.0
 10
115.6707191850196
 20
-3322.683495962698
 30
0.0
 41
0.9998272025609853
 10
115.5869757941366
 20
-3322.828431839442
 30
0.0
 41
1.0
 10
115.5717606221143
 20
-3322.854764953895
 30
0.0
 41
1.0
 10
115.556545450092
 20
-3322.881098068349
 30
0.0
 41
1.0
 10
115.4423717151637
 20
-3323.078700174002
 30
0.0
 41
0.9995217214838219
 10
115.3406320256086
 20
-3323.282982501863
 30
0.0
 41
1.0
 10
115.3329884629714
 20
-3323.29832995157
 30
0.0
 41
1.0
 10
115.3253449003342
 20
-3323.313677401277
 30
0.0
 41
1.0
 10
115.2384396077468
 20
-3323.488173859354
 30
0.0
 41
0.9998269762607428
 10
115.1580851414743
 20
-3323.665782146078
 30
0.0
 41
1.0
 10
115.0777306752028
 20
-3323.8433904328
 30
0.0
 41
0.9998944747388728
 10
115.0025698806373
 20
-3324.023258158431
 30
0.0
 41
1.0
 10
114.9976162110451
 20
-3324.035112813351
 30
0.0
 41
1.0
 10
114.992662541453
 20
-3324.046967468271
 30
0.0
 41
1.0
 10
114.9120154809002
 20
-3324.239964408289
 30
0.0
 41
0.9999506734409606
 10
114.8352179519985
 20
-3324.434525213141
 30
0.0
 41
1.0
 10
114.8206179867276
 20
-3324.471513134947
 30
0.0
 41
1.0
 10
114.8060180214566
 20
-3324.508501056753
 30
0.0
 41
1.0
 10
114.7584204230963
 20
-3324.629086017993
 30
0.0
 41
0.9999912393959738
 10
114.7118339790724
 20
-3324.750065220693
 30
0.0
 41
1.0
 10
114.6652475350437
 20
-3324.871044423405
 30
0.0
 41
0.9999927113993688
 10
114.6195862406567
 20
-3324.992375830888
 30
0.0
 41
1.0
 10
114.6056178092585
 20
-3325.029492812889
 30
0.0
 41
1.0
 10
114.5916493778603
 20
-3325.066609794889
 30
0.0
 41
1.0
 10
114.5180512206714
 20
-3325.262175166386
 30
0.0
 41
0.9999487550946052
 10
114.4484275956992
 20
-3325.45919053157
 30
0.0
 41
1.0
 10
114.4248339857617
 20
-3325.525953841865
 30
0.0
 41
1.0
 10
114.4012403758242
 20
-3325.592717152159
 30
0.0
 41
1.0
 10
114.3065547414525
 20
-3325.860650986987
 30
0.0
 41
0.9999808436929756
 10
114.2151931528132
 20
-3326.129736418246
 30
0.0
 41
1.0
 10
114.1238315641776
 20
-3326.398821849493
 30
0.0
 41
0.9999873932916875
 10
114.0351768554525
 20
-3326.668811204527
 30
0.0
 41
1.0
 10
114.0150844985837
 20
-3326.730000537278
 30
0.0
 41
1.0
 10
113.9949921417149
 20
-3326.791189870029
 30
0.0
 41
1.0
 10
113.8661527192617
 20
-3327.183557890537
 30
0.0
 41
0.9999794883028177
 10
113.7423499343007
 20
-3327.577544096824
 30
0.0
 41
1.0
 10
113.7311976748622
 20
-3327.613034707064
 30
0.0
 41
1.0
 10
113.7200454154237
 20
-3327.648525317305
 30
0.0
 41
1.0
 10
113.5774872515261
 20
-3328.102198069391
 30
0.0
 41
0.999998276175181
 10
113.4366148115124
 20
-3328.55639709151
 30
0.0
 41
1.0
 10
111.8484744789398
 20
-3333.605166822513
 30
0.0
 41
1.0
 10
110.2603341463672
 20
-3338.653936553516
 30
0.0
 41
1.0
 10
109.3115835348908
 20
-3338.653936553516
 30
0.0
 41
1.0
 10
108.3628329234144
 20
-3338.653936553516
 30
0.0
 41
1.0
 10
111.6011174095676
 20
-3328.32661435357
 30
0.0
 41
1.0
 10
114.8394018957208
 20
-3317.999292153624
 30
0.0
 41
1.0
  0
LWPOLYLINE
  5
62
330
23
100
AcDbEntity
  8
0
  6
Continuous
 62
     7
370
    15
390
1D
100
AcDbPolyline
 90
      232
 70
   128
 43
0.0
 10
89.13585612189377
 20
-3319.083634985139
 42
0.0004370800687513
 10
89.08297894785434
 20
-3319.152301624353
 10
89.04369471669429
 20
-3319.203408737292
 42
0.0030481992175466
 10
88.91335599957597
 20
-3319.375130429636
 10
88.87484432782469
 20
-3319.426517213425
 42
0.0042058245758935
 10
88.67085927713657
 20
-3319.703522958524
 10
88.61845415465416
 20
-3319.775955805279
 42
0.0120948898741803
 10
88.3224102378938
 20
-3320.206705409826
 10
88.22621773877084
 20
-3320.354186145053
 42
0.0141601263947087
 10
87.92257369184881
 20
-3320.849855481788
 10
87.88303642442511
 20
-3320.918699449216
 42
0.0071131081301262
 10
87.67776410118444
 20
-3321.288202248058
 42
0.0068458791003265
 10
87.48288457433704
 20
-3321.663293811543
 10
87.4760727118836
 20
-3321.676855525258
 42
0.0064120880291063
 10
87.27793046183825
 20
-3322.084280000179
 10
87.27039577632229
 20
-3322.100291856898
 42
0.0058857236447469
 10
87.06764038445566
 20
-3322.544667967921
 10
87.05946545815664
 20
-3322.563158121567
 42
0.0053189741893978
 10
86.85076114548905
 20
-3323.049121595485
 10
86.84201333980775
 20
-3323.070103473681
 42
0.0047503650417061
 10
86.62603961366139
 20
-3323.602302906879
 10
86.61677136530892
 20
-3323.625779282998
 42
0.0042071762170945
 10
86.39222398158012
 20
-3324.208872877071
 10
86.38247457923251
 20
-3324.234839051938
 42
0.0036680086484391
 10
86.14801993592202
 20
-3324.873474436465
 10
86.13781215607264
 20
-3324.901922970814
 42
0.0032573142630214
 10
85.8921798701044
 20
-3325.600775630572
 10
85.82352934926702
 20
-3325.800238714615
 42
0.0026133366650121
 10
85.47508415050726
 20
-3326.830101998292
 10
85.41182736299693
 20
-3327.020332833714
 42
0.002059295074381
 10
85.19796429403948
 20
-3327.672436486298
 10
85.19491250288061
 20
-3327.681872974695
 42
0.0025609928533819
 10
84.99309200139055
 20
-3328.317018197074
 10
84.99050063426067
 20
-3328.325320538024
 42
0.0031362356245695
 10
84.80100984858694
 20
-3328.946083394193
 10
84.79887880566191
 20
-3328.953224700397
 42
0.0037229918029433
 10
84.62207841873317
 20
-3329.562210002379
 10
84.62039982952581
 20
-3329.568156892557
 42
0.0043077623710569
 10
84.45665902746168
 20
-3330.167975624322
 42
0.0047654161820777
 10
84.30383030494725
 20
-3330.770661713218
 10
84.2693656961066
 20
-3330.912223490374
 42
0.0112969368443653
 10
84.07350133796281
 20
-3331.803915650999
 10
84.04549494886635
 20
-3331.946743697096
 42
0.013005676257198
 10
83.84465770521973
 20
-3333.133684768742
 10
83.82411795507241
 20
-3333.27776288222
 42
0.0138721532145141
 10
83.72041495053475
 20
-3334.184592368044
 10
83.70111946262682
 20
-3334.408090089969
 42
0.0071254697007365
 10
83.66777281670426
 20
-3334.871277098816
 10
83.66281184254092
 20
-3334.957281093378
 42
0.0028881799201996
 10
83.64767354925112
 20
-3335.249022803219
 42
0.0060297297136504
 10
83.63774134947565
 20
-3335.540971739333
 10
83.63667906780852
 20
-3335.589364111266
 42
0.0229523164148411
 10
83.64441009559425
 20
-3335.912118957551
 10
83.64863586911459
 20
-3335.972522491566
 42
0.012367330065616
 10
83.66771451563295
 20
-3336.173643216742
 42
0.0128577674466444
 10
83.6969099060392
 20
-3336.373541066668
 10
83.70403577942625
 20
-3336.414869881265
 42
0.0285717853766524
 10
83.768529781122
 20
-3336.692986032579
 10
83.78219830478889
 20
-3336.739640802058
 42
0.0316283099153358
 10
83.89800888470262
 20
-3337.058655303882
 10
83.90105757645772
 20
-3337.065641676207
 42
0.0338984824238684
 10
84.05048928742531
 20
-3337.353207640397
 10
84.05279801679595
 20
-3337.356998669674
 42
0.0350228718355792
 10
84.23515830746874
 20
-3337.614050654349
 10
84.2360435592432
 20
-3337.615129732113
 42
0.0347476747526298
 10
84.45046824648387
 20
-3337.842314779333
 42
0.0331337701909133
 10
84.69371157223026
 20
-3338.038443441411
 10
84.69481167074639
 20
-3338.039216144583
 42
0.0305233319085772
 10
84.96335636631889
 20
-3338.204344314674
 10
84.96658641082098
 20
-3338.206068326537
 42
0.0273744481158059
 10
85.25914012239565
 20
-3338.342206470428
 10
85.2642446575328
 20
-3338.344250054897
 42
0.024096440620837
 10
85.57972173318436
 20
-3338.45323378118
 10
85.58630506238848
 20
-3338.455158520854
 42
0.0209636179810269
 10
85.92370521504073
 20
-3338.538626668786
 10
85.93133767548977
 20
-3338.540178581787
 42
0.0181388704691254
 10
86.28966006748404
 20
-3338.599594675
 10
86.29794091586638
 20
-3338.600660858818
 42
0.015608654758249
 10
86.67612828005463
 20
-3338.637397045395
 10
86.71932353239367
 20
-3338.640235547875
 42
0.013714832902663
 10
87.04699667768114
 20
-3338.652755803126
 10
87.09293286765183
 20
-3338.653250236241
 42
0.0051057823895187
 10
87.32907845419936
 20
-3338.653380490649
 42
0.0052256693311937
 10
87.56517573798367
 20
-3338.648631666185
 10
87.63540252172743
 20
-3338.646484700171
 42
0.0161507179049416
 10
88.01113959983105
 20
-3338.622834329844
 10
88.03115256020175
 20
-3338.620924134557
 42
0.0101216737841059
 10
88.44517978169905
 20
-3338.572931204191
 10
88.47923307111921
 20
-3338.568283507382
 42
0.0245291776394488
 10
88.95602272667027
 20
-3338.479208429306
 10
89.0408460421886
 20
-3338.459012508961
 42
0.0143509212560619
 10
89.39747714613395
 20
-3338.363207875181
 42
0.0156557857039878
 10
89.74769321086957
 20
-3338.246196659359
 10
89.75519442535585
 20
-3338.243426497608
 42
0.0170137333625336
 10
90.1117904210293
 20
-3338.097768882741
 10
90.11889434344471
 20
-3338.094581047174
 42
0.018310536441121
 10
90.47824401161436
 20
-3337.917246005347
 10
90.48519077624974
 20
-3337.913495570477
 42
0.0194899958153112
 10
90.84367151723313
 20
-3337.701516588587
 10
90.85068539657044
 20
-3337.696991246291
 42
0.0204869852950272
 10
91.20469969866274
 20
-3337.447471231207
 10
91.21196530725138
 20
-3337.441891165857
 42
0.0212516938559515
 10
91.55795523836031
 20
-3337.151987168962
 10
91.60447193243529
 20
-3337.109519858869
 42
0.0215248918251497
 10
91.86449810132268
 20
-3336.850755579874
 10
91.90952783570837
 20
-3336.801911458519
 42
0.0114578554957975
 10
92.06431998938064
 20
-3336.626088525066
 10
92.07551452536393
 20
-3336.612769761525
 42
0.0061531305139366
 10
92.20198917136167
 20
-3336.458480228215
 42
0.000632558712019
 10
92.32636765553826
 20
-3336.302476852508
 10
92.34940779056495
 20
-3336.27350333188
 42
0.0041897761551606
 10
92.51786319453794
 20
-3336.057983955818
 10
92.57632531442982
 20
-3335.981882608833
 42
0.009299388004144
 10
92.85293724165936
 20
-3335.607603844941
 10
92.93533173484924
 20
-3335.491666841385
 42
0.0159321727083296
 10
93.28193821749483
 20
-3334.969492620624
 10
93.32629435288334
 20
-3334.897813056375
 42
0.0085547317022267
 10
93.56080611820965
 20
-3334.50393810715
 42
0.0084601156890633
 10
93.78178229565722
 20
-3334.102311258107
 10
93.78989776948208
 20
-3334.086951575845
 42
0.0081429654285691
 10
94.01314703991824
 20
-3333.647230063307
 10
94.0220072041036
 20
-3333.629051221284
 42
0.0076574581329004
 10
94.24841471467512
 20
-3333.145868346021
 10
94.257894355394
 20
-3333.124803867729
 42
0.007068272419899
 10
94.48833926320401
 20
-3332.59276656294
 10
94.4983295471825
 20
-3332.568777373936
 42
0.0064559514446598
 10
94.73366275536344
 20
-3331.982465107418
 10
94.74407211352917
 20
-3331.955530181974
 42
0.0058311413907636
 10
94.98511885029194
 20
-3331.309498087591
 10
94.99587392767944
 20
-3331.27961374643
 42
0.0052312425817691
 10
95.24345520571967
 20
-3330.568411332597
 10
95.25449904210012
 20
-3330.535584620526
 42
0.0046680544796663
 10
95.50942746983213
 20
-3329.753758304779
 10
95.55141961987724
 20
-3329.620775067482
 42
0.0041666856443292
 10
95.7547056322731
 20
-3328.957806292473
 10
95.79236807293887
 20
-3328.831225184813
 42
0.0015170975154942
 10
95.91355465134995
 20
-3328.419356833326
 42
-0.0004887993119157
 10
96.03389442446976
 20
-3328.007238421295
 10
96.11037168196816
 20
-3327.746281035343
 42
0.0002583378926776
 10
96.38358625205694
 20
-3326.812224332079
 10
96.4653591015953
 20
-3326.532125072627
 42
0.0006636169669015
 10
96.65922686162037
 20
-3325.864772148994
 10
96.66432351597867
 20
-3325.847140566075
 42
0.0010589131322017
 10
96.84577221688403
 20
-3325.214409223065
 10
96.85075428736877
 20
-3325.19689631603
 42
0.0015655524464497
 10
97.0190244945473
 20
-3324.598279636844
 10
97.02385469495987
 20
-3324.580887477917
 42
0.002164044047501
 10
97.1781446669483
 20
-3324.01586045989
 10
97.18277888637792
 20
-3323.998595729897
 42
0.0028763871853932
 10
97.32229460443119
 20
-3323.466627779049
 10
97.32668046859884
 20
-3323.449503800893
 42
0.0037310511944245
 10
97.45063716043529
 20
-3322.950056206871
 10
97.45471238072581
 20
-3322.933095935619
 42
0.004765219776858
 10
97.56233628123277
 20
-3322.46561816732
 10
97.56602688055465
 20
-3322.448858612177
 42
0.006027669929873
 10
97.65655697970982
 20
-3322.012782817026
 10
97.65977566999867
 20
-3321.996281602718
 42
0.0075824337758436
 10
97.73246497941443
 20
-3321.591014438291
 10
97.73511035679559
 20
-3321.574859490835
 42
0.0095130624603503
 10
97.78922559242591
 20
-3321.199770137769
 10
97.7962118163083
 20
-3321.143836579653
 42
0.0121054653220215
 10
97.82280314688637
 20
-3320.878940751178
 10
97.82366963664589
 20
-3320.867537308249
 42
0.0069050827386911
 10
97.83875845468361
 20
-3320.624596081404
 10
97.83989375435226
 20
-3320.601069824357
 42
0.0169063976693334
 10
97.84272103333245
 20
-3320.404877097059
 10
97.84155038180114
 20
-3320.344541335707
 42
0.0052007732873165
 10
97.83929693320817
 20
-3320.268947945558
 42
0.0054038123291652
 10
97.81933342136836
 20
-3320.148929649542
 10
97.81424756549887
 20
-3320.120271162967
 42
0.0112050460453736
 10
97.77886320344007
 20
-3319.943944724626
 10
97.76103824139972
 20
-3319.864403137907
 42
0.0240764468003875
 10
97.67014087525342
 20
-3319.534166102405
 10
97.65158211243934
 20
-3319.477545937409
 42
0.0256812331831474
 10
97.50821919225058
 20
-3319.105821731155
 10
97.50280976642932
 20
-3319.093690396165
 42
0.0268360501217077
 10
97.33338252557928
 20
-3318.762697262144
 10
97.3278461179422
 20
-3318.753177591828
 42
0.0274670231728967
 10
97.13564514153092
 20
-3318.460890216914
 10
97.13026384156844
 20
-3318.453611069373
 42
0.0275035967094921
 10
96.91869096200645
 20
-3318.198095179069
 10
96.91362146104034
 20
-3318.192616091439
 42
0.0269557673520074
 10
96.68621791760035
 20
-3317.971973805476
 10
96.681474859817
 20
-3317.967843851015
 42
0.0259124802207122
 10
96.44192002838696
 20
-3317.780153323863
 10
96.43738918320774
 20
-3317.776967821535
 42
0.0245162153001232
 10
96.18947283011028
 20
-3317.620234812422
 10
96.18494628379078
 20
-3317.617674615224
 42
0.0229282588841514
 10
95.93252672695871
 20
-3317.489806422723
 10
95.92774623312319
 20
-3317.487654122961
 42
0.0212984135697827
 10
95.67470828066024
 20
-3317.386455205718
 10
95.66940399569009
 20
-3317.384591642958
 42
0.0197555462349089
 10
95.41962565796774
 20
-3317.307776224993
 42
0.0183511896781952
 10
95.16469693249987
 20
-3317.250193318027
 10
95.07833173578257
 20
-3317.233990527643
 42
0.0338057877143982
 10
94.79282438652126
 20
-3317.200182122503
 10
94.70181898149082
 20
-3317.195602467241
 42
0.0091990524459863
 10
94.59597187284533
 20
-3317.192226611319
 42
0.0028333980758673
 10
94.49005795687451
 20
-3317.191398503802
 10
94.48914250380307
 20
-3317.191396533978
 42
-0.0023619827826251
 10
94.38139648869152
 20
-3317.1906556929
 10
94.3449913185213
 20
-3317.190233386437
 42
0.0008824598483018
 10
94.16443532875135
 20
-3317.188457608199
 10
94.12057389626546
 20
-3317.188103646673
 42
0.0038132665768583
 10
93.85229100033867
 20
-3317.187984710607
 10
93.83575734559315
 20
-3317.18810347675
 42
0.00606655693448
 10
93.5344768540005
 20
-3317.193923776171
 10
93.5202265219765
 20
-3317.194372084138
 42
0.0080356953330374
 10
93.19076780564335
 20
-3317.210039806205
 10
93.17869779055002
 20
-3317.210808389146
 42
0.0098996399102909
 10
92.82593470590204
 20
-3317.240293618343
 10
92.81588899652445
 20
-3317.241333914542
 42
0.0117740981368087
 10
92.44473213818443
 20
-3317.28862616207
 10
92.43650944169315
 20
-3317.289871278642
 42
0.0137435215136303
 10
92.05192062220416
 20
-3317.358968252205
 10
92.0452635830847
 20
-3317.360354148438
 42
0.0158359869385953
 10
91.65226648927747
 20
-3317.45524623692
 10
91.64685330241508
 20
-3317.456736177789
 42
0.0180554124028758
 10
91.25053825779787
 20
-3317.581374194029
 10
91.24598146971925
 20
-3317.582990230294
 42
0.0203657431283556
 10
90.85150395191042
 20
-3317.741250571808
 10
90.84736041290057
 20
-3317.743112193251
 42
0.0226819684657101
 10
90.4599243566922
 20
-3317.938754771926
 10
90.45572456567879
 20
-3317.941120363843
 42
0.0248634984605622
 10
90.0805426244978
 20
-3318.17774700979
 10
90.03234769571083
 20
-3318.211604051618
 42
0.0267044190891293
 10
89.75805499879709
 20
-3318.427044427483
 42
0.0139303002196862
 10
89.50188783286174
 20
-3318.664283268392
 10
89.49703444713737
 20
-3318.669035931256
 42
0.0283460963436421
 10
89.25296185290789
 20
-3318.936766591703
 10
89.21329334775362
 20
-3318.985568169174
 42
0.0070695364826187
 10
89.13585612189377
 20
-3319.083634985139
 42
0.0070695364826187
  0
LWPOLYLINE
  5
63
330
23
100
AcDbEntity
  8
0
  6
Continuous
 62
     7
370
    15
390
1D
100
AcDbPolyline
 90
      226
 70
   128
 43
0.0
 10
85.60703568464737
 20
-3334.805223791323
 42
-0.0026277636614715
 10
85.6069578008473
 20
-3334.738451865591
 10
85.60717515907936
 20
-3334.685296648137
 42
-0.0088680296718788
 10
85.61095177537243
 20
-3334.512280865733
 10
85.61329813448486
 20
-3334.45300084028
 42
-0.007738170562189
 10
85.62934424524786
 20
-3334.161740344484
 10
85.63021215642107
 20
-3334.149452110797
 42
-0.006887253053783
 10
85.65684423616918
 20
-3333.834230358729
 10
85.6580484603553
 20
-3333.82198937971
 42
-0.0062130021494983
 10
85.69564217718326
 20
-3333.48311968847
 10
85.69714608071826
 20
-3333.470945816554
 42
-0.0056726929669828
 10
85.74606794022006
 20
-3333.108750594445
 10
85.74784138586494
 20
-3333.096656794196
 42
-0.005234188449026
 10
85.80845197212612
 20
-3332.711463538671
 10
85.81046996090157
 20
-3332.699458608685
 42
-0.004976845017085
 10
85.88320864232786
 20
-3332.291614041253
 10
85.90745765704969
 20
-3332.163066058247
 42
-0.0089029805627106
 10
86.04453850884464
 20
-3331.501290610824
 10
86.07728388416297
 20
-3331.356259180301
 42
-0.0080318257101459
 10
86.30683249850426
 20
-3330.410549548445
 10
86.31881742495193
 20
-3330.364418913257
 42
-0.0074265721318786
 10
86.60282896380107
 20
-3329.334354334879
 10
86.622708506921
 20
-3329.266220274279
 42
-0.0069711922702215
 10
86.95001308542521
 20
-3328.199952533959
 10
87.00996503252554
 20
-3328.013931175604
 42
-0.0052070422894837
 10
87.23939025779003
 20
-3327.326659098557
 10
87.25667144997806
 20
-3327.276631817894
 42
-0.0009167004447409
 10
87.45976333725167
 20
-3326.692175969786
 42
-0.0025162726942855
 10
87.66686096751839
 20
-3326.109134705612
 10
87.70408557931793
 20
-3326.005985159723
 42
-0.0028212681456648
 10
87.95226149828278
 20
-3325.330254527547
 10
87.96209226103842
 20
-3325.303947082857
 42
-0.0031964916823889
 10
88.19838451869578
 20
-3324.683742320743
 10
88.20801897269673
 20
-3324.658932330595
 42
-0.0036281836454394
 10
88.43312493379597
 20
-3324.091491649707
 10
88.44256334394811
 20
-3324.068194218217
 42
-0.0041269166835372
 10
88.65718104061261
 20
-3323.550753322226
 10
88.68981399703675
 20
-3323.473874875857
 42
-0.0047472213053012
 10
88.84685880258701
 20
-3323.113453407981
 10
88.85375288379525
 20
-3323.098032810649
 42
-0.0025651659997885
 10
89.00211091764538
 20
-3322.770704754901
 42
-0.0057144634995157
 10
89.15586061141173
 20
-3322.445895081548
 10
89.18389131681646
 20
-3322.388386699147
 42
-0.0065388068377809
 10
89.36735834455772
 20
-3322.024154202479
 10
89.37581680033401
 20
-3322.007894623114
 42
-0.0074510843017606
 10
89.55199904621406
 20
-3321.681206341987
 10
89.56017871674716
 20
-3321.666565564714
 42
-0.0084648979857157
 10
89.72981256984514
 20
-3321.374656553757
 10
89.73766869633693
 20
-3321.3616495621
 42
-0.0095638542799955
 10
89.90150414392747
 20
-3321.101760690127
 10
89.90897908759644
 20
-3321.090391328676
 42
-0.0107191626800549
 10
90.06778066798677
 20
-3320.859780094128
 10
90.07479740171816
 20
-3320.850044001763
 42
-0.0118458573889533
 10
90.22934550023035
 20
-3320.645971806453
 42
-0.0129184518180455
 10
90.3937981238308
 20
-3320.449811290283
 10
90.42394289619362
 20
-3320.415685211384
 42
-0.0217742579628328
 10
90.60055521853036
 20
-3320.232478441133
 10
90.61130076299501
 20
-3320.222261607926
 42
-0.0097266568648222
 10
90.77735838184645
 20
-3320.070414033492
 42
-0.0187720905716904
 10
90.95170595773641
 20
-3319.928345180103
 10
90.98241194840762
 20
-3319.905186097709
 42
-0.0179428207519597
 10
91.2148326684063
 20
-3319.742633920595
 10
91.21848499532669
 20
-3319.740269985705
 42
-0.0170047877693746
 10
91.45424863285245
 20
-3319.598809471556
 10
91.45803162159861
 20
-3319.59671116652
 42
-0.0160190788359526
 10
91.69494016923431
 20
-3319.475059864532
 42
-0.0151102861495776
 10
91.93897195167656
 20
-3319.368377088479
 10
91.99135845389276
 20
-3319.347336955582
 42
-0.0271945441891727
 10
92.35002101294862
 20
-3319.225472144878
 10
92.41908581344181
 20
-3319.206122603609
 42
-0.0237596594017838
 10
92.83488266046157
 20
-3319.110671891628
 10
92.90294551419058
 20
-3319.098417203502
 42
-0.0213715440558909
 10
93.1888204456373
 20
-3319.059470171992
 10
93.24896761186172
 20
-3319.053880457291
 42
-0.0101465655805404
 10
93.41646014384946
 20
-3319.041736914027
 10
93.42580053006628
 20
-3319.041249999028
 42
-0.0100375910857158
 10
93.57495463061025
 20
-3319.036474181104
 10
93.58521390027077
 20
-3319.03635174209
 42
-0.0103625633389252
 10
93.71392189494549
 20
-3319.037483175617
 10
93.73618754622096
 20
-3319.038140534082
 42
-0.0115689250214556
 10
93.82023828374031
 20
-3319.042570040327
 42
-0.0072438037420521
 10
93.90407656318418
 20
-3319.050159240077
 10
93.92087707265227
 20
-3319.0519257828
 42
-0.0217917313123923
 10
94.03744683597121
 20
-3319.069345675523
 10
94.10304692653074
 20
-3319.082092283935
 42
-0.0332943556751658
 10
94.30743909156098
 20
-3319.136132575243
 10
94.33761166011591
 20
-3319.146300652363
 42
-0.0184824084791036
 10
94.47611671657643
 20
-3319.198751667748
 42
-0.01980020506983
 10
94.61019105706984
 20
-3319.261635727944
 10
94.6120776944527
 20
-3319.262613514827
 42
-0.0212242342972901
 10
94.74421663685996
 20
-3319.338376253624
 10
94.74603193239813
 20
-3319.339522055829
 42
-0.0226090605787357
 10
94.87453583361564
 20
-3319.42900169939
 10
94.87638027535723
 20
-3319.430413952381
 42
-0.02384570522352
 10
94.99956235665174
 20
-3319.534409848244
 10
95.00151508520923
 20
-3319.536224726009
 42
-0.0248160564149401
 10
95.1177165925119
 20
-3319.65549932722
 10
95.11982022591195
 20
-3319.657884660922
 42
-0.025410959146279
 10
95.227425443776
 20
-3319.793173046884
 10
95.22967346569197
 20
-3319.796314595287
 42
-0.0255528488287074
 10
95.32712014448957
 20
-3319.948341649523
 10
95.32945124440522
 20
-3319.952423261129
 42
-0.025214679322228
 10
95.41523227041402
 20
-3320.121925507126
 10
95.41753450957196
 20
-3320.127107589039
 42
-0.0244265635948102
 10
95.49018920333313
 20
-3320.314854161084
 10
95.49943560480146
 20
-3320.342719579422
 42
-0.0231319612900251
 10
95.54535838379388
 20
-3320.506020626225
 42
-0.0112130424362865
 10
95.57999440633229
 20
-3320.672224226414
 10
95.5811969314446
 20
-3320.678720813301
 42
-0.021052788124852
 10
95.60688340681551
 20
-3320.859776458743
 10
95.6103940016373
 20
-3320.895182007289
 42
-0.0190029892421401
 10
95.62583547518184
 20
-3321.14871785356
 10
95.6266454516259
 20
-3321.184193467931
 42
-0.0137974553665177
 10
95.62509659879044
 20
-3321.509224874661
 10
95.62425114383491
 20
-3321.535343619254
 42
-0.0081336634213519
 10
95.60939180861226
 20
-3321.840691086856
 42
-0.0073526923568609
 10
95.58508327523796
 20
-3322.145439331138
 10
95.5838218514549
 20
-3322.158776005807
 42
-0.0066886138696581
 10
95.54808626540827
 20
-3322.489362049306
 10
95.5464291759385
 20
-3322.502983668296
 42
-0.0061359187357519
 10
95.49857857388719
 20
-3322.859747648399
 10
95.49654107281475
 20
-3322.873642451225
 42
-0.005669861006586
 10
95.43589074204884
 20
-3323.256921020057
 10
95.43348530872464
 20
-3323.271080139294
 42
-0.0052721077278432
 10
95.35935310792519
 20
-3323.681207478971
 10
95.3565899590833
 20
-3323.695624114358
 42
-0.0049289272183092
 10
95.26829584098391
 20
-3324.132932625477
 10
95.26518334630072
 20
-3324.147601478296
 42
-0.004741595670961
 10
95.16194535476812
 20
-3324.612398235708
 10
95.12717714440862
 20
-3324.76220533109
 42
-0.0084404470905312
 10
94.93716070083788
 20
-3325.522429355617
 10
94.93103401285111
 20
-3325.545293479775
 42
-0.0039635940258342
 10
94.70958032856612
 20
-3326.346282344025
 10
94.69620353338757
 20
-3326.393213960614
 42
-0.0072475040838573
 10
94.42875664552564
 20
-3327.282433677
 10
94.35854431869713
 20
-3327.504174026976
 42
-0.0051345458829464
 10
94.07178494663822
 20
-3328.378499214787
 10
94.05025867988081
 20
-3328.441925481887
 42
-0.0019150016604243
 10
93.79472527300402
 20
-3329.185474602143
 10
93.78825766860986
 20
-3329.204062067059
 42
-0.0021524362752913
 10
93.53977961754396
 20
-3329.908387888772
 10
93.53056919685129
 20
-3329.934141467063
 42
-0.0024331286819159
 10
93.29431393781152
 20
-3330.584740775192
 10
93.28526598525404
 20
-3330.609284081565
 42
-0.0027449721783824
 10
93.06065141442559
 20
-3331.208413960471
 10
93.05176140703938
 20
-3331.231736550308
 42
-0.0031083229768512
 10
92.8382189204234
 20
-3331.781660587903
 10
92.8294827887497
 20
-3331.803750303756
 42
-0.0035311343280301
 10
92.62644160315602
 20
-3332.306733429491
 10
92.61785626400874
 20
-3332.327576153
 42
-0.0040245640950981
 10
92.4247444602139
 20
-3332.785885475594
 10
92.4163083466116
 20
-3332.805464843664
 42
-0.0046015135850919
 10
92.23255205344708
 20
-3333.221369873308
 10
92.22426587562474
 20
-3333.239667012747
 42
-0.0052768638273603
 10
92.04928835666323
 20
-3333.61543989703
 10
92.04115614603337
 20
-3333.632433235579
 42
-0.0060672675641745
 10
91.87437653327032
 20
-3333.970348858687
 10
91.86640705279407
 20
-3333.986014117675
 42
-0.0069904648869926
 10
91.70723865878728
 20
-3334.288349924348
 10
91.69944725917337
 20
-3334.302660473581
 42
-0.0080637022772767
 10
91.54729539883061
 20
-3334.571695776729
 10
91.53970636619762
 20
-3334.584623642333
 42
-0.0093006455663841
 10
91.39396568966788
 20
-3334.822638040833
 10
91.3866150229281
 20
-3334.83415601
 42
-0.0107060778059544
 10
91.24666647948578
 20
-3335.043426327385
 10
91.23960471120873
 20
-3335.053511869947
 42
-0.0122723111427301
 10
91.10481099300802
 20
-3335.23630519944
 10
91.10448476945427
 20
-3335.236725587249
 42
-0.0141836319628515
 10
90.96090316647991
 20
-3335.411295345079
 10
90.95395541083064
 20
-3335.419270345341
 42
-0.0175957477211031
 10
90.81404924279326
 20
-3335.568891233749
 42
-0.0080466359678543
 10
90.66658547776872
 20
-3335.711213761894
 10
90.62055093324557
 20
-3335.754234199991
 42
-0.026960026039497
 10
90.36727068726022
 20
-3335.966557458502
 10
90.30070355097045
 20
-3336.016508873121
 42
-0.0178362839761144
 10
90.0607590613098
 20
-3336.183526799377
 10
90.05351409030273
 20
-3336.188195311586
 42
-0.0174650732631059
 10
89.81717789286807
 20
-3336.329056276541
 42
-0.0169240130175433
 10
89.57171164701523
 20
-3336.453348536316
 10
89.52572549145253
 20
-3336.474710491885
 42
-0.0318883036836071
 10
89.17537463583103
 20
-3336.611048801396
 10
89.1070091006674
 20
-3336.632749421871
 42
-0.0284435909903788
 10
88.73095897437679
 20
-3336.728966857346
 10
88.69580081388385
 20
-3336.735860453173
 42
-0.0243909341006438
 10
88.38235735295927
 20
-3336.781581484204
 10
88.33207662619039
 20
-3336.786427031106
 42
-0.019663929292859
 10
88.11648104866089
 20
-3336.798675316619
 10
88.06465697748472
 20
-3336.799578577356
 42
-0.0100501510690501
 10
87.95223369583317
 20
-3336.799278179003
 10
87.92057383450899
 20
-3336.798557107118
 42
-0.0019752031108336
 10
87.87148149780774
 20
-3336.797244946908
 10
87.86872119455317
 20
-3336.797160255081
 42
0.006537875209521
 10
87.82514461983084
 20
-3336.796393363867
 42
-0.0167974694665435
 10
87.78161379689926
 20
-3336.794733465341
 10
87.77753445763693
 20
-3336.794440454446
 42
-0.0081283276231731
 10
87.72597465988336
 20
-3336.789893460806
 10
87.71423508601987
 20
-3336.788665543229
 42
-0.0126703440181237
 10
87.63951679023435
 20
-3336.778930752159
 10
87.61672892254961
 20
-3336.775372496243
 42
-0.011785208842639
 10
87.49718993670618
 20
-3336.753809501083
 10
87.4418094849542
 20
-3336.742465960851
 42
-0.0251774592295709
 10
87.21496544594952
 20
-3336.683967951419
 10
87.17024625610257
 20
-3336.670001132085
 42
-0.0146525199880305
 10
86.9838532685568
 20
-3336.605734604885
 42
-0.0166929435851942
 10
86.80187561242968
 20
-3336.52992747183
 10
86.79721898115696
 20
-3336.527802571216
 42
-0.0191684358440415
 10
86.61203534990403
 20
-3336.434566487424
 10
86.60870276415079
 20
-3336.432725239873
 42
-0.0221181781810922
 10
86.42539246024714
 20
-3336.320591741501
 10
86.42304265624011
 20
-3336.319007443511
 42
-0.0254984685385963
 10
86.2467525058534
 20
-3336.18659629354
 10
86.22427035815122
 20
-3336.167843984604
 42
-0.0292492648791713
 10
86.09950141930983
 20
-3336.050751184962
 42
-0.015904895749007
 10
85.98566142185857
 20
-3335.922731193361
 10
85.98434263128041
 20
-3335.921149580343
 42
-0.0343813379551906
 10
85.88170536965524
 20
-3335.779278254575
 10
85.85021383829344
 20
-3335.728774862479
 42
-0.0369117275704373
 10
85.76432133639605
 20
-3335.565297621531
 42
-0.0191751379891704
 10
85.69712795083842
 20
-3335.392893015523
 10
85.69536462707953
 20
-3335.38779967085
 42
-0.0378178042222656
 10
85.6455699082954
 20
-3335.198858894769
 10
85.63957461256484
 20
-3335.16629827657
 42
-0.0184846046480934
 10
85.61885741327063
 20
-3335.024545456027
 42
-0.0179866351307576
 10
85.60852440819694
 20
-3334.881654642945
 10
85.60846796575117
 20
-3334.880096956333
 42
-0.0085497186139648
 10
85.60703568464737
 20
-3334.805223791323
 42
-0.0085497186139648
  0
ENDBLK
  5
64
330
23
100
AcDbEntity
  8
template
390
1D
100
AcDbBlockEnd
  0
BLOCK
  5
65
330
24
100
AcDbEntity
  8
notes
390
1D
100
AcDbBlockBegin
  2
*D3
 70
     1
 10
0.0
 20
0.0
 30
0.0
  3
*D3
  1
*D3
  0
LINE
  5
66
330
24
100
AcDbEntity
  8
notes
  6
Continuous
 62
     0
370
    -2
100
AcDbLine
 10
1675.198475814601
 20
772.3049345795837
 30
0.0
 11
1750.197503062132
 21
772.3049345795837
 31
0.0
  0
LINE
  5
67
330
24
100
AcDbEntity
  8
notes
  6
Continuous
 62
     0
370
    -2
100
AcDbLine
 10
1675.198475814601
 20
1347.304934579584
 30
0.0
 11
1750.197503062132
 21
1347.304934579584
 31
0.0
  0
LINE
  5
68
330
24
100
AcDbEntity
  8
notes
  6
Continuous
 62
     0
370
    -2
100
AcDbLine
 10
1750.197503062132
 20
782.3043242280212
 30
0.0
 11
1750.197503062132
 21
1337.305544931146
 31
0.0
  0
INSERT
  5
69
102
{ACAD_REACTORS
330
6A
102
}
330
24
100
AcDbEntity
  8
notes
 62
     0
370
    -2
100
AcDbBlockReference
  2
_DOT
 10
1750.197503062132
 20
772.3049345795837
 30
0.0
 41
9.999389648437498
 42
9.999389648437498
 43
9.999389648437498
 50
270.0
  0
INSERT
  5
6A
330
24
100
AcDbEntity
  8
notes
 62
     0
370
    -2
100
AcDbBlockReference
  2
_DOT
 10
1750.197503062132
 20
1347.304934579584
 30
0.0
 41
9.999389648437498
 42
9.999389648437498
 43
9.999389648437498
 50
90.0
  0
MTEXT
  5
6B
102
{ACAD_REACTORS
330
6C
102
}
330
24
100
AcDbEntity
  8
notes
  6
Continuous
 62
     0
100
AcDbMText
 10
1732.981194468382
 20
1059.804934579584
 30
0.0
 40
24.4326171875
 41
0.0
 46
0.0
 71
     5
 72
     1
  1
\A1;575
  7
ＭＳ ゴシック
 11
0.0
 21
1.0
 31
0.0
 73
     1
 44
1.0
  0
POINT
  5
6C
330
24
100
AcDbEntity
  8
Defpoints
 62
     0
100
AcDbPoint
 10
1650.198475814601
 20
772.3049345795837
 30
0.0
  0
POINT
  5
6D
330
24
100
AcDbEntity
  8
Defpoints
 62
     0
100
AcDbPoint
 10
1650.198475814601
 20
1347.304934579584
 30
0.0
  0
POINT
  5
6E
330
24
100
AcDbEntity
  8
Defpoints
 62
     0
100
AcDbPoint
 10
1750.197503062132
 20
1347.304934579584
 30
0.0
  0
ENDBLK
  5
71
330
24
100
AcDbEntity
  8
notes
390
1D
100
AcDbBlockEnd
  0
BLOCK
  5
72
330
25
100
AcDbEntity
  8
notes
390
1D
100
AcDbBlockBegin
  2
*D4
 70
     1
 10
0.0
 20
0.0
 30
0.0
  3
*D4
  1
*D4
  0
LINE
  5
73
330
25
100
AcDbEntity
  8
notes
  6
Continuous
 62
     0
370
    -2
100
AcDbLine
 10
861.129733215861
 20
1459.760096564891
 30
0.0
 11
861.129733215861
 21
1534.760096564891
 31
0.0
  0
LINE
  5
74
330
25
100
AcDbEntity
  8
notes
  6
Continuous
 62
     0
370
    -2
100
AcDbLine
 10
361.1297332158566
 20
1459.760096564891
 30
0.0
 11
361.1297332158566
 21
1534.760096564891
 31
0.0
  0
LINE
  5
75
330
25
100
AcDbEntity
  8
notes
  6
Continuous
 62
     0
370
    -2
100
AcDbLine
 10
851.1303435674236
 20
1534.760096564891
 30
0.0
 11
371.1291228642941
 21
1534.760096564891
 31
0.0
  0
INSERT
  5
76
102
{ACAD_REACTORS
330
77
102
}
330
25
100
AcDbEntity
  8
notes
 62
     0
370
    -2
100
AcDbBlockReference
  2
_DOT
 10
861.129733215861
 20
1534.760096564891
 30
0.0
 41
9.999389648437498
 42
9.999389648437498
 43
9.999389648437498
  0
INSERT
  5
77
330
25
100
AcDbEntity
  8
notes
 62
     0
370
    -2
100
AcDbBlockReference
  2
_DOT
 10
361.1297332158566
 20
1534.760096564891
 30
0.0
 41
9.999389648437498
 42
9.999389648437498
 43
9.999389648437498
 50
180.0
  0
MTEXT
  5
78
102
{ACAD_REACTORS
330
79
102
}
330
25
100
AcDbEntity
  8
notes
  6
Continuous
 62
     0
100
AcDbMText
 10
611.1297332158588
 20
1551.976405158641
 30
0.0
 40
24.4326171875
 41
0.0
 46
0.0
 71
     5
 72
     1
  1
\A1;500
  7
ＭＳ ゴシック
 73
     1
 44
1.0
  0
POINT
  5
79
330
25
100
AcDbEntity
  8
Defpoints
 62
     0
100
AcDbPoint
 10
861.129733215861
 20
1434.760096564891
 30
0.0
  0
POINT
  5
7A
330
25
100
AcDbEntity
  8
Defpoints
 62
     0
100
AcDbPoint
 10
361.1297332158566
 20
1434.760096564891
 30
0.0
  0
POINT
  5
7B
330
25
100
AcDbEntity
  8
Defpoints
 62
     0
100
AcDbPoint
 10
361.1297332158566
 20
1534.760096564891
 30
0.0
  0
ENDBLK
  5
7E
330
25
100
AcDbEntity
  8
notes
390
1D
100
AcDbBlockEnd
  0
BLOCK
  5
7F
330
26
100
AcDbEntity
  8
notes
390
1D
100
AcDbBlockBegin
  2
*D5
 70
     1
 10
0.0
 20
0.0
 30
0.0
  3
*D5
  1
*D5
  0
LINE
  5
80
330
26
100
AcDbEntity
  8
0
  6
Continuous
 62
     0
370
    -2
390
1D
100
AcDbLine
 10
-710.1552727598731
 20
-808.6552538449107
 30
0.0
 11
-835.1552727598731
 21
-808.6552538449107
 31
0.0
  0
LINE
  5
81
330
26
100
AcDbEntity
  8
0
  6
Continuous
 62
     0
370
    -2
390
1D
100
AcDbLine
 10
-710.1552727598731
 20
-58.65525384491207
 30
0.0
 11
-835.1552727598731
 21
-58.65525384491207
 31
0.0
  0
LINE
  5
82
330
26
100
AcDbEntity
  8
0
  6
Continuous
 62
     0
370
    -2
390
1D
100
AcDbLine
 10
-835.1552727598731
 20
-808.6552538449107
 30
0.0
 11
-835.1552727598731
 21
-58.65525384491207
 31
0.0
  0
CIRCLE
  5
83
102
{ACAD_REACTORS
330
84
102
}
330
26
100
AcDbEntity
  8
0
  6
Continuous
 62
     0
370
    -2
390
1D
100
AcDbCircle
 10
-835.1552727598731
 20
-808.6552538449107
 30
0.0
 40
4.99969482421875
  0
HATCH
  5
84
330
26
100
AcDbEntity
  8
0
  6
Continuous
 62
     0
370
    -2
390
1D
100
AcDbHatch
 10
0.0
 20
0.0
 30
0.0
210
0.0
220
0.0
230
1.0
  2
SOLID
 70
     1
 71
     1
 91
        1
 92
        1
 93
        1
 72
     2
 10
-835.1552727598731
 20
-808.6552538449107
 40
4.99969482421875
 50
0.0
 51
360.0
 73
     0
 97
        1
330
83
 75
     0
 76
     1
 98
        1
 10
0.0
 20
0.0
  0
CIRCLE
  5
85
102
{ACAD_REACTORS
330
86
102
}
330
26
100
AcDbEntity
  8
0
  6
Continuous
 62
     0
370
    -2
390
1D
100
AcDbCircle
 10
-835.1552727598731
 20
-58.65525384491207
 30
0.0
 40
4.99969482421875
  0
HATCH
  5
86
330
26
100
AcDbEntity
  8
0
  6
Continuous
 62
     0
370
    -2
390
1D
100
AcDbHatch
 10
0.0
 20
0.0
 30
0.0
210
0.0
220
0.0
230
1.0
  2
SOLID
 70
     1
 71
     1
 91
        1
 92
        1
 93
        1
 72
     2
 10
-835.1552727598731
 20
-58.65525384491207
 40
4.99969482421875
 50
0.0
 51
360.0
 73
     0
 97
        1
330
85
 75
     0
 76
     1
 98
        1
 10
0.0
 20
0.0
  0
MTEXT
  5
87
330
26
100
AcDbEntity
  8
0
 62
     0
390
1D
100
AcDbMText
 10
-869.0328899473731
 20
-457.4677555270871
 30
0.0
 40
24.4326171875
 41
0.0
 46
0.0
 71
     1
 72
     1
  1
750
  7
ＭＳ ゴシック
 11
0.0
 21
1.0
 31
0.0
 73
     1
 44
0.7828267384257843
  0
POINT
  5
88
330
26
100
AcDbEntity
  8
Defpoints
 62
     0
370
     0
390
1D
100
AcDbPoint
 10
-685.1552727598731
 20
-58.65525384491207
 30
0.0
  0
POINT
  5
89
330
26
100
AcDbEntity
  8
Defpoints
 62
     0
370
     0
390
1D
100
AcDbPoint
 10
-685.1552727598731
 20
-808.6552538449107
 30
0.0
  0
POINT
  5
8A
330
26
100
AcDbEntity
  8
Defpoints
 62
     0
370
     0
390
1D
100
AcDbPoint
 10
-835.1552727598731
 20
-808.6552538449107
 30
0.0
  0
ENDBLK
  5
8B
330
26
100
AcDbEntity
  8
notes
390
1D
100
AcDbBlockEnd
  0
BLOCK
  5
8C
330
27
100
AcDbEntity
  8
notes
390
1D
100
AcDbBlockBegin
  2
*D6
 70
     1
 10
0.0
 20
0.0
 30
0.0
  3
*D6
  1
*D6
  0
LINE
  5
8D
330
27
100
AcDbEntity
  8
notes
  6
Continuous
 62
     0
370
    -2
100
AcDbLine
 10
388.6297332158566
 20
959.7600965648901
 30
0.0
 11
261.1297332158566
 21
959.7600965648901
 31
0.0
  0
LINE
  5
8E
330
27
100
AcDbEntity
  8
notes
  6
Continuous
 62
     0
370
    -2
100
AcDbLine
 10
388.6297332158566
 20
859.7600965648915
 30
0.0
 11
261.1297332158566
 21
859.7600965648915
 31
0.0
  0
LINE
  5
8F
330
27
100
AcDbEntity
  8
notes
  6
Continuous
 62
     0
370
    -2
100
AcDbLine
 10
261.1297332158566
 20
949.7607069164526
 30
0.0
 11
261.1297332158566
 21
869.759486213329
 31
0.0
  0
INSERT
  5
90
102
{ACAD_REACTORS
330
91
102
}
330
27
100
AcDbEntity
  8
notes
 62
     0
370
    -2
100
AcDbBlockReference
  2
_DOT
 10
261.1297332158566
 20
959.7600965648901
 30
0.0
 41
9.999389648437498
 42
9.999389648437498
 43
9.999389648437498
 50
90.0
  0
INSERT
  5
91
330
27
100
AcDbEntity
  8
notes
 62
     0
370
    -2
100
AcDbBlockReference
  2
_DOT
 10
261.1297332158566
 20
859.7600965648915
 30
0.0
 41
9.999389648437498
 42
9.999389648437498
 43
9.999389648437498
 50
270.0
  0
MTEXT
  5
92
102
{ACAD_REACTORS
330
93
102
}
330
27
100
AcDbEntity
  8
notes
  6
Continuous
 62
     0
100
AcDbMText
 10
243.9134246221066
 20
909.7600965648908
 30
0.0
 40
24.4326171875
 41
0.0
 46
0.0
 71
     5
 72
     1
  1
\A1;100
  7
ＭＳ ゴシック
 11
0.0
 21
1.0
 31
0.0
 73
     1
 44
1.0
  0
POINT
  5
93
330
27
100
AcDbEntity
  8
Defpoints
 62
     0
100
AcDbPoint
 10
413.6297332158566
 20
959.7600965648901
 30
0.0
  0
POINT
  5
94
330
27
100
AcDbEntity
  8
Defpoints
 62
     0
100
AcDbPoint
 10
413.6297332158566
 20
859.7600965648915
 30
0.0
  0
POINT
  5
95
330
27
100
AcDbEntity
  8
Defpoints
 62
     0
100
AcDbPoint
 10
261.1297332158566
 20
859.7600965648915
 30
0.0
  0
ENDBLK
  5
98
330
27
100
AcDbEntity
  8
notes
390
1D
100
AcDbBlockEnd
  0
BLOCK
  5
99
330
28
100
AcDbEntity
  8
notes
390
1D
100
AcDbBlockBegin
  2
*D7
 70
     1
 10
0.0
 20
0.0
 30
0.0
  3
*D7
  1
*D7
  0
LINE
  5
9A
330
28
100
AcDbEntity
  8
notes
  6
Continuous
 62
     0
370
    -2
100
AcDbLine
 10
388.6297332158566
 20
1059.76009656489
 30
0.0
 11
261.1297332158566
 21
1059.76009656489
 31
0.0
  0
LINE
  5
9B
330
28
100
AcDbEntity
  8
notes
  6
Continuous
 62
     0
370
    -2
100
AcDbLine
 10
388.6297332158566
 20
959.7600965648901
 30
0.0
 11
261.1297332158566
 21
959.7600965648901
 31
0.0
  0
LINE
  5
9C
330
28
100
AcDbEntity
  8
notes
  6
Continuous
 62
     0
370
    -2
100
AcDbLine
 10
261.1297332158566
 20
1049.760706916452
 30
0.0
 11
261.1297332158566
 21
969.7594862133276
 31
0.0
  0
INSERT
  5
9D
102
{ACAD_REACTORS
330
9E
102
}
330
28
100
AcDbEntity
  8
notes
 62
     0
370
    -2
100
AcDbBlockReference
  2
_DOT
 10
261.1297332158566
 20
1059.76009656489
 30
0.0
 41
9.999389648437498
 42
9.999389648437498
 43
9.999389648437498
 50
90.0
  0
INSERT
  5
9E
330
28
100
AcDbEntity
  8
notes
 62
     0
370
    -2
100
AcDbBlockReference
  2
_DOT
 10
261.1297332158566
 20
959.7600965648901
 30
0.0
 41
9.999389648437498
 42
9.999389648437498
 43
9.999389648437498
 50
270.0
  0
MTEXT
  5
9F
102
{ACAD_REACTORS
330
A0
102
}
330
28
100
AcDbEntity
  8
notes
  6
Continuous
 62
     0
100
AcDbMText
 10
243.9134246221066
 20
1009.76009656489
 30
0.0
 40
24.4326171875
 41
0.0
 46
0.0
 71
     5
 72
     1
  1
\A1;100
  7
ＭＳ ゴシック
 11
0.0
 21
1.0
 31
0.0
 73
     1
 44
1.0
  0
POINT
  5
A0
330
28
100
AcDbEntity
  8
Defpoints
 62
     0
100
AcDbPoint
 10
413.6297332158566
 20
1059.76009656489
 30
0.0
  0
POINT
  5
A1
330
28
100
AcDbEntity
  8
Defpoints
 62
     0
100
AcDbPoint
 10
413.6297332158566
 20
959.7600965648901
 30
0.0
  0
POINT
  5
A2
330
28
100
AcDbEntity
  8
Defpoints
 62
     0
100
AcDbPoint
 10
261.1297332158566
 20
959.7600965648901
 30
0.0
  0
ENDBLK
  5
A5
330
28
100
AcDbEntity
  8
notes
390
1D
100
AcDbBlockEnd
  0
BLOCK
  5
A6
330
29
100
AcDbEntity
  8
notes
390
1D
100
AcDbBlockBegin
  2
*D8
 70
     1
 10
0.0
 20
0.0
 30
0.0
  3
*D8
  1
*D8
  0
LINE
  5
A7
330
29
100
AcDbEntity
  8
notes
  6
Continuous
 62
     0
370
    -2
100
AcDbLine
 10
388.6297332158566
 20
1159.76009656489
 30
0.0
 11
261.1297332158566
 21
1159.76009656489
 31
0.0
  0
LINE
  5
A8
330
29
100
AcDbEntity
  8
notes
  6
Continuous
 62
     0
370
    -2
100
AcDbLine
 10
388.6297332158566
 20
1059.76009656489
 30
0.0
 11
261.1297332158566
 21
1059.76009656489
 31
0.0
  0
LINE
  5
A9
330
29
100
AcDbEntity
  8
notes
  6
Continuous
 62
     0
370
    -2
100
AcDbLine
 10
261.1297332158566
 20
1149.760706916452
 30
0.0
 11
261.1297332158566
 21
1069.759486213327
 31
0.0
  0
INSERT
  5
AA
102
{ACAD_REACTORS
330
AB
102
}
330
29
100
AcDbEntity
  8
notes
 62
     0
370
    -2
100
AcDbBlockReference
  2
_DOT
 10
261.1297332158566
 20
1159.76009656489
 30
0.0
 41
9.999389648437498
 42
9.999389648437498
 43
9.999389648437498
 50
90.0
  0
INSERT
  5
AB
330
29
100
AcDbEntity
  8
notes
 62
     0
370
    -2
100
AcDbBlockReference
  2
_DOT
 10
261.1297332158566
 20
1059.76009656489
 30
0.0
 41
9.999389648437498
 42
9.999389648437498
 43
9.999389648437498
 50
270.0
  0
MTEXT
  5
AC
102
{ACAD_REACTORS
330
AD
102
}
330
29
100
AcDbEntity
  8
notes
  6
Continuous
 62
     0
100
AcDbMText
 10
243.9134246221066
 20
1109.76009656489
 30
0.0
 40
24.4326171875
 41
0.0
 46
0.0
 71
     5
 72
     1
  1
\A1;100
  7
ＭＳ ゴシック
 11
0.0
 21
1.0
 31
0.0
 73
     1
 44
1.0
  0
POINT
  5
AD
330
29
100
AcDbEntity
  8
Defpoints
 62
     0
100
AcDbPoint
 10
413.6297332158566
 20
1159.76009656489
 30
0.0
  0
POINT
  5
AE
330
29
100
AcDbEntity
  8
Defpoints
 62
     0
100
AcDbPoint
 10
413.6297332158566
 20
1059.76009656489
 30
0.0
  0
POINT
  5
AF
330
29
100
AcDbEntity
  8
Defpoints
 62
     0
100
AcDbPoint
 10
261.1297332158566
 20
1059.76009656489
 30
0.0
  0
ENDBLK
  5
B2
330
29
100
AcDbEntity
  8
notes
390
1D
100
AcDbBlockEnd
  0
BLOCK
  5
B3
330
2A
100
AcDbEntity
  8
notes
390
1D
100
AcDbBlockBegin
  2
*D9
 70
     1
 10
0.0
 20
0.0
 30
0.0
  3
*D9
  1
*D9
  0
LINE
  5
B4
330
2A
100
AcDbEntity
  8
notes
  6
Continuous
 62
     0
370
    -2
100
AcDbLine
 10
388.6297332158566
 20
1259.76009656489
 30
0.0
 11
261.1297332158566
 21
1259.76009656489
 31
0.0
  0
LINE
  5
B5
330
2A
100
AcDbEntity
  8
notes
  6
Continuous
 62
     0
370
    -2
100
AcDbLine
 10
388.6297332158566
 20
1159.76009656489
 30
0.0
 11
261.1297332158566
 21
1159.76009656489
 31
0.0
  0
LINE
  5
B6
330
2A
100
AcDbEntity
  8
notes
  6
Continuous
 62
     0
370
    -2
100
AcDbLine
 10
261.1297332158566
 20
1249.760706916452
 30
0.0
 11
261.1297332158566
 21
1169.759486213327
 31
0.0
  0
INSERT
  5
B7
102
{ACAD_REACTORS
330
B8
102
}
330
2A
100
AcDbEntity
  8
notes
 62
     0
370
    -2
100
AcDbBlockReference
  2
_DOT
 10
261.1297332158566
 20
1259.76009656489
 30
0.0
 41
9.999389648437498
 42
9.999389648437498
 43
9.999389648437498
 50
90.0
  0
INSERT
  5
B8
330
2A
100
AcDbEntity
  8
notes
 62
     0
370
    -2
100
AcDbBlockReference
  2
_DOT
 10
261.1297332158566
 20
1159.76009656489
 30
0.0
 41
9.999389648437498
 42
9.999389648437498
 43
9.999389648437498
 50
270.0
  0
MTEXT
  5
B9
102
{ACAD_REACTORS
330
BA
102
}
330
2A
100
AcDbEntity
  8
notes
  6
Continuous
 62
     0
100
AcDbMText
 10
243.9134246221066
 20
1209.76009656489
 30
0.0
 40
24.4326171875
 41
0.0
 46
0.0
 71
     5
 72
     1
  1
\A1;100
  7
ＭＳ ゴシック
 11
0.0
 21
1.0
 31
0.0
 73
     1
 44
1.0
  0
POINT
  5
BA
330
2A
100
AcDbEntity
  8
Defpoints
 62
     0
100
AcDbPoint
 10
413.6297332158566
 20
1259.76009656489
 30
0.0
  0
POINT
  5
BB
330
2A
100
AcDbEntity
  8
Defpoints
 62
     0
100
AcDbPoint
 10
413.6297332158566
 20
1159.76009656489
 30
0.0
  0
POINT
  5
BC
330
2A
100
AcDbEntity
  8
Defpoints
 62
     0
100
AcDbPoint
 10
261.1297332158566
 20
1159.76009656489
 30
0.0
  0
ENDBLK
  5
BF
330
2A
100
AcDbEntity
  8
notes
390
1D
100
AcDbBlockEnd
  0
BLOCK
  5
C0
330
2B
100
AcDbEntity
  8
notes
390
1D
100
AcDbBlockBegin
  2
*D10
 70
     1
 10
0.0
 20
0.0
 30
0.0
  3
*D10
  1
*D10
  0
LINE
  5
C1
330
2B
100
AcDbEntity
  8
notes
  6
Continuous
 62
     0
370
    -2
100
AcDbLine
 10
491.1297332158625
 20
659.7600965648919
 30
0.0
 11
491.1297332158625
 21
584.7600965648919
 31
0.0
  0
LINE
  5
C2
330
2B
100
AcDbEntity
  8
notes
  6
Continuous
 62
     0
370
    -2
100
AcDbLine
 10
361.1297332158566
 20
659.7600965648919
 30
0.0
 11
361.1297332158566
 21
584.7600965648919
 31
0.0
  0
LINE
  5
C3
330
2B
100
AcDbEntity
  8
notes
  6
Continuous
 62
     0
370
    -2
100
AcDbLine
 10
481.130343567425
 20
584.7600965648919
 30
0.0
 11
371.1291228642941
 21
584.7600965648919
 31
0.0
  0
INSERT
  5
C4
102
{ACAD_REACTORS
330
C5
102
}
330
2B
100
AcDbEntity
  8
notes
 62
     0
370
    -2
100
AcDbBlockReference
  2
_DOT
 10
491.1297332158625
 20
584.7600965648919
 30
0.0
 41
9.999389648437498
 42
9.999389648437498
 43
9.999389648437498
  0
INSERT
  5
C5
330
2B
100
AcDbEntity
  8
notes
 62
     0
370
    -2
100
AcDbBlockReference
  2
_DOT
 10
361.1297332158566
 20
584.7600965648919
 30
0.0
 41
9.999389648437498
 42
9.999389648437498
 43
9.999389648437498
 50
180.0
  0
MTEXT
  5
C6
102
{ACAD_REACTORS
330
C7
102
}
330
2B
100
AcDbEntity
  8
notes
  6
Continuous
 62
     0
100
AcDbMText
 10
426.1297332158596
 20
601.9764051586419
 30
0.0
 40
24.4326171875
 41
0.0
 46
0.0
 71
     5
 72
     1
  1
\A1;130
  7
ＭＳ ゴシック
 73
     1
 44
1.0
  0
POINT
  5
C7
330
2B
100
AcDbEntity
  8
Defpoints
 62
     0
100
AcDbPoint
 10
491.1297332158625
 20
684.7600965648919
 30
0.0
  0
POINT
  5
C8
330
2B
100
AcDbEntity
  8
Defpoints
 62
     0
100
AcDbPoint
 10
361.1297332158566
 20
684.7600965648919
 30
0.0
  0
POINT
  5
C9
330
2B
100
AcDbEntity
  8
Defpoints
 62
     0
100
AcDbPoint
 10
361.1297332158566
 20
584.7600965648919
 30
0.0
  0
ENDBLK
  5
CC
330
2B
100
AcDbEntity
  8
notes
390
1D
100
AcDbBlockEnd
  0
BLOCK
  5
CD
330
2C
100
AcDbEntity
  8
notes
390
1D
100
AcDbBlockBegin
  2
*D11
 70
     1
 10
0.0
 20
0.0
 30
0.0
  3
*D11
  1
*D11
  0
LINE
  5
CE
330
2C
100
AcDbEntity
  8
notes
  6
Continuous
 62
     0
370
    -2
100
AcDbLine
 10
886.129733215861
 20
1409.76009656489
 30
0.0
 11
961.1297332158625
 21
1409.76009656489
 31
0.0
  0
LINE
  5
CF
330
2C
100
AcDbEntity
  8
notes
  6
Continuous
 62
     0
370
    -2
100
AcDbLine
 10
886.129733215861
 20
709.7600965648919
 30
0.0
 11
961.1297332158625
 21
709.7600965648919
 31
0.0
  0
LINE
  5
D0
330
2C
100
AcDbEntity
  8
notes
  6
Continuous
 62
     0
370
    -2
100
AcDbLine
 10
961.1297332158625
 20
1399.760706916452
 30
0.0
 11
961.1297332158625
 21
719.7594862133294
 31
0.0
  0
INSERT
  5
D1
102
{ACAD_REACTORS
330
D2
102
}
330
2C
100
AcDbEntity
  8
notes
 62
     0
370
    -2
100
AcDbBlockReference
  2
_DOT
 10
961.1297332158625
 20
1409.76009656489
 30
0.0
 41
9.999389648437498
 42
9.999389648437498
 43
9.999389648437498
 50
90.0
  0
INSERT
  5
D2
330
2C
100
AcDbEntity
  8
notes
 62
     0
370
    -2
100
AcDbBlockReference
  2
_DOT
 10
961.1297332158625
 20
709.7600965648919
 30
0.0
 41
9.999389648437498
 42
9.999389648437498
 43
9.999389648437498
 50
270.0
  0
MTEXT
  5
D3
102
{ACAD_REACTORS
330
D4
102
}
330
2C
100
AcDbEntity
  8
notes
  6
Continuous
 62
     0
100
AcDbMText
 10
943.9134246221125
 20
1059.760096564891
 30
0.0
 40
24.4326171875
 41
0.0
 46
0.0
 71
     5
 72
     1
  1
\A1;700
  7
ＭＳ ゴシック
 11
0.0
 21
1.0
 31
0.0
 73
     1
 44
1.0
  0
POINT
  5
D4
330
2C
100
AcDbEntity
  8
Defpoints
 62
     0
100
AcDbPoint
 10
861.129733215861
 20
1409.76009656489
 30
0.0
  0
POINT
  5
D5
330
2C
100
AcDbEntity
  8
Defpoints
 62
     0
100
AcDbPoint
 10
861.129733215861
 20
709.7600965648919
 30
0.0
  0
POINT
  5
D6
330
2C
100
AcDbEntity
  8
Defpoints
 62
     0
100
AcDbPoint
 10
961.1297332158625
 20
709.7600965648919
 30
0.0
  0
ENDBLK
  5
D9
330
2C
100
AcDbEntity
  8
notes
390
1D
100
AcDbBlockEnd
  0
BLOCK
  5
DA
330
2D
100
AcDbEntity
  8
notes
390
1D
100
AcDbBlockBegin
  2
*D12
 70
     1
 10
0.0
 20
0.0
 30
0.0
  3
*D12
  1
*D12
  0
LINE
  5
DB
330
2D
100
AcDbEntity
  8
notes
  6
Continuous
 62
     0
370
    -2
100
AcDbLine
 10
836.1297332158625
 20
659.7600965648919
 30
0.0
 11
836.1297332158625
 21
584.7600965648919
 31
0.0
  0
LINE
  5
DC
330
2D
100
AcDbEntity
  8
notes
  6
Continuous
 62
     0
370
    -2
100
AcDbLine
 10
491.1297332158625
 20
659.7600965648919
 30
0.0
 11
491.1297332158625
 21
584.7600965648919
 31
0.0
  0
LINE
  5
DD
330
2D
100
AcDbEntity
  8
notes
  6
Continuous
 62
     0
370
    -2
100
AcDbLine
 10
826.130343567425
 20
584.7600965648919
 30
0.0
 11
501.1291228643
 21
584.7600965648919
 31
0.0
  0
INSERT
  5
DE
102
{ACAD_REACTORS
330
DF
102
}
330
2D
100
AcDbEntity
  8
notes
 62
     0
370
    -2
100
AcDbBlockReference
  2
_DOT
 10
836.1297332158625
 20
584.7600965648919
 30
0.0
 41
9.999389648437498
 42
9.999389648437498
 43
9.999389648437498
  0
INSERT
  5
DF
330
2D
100
AcDbEntity
  8
notes
 62
     0
370
    -2
100
AcDbBlockReference
  2
_DOT
 10
491.1297332158625
 20
584.7600965648919
 30
0.0
 41
9.999389648437498
 42
9.999389648437498
 43
9.999389648437498
 50
180.0
  0
MTEXT
  5
E0
102
{ACAD_REACTORS
330
E1
102
}
330
2D
100
AcDbEntity
  8
notes
  6
Continuous
 62
     0
100
AcDbMText
 10
663.6297332158625
 20
601.9764051586419
 30
0.0
 40
24.4326171875
 41
0.0
 46
0.0
 71
     5
 72
     1
  1
\A1;345
  7
ＭＳ ゴシック
 73
     1
 44
1.0
  0
POINT
  5
E1
330
2D
100
AcDbEntity
  8
Defpoints
 62
     0
100
AcDbPoint
 10
836.1297332158625
 20
684.7600965648919
 30
0.0
  0
POINT
  5
E2
330
2D
100
AcDbEntity
  8
Defpoints
 62
     0
100
AcDbPoint
 10
491.1297332158625
 20
684.7600965648919
 30
0.0
  0
POINT
  5
E3
330
2D
100
AcDbEntity
  8
Defpoints
 62
     0
100
AcDbPoint
 10
491.1297332158625
 20
584.7600965648919
 30
0.0
  0
ENDBLK
  5
E6
330
2D
100
AcDbEntity
  8
notes
390
1D
100
AcDbBlockEnd
  0
BLOCK
  5
E7
330
2E
100
AcDbEntity
  8
notes
390
1D
100
AcDbBlockBegin
  2
*D13
 70
     1
 10
0.0
 20
0.0
 30
0.0
  3
*D13
  1
*D13
  0
LINE
  5
E8
330
2E
100
AcDbEntity
  8
notes
  6
Continuous
 62
     0
370
    -2
100
AcDbLine
 10
1455.306688497259
 20
1199.76009656489
 30
0.0
 11
1360.306688497259
 21
1199.76009656489
 31
0.0
  0
LINE
  5
E9
330
2E
100
AcDbEntity
  8
notes
  6
Continuous
 62
     0
370
    -2
100
AcDbLine
 10
1455.306688497259
 20
919.7600965648905
 30
0.0
 11
1360.306688497259
 21
919.7600965648905
 31
0.0
  0
LINE
  5
EA
330
2E
100
AcDbEntity
  8
notes
  6
Continuous
 62
     0
370
    -2
100
AcDbLine
 10
1360.306688497259
 20
1189.760706916452
 30
0.0
 11
1360.306688497259
 21
929.759486213328
 31
0.0
  0
INSERT
  5
EB
102
{ACAD_REACTORS
330
EC
102
}
330
2E
100
AcDbEntity
  8
notes
 62
     0
370
    -2
100
AcDbBlockReference
  2
_DOT
 10
1360.306688497259
 20
1199.76009656489
 30
0.0
 41
9.999389648437498
 42
9.999389648437498
 43
9.999389648437498
 50
90.0
  0
INSERT
  5
EC
330
2E
100
AcDbEntity
  8
notes
 62
     0
370
    -2
100
AcDbBlockReference
  2
_DOT
 10
1360.306688497259
 20
919.7600965648905
 30
0.0
 41
9.999389648437498
 42
9.999389648437498
 43
9.999389648437498
 50
270.0
  0
MTEXT
  5
ED
102
{ACAD_REACTORS
330
EE
102
}
330
2E
100
AcDbEntity
  8
notes
  6
Continuous
 62
     0
100
AcDbMText
 10
1343.090379903509
 20
1059.76009656489
 30
0.0
 40
24.4326171875
 41
0.0
 46
0.0
 71
     5
 72
     1
  1
\A1;280
  7
ＭＳ ゴシック
 11
0.0
 21
1.0
 31
0.0
 73
     1
 44
1.0
  0
POINT
  5
EE
330
2E
100
AcDbEntity
  8
Defpoints
 62
     0
100
AcDbPoint
 10
1480.306688497259
 20
1199.76009656489
 30
0.0
  0
POINT
  5
EF
330
2E
100
AcDbEntity
  8
Defpoints
 62
     0
100
AcDbPoint
 10
1480.306688497259
 20
919.7600965648905
 30
0.0
  0
POINT
  5
F0
330
2E
100
AcDbEntity
  8
Defpoints
 62
     0
100
AcDbPoint
 10
1360.306688497259
 20
919.7600965648905
 30
0.0
  0
ENDBLK
  5
F3
330
2E
100
AcDbEntity
  8
notes
390
1D
100
AcDbBlockEnd
  0
BLOCK
  5
F4
330
2F
100
AcDbEntity
  8
notes
390
1D
100
AcDbBlockBegin
  2
*D14
 70
     1
 10
0.0
 20
0.0
 30
0.0
  3
*D14
  1
*D14
  0
LINE
  5
F5
330
2F
100
AcDbEntity
  8
notes
  6
Continuous
 62
     0
370
    -2
100
AcDbLine
 10
1650.339148467938
 20
1374.76009656489
 30
0.0
 11
1650.339148467938
 21
1534.760096564891
 31
0.0
  0
LINE
  5
F6
330
2F
100
AcDbEntity
  8
notes
  6
Continuous
 62
     0
370
    -2
100
AcDbLine
 10
1460.339148467939
 20
1459.760096564891
 30
0.0
 11
1460.339148467939
 21
1534.760096564891
 31
0.0
  0
LINE
  5
F7
330
2F
100
AcDbEntity
  8
notes
  6
Continuous
 62
     0
370
    -2
100
AcDbLine
 10
1640.339758819501
 20
1534.760096564891
 30
0.0
 11
1470.338538116377
 21
1534.760096564891
 31
0.0
  0
INSERT
  5
F8
102
{ACAD_REACTORS
330
F9
102
}
330
2F
100
AcDbEntity
  8
notes
 62
     0
370
    -2
100
AcDbBlockReference
  2
_DOT
 10
1650.339148467938
 20
1534.760096564891
 30
0.0
 41
9.999389648437498
 42
9.999389648437498
 43
9.999389648437498
  0
INSERT
  5
F9
330
2F
100
AcDbEntity
  8
notes
 62
     0
370
    -2
100
AcDbBlockReference
  2
_DOT
 10
1460.339148467939
 20
1534.760096564891
 30
0.0
 41
9.999389648437498
 42
9.999389648437498
 43
9.999389648437498
 50
180.0
  0
MTEXT
  5
FA
102
{ACAD_REACTORS
330
FB
102
}
330
2F
100
AcDbEntity
  8
notes
  6
Continuous
 62
     0
100
AcDbMText
 10
1555.339148467939
 20
1551.976405158641
 30
0.0
 40
24.4326171875
 41
0.0
 46
0.0
 71
     5
 72
     1
  1
\A1;190
  7
ＭＳ ゴシック
 73
     1
 44
1.0
  0
POINT
  5
FB
330
2F
100
AcDbEntity
  8
Defpoints
 62
     0
100
AcDbPoint
 10
1650.339148467938
 20
1349.76009656489
 30
0.0
  0
POINT
  5
FC
330
2F
100
AcDbEntity
  8
Defpoints
 62
     0
100
AcDbPoint
 10
1460.339148467939
 20
1434.760096564891
 30
0.0
  0
POINT
  5
FD
330
2F
100
AcDbEntity
  8
Defpoints
 62
     0
100
AcDbPoint
 10
1460.339148467939
 20
1534.760096564891
 30
0.0
  0
ENDBLK
  5
100
330
2F
100
AcDbEntity
  8
notes
390
1D
100
AcDbBlockEnd
  0
BLOCK
  5
101
330
30
100
AcDbEntity
  8
notes
390
1D
100
AcDbBlockBegin
  2
*D15
 70
     1
 10
0.0
 20
0.0
 30
0.0
  3
*D15
  1
*D15
  0
LINE
  5
102
330
30
100
AcDbEntity
  8
notes
  6
Continuous
 62
     0
370
    -2
100
AcDbLine
 10
836.1297332158625
 20
2573.570623169674
 30
0.0
 11
911.1297332158625
 21
2573.570623169674
 31
0.0
  0
LINE
  5
103
330
30
100
AcDbEntity
  8
notes
  6
Continuous
 62
     0
370
    -2
100
AcDbLine
 10
836.1297332158625
 20
1923.570623169672
 30
0.0
 11
911.1297332158625
 21
1923.570623169672
 31
0.0
  0
LINE
  5
104
330
30
100
AcDbEntity
  8
notes
  6
Continuous
 62
     0
370
    -2
100
AcDbLine
 10
911.1297332158625
 20
2563.571233521236
 30
0.0
 11
911.1297332158625
 21
1933.570012818109
 31
0.0
  0
INSERT
  5
105
102
{ACAD_REACTORS
330
106
102
}
330
30
100
AcDbEntity
  8
notes
 62
     0
370
    -2
100
AcDbBlockReference
  2
_DOT
 10
911.1297332158625
 20
2573.570623169674
 30
0.0
 41
9.999389648437498
 42
9.999389648437498
 43
9.999389648437498
 50
90.0
  0
INSERT
  5
106
330
30
100
AcDbEntity
  8
notes
 62
     0
370
    -2
100
AcDbBlockReference
  2
_DOT
 10
911.1297332158625
 20
1923.570623169672
 30
0.0
 41
9.999389648437498
 42
9.999389648437498
 43
9.999389648437498
 50
270.0
  0
MTEXT
  5
107
102
{ACAD_REACTORS
330
108
102
}
330
30
100
AcDbEntity
  8
notes
  6
Continuous
 62
     0
100
AcDbMText
 10
893.9134246221125
 20
2248.570623169673
 30
0.0
 40
24.4326171875
 41
0.0
 46
0.0
 71
     5
 72
     1
  1
\A1;650
  7
ＭＳ ゴシック
 11
0.0
 21
1.0
 31
0.0
 73
     1
 44
1.0
  0
POINT
  5
108
330
30
100
AcDbEntity
  8
Defpoints
 62
     0
100
AcDbPoint
 10
811.1297332158625
 20
2573.570623169674
 30
0.0
  0
POINT
  5
109
330
30
100
AcDbEntity
  8
Defpoints
 62
     0
100
AcDbPoint
 10
811.1297332158625
 20
1923.570623169672
 30
0.0
  0
POINT
  5
10A
330
30
100
AcDbEntity
  8
Defpoints
 62
     0
100
AcDbPoint
 10
911.1297332158625
 20
1923.570623169672
 30
0.0
  0
ENDBLK
  5
10D
330
30
100
AcDbEntity
  8
notes
390
1D
100
AcDbBlockEnd
  0
BLOCK
  5
10E
330
31
100
AcDbEntity
  8
notes
390
1D
100
AcDbBlockBegin
  2
*D16
 70
     1
 10
0.0
 20
0.0
 30
0.0
  3
*D16
  1
*D16
  0
LINE
  5
10F
330
31
100
AcDbEntity
  8
notes
  6
Continuous
 62
     0
370
    -2
100
AcDbLine
 10
361.1297332158566
 20
2598.570623169674
 30
0.0
 11
361.1297332158566
 21
2673.570623169674
 31
0.0
  0
LINE
  5
110
330
31
100
AcDbEntity
  8
notes
  6
Continuous
 62
     0
370
    -2
100
AcDbLine
 10
811.1297332158625
 20
2598.570623169674
 30
0.0
 11
811.1297332158625
 21
2673.570623169674
 31
0.0
  0
LINE
  5
111
330
31
100
AcDbEntity
  8
notes
  6
Continuous
 62
     0
370
    -2
100
AcDbLine
 10
371.1291228642941
 20
2673.570623169674
 30
0.0
 11
801.130343567425
 21
2673.570623169674
 31
0.0
  0
INSERT
  5
112
102
{ACAD_REACTORS
330
113
102
}
330
31
100
AcDbEntity
  8
notes
 62
     0
370
    -2
100
AcDbBlockReference
  2
_DOT
 10
361.1297332158566
 20
2673.570623169674
 30
0.0
 41
9.999389648437498
 42
9.999389648437498
 43
9.999389648437498
 50
180.0
  0
INSERT
  5
113
330
31
100
AcDbEntity
  8
notes
 62
     0
370
    -2
100
AcDbBlockReference
  2
_DOT
 10
811.1297332158625
 20
2673.570623169674
 30
0.0
 41
9.999389648437498
 42
9.999389648437498
 43
9.999389648437498
  0
MTEXT
  5
114
102
{ACAD_REACTORS
330
115
102
}
330
31
100
AcDbEntity
  8
notes
  6
Continuous
 62
     0
100
AcDbMText
 10
586.1297332158596
 20
2690.786931763424
 30
0.0
 40
24.4326171875
 41
0.0
 46
0.0
 71
     5
 72
     1
  1
\A1;450
  7
ＭＳ ゴシック
 73
     1
 44
1.0
  0
POINT
  5
115
330
31
100
AcDbEntity
  8
Defpoints
 62
     0
100
AcDbPoint
 10
361.1297332158566
 20
2573.570623169674
 30
0.0
  0
POINT
  5
116
330
31
100
AcDbEntity
  8
Defpoints
 62
     0
100
AcDbPoint
 10
811.1297332158625
 20
2573.570623169674
 30
0.0
  0
POINT
  5
117
330
31
100
AcDbEntity
  8
Defpoints
 62
     0
100
AcDbPoint
 10
811.1297332158625
 20
2673.570623169674
 30
0.0
  0
ENDBLK
  5
11A
330
31
100
AcDbEntity
  8
notes
390
1D
100
AcDbBlockEnd
  0
BLOCK
  5
11B
330
32
100
AcDbEntity
  8
notes
390
1D
100
AcDbBlockBegin
  2
*D17
 70
     1
 10
0.0
 20
0.0
 30
0.0
  3
*D17
  1
*D17
  0
LINE
  5
11C
330
32
100
AcDbEntity
  8
notes
  6
Continuous
 62
     0
370
    -2
100
AcDbLine
 10
636.1297332158566
 20
2023.604934579586
 30
0.0
 11
711.1297332158566
 21
2023.604934579586
 31
0.0
  0
LINE
  5
11D
330
32
100
AcDbEntity
  8
notes
  6
Continuous
 62
     0
370
    -2
100
AcDbLine
 10
636.1297332158566
 20
2473.604934579585
 30
0.0
 11
711.1297332158566
 21
2473.604934579585
 31
0.0
  0
LINE
  5
11E
330
32
100
AcDbEntity
  8
notes
  6
Continuous
 62
     0
370
    -2
100
AcDbLine
 10
711.1297332158566
 20
2033.604324228023
 30
0.0
 11
711.1297332158566
 21
2463.605544931148
 31
0.0
  0
INSERT
  5
11F
102
{ACAD_REACTORS
330
120
102
}
330
32
100
AcDbEntity
  8
notes
 62
     0
370
    -2
100
AcDbBlockReference
  2
_DOT
 10
711.1297332158566
 20
2023.604934579586
 30
0.0
 41
9.999389648437498
 42
9.999389648437498
 43
9.999389648437498
 50
270.0
  0
INSERT
  5
120
330
32
100
AcDbEntity
  8
notes
 62
     0
370
    -2
100
AcDbBlockReference
  2
_DOT
 10
711.1297332158566
 20
2473.604934579585
 30
0.0
 41
9.999389648437498
 42
9.999389648437498
 43
9.999389648437498
 50
90.0
  0
MTEXT
  5
121
102
{ACAD_REACTORS
330
122
102
}
330
32
100
AcDbEntity
  8
notes
  6
Continuous
 62
     0
100
AcDbMText
 10
693.9134246221066
 20
2248.604934579585
 30
0.0
 40
24.4326171875
 41
0.0
 46
0.0
 71
     5
 72
     1
  1
\A1;450
  7
ＭＳ ゴシック
 11
0.0
 21
1.0
 31
0.0
 73
     1
 44
1.0
  0
POINT
  5
122
330
32
100
AcDbEntity
  8
Defpoints
 62
     0
100
AcDbPoint
 10
611.1297332158566
 20
2023.604934579586
 30
0.0
  0
POINT
  5
123
330
32
100
AcDbEntity
  8
Defpoints
 62
     0
100
AcDbPoint
 10
611.1297332158566
 20
2473.604934579585
 30
0.0
  0
POINT
  5
124
330
32
100
AcDbEntity
  8
Defpoints
 62
     0
100
AcDbPoint
 10
711.1297332158566
 20
2473.604934579585
 30
0.0
  0
ENDBLK
  5
127
330
32
100
AcDbEntity
  8
notes
390
1D
100
AcDbBlockEnd
  0
BLOCK
  5
128
330
33
100
AcDbEntity
  8
notes
390
1D
100
AcDbBlockBegin
  2
*D18
 70
     1
 10
0.0
 20
0.0
 30
0.0
  3
*D18
  1
*D18
  0
LINE
  5
129
330
33
100
AcDbEntity
  8
notes
  6
Continuous
 62
     0
370
    -2
100
AcDbLine
 10
361.1297332158566
 20
2498.604934579585
 30
0.0
 11
361.1297332158566
 21
2523.604934579585
 31
0.0
  0
LINE
  5
12A
330
33
100
AcDbEntity
  8
notes
  6
Continuous
 62
     0
370
    -2
100
AcDbLine
 10
611.1297332158566
 20
2498.604934579585
 30
0.0
 11
611.1297332158566
 21
2523.604934579585
 31
0.0
  0
LINE
  5
12B
330
33
100
AcDbEntity
  8
notes
  6
Continuous
 62
     0
370
    -2
100
AcDbLine
 10
371.1291228642941
 20
2523.604934579585
 30
0.0
 11
601.1303435674191
 21
2523.604934579585
 31
0.0
  0
INSERT
  5
12C
102
{ACAD_REACTORS
330
12D
102
}
330
33
100
AcDbEntity
  8
notes
 62
     0
370
    -2
100
AcDbBlockReference
  2
_DOT
 10
361.1297332158566
 20
2523.604934579585
 30
0.0
 41
9.999389648437498
 42
9.999389648437498
 43
9.999389648437498
 50
180.0
  0
INSERT
  5
12D
330
33
100
AcDbEntity
  8
notes
 62
     0
370
    -2
100
AcDbBlockReference
  2
_DOT
 10
611.1297332158566
 20
2523.604934579585
 30
0.0
 41
9.999389648437498
 42
9.999389648437498
 43
9.999389648437498
  0
MTEXT
  5
12E
102
{ACAD_REACTORS
330
12F
102
}
330
33
100
AcDbEntity
  8
notes
  6
Continuous
 62
     0
100
AcDbMText
 10
486.1297332158566
 20
2540.821243173335
 30
0.0
 40
24.4326171875
 41
0.0
 46
0.0
 71
     5
 72
     1
  1
\A1;250
  7
ＭＳ ゴシック
 73
     1
 44
1.0
  0
POINT
  5
12F
330
33
100
AcDbEntity
  8
Defpoints
 62
     0
100
AcDbPoint
 10
361.1297332158566
 20
2473.604934579585
 30
0.0
  0
POINT
  5
130
330
33
100
AcDbEntity
  8
Defpoints
 62
     0
100
AcDbPoint
 10
611.1297332158566
 20
2473.604934579585
 30
0.0
  0
POINT
  5
131
330
33
100
AcDbEntity
  8
Defpoints
 62
     0
100
AcDbPoint
 10
611.1297332158566
 20
2523.604934579585
 30
0.0
  0
ENDBLK
  5
134
330
33
100
AcDbEntity
  8
notes
390
1D
100
AcDbBlockEnd
  0
BLOCK
  5
135
330
34
100
AcDbEntity
  8
notes
390
1D
100
AcDbBlockBegin
  2
*D19
 70
     1
 10
0.0
 20
0.0
 30
0.0
  3
*D19
  1
*D19
  0
LINE
  5
136
330
34
100
AcDbEntity
  8
0
  6
Continuous
 62
     0
370
    -2
390
1D
100
AcDbLine
 10
414.0526443166864
 20
-828.6524822458639
 30
0.0
 11
414.0526443166864
 21
-908.6552538449107
 31
0.0
  0
LINE
  5
137
330
34
100
AcDbEntity
  8
0
  6
Continuous
 62
     0
370
    -2
390
1D
100
AcDbLine
 10
454.0541424922092
 20
-684.6699890432667
 30
0.0
 11
454.0541424922092
 21
-908.6552538449107
 31
0.0
  0
LINE
  5
138
330
34
100
AcDbEntity
  8
0
  6
Continuous
 62
     0
370
    -2
390
1D
100
AcDbLine
 10
414.0526443166864
 20
-908.6552538449107
 30
0.0
 11
454.0541424922092
 21
-908.6552538449107
 31
0.0
  0
CIRCLE
  5
139
102
{ACAD_REACTORS
330
13A
102
}
330
34
100
AcDbEntity
  8
0
  6
Continuous
 62
     0
370
    -2
390
1D
100
AcDbCircle
 10
414.0526443166864
 20
-908.6552538449107
 30
0.0
 40
4.99969482421875
  0
HATCH
  5
13A
330
34
100
AcDbEntity
  8
0
  6
Continuous
 62
     0
370
    -2
390
1D
100
AcDbHatch
 10
0.0
 20
0.0
 30
0.0
210
0.0
220
0.0
230
1.0
  2
SOLID
 70
     1
 71
     1
 91
        1
 92
        1
 93
        1
 72
     2
 10
414.0526443166864
 20
-908.6552538449107
 40
4.99969482421875
 50
0.0
 51
360.0
 73
     0
 97
        1
330
139
 75
     0
 76
     1
 98
        1
 10
0.0
 20
0.0
  0
CIRCLE
  5
13B
102
{ACAD_REACTORS
330
13C
102
}
330
34
100
AcDbEntity
  8
0
  6
Continuous
 62
     0
370
    -2
390
1D
100
AcDbCircle
 10
454.0541424922092
 20
-908.6552538449107
 30
0.0
 40
4.99969482421875
  0
HATCH
  5
13C
330
34
100
AcDbEntity
  8
0
  6
Continuous
 62
     0
370
    -2
390
1D
100
AcDbHatch
 10
0.0
 20
0.0
 30
0.0
210
0.0
220
0.0
230
1.0
  2
SOLID
 70
     1
 71
     1
 91
        1
 92
        1
 93
        1
 72
     2
 10
454.0541424922092
 20
-908.6552538449107
 40
4.99969482421875
 50
0.0
 51
360.0
 73
     0
 97
        1
330
13B
 75
     0
 76
     1
 98
        1
 10
0.0
 20
0.0
  0
MTEXT
  5
13D
330
34
100
AcDbEntity
  8
0
 62
     0
390
1D
100
AcDbMText
 10
418.1783934044478
 20
-874.7776366574105
 30
0.0
 40
24.4326171875
 41
0.0
 46
0.0
 71
     1
 72
     1
  1
40
  7
ＭＳ ゴシック
 73
     1
 44
0.7828267384257843
  0
POINT
  5
13E
330
34
100
AcDbEntity
  8
Defpoints
 62
     0
370
     0
390
1D
100
AcDbPoint
 10
454.0541424922092
 20
-659.6699890432667
 30
0.0
  0
POINT
  5
13F
330
34
100
AcDbEntity
  8
Defpoints
 62
     0
370
     0
390
1D
100
AcDbPoint
 10
414.0526443166864
 20
-803.6524822458639
 30
0.0
  0
POINT
  5
140
330
34
100
AcDbEntity
  8
Defpoints
 62
     0
370
     0
390
1D
100
AcDbPoint
 10
414.0526443166864
 20
-908.6552538449107
 30
0.0
  0
ENDBLK
  5
141
330
34
100
AcDbEntity
  8
notes
390
1D
100
AcDbBlockEnd
  0
BLOCK
  5
142
330
35
100
AcDbEntity
  8
notes
390
1D
100
AcDbBlockBegin
  2
*D20
 70
     1
 10
0.0
 20
0.0
 30
0.0
  3
*D20
  1
*D20
  0
LINE
  5
143
330
35
100
AcDbEntity
  8
0
  6
Continuous
 62
     0
370
    -2
390
1D
100
AcDbLine
 10
599.1384248174965
 20
827.5214798996083
 30
0.0
 11
599.1384248174965
 21
801.4600058384947
 31
0.0
  0
LINE
  5
144
330
35
100
AcDbEntity
  8
0
  6
Continuous
 62
     0
370
    -2
390
1D
100
AcDbLine
 10
604.1384248189407
 20
828.0850058384947
 30
0.0
 11
604.1384248189407
 21
801.4600058384947
 31
0.0
  0
LINE
  5
145
330
35
100
AcDbEntity
  8
0
  6
Continuous
 62
     0
370
    -2
390
1D
100
AcDbLine
 10
604.1384248189407
 20
801.4600058384947
 30
0.0
 11
639.8992337548281
 21
801.4600058384947
 31
0.0
  0
LINE
  5
146
330
35
100
AcDbEntity
  8
0
  6
Continuous
 62
     0
370
    -2
390
1D
100
AcDbLine
 10
599.1384248174965
 20
801.4600058384947
 30
0.0
 11
604.1384248189407
 21
801.4600058384947
 31
0.0
  0
CIRCLE
  5
147
102
{ACAD_REACTORS
330
148
102
}
330
35
100
AcDbEntity
  8
0
  6
Continuous
 62
     0
370
    -2
390
1D
100
AcDbCircle
 10
599.1384248174965
 20
801.4600058384947
 30
0.0
 40
4.99969482421875
  0
HATCH
  5
148
330
35
100
AcDbEntity
  8
0
  6
Continuous
 62
     0
370
    -2
390
1D
100
AcDbHatch
 10
0.0
 20
0.0
 30
0.0
210
0.0
220
0.0
230
1.0
  2
SOLID
 70
     1
 71
     1
 91
        1
 92
        1
 93
        1
 72
     2
 10
599.1384248174965
 20
801.4600058384947
 40
4.99969482421875
 50
0.0
 51
360.0
 73
     0
 97
        1
330
147
 75
     0
 76
     1
 98
        1
 10
0.0
 20
0.0
  0
CIRCLE
  5
149
102
{ACAD_REACTORS
330
14A
102
}
330
35
100
AcDbEntity
  8
0
  6
Continuous
 62
     0
370
    -2
390
1D
100
AcDbCircle
 10
604.1384248189407
 20
801.4600058384947
 30
0.0
 40
4.99969482421875
  0
HATCH
  5
14A
330
35
100
AcDbEntity
  8
0
  6
Continuous
 62
     0
370
    -2
390
1D
100
AcDbHatch
 10
0.0
 20
0.0
 30
0.0
210
0.0
220
0.0
230
1.0
  2
SOLID
 70
     1
 71
     1
 91
        1
 92
        1
 93
        1
 72
     2
 10
604.1384248189407
 20
801.4600058384947
 40
4.99969482421875
 50
0.0
 51
360.0
 73
     0
 97
        1
330
149
 75
     0
 76
     1
 98
        1
 10
0.0
 20
0.0
  0
MTEXT
  5
14B
330
35
100
AcDbEntity
  8
0
 62
     0
390
1D
100
AcDbMText
 10
624.0242337548281
 20
835.3376230259946
 30
0.0
 40
24.4326171875
 41
0.0
 46
0.0
 71
     1
 72
     1
  1
5
  7
ＭＳ ゴシック
 73
     1
 44
0.7828267384257843
  0
POINT
  5
14C
330
35
100
AcDbEntity
  8
Defpoints
 62
     0
370
     0
390
1D
100
AcDbPoint
 10
604.1384248189407
 20
853.0850058384947
 30
0.0
  0
POINT
  5
14D
330
35
100
AcDbEntity
  8
Defpoints
 62
     0
370
     0
390
1D
100
AcDbPoint
 10
599.1384248174965
 20
852.5214798996083
 30
0.0
  0
POINT
  5
14E
330
35
100
AcDbEntity
  8
Defpoints
 62
     0
370
     0
390
1D
100
AcDbPoint
 10
599.1384248174965
 20
801.4600058384947
 30
0.0
  0
ENDBLK
  5
14F
330
35
100
AcDbEntity
  8
notes
390
1D
100
AcDbBlockEnd
  0
BLOCK
  5
150
330
36
100
AcDbEntity
  8
notes
390
1D
100
AcDbBlockBegin
  2
*D21
 70
     1
 10
0.0
 20
0.0
 30
0.0
  3
*D21
  1
*D21
  0
LINE
  5
151
330
36
100
AcDbEntity
  8
notes
  6
Continuous
 62
     0
370
    -2
100
AcDbLine
 10
1555.507713121402
 20
2029.251393657451
 30
0.0
 11
1555.507713121402
 21
1951.751393657451
 31
0.0
  0
LINE
  5
152
330
36
100
AcDbEntity
  8
notes
  6
Continuous
 62
     0
370
    -2
100
AcDbLine
 10
1460.507713121402
 20
2029.251393657451
 30
0.0
 11
1460.507713121402
 21
1951.751393657451
 31
0.0
  0
LINE
  5
153
330
36
100
AcDbEntity
  8
notes
  6
Continuous
 62
     0
370
    -2
100
AcDbLine
 10
1545.508323472964
 20
1951.751393657451
 30
0.0
 11
1470.507102769839
 21
1951.751393657451
 31
0.0
  0
INSERT
  5
154
102
{ACAD_REACTORS
330
155
102
}
330
36
100
AcDbEntity
  8
notes
 62
     0
370
    -2
100
AcDbBlockReference
  2
_DOT
 10
1555.507713121402
 20
1951.751393657451
 30
0.0
 41
9.999389648437498
 42
9.999389648437498
 43
9.999389648437498
  0
INSERT
  5
155
330
36
100
AcDbEntity
  8
notes
 62
     0
370
    -2
100
AcDbBlockReference
  2
_DOT
 10
1460.507713121402
 20
1951.751393657451
 30
0.0
 41
9.999389648437498
 42
9.999389648437498
 43
9.999389648437498
 50
180.0
  0
MTEXT
  5
156
102
{ACAD_REACTORS
330
157
102
}
330
36
100
AcDbEntity
  8
notes
  6
Continuous
 62
     0
100
AcDbMText
 10
1508.007713121402
 20
1968.967702251201
 30
0.0
 40
24.4326171875
 41
0.0
 46
0.0
 71
     5
 72
     1
  1
\A1;95
  7
ＭＳ ゴシック
 73
     1
 44
1.0
  0
POINT
  5
157
330
36
100
AcDbEntity
  8
Defpoints
 62
     0
100
AcDbPoint
 10
1555.507713121402
 20
2054.251393657451
 30
0.0
  0
POINT
  5
158
330
36
100
AcDbEntity
  8
Defpoints
 62
     0
100
AcDbPoint
 10
1460.507713121402
 20
2054.251393657451
 30
0.0
  0
POINT
  5
159
330
36
100
AcDbEntity
  8
Defpoints
 62
     0
100
AcDbPoint
 10
1460.507713121402
 20
1951.751393657451
 30
0.0
  0
ENDBLK
  5
15C
330
36
100
AcDbEntity
  8
notes
390
1D
100
AcDbBlockEnd
  0
BLOCK
  5
15D
330
37
100
AcDbEntity
  8
notes
390
1D
100
AcDbBlockBegin
  2
*D22
 70
     1
 10
0.0
 20
0.0
 30
0.0
  3
*D22
  1
*D22
  0
LINE
  5
15E
330
37
100
AcDbEntity
  8
notes
  6
Continuous
 62
     0
370
    -2
100
AcDbLine
 10
1650.507713121402
 20
2116.598287361482
 30
0.0
 11
1650.507713121402
 21
1951.751393657451
 31
0.0
  0
LINE
  5
15F
330
37
100
AcDbEntity
  8
notes
  6
Continuous
 62
     0
370
    -2
100
AcDbLine
 10
1555.507713121402
 20
2029.251393657451
 30
0.0
 11
1555.507713121402
 21
1951.751393657451
 31
0.0
  0
LINE
  5
160
330
37
100
AcDbEntity
  8
notes
  6
Continuous
 62
     0
370
    -2
100
AcDbLine
 10
1640.508323472964
 20
1951.751393657451
 30
0.0
 11
1565.507102769839
 21
1951.751393657451
 31
0.0
  0
INSERT
  5
161
102
{ACAD_REACTORS
330
162
102
}
330
37
100
AcDbEntity
  8
notes
 62
     0
370
    -2
100
AcDbBlockReference
  2
_DOT
 10
1650.507713121402
 20
1951.751393657451
 30
0.0
 41
9.999389648437498
 42
9.999389648437498
 43
9.999389648437498
  0
INSERT
  5
162
330
37
100
AcDbEntity
  8
notes
 62
     0
370
    -2
100
AcDbBlockReference
  2
_DOT
 10
1555.507713121402
 20
1951.751393657451
 30
0.0
 41
9.999389648437498
 42
9.999389648437498
 43
9.999389648437498
 50
180.0
  0
MTEXT
  5
163
102
{ACAD_REACTORS
330
164
102
}
330
37
100
AcDbEntity
  8
notes
  6
Continuous
 62
     0
100
AcDbMText
 10
1603.007713121402
 20
1968.967702251201
 30
0.0
 40
24.4326171875
 41
0.0
 46
0.0
 71
     5
 72
     1
  1
\A1;95
  7
ＭＳ ゴシック
 73
     1
 44
1.0
  0
POINT
  5
164
330
37
100
AcDbEntity
  8
Defpoints
 62
     0
100
AcDbPoint
 10
1650.507713121402
 20
2141.598287361482
 30
0.0
  0
POINT
  5
165
330
37
100
AcDbEntity
  8
Defpoints
 62
     0
100
AcDbPoint
 10
1555.507713121402
 20
2054.251393657451
 30
0.0
  0
POINT
  5
166
330
37
100
AcDbEntity
  8
Defpoints
 62
     0
100
AcDbPoint
 10
1555.507713121402
 20
1951.751393657451
 30
0.0
  0
ENDBLK
  5
169
330
37
100
AcDbEntity
  8
notes
390
1D
100
AcDbBlockEnd
  0
BLOCK
  5
16A
330
38
100
AcDbEntity
  8
notes
390
1D
100
AcDbBlockBegin
  2
*D23
 70
     1
 10
0.0
 20
0.0
 30
0.0
  3
*D23
  1
*D23
  0
LINE
  5
16B
330
38
100
AcDbEntity
  8
notes
  6
Continuous
 62
     0
370
    -2
100
AcDbLine
 10
1435.558715532364
 20
2486.792304811285
 30
0.0
 11
1360.507713121402
 21
2486.792304811285
 31
0.0
  0
LINE
  5
16C
330
38
100
AcDbEntity
  8
notes
  6
Continuous
 62
     0
370
    -2
100
AcDbLine
 10
1438.507713121402
 20
2551.751393657451
 30
0.0
 11
1360.507713121402
 21
2551.751393657451
 31
0.0
  0
LINE
  5
16D
330
38
100
AcDbEntity
  8
notes
  6
Continuous
 62
     0
370
    -2
100
AcDbLine
 10
1360.507713121402
 20
2496.791694459723
 30
0.0
 11
1360.507713121402
 21
2541.752004009013
 31
0.0
  0
INSERT
  5
16E
102
{ACAD_REACTORS
330
16F
102
}
330
38
100
AcDbEntity
  8
notes
 62
     0
370
    -2
100
AcDbBlockReference
  2
_DOT
 10
1360.507713121402
 20
2486.792304811285
 30
0.0
 41
9.999389648437498
 42
9.999389648437498
 43
9.999389648437498
 50
270.0
  0
INSERT
  5
16F
330
38
100
AcDbEntity
  8
notes
 62
     0
370
    -2
100
AcDbBlockReference
  2
_DOT
 10
1360.507713121402
 20
2551.751393657451
 30
0.0
 41
9.999389648437498
 42
9.999389648437498
 43
9.999389648437498
 50
90.0
  0
MTEXT
  5
170
102
{ACAD_REACTORS
330
171
102
}
330
38
100
AcDbEntity
  8
notes
  6
Continuous
 62
     0
100
AcDbMText
 10
1343.291404527652
 20
2519.271849234368
 30
0.0
 40
24.4326171875
 41
0.0
 46
0.0
 71
     5
 72
     1
  1
\A1;65
  7
ＭＳ ゴシック
 11
0.0
 21
1.0
 31
0.0
 73
     1
 44
1.0
  0
POINT
  5
171
330
38
100
AcDbEntity
  8
Defpoints
 62
     0
100
AcDbPoint
 10
1460.558715532364
 20
2486.792304811285
 30
0.0
  0
POINT
  5
172
330
38
100
AcDbEntity
  8
Defpoints
 62
     0
100
AcDbPoint
 10
1463.507713121402
 20
2551.751393657451
 30
0.0
  0
POINT
  5
173
330
38
100
AcDbEntity
  8
Defpoints
 62
     0
100
AcDbPoint
 10
1360.507713121402
 20
2551.751393657451
 30
0.0
  0
ENDBLK
  5
176
330
38
100
AcDbEntity
  8
notes
390
1D
100
AcDbBlockEnd
  0
BLOCK
  5
177
330
39
100
AcDbEntity
  8
notes
390
1D
100
AcDbBlockBegin
  2
*D24
 70
     1
 10
0.0
 20
0.0
 30
0.0
  3
*D24
  1
*D24
  0
LINE
  5
178
330
39
100
AcDbEntity
  8
notes
  6
Continuous
 62
     0
370
    -2
100
AcDbLine
 10
1675.42343079467
 20
2351.751393657451
 30
0.0
 11
1750.507713118453
 21
2351.751393657451
 31
0.0
  0
LINE
  5
179
330
39
100
AcDbEntity
  8
notes
  6
Continuous
 62
     0
370
    -2
100
AcDbLine
 10
1671.507713121402
 20
2551.751393657451
 30
0.0
 11
1750.507713118453
 21
2551.751393657451
 31
0.0
  0
LINE
  5
17A
330
39
100
AcDbEntity
  8
notes
  6
Continuous
 62
     0
370
    -2
100
AcDbLine
 10
1750.507713118453
 20
2361.750783305888
 30
0.0
 11
1750.507713118453
 21
2541.752004009013
 31
0.0
  0
INSERT
  5
17B
102
{ACAD_REACTORS
330
17C
102
}
330
39
100
AcDbEntity
  8
notes
 62
     0
370
    -2
100
AcDbBlockReference
  2
_DOT
 10
1750.507713118453
 20
2351.751393657451
 30
0.0
 41
9.999389648437498
 42
9.999389648437498
 43
9.999389648437498
 50
270.0
  0
INSERT
  5
17C
330
39
100
AcDbEntity
  8
notes
 62
     0
370
    -2
100
AcDbBlockReference
  2
_DOT
 10
1750.507713118453
 20
2551.751393657451
 30
0.0
 41
9.999389648437498
 42
9.999389648437498
 43
9.999389648437498
 50
90.0
  0
MTEXT
  5
17D
102
{ACAD_REACTORS
330
17E
102
}
330
39
100
AcDbEntity
  8
notes
  6
Continuous
 62
     0
100
AcDbMText
 10
1733.291404524703
 20
2451.751393657451
 30
0.0
 40
24.4326171875
 41
0.0
 46
0.0
 71
     5
 72
     1
  1
\A1;200
  7
ＭＳ ゴシック
 11
0.0
 21
1.0
 31
0.0
 73
     1
 44
1.0
  0
POINT
  5
17E
330
39
100
AcDbEntity
  8
Defpoints
 62
     0
100
AcDbPoint
 10
1650.42343079467
 20
2351.751393657451
 30
0.0
  0
POINT
  5
17F
330
39
100
AcDbEntity
  8
Defpoints
 62
     0
100
AcDbPoint
 10
1646.507713121402
 20
2551.751393657451
 30
0.0
  0
POINT
  5
180
330
39
100
AcDbEntity
  8
Defpoints
 62
     0
100
AcDbPoint
 10
1750.507713118453
 20
2551.751393657451
 30
0.0
  0
ENDBLK
  5
183
330
39
100
AcDbEntity
  8
notes
390
1D
100
AcDbBlockEnd
  0
BLOCK
  5
184
330
3A
100
AcDbEntity
  8
notes
390
1D
100
AcDbBlockBegin
  2
*D25
 70
     1
 10
0.0
 20
0.0
 30
0.0
  3
*D25
  1
*D25
  0
LINE
  5
185
330
3A
100
AcDbEntity
  8
0
  6
Continuous
 62
     0
370
    -2
390
1D
100
AcDbLine
 10
414.2910021648069
 20
821.7693383357434
 30
0.0
 11
414.2910021648069
 21
840.8598639036481
 31
0.0
  0
LINE
  5
186
330
3A
100
AcDbEntity
  8
0
  6
Continuous
 62
     0
370
    -2
390
1D
100
AcDbLine
 10
554.2910021648069
 20
821.7317647211405
 30
0.0
 11
554.2910021648069
 21
840.8598639036481
 31
0.0
  0
LINE
  5
187
330
3A
100
AcDbEntity
  8
0
  6
Continuous
 62
     0
370
    -2
390
1D
100
AcDbLine
 10
414.2910021648069
 20
840.8598639036481
 30
0.0
 11
261.9579580257506
 21
840.8598639036481
 31
0.0
  0
LINE
  5
188
330
3A
100
AcDbEntity
  8
0
  6
Continuous
 62
     0
370
    -2
390
1D
100
AcDbLine
 10
414.2910021648069
 20
840.8598639036481
 30
0.0
 11
554.2910021648069
 21
840.8598639036481
 31
0.0
  0
CIRCLE
  5
189
102
{ACAD_REACTORS
330
18A
102
}
330
3A
100
AcDbEntity
  8
0
  6
Continuous
 62
     0
370
    -2
390
1D
100
AcDbCircle
 10
414.2910021648069
 20
840.8598639036481
 30
0.0
 40
4.99969482421875
  0
HATCH
  5
18A
330
3A
100
AcDbEntity
  8
0
  6
Continuous
 62
     0
370
    -2
390
1D
100
AcDbHatch
 10
0.0
 20
0.0
 30
0.0
210
0.0
220
0.0
230
1.0
  2
SOLID
 70
     1
 71
     1
 91
        1
 92
        1
 93
        1
 72
     2
 10
414.2910021648069
 20
840.8598639036481
 40
4.99969482421875
 50
0.0
 51
360.0
 73
     0
 97
        1
330
189
 75
     0
 76
     1
 98
        1
 10
0.0
 20
0.0
  0
CIRCLE
  5
18B
102
{ACAD_REACTORS
330
18C
102
}
330
3A
100
AcDbEntity
  8
0
  6
Continuous
 62
     0
370
    -2
390
1D
100
AcDbCircle
 10
554.2910021648069
 20
840.8598639036481
 30
0.0
 40
4.99969482421875
  0
HATCH
  5
18C
330
3A
100
AcDbEntity
  8
0
  6
Continuous
 62
     0
370
    -2
390
1D
100
AcDbHatch
 10
0.0
 20
0.0
 30
0.0
210
0.0
220
0.0
230
1.0
  2
SOLID
 70
     1
 71
     1
 91
        1
 92
        1
 93
        1
 72
     2
 10
554.2910021648069
 20
840.8598639036481
 40
4.99969482421875
 50
0.0
 51
360.0
 73
     0
 97
        1
330
18B
 75
     0
 76
     1
 98
        1
 10
0.0
 20
0.0
  0
MTEXT
  5
18D
330
3A
100
AcDbEntity
  8
0
 62
     0
390
1D
100
AcDbMText
 10
261.9579580257506
 20
874.7374810911481
 30
0.0
 40
24.4326171875
 41
0.0
 46
0.0
 71
     1
 72
     1
  1
140(深さ)
  7
ＭＳ ゴシック
 73
     1
 44
0.7828267384257843
  0
POINT
  5
18E
330
3A
100
AcDbEntity
  8
Defpoints
 62
     0
370
     0
390
1D
100
AcDbPoint
 10
554.2910021648069
 20
846.7317647211405
 30
0.0
  0
POINT
  5
18F
330
3A
100
AcDbEntity
  8
Defpoints
 62
     0
370
     0
390
1D
100
AcDbPoint
 10
414.2910021648069
 20
846.7693383357434
 30
0.0
  0
POINT
  5
190
330
3A
100
AcDbEntity
  8
Defpoints
 62
     0
370
     0
390
1D
100
AcDbPoint
 10
414.2910021648069
 20
840.8598639036481
 30
0.0
  0
ENDBLK
  5
191
330
3A
100
AcDbEntity
  8
notes
390
1D
100
AcDbBlockEnd
  0
BLOCK
  5
192
330
3B
100
AcDbEntity
  8
notes
390
1D
100
AcDbBlockBegin
  2
*D26
 70
     1
 10
0.0
 20
0.0
 30
0.0
  3
*D26
  1
*D26
  0
LINE
  5
193
330
3B
100
AcDbEntity
  8
notes
  6
Continuous
 62
     0
370
    -2
100
AcDbLine
 10
1671.507713121401
 20
2136.751393657451
 30
0.0
 11
1800.507713118453
 21
2136.751393657451
 31
0.0
  0
LINE
  5
194
330
3B
100
AcDbEntity
  8
notes
  6
Continuous
 62
     0
370
    -2
100
AcDbLine
 10
1671.507713121401
 20
2551.751393657451
 30
0.0
 11
1800.507713118453
 21
2551.751393657451
 31
0.0
  0
LINE
  5
195
330
3B
100
AcDbEntity
  8
notes
  6
Continuous
 62
     0
370
    -2
100
AcDbLine
 10
1800.507713118453
 20
2146.750783305888
 30
0.0
 11
1800.507713118453
 21
2541.752004009013
 31
0.0
  0
INSERT
  5
196
102
{ACAD_REACTORS
330
197
102
}
330
3B
100
AcDbEntity
  8
notes
 62
     0
370
    -2
100
AcDbBlockReference
  2
_DOT
 10
1800.507713118453
 20
2136.751393657451
 30
0.0
 41
9.999389648437498
 42
9.999389648437498
 43
9.999389648437498
 50
270.0
  0
INSERT
  5
197
330
3B
100
AcDbEntity
  8
notes
 62
     0
370
    -2
100
AcDbBlockReference
  2
_DOT
 10
1800.507713118453
 20
2551.751393657451
 30
0.0
 41
9.999389648437498
 42
9.999389648437498
 43
9.999389648437498
 50
90.0
  0
MTEXT
  5
198
102
{ACAD_REACTORS
330
199
102
}
330
3B
100
AcDbEntity
  8
notes
  6
Continuous
 62
     0
100
AcDbMText
 10
1783.291404524703
 20
2344.251393657451
 30
0.0
 40
24.4326171875
 41
0.0
 46
0.0
 71
     5
 72
     1
  1
\A1;415
  7
ＭＳ ゴシック
 11
0.0
 21
1.0
 31
0.0
 73
     1
 44
1.0
  0
POINT
  5
199
330
3B
100
AcDbEntity
  8
Defpoints
 62
     0
100
AcDbPoint
 10
1646.507713121401
 20
2136.751393657451
 30
0.0
  0
POINT
  5
19A
330
3B
100
AcDbEntity
  8
Defpoints
 62
     0
100
AcDbPoint
 10
1646.507713121401
 20
2551.751393657451
 30
0.0
  0
POINT
  5
19B
330
3B
100
AcDbEntity
  8
Defpoints
 62
     0
100
AcDbPoint
 10
1800.507713118453
 20
2551.751393657451
 30
0.0
  0
ENDBLK
  5
19E
330
3B
100
AcDbEntity
  8
notes
390
1D
100
AcDbBlockEnd
  0
BLOCK
  5
2DF
330
2DE
100
AcDbEntity
  8
0
100
AcDbBlockBegin
  2
*D27
 70
     1
 10
0.0
 20
0.0
 30
0.0
  3
*D27
  1
*D27
  0
LINE
  5
2E1
330
2DE
100
AcDbEntity
  8
notes
  6
Continuous
 62
     0
370
    -2
100
AcDbLine
 10
336.1297332158566
 20
1434.760096564891
 30
0.0
 11
211.1297332158567
 21
1434.760096564891
 31
0.0
  0
LINE
  5
2E2
330
2DE
100
AcDbEntity
  8
notes
  6
Continuous
 62
     0
370
    -2
100
AcDbLine
 10
336.1297332158566
 20
684.7600965648919
 30
0.0
 11
211.1297332158566
 21
684.7600965648919
 31
0.0
  0
LINE
  5
2E3
330
2DE
100
AcDbEntity
  8
notes
  6
Continuous
 62
     0
370
    -2
100
AcDbLine
 10
211.1297332158567
 20
1424.760706916453
 30
0.0
 11
211.1297332158566
 21
694.7594862133294
 31
0.0
  0
INSERT
  5
2E4
330
2DE
100
AcDbEntity
  8
notes
 62
     0
370
    -2
100
AcDbBlockReference
  2
_DOT
 10
211.1297332158567
 20
1434.760096564891
 30
0.0
 41
9.999389648437498
 42
9.999389648437498
 43
9.999389648437498
 50
90.0
  0
INSERT
  5
2E5
330
2DE
100
AcDbEntity
  8
notes
 62
     0
370
    -2
100
AcDbBlockReference
  2
_DOT
 10
211.1297332158566
 20
684.7600965648919
 30
0.0
 41
9.999389648437498
 42
9.999389648437498
 43
9.999389648437498
 50
270.0
  0
MTEXT
  5
2E6
330
2DE
100
AcDbEntity
  8
notes
  6
Continuous
 62
     0
100
AcDbMText
 10
190.1817392984096
 20
1059.760096564891
 30
0.0
 40
24.4326171875
 41
0.0
 46
0.0
 71
     5
 72
     1
  1
\A1;750
  7
ＭＳ ゴシック
 11
7.579122514774415E-17
 21
1.0
 31
0.0
 73
     1
 44
1.0
  0
POINT
  5
2E7
330
2DE
100
AcDbEntity
  8
Defpoints
 62
     0
100
AcDbPoint
 10
361.1297332158566
 20
1434.760096564891
 30
0.0
  0
POINT
  5
2E8
330
2DE
100
AcDbEntity
  8
Defpoints
 62
     0
100
AcDbPoint
 10
361.1297332158566
 20
684.7600965648919
 30
0.0
  0
POINT
  5
2E9
330
2DE
100
AcDbEntity
  8
Defpoints
 62
     0
100
AcDbPoint
 10
211.1297332158566
 20
684.7600965648919
 30
0.0
  0
ENDBLK
  5
2E0
330
2DE
100
AcDbEntity
  8
0
100
AcDbBlockEnd
  0
BLOCK
  5
2EC
330
2EB
100
AcDbEntity
  8
0
100
AcDbBlockBegin
  2
*D28
 70
     1
 10
0.0
 20
0.0
 30
0.0
  3
*D28
  1
*D28
  0
LINE
  5
2EE
330
2EB
100
AcDbEntity
  8
notes
  6
Continuous
 62
     0
370
    -2
100
AcDbLine
 10
1500.339148467939
 20
808.7453613665359
 30
0.0
 11
1500.339148467939
 21
584.7600965648919
 31
0.0
  0
LINE
  5
2EF
330
2EB
100
AcDbEntity
  8
notes
  6
Continuous
 62
     0
370
    -2
100
AcDbLine
 10
1460.337650292416
 20
664.7628681639387
 30
0.0
 11
1460.337650292416
 21
584.7600965648919
 31
0.0
  0
LINE
  5
2F0
330
2EB
100
AcDbEntity
  8
notes
  6
Continuous
 62
     0
370
    -2
100
AcDbLine
 10
1490.339758819501
 20
584.7600965648919
 30
0.0
 11
1470.337039940854
 21
584.7600965648919
 31
0.0
  0
INSERT
  5
2F1
330
2EB
100
AcDbEntity
  8
notes
 62
     0
370
    -2
100
AcDbBlockReference
  2
_DOT
 10
1500.339148467939
 20
584.7600965648919
 30
0.0
 41
9.999389648437498
 42
9.999389648437498
 43
9.999389648437498
  0
INSERT
  5
2F2
330
2EB
100
AcDbEntity
  8
notes
 62
     0
370
    -2
100
AcDbBlockReference
  2
_DOT
 10
1460.337650292416
 20
584.7600965648919
 30
0.0
 41
9.999389648437498
 42
9.999389648437498
 43
9.999389648437498
 50
180.0
  0
MTEXT
  5
2F3
330
2EB
100
AcDbEntity
  8
notes
  6
Continuous
 62
     0
100
AcDbMText
 10
1480.338399380178
 20
565.137543169423
 30
0.0
 40
24.4326171875
 41
0.0
 46
0.0
 71
     5
 72
     1
  1
\A1;40
  7
ＭＳ ゴシック
 73
     1
 44
1.0
  0
POINT
  5
2F4
330
2EB
100
AcDbEntity
  8
Defpoints
 62
     0
100
AcDbPoint
 10
1500.339148467939
 20
833.7453613665359
 30
0.0
  0
POINT
  5
2F5
330
2EB
100
AcDbEntity
  8
Defpoints
 62
     0
100
AcDbPoint
 10
1460.337650292416
 20
689.7628681639387
 30
0.0
  0
POINT
  5
2F6
330
2EB
100
AcDbEntity
  8
Defpoints
 62
     0
100
AcDbPoint
 10
1460.337650292416
 20
584.7600965648919
 30
0.0
  0
ENDBLK
  5
2ED
330
2EB
100
AcDbEntity
  8
0
100
AcDbBlockEnd
  0
BLOCK
  5
2F8
330
2F7
100
AcDbEntity
  8
0
100
AcDbBlockBegin
  2
*D29
 70
     1
 10
0.0
 20
0.0
 30
0.0
  3
*D29
  1
*D29
  0
LINE
  5
2FA
330
2F7
100
AcDbEntity
  8
notes
  6
Continuous
 62
     0
370
    -2
100
AcDbLine
 10
1650.42343079467
 20
2321.500356248297
 30
0.0
 11
1650.42343079467
 21
2294.875356248297
 31
0.0
  0
LINE
  5
2FB
330
2F7
100
AcDbEntity
  8
notes
  6
Continuous
 62
     0
370
    -2
100
AcDbLine
 10
1645.423430793226
 20
2320.936830309411
 30
0.0
 11
1645.423430793226
 21
2294.875356248297
 31
0.0
  0
LINE
  5
2FC
330
2F7
100
AcDbEntity
  8
notes
  6
Continuous
 62
     0
370
    -2
100
AcDbLine
 10
1660.422820443108
 20
2294.875356248297
 30
0.0
 11
1670.422210091545
 21
2294.875356248297
 31
0.0
  0
LINE
  5
2FD
330
2F7
100
AcDbEntity
  8
notes
  6
Continuous
 62
     0
370
    -2
100
AcDbLine
 10
1635.424041144789
 20
2294.875356248297
 30
0.0
 11
1625.424651496351
 21
2294.875356248297
 31
0.0
  0
INSERT
  5
2FE
330
2F7
100
AcDbEntity
  8
notes
 62
     0
370
    -2
100
AcDbBlockReference
  2
_DOT
 10
1650.42343079467
 20
2294.875356248297
 30
0.0
 41
9.999389648437498
 42
9.999389648437498
 43
9.999389648437498
 50
180.0
  0
INSERT
  5
2FF
330
2F7
100
AcDbEntity
  8
notes
 62
     0
370
    -2
100
AcDbBlockReference
  2
_DOT
 10
1645.423430793226
 20
2294.875356248297
 30
0.0
 41
9.999389648437498
 42
9.999389648437498
 43
9.999389648437498
  0
MTEXT
  5
300
330
2F7
100
AcDbEntity
  8
notes
  6
Continuous
 62
     0
100
AcDbMText
 10
1685.851219574766
 20
2299.875356248297
 30
0.0
 40
24.4326171875
 41
0.0
 46
0.0
 71
     5
 72
     1
  1
\A1;5
  7
ＭＳ ゴシック
 73
     1
 44
1.0
  0
POINT
  5
301
330
2F7
100
AcDbEntity
  8
Defpoints
 62
     0
100
AcDbPoint
 10
1650.42343079467
 20
2346.500356248297
 30
0.0
  0
POINT
  5
302
330
2F7
100
AcDbEntity
  8
Defpoints
 62
     0
100
AcDbPoint
 10
1645.423430793226
 20
2345.936830309411
 30
0.0
  0
POINT
  5
303
330
2F7
100
AcDbEntity
  8
Defpoints
 62
     0
100
AcDbPoint
 10
1645.423430793226
 20
2294.875356248297
 30
0.0
  0
ENDBLK
  5
2F9
330
2F7
100
AcDbEntity
  8
0
100
AcDbBlockEnd
  0
BLOCK
  5
305
330
304
100
AcDbEntity
  8
0
100
AcDbBlockBegin
  2
*D30
 70
     1
 10
0.0
 20
0.0
 30
0.0
  3
*D30
  1
*D30
  0
LINE
  5
307
330
304
100
AcDbEntity
  8
notes
  6
Continuous
 62
     0
370
    -2
100
AcDbLine
 10
1600.576008140536
 20
2315.147115130943
 30
0.0
 11
1600.576008140536
 21
2334.275214313451
 31
0.0
  0
LINE
  5
308
330
304
100
AcDbEntity
  8
notes
  6
Continuous
 62
     0
370
    -2
100
AcDbLine
 10
1460.576008140537
 20
2315.184688745546
 30
0.0
 11
1460.576008140537
 21
2334.275214313451
 31
0.0
  0
LINE
  5
309
330
304
100
AcDbEntity
  8
notes
  6
Continuous
 62
     0
370
    -2
100
AcDbLine
 10
1590.576618492099
 20
2334.275214313451
 30
0.0
 11
1470.575397788974
 21
2334.275214313451
 31
0.0
  0
INSERT
  5
30A
330
304
100
AcDbEntity
  8
notes
 62
     0
370
    -2
100
AcDbBlockReference
  2
_DOT
 10
1600.576008140536
 20
2334.275214313451
 30
0.0
 41
9.999389648437498
 42
9.999389648437498
 43
9.999389648437498
  0
INSERT
  5
30B
330
304
100
AcDbEntity
  8
notes
 62
     0
370
    -2
100
AcDbBlockReference
  2
_DOT
 10
1460.576008140537
 20
2334.275214313451
 30
0.0
 41
9.999389648437498
 42
9.999389648437498
 43
9.999389648437498
 50
180.0
  0
MTEXT
  5
30C
330
304
100
AcDbEntity
  8
notes
  6
Continuous
 62
     0
100
AcDbMText
 10
1378.606591038429
 20
2339.275214313451
 30
0.0
 40
24.4326171875
 41
0.0
 46
0.0
 71
     5
 72
     1
  1
\A1;140(深さ)
  7
ＭＳ ゴシック
 73
     1
 44
1.0
  0
POINT
  5
30D
330
304
100
AcDbEntity
  8
Defpoints
 62
     0
100
AcDbPoint
 10
1600.576008140536
 20
2340.147115130943
 30
0.0
  0
POINT
  5
30E
330
304
100
AcDbEntity
  8
Defpoints
 62
     0
100
AcDbPoint
 10
1460.576008140537
 20
2340.184688745546
 30
0.0
  0
POINT
  5
30F
330
304
100
AcDbEntity
  8
Defpoints
 62
     0
100
AcDbPoint
 10
1460.576008140537
 20
2334.275214313451
 30
0.0
  0
ENDBLK
  5
306
330
304
100
AcDbEntity
  8
0
100
AcDbBlockEnd
  0
ENDSEC
  0
SECTION
  2
ENTITIES
  0
MTEXT
  5
19F
330
A
100
AcDbEntity
  8
template
390
1D
100
AcDbMText
 10
78.28500597597042
 20
345.9977211761027
 30
0.0
 40
16.28841145833333
 41
0.0
 46
0.0
 71
     1
 72
     1
  1
品名
  7
ＭＳ ゴシック
 73
     1
 44
0.7828267384257843
  0
MTEXT
  5
1A0
330
A
100
AcDbEntity
  8
template
390
1D
100
AcDbMText
 10
78.28500597597042
 20
260.9977211761027
 30
0.0
 40
16.28841145833333
 41
0.0
 46
0.0
 71
     1
 72
     1
  1
仕様
  7
ＭＳ ゴシック
 73
     1
 44
0.7828267384257843
  0
MTEXT
  5
1A1
330
A
100
AcDbEntity
  8
template
390
1D
100
AcDbMText
 10
131.2850059759704
 20
317.4152602386025
 30
0.0
 40
24.4326171875
 41
0.0
 46
0.0
 71
     1
 72
     1
  1
洗面器 -CATALANO,Zero-
  7
ＭＳ ゴシック
 73
     1
 44
0.7828267384257843
  0
LINE
  5
1A2
330
A
100
AcDbEntity
  8
template
  6
Continuous
390
1D
100
AcDbLine
 10
2021.285005975489
 20
269.4126430511026
 30
0.0
 11
71.28500597548839
 21
269.4126430511026
 31
0.0
  0
LWPOLYLINE
  5
1A3
330
A
100
AcDbEntity
  8
template
  6
Continuous
390
1D
100
AcDbPolyline
 90
        5
 70
   128
 43
0.0
 10
2021.285005975971
 20
2899.412643051102
 10
71.28500597597042
 20
2899.412643051102
 10
71.28500597597042
 20
99.41264305110258
 10
2021.285005975971
 20
99.41264305110258
 10
2021.285005975971
 20
2899.412643051102
  0
LINE
  5
1A4
330
A
100
AcDbEntity
  8
template
  6
Continuous
390
1D
100
AcDbLine
 10
2021.285005975489
 20
354.4126430511026
 30
0.0
 11
71.28500597548839
 21
354.4126430511026
 31
0.0
  0
LINE
  5
1A5
330
A
100
AcDbEntity
  8
template
  6
Continuous
390
1D
100
AcDbLine
 10
2021.285005975971
 20
184.4126430511026
 30
0.0
 11
1268.285005975971
 21
184.4126430511026
 31
0.0
  0
MTEXT
  5
1A6
330
A
100
AcDbEntity
  8
template
390
1D
100
AcDbMText
 10
71.2850059761737
 20
87.55882099424457
 30
0.0
 40
21.71788194444445
 41
0.0
 46
0.0
 71
     1
 72
     1
  1
100707SH
  7
ＭＳ ゴシック
 73
     1
 44
0.7828267384257843
  0
MTEXT
  5
1A7
330
A
100
AcDbEntity
  8
template
390
1D
100
AcDbMText
 10
1298.15641222823
 20
154.5022485777947
 30
0.0
 40
24.4326171875
 41
0.0
 46
0.0
 71
     1
 72
     1
  1
大洋金物株式会社 ティーフォルム事業部
  7
ＭＳ ゴシック
 73
     1
 44
0.7828267384257843
  0
INSERT
  5
1A8
330
A
100
AcDbEntity
  8
template
390
1D
100
AcDbBlockReference
  2
グループ
 10
1861.74547572882
 20
3467.13121417228
 30
0.0
  0
MTEXT
  5
1A9
330
A
100
AcDbEntity
  8
template
390
1D
100
AcDbMText
 10
1830.28500597623
 20
232.4152602386025
 30
0.0
 40
24.4326171875
 41
0.0
 46
0.0
 71
     1
 72
     1
  1
1:10
  7
ＭＳ ゴシック
 73
     1
 44
0.7828267384257843
  0
MTEXT
  5
1AA
330
A
100
AcDbEntity
  8
template
390
1D
100
AcDbMText
 10
1777.28500597623
 20
260.9977211761027
 30
0.0
 40
16.28841145833333
 41
0.0
 46
0.0
 71
     1
 72
     1
  1
縮尺
  7
ＭＳ ゴシック
 73
     1
 44
0.7828267384257843
  0
LINE
  5
1AB
330
A
100
AcDbEntity
  8
template
  6
Continuous
390
1D
100
AcDbLine
 10
1770.28500597623
 20
184.4126430511026
 30
0.0
 11
1770.28500597623
 21
269.4126430511026
 31
0.0
  0
MTEXT
  5
1AC
330
A
100
AcDbEntity
  8
template
390
1D
100
AcDbMText
 10
1526.28500597623
 20
260.9977211761027
 30
0.0
 40
16.28841145833333
 41
0.0
 46
0.0
 71
     1
 72
     1
  1
容量
  7
ＭＳ ゴシック
 73
     1
 44
0.7828267384257843
  0
MTEXT
  5
1AD
330
A
100
AcDbEntity
  8
template
390
1D
100
AcDbMText
 10
1579.28500597623
 20
232.4152602386025
 30
0.0
 40
24.4326171875
 41
0.0
 46
0.0
 71
     1
 72
     1
  1
14L
  7
ＭＳ ゴシック
 73
     1
 44
0.7828267384257843
  0
LINE
  5
1AE
330
A
100
AcDbEntity
  8
template
  6
Continuous
390
1D
100
AcDbLine
 10
1519.28500597623
 20
184.4126430511026
 30
0.0
 11
1519.28500597623
 21
269.4126430511026
 31
0.0
  0
MTEXT
  5
1AF
330
A
100
AcDbEntity
  8
template
390
1D
100
AcDbMText
 10
1275.28500597623
 20
345.9977211761027
 30
0.0
 40
16.28841145833333
 41
0.0
 46
0.0
 71
     1
 72
     1
  1
品番
  7
ＭＳ ゴシック
 73
     1
 44
0.7828267384257843
  0
MTEXT
  5
1B0
330
A
100
AcDbEntity
  8
template
390
1D
100
AcDbMText
 10
1275.28500597623
 20
260.9977211761027
 30
0.0
 40
16.28841145833333
 41
0.0
 46
0.0
 71
     1
 72
     1
  1
重量
  7
ＭＳ ゴシック
 73
     1
 44
0.7828267384257843
  0
MTEXT
  5
1B1
330
A
100
AcDbEntity
  8
template
390
1D
100
AcDbMText
 10
1328.28500597623
 20
317.4152602386025
 30
0.0
 40
24.4326171875
 41
0.0
 46
0.0
 71
     1
 72
     1
  1
ADF70-0010
  7
ＭＳ ゴシック
 73
     1
 44
0.7828267384257843
  0
MTEXT
  5
1B2
330
A
100
AcDbEntity
  8
template
390
1D
100
AcDbMText
 10
1328.28500597623
 20
232.4152602386025
 30
0.0
 40
24.4326171875
 41
0.0
 46
0.0
 71
     1
 72
     1
  1
26kg
  7
ＭＳ ゴシック
 73
     1
 44
0.7828267384257843
  0
LINE
  5
1B3
330
A
100
AcDbEntity
  8
template
  6
Continuous
390
1D
100
AcDbLine
 10
1268.28500597623
 20
99.41264305110258
 30
0.0
 11
1268.28500597623
 21
354.4126430511026
 31
0.0
  0
MTEXT
  5
1B4
330
A
100
AcDbEntity
  8
template
390
1D
100
AcDbMText
 10
131.2850059759704
 20
232.4152602386025
 30
0.0
 40
24.4326171875
 41
0.0
 46
79.66300566589275
 71
     1
 72
     1
  1
{壁掛け,カウンタ ー置き,半埋め込み/オーバーフロー付き/壁取付ボルト付属/\P陶器}
  7
ＭＳ ゴシック
 73
     1
 44
1.304711230709641
1001
ACAD
1000
ACAD_MTEXT_DEFINED_HEIGHT_BEGIN
1070
    46
1040
79.66300566589275
1000
ACAD_MTEXT_DEFINED_HEIGHT_END
  0
LINE
  5
1B5
330
A
100
AcDbEntity
  8
template
  6
STYLE_13
390
1D
100
AcDbLine
 10
1645.339148467939
 20
1084.08712396678
 30
0.0
 11
1645.339148467939
 21
1038.08712396678
 31
0.0
  0
MTEXT
  5
1B6
330
A
100
AcDbEntity
  8
notes
390
1D
100
AcDbMText
 10
1046.154723445067
 20
684.793233497908
 30
0.0
 40
24.4326171875
 41
840.5849911149594
 46
0.0
 71
     1
 72
     1
  1
＝φ30もしくはφ35の水栓取付用穴あけ加工を承ります。\P  必要な場合、ご注文の際にご指示ください。
  7
ＭＳ ゴシック
 11
0.0
 21
1.0
 31
0.0
 73
     1
 44
1.043768984567712
  0
MTEXT
  5
1B7
330
A
100
AcDbEntity
  8
notes
390
1D
100
AcDbMText
 10
1377.966928479879
 20
1269.616597640418
 30
0.0
 40
24.4326171875
 41
0.0
 46
0.0
 71
     1
 72
     1
  1
壁取付ボルト穴(2ヶ所)
  7
ＭＳ ゴシック
 11
0.0
 21
1.0
 31
0.0
 73
     1
 44
0.7828267384257843
  0
MTEXT
  5
1B8
330
A
100
AcDbEntity
  8
notes
390
1D
100
AcDbMText
 10
147.7455689519542
 20
2112.009101246253
 30
0.0
 40
24.4326171875
 41
0.0
 46
0.0
 71
     1
 72
     1
  1
カウンター切込寸法
  7
ＭＳ ゴシック
 11
0.0
 21
1.0
 31
0.0
 73
     1
 44
0.7828267384257843
  0
MTEXT
  5
1B9
330
A
100
AcDbEntity
  8
notes
390
1D
100
AcDbMText
 10
225.2584186479243
 20
1905.322072719659
 30
0.0
 40
24.4326171875
 41
0.0
 46
0.0
 71
     1
 72
     1
  1
半埋め込み
  7
ＭＳ ゴシック
 11
0.0
 21
1.0
 31
0.0
 73
     1
 44
0.7828267384257843
  0
MTEXT
  5
1BA
330
A
100
AcDbEntity
  8
notes
390
1D
100
AcDbMText
 10
290.2584186479243
 20
2011.444907667295
 30
0.0
 40
24.4326171875
 41
0.0
 46
0.0
 71
     1
 72
     1
  1
カウンター置き
  7
ＭＳ ゴシック
 11
0.0
 21
1.0
 31
0.0
 73
     1
 44
0.7828267384257843
  0
LINE
  5
1BB
330
A
100
AcDbEntity
  8
notes
  6
Continuous
390
1D
100
AcDbLine
 10
1500.339148467939
 20
1199.76009656489
 30
0.0
 11
1413.279163585693
 21
1286.820081447136
 31
0.0
  0
MTEXT
  5
1BC
330
A
100
AcDbEntity
  8
notes
390
1D
100
AcDbMText
 10
1849.115379455364
 20
597.5117159648282
 30
0.0
 40
24.4326171875
 41
0.0
 46
0.0
 71
     1
 72
     1
  1
半埋め込み
  7
ＭＳ ゴシック
 11
0.0
 21
1.0
 31
0.0
 73
     1
 44
0.7828267384257843
  0
MTEXT
  5
1BD
330
A
100
AcDbEntity
  8
notes
390
1D
100
AcDbMText
 10
1800.74208942208
 20
646.470239294463
 30
0.0
 40
24.4326171875
 41
0.0
 46
0.0
 71
     1
 72
     1
  1
カウンター置き
  7
ＭＳ ゴシック
 11
0.0
 21
1.0
 31
0.0
 73
     1
 44
0.7828267384257843
  0
LINE
  5
1BE
330
A
100
AcDbEntity
  8
notes
  6
Continuous
390
1D
100
AcDbLine
 10
1650.339148467938
 20
752.9337343171667
 30
0.0
 11
1650.339148467937
 21
638.3363359722246
 31
0.0
  0
LINE
  5
1BF
330
A
100
AcDbEntity
  8
notes
  6
Continuous
390
1D
100
AcDbLine
 10
1555.339148467938
 20
665.0363359722244
 30
0.0
 11
1555.339148467938
 21
588.3363359722246
 31
0.0
  0
LINE
  5
1C0
330
A
100
AcDbEntity
  8
notes
  6
Continuous
390
1D
100
AcDbLine
 10
1555.339148467938
 20
613.3363359722246
 30
0.0
 11
1835.906688497259
 21
613.3363359722246
 31
0.0
  0
LINE
  5
1C1
330
A
100
AcDbEntity
  8
notes
  6
Continuous
390
1D
100
AcDbLine
 10
1650.339148467937
 20
663.3363359722246
 30
0.0
 11
1787.906688497259
 21
663.3363359722246
 31
0.0
  0
DIMENSION
  5
1C2
330
A
100
AcDbEntity
  8
notes
  6
Continuous
390
1D
100
AcDbDimension
  2
*D3
 10
1750.197503062132
 20
1347.304934579584
 30
0.0
 11
1732.981194468382
 21
1059.804934579584
 31
0.0
 70
    32
 71
     5
 42
575.0
 73
     0
 74
     0
 75
     0
  3
tform線あり
100
AcDbAlignedDimension
 13
1650.198475814601
 23
772.3049345795837
 33
0.0
 14
1650.198475814601
 24
1347.304934579584
 34
0.0
 50
90.0
100
AcDbRotatedDimension
1001
ACAD
1000
DSTYLE
1002
{
1070
   279
1070
     2
1070
   340
1005
3C
1070
   147
1040
5.0
1002
}
  0
MTEXT
  5
1C3
330
A
100
AcDbEntity
  8
notes
390
1D
100
AcDbMText
 10
1191.180832138
 20
1872.498243515747
 30
0.0
 40
24.4326171875
 41
0.0
 46
0.0
 71
     1
 72
     1
  1
※カウンター置きの場合も壁固定が必要です。
  7
ＭＳ ゴシック
 11
0.0
 21
1.0
 31
0.0
 73
     1
 44
0.7828267384257843
  0
MTEXT
  5
1C4
330
A
100
AcDbEntity
  8
notes
390
1D
100
AcDbMText
 10
1028.154723445067
 20
1872.498243515747
 30
0.0
 40
24.4326171875
 41
764.7717154610109
 46
0.0
 71
     1
 72
     1
  1
※陶器製品には寸法公差があります。\P  洗面器の収め方をご確認の上、必ず現物を合わせて\P  カウンターに切込を行ってください。
  7
ＭＳ ゴシック
 11
0.0
 21
1.0
 31
0.0
 73
     1
 44
1.043768984567712
  0
DIMENSION
  5
1C5
330
A
100
AcDbEntity
  8
notes
  6
Continuous
390
1D
100
AcDbDimension
  2
*D4
 10
361.1297332158566
 20
1534.760096564891
 30
0.0
 11
611.1297332158588
 21
1551.976405158641
 31
0.0
 70
    32
 71
     5
 42
500.0000000000044
 73
     0
 74
     0
 75
     0
  3
tform線あり
100
AcDbAlignedDimension
 13
861.129733215861
 23
1434.760096564891
 33
0.0
 14
361.1297332158566
 24
1434.760096564891
 34
0.0
100
AcDbRotatedDimension
1001
ACAD
1000
DSTYLE
1002
{
1070
   279
1070
     2
1070
   340
1005
3C
1070
   147
1040
5.0
1002
}
  0
DIMENSION
  5
1C6
330
A
100
AcDbEntity
  8
notes
  6
Continuous
390
1D
100
AcDbDimension
  2
*D27
 10
211.1297332158566
 20
684.7600965648919
 30
0.0
 11
190.1817392984096
 21
1059.760096564891
 31
0.0
 70
   160
 71
     5
 42
749.9999999999986
 73
     0
 74
     0
 75
     0
  3
tform線あり
100
AcDbAlignedDimension
 13
361.1297332158566
 23
1434.760096564891
 33
0.0
 14
361.1297332158566
 24
684.7600965648919
 34
0.0
 50
90.0
100
AcDbRotatedDimension
1001
ACAD
1000
DSTYLE
1002
{
1070
   279
1070
     2
1070
   340
1005
3C
1070
   147
1040
5.0
1002
}
  0
DIMENSION
  5
1C7
330
A
100
AcDbEntity
  8
notes
  6
Continuous
390
1D
100
AcDbDimension
  2
*D6
 10
261.1297332158566
 20
859.7600965648915
 30
0.0
 11
243.9134246221066
 21
909.7600965648908
 31
0.0
 70
    32
 71
     5
 42
99.99999999999864
 73
     0
 74
     0
 75
     0
  3
tform線あり
100
AcDbAlignedDimension
 13
413.6297332158566
 23
959.7600965648901
 33
0.0
 14
413.6297332158566
 24
859.7600965648915
 34
0.0
 50
90.0
100
AcDbRotatedDimension
1001
ACAD
1000
DSTYLE
1002
{
1070
   279
1070
     2
1070
   340
1005
3C
1070
   147
1040
5.0
1002
}
  0
DIMENSION
  5
1C8
330
A
100
AcDbEntity
  8
notes
  6
Continuous
390
1D
100
AcDbDimension
  2
*D7
 10
261.1297332158566
 20
959.7600965648901
 30
0.0
 11
243.9134246221066
 21
1009.76009656489
 31
0.0
 70
    32
 71
     5
 42
99.99999999999955
 73
     0
 74
     0
 75
     0
  3
tform線あり
100
AcDbAlignedDimension
 13
413.6297332158566
 23
1059.76009656489
 33
0.0
 14
413.6297332158566
 24
959.7600965648901
 34
0.0
 50
90.0
100
AcDbRotatedDimension
1001
ACAD
1000
DSTYLE
1002
{
1070
   279
1070
     2
1070
   340
1005
3C
1070
   147
1040
5.0
1002
}
  0
DIMENSION
  5
1C9
330
A
100
AcDbEntity
  8
notes
  6
Continuous
390
1D
100
AcDbDimension
  2
*D8
 10
261.1297332158566
 20
1059.76009656489
 30
0.0
 11
243.9134246221066
 21
1109.76009656489
 31
0.0
 70
    32
 71
     5
 42
100.0
 73
     0
 74
     0
 75
     0
  3
tform線あり
100
AcDbAlignedDimension
 13
413.6297332158566
 23
1159.76009656489
 33
0.0
 14
413.6297332158566
 24
1059.76009656489
 34
0.0
 50
90.0
100
AcDbRotatedDimension
1001
ACAD
1000
DSTYLE
1002
{
1070
   279
1070
     2
1070
   340
1005
3C
1070
   147
1040
5.0
1002
}
  0
DIMENSION
  5
1CA
330
A
100
AcDbEntity
  8
notes
  6
Continuous
390
1D
100
AcDbDimension
  2
*D9
 10
261.1297332158566
 20
1159.76009656489
 30
0.0
 11
243.9134246221066
 21
1209.76009656489
 31
0.0
 70
    32
 71
     5
 42
100.0
 73
     0
 74
     0
 75
     0
  3
tform線あり
100
AcDbAlignedDimension
 13
413.6297332158566
 23
1259.76009656489
 33
0.0
 14
413.6297332158566
 24
1159.76009656489
 34
0.0
 50
90.0
100
AcDbRotatedDimension
1001
ACAD
1000
DSTYLE
1002
{
1070
   279
1070
     2
1070
   340
1005
3C
1070
   147
1040
5.0
1002
}
  0
DIMENSION
  5
1CB
330
A
100
AcDbEntity
  8
notes
  6
Continuous
390
1D
100
AcDbDimension
  2
*D10
 10
361.1297332158566
 20
584.7600965648919
 30
0.0
 11
426.1297332158596
 21
601.9764051586419
 31
0.0
 70
    32
 71
     5
 42
130.0000000000059
 73
     0
 74
     0
 75
     0
  3
tform線あり
100
AcDbAlignedDimension
 13
491.1297332158625
 23
684.7600965648919
 33
0.0
 14
361.1297332158566
 24
684.7600965648919
 34
0.0
100
AcDbRotatedDimension
1001
ACAD
1000
DSTYLE
1002
{
1070
   279
1070
     2
1070
   340
1005
3C
1070
   147
1040
5.0
1002
}
  0
DIMENSION
  5
1CC
330
A
100
AcDbEntity
  8
notes
  6
Continuous
390
1D
100
AcDbDimension
  2
*D11
 10
961.1297332158625
 20
709.7600965648919
 30
0.0
 11
943.9134246221125
 21
1059.760096564891
 31
0.0
 70
    32
 71
     5
 42
699.9999999999977
 73
     0
 74
     0
 75
     0
  3
tform線あり
100
AcDbAlignedDimension
 13
861.129733215861
 23
1409.76009656489
 33
0.0
 14
861.129733215861
 24
709.7600965648919
 34
0.0
 50
90.0
100
AcDbRotatedDimension
1001
ACAD
1000
DSTYLE
1002
{
1070
   279
1070
     2
1070
   340
1005
3C
1070
   147
1040
5.0
1002
}
  0
DIMENSION
  5
1CD
330
A
100
AcDbEntity
  8
notes
  6
Continuous
390
1D
100
AcDbDimension
  2
*D12
 10
491.1297332158625
 20
584.7600965648919
 30
0.0
 11
663.6297332158625
 21
601.9764051586419
 31
0.0
 70
    32
 71
     5
 42
345.0
 73
     0
 74
     0
 75
     0
  3
tform線あり
100
AcDbAlignedDimension
 13
836.1297332158625
 23
684.7600965648919
 33
0.0
 14
491.1297332158625
 24
684.7600965648919
 34
0.0
100
AcDbRotatedDimension
1001
ACAD
1000
DSTYLE
1002
{
1070
   279
1070
     2
1070
   340
1005
3C
1070
   147
1040
5.0
1002
}
  0
DIMENSION
  5
1CE
330
A
100
AcDbEntity
  8
notes
  6
Continuous
390
1D
100
AcDbDimension
  2
*D13
 10
1360.306688497259
 20
919.7600965648905
 30
0.0
 11
1343.090379903509
 21
1059.76009656489
 31
0.0
 70
    32
 71
     5
 42
279.9999999999991
 73
     0
 74
     0
 75
     0
  3
tform線あり
100
AcDbAlignedDimension
 13
1480.306688497259
 23
1199.76009656489
 33
0.0
 14
1480.306688497259
 24
919.7600965648905
 34
0.0
 50
90.0
100
AcDbRotatedDimension
1001
ACAD
1000
DSTYLE
1002
{
1070
   279
1070
     2
1070
   340
1005
3C
1070
   147
1040
5.0
1002
}
  0
DIMENSION
  5
1CF
330
A
100
AcDbEntity
  8
notes
  6
Continuous
390
1D
100
AcDbDimension
  2
*D14
 10
1460.339148467939
 20
1534.760096564891
 30
0.0
 11
1555.339148467939
 21
1551.976405158641
 31
0.0
 70
    32
 71
     5
 42
189.9999999999989
 73
     0
 74
     0
 75
     0
  3
tform線あり
100
AcDbAlignedDimension
 13
1650.339148467938
 23
1349.76009656489
 33
0.0
 14
1460.339148467939
 24
1434.760096564891
 34
0.0
100
AcDbRotatedDimension
1001
ACAD
1000
DSTYLE
1002
{
1070
   279
1070
     2
1070
   340
1005
3C
1070
   147
1040
5.0
1002
}
  0
DIMENSION
  5
1D0
330
A
100
AcDbEntity
  8
notes
  6
Continuous
390
1D
100
AcDbDimension
  2
*D15
 10
911.1297332158625
 20
1923.570623169672
 30
0.0
 11
893.9134246221125
 21
2248.570623169673
 31
0.0
 70
    32
 71
     5
 42
650.000000000002
 73
     0
 74
     0
 75
     0
  3
tform線あり
100
AcDbAlignedDimension
 13
811.1297332158625
 23
2573.570623169674
 33
0.0
 14
811.1297332158625
 24
1923.570623169672
 34
0.0
 50
90.0
100
AcDbRotatedDimension
1001
ACAD
1000
DSTYLE
1002
{
1070
   279
1070
     2
1070
   340
1005
3C
1070
   147
1040
5.0
1002
}
  0
DIMENSION
  5
1D1
330
A
100
AcDbEntity
  8
notes
  6
Continuous
390
1D
100
AcDbDimension
  2
*D16
 10
811.1297332158625
 20
2673.570623169674
 30
0.0
 11
586.1297332158596
 21
2690.786931763424
 31
0.0
 70
    32
 71
     5
 42
450.0000000000059
 73
     0
 74
     0
 75
     0
  3
tform線あり
100
AcDbAlignedDimension
 13
361.1297332158566
 23
2573.570623169674
 33
0.0
 14
811.1297332158625
 24
2573.570623169674
 34
0.0
100
AcDbRotatedDimension
1001
ACAD
1000
DSTYLE
1002
{
1070
   279
1070
     2
1070
   340
1005
3C
1070
   147
1040
5.0
1002
}
  0
DIMENSION
  5
1D2
330
A
100
AcDbEntity
  8
notes
  6
Continuous
390
1D
100
AcDbDimension
  2
*D17
 10
711.1297332158566
 20
2473.604934579585
 30
0.0
 11
693.9134246221066
 21
2248.604934579585
 31
0.0
 70
    32
 71
     5
 42
449.9999999999998
 73
     0
 74
     0
 75
     0
  3
tform線あり
100
AcDbAlignedDimension
 13
611.1297332158566
 23
2023.604934579586
 33
0.0
 14
611.1297332158566
 24
2473.604934579585
 34
0.0
 50
90.0
100
AcDbRotatedDimension
1001
ACAD
1000
DSTYLE
1002
{
1070
   279
1070
     2
1070
   340
1005
3C
1070
   147
1040
5.0
1002
}
  0
DIMENSION
  5
1D3
330
A
100
AcDbEntity
  8
notes
  6
Continuous
390
1D
100
AcDbDimension
  2
*D18
 10
611.1297332158566
 20
2523.604934579585
 30
0.0
 11
486.1297332158566
 21
2540.821243173335
 31
0.0
 70
    32
 71
     5
 42
250.0
 73
     0
 74
     0
 75
     0
  3
tform線あり
100
AcDbAlignedDimension
 13
361.1297332158566
 23
2473.604934579585
 33
0.0
 14
611.1297332158566
 24
2473.604934579585
 34
0.0
100
AcDbRotatedDimension
1001
ACAD
1000
DSTYLE
1002
{
1070
   279
1070
     2
1070
   340
1005
3C
1070
   147
1040
5.0
1002
}
  0
DIMENSION
  5
1D4
330
A
100
AcDbEntity
  8
notes
  6
Continuous
390
1D
100
AcDbDimension
  2
*D28
 10
1460.337650292416
 20
584.7600965648919
 30
0.0
 11
1480.338399380178
 21
565.137543169423
 31
0.0
 70
   160
 71
     5
 42
40.00149817552278
 73
     0
 74
     0
 75
     0
  3
tform線あり
100
AcDbAlignedDimension
 13
1500.339148467939
 23
833.7453613665359
 33
0.0
 14
1460.337650292416
 24
689.7628681639387
 34
0.0
100
AcDbRotatedDimension
1001
ACAD
1000
DSTYLE
1002
{
1070
   279
1070
     2
1070
   340
1005
3C
1070
   147
1040
5.0
1002
}
  0
CIRCLE
  5
1D5
330
A
100
AcDbEntity
  8
ADF70-0010
  6
STYLE_13
390
1D
100
AcDbCircle
 10
1057.625122913119
 20
657.8782246128674
 30
0.0
 40
17.49999999999955
  0
LINE
  5
1D6
330
A
100
AcDbEntity
  8
notes
  6
Continuous
390
1D
100
AcDbLine
 10
361.1297332158566
 20
1923.570623169672
 30
0.0
 11
259.944153792634
 21
1923.570623169672
 31
0.0
  0
LINE
  5
1D7
330
A
100
AcDbEntity
  8
notes
  6
Continuous
390
1D
100
AcDbLine
 10
381.1297332158566
 20
2023.604934579586
 30
0.0
 11
320.3787448800364
 21
2023.604934579586
 31
0.0
  0
DIMENSION
  5
1D8
330
A
100
AcDbEntity
  8
notes
  6
Continuous
390
1D
100
AcDbDimension
  2
*D29
 10
1645.423430793226
 20
2294.875356248297
 30
0.0
 11
1685.851219574766
 21
2299.875356248297
 31
0.0
 70
   160
 71
     5
 42
5.000000001444278
 73
     0
 74
     0
 75
     0
  3
tform線あり
100
AcDbAlignedDimension
 13
1650.42343079467
 23
2346.500356248297
 33
0.0
 14
1645.423430793226
 24
2345.936830309411
 34
0.0
100
AcDbRotatedDimension
1001
ACAD
1000
DSTYLE
1002
{
1070
   279
1070
     2
1070
   340
1005
3C
1070
   174
1070
     0
1070
   147
1040
5.0
1002
}
  0
DIMENSION
  5
1D9
330
A
100
AcDbEntity
  8
notes
  6
Continuous
390
1D
100
AcDbDimension
  2
*D21
 10
1460.507713121402
 20
1951.751393657451
 30
0.0
 11
1508.007713121402
 21
1968.967702251201
 31
0.0
 70
    32
 71
     5
 42
95.0
 73
     0
 74
     0
 75
     0
  3
tfrom線あり
100
AcDbAlignedDimension
 13
1555.507713121402
 23
2054.251393657451
 33
0.0
 14
1460.507713121402
 24
2054.251393657451
 34
0.0
100
AcDbRotatedDimension
1001
ACAD
1000
DSTYLE
1002
{
1070
   279
1070
     2
1070
   340
1005
3C
1070
   147
1040
5.0
1002
}
  0
DIMENSION
  5
1DA
330
A
100
AcDbEntity
  8
notes
  6
Continuous
390
1D
100
AcDbDimension
  2
*D22
 10
1555.507713121402
 20
1951.751393657451
 30
0.0
 11
1603.007713121402
 21
1968.967702251201
 31
0.0
 70
    32
 71
     5
 42
94.99999999999977
 73
     0
 74
     0
 75
     0
  3
tfrom線あり
100
AcDbAlignedDimension
 13
1650.507713121402
 23
2141.598287361482
 33
0.0
 14
1555.507713121402
 24
2054.251393657451
 34
0.0
100
AcDbRotatedDimension
1001
ACAD
1000
DSTYLE
1002
{
1070
   279
1070
     2
1070
   340
1005
3C
1070
   147
1040
5.0
1002
}
  0
DIMENSION
  5
1DB
330
A
100
AcDbEntity
  8
notes
  6
Continuous
390
1D
100
AcDbDimension
  2
*D23
 10
1360.507713121402
 20
2551.751393657451
 30
0.0
 11
1343.291404527652
 21
2519.271849234368
 31
0.0
 70
    32
 71
     5
 42
64.95908884616529
 73
     0
 74
     0
 75
     0
  3
tfrom線あり
100
AcDbAlignedDimension
 13
1460.558715532364
 23
2486.792304811285
 33
0.0
 14
1463.507713121402
 24
2551.751393657451
 34
0.0
 50
90.0
100
AcDbRotatedDimension
1001
ACAD
1000
DSTYLE
1002
{
1070
   279
1070
     2
1070
   340
1005
3C
1070
   147
1040
5.0
1002
}
  0
DIMENSION
  5
1DC
330
A
100
AcDbEntity
  8
notes
  6
Continuous
390
1D
100
AcDbDimension
  2
*D24
 10
1750.507713118453
 20
2551.751393657451
 30
0.0
 11
1733.291404524703
 21
2451.751393657451
 31
0.0
 70
    32
 71
     5
 42
200.0
 73
     0
 74
     0
 75
     0
  3
tfrom線あり
100
AcDbAlignedDimension
 13
1650.42343079467
 23
2351.751393657451
 33
0.0
 14
1646.507713121402
 24
2551.751393657451
 34
0.0
 50
90.0
100
AcDbRotatedDimension
1001
ACAD
1000
DSTYLE
1002
{
1070
   279
1070
     2
1070
   340
1005
3C
1070
   147
1040
5.0
1002
}
  0
DIMENSION
  5
1DD
330
A
100
AcDbEntity
  8
notes
  6
Continuous
390
1D
100
AcDbDimension
  2
*D30
 10
1460.576008140537
 20
2334.275214313451
 30
0.0
 11
1378.606591038429
 21
2339.275214313451
 31
0.0
 70
   160
 71
     5
 42
139.9999999999998
 73
     0
 74
     0
 75
     0
  3
tfrom線あり
100
AcDbAlignedDimension
 13
1600.576008140536
 23
2340.147115130943
 33
0.0
 14
1460.576008140537
 24
2340.184688745546
 34
0.0
100
AcDbRotatedDimension
1001
ACAD
1000
DSTYLE
1002
{
1070
   279
1070
     2
1070
   340
1005
3C
1070
     3
1000
<>(深さ)
1070
   174
1070
     0
1070
   147
1040
5.0
1002
}
  0
DIMENSION
  5
1DE
330
A
100
AcDbEntity
  8
notes
  6
Continuous
390
1D
100
AcDbDimension
  2
*D26
 10
1800.507713118453
 20
2551.751393657451
 30
0.0
 11
1783.291404524703
 21
2344.251393657451
 31
0.0
 70
    32
 71
     5
 42
415.0
 73
     0
 74
     0
 75
     0
  3
tfrom線あり
100
AcDbAlignedDimension
 13
1646.507713121401
 23
2136.751393657451
 33
0.0
 14
1646.507713121401
 24
2551.751393657451
 34
0.0
 50
90.0
100
AcDbRotatedDimension
1001
ACAD
1000
DSTYLE
1002
{
1070
   279
1070
     2
1070
   340
1005
3C
1070
   147
1040
5.0
1002
}
  0
LINE
  5
1DF
330
A
100
AcDbEntity
  8
ADF70-0010
  6
Continuous
390
1D
100
AcDbLine
 10
836.1297332158625
 20
714.7600965648919
 30
0.0
 11
836.1297332158625
 21
1404.76009656489
 31
0.0
  0
LINE
  5
1E0
330
A
100
AcDbEntity
  8
ADF70-0010
  6
Continuous
390
1D
100
AcDbLine
 10
496.1297332158625
 20
709.7600965648919
 30
0.0
 11
831.1297332158625
 21
709.7600965648919
 31
0.0
  0
LINE
  5
1E1
330
A
100
AcDbEntity
  8
ADF70-0010
  6
Continuous
390
1D
100
AcDbLine
 10
831.1297332158625
 20
1409.76009656489
 30
0.0
 11
496.1297332158625
 21
1409.76009656489
 31
0.0
  0
LINE
  5
1E2
330
A
100
AcDbEntity
  8
ADF70-0010
  6
Continuous
390
1D
100
AcDbLine
 10
749.2595923424229
 20
791.6302374383315
 30
0.0
 11
512.1593337301416
 21
791.630237438332
 31
0.0
  0
LINE
  5
1E3
330
A
100
AcDbEntity
  8
ADF70-0010
  6
Continuous
390
1D
100
AcDbLine
 10
834.6652671217954
 20
711.224562658959
 30
0.0
 11
754.2595923424229
 21
791.6302374383315
 31
0.0
  0
LINE
  5
1E4
330
A
100
AcDbEntity
  8
ADF70-0010
  6
Continuous
390
1D
100
AcDbLine
 10
834.6452705027683
 20
1408.315514625312
 30
0.0
 11
754.2595923424229
 21
1330.089434679456
 31
0.0
  0
SPLINE
  5
1E5
330
A
100
AcDbEntity
  8
ADF70-0010
  6
Continuous
390
1D
100
AcDbSpline
210
0.0
220
0.0
230
1.0
 70
     8
 71
     2
 72
    30
 73
    27
 74
     0
 42
0.000000001
 43
0.000001
 40
0.0
 40
0.0
 40
0.0
 40
1.0
 40
1.0
 40
2.0
 40
3.0
 40
4.0
 40
5.0
 40
6.0
 40
7.0
 40
8.0
 40
9.0
 40
10.0
 40
11.0
 40
12.0
 40
13.0
 40
14.0
 40
15.0
 40
16.0
 40
17.0
 40
18.0
 40
19.0
 40
20.0
 40
21.0
 40
22.0
 40
22.0
 40
23.0
 40
23.0
 40
23.0
 10
497.9672577815442
 20
1073.728886567025
 30
0.0
 10
497.8914964354084
 20
1073.728886567025
 30
0.0
 10
497.8157350892726
 20
1073.728886567025
 30
0.0
 10
497.0109869466174
 20
1073.410485507201
 30
0.0
 10
496.0989141210003
 20
1071.120447534262
 30
0.0
 10
495.5932929997695
 20
1069.013550767223
 30
0.0
 10
495.2258760255346
 20
1066.507497698751
 30
0.0
 10
494.9162435637455
 20
1062.512336159626
 30
0.0
 10
495.0147313705926
 20
1058.633099436918
 30
0.0
 10
495.2258705788541
 20
1055.950332549752
 30
0.0
 10
495.5932784785761
 20
1053.444271826612
 30
0.0
 10
496.0989324383169
 20
1051.337364524668
 30
0.0
 10
497.0222025466165
 20
1049.052742003217
 30
0.0
 10
497.9672427018151
 20
1048.662948869815
 30
0.0
 10
498.92282996919
 20
1049.046849665295
 30
0.0
 10
499.8355593840753
 20
1051.337286675159
 30
0.0
 10
500.3412184005698
 20
1053.444172907239
 30
0.0
 10
500.7086323150608
 20
1055.950218320979
 30
0.0
 10
501.0182707303981
 20
1059.945373409095
 30
0.0
 10
500.9197871595476
 20
1063.824612183679
 30
0.0
 10
500.7086522065898
 20
1066.507383469678
 30
0.0
 10
500.3412412471408
 20
1069.013451847677
 30
0.0
 10
499.8356251826914
 20
1071.120369683
 30
0.0
 10
498.9163704858548
 20
1073.405742865276
 30
0.0
 10
498.1188104750082
 20
1073.728880252703
 30
0.0
 10
498.0430491288763
 20
1073.728883409552
 30
0.0
 10
497.9672877827444
 20
1073.728886566401
 30
0.0
  0
LINE
  5
1E6
330
A
100
AcDbEntity
  8
ADF70-0010
  6
Continuous
390
1D
100
AcDbLine
 10
491.1297332158625
 20
1404.76009656489
 30
0.0
 11
491.1297332158625
 21
714.7600965648919
 31
0.0
  0
CIRCLE
  5
1E7
330
A
100
AcDbEntity
  8
ADF70-0010
  6
Continuous
390
1D
100
AcDbCircle
 10
561.1297332158625
 20
1061.228886567025
 30
0.0
 40
37.5
  0
LINE
  5
1E8
330
A
100
AcDbEntity
  8
ADF70-0010
  6
Continuous
390
1D
100
AcDbLine
 10
491.6671650256359
 20
712.5049945389126
 30
0.0
 11
507.1593337301416
 21
791.630237438332
 31
0.0
  0
LINE
  5
1E9
330
A
100
AcDbEntity
  8
ADF70-0010
  6
Continuous
390
1D
100
AcDbLine
 10
491.6777944575489
 20
1407.036110908479
 30
0.0
 11
507.1593337301416
 21
1330.089434679456
 31
0.0
  0
LINE
  5
1EA
330
A
100
AcDbEntity
  8
ADF70-0010
  6
Continuous
390
1D
100
AcDbLine
 10
754.2595923424229
 20
796.6302374383315
 30
0.0
 11
754.2595923424229
 21
1325.089434679456
 31
0.0
  0
LINE
  5
1EB
330
A
100
AcDbEntity
  8
ADF70-0010
  6
Continuous
390
1D
100
AcDbLine
 10
512.1593337301416
 20
1330.089434679456
 30
0.0
 11
749.2595923424229
 21
1330.089434679456
 31
0.0
  0
LINE
  5
1EC
330
A
100
AcDbEntity
  8
ADF70-0010
  6
Continuous
390
1D
100
AcDbLine
 10
507.1593337301416
 20
796.630237438332
 30
0.0
 11
507.1593337301416
 21
1325.089434679456
 31
0.0
  0
ARC
  5
1ED
330
A
100
AcDbEntity
  8
ADF70-0010
  6
Continuous
390
1D
100
AcDbCircle
 10
749.2595923424229
 20
796.6302374383315
 30
0.0
 40
5.0
100
AcDbArc
 50
270.0
 51
0.0
  0
ARC
  5
1EE
330
A
100
AcDbEntity
  8
ADF70-0010
  6
Continuous
390
1D
100
AcDbCircle
 10
512.1593337301416
 20
796.6302374383315
 30
0.0
 40
5.0
100
AcDbArc
 50
180.0
 51
270.0
  0
ARC
  5
1EF
330
A
100
AcDbEntity
  8
ADF70-0010
  6
Continuous
390
1D
100
AcDbCircle
 10
512.1593337301416
 20
1325.089434679456
 30
0.0
 40
5.0
100
AcDbArc
 50
90.0
 51
180.0
  0
ARC
  5
1F0
330
A
100
AcDbEntity
  8
ADF70-0010
  6
Continuous
390
1D
100
AcDbCircle
 10
749.2595923424232
 20
1325.089434679456
 30
0.0
 40
5.0
100
AcDbArc
 50
0.0
 51
90.0
  0
ARC
  5
1F1
330
A
100
AcDbEntity
  8
ADF70-0010
  6
Continuous
390
1D
100
AcDbCircle
 10
831.1297332158628
 20
1404.76009656489
 30
0.0
 40
5.0
100
AcDbArc
 50
0.0
 51
90.0
  0
ARC
  5
1F2
330
A
100
AcDbEntity
  8
ADF70-0010
  6
Continuous
390
1D
100
AcDbCircle
 10
496.1297332158625
 20
1404.76009656489
 30
0.0
 40
5.0
100
AcDbArc
 50
90.0
 51
180.0
  0
ARC
  5
1F3
330
A
100
AcDbEntity
  8
ADF70-0010
  6
Continuous
390
1D
100
AcDbCircle
 10
496.1297332158625
 20
714.7600965648919
 30
0.0
 40
5.0
100
AcDbArc
 50
180.0
 51
270.0
  0
ARC
  5
1F4
330
A
100
AcDbEntity
  8
ADF70-0010
  6
Continuous
390
1D
100
AcDbCircle
 10
831.1297332158625
 20
714.7600965648919
 30
0.0
 40
5.0
100
AcDbArc
 50
270.0
 51
0.0
  0
LWPOLYLINE
  5
1F5
330
A
100
AcDbEntity
  8
ADF70-0010
  6
Continuous
390
1D
100
AcDbPolyline
 90
        5
 70
   129
 43
0.0
 10
584.1297332158625
 20
1061.228886567025
 42
-0.414213562373095
 10
561.1297332158625
 20
1038.228886567026
 42
-0.414213562373098
 10
538.1297332158625
 20
1061.228886567025
 42
-0.414213562373095
 10
561.1297332158625
 20
1084.228886567026
 42
-0.4142135623730922
 10
584.1297332158625
 20
1061.228886567025
  0
LWPOLYLINE
  5
1F6
330
A
100
AcDbEntity
  8
ADF70-0010
  6
Continuous
390
1D
100
AcDbPolyline
 90
        6
 70
   129
 43
0.0
 10
861.129733215861
 20
1429.76009656489
 42
0.4142135623730684
 10
856.129733215861
 20
1434.760096564891
 10
361.1297332158566
 20
1434.760096564891
 10
361.1297332158566
 20
684.7600965648919
 10
856.129733215861
 20
684.7600965648919
 42
0.414213562373095
 10
861.129733215861
 20
689.7600965648919
  0
POLYLINE
  5
1F7
330
A
100
AcDbEntity
  8
ADF70-0010
  6
Continuous
390
1D
100
AcDb2dPolyline
 66
     1
 10
0.0
 20
0.0
 30
0.0
 70
     1
 75
     5
  0
VERTEX
  5
1F8
330
1F7
100
AcDbEntity
  8
ADF70-0010
  6
Continuous
390
1D
100
AcDbVertex
100
AcDb2dVertex
 10
1460.339148467939
 20
1434.760096564891
 30
0.0
  0
VERTEX
  5
1F9
330
1F7
100
AcDbEntity
  8
ADF70-0010
  6
Continuous
390
1D
100
AcDbVertex
100
AcDb2dVertex
 10
1555.339148467938
 20
1434.760096564891
 30
0.0
  0
VERTEX
  5
1FA
330
1F7
100
AcDbEntity
  8
ADF70-0010
  6
Continuous
390
1D
100
AcDbVertex
100
AcDb2dVertex
 10
1555.339148467938
 20
684.7600965648919
 30
0.0
  0
VERTEX
  5
1FB
330
1F7
100
AcDbEntity
  8
ADF70-0010
  6
Continuous
390
1D
100
AcDbVertex
100
AcDb2dVertex
 10
1460.339148467939
 20
684.7600965648919
 30
0.0
  0
SEQEND
  5
1FC
330
1F7
100
AcDbEntity
  8
ADF70-0010
  6
Continuous
390
1D
  0
LINE
  5
1FD
330
A
100
AcDbEntity
  8
ADF70-0010
  6
Continuous
390
1D
100
AcDbLine
 10
1650.339148467938
 20
1346.771480098949
 30
0.0
 11
1650.339148467938
 21
772.9337343194395
 31
0.0
  0
ARC
  5
1FE
330
A
100
AcDbEntity
  8
ADF70-0010
  6
STYLE_13
390
1D
100
AcDbCircle
 10
1605.573896745085
 20
1102.236246974064
 30
0.0
 40
6.183002389518744
100
AcDbArc
 50
176.6778890853003
 51
223.0571451055186
  0
LINE
  5
1FF
330
A
100
AcDbEntity
  8
ADF70-0010
  6
STYLE_13
390
1D
100
AcDbLine
 10
1601.056143017134
 20
1098.014941512198
 30
0.0
 11
1612.742969595659
 21
1084.08712396678
 31
0.0
  0
LINE
  5
200
330
A
100
AcDbEntity
  8
ADF70-0010
  6
STYLE_13
390
1D
100
AcDbLine
 10
1612.742969595659
 20
1084.08712396678
 30
0.0
 11
1645.339148467939
 21
1084.08712396678
 31
0.0
  0
ARC
  5
201
330
A
100
AcDbEntity
  8
ADF70-0010
  6
STYLE_13
390
1D
100
AcDbCircle
 10
1605.573896745085
 20
1019.938000959496
 30
0.0
 40
6.183002389518796
100
AcDbArc
 50
136.9428548944814
 51
183.3221109146997
  0
LINE
  5
202
330
A
100
AcDbEntity
  8
ADF70-0010
  6
STYLE_13
390
1D
100
AcDbLine
 10
1601.056143017134
 20
1024.159306421361
 30
0.0
 11
1612.742969595659
 21
1038.08712396678
 31
0.0
  0
LINE
  5
203
330
A
100
AcDbEntity
  8
ADF70-0010
  6
STYLE_13
390
1D
100
AcDbLine
 10
1612.742969595659
 20
1038.08712396678
 30
0.0
 11
1645.339148467939
 21
1038.08712396678
 31
0.0
  0
ARC
  5
204
330
A
100
AcDbEntity
  8
ADF70-0010
  6
STYLE_13
390
1D
100
AcDbCircle
 10
1466.388800886035
 20
710.9213319395756
 30
0.0
 40
5.999999989350538
100
AcDbArc
 50
124.999999905435
 51
179.9999999470604
  0
LINE
  5
205
330
A
100
AcDbEntity
  8
ADF70-0010
  6
STYLE_13
390
1D
100
AcDbLine
 10
1575.677185814349
 20
797.719862869362
 30
0.0
 11
1555.337650292415
 21
780.5286342178022
 31
0.0
  0
LINE
  5
206
330
A
100
AcDbEntity
  8
ADF70-0010
  6
STYLE_13
390
1D
100
AcDbLine
 10
1555.337650292415
 20
780.5286342240686
 30
0.0
 11
1462.947342282149
 21
715.836244202266
 31
0.0
  0
ARC
  5
207
330
A
100
AcDbEntity
  8
ADF70-0010
  6
STYLE_13
390
1D
100
AcDbCircle
 10
1555.602010508856
 20
826.3901844842528
 30
0.0
 40
35.00000007210783
100
AcDbArc
 50
304.9999999837066
 51
355.4978105314972
  0
LINE
  5
208
330
A
100
AcDbEntity
  8
ADF70-0010
  6
STYLE_13
390
1D
100
AcDbLine
 10
1599.401284718936
 20
1019.579700354654
 30
0.0
 11
1590.494012299223
 21
823.6427827828991
 31
0.0
  0
ARC
  5
209
330
A
100
AcDbEntity
  8
ADF70-0010
  6
Continuous
390
1D
100
AcDbCircle
 10
1647.339148470333
 20
772.9337343194395
 30
0.0
 40
2.999999997605376
100
AcDbArc
 50
272.9999999727067
 51
359.9999999565922
  0
LINE
  5
20A
330
A
100
AcDbEntity
  8
ADF70-0010
  6
Continuous
390
1D
100
AcDbLine
 10
1574.257330393892
 20
766.1169679973934
 30
0.0
 11
1647.496156337509
 21
769.9378457174923
 31
0.0
  0
ARC
  5
20B
330
A
100
AcDbEntity
  8
ADF70-0010
  6
Continuous
390
1D
100
AcDbCircle
 10
1575.304049517899
 20
746.1443773164267
 30
0.0
 40
19.99999998585005
100
AcDbArc
 50
92.99999999968142
 51
180.0000000005289
  0
LINE
  5
20C
330
A
100
AcDbEntity
  8
ADF70-0010
  6
STYLE_13
390
1D
100
AcDbLine
 10
1520.306688497258
 20
1199.76009656489
 30
0.0
 11
1480.306688497259
 21
1199.76009656489
 31
0.0
  0
LINE
  5
20D
330
A
100
AcDbEntity
  8
ADF70-0010
  6
STYLE_13
390
1D
100
AcDbLine
 10
1520.306688497258
 20
919.7600965648905
 30
0.0
 11
1480.306688497259
 21
919.7600965648905
 31
0.0
  0
LWPOLYLINE
  5
20E
330
A
100
AcDbEntity
  8
ADF70-0010
  6
STYLE_13
390
1D
100
AcDbPolyline
 90
        5
 70
   129
 43
0.0
 10
584.1297332158625
 20
2250.039413171811
 42
-0.4142135623730922
 10
561.1297332158625
 20
2227.039413171811
 42
-0.414213562373095
 10
538.1297332158625
 20
2250.039413171811
 42
-0.414213562373098
 10
561.1297332158625
 20
2273.039413171811
 42
-0.414213562373095
 10
584.1297332158625
 20
2250.039413171811
  0
LWPOLYLINE
  5
20F
330
A
100
AcDbEntity
  8
ADF70-0010
  6
STYLE_13
390
1D
100
AcDbPolyline
 90
        6
 70
   129
 43
0.0
 10
861.129733215861
 20
2618.57062316967
 42
0.414213562373095
 10
856.129733215861
 20
2623.57062316967
 10
361.1297332158566
 20
2623.57062316967
 10
361.1297332158566
 20
1873.570623169672
 10
856.129733215861
 20
1873.570623169672
 42
0.4142135623731084
 10
861.129733215861
 20
1878.570623169672
  0
CIRCLE
  5
210
330
A
100
AcDbEntity
  8
ADF70-0010
  6
STYLE_13
390
1D
100
AcDbCircle
 10
426.1297332158568
 20
2248.570623169675
 30
0.0
 40
17.5
  0
CIRCLE
  5
211
330
A
100
AcDbEntity
  8
ADF70-0010
  6
STYLE_13
390
1D
100
AcDbCircle
 10
426.1297332158568
 20
2348.570623169675
 30
0.0
 40
17.5
  0
CIRCLE
  5
212
330
A
100
AcDbEntity
  8
ADF70-0010
  6
STYLE_13
390
1D
100
AcDbCircle
 10
426.1297332158566
 20
2148.570623169674
 30
0.0
 40
17.50000000000023
  0
CIRCLE
  5
213
330
A
100
AcDbEntity
  8
ADF70-0010
  6
STYLE_13
390
1D
100
AcDbCircle
 10
426.1297332158566
 20
2048.570623169672
 30
0.0
 40
17.50000000000068
  0
CIRCLE
  5
214
330
A
100
AcDbEntity
  8
ADF70-0010
  6
STYLE_13
390
1D
100
AcDbCircle
 10
426.1297332158568
 20
2448.570623169675
 30
0.0
 40
17.5
  0
LINE
  5
215
330
A
100
AcDbEntity
  8
ADF70-0010
  6
Continuous
390
1D
100
AcDbLine
 10
361.1297332158566
 20
1923.570623169672
 30
0.0
 11
811.1297332158625
 21
1923.570623169672
 31
0.0
  0
LINE
  5
216
330
A
100
AcDbEntity
  8
ADF70-0010
  6
Continuous
390
1D
100
AcDbLine
 10
811.1297332158625
 20
1923.570623169672
 30
0.0
 11
811.1297332158625
 21
2573.570623169674
 31
0.0
  0
LINE
  5
217
330
A
100
AcDbEntity
  8
ADF70-0010
  6
Continuous
390
1D
100
AcDbLine
 10
811.1297332158625
 20
2573.570623169674
 30
0.0
 11
361.1297332158566
 21
2573.570623169674
 31
0.0
  0
LINE
  5
218
330
A
100
AcDbEntity
  8
ADF70-0010
  6
Continuous
390
1D
100
AcDbLine
 10
361.1297332158566
 20
1923.570623169672
 30
0.0
 11
361.1297332158566
 21
2573.570623169674
 31
0.0
  0
ARC
  5
219
330
A
100
AcDbEntity
  8
ADF70-0010
  6
Continuous
390
1D
100
AcDbCircle
 10
1647.339148470333
 20
1346.771480098949
 30
0.0
 40
2.999999997605073
100
AcDbArc
 50
0.0000000434078032
 51
87.00000002729311
  0
LINE
  5
21A
330
A
100
AcDbEntity
  8
ADF70-0010
  6
Continuous
390
1D
100
AcDbLine
 10
1574.297981369759
 20
1353.588246420995
 30
0.0
 11
1647.496156337509
 21
1349.767368700896
 31
0.0
  0
ARC
  5
21B
330
A
100
AcDbEntity
  8
ADF70-0010
  6
Continuous
390
1D
100
AcDbCircle
 10
1575.344700493767
 20
1373.560837101961
 30
0.0
 40
19.99999998584997
100
AcDbArc
 50
179.9999999994711
 51
267.0000000003186
  0
ARC
  5
21C
330
A
100
AcDbEntity
  8
ADF70-0010
  6
STYLE_13
390
1D
100
AcDbCircle
 10
1466.388800886035
 20
1408.765152858661
 30
0.0
 40
5.999999989350499
100
AcDbArc
 50
180.0000000529396
 51
235.000000094565
  0
LINE
  5
21D
330
A
100
AcDbEntity
  8
ADF70-0010
  6
STYLE_13
390
1D
100
AcDbLine
 10
1575.677185814349
 20
1321.966621928875
 30
0.0
 11
1555.337650292415
 21
1339.157850580435
 31
0.0
  0
LINE
  5
21E
330
A
100
AcDbEntity
  8
ADF70-0010
  6
STYLE_13
390
1D
100
AcDbLine
 10
1555.337650292415
 20
1339.157850574168
 30
0.0
 11
1462.947342282149
 21
1403.850240595971
 31
0.0
  0
ARC
  5
21F
330
A
100
AcDbEntity
  8
ADF70-0010
  6
STYLE_13
390
1D
100
AcDbCircle
 10
1555.602010508856
 20
1293.296300313984
 30
0.0
 40
35.00000007210777
100
AcDbArc
 50
4.502189468503549
 51
55.00000001629391
  0
LINE
  5
220
330
A
100
AcDbEntity
  8
ADF70-0010
  6
STYLE_13
390
1D
100
AcDbLine
 10
1599.401284718936
 20
1102.594547578906
 30
0.0
 11
1590.494012299223
 21
1296.043702015338
 31
0.0
  0
LINE
  5
221
330
A
100
AcDbEntity
  8
ADF70-0010
  6
STYLE_13
390
1D
100
AcDbLine
 10
1612.742969595659
 20
1038.08712396678
 30
0.0
 11
1612.742969595659
 21
1084.08712396678
 31
0.0
  0
LINE
  5
222
330
A
100
AcDbEntity
  8
ADF70-0010
  6
STYLE_13
390
1D
100
AcDbLine
 10
1600.576008140536
 20
1022.706020504374
 30
0.0
 11
1600.576008140536
 21
1099.468227429186
 31
0.0
  0
LINE
  5
223
330
A
100
AcDbEntity
  8
ADF70-0010
  6
Continuous
390
1D
100
AcDbLine
 10
361.1297332158566
 20
1848.604934579586
 30
0.0
 11
361.1297332158566
 21
2648.604934579585
 31
0.0
  0
LINE
  5
224
330
A
100
AcDbEntity
  8
ADF70-0010
  6
Continuous
390
1D
100
AcDbLine
 10
361.1297332158566
 20
2583.349106262142
 30
0.0
 11
324.1297332158566
 21
2620.349106262142
 31
0.0
  0
LINE
  5
225
330
A
100
AcDbEntity
  8
ADF70-0010
  6
Continuous
390
1D
100
AcDbLine
 10
361.1297332158566
 20
2603.349106262142
 30
0.0
 11
324.1297332158566
 21
2640.349106262142
 31
0.0
  0
LINE
  5
226
330
A
100
AcDbEntity
  8
ADF70-0010
  6
Continuous
390
1D
100
AcDbLine
 10
361.1297332158566
 20
2623.349106262142
 30
0.0
 11
324.1297332158566
 21
2660.349106262142
 31
0.0
  0
CIRCLE
  5
227
330
A
100
AcDbEntity
  8
ADF70-0010
  6
STYLE_13
390
1D
100
AcDbCircle
 10
426.144153792634
 20
1059.76009656489
 30
0.0
 40
17.5
  0
CIRCLE
  5
228
330
A
100
AcDbEntity
  8
ADF70-0010
  6
STYLE_13
390
1D
100
AcDbCircle
 10
426.144153792634
 20
1159.76009656489
 30
0.0
 40
17.5
  0
CIRCLE
  5
229
330
A
100
AcDbEntity
  8
ADF70-0010
  6
STYLE_13
390
1D
100
AcDbCircle
 10
426.1441537926338
 20
959.7600965648901
 30
0.0
 40
17.49999999999955
  0
CIRCLE
  5
22A
330
A
100
AcDbEntity
  8
ADF70-0010
  6
STYLE_13
390
1D
100
AcDbCircle
 10
426.1441537926338
 20
859.7600965648915
 30
0.0
 40
17.49999999999955
  0
CIRCLE
  5
22B
330
A
100
AcDbEntity
  8
ADF70-0010
  6
STYLE_13
390
1D
100
AcDbCircle
 10
426.144153792634
 20
1259.76009656489
 30
0.0
 40
17.5
  0
POLYLINE
  5
22C
330
A
100
AcDbEntity
  8
ADF70-0010
  6
Continuous
390
1D
100
AcDb2dPolyline
 66
     1
 10
0.0
 20
0.0
 30
0.0
 70
     1
 75
     5
  0
VERTEX
  5
22D
330
22C
100
AcDbEntity
  8
ADF70-0010
  6
Continuous
390
1D
100
AcDbVertex
100
AcDb2dVertex
 10
361.1297332158566
 20
2473.604934579585
 30
0.0
  0
VERTEX
  5
22E
330
22C
100
AcDbEntity
  8
ADF70-0010
  6
Continuous
390
1D
100
AcDbVertex
100
AcDb2dVertex
 10
611.1297332158566
 20
2473.604934579585
 30
0.0
  0
VERTEX
  5
22F
330
22C
100
AcDbEntity
  8
ADF70-0010
  6
Continuous
390
1D
100
AcDbVertex
100
AcDb2dVertex
 10
611.1297332158566
 20
2023.604934579586
 30
0.0
  0
VERTEX
  5
230
330
22C
100
AcDbEntity
  8
ADF70-0010
  6
Continuous
390
1D
100
AcDbVertex
100
AcDb2dVertex
 10
361.1297332158566
 20
2023.604934579586
 30
0.0
  0
SEQEND
  5
231
330
22C
100
AcDbEntity
  8
ADF70-0010
  6
Continuous
390
1D
  0
LINE
  5
232
330
A
100
AcDbEntity
  8
ADF70-0010
  6
STYLE_13
390
1D
100
AcDbLine
 10
1500.306688497259
 20
939.7600965648905
 30
0.0
 11
1500.306688497259
 21
899.760096564891
 31
0.0
  0
CIRCLE
  5
233
330
A
100
AcDbEntity
  8
ADF70-0010
  6
STYLE_13
390
1D
100
AcDbCircle
 10
1500.339148467939
 20
919.7600965648905
 30
0.0
 40
10.0
  0
LINE
  5
234
330
A
100
AcDbEntity
  8
ADF70-0010
  6
STYLE_13
390
1D
100
AcDbLine
 10
1500.306688497259
 20
1219.760096564891
 30
0.0
 11
1500.306688497259
 21
1179.760096564891
 31
0.0
  0
CIRCLE
  5
235
330
A
100
AcDbEntity
  8
ADF70-0010
  6
STYLE_13
390
1D
100
AcDbCircle
 10
1500.339148467939
 20
1199.760096564891
 30
0.0
 40
10.0
  0
ARC
  5
236
330
A
100
AcDbEntity
  8
ADF70-0010
  6
Continuous
390
1D
100
AcDbCircle
 10
1646.56581617246
 20
2547.891666831333
 30
0.0
 40
3.86016413340139
100
AcDbArc
 50
357.9174899209637
 51
90.86244657130808
  0
LINE
  5
237
330
A
100
AcDbEntity
  8
ADF70-0010
  6
STYLE_13
390
1D
100
AcDbLine
 10
1600.576008140536
 20
2314.251393657451
 30
0.0
 11
1600.576008140536
 21
2389.251393657451
 31
0.0
  0
LINE
  5
238
330
A
100
AcDbEntity
  8
ADF70-0010
  6
STYLE_13
390
1D
100
AcDbLine
 10
1612.730528084383
 20
2374.766200872025
 30
0.0
 11
1612.755411106935
 21
2328.766240881791
 31
0.0
  0
POLYLINE
  5
239
330
A
100
AcDbEntity
  8
ADF70-0010
  6
STYLE_13
390
1D
100
AcDb2dPolyline
 66
     1
 10
0.0
 20
0.0
 30
0.0
 70
     1
 75
     5
  0
VERTEX
  5
23A
330
239
100
AcDbEntity
  8
ADF70-0010
  6
STYLE_13
390
1D
100
AcDbVertex
100
AcDb2dVertex
 10
1645.423430793226
 20
2328.766240881791
 30
0.0
  0
VERTEX
  5
23B
330
239
100
AcDbEntity
  8
ADF70-0010
  6
STYLE_13
390
1D
100
AcDbVertex
100
AcDb2dVertex
 10
1612.755411106935
 20
2328.766240881791
 30
0.0
  0
VERTEX
  5
23C
330
239
100
AcDbEntity
  8
ADF70-0010
  6
STYLE_13
390
1D
100
AcDbVertex
100
AcDb2dVertex
 10
1612.755411106935
 20
2328.766240881791
 30
0.0
  0
VERTEX
  5
23D
330
239
100
AcDbEntity
  8
ADF70-0010
  6
STYLE_13
390
1D
100
AcDbVertex
100
AcDb2dVertex
 10
1612.755411106935
 20
2328.766240881791
 30
0.0
  0
VERTEX
  5
23E
330
239
100
AcDbEntity
  8
ADF70-0010
  6
STYLE_13
390
1D
100
AcDbVertex
100
AcDb2dVertex
 10
1645.423430793226
 20
2328.766240881791
 30
0.0
  0
SEQEND
  5
23F
330
239
100
AcDbEntity
  8
ADF70-0010
  6
STYLE_13
390
1D
  0
LINE
  5
240
330
A
100
AcDbEntity
  8
ADF70-0010
  6
STYLE_13
390
1D
100
AcDbLine
 10
1612.730528084383
 20
2374.766200872026
 30
0.0
 11
1645.423430793226
 21
2374.766200872026
 31
0.0
  0
LINE
  5
241
330
A
100
AcDbEntity
  8
ADF70-0010
  6
STYLE_13
390
1D
100
AcDbLine
 10
1600.66901256572
 20
2389.140555313995
 30
0.0
 11
1612.730528084383
 21
2374.766200872026
 31
0.0
  0
ARC
  5
242
330
A
100
AcDbEntity
  8
ADF70-0010
  6
STYLE_13
390
1D
100
AcDbCircle
 10
1604.499234768952
 20
2392.354493363309
 30
0.0
 40
4.999999991095971
100
AcDbArc
 50
184.5836597356965
 51
220.0000000988059
  0
LINE
  5
243
330
A
100
AcDbEntity
  8
ADF70-0010
  6
STYLE_13
390
1D
100
AcDbLine
 10
1599.123200498702
 20
2396.844786125482
 30
0.0
 11
1599.515226228005
 21
2391.954920122548
 31
0.0
  0
ARC
  5
244
330
A
100
AcDbEntity
  8
ADF70-0010
  6
STYLE_13
390
1D
100
AcDbCircle
 10
1579.187166290573
 20
2395.246493223952
 30
0.0
 40
20.00000000366885
100
AcDbArc
 50
4.583659549870391
 51
86.50986487526576
  0
LINE
  5
245
330
A
100
AcDbEntity
  8
ADF70-0010
  6
STYLE_13
390
1D
100
AcDbLine
 10
1466.19369738562
 20
2421.453403850721
 30
0.0
 11
1580.404699995145
 21
2415.209399120264
 31
0.0
  0
LINE
  5
246
330
A
100
AcDbEntity
  8
ADF70-0010
  6
Continuous
390
1D
100
AcDbLine
 10
1650.42343079467
 20
2547.751393657451
 30
0.0
 11
1650.42343079467
 21
2141.598287361482
 31
0.0
  0
ARC
  5
247
330
A
100
AcDbEntity
  8
ADF70-0010
  6
Continuous
390
1D
100
AcDbCircle
 10
1647.507713123796
 20
2141.598287363755
 30
0.0
 40
2.999999997605137
100
AcDbArc
 50
272.9999999727028
 51
359.9999999565922
  0
LINE
  5
248
330
A
100
AcDbEntity
  8
ADF70-0010
  6
Continuous
390
1D
100
AcDbLine
 10
1574.7580313379
 20
2134.781521041709
 30
0.0
 11
1647.664720990972
 21
2138.602398761808
 31
0.0
  0
ARC
  5
249
330
A
100
AcDbEntity
  8
ADF70-0010
  6
Continuous
390
1D
100
AcDbCircle
 10
1575.804750461908
 20
2114.808930360742
 30
0.0
 40
19.99999998585097
100
AcDbArc
 50
92.99999999968264
 51
180.0000000005263
  0
LINE
  5
24A
330
A
100
AcDbEntity
  8
ADF70-0010
  6
Continuous
390
1D
100
AcDbLine
 10
1555.804750476057
 20
2056.751393657451
 30
0.0
 11
1555.804750476057
 21
2551.751393657451
 31
0.0
  0
ARC
  5
24B
330
A
100
AcDbEntity
  8
ADF70-0010
  6
Continuous
390
1D
100
AcDbCircle
 10
1550.804750476057
 20
2056.751393657451
 30
0.0
 40
5.0
100
AcDbArc
 50
270.0
 51
0.0
  0
LINE
  5
24C
330
A
100
AcDbEntity
  8
ADF70-0010
  6
Continuous
390
1D
100
AcDbLine
 10
1465.42343079467
 20
2051.751393657451
 30
0.0
 11
1550.804750476057
 21
2051.751393657451
 31
0.0
  0
LWPOLYLINE
  5
24D
330
A
100
AcDbEntity
  8
ADF70-0010
  6
STYLE_13
390
1D
100
AcDbPolyline
 90
        8
 70
   128
 43
0.0
 10
1612.6871160878
 20
2328.766240881791
 10
1600.507713121402
 20
2314.251393657451
 10
1600.600717546695
 20
2314.362232015001
 42
0.1557749061972012
 10
1599.44693120667
 20
2311.547867213162
 10
1589.82500797384
 20
2189.349442206505
 42
-0.2239746283263843
 10
1575.008181488966
 20
2163.426522292968
 10
1463.066254506866
 20
2081.542903619606
 42
0.2446984434215804
 10
1460.507713121402
 20
2076.627991362459
 42
0.2446984434215804
  0
LINE
  5
24E
330
A
100
AcDbEntity
  8
ADF70-0010
  6
Continuous
390
1D
100
AcDbLine
 10
1460.609717943326
 20
2470.273887141749
 30
0.0
 11
1475.609717943326
 21
2470.273887141749
 31
0.0
  0
ARC
  5
24F
330
A
100
AcDbEntity
  8
ADF70-0010
  6
STYLE_13
390
1D
100
AcDbCircle
 10
1466.507713124657
 20
2427.445181062425
 30
0.0
 40
6.000000003255082
100
AcDbArc
 50
179.99999997051
 51
266.9999999865255
  0
LINE
  5
250
330
A
100
AcDbEntity
  8
ADF70-0010
  6
Continuous
390
1D
100
AcDbLine
 10
1460.507713121402
 20
2505.274200872026
 30
0.0
 11
1475.507713121402
 21
2505.274200872026
 31
0.0
  0
LINE
  5
251
330
A
100
AcDbEntity
  8
ADF70-0010
  6
Continuous
390
1D
100
AcDbLine
 10
1646.507713121402
 20
2551.751393657451
 30
0.0
 11
1463.42343079467
 21
2551.751393657451
 31
0.0
  0
LINE
  5
252
330
A
100
AcDbEntity
  8
ADF70-0010
  6
Continuous
390
1D
100
AcDbLine
 10
1460.42343079467
 20
2548.751393657451
 30
0.0
 11
1460.42343079467
 21
2056.751393657451
 31
0.0
  0
ARC
  5
253
330
A
100
AcDbEntity
  8
ADF70-0010
  6
Continuous
390
1D
100
AcDbCircle
 10
1463.42343079467
 20
2548.751393657451
 30
0.0
 40
3.0
100
AcDbArc
 50
90.0
 51
180.0
  0
ARC
  5
254
330
A
100
AcDbEntity
  8
ADF70-0010
  6
Continuous
390
1D
100
AcDbCircle
 10
1465.42343079467
 20
2056.751393657451
 30
0.0
 40
5.0
100
AcDbArc
 50
180.0
 51
270.0
  0
LINE
  5
255
330
A
100
AcDbEntity
  8
ADF70-0010
  6
STYLE_13
390
1D
100
AcDbLine
 10
1645.423430793226
 20
2328.766240881791
 30
0.0
 11
1645.423430793226
 21
2374.766200872026
 31
0.0
  0
ENDSEC
  0
SECTION
  2
OBJECTS
  0
DICTIONARY
  5
19
330
0
100
AcDbDictionary
281
     1
  3
ACAD_DETAILVIEWSTYLE
350
2A3
  3
ACAD_GROUP
350
1A
  3
ACAD_IMAGE_VARS
350
299
  3
ACAD_LAYOUT
350
1E
  3
ACAD_MATERIAL
350
291
  3
ACAD_MLEADERSTYLE
350
2A1
  3
ACAD_MLINESTYLE
350
1B
  3
ACAD_PLOTSETTINGS
350
22
  3
ACAD_PLOTSTYLENAME
350
1F
  3
ACAD_SCALELIST
350
256
  3
ACAD_SECTIONVIEWSTYLE
350
2A4
  3
ACAD_TABLESTYLE
350
295
  3
ACAD_VISUALSTYLE
350
278
  3
ACDB_RECOMPOSE_DATA
350
33B
  3
AcDbVariableDictionary
350
29A
  3
APPDATA
350
297
  0
SUN
  5
298
330
15
100
AcDbSun
 90
        1
290
     0
 63
     7
421
 16777215
 40
1.0
291
     1
 91
  2455826
 92
 54000000
292
     0
 70
     2
 71
   256
280
     1
  0
DICTIONARY
  5
2A5
330
2
100
AcDbDictionary
280
     1
281
     1
  3
ACAD_LAYERSTATES
360
2A6
  3
ACLYDICTIONARY
360
312
  0
DICTIONARY
  5
2A3
102
{ACAD_REACTORS
330
19
102
}
330
19
100
AcDbDictionary
281
     1
  0
DICTIONARY
  5
1A
102
{ACAD_REACTORS
330
19
102
}
330
19
100
AcDbDictionary
281
     1
  0
RASTERVARIABLES
  5
299
102
{ACAD_REACTORS
330
19
102
}
330
19
100
AcDbRasterVariables
 90
        0
 70
     1
 71
     1
 72
     1
  0
DICTIONARY
  5
1E
102
{ACAD_REACTORS
330
19
102
}
330
19
100
AcDbDictionary
281
     1
  3
Layout1
350
21
  3
Model
350
20
  0
DICTIONARY
  5
291
102
{ACAD_REACTORS
330
19
102
}
330
19
100
AcDbDictionary
281
     1
  3
ByBlock
350
293
  3
ByLayer
350
292
  3
Global
350
294
  0
DICTIONARY
  5
2A1
102
{ACAD_REACTORS
330
19
102
}
330
19
100
AcDbDictionary
281
     1
  0
DICTIONARY
  5
1B
102
{ACAD_REACTORS
330
19
102
}
330
19
100
AcDbDictionary
281
     1
  3
Standard
350
1C
  0
DICTIONARY
  5
22
102
{ACAD_REACTORS
330
19
102
}
330
19
100
AcDbDictionary
281
     1
  0
ACDBDICTIONARYWDFLT
  5
1F
102
{ACAD_REACTORS
330
19
102
}
330
19
100
AcDbDictionary
281
     1
  3
Normal
350
1D
100
AcDbDictionaryWithDefault
340
1D
  0
DICTIONARY
  5
256
102
{ACAD_REACTORS
330
19
102
}
330
19
100
AcDbDictionary
281
     1
  3
A0
350
257
  3
A1
350
258
  3
A2
350
259
  3
A3
350
25A
  3
A4
350
25B
  3
A5
350
25C
  3
A6
350
25D
  3
A7
350
25E
  3
A8
350
25F
  3
A9
350
260
  3
B0
350
261
  3
B1
350
262
  3
B2
350
263
  3
B3
350
264
  3
B4
350
265
  3
B5
350
266
  3
B6
350
267
  3
B7
350
268
  3
B8
350
269
  3
B9
350
26A
  3
C0
350
26B
  3
C1
350
26C
  3
C2
350
26D
  3
C3
350
26E
  3
C4
350
26F
  3
C5
350
270
  3
C6
350
271
  3
C7
350
272
  3
C8
350
273
  3
C9
350
274
  3
D0
350
275
  3
D1
350
276
  3
D2
350
277
  0
DICTIONARY
  5
2A4
102
{ACAD_REACTORS
330
19
102
}
330
19
100
AcDbDictionary
281
     1
  0
DICTIONARY
  5
295
102
{ACAD_REACTORS
330
19
102
}
330
19
100
AcDbDictionary
281
     1
  3
Standard
350
296
  0
DICTIONARY
  5
278
102
{ACAD_REACTORS
330
19
102
}
330
19
100
AcDbDictionary
281
     1
  3
2dWireframe
350
27D
  3
Basic
350
280
  3
Brighten
350
284
  3
ColorChange
350
288
  3
Conceptual
350
282
  3
Dim
350
283
  3
EdgeColorOff
350
28B
  3
Facepattern
350
287
  3
Flat
350
279
  3
FlatWithEdges
350
27A
  3
Gouraud
350
27B
  3
GouraudWithEdges
350
27C
  3
Hidden
350
27F
  3
JitterOff
350
289
  3
Linepattern
350
286
  3
OverhangOff
350
28A
  3
Realistic
350
281
  3
Shaded
350
290
  3
Shaded with edges
350
28F
  3
Shades of Gray
350
28C
  3
Sketchy
350
28D
  3
Thicken
350
285
  3
Wireframe
350
27E
  3
X-Ray
350
28E
  0
XRECORD
  5
33B
102
{ACAD_REACTORS
330
19
102
}
330
19
100
AcDbXrecord
280
     1
 90
        1
330
296
  0
DICTIONARY
  5
29A
102
{ACAD_REACTORS
330
19
102
}
330
19
100
AcDbDictionary
281
     1
  3
CANNOSCALE
350
29B
  3
CTABLESTYLE
350
2A0
  3
LIGHTINGUNITS
350
29C
  3
MSLTSCALE
350
2A2
  3
XCLIPFRAME
350
316
  0
DICTIONARY
  5
297
102
{ACAD_REACTORS
330
19
102
}
330
19
100
AcDbDictionary
281
     1
  0
DICTIONARY
  5
2A6
102
{ACAD_REACTORS
330
2A5
102
}
330
2A5
100
AcDbDictionary
281
     1
  3
ARGON_LAYERP_1
350
2A7
  3
ARGON_LAYERP_2
350
2AA
  3
ARGON_LAYERP_3
350
311
  0
DICTIONARY
  5
312
102
{ACAD_REACTORS
330
2A5
102
}
330
2A5
100
AcDbDictionary
281
     1
1001
ACAD
1000
<All
  0
LAYOUT
  5
21
102
{ACAD_REACTORS
330
1E
102
}
330
1E
100
AcDbPlotSettings
  1

  2

  4

  6

 40
0.0
 41
0.0
 42
0.0
 43
0.0
 44
0.0
 45
0.0
 46
0.0
 47
0.0
 48
0.0
 49
0.0
140
0.0
141
0.0
142
1.0
143
1.0
 70
     0
 72
     0
 73
     0
 74
     0
  7

 75
     0
 76
     0
 77
     2
 78
   300
147
1.0
148
0.0
149
0.0
100
AcDbLayout
  1
Layout1
 70
     0
 71
     0
 10
0.0
 20
0.0
 11
0.0
 21
0.0
 12
0.0
 22
0.0
 32
0.0
 14
0.0
 24
0.0
 34
0.0
 15
0.0
 25
0.0
 35
0.0
146
0.0
 13
0.0
 23
0.0
 33
0.0
 16
0.0
 26
0.0
 36
0.0
 17
0.0
 27
0.0
 37
0.0
 76
     0
330
B
  0
LAYOUT
  5
20
102
{ACAD_REACTORS
330
1E
102
}
330
1E
100
AcDbPlotSettings
  1

  2

  4

  6

 40
0.0
 41
0.0
 42
0.0
 43
0.0
 44
0.0
 45
0.0
 46
0.0
 47
0.0
 48
0.0
 49
0.0
140
0.0
141
0.0
142
1.0
143
1.0
 70
  1024
 72
     0
 73
     0
 74
     0
  7

 75
     0
 76
     0
 77
     2
 78
   300
147
1.0
148
0.0
149
0.0
100
AcDbLayout
  1
Model
 70
     0
 71
     1
 10
0.0
 20
0.0
 11
2100.0
 21
2970.0
 12
0.0
 22
0.0
 32
0.0
 14
71.28500597548839
 24
66.05811786924455
 34
0.0
 15
2021.285005975971
 25
2899.412643051102
 35
0.0
146
0.0
 13
0.0
 23
0.0
 33
0.0
 16
0.0
 26
0.0
 36
0.0
 17
0.0
 27
0.0
 37
0.0
 76
     0
330
A
331
15
  0
MATERIAL
  5
293
102
{ACAD_REACTORS
330
291
102
}
330
291
100
AcDbMaterial
  1
ByBlock
 72
     1
 94
      127
  0
MATERIAL
  5
292
102
{ACAD_REACTORS
330
291
102
}
330
291
100
AcDbMaterial
  1
ByLayer
 72
     1
 94
      127
  0
MATERIAL
  5
294
102
{ACAD_REACTORS
330
291
102
}
330
291
100
AcDbMaterial
  1
Global
 72
     1
 94
      127
  0
MLINESTYLE
  5
1C
102
{ACAD_REACTORS
330
1B
102
}
330
1B
100
AcDbMlineStyle
  2
Standard
 70
     0
  3

 62
     0
 51
90.0
 52
90.0
 71
     2
 49
0.5
 62
   256
  6
BYLAYER
 49
-0.5
 62
   256
  6
BYLAYER
  0
ACDBPLACEHOLDER
  5
1D
102
{ACAD_REACTORS
330
1F
102
}
330
1F
  0
SCALE
  5
257
102
{ACAD_REACTORS
330
256
102
}
330
256
100
AcDbScale
 70
     0
300
1:1
140
1.0
141
1.0
290
     1
  0
SCALE
  5
258
102
{ACAD_REACTORS
330
256
102
}
330
256
100
AcDbScale
 70
     0
300
1:2
140
1.0
141
2.0
290
     0
  0
SCALE
  5
259
102
{ACAD_REACTORS
330
256
102
}
330
256
100
AcDbScale
 70
     0
300
1:4
140
1.0
141
4.0
290
     0
  0
SCALE
  5
25A
102
{ACAD_REACTORS
330
256
102
}
330
256
100
AcDbScale
 70
     0
300
1:5
140
1.0
141
5.0
290
     0
  0
SCALE
  5
25B
102
{ACAD_REACTORS
330
256
102
}
330
256
100
AcDbScale
 70
     0
300
1:8
140
1.0
141
8.0
290
     0
  0
SCALE
  5
25C
102
{ACAD_REACTORS
330
256
102
}
330
256
100
AcDbScale
 70
     0
300
1:10
140
1.0
141
10.0
290
     0
  0
SCALE
  5
25D
102
{ACAD_REACTORS
330
256
102
}
330
256
100
AcDbScale
 70
     0
300
1:16
140
1.0
141
16.0
290
     0
  0
SCALE
  5
25E
102
{ACAD_REACTORS
330
256
102
}
330
256
100
AcDbScale
 70
     0
300
1:20
140
1.0
141
20.0
290
     0
  0
SCALE
  5
25F
102
{ACAD_REACTORS
330
256
102
}
330
256
100
AcDbScale
 70
     0
300
1:30
140
1.0
141
30.0
290
     0
  0
SCALE
  5
260
102
{ACAD_REACTORS
330
256
102
}
330
256
100
AcDbScale
 70
     0
300
1:40
140
1.0
141
40.0
290
     0
  0
SCALE
  5
261
102
{ACAD_REACTORS
330
256
102
}
330
256
100
AcDbScale
 70
     0
300
1:50
140
1.0
141
50.0
290
     0
  0
SCALE
  5
262
102
{ACAD_REACTORS
330
256
102
}
330
256
100
AcDbScale
 70
     0
300
1:100
140
1.0
141
100.0
290
     0
  0
SCALE
  5
263
102
{ACAD_REACTORS
330
256
102
}
330
256
100
AcDbScale
 70
     0
300
2:1
140
2.0
141
1.0
290
     0
  0
SCALE
  5
264
102
{ACAD_REACTORS
330
256
102
}
330
256
100
AcDbScale
 70
     0
300
4:1
140
4.0
141
1.0
290
     0
  0
SCALE
  5
265
102
{ACAD_REACTORS
330
256
102
}
330
256
100
AcDbScale
 70
     0
300
8:1
140
8.0
141
1.0
290
     0
  0
SCALE
  5
266
102
{ACAD_REACTORS
330
256
102
}
330
256
100
AcDbScale
 70
     0
300
10:1
140
10.0
141
1.0
290
     0
  0
SCALE
  5
267
102
{ACAD_REACTORS
330
256
102
}
330
256
100
AcDbScale
 70
     0
300
100:1
140
100.0
141
1.0
290
     0
  0
SCALE
  5
268
102
{ACAD_REACTORS
330
256
102
}
330
256
100
AcDbScale
 70
     0
300
1/128" = 1'-0"
140
0.0078125
141
12.0
290
     0
  0
SCALE
  5
269
102
{ACAD_REACTORS
330
256
102
}
330
256
100
AcDbScale
 70
     0
300
1/64" = 1'-0"
140
0.015625
141
12.0
290
     0
  0
SCALE
  5
26A
102
{ACAD_REACTORS
330
256
102
}
330
256
100
AcDbScale
 70
     0
300
1/32" = 1'-0"
140
0.03125
141
12.0
290
     0
  0
SCALE
  5
26B
102
{ACAD_REACTORS
330
256
102
}
330
256
100
AcDbScale
 70
     0
300
1/16" = 1'-0"
140
0.0625
141
12.0
290
     0
  0
SCALE
  5
26C
102
{ACAD_REACTORS
330
256
102
}
330
256
100
AcDbScale
 70
     0
300
3/32" = 1'-0"
140
0.09375
141
12.0
290
     0
  0
SCALE
  5
26D
102
{ACAD_REACTORS
330
256
102
}
330
256
100
AcDbScale
 70
     0
300
1/8" = 1'-0"
140
0.125
141
12.0
290
     0
  0
SCALE
  5
26E
102
{ACAD_REACTORS
330
256
102
}
330
256
100
AcDbScale
 70
     0
300
3/16" = 1'-0"
140
0.1875
141
12.0
290
     0
  0
SCALE
  5
26F
102
{ACAD_REACTORS
330
256
102
}
330
256
100
AcDbScale
 70
     0
300
1/4" = 1'-0"
140
0.25
141
12.0
290
     0
  0
SCALE
  5
270
102
{ACAD_REACTORS
330
256
102
}
330
256
100
AcDbScale
 70
     0
300
3/8" = 1'-0"
140
0.375
141
12.0
290
     0
  0
SCALE
  5
271
102
{ACAD_REACTORS
330
256
102
}
330
256
100
AcDbScale
 70
     0
300
1/2" = 1'-0"
140
0.5
141
12.0
290
     0
  0
SCALE
  5
272
102
{ACAD_REACTORS
330
256
102
}
330
256
100
AcDbScale
 70
     0
300
3/4" = 1'-0"
140
0.75
141
12.0
290
     0
  0
SCALE
  5
273
102
{ACAD_REACTORS
330
256
102
}
330
256
100
AcDbScale
 70
     0
300
1" = 1'-0"
140
1.0
141
12.0
290
     0
  0
SCALE
  5
274
102
{ACAD_REACTORS
330
256
102
}
330
256
100
AcDbScale
 70
     0
300
1-1/2" = 1'-0"
140
1.5
141
12.0
290
     0
  0
SCALE
  5
275
102
{ACAD_REACTORS
330
256
102
}
330
256
100
AcDbScale
 70
     0
300
3" = 1'-0"
140
3.0
141
12.0
290
     0
  0
SCALE
  5
276
102
{ACAD_REACTORS
330
256
102
}
330
256
100
AcDbScale
 70
     0
300
6" = 1'-0"
140
6.0
141
12.0
290
     0
  0
SCALE
  5
277
102
{ACAD_REACTORS
330
256
102
}
330
256
100
AcDbScale
 70
     0
300
1'-0" = 1'-0"
140
12.0
141
12.0
290
     0
  0
TABLESTYLE
  5
296
102
{ACAD_REACTORS
330
295
102
}
102
{ACAD_XDICTIONARY
360
339
102
}
330
295
100
AcDbTableStyle
  3
Standard
 70
     0
 71
     0
 40
0.06
 41
0.06
280
     0
281
     0
  7
Standard
140
4.5
170
     2
 62
     0
 63
   257
283
     0
 90
        4
 91
        0
  1

274
    -2
284
     1
 64
     0
275
    -2
285
     1
 65
     0
276
    -2
286
     1
 66
     0
277
    -2
287
     1
 67
     0
278
    -2
288
     1
 68
     0
279
    -2
289
     1
 69
     0
  7
Standard
140
6.0
170
     5
 62
     0
 63
   257
283
     0
 90
        4
 91
        0
  1

274
    -2
284
     1
 64
     0
275
    -2
285
     1
 65
     0
276
    -2
286
     1
 66
     0
277
    -2
287
     1
 67
     0
278
    -2
288
     1
 68
     0
279
    -2
289
     1
 69
     0
  7
Standard
140
4.5
170
     5
 62
     0
 63
   257
283
     0
 90
        4
 91
        0
  1

274
    -2
284
     1
 64
     0
275
    -2
285
     1
 65
     0
276
    -2
286
     1
 66
     0
277
    -2
287
     1
 67
     0
278
    -2
288
     1
 68
     0
279
    -2
289
     1
 69
     0
  0
VISUALSTYLE
  5
27D
102
{ACAD_REACTORS
330
278
102
}
330
278
100
AcDbVisualStyle
  2
2dWireframe
 70
     4
 71
     0
 72
     2
 73
     0
 90
        0
 40
0.6
 41
30.0
 62
     5
 63
     7
421
 16777215
 74
     1
 91
        4
 64
     7
 65
   257
 75
     1
175
     1
 42
1.0
 92
        0
 66
   257
 43
1.0
 76
     1
 77
     6
 78
     2
 67
     7
 79
     5
170
     0
171
     0
290
     0
174
     0
 93
        1
 44
0.0
173
     0
291
     0
 45
0.0
  0
VISUALSTYLE
  5
280
102
{ACAD_REACTORS
330
278
102
}
330
278
100
AcDbVisualStyle
  2
Basic
 70
     7
 71
     1
 72
     0
 73
     1
 90
        0
 40
0.6
 41
30.0
 62
     5
 63
     7
421
 16777215
 74
     0
 91
        4
 64
     7
 65
   257
 75
     1
175
     1
 42
1.0
 92
        8
 66
     7
 43
1.0
 76
     1
 77
     6
 78
     2
 67
     7
 79
     5
170
     0
171
     0
290
     0
174
     0
 93
        1
 44
0.0
173
     0
291
     1
 45
0.0
  0
VISUALSTYLE
  5
284
102
{ACAD_REACTORS
330
278
102
}
330
278
100
AcDbVisualStyle
  2
Brighten
 70
    12
 71
     2
 72
     2
 73
     0
 90
        0
 40
0.6
 41
30.0
 62
     5
 63
     7
421
 16777215
 74
     1
 91
        4
 64
     7
 65
   257
 75
     1
175
     1
 42
1.0
 92
        8
 66
     7
 43
1.0
 76
     1
 77
     6
 78
     2
 67
     7
 79
     5
170
     0
171
     0
290
     0
174
     0
 93
        1
 44
50.0
173
     0
291
     1
 45
0.0
  0
VISUALSTYLE
  5
288
102
{ACAD_REACTORS
330
278
102
}
330
278
100
AcDbVisualStyle
  2
ColorChange
 70
    16
 71
     2
 72
     2
 73
     3
 90
        0
 40
0.6
 41
30.0
 62
     5
 63
     8
421
  8421504
 74
     1
 91
        4
 64
     7
 65
   257
 75
     1
175
     1
 42
1.0
 92
        8
 66
     8
424
  8421504
 43
1.0
 76
     1
 77
     6
 78
     2
 67
     7
 79
     5
170
     0
171
     0
290
     0
174
     0
 93
        1
 44
0.0
173
     0
291
     1
 45
0.0
  0
VISUALSTYLE
  5
282
102
{ACAD_REACTORS
330
278
102
}
330
278
100
AcDbVisualStyle
  2
Conceptual
 70
     9
 71
     3
 72
     2
 73
     0
 90
        0
 40
0.6
 41
30.0
 62
     5
 63
     7
421
 16777215
 74
     2
 91
        2
 64
     7
 65
   257
 75
     1
175
     1
 42
179.0
 92
        8
 66
     7
 43
1.0
 76
     1
 77
     6
 78
     2
 67
     7
 79
     3
170
     0
171
     0
290
     0
174
     0
 93
        1
 44
0.0
173
     0
291
     0
 45
0.0
  0
VISUALSTYLE
  5
283
102
{ACAD_REACTORS
330
278
102
}
330
278
100
AcDbVisualStyle
  2
Dim
 70
    11
 71
     2
 72
     2
 73
     0
 90
        0
 40
0.6
 41
30.0
 62
     5
 63
     7
421
 16777215
 74
     1
 91
        4
 64
     7
 65
   257
 75
     1
175
     1
 42
1.0
 92
        8
 66
     7
 43
1.0
 76
     1
 77
     6
 78
     2
 67
     7
 79
     5
170
     0
171
     0
290
     0
174
     0
 93
        1
 44
-50.0
173
     0
291
     1
 45
0.0
  0
VISUALSTYLE
  5
28B
102
{ACAD_REACTORS
330
278
102
}
330
278
100
AcDbVisualStyle
  2
EdgeColorOff
 70
    22
 71
     2
 72
     2
 73
     0
 90
        0
 40
0.6
 41
30.0
 62
     5
 63
     7
421
 16777215
 74
     1
 91
        4
 64
     7
 65
   257
 75
     1
175
     1
 42
1.0
 92
        8
 66
     7
 43
1.0
 76
     1
 77
     6
 78
     2
 67
     7
 79
     5
170
     0
171
     0
290
     0
174
     0
 93
        1
 44
0.0
173
     0
291
     1
 45
0.0
  0
VISUALSTYLE
  5
287
102
{ACAD_REACTORS
330
278
102
}
330
278
100
AcDbVisualStyle
  2
Facepattern
 70
    15
 71
     2
 72
     2
 73
     0
 90
        0
 40
0.6
 41
30.0
 62
     5
 63
     7
421
 16777215
 74
     1
 91
        4
 64
     7
 65
   257
 75
     1
175
     1
 42
1.0
 92
        8
 66
     7
 43
1.0
 76
     1
 77
     6
 78
     2
 67
     7
 79
     5
170
     0
171
     0
290
     0
174
     0
 93
        1
 44
0.0
173
     0
291
     1
 45
0.0
  0
VISUALSTYLE
  5
279
102
{ACAD_REACTORS
330
278
102
}
330
278
100
AcDbVisualStyle
  2
Flat
 70
     0
 71
     2
 72
     1
 73
     1
 90
        2
 40
0.6
 41
30.0
 62
     5
 63
     7
421
 16777215
 74
     0
 91
        0
 64
     7
 65
   257
 75
     1
175
     1
 42
1.0
 92
        8
 66
     7
 43
1.0
 76
     1
 77
     6
 78
     2
 67
     7
 79
     5
170
     0
171
     0
290
     0
174
     0
 93
       13
 44
0.0
173
     0
291
     1
 45
0.0
  0
VISUALSTYLE
  5
27A
102
{ACAD_REACTORS
330
278
102
}
330
278
100
AcDbVisualStyle
  2
FlatWithEdges
 70
     1
 71
     2
 72
     1
 73
     1
 90
        2
 40
0.6
 41
30.0
 62
     5
 63
     7
421
 16777215
 74
     1
 91
        0
 64
     7
 65
   257
 75
     1
175
     1
 42
1.0
 92
        0
 66
   257
 43
1.0
 76
     1
 77
     6
 78
     2
 67
     7
 79
     5
170
     0
171
     0
290
     0
174
     0
 93
       13
 44
0.0
173
     0
291
     1
 45
0.0
  0
VISUALSTYLE
  5
27B
102
{ACAD_REACTORS
330
278
102
}
330
278
100
AcDbVisualStyle
  2
Gouraud
 70
     2
 71
     2
 72
     2
 73
     1
 90
        2
 40
0.6
 41
30.0
 62
     5
 63
     7
421
 16777215
 74
     0
 91
        0
 64
     7
 65
   257
 75
     1
175
     1
 42
1.0
 92
        0
 66
     7
 43
1.0
 76
     1
 77
     6
 78
     2
 67
     7
 79
     5
170
     0
171
     0
290
     0
174
     0
 93
       13
 44
0.0
173
     0
291
     1
 45
0.0
  0
VISUALSTYLE
  5
27C
102
{ACAD_REACTORS
330
278
102
}
330
278
100
AcDbVisualStyle
  2
GouraudWithEdges
 70
     3
 71
     2
 72
     2
 73
     1
 90
        2
 40
0.6
 41
30.0
 62
     5
 63
     7
421
 16777215
 74
     1
 91
        0
 64
     7
 65
   257
 75
     1
175
     1
 42
1.0
 92
        0
 66
   257
 43
1.0
 76
     1
 77
     6
 78
     2
 67
     7
 79
     5
170
     0
171
     0
290
     0
174
     0
 93
       13
 44
0.0
173
     0
291
     1
 45
0.0
  0
VISUALSTYLE
  5
27F
102
{ACAD_REACTORS
330
278
102
}
330
278
100
AcDbVisualStyle
  2
Hidden
 70
     6
 71
     1
 72
     2
 73
     2
 90
        0
 40
0.6
 41
30.0
 62
     5
 63
     7
421
 16777215
 74
     2
 91
        2
 64
     7
 65
   257
 75
     2
175
     1
 42
40.0
 92
        0
 66
   257
 43
1.0
 76
     1
 77
     6
 78
     2
 67
     7
 79
     3
170
     0
171
     0
290
     0
174
     0
 93
        1
 44
0.0
173
     0
291
     0
 45
0.0
  0
VISUALSTYLE
  5
289
102
{ACAD_REACTORS
330
278
102
}
330
278
100
AcDbVisualStyle
  2
JitterOff
 70
    20
 71
     2
 72
     2
 73
     0
 90
        0
 40
0.6
 41
30.0
 62
     5
 63
     7
421
 16777215
 74
     1
 91
        4
 64
     7
 65
   257
 75
     1
175
     1
 42
1.0
 92
       10
 66
     7
 43
1.0
 76
     1
 77
     6
 78
     2
 67
     7
 79
     5
170
     0
171
     0
290
     0
174
     0
 93
        1
 44
0.0
173
     0
291
     1
 45
0.0
  0
VISUALSTYLE
  5
286
102
{ACAD_REACTORS
330
278
102
}
330
278
100
AcDbVisualStyle
  2
Linepattern
 70
    14
 71
     2
 72
     2
 73
     0
 90
        0
 40
0.6
 41
30.0
 62
     5
 63
     7
421
 16777215
 74
     1
 91
        4
 64
     7
 65
   257
 75
     7
175
     7
 42
1.0
 92
        8
 66
     7
 43
1.0
 76
     1
 77
     6
 78
     2
 67
     7
 79
     5
170
     0
171
     0
290
     0
174
     0
 93
        1
 44
0.0
173
     0
291
     1
 45
0.0
  0
VISUALSTYLE
  5
28A
102
{ACAD_REACTORS
330
278
102
}
330
278
100
AcDbVisualStyle
  2
OverhangOff
 70
    21
 71
     2
 72
     2
 73
     0
 90
        0
 40
0.6
 41
30.0
 62
     5
 63
     7
421
 16777215
 74
     1
 91
        4
 64
     7
 65
   257
 75
     1
175
     1
 42
1.0
 92
        9
 66
     7
 43
1.0
 76
     1
 77
     6
 78
     2
 67
     7
 79
     5
170
     0
171
     0
290
     0
174
     0
 93
        1
 44
0.0
173
     0
291
     1
 45
0.0
  0
VISUALSTYLE
  5
281
102
{ACAD_REACTORS
330
278
102
}
330
278
100
AcDbVisualStyle
  2
Realistic
 70
     8
 71
     2
 72
     3
 73
     0
 90
        2
 40
0.6
 41
30.0
 62
     5
 63
     7
421
 16777215
 74
     0
 91
        0
 64
     7
 65
   257
 75
     1
175
     1
 42
1.0
 92
        8
 66
   257
 43
1.0
 76
     1
 77
     6
 78
     2
 67
     7
 79
     3
170
     0
171
     0
290
     0
174
     0
 93
       13
 44
0.0
173
     0
291
     0
 45
0.0
  0
VISUALSTYLE
  5
290
102
{ACAD_REACTORS
330
278
102
}
330
278
100
AcDbVisualStyle
  2
Shaded
 70
    27
 71
     2
 72
     2
 73
     1
 90
        2
 40
0.6
 41
30.0
 62
     5
 63
     7
421
 16777215
 74
     0
 91
        4
 64
     7
 65
   257
 75
     1
175
     1
 42
1.0
 92
        8
 66
   257
 43
1.0
 76
     1
 77
     6
 78
     2
 67
     8
425
  7895160
 79
     3
170
     0
171
     0
290
     0
174
     0
 93
        5
 44
0.0
173
     0
291
     0
 45
0.0
  0
VISUALSTYLE
  5
28F
102
{ACAD_REACTORS
330
278
102
}
330
278
100
AcDbVisualStyle
  2
Shaded with edges
 70
    26
 71
     2
 72
     2
 73
     1
 90
        2
 40
0.6
 41
30.0
 62
     5
 63
     7
421
 16777215
 74
     1
 91
       10
 64
     7
 65
   257
 75
     2
175
     1
 42
1.0
 92
        8
 66
   257
 43
1.0
 76
     1
 77
     6
 78
     2
 67
     7
 79
     3
170
     0
171
     0
290
     0
174
     0
 93
        5
 44
0.0
173
     0
291
     0
 45
0.0
  0
VISUALSTYLE
  5
28C
102
{ACAD_REACTORS
330
278
102
}
330
278
100
AcDbVisualStyle
  2
Shades of Gray
 70
    23
 71
     2
 72
     2
 73
     3
 90
        0
 40
0.6
 41
30.0
 62
     5
 63
     7
421
 16777215
 74
     2
 91
        2
 64
     7
 65
     7
 75
     1
175
     1
 42
40.0
 92
        8
 66
     7
 43
1.0
 76
     1
 77
     6
 78
     2
 67
     7
 79
     3
170
     0
171
     0
290
     0
174
     0
 93
        1
 44
0.0
173
     0
291
     0
 45
0.0
  0
VISUALSTYLE
  5
28D
102
{ACAD_REACTORS
330
278
102
}
330
278
100
AcDbVisualStyle
  2
Sketchy
 70
    24
 71
     1
 72
     2
 73
     2
 90
        0
 40
0.6
 41
30.0
 62
     5
 63
     7
421
 16777215
 74
     2
 91
        2
 64
     7
 65
     7
 75
     1
175
     1
 42
40.0
 92
       11
 66
     7
 43
1.0
 76
     1
 77
     6
 78
     2
 67
     7
 79
     6
170
     0
171
     0
290
     0
174
     0
 93
        1
 44
0.0
173
     0
291
     0
 45
0.0
  0
VISUALSTYLE
  5
285
102
{ACAD_REACTORS
330
278
102
}
330
278
100
AcDbVisualStyle
  2
Thicken
 70
    13
 71
     2
 72
     2
 73
     0
 90
        0
 40
0.6
 41
30.0
 62
     5
 63
     7
421
 16777215
 74
     1
 91
        4
 64
     7
 65
   257
 75
     1
175
     1
 42
1.0
 92
       12
 66
     7
 43
1.0
 76
     1
 77
     6
 78
     2
 67
     7
 79
     5
170
     0
171
     0
290
     0
174
     0
 93
        1
 44
0.0
173
     0
291
     1
 45
0.0
  0
VISUALSTYLE
  5
27E
102
{ACAD_REACTORS
330
278
102
}
330
278
100
AcDbVisualStyle
  2
Wireframe
 70
     5
 71
     0
 72
     2
 73
     0
 90
        0
 40
0.6
 41
30.0
 62
     5
 63
     7
421
 16777215
 74
     1
 91
        4
 64
     7
 65
   257
 75
     1
175
     1
 42
1.0
 92
        0
 66
   257
 43
1.0
 76
     1
 77
     6
 78
     2
 67
     7
 79
     3
170
     0
171
     0
290
     0
174
     0
 93
        1
 44
0.0
173
     0
291
     0
 45
0.0
  0
VISUALSTYLE
  5
28E
102
{ACAD_REACTORS
330
278
102
}
330
278
100
AcDbVisualStyle
  2
X-Ray
 70
    25
 71
     2
 72
     2
 73
     1
 90
        1
 40
0.5
 41
30.0
 62
     5
 63
     7
421
 16777215
 74
     1
 91
        0
 64
     7
 65
   257
 75
     1
175
     1
 42
1.0
 92
        8
 66
     7
 43
1.0
 76
     1
 77
     6
 78
     2
 67
     7
 79
     3
170
     0
171
     0
290
     0
174
     0
 93
       13
 44
0.0
173
     0
291
     0
 45
0.0
  0
DICTIONARYVAR
  5
29B
102
{ACAD_REACTORS
330
29A
102
}
330
29A
100
DictionaryVariables
280
     0
  1
1:1
  0
DICTIONARYVAR
  5
2A0
102
{ACAD_REACTORS
330
29A
102
}
330
29A
100
DictionaryVariables
280
     0
  1
Standard
  0
DICTIONARYVAR
  5
29C
102
{ACAD_REACTORS
330
29A
102
}
330
29A
100
DictionaryVariables
280
     0
  1
0
  0
DICTIONARYVAR
  5
2A2
102
{ACAD_REACTORS
330
29A
102
}
330
29A
100
DictionaryVariables
280
     0
  1
0
  0
DICTIONARYVAR
  5
316
102
{ACAD_REACTORS
330
29A
102
}
330
29A
100
DictionaryVariables
280
     0
  1
0
  0
XRECORD
  5
2A7
102
{ACAD_REACTORS
330
2A6
102
}
330
2A6
100
AcDbXrecord
280
     1
 91
     1023
301

290
     0
302
notes
330
14
 90
        8
 62
     7
370
    -3
331
13
  1
Color_7
330
4A
 90
        0
 62
     7
370
    -3
331
13
  1
Color_7
330
4B
 90
        8
 62
     7
370
    -3
331
13
  1
Color_7
330
4C
 90
        8
 62
     7
370
    -3
331
13
  1
Color_7
330
4D
 90
        8
 62
     7
370
    -3
331
13
  1
Color_7
  0
XRECORD
  5
2AA
102
{ACAD_REACTORS
330
2A6
102
}
330
2A6
100
AcDbXrecord
280
     1
 91
     1023
301

290
     0
302
notes
330
14
 90
        8
 62
     7
370
    -3
331
13
  1
Color_7
330
4A
 90
        0
 62
     7
370
    -3
331
13
  1
Color_7
330
4B
 90
        8
 62
     7
370
    20
331
13
  1
Color_7
330
4C
 90
        8
 62
     7
370
    -3
331
13
  1
Color_7
330
4D
 90
        8
 62
     7
370
    20
331
13
  1
Color_7
  0
XRECORD
  5
311
102
{ACAD_REACTORS
330
2A6
102
}
330
2A6
100
AcDbXrecord
280
     1
 91
     1023
301

290
     0
302
notes
330
14
 90
        8
 62
     7
370
    -3
331
13
  1
Color_7
330
4A
 90
        0
 62
     7
370
    -3
331
13
  1
Color_7
330
4B
 90
        8
 62
     7
370
    20
331
13
  1
Color_7
330
4C
 90
        8
 62
     7
370
    13
331
13
  1
Color_7
330
4D
 90
        8
 62
     7
370
    20
331
13
  1
Color_7
  0
DICTIONARY
  5
339
330
296
100
AcDbDictionary
280
     1
281
     1
  3
ACAD_ROUNDTRIP_2008_TABLESTYLE_CELLSTYLEMAP
360
33A
  0
CELLSTYLEMAP
  5
33A
102
{ACAD_REACTORS
330
339
102
}
330
339
100
AcDbCellStyleMap
 90
        3
300
CELLSTYLE
  1
TABLEFORMAT_BEGIN
 90
        5
170
     1
 91
        0
 92
        0
 62
   257
 93
        1
300
CONTENTFORMAT
  1
CONTENTFORMAT_BEGIN
 90
        0
 91
        0
 92
        4
 93
        0
300

 40
0.0
140
1.0
 94
        5
 62
     0
340
17
144
6.0
309
CONTENTFORMAT_END
171
     1
301
MARGIN
  1
CELLMARGIN_BEGIN
 40
1.5
 40
1.5
 40
1.5
 40
1.5
 40
1.5
 40
1.5
309
CELLMARGIN_END
 94
        6
 95
        1
302
GRIDFORMAT
  1
GRIDFORMAT_BEGIN
 90
        0
 91
        1
 62
     0
 92
       -2
340
11
 93
        0
 40
0.045
309
GRIDFORMAT_END
 95
        2
302
GRIDFORMAT
  1
GRIDFORMAT_BEGIN
 90
        0
 91
        1
 62
     0
 92
       -2
340
11
 93
        0
 40
0.045
309
GRIDFORMAT_END
 95
        4
302
GRIDFORMAT
  1
GRIDFORMAT_BEGIN
 90
        0
 91
        1
 62
     0
 92
       -2
340
11
 93
        0
 40
0.045
309
GRIDFORMAT_END
 95
        8
302
GRIDFORMAT
  1
GRIDFORMAT_BEGIN
 90
        0
 91
        1
 62
     0
 92
       -2
340
11
 93
        0
 40
0.045
309
GRIDFORMAT_END
 95
       16
302
GRIDFORMAT
  1
GRIDFORMAT_BEGIN
 90
        0
 91
        1
 62
     0
 92
       -2
340
11
 93
        0
 40
0.045
309
GRIDFORMAT_END
 95
       32
302
GRIDFORMAT
  1
GRIDFORMAT_BEGIN
 90
        0
 91
        1
 62
     0
 92
       -2
340
11
 93
        0
 40
0.045
309
GRIDFORMAT_END
309
TABLEFORMAT_END
  1
CELLSTYLE_BEGIN
 90
        1
 91
        1
300
_TITLE
309
CELLSTYLE_END
300
CELLSTYLE
  1
TABLEFORMAT_BEGIN
 90
        5
170
     1
 91
        0
 92
        0
 62
   257
 93
        1
300
CONTENTFORMAT
  1
CONTENTFORMAT_BEGIN
 90
        0
 91
        0
 92
        4
 93
        0
300

 40
0.0
140
1.0
 94
        5
 62
     0
340
17
144
4.5
309
CONTENTFORMAT_END
171
     1
301
MARGIN
  1
CELLMARGIN_BEGIN
 40
1.5
 40
1.5
 40
1.5
 40
1.5
 40
1.5
 40
1.5
309
CELLMARGIN_END
 94
        6
 95
        1
302
GRIDFORMAT
  1
GRIDFORMAT_BEGIN
 90
        0
 91
        1
 62
     0
 92
       -2
340
11
 93
        0
 40
0.045
309
GRIDFORMAT_END
 95
        2
302
GRIDFORMAT
  1
GRIDFORMAT_BEGIN
 90
        0
 91
        1
 62
     0
 92
       -2
340
11
 93
        0
 40
0.045
309
GRIDFORMAT_END
 95
        4
302
GRIDFORMAT
  1
GRIDFORMAT_BEGIN
 90
        0
 91
        1
 62
     0
 92
       -2
340
11
 93
        0
 40
0.045
309
GRIDFORMAT_END
 95
        8
302
GRIDFORMAT
  1
GRIDFORMAT_BEGIN
 90
        0
 91
        1
 62
     0
 92
       -2
340
11
 93
        0
 40
0.045
309
GRIDFORMAT_END
 95
       16
302
GRIDFORMAT
  1
GRIDFORMAT_BEGIN
 90
        0
 91
        1
 62
     0
 92
       -2
340
11
 93
        0
 40
0.045
309
GRIDFORMAT_END
 95
       32
302
GRIDFORMAT
  1
GRIDFORMAT_BEGIN
 90
        0
 91
        1
 62
     0
 92
       -2
340
11
 93
        0
 40
0.045
309
GRIDFORMAT_END
309
TABLEFORMAT_END
  1
CELLSTYLE_BEGIN
 90
        2
 91
        1
300
_HEADER
309
CELLSTYLE_END
300
CELLSTYLE
  1
TABLEFORMAT_BEGIN
 90
        5
170
     1
 91
        0
 92
        0
 62
   257
 93
        1
300
CONTENTFORMAT
  1
CONTENTFORMAT_BEGIN
 90
        0
 91
        0
 92
        4
 93
        0
300

 40
0.0
140
1.0
 94
        2
 62
     0
340
17
144
4.5
309
CONTENTFORMAT_END
171
     1
301
MARGIN
  1
CELLMARGIN_BEGIN
 40
1.5
 40
1.5
 40
1.5
 40
1.5
 40
1.5
 40
1.5
309
CELLMARGIN_END
 94
        6
 95
        1
302
GRIDFORMAT
  1
GRIDFORMAT_BEGIN
 90
        0
 91
        1
 62
     0
 92
       -2
340
11
 93
        0
 40
0.045
309
GRIDFORMAT_END
 95
        2
302
GRIDFORMAT
  1
GRIDFORMAT_BEGIN
 90
        0
 91
        1
 62
     0
 92
       -2
340
11
 93
        0
 40
0.045
309
GRIDFORMAT_END
 95
        4
302
GRIDFORMAT
  1
GRIDFORMAT_BEGIN
 90
        0
 91
        1
 62
     0
 92
       -2
340
11
 93
        0
 40
0.045
309
GRIDFORMAT_END
 95
        8
302
GRIDFORMAT
  1
GRIDFORMAT_BEGIN
 90
        0
 91
        1
 62
     0
 92
       -2
340
11
 93
        0
 40
0.045
309
GRIDFORMAT_END
 95
       16
302
GRIDFORMAT
  1
GRIDFORMAT_BEGIN
 90
        0
 91
        1
 62
     0
 92
       -2
340
11
 93
        0
 40
0.045
309
GRIDFORMAT_END
 95
       32
302
GRIDFORMAT
  1
GRIDFORMAT_BEGIN
 90
        0
 91
        1
 62
     0
 92
       -2
340
11
 93
        0
 40
0.045
309
GRIDFORMAT_END
309
TABLEFORMAT_END
  1
CELLSTYLE_BEGIN
 90
        3
 91
        2
300
_DATA
309
CELLSTYLE_END
  0
ENDSEC
  0
EOF
