  0
SECTION
  2
HEADER
  9
$ACADVER
  1
AC1021
  9
$ACADMAINTVER
 70
    25
  9
$DWGCODEPAGE
  3
ANSI_932
  9
$LASTSAVEDBY
  1
Shimosaki
  9
$INSBASE
 10
0.0
 20
0.0
 30
0.0
  9
$EXTMIN
 10
72.20214454724874
 20
63.79214832457114
 30
0.0
  9
$EXTMAX
 10
2022.202144547732
 20
2897.146673506426
 30
0.0
  9
$LIMMIN
 10
0.0
 20
0.0
  9
$LIMMAX
 10
2100.0
 20
2970.0
  9
$ORTHOMODE
 70
     0
  9
$REGENMODE
 70
     1
  9
$FILLMODE
 70
     1
  9
$QTEXTMODE
 70
     0
  9
$MIRRTEXT
 70
     1
  9
$LTSCALE
 40
50.8
  9
$ATTMODE
 70
     1
  9
$TEXTSIZE
 40
2.5
  9
$TRACEWID
 40
1.0
  9
$TEXTSTYLE
  7
ＭＳ ゴシック
  9
$CLAYER
  8
MODEL
  9
$CELTYPE
  6
STAR4
  9
$CECOLOR
 62
   256
  9
$CELTSCALE
 40
1.0
  9
$DISPSILH
 70
     0
  9
$DIMSCALE
 40
1.0
  9
$DIMASZ
 40
9.0
  9
$DIMEXO
 40
10.0
  9
$DIMDLI
 40
0.9999999999999999
  9
$DIMRND
 40
0.0
  9
$DIMDLE
 40
0.0
  9
$DIMEXE
 40
0.0
  9
$DIMTP
 40
0.0
  9
$DIMTM
 40
0.0
  9
$DIMTXT
 40
24.0
  9
$DIMCEN
 40
0.0
  9
$DIMTSZ
 40
0.0
  9
$DIMTOL
 70
     0
  9
$DIMLIM
 70
     0
  9
$DIMTIH
 70
     0
  9
$DIMTOH
 70
     0
  9
$DIMSE1
 70
     0
  9
$DIMSE2
 70
     0
  9
$DIMTAD
 70
     1
  9
$DIMZIN
 70
    11
  9
$DIMBLK
  1
DOT
  9
$DIMASO
 70
     1
  9
$DIMSHO
 70
     1
  9
$DIMPOST
  1
<>
  9
$DIMAPOST
  1
[]
  9
$DIMALT
 70
     0
  9
$DIMALTD
 70
     1
  9
$DIMALTF
 40
1.0
  9
$DIMLFAC
 40
1.0
  9
$DIMTOFL
 70
     0
  9
$DIMTVP
 40
0.0
  9
$DIMTIX
 70
     1
  9
$DIMSOXD
 70
     0
  9
$DIMSAH
 70
     0
  9
$DIMBLK1
  1

  9
$DIMBLK2
  1

  9
$DIMSTYLE
  2
tfrom線あり
  9
$DIMCLRD
 70
     0
  9
$DIMCLRE
 70
     0
  9
$DIMCLRT
 70
     0
  9
$DIMTFAC
 40
1.0
  9
$DIMGAP
 40
20.0
  9
$DIMJUST
 70
     0
  9
$DIMSD1
 70
     0
  9
$DIMSD2
 70
     0
  9
$DIMTOLJ
 70
     1
  9
$DIMTZIN
 70
    11
  9
$DIMALTZ
 70
    11
  9
$DIMALTTZ
 70
    11
  9
$DIMUPT
 70
     0
  9
$DIMDEC
 70
     0
  9
$DIMTDEC
 70
     1
  9
$DIMALTU
 70
     2
  9
$DIMALTTD
 70
     2
  9
$DIMTXSTY
  7
ＭＳ ゴシック
  9
$DIMAUNIT
 70
     0
  9
$DIMADEC
 70
     2
  9
$DIMALTRND
 40
0.0
  9
$DIMAZIN
 70
     0
  9
$DIMDSEP
 70
    46
  9
$DIMATFIT
 70
     0
  9
$DIMFRAC
 70
     2
  9
$DIMLDRBLK
  1
DOT
  9
$DIMLUNIT
 70
     2
  9
$DIMLWD
 70
    -2
  9
$DIMLWE
 70
    -2
  9
$DIMTMOVE
 70
     0
  9
$DIMFXL
 40
1.0
  9
$DIMFXLON
 70
     0
  9
$DIMJOGANG
 40
0.7853981633974483
  9
$DIMTFILL
 70
     0
  9
$DIMTFILLCLR
 70
     0
  9
$DIMARCSYM
 70
     0
  9
$DIMLTYPE
  6

  9
$DIMLTEX1
  6

  9
$DIMLTEX2
  6

  9
$LUNITS
 70
     2
  9
$LUPREC
 70
     0
  9
$SKETCHINC
 40
0.1
  9
$FILLETRAD
 40
0.0
  9
$AUNITS
 70
     0
  9
$AUPREC
 70
     0
  9
$MENU
  1
acad
  9
$ELEVATION
 40
0.0
  9
$PELEVATION
 40
0.0
  9
$THICKNESS
 40
0.0
  9
$LIMCHECK
 70
     0
  9
$CHAMFERA
 40
0.0
  9
$CHAMFERB
 40
0.0
  9
$CHAMFERC
 40
0.0
  9
$CHAMFERD
 40
0.0
  9
$SKPOLY
 70
     0
  9
$TDCREATE
 40
2447893.375
  9
$TDUCREATE
 40
0.0
  9
$TDUPDATE
 40
2457162.446970949
  9
$TDUUPDATE
 40
2457162.071970949
  9
$TDINDWG
 40
0.1554116204
  9
$TDUSRTIMER
 40
2457162.071289306
  9
$USRTIMER
 70
     1
  9
$ANGBASE
 50
0.0
  9
$ANGDIR
 70
     0
  9
$PDMODE
 70
     1
  9
$PDSIZE
 40
-2.0
  9
$PLINEWID
 40
0.0
  9
$SPLFRAME
 70
     0
  9
$SPLINETYPE
 70
     6
  9
$SPLINESEGS
 70
     8
  9
$HANDSEED
  5
1433
  9
$SURFTAB1
 70
     6
  9
$SURFTAB2
 70
     6
  9
$SURFTYPE
 70
     6
  9
$SURFU
 70
     6
  9
$SURFV
 70
     6
  9
$UCSBASE
  2

  9
$UCSNAME
  2

  9
$UCSORG
 10
0.0
 20
0.0
 30
0.0
  9
$UCSXDIR
 10
1.0
 20
0.0
 30
0.0
  9
$UCSYDIR
 10
0.0
 20
1.0
 30
0.0
  9
$UCSORTHOREF
  2

  9
$UCSORTHOVIEW
 70
     0
  9
$UCSORGTOP
 10
0.0
 20
0.0
 30
0.0
  9
$UCSORGBOTTOM
 10
0.0
 20
0.0
 30
0.0
  9
$UCSORGLEFT
 10
0.0
 20
0.0
 30
0.0
  9
$UCSORGRIGHT
 10
0.0
 20
0.0
 30
0.0
  9
$UCSORGFRONT
 10
0.0
 20
0.0
 30
0.0
  9
$UCSORGBACK
 10
0.0
 20
0.0
 30
0.0
  9
$PUCSBASE
  2

  9
$PUCSNAME
  2

  9
$PUCSORG
 10
0.0
 20
0.0
 30
0.0
  9
$PUCSXDIR
 10
1.0
 20
0.0
 30
0.0
  9
$PUCSYDIR
 10
0.0
 20
1.0
 30
0.0
  9
$PUCSORTHOREF
  2

  9
$PUCSORTHOVIEW
 70
     0
  9
$PUCSORGTOP
 10
0.0
 20
0.0
 30
0.0
  9
$PUCSORGBOTTOM
 10
0.0
 20
0.0
 30
0.0
  9
$PUCSORGLEFT
 10
0.0
 20
0.0
 30
0.0
  9
$PUCSORGRIGHT
 10
0.0
 20
0.0
 30
0.0
  9
$PUCSORGFRONT
 10
0.0
 20
0.0
 30
0.0
  9
$PUCSORGBACK
 10
0.0
 20
0.0
 30
0.0
  9
$USERI1
 70
     0
  9
$USERI2
 70
     0
  9
$USERI3
 70
     0
  9
$USERI4
 70
     0
  9
$USERI5
 70
     0
  9
$USERR1
 40
0.0
  9
$USERR2
 40
0.0
  9
$USERR3
 40
0.0
  9
$USERR4
 40
0.0
  9
$USERR5
 40
0.0
  9
$WORLDVIEW
 70
     1
  9
$SHADEDGE
 70
     3
  9
$SHADEDIF
 70
    70
  9
$TILEMODE
 70
     1
  9
$MAXACTVP
 70
    64
  9
$PINSBASE
 10
0.0
 20
0.0
 30
0.0
  9
$PLIMCHECK
 70
     0
  9
$PEXTMIN
 10
0.0
 20
0.0
 30
0.0
  9
$PEXTMAX
 10
0.0
 20
0.0
 30
0.0
  9
$PLIMMIN
 10
-7.5
 20
-20.0
  9
$PLIMMAX
 10
412.5
 20
277.0
  9
$UNITMODE
 70
     0
  9
$VISRETAIN
 70
     0
  9
$PLINEGEN
 70
     1
  9
$PSLTSCALE
 70
     0
  9
$TREEDEPTH
 70
  3020
  9
$CMLSTYLE
  2
Standard
  9
$CMLJUST
 70
     0
  9
$CMLSCALE
 40
1.0
  9
$PROXYGRAPHICS
 70
     0
  9
$MEASUREMENT
 70
     1
  9
$CELWEIGHT
370
    -1
  9
$ENDCAPS
280
     0
  9
$JOINSTYLE
280
     0
  9
$LWDISPLAY
290
     1
  9
$INSUNITS
 70
     4
  9
$HYPERLINKBASE
  1

  9
$STYLESHEET
  1

  9
$XEDIT
290
     1
  9
$CEPSNTYPE
380
     0
  9
$PSTYLEMODE
290
     1
  9
$FINGERPRINTGUID
  2

  9
$VERSIONGUID
  2

  9
$EXTNAMES
290
     1
  9
$PSVPSCALE
 40
0.0
  9
$OLESTARTUP
290
     0
  9
$SORTENTS
280
   127
  9
$INDEXCTL
280
     0
  9
$HIDETEXT
280
     1
  9
$XCLIPFRAME
290
     0
  9
$HALOGAP
280
     0
  9
$OBSCOLOR
 70
   257
  9
$OBSLTYPE
280
     0
  9
$INTERSECTIONDISPLAY
280
     0
  9
$INTERSECTIONCOLOR
 70
   257
  9
$DIMASSOC
280
     2
  9
$PROJECTNAME
  1

  9
$CAMERADISPLAY
290
     0
  9
$LENSLENGTH
 40
50.0
  9
$CAMERAHEIGHT
 40
0.0
  9
$STEPSPERSEC
 40
2.0
  9
$STEPSIZE
 40
6.0
  9
$3DDWFPREC
 40
2.0
  9
$PSOLWIDTH
 40
0.25
  9
$PSOLHEIGHT
 40
4.0
  9
$LOFTANG1
 40
1.570796326794897
  9
$LOFTANG2
 40
1.570796326794897
  9
$LOFTMAG1
 40
0.0
  9
$LOFTMAG2
 40
0.0
  9
$LOFTPARAM
 70
     7
  9
$LOFTNORMALS
280
     1
  9
$LATITUDE
 40
37.795
  9
$LONGITUDE
 40
-122.394
  9
$NORTHDIRECTION
 40
0.0
  9
$TIMEZONE
 70
 -8000
  9
$LIGHTGLYPHDISPLAY
280
     1
  9
$TILEMODELIGHTSYNCH
280
     1
  9
$SOLIDHIST
280
     1
  9
$SHOWHIST
280
     1
  9
$DWFFRAME
280
     2
  9
$DGNFRAME
280
     2
  9
$REALWORLDSCALE
290
     1
  9
$INTERFERECOLOR
 62
   256
  9
$CSHADOW
280
     0
  9
$SHADOWPLANELOCATION
 40
0.0
  0
ENDSEC
  0
SECTION
  2
CLASSES
  0
CLASS
  1
LWPOLYLINE
  2
AcDbPolyline
  3
ObjectDBX Classes
 90
        0
 91
        1
280
     0
281
     1
  0
CLASS
  1
IMAGE
  2
AcDbRasterImage
  3
ISM
 90
      127
 91
        5
280
     0
281
     1
  0
CLASS
  1
OLE2FRAME
  2
AcDbOle2Frame
  3
ObjectDBX Classes
 90
        0
 91
        1
280
     0
281
     1
  0
CLASS
  1
HATCH
  2
AcDbHatch
  3
ObjectDBX Classes
 90
        0
 91
        1
280
     0
281
     1
  0
CLASS
  1
DICTIONARYVAR
  2
AcDbDictionaryVar
  3
ObjectDBX Classes
 90
        0
 91
        4
280
     0
281
     0
  0
CLASS
  1
RASTERVARIABLES
  2
AcDbRasterVariables
  3
ISM
 90
        0
 91
        5
280
     0
281
     0
  0
CLASS
  1
IMAGEDEF
  2
AcDbRasterImageDef
  3
ISM
 90
        0
 91
        4
280
     0
281
     0
  0
CLASS
  1
IMAGEDEF_REACTOR
  2
AcDbRasterImageDefReactor
  3
ISM
 90
        1
 91
        4
280
     0
281
     0
  0
CLASS
  1
IDBUFFER
  2
AcDbIdBuffer
  3
ObjectDBX Classes
 90
        0
 91
        4
280
     0
281
     0
  0
CLASS
  1
SPATIAL_FILTER
  2
AcDbSpatialFilter
  3
ObjectDBX Classes
 90
        0
 91
        4
280
     0
281
     0
  0
CLASS
  1
XRECORD
  2
AcDbXrecord
  3
ObjectDBX Classes
 90
        0
 91
        1
280
     0
281
     0
  0
CLASS
  1
SORTENTSTABLE
  2
AcDbSortentsTable
  3
ObjectDBX Classes
 90
        0
 91
        4
280
     0
281
     0
  0
CLASS
  1
LAYER_INDEX
  2
AcDbLayerIndex
  3
ObjectDBX Classes
 90
        0
 91
        4
280
     0
281
     0
  0
CLASS
  1
SPATIAL_INDEX
  2
AcDbSpatialIndex
  3
AutoCAD 2000
 90
        0
 91
        4
280
     0
281
     0
  0
CLASS
  1
OBJECT_PTR
  2
CAseDLPNTableRecord
  3
ASE-LPNTableRecord
 90
        1
 91
        4
280
     0
281
     0
  0
CLASS
  1
LAYOUT
  2
AcDbLayout
  3
ObjectDBX Classes
 90
        0
 91
        1
280
     0
281
     0
  0
CLASS
  1
PLOTSETTINGS
  2
AcDbPlotSettings
  3
ObjectDBX Classes
 90
        0
 91
        4
280
     0
281
     0
  0
CLASS
  1
ACDBDICTIONARYWDFLT
  2
AcDbDictionaryWithDefault
  3
ObjectDBX Classes
 90
        0
 91
        5
280
     0
281
     0
  0
CLASS
  1
ACDBPLACEHOLDER
  2
AcDbPlaceHolder
  3
ObjectDBX Classes
 90
        0
 91
        1
280
     0
281
     0
  0
CLASS
  1
SCALE
  2
AcDbScale
  3
ObjectDBX Classes
 90
     1153
 91
        5
280
     0
281
     0
  0
CLASS
  1
MATERIAL
  2
AcDbMaterial
  3
ObjectDBX Classes
 90
     1153
 91
        5
280
     0
281
     0
  0
CLASS
  1
VISUALSTYLE
  2
AcDbVisualStyle
  3
ObjectDBX Classes
 90
     4095
 91
        5
280
     0
281
     0
  0
CLASS
  1
TABLESTYLE
  2
AcDbTableStyle
  3
ObjectDBX Classes
 90
     4095
 91
        5
280
     0
281
     0
  0
CLASS
  1
DIMASSOC
  2
AcDbDimAssoc
  3
"AcDbDimAssoc|Product Desc:     AcDim ARX App For Dimension|Company:          Autodesk, Inc.|WEB Address:      www.autodesk.com"
 90
        0
 91
        4
280
     0
281
     0
  0
CLASS
  1
CELLSTYLEMAP
  2
AcDbCellStyleMap
  3
ObjectDBX Classes
 90
     1152
 91
        4
280
     0
281
     0
  0
CLASS
  1
SUN
  2
AcDbSun
  3
SCENEOE
 90
     1153
 91
        5
280
     0
281
     0
  0
ENDSEC
  0
SECTION
  2
TABLES
  0
TABLE
  2
VPORT
  5
7
330
0
100
AcDbSymbolTable
 70
     1
  0
VPORT
  5
15
330
7
100
AcDbSymbolTableRecord
100
AcDbViewportTableRecord
  2
*ACTIVE
 70
     0
 10
0.0
 20
0.0
 11
1.0
 21
1.0
 12
2600.213368718478
 22
1142.644324940044
 13
0.0
 23
0.0
 14
1.0
 24
1.0
 15
0.0
 25
0.0
 16
0.0
 26
0.0
 36
1.0
 17
-91.02013567090398
 27
73.59871453016603
 37
-46.86809886248109
 40
3182.658723185327
 41
1.9625520110957
 42
50.0
 43
0.0
 44
0.0
 50
0.0
 51
0.0
 71
    16
 72
  2000
 73
     1
 74
     1
 75
     0
 76
     0
 77
     0
 78
     0
281
     0
 65
     1
110
0.0
120
0.0
130
0.0
111
1.0
121
0.0
131
0.0
112
0.0
122
1.0
132
0.0
 79
     0
146
0.0
348
26C
 60
     3
 61
     5
292
     1
282
     1
141
0.0
142
0.0
 63
   256
361
904
  0
ENDTAB
  0
TABLE
  2
LTYPE
  5
4
330
0
100
AcDbSymbolTable
 70
     3
  0
LTYPE
  5
11
330
4
100
AcDbSymbolTableRecord
100
AcDbLinetypeTableRecord
  2
ByBlock
 70
     0
  3

 72
    65
 73
     0
 40
0.0
  0
LTYPE
  5
12
330
4
100
AcDbSymbolTableRecord
100
AcDbLinetypeTableRecord
  2
ByLayer
 70
     0
  3

 72
    65
 73
     0
 40
0.0
  0
LTYPE
  5
13
330
4
100
AcDbSymbolTableRecord
100
AcDbLinetypeTableRecord
  2
Continuous
 70
     0
  3
Solid line
 72
    65
 73
     0
 40
0.0
  0
LTYPE
  5
45
330
4
100
AcDbSymbolTableRecord
100
AcDbLinetypeTableRecord
  2
STYLE_12
 70
     0
  3

 72
    65
 73
     2
 40
0.3937007874015748
 49
0.1968503937007874
 74
     0
 49
-0.1968503937007874
 74
     0
  0
LTYPE
  5
13EC
330
4
100
AcDbSymbolTableRecord
100
AcDbLinetypeTableRecord
  2
STAR4
 70
     0
  3
Star4
 72
    65
 73
     2
 40
9.0
 49
0.0
 74
     4
 75
   138
340
13EB
 46
1.0
 50
0.0
 44
0.0
 45
0.0
 49
-9.0
 74
     0
  0
ENDTAB
  0
TABLE
  2
LAYER
  5
2
102
{ACAD_XDICTIONARY
360
2E1
102
}
330
0
100
AcDbSymbolTable
 70
     7
  0
LAYER
  5
14
330
2
100
AcDbSymbolTableRecord
100
AcDbLayerTableRecord
  2
0
 70
     0
 62
     7
  6
Continuous
370
    -3
390
1D
347
266
  0
LAYER
  5
4B
330
2
100
AcDbSymbolTableRecord
100
AcDbLayerTableRecord
  2
TEMPLATE
 70
     0
 62
     7
  6
Continuous
370
    20
390
1D
347
266
  0
LAYER
  5
4C
330
2
100
AcDbSymbolTableRecord
100
AcDbLayerTableRecord
  2
DIM
 70
     0
 62
     7
  6
Continuous
370
    13
390
1D
347
266
  0
LAYER
  5
4D
330
2
100
AcDbSymbolTableRecord
100
AcDbLayerTableRecord
  2
MODEL
 70
     0
 62
     7
  6
Continuous
370
    20
390
1D
347
266
  0
LAYER
  5
667
330
2
100
AcDbSymbolTableRecord
100
AcDbLayerTableRecord
  2
LOGO
 70
     0
 62
     7
  6
Continuous
370
    -3
390
1D
347
266
  0
LAYER
  5
88C
330
2
100
AcDbSymbolTableRecord
100
AcDbLayerTableRecord
  2
HIDDEN
 70
     0
 62
     7
  6
STYLE_12
370
    20
390
1D
347
266
1001
AcAecLayerStandard
1000

1000

  0
LAYER
  5
D5D
330
2
100
AcDbSymbolTableRecord
100
AcDbLayerTableRecord
  2
Defpoints
 70
     0
 62
     7
  6
Continuous
290
     0
370
    -3
390
1D
347
266
  0
ENDTAB
  0
TABLE
  2
STYLE
  5
3
330
0
100
AcDbSymbolTable
 70
     3
  0
STYLE
  5
17
330
3
100
AcDbSymbolTableRecord
100
AcDbTextStyleTableRecord
  2
Standard
 70
     0
 40
0.0
 41
1.0
 50
0.0
 71
     0
 42
2.5
  3
txt
  4
BIGFONT.SHX
  0
STYLE
  5
39
330
3
100
AcDbSymbolTableRecord
100
AcDbTextStyleTableRecord
  2
ＭＳ ゴシック
 70
     0
 40
0.0
 41
1.0
 50
0.0
 71
     0
 42
2.5
  3
msgothic.ttc
  4
ＭＳ ゴシック
1001
ACAD
1000
ＭＳ ゴシック
1071
        0
  0
STYLE
  5
13EB
330
3
100
AcDbSymbolTableRecord
100
AcDbTextStyleTableRecord
  2

 70
     1
 40
0.0
 41
1.0
 50
0.0
 71
     0
 42
2.5
  3
ltypeshp.shx
  4

  0
ENDTAB
  0
TABLE
  2
VIEW
  5
5
330
0
100
AcDbSymbolTable
 70
     0
  0
ENDTAB
  0
TABLE
  2
UCS
  5
6
330
0
100
AcDbSymbolTable
 70
     0
  0
ENDTAB
  0
TABLE
  2
APPID
  5
8
330
0
100
AcDbSymbolTable
 70
     8
  0
APPID
  5
16
330
8
100
AcDbSymbolTableRecord
100
AcDbRegAppTableRecord
  2
ACAD
 70
     0
  0
APPID
  5
7AC
330
8
100
AcDbSymbolTableRecord
100
AcDbRegAppTableRecord
  2
AcAecLayerStandard
 70
     0
  0
APPID
  5
DBC
330
8
100
AcDbSymbolTableRecord
100
AcDbRegAppTableRecord
  2
ACAD_DSTYLE_DIMJAG
 70
     0
  0
APPID
  5
DBD
330
8
100
AcDbSymbolTableRecord
100
AcDbRegAppTableRecord
  2
ACAD_DSTYLE_DIMTALN
 70
     0
  0
APPID
  5
DBE
330
8
100
AcDbSymbolTableRecord
100
AcDbRegAppTableRecord
  2
ACAD_PSEXT
 70
     0
  0
APPID
  5
DBF
330
8
100
AcDbSymbolTableRecord
100
AcDbRegAppTableRecord
  2
GradientColor1ACI
 70
     0
  0
APPID
  5
DC0
330
8
100
AcDbSymbolTableRecord
100
AcDbRegAppTableRecord
  2
GradientColor2ACI
 70
     0
  0
APPID
  5
121E
330
8
100
AcDbSymbolTableRecord
100
AcDbRegAppTableRecord
  2
ACAD_DSTYLE_DIMRADIAL_EXTENSION
 70
     0
  0
ENDTAB
  0
TABLE
  2
DIMSTYLE
  5
9
330
0
100
AcDbSymbolTable
 70
     2
100
AcDbDimStyleTable
  0
DIMSTYLE
105
18
330
9
100
AcDbSymbolTableRecord
100
AcDbDimStyleTableRecord
  2
Standard
 70
     0
178
     0
340
17
  0
DIMSTYLE
105
57
102
{ACAD_REACTORS
330
115D
330
116C
330
117B
330
118D
330
119F
330
11AE
330
11BD
330
11CC
330
11EA
330
11FA
330
1209
330
121F
330
1380
102
}
330
9
100
AcDbSymbolTableRecord
100
AcDbDimStyleTableRecord
  2
tfrom線あり
 70
     0
  3
<>
  4
[]
 41
9.0
 42
10.0
 43
0.9999999999999999
 44
0.0
 73
     0
 74
     0
 77
     1
 78
    11
140
24.0
141
0.0
143
1.0
147
20.0
171
     1
174
     1
178
     0
179
     2
271
     0
272
     1
276
     2
284
    11
285
    11
286
    11
289
     0
340
39
341
4E
342
4E
  0
ENDTAB
  0
TABLE
  2
BLOCK_RECORD
  5
1
330
0
100
AcDbSymbolTable
 70
    23
  0
BLOCK_RECORD
  5
A
330
1
100
AcDbSymbolTableRecord
100
AcDbBlockTableRecord
  2
*MODEL_SPACE
340
20
 70
     0
280
     1
281
     0
  0
BLOCK_RECORD
  5
B
330
1
100
AcDbSymbolTableRecord
100
AcDbBlockTableRecord
  2
*PAPER_SPACE
340
21
 70
     0
280
     1
281
     0
  0
BLOCK_RECORD
  5
4E
330
1
100
AcDbSymbolTableRecord
100
AcDbBlockTableRecord
  2
_DOT
340
0
102
{BLKREFS
331
1166
331
1167
331
1175
331
1176
331
1184
331
1185
331
1196
331
1197
331
11A8
331
11A9
331
11B7
331
11B8
331
11C6
331
11C7
331
11D5
331
11D6
331
11F2
331
11F3
331
1203
331
1204
331
1210
331
1211
331
1227
331
1389
331
138A
331
13D1
331
13D2
331
13E1
331
13E2
102
}
 70
     0
280
     1
281
     0
  0
BLOCK_RECORD
  5
68A
330
1
100
AcDbSymbolTableRecord
100
AcDbBlockTableRecord
  2
名称未設定-1
340
0
102
{BLKREFS
331
6B5
102
}
 70
     1
280
     1
281
     0
  0
BLOCK_RECORD
  5
68D
330
1
100
AcDbSymbolTableRecord
100
AcDbBlockTableRecord
  2
block 2
340
0
102
{BLKREFS
331
68C
102
}
 70
     0
280
     1
281
     0
  0
BLOCK_RECORD
  5
690
330
1
100
AcDbSymbolTableRecord
100
AcDbBlockTableRecord
  2
block 3
340
0
102
{BLKREFS
331
68F
102
}
 70
     0
280
     1
281
     0
  0
BLOCK_RECORD
  5
693
330
1
100
AcDbSymbolTableRecord
100
AcDbBlockTableRecord
  2
block 4
340
0
102
{BLKREFS
331
692
102
}
 70
     0
280
     1
281
     0
  0
BLOCK_RECORD
  5
6A2
330
1
100
AcDbSymbolTableRecord
100
AcDbBlockTableRecord
  2
block 5
340
0
102
{BLKREFS
331
6A1
102
}
 70
     0
280
     1
281
     0
  0
BLOCK_RECORD
  5
1143
330
1
100
AcDbSymbolTableRecord
100
AcDbBlockTableRecord
  2
*D6
340
0
 70
     0
280
     1
281
     0
  0
BLOCK_RECORD
  5
1150
330
1
100
AcDbSymbolTableRecord
100
AcDbBlockTableRecord
  2
*D7
340
0
 70
     0
280
     1
281
     0
  0
BLOCK_RECORD
  5
1160
330
1
100
AcDbSymbolTableRecord
100
AcDbBlockTableRecord
  2
*D8
340
0
 70
     0
280
     1
281
     0
  0
BLOCK_RECORD
  5
116F
330
1
100
AcDbSymbolTableRecord
100
AcDbBlockTableRecord
  2
*D9
340
0
 70
     0
280
     1
281
     0
  0
BLOCK_RECORD
  5
117E
330
1
100
AcDbSymbolTableRecord
100
AcDbBlockTableRecord
  2
*D10
340
0
 70
     0
280
     1
281
     0
  0
BLOCK_RECORD
  5
1190
330
1
100
AcDbSymbolTableRecord
100
AcDbBlockTableRecord
  2
*D11
340
0
 70
     0
280
     1
281
     0
  0
BLOCK_RECORD
  5
11A2
330
1
100
AcDbSymbolTableRecord
100
AcDbBlockTableRecord
  2
*D12
340
0
 70
     0
280
     1
281
     0
  0
BLOCK_RECORD
  5
11B1
330
1
100
AcDbSymbolTableRecord
100
AcDbBlockTableRecord
  2
*D13
340
0
 70
     0
280
     1
281
     0
  0
BLOCK_RECORD
  5
11C0
330
1
100
AcDbSymbolTableRecord
100
AcDbBlockTableRecord
  2
*D14
340
0
 70
     0
280
     1
281
     0
  0
BLOCK_RECORD
  5
11CF
330
1
100
AcDbSymbolTableRecord
100
AcDbBlockTableRecord
  2
*D15
340
0
 70
     0
280
     1
281
     0
  0
BLOCK_RECORD
  5
11EB
330
1
100
AcDbSymbolTableRecord
100
AcDbBlockTableRecord
  2
*D16
340
0
 70
     0
280
     1
281
     0
  0
BLOCK_RECORD
  5
11FD
330
1
100
AcDbSymbolTableRecord
100
AcDbBlockTableRecord
  2
*D17
340
0
 70
     0
280
     1
281
     0
  0
BLOCK_RECORD
  5
120A
330
1
100
AcDbSymbolTableRecord
100
AcDbBlockTableRecord
  2
*D18
340
0
 70
     0
280
     1
281
     0
  0
BLOCK_RECORD
  5
1222
330
1
100
AcDbSymbolTableRecord
100
AcDbBlockTableRecord
  2
*D19
340
0
 70
     0
280
     1
281
     0
  0
BLOCK_RECORD
  5
1383
330
1
100
AcDbSymbolTableRecord
100
AcDbBlockTableRecord
  2
*D20
340
0
 70
     0
280
     1
281
     0
  0
BLOCK_RECORD
  5
13CC
330
1
100
AcDbSymbolTableRecord
100
AcDbBlockTableRecord
  2
*D21
340
0
 70
     0
280
     1
281
     0
  0
BLOCK_RECORD
  5
13DC
330
1
100
AcDbSymbolTableRecord
100
AcDbBlockTableRecord
  2
*D22
340
0
 70
     0
280
     1
281
     0
  0
ENDTAB
  0
ENDSEC
  0
SECTION
  2
BLOCKS
  0
BLOCK
  5
D
330
A
100
AcDbEntity
  8
0
390
1D
100
AcDbBlockBegin
  2
*MODEL_SPACE
 70
     0
 10
0.0
 20
0.0
 30
0.0
  3
*MODEL_SPACE
  1
*MODEL_SPACE
  0
ENDBLK
  5
E
330
A
100
AcDbEntity
  8
0
390
1D
100
AcDbBlockEnd
  0
BLOCK
  5
F
330
B
100
AcDbEntity
 67
     1
  8
0
390
1D
100
AcDbBlockBegin
  2
*PAPER_SPACE
 70
     0
 10
0.0
 20
0.0
 30
0.0
  3
*PAPER_SPACE
  1
*PAPER_SPACE
  0
ENDBLK
  5
10
330
B
100
AcDbEntity
 67
     1
  8
0
390
1D
100
AcDbBlockEnd
  0
BLOCK
  5
1392
330
4E
100
AcDbEntity
  8
0
390
1D
100
AcDbBlockBegin
  2
_DOT
 70
     0
 10
0.0
 20
0.0
 30
0.0
  3
_DOT
  1
_DOT
  0
POLYLINE
  5
1394
330
4E
100
AcDbEntity
  8
0
  6
ByBlock
 62
     0
370
    -2
390
1D
100
AcDb2dPolyline
 66
     1
 10
0.0
 20
0.0
 30
0.0
 70
     1
 40
0.5
 41
0.5
  0
VERTEX
  5
1395
330
1394
100
AcDbEntity
  8
0
  6
ByBlock
 62
     0
370
    -2
390
1D
100
AcDbVertex
100
AcDb2dVertex
 10
-0.25
 20
0.0
 30
0.0
 42
1.0
  0
VERTEX
  5
1396
330
1394
100
AcDbEntity
  8
0
  6
ByBlock
 62
     0
370
    -2
390
1D
100
AcDbVertex
100
AcDb2dVertex
 10
0.25
 20
0.0
 30
0.0
 42
1.0
  0
SEQEND
  5
1397
330
1394
100
AcDbEntity
  8
0
390
1D
  0
LINE
  5
1398
330
4E
100
AcDbEntity
  8
0
  6
ByBlock
 62
     0
370
    -2
390
1D
100
AcDbLine
 10
-0.5
 20
0.0
 30
0.0
 11
-1.0
 21
0.0
 31
0.0
  0
ENDBLK
  5
1399
330
4E
100
AcDbEntity
  8
0
390
1D
100
AcDbBlockEnd
  0
BLOCK
  5
68B
330
68A
100
AcDbEntity
  8
0
100
AcDbBlockBegin
  2
名称未設定-1
 70
     0
 10
0.0
 20
0.0
 30
0.0
  3
名称未設定-1
  1
名称未設定-1
  0
INSERT
  5
68F
330
68A
100
AcDbEntity
  8
LOGO
100
AcDbBlockReference
  2
block 3
 10
0.0
 20
0.0
 30
0.0
  0
ENDBLK
  5
6B1
330
68A
100
AcDbEntity
  8
0
100
AcDbBlockEnd
  0
BLOCK
  5
68E
330
68D
100
AcDbEntity
  8
0
100
AcDbBlockBegin
  2
block 2
 70
     0
 10
0.0
 20
0.0
 30
0.0
  3
block 2
  1
block 2
  0
ENDBLK
  5
6B0
330
68D
100
AcDbEntity
  8
0
100
AcDbBlockEnd
  0
BLOCK
  5
691
330
690
100
AcDbEntity
  8
0
100
AcDbBlockBegin
  2
block 3
 70
     0
 10
0.0
 20
0.0
 30
0.0
  3
block 3
  1
block 3
  0
INSERT
  5
692
330
690
100
AcDbEntity
  8
LOGO
100
AcDbBlockReference
  2
block 4
 10
0.0
 20
0.0
 30
0.0
  0
INSERT
  5
6A1
330
690
100
AcDbEntity
  8
LOGO
100
AcDbBlockReference
  2
block 5
 10
0.0
 20
0.0
 30
0.0
  0
ENDBLK
  5
6AF
330
690
100
AcDbEntity
  8
0
100
AcDbBlockEnd
  0
BLOCK
  5
694
330
693
100
AcDbEntity
  8
0
100
AcDbBlockBegin
  2
block 4
 70
     0
 10
0.0
 20
0.0
 30
0.0
  3
block 4
  1
block 4
  0
POLYLINE
  5
695
330
693
100
AcDbEntity
  8
LOGO
370
     0
100
AcDb2dPolyline
 66
     1
 10
0.0
 20
0.0
 30
0.0
  0
VERTEX
  5
696
330
695
100
AcDbEntity
  8
LOGO
370
     0
100
AcDbVertex
100
AcDb2dVertex
 10
83.79545727667795
 20
167.6444858234922
 30
0.0
  0
VERTEX
  5
697
330
695
100
AcDbEntity
  8
LOGO
370
     0
100
AcDbVertex
100
AcDb2dVertex
 10
83.79545727667795
 20
159.7968976406313
 30
0.0
  0
VERTEX
  5
698
330
695
100
AcDbEntity
  8
LOGO
370
     0
100
AcDbVertex
100
AcDb2dVertex
 10
71.3631329975216
 20
159.7968976406313
 30
0.0
  0
VERTEX
  5
699
330
695
100
AcDbEntity
  8
LOGO
370
     0
100
AcDbVertex
100
AcDb2dVertex
 10
71.3631329975216
 20
127.8027915271048
 30
0.0
  0
VERTEX
  5
69A
330
695
100
AcDbEntity
  8
LOGO
370
     0
100
AcDbVertex
100
AcDb2dVertex
 10
60.43011526263018
 20
127.8027915271048
 30
0.0
  0
VERTEX
  5
69B
330
695
100
AcDbEntity
  8
LOGO
370
     0
100
AcDbVertex
100
AcDb2dVertex
 10
60.43011526263018
 20
159.7968976406313
 30
0.0
  0
VERTEX
  5
69C
330
695
100
AcDbEntity
  8
LOGO
370
     0
100
AcDbVertex
100
AcDb2dVertex
 10
48.21793273020759
 20
159.7968976406313
 30
0.0
  0
VERTEX
  5
69D
330
695
100
AcDbEntity
  8
LOGO
370
     0
100
AcDbVertex
100
AcDb2dVertex
 10
48.21793273020759
 20
167.6444858234922
 30
0.0
  0
VERTEX
  5
69E
330
695
100
AcDbEntity
  8
LOGO
370
     0
100
AcDbVertex
100
AcDb2dVertex
 10
83.79545727667795
 20
167.6444858234922
 30
0.0
  0
SEQEND
  5
69F
330
695
100
AcDbEntity
  8
LOGO
370
     0
  0
HATCH
  5
6A0
330
693
100
AcDbEntity
  8
LOGO
 62
   250
420
  2234388
100
AcDbHatch
 10
0.0
 20
0.0
 30
0.0
210
0.0
220
0.0
230
1.0
  2
SOLID
 70
     1
 71
     0
 91
        1
 92
        1
 93
        8
 72
     1
 10
83.79545727667795
 20
167.6444858234922
 11
83.79545727667795
 21
159.7968976406313
 72
     1
 10
83.79545727667795
 20
159.7968976406313
 11
71.3631329975216
 21
159.7968976406313
 72
     1
 10
71.3631329975216
 20
159.7968976406313
 11
71.3631329975216
 21
127.8027915271048
 72
     1
 10
71.3631329975216
 20
127.8027915271048
 11
60.43011526263018
 21
127.8027915271048
 72
     1
 10
60.43011526263018
 20
127.8027915271048
 11
60.43011526263018
 21
159.7968976406313
 72
     1
 10
60.43011526263018
 20
159.7968976406313
 11
48.21793273020759
 21
159.7968976406313
 72
     1
 10
48.21793273020759
 20
159.7968976406313
 11
48.21793273020759
 21
167.6444858234922
 72
     1
 10
48.21793273020759
 20
167.6444858234922
 11
83.79545727667795
 21
167.6444858234922
 97
        0
 75
     2
 76
     1
 98
        0
  0
ENDBLK
  5
6AE
330
693
100
AcDbEntity
  8
0
100
AcDbBlockEnd
  0
BLOCK
  5
6A3
330
6A2
100
AcDbEntity
  8
0
100
AcDbBlockBegin
  2
block 5
 70
     0
 10
0.0
 20
0.0
 30
0.0
  3
block 5
  1
block 5
  0
SPLINE
  5
6A4
330
6A2
100
AcDbEntity
  8
LOGO
370
     0
100
AcDbSpline
210
0.0
220
0.0
230
1.0
 70
    11
 71
     3
 72
    56
 73
    52
 74
     0
 42
0.000000001
 43
0.0000000001
 40
0.0
 40
0.0
 40
0.0
 40
0.0
 40
1.0
 40
1.0
 40
1.0
 40
2.0
 40
2.0
 40
2.0
 40
3.0
 40
3.0
 40
3.0
 40
4.0
 40
4.0
 40
4.0
 40
5.0
 40
5.0
 40
5.0
 40
6.0
 40
6.0
 40
6.0
 40
7.0
 40
7.0
 40
7.0
 40
8.0
 40
8.0
 40
8.0
 40
9.0
 40
9.0
 40
9.0
 40
10.0
 40
10.0
 40
10.0
 40
11.0
 40
11.0
 40
11.0
 40
12.0
 40
12.0
 40
12.0
 40
13.0
 40
13.0
 40
13.0
 40
14.0
 40
14.0
 40
14.0
 40
15.0
 40
15.0
 40
15.0
 40
16.0
 40
16.0
 40
16.0
 40
17.0
 40
17.0
 40
17.0
 40
17.0
 10
100.4504378777679
 20
166.69157178364
 30
0.0
 10
101.9848844191641
 20
167.1313385124438
 30
0.0
 10
103.9637485713373
 20
166.7649523658846
 30
0.0
 10
103.9637485713373
 20
166.7649523658846
 30
0.0
 10
103.9637485713373
 20
166.7649523658846
 30
0.0
 10
103.0132460999156
 20
163.911205638077
 30
0.0
 10
103.0132460999156
 20
163.911205638077
 30
0.0
 10
103.0132460999156
 20
163.911205638077
 30
0.0
 10
101.0674548862189
 20
164.3601018759394
 30
0.0
 10
99.57090442016032
 20
163.1805004036133
 30
0.0
 10
98.40508333886608
 20
162.258247733807
 30
0.0
 10
97.65301849830304
 20
159.804132345923
 30
0.0
 10
97.3598406791005
 20
158.8699940888517
 30
0.0
 10
97.3598406791005
 20
158.8699940888517
 30
0.0
 10
96.07137411762282
 20
154.9119212747295
 30
0.0
 10
96.07137411762282
 20
154.9119212747295
 30
0.0
 10
96.07137411762282
 20
154.9119212747295
 30
0.0
 10
100.3012651448482
 20
154.9119212747295
 30
0.0
 10
100.3012651448482
 20
154.9119212747295
 30
0.0
 10
100.3012651448482
 20
154.9119212747295
 30
0.0
 10
99.64152892419852
 20
152.4199098115079
 30
0.0
 10
99.64152892419852
 20
152.4199098115079
 30
0.0
 10
99.64152892419852
 20
152.4199098115079
 30
0.0
 10
95.38097652692731
 20
152.4199098115079
 30
0.0
 10
95.38097652692731
 20
152.4199098115079
 30
0.0
 10
95.38097652692731
 20
152.4199098115079
 30
0.0
 10
87.75353009080013
 20
127.8027915271048
 30
0.0
 10
87.75353009080013
 20
127.8027915271048
 30
0.0
 10
87.75353009080013
 20
127.8027915271048
 30
0.0
 10
85.36538832498108
 20
127.8027915271048
 30
0.0
 10
85.36538832498108
 20
127.8027915271048
 30
0.0
 10
85.36538832498108
 20
127.8027915271048
 30
0.0
 10
93.00006946639998
 20
152.4199098115079
 30
0.0
 10
93.00006946639998
 20
152.4199098115079
 30
0.0
 10
93.00006946639998
 20
152.4199098115079
 30
0.0
 10
89.85297266450198
 20
152.4199098115079
 30
0.0
 10
89.85297266450198
 20
152.4199098115079
 30
0.0
 10
89.85297266450198
 20
152.4199098115079
 30
0.0
 10
90.51270888515164
 20
154.9119212747295
 30
0.0
 10
90.51270888515164
 20
154.9119212747295
 30
0.0
 10
90.51270888515164
 20
154.9119212747295
 30
0.0
 10
93.6904670570955
 20
154.9119212747295
 30
0.0
 10
93.6904670570955
 20
154.9119212747295
 30
0.0
 10
93.6904670570955
 20
154.9119212747295
 30
0.0
 10
94.81598049462158
 20
158.3616699146644
 30
0.0
 10
94.81598049462158
 20
158.3616699146644
 30
0.0
 10
95.7237637538445
 20
161.2605474231013
 30
0.0
 10
96.4968436907311
 20
162.8139420021662
 30
0.0
 10
97.15657991138076
 20
163.9844139654337
 30
0.0
 10
97.81183750494507
 20
165.1523021053827
 30
0.0
 10
99.1047826935081
 20
166.3084769129547
 30
0.0
 10
100.4504378777679
 20
166.69157178364
 30
0.0
  0
HATCH
  5
6A5
330
6A2
100
AcDbEntity
  8
LOGO
 62
   250
420
  2234388
100
AcDbHatch
 10
0.0
 20
0.0
 30
0.0
210
0.0
220
0.0
230
1.0
  2
SOLID
 70
     1
 71
     0
 91
        1
 92
        1
 93
        1
 72
     4
 94
        3
 73
     0
 74
     1
 95
       56
 96
       52
 40
0.0
 40
0.0
 40
0.0
 40
0.0
 40
1.0
 40
1.0
 40
1.0
 40
2.0
 40
2.0
 40
2.0
 40
3.0
 40
3.0
 40
3.0
 40
4.0
 40
4.0
 40
4.0
 40
5.0
 40
5.0
 40
5.0
 40
6.0
 40
6.0
 40
6.0
 40
7.0
 40
7.0
 40
7.0
 40
8.0
 40
8.0
 40
8.0
 40
9.0
 40
9.0
 40
9.0
 40
10.0
 40
10.0
 40
10.0
 40
11.0
 40
11.0
 40
11.0
 40
12.0
 40
12.0
 40
12.0
 40
13.0
 40
13.0
 40
13.0
 40
14.0
 40
14.0
 40
14.0
 40
15.0
 40
15.0
 40
15.0
 40
16.0
 40
16.0
 40
16.0
 40
17.0
 40
17.0
 40
17.0
 40
17.0
 10
100.4504378777679
 20
166.69157178364
 10
101.9848844191641
 20
167.1313385124438
 10
103.9637485713373
 20
166.7649523658846
 10
103.9637485713373
 20
166.7649523658846
 10
103.9637485713373
 20
166.7649523658846
 10
103.0132460999156
 20
163.911205638077
 10
103.0132460999156
 20
163.911205638077
 10
103.0132460999156
 20
163.911205638077
 10
101.0674548862189
 20
164.3601018759394
 10
99.57090442016032
 20
163.1805004036133
 10
98.40508333886608
 20
162.258247733807
 10
97.65301849830304
 20
159.804132345923
 10
97.3598406791005
 20
158.8699940888517
 10
97.3598406791005
 20
158.8699940888517
 10
96.07137411762282
 20
154.9119212747295
 10
96.07137411762282
 20
154.9119212747295
 10
96.07137411762282
 20
154.9119212747295
 10
100.3012651448482
 20
154.9119212747295
 10
100.3012651448482
 20
154.9119212747295
 10
100.3012651448482
 20
154.9119212747295
 10
99.64152892419852
 20
152.4199098115079
 10
99.64152892419852
 20
152.4199098115079
 10
99.64152892419852
 20
152.4199098115079
 10
95.38097652692731
 20
152.4199098115079
 10
95.38097652692731
 20
152.4199098115079
 10
95.38097652692731
 20
152.4199098115079
 10
87.75353009080013
 20
127.8027915271048
 10
87.75353009080013
 20
127.8027915271048
 10
87.75353009080013
 20
127.8027915271048
 10
85.36538832498108
 20
127.8027915271048
 10
85.36538832498108
 20
127.8027915271048
 10
85.36538832498108
 20
127.8027915271048
 10
93.00006946639998
 20
152.4199098115079
 10
93.00006946639998
 20
152.4199098115079
 10
93.00006946639998
 20
152.4199098115079
 10
89.85297266450198
 20
152.4199098115079
 10
89.85297266450198
 20
152.4199098115079
 10
89.85297266450198
 20
152.4199098115079
 10
90.51270888515164
 20
154.9119212747295
 10
90.51270888515164
 20
154.9119212747295
 10
90.51270888515164
 20
154.9119212747295
 10
93.6904670570955
 20
154.9119212747295
 10
93.6904670570955
 20
154.9119212747295
 10
93.6904670570955
 20
154.9119212747295
 10
94.81598049462158
 20
158.3616699146644
 10
94.81598049462158
 20
158.3616699146644
 10
95.7237637538445
 20
161.2605474231013
 10
96.4968436907311
 20
162.8139420021662
 10
97.15657991138076
 20
163.9844139654337
 10
97.81183750494507
 20
165.1523021053827
 10
99.1047826935081
 20
166.3084769129547
 10
100.4504378777679
 20
166.69157178364
 97
        0
 75
     2
 76
     1
 98
        0
  0
SPLINE
  5
6A6
330
6A2
100
AcDbEntity
  8
LOGO
370
     0
100
AcDbSpline
210
0.0
220
0.0
230
1.0
 70
    11
 71
     3
 72
    38
 73
    34
 74
     0
 42
0.000000001
 43
0.0000000001
 40
0.0
 40
0.0
 40
0.0
 40
0.0
 40
1.0
 40
1.0
 40
1.0
 40
2.0
 40
2.0
 40
2.0
 40
3.0
 40
3.0
 40
3.0
 40
4.0
 40
4.0
 40
4.0
 40
5.0
 40
5.0
 40
5.0
 40
6.0
 40
6.0
 40
6.0
 40
7.0
 40
7.0
 40
7.0
 40
8.0
 40
8.0
 40
8.0
 40
9.0
 40
9.0
 40
9.0
 40
10.0
 40
10.0
 40
10.0
 40
11.0
 40
11.0
 40
11.0
 40
11.0
 10
126.377554584636
 20
154.8151140277308
 30
0.0
 10
126.377554584636
 20
154.8151140277308
 30
0.0
 10
128.8311532078563
 20
154.8151140277308
 30
0.0
 10
128.8311532078563
 20
154.8151140277308
 30
0.0
 10
128.8311532078563
 20
154.8151140277308
 30
0.0
 10
127.7345785914971
 20
151.3062819612468
 30
0.0
 10
127.7345785914971
 20
151.3062819612468
 30
0.0
 10
128.571392836906
 20
152.2922689395754
 30
0.0
 10
129.8860421413442
 20
153.604506675583
 30
0.0
 10
131.0163787157314
 20
154.2664822097754
 30
0.0
 10
132.7044766171327
 20
155.2500576196734
 30
0.0
 10
133.6642808525008
 20
155.3847609420097
 30
0.0
 10
134.7284715499351
 20
155.3565111403944
 30
0.0
 10
134.7284715499351
 20
155.3565111403944
 30
0.0
 10
133.6877075172549
 20
152.0345756272799
 30
0.0
 10
133.6877075172549
 20
152.0345756272799
 30
0.0
 10
133.011434827367
 20
152.3184516825359
 30
0.0
 10
130.930940291334
 20
151.7768823149844
 30
0.0
 10
129.739280976855
 20
150.9162968950455
 30
0.0
 10
128.66613302525
 20
150.1454562717016
 30
0.0
 10
127.9192358313239
 20
149.4857200510519
 30
0.0
 10
127.0393578639405
 20
147.8282835196966
 30
0.0
 10
126.164647543194
 20
146.1699857139017
 30
0.0
 10
125.4742499524985
 20
143.5262176944419
 30
0.0
 10
124.2822461282437
 20
139.6959580071401
 30
0.0
 10
124.2822461282437
 20
139.6959580071401
 30
0.0
 10
120.5753209406769
 20
127.8027915271048
 30
0.0
 10
120.5753209406769
 20
127.8027915271048
 30
0.0
 10
120.5753209406769
 20
127.8027915271048
 30
0.0
 10
118.1964809388044
 20
127.8027915271048
 30
0.0
 10
118.1964809388044
 20
127.8027915271048
 30
0.0
 10
118.1964809388044
 20
127.8027915271048
 30
0.0
 10
126.377554584636
 20
154.8151140277308
 30
0.0
 10
126.377554584636
 20
154.8151140277308
 30
0.0
  0
HATCH
  5
6A7
330
6A2
100
AcDbEntity
  8
LOGO
 62
   250
420
  2234388
100
AcDbHatch
 10
0.0
 20
0.0
 30
0.0
210
0.0
220
0.0
230
1.0
  2
SOLID
 70
     1
 71
     0
 91
        1
 92
        1
 93
        1
 72
     4
 94
        3
 73
     0
 74
     1
 95
       38
 96
       34
 40
0.0
 40
0.0
 40
0.0
 40
0.0
 40
1.0
 40
1.0
 40
1.0
 40
2.0
 40
2.0
 40
2.0
 40
3.0
 40
3.0
 40
3.0
 40
4.0
 40
4.0
 40
4.0
 40
5.0
 40
5.0
 40
5.0
 40
6.0
 40
6.0
 40
6.0
 40
7.0
 40
7.0
 40
7.0
 40
8.0
 40
8.0
 40
8.0
 40
9.0
 40
9.0
 40
9.0
 40
10.0
 40
10.0
 40
10.0
 40
11.0
 40
11.0
 40
11.0
 40
11.0
 10
126.377554584636
 20
154.8151140277308
 10
126.377554584636
 20
154.8151140277308
 10
128.8311532078563
 20
154.8151140277308
 10
128.8311532078563
 20
154.8151140277308
 10
128.8311532078563
 20
154.8151140277308
 10
127.7345785914971
 20
151.3062819612468
 10
127.7345785914971
 20
151.3062819612468
 10
128.571392836906
 20
152.2922689395754
 10
129.8860421413442
 20
153.604506675583
 10
131.0163787157314
 20
154.2664822097754
 10
132.7044766171327
 20
155.2500576196734
 10
133.6642808525008
 20
155.3847609420097
 10
134.7284715499351
 20
155.3565111403944
 10
134.7284715499351
 20
155.3565111403944
 10
133.6877075172549
 20
152.0345756272799
 10
133.6877075172549
 20
152.0345756272799
 10
133.011434827367
 20
152.3184516825359
 10
130.930940291334
 20
151.7768823149844
 10
129.739280976855
 20
150.9162968950455
 10
128.66613302525
 20
150.1454562717016
 10
127.9192358313239
 20
149.4857200510519
 10
127.0393578639405
 20
147.8282835196966
 10
126.164647543194
 20
146.1699857139017
 10
125.4742499524985
 20
143.5262176944419
 10
124.2822461282437
 20
139.6959580071401
 10
124.2822461282437
 20
139.6959580071401
 10
120.5753209406769
 20
127.8027915271048
 10
120.5753209406769
 20
127.8027915271048
 10
120.5753209406769
 20
127.8027915271048
 10
118.1964809388044
 20
127.8027915271048
 10
118.1964809388044
 20
127.8027915271048
 10
118.1964809388044
 20
127.8027915271048
 10
126.377554584636
 20
154.8151140277308
 10
126.377554584636
 20
154.8151140277308
 97
        0
 75
     2
 76
     1
 98
        0
  0
SPLINE
  5
6A8
330
6A2
100
AcDbEntity
  8
LOGO
370
     0
100
AcDbSpline
210
0.0
220
0.0
230
1.0
 70
    11
 71
     3
 72
   104
 73
   100
 74
     0
 42
0.000000001
 43
0.0000000001
 40
0.0
 40
0.0
 40
0.0
 40
0.0
 40
1.0
 40
1.0
 40
1.0
 40
2.0
 40
2.0
 40
2.0
 40
3.0
 40
3.0
 40
3.0
 40
4.0
 40
4.0
 40
4.0
 40
5.0
 40
5.0
 40
5.0
 40
6.0
 40
6.0
 40
6.0
 40
7.0
 40
7.0
 40
7.0
 40
8.0
 40
8.0
 40
8.0
 40
9.0
 40
9.0
 40
9.0
 40
10.0
 40
10.0
 40
10.0
 40
11.0
 40
11.0
 40
11.0
 40
12.0
 40
12.0
 40
12.0
 40
13.0
 40
13.0
 40
13.0
 40
14.0
 40
14.0
 40
14.0
 40
15.0
 40
15.0
 40
15.0
 40
16.0
 40
16.0
 40
16.0
 40
17.0
 40
17.0
 40
17.0
 40
18.0
 40
18.0
 40
18.0
 40
19.0
 40
19.0
 40
19.0
 40
20.0
 40
20.0
 40
20.0
 40
21.0
 40
21.0
 40
21.0
 40
22.0
 40
22.0
 40
22.0
 40
23.0
 40
23.0
 40
23.0
 40
24.0
 40
24.0
 40
24.0
 40
25.0
 40
25.0
 40
25.0
 40
26.0
 40
26.0
 40
26.0
 40
27.0
 40
27.0
 40
27.0
 40
28.0
 40
28.0
 40
28.0
 40
29.0
 40
29.0
 40
29.0
 40
30.0
 40
30.0
 40
30.0
 40
31.0
 40
31.0
 40
31.0
 40
32.0
 40
32.0
 40
32.0
 40
33.0
 40
33.0
 40
33.0
 40
33.0
 10
139.8926730891197
 20
154.8294111834263
 30
0.0
 10
139.8926730891197
 20
154.8294111834263
 30
0.0
 10
142.0344903652445
 20
154.8294111834263
 30
0.0
 10
142.0344903652445
 20
154.8294111834263
 30
0.0
 10
142.0344903652445
 20
154.8294111834263
 30
0.0
 10
140.9516961399171
 20
151.3157559800812
 30
0.0
 10
140.9516961399171
 20
151.3157559800812
 30
0.0
 10
141.8928968473923
 20
152.7887075264977
 30
0.0
 10
142.7341897198865
 20
153.4484437471474
 30
0.0
 10
143.8552245303272
 20
154.2926649527359
 30
0.0
 10
144.9803934580775
 20
155.1296514530327
 30
0.0
 10
146.3139908001845
 20
155.3044901642492
 30
0.0
 10
147.241066606852
 20
155.3044901642492
 30
0.0
 10
148.3855280820469
 20
155.3044901642492
 30
0.0
 10
149.4969166187653
 20
155.0752189084569
 30
0.0
 10
150.0784491203092
 20
153.8172414621372
 30
0.0
 10
150.5228667310863
 20
152.833838307127
 30
0.0
 10
150.5414702589793
 20
152.7201500811143
 30
0.0
 10
150.4140016419347
 20
150.7765981809602
 30
0.0
 10
151.5818897818837
 20
152.7699317437168
 30
0.0
 10
152.4424752018226
 20
153.6256940267945
 30
0.0
 10
153.9038856707499
 20
154.4507949398263
 30
0.0
 10
155.4455669174378
 20
155.3044901642492
 30
0.0
 10
156.339225275853
 20
155.3659851592288
 30
0.0
 10
157.3748216618963
 20
155.2147453676543
 30
0.0
 10
158.911679771723
 20
154.9877134254046
 30
0.0
 10
159.8859534176746
 20
154.4390816074493
 30
0.0
 10
160.3965169054045
 20
152.7816450760939
 30
0.0
 10
160.9070803931344
 20
151.1219692311958
 30
0.0
 10
160.6328506116007
 20
150.2303779314354
 30
0.0
 10
159.9992971339115
 20
147.597634224801
 30
0.0
 10
159.7105979417943
 20
146.4014962832367
 30
0.0
 10
159.2947746424084
 20
144.9400858143094
 30
0.0
 10
158.7463150793409
 20
143.2092687007094
 30
0.0
 10
158.7463150793409
 20
143.2092687007094
 30
0.0
 10
153.9038856707499
 20
127.8027915271048
 30
0.0
 10
153.9038856707499
 20
127.8027915271048
 30
0.0
 10
153.9038856707499
 20
127.8027915271048
 30
0.0
 10
151.3882752878863
 20
127.8027915271048
 30
0.0
 10
151.3882752878863
 20
127.8027915271048
 30
0.0
 10
151.3882752878863
 20
127.8027915271048
 30
0.0
 10
155.6250565106276
 20
141.2751908193897
 30
0.0
 10
155.6250565106276
 20
141.2751908193897
 30
0.0
 10
156.5094131050963
 20
144.0936252951782
 30
0.0
 10
157.109893644309
 20
146.1506931664571
 30
0.0
 10
157.4220195011804
 20
147.4415712963654
 30
0.0
 10
157.8095929989511
 20
149.0530157726519
 30
0.0
 10
157.9656559273867
 20
149.5826995529385
 30
0.0
 10
157.7816877071116
 20
150.7529992613181
 30
0.0
 10
157.6111553680925
 20
151.8430281919372
 30
0.0
 10
157.0582171779396
 20
152.5547853887321
 30
0.0
 10
156.1170164704645
 20
152.5547853887321
 30
0.0
 10
155.1096698860365
 20
152.5547853887321
 30
0.0
 10
154.2962823053817
 20
152.4412694176073
 30
0.0
 10
153.156643967048
 20
151.2945686288697
 30
0.0
 10
152.0170056287143
 20
150.1476955852443
 30
0.0
 10
151.076149431015
 20
148.7930831468137
 30
0.0
 10
150.3337308641742
 20
147.2290087646991
 30
0.0
 10
149.5957909244188
 20
145.6683794803425
 30
0.0
 10
148.8530278478023
 20
143.6822806228776
 30
0.0
 10
148.0964843801539
 20
141.2751908193897
 30
0.0
 10
148.0964843801539
 20
141.2751908193897
 30
0.0
 10
143.8552245303272
 20
127.8027915271048
 30
0.0
 10
143.8552245303272
 20
127.8027915271048
 30
0.0
 10
143.8552245303272
 20
127.8027915271048
 30
0.0
 10
141.486030802177
 20
127.8027915271048
 30
0.0
 10
141.486030802177
 20
127.8027915271048
 30
0.0
 10
141.486030802177
 20
127.8027915271048
 30
0.0
 10
146.3329388378533
 20
143.2092687007094
 30
0.0
 10
146.3329388378533
 20
143.2092687007094
 30
0.0
 10
146.8483254624444
 20
144.8408669988801
 30
0.0
 10
147.2314203331297
 20
146.1837661049335
 30
0.0
 10
147.4867020769946
 20
147.224185627838
 30
0.0
 10
147.9169947869641
 20
149.0197705792876
 30
0.0
 10
148.0306830129768
 20
150.2400242051577
 30
0.0
 10
147.709255392159
 20
151.3157559800812
 30
0.0
 10
147.3874832615654
 20
152.3916600098926
 30
0.0
 10
146.8245542879144
 20
152.6683013598569
 30
0.0
 10
145.8840425999909
 20
152.6683013598569
 30
0.0
 10
145.0989048209514
 20
152.6683013598569
 30
0.0
 10
144.3282364524954
 20
152.3275811915945
 30
0.0
 10
143.4531816219731
 20
151.6538923250251
 30
0.0
 10
142.34627171234
 20
150.8074318058939
 30
0.0
 10
141.901854101563
 20
150.1097995099067
 30
0.0
 10
141.3578731655808
 20
149.289521733736
 30
0.0
 10
140.6299240093235
 20
148.192602607601
 30
0.0
 10
140.2850697237515
 20
147.455696197173
 30
0.0
 10
139.6652966370942
 20
145.8385673095858
 30
0.0
 10
139.0506911970739
 20
144.2214384219986
 30
0.0
 10
138.463991048893
 20
142.3252566160164
 30
0.0
 10
138.0571250036777
 20
141.0154304484394
 30
0.0
 10
138.0571250036777
 20
141.0154304484394
 30
0.0
 10
133.9009590684727
 20
127.8027915271048
 30
0.0
 10
133.9009590684727
 20
127.8027915271048
 30
0.0
 10
133.9009590684727
 20
127.8027915271048
 30
0.0
 10
131.4180771143097
 20
127.8027915271048
 30
0.0
 10
131.4180771143097
 20
127.8027915271048
 30
0.0
 10
131.4180771143097
 20
127.8027915271048
 30
0.0
 10
139.8926730891197
 20
154.8294111834263
 30
0.0
 10
139.8926730891197
 20
154.8294111834263
 30
0.0
  0
HATCH
  5
6A9
330
6A2
100
AcDbEntity
  8
LOGO
 62
   250
420
  2234388
100
AcDbHatch
 10
0.0
 20
0.0
 30
0.0
210
0.0
220
0.0
230
1.0
  2
SOLID
 70
     1
 71
     0
 91
        1
 92
        1
 93
        1
 72
     4
 94
        3
 73
     0
 74
     1
 95
      104
 96
      100
 40
0.0
 40
0.0
 40
0.0
 40
0.0
 40
1.0
 40
1.0
 40
1.0
 40
2.0
 40
2.0
 40
2.0
 40
3.0
 40
3.0
 40
3.0
 40
4.0
 40
4.0
 40
4.0
 40
5.0
 40
5.0
 40
5.0
 40
6.0
 40
6.0
 40
6.0
 40
7.0
 40
7.0
 40
7.0
 40
8.0
 40
8.0
 40
8.0
 40
9.0
 40
9.0
 40
9.0
 40
10.0
 40
10.0
 40
10.0
 40
11.0
 40
11.0
 40
11.0
 40
12.0
 40
12.0
 40
12.0
 40
13.0
 40
13.0
 40
13.0
 40
14.0
 40
14.0
 40
14.0
 40
15.0
 40
15.0
 40
15.0
 40
16.0
 40
16.0
 40
16.0
 40
17.0
 40
17.0
 40
17.0
 40
18.0
 40
18.0
 40
18.0
 40
19.0
 40
19.0
 40
19.0
 40
20.0
 40
20.0
 40
20.0
 40
21.0
 40
21.0
 40
21.0
 40
22.0
 40
22.0
 40
22.0
 40
23.0
 40
23.0
 40
23.0
 40
24.0
 40
24.0
 40
24.0
 40
25.0
 40
25.0
 40
25.0
 40
26.0
 40
26.0
 40
26.0
 40
27.0
 40
27.0
 40
27.0
 40
28.0
 40
28.0
 40
28.0
 40
29.0
 40
29.0
 40
29.0
 40
30.0
 40
30.0
 40
30.0
 40
31.0
 40
31.0
 40
31.0
 40
32.0
 40
32.0
 40
32.0
 40
33.0
 40
33.0
 40
33.0
 40
33.0
 10
139.8926730891197
 20
154.8294111834263
 10
139.8926730891197
 20
154.8294111834263
 10
142.0344903652445
 20
154.8294111834263
 10
142.0344903652445
 20
154.8294111834263
 10
142.0344903652445
 20
154.8294111834263
 10
140.9516961399171
 20
151.3157559800812
 10
140.9516961399171
 20
151.3157559800812
 10
141.8928968473923
 20
152.7887075264977
 10
142.7341897198865
 20
153.4484437471474
 10
143.8552245303272
 20
154.2926649527359
 10
144.9803934580775
 20
155.1296514530327
 10
146.3139908001845
 20
155.3044901642492
 10
147.241066606852
 20
155.3044901642492
 10
148.3855280820469
 20
155.3044901642492
 10
149.4969166187653
 20
155.0752189084569
 10
150.0784491203092
 20
153.8172414621372
 10
150.5228667310863
 20
152.833838307127
 10
150.5414702589793
 20
152.7201500811143
 10
150.4140016419347
 20
150.7765981809602
 10
151.5818897818837
 20
152.7699317437168
 10
152.4424752018226
 20
153.6256940267945
 10
153.9038856707499
 20
154.4507949398263
 10
155.4455669174378
 20
155.3044901642492
 10
156.339225275853
 20
155.3659851592288
 10
157.3748216618963
 20
155.2147453676543
 10
158.911679771723
 20
154.9877134254046
 10
159.8859534176746
 20
154.4390816074493
 10
160.3965169054045
 20
152.7816450760939
 10
160.9070803931344
 20
151.1219692311958
 10
160.6328506116007
 20
150.2303779314354
 10
159.9992971339115
 20
147.597634224801
 10
159.7105979417943
 20
146.4014962832367
 10
159.2947746424084
 20
144.9400858143094
 10
158.7463150793409
 20
143.2092687007094
 10
158.7463150793409
 20
143.2092687007094
 10
153.9038856707499
 20
127.8027915271048
 10
153.9038856707499
 20
127.8027915271048
 10
153.9038856707499
 20
127.8027915271048
 10
151.3882752878863
 20
127.8027915271048
 10
151.3882752878863
 20
127.8027915271048
 10
151.3882752878863
 20
127.8027915271048
 10
155.6250565106276
 20
141.2751908193897
 10
155.6250565106276
 20
141.2751908193897
 10
156.5094131050963
 20
144.0936252951782
 10
157.109893644309
 20
146.1506931664571
 10
157.4220195011804
 20
147.4415712963654
 10
157.8095929989511
 20
149.0530157726519
 10
157.9656559273867
 20
149.5826995529385
 10
157.7816877071116
 20
150.7529992613181
 10
157.6111553680925
 20
151.8430281919372
 10
157.0582171779396
 20
152.5547853887321
 10
156.1170164704645
 20
152.5547853887321
 10
155.1096698860365
 20
152.5547853887321
 10
154.2962823053817
 20
152.4412694176073
 10
153.156643967048
 20
151.2945686288697
 10
152.0170056287143
 20
150.1476955852443
 10
151.076149431015
 20
148.7930831468137
 10
150.3337308641742
 20
147.2290087646991
 10
149.5957909244188
 20
145.6683794803425
 10
148.8530278478023
 20
143.6822806228776
 10
148.0964843801539
 20
141.2751908193897
 10
148.0964843801539
 20
141.2751908193897
 10
143.8552245303272
 20
127.8027915271048
 10
143.8552245303272
 20
127.8027915271048
 10
143.8552245303272
 20
127.8027915271048
 10
141.486030802177
 20
127.8027915271048
 10
141.486030802177
 20
127.8027915271048
 10
141.486030802177
 20
127.8027915271048
 10
146.3329388378533
 20
143.2092687007094
 10
146.3329388378533
 20
143.2092687007094
 10
146.8483254624444
 20
144.8408669988801
 10
147.2314203331297
 20
146.1837661049335
 10
147.4867020769946
 20
147.224185627838
 10
147.9169947869641
 20
149.0197705792876
 10
148.0306830129768
 20
150.2400242051577
 10
147.709255392159
 20
151.3157559800812
 10
147.3874832615654
 20
152.3916600098926
 10
146.8245542879144
 20
152.6683013598569
 10
145.8840425999909
 20
152.6683013598569
 10
145.0989048209514
 20
152.6683013598569
 10
144.3282364524954
 20
152.3275811915945
 10
143.4531816219731
 20
151.6538923250251
 10
142.34627171234
 20
150.8074318058939
 10
141.901854101563
 20
150.1097995099067
 10
141.3578731655808
 20
149.289521733736
 10
140.6299240093235
 20
148.192602607601
 10
140.2850697237515
 20
147.455696197173
 10
139.6652966370942
 20
145.8385673095858
 10
139.0506911970739
 20
144.2214384219986
 10
138.463991048893
 20
142.3252566160164
 10
138.0571250036777
 20
141.0154304484394
 10
138.0571250036777
 20
141.0154304484394
 10
133.9009590684727
 20
127.8027915271048
 10
133.9009590684727
 20
127.8027915271048
 10
133.9009590684727
 20
127.8027915271048
 10
131.4180771143097
 20
127.8027915271048
 10
131.4180771143097
 20
127.8027915271048
 10
131.4180771143097
 20
127.8027915271048
 10
139.8926730891197
 20
154.8294111834263
 10
139.8926730891197
 20
154.8294111834263
 97
        0
 75
     2
 76
     1
 98
        0
  0
SPLINE
  5
6AA
330
6A2
100
AcDbEntity
  8
LOGO
370
     0
100
AcDbSpline
210
0.0
220
0.0
230
1.0
 70
    11
 71
     3
 72
    29
 73
    25
 74
     0
 42
0.000000001
 43
0.0000000001
 40
0.0
 40
0.0
 40
0.0
 40
0.0
 40
1.0
 40
1.0
 40
1.0
 40
2.0
 40
2.0
 40
2.0
 40
3.0
 40
3.0
 40
3.0
 40
4.0
 40
4.0
 40
4.0
 40
5.0
 40
5.0
 40
5.0
 40
6.0
 40
6.0
 40
6.0
 40
7.0
 40
7.0
 40
7.0
 40
8.0
 40
8.0
 40
8.0
 40
8.0
 10
101.6420971922469
 20
132.8388354296931
 30
0.0
 10
101.630039350094
 20
134.7164137077823
 30
0.0
 10
102.2236296937908
 20
138.0598810818841
 30
0.0
 10
103.7487744712405
 20
142.5378191476827
 30
0.0
 10
105.819967243327
 20
148.5896501242061
 30
0.0
 10
107.0602024361932
 20
150.8074318058939
 30
0.0
 10
108.1522984254671
 20
151.8833358357054
 30
0.0
 10
109.741177511439
 20
153.4532668840085
 30
0.0
 10
111.8740375333931
 20
153.5290590346837
 30
0.0
 10
112.5075910110823
 20
153.4532668840085
 30
0.0
 10
113.4012493694975
 20
153.3490526768302
 30
0.0
 10
114.6683563248758
 20
152.7580461564518
 30
0.0
 10
114.7493161221879
 20
150.7838328862519
 30
0.0
 10
114.8106388622796
 20
149.0909118479895
 30
0.0
 10
114.3186789024427
 20
145.9191825971221
 30
0.0
 10
112.6164561002338
 20
140.9489400617108
 30
0.0
 10
110.6444821435766
 20
135.1746117095912
 30
0.0
 10
109.4669477299053
 20
132.8960240524753
 30
0.0
 10
108.5212683953448
 20
131.9072809959403
 30
0.0
 10
106.7346406980658
 20
130.0538184021569
 30
0.0
 10
104.8222669326213
 20
130.2336525051225
 30
0.0
 10
104.5408024457958
 20
130.2336525051225
 30
0.0
 10
104.1721769856939
 20
130.2336525051225
 30
0.0
 10
101.6465758193322
 20
130.6305277668397
 30
0.0
 10
101.6420971922469
 20
132.8388354296931
 30
0.0
  0
SPLINE
  5
6AB
330
6A2
100
AcDbEntity
  8
LOGO
370
     0
100
AcDbSpline
210
0.0
220
0.0
230
1.0
 70
    11
 71
     3
 72
    32
 73
    28
 74
     0
 42
0.000000001
 43
0.0000000001
 40
0.0
 40
0.0
 40
0.0
 40
0.0
 40
1.0
 40
1.0
 40
1.0
 40
2.0
 40
2.0
 40
2.0
 40
3.0
 40
3.0
 40
3.0
 40
4.0
 40
4.0
 40
4.0
 40
5.0
 40
5.0
 40
5.0
 40
6.0
 40
6.0
 40
6.0
 40
7.0
 40
7.0
 40
7.0
 40
8.0
 40
8.0
 40
8.0
 40
9.0
 40
9.0
 40
9.0
 40
9.0
 10
106.2595617172429
 20
153.4105476718098
 30
0.0
 10
104.8222669326213
 20
151.5474388043041
 30
0.0
 10
103.7177685914188
 20
149.8758773721411
 30
0.0
 10
101.9232171692965
 20
144.6141795664062
 30
0.0
 10
100.2754269116635
 20
139.7999999594306
 30
0.0
 10
99.22777268346732
 20
136.3052927937542
 30
0.0
 10
99.06964269637689
 20
132.039572749846
 30
0.0
 10
98.94665270641765
 20
128.8673267343149
 30
0.0
 10
100.8807305877373
 20
127.8027915271048
 30
0.0
 10
103.7129454545577
 20
127.8027915271048
 30
0.0
 10
104.9352661390825
 20
127.8027915271048
 30
0.0
 10
108.0151835347002
 20
127.8827177950895
 30
0.0
 10
110.2045431598849
 20
130.5926316915021
 30
0.0
 10
111.7417457794874
 20
132.4984597712065
 30
0.0
 10
113.155269389579
 20
134.475256864725
 30
0.0
 10
115.0562743324223
 20
140.9489400617108
 30
0.0
 10
116.6361961642235
 20
146.3680788349845
 30
0.0
 10
117.7282921534974
 20
149.8639917848761
 30
0.0
 10
117.6480213757369
 20
151.8595646611754
 30
0.0
 10
117.6480213757369
 20
151.8595646611754
 30
0.0
 10
117.6480213757369
 20
151.8595646611754
 30
0.0
 10
117.6480213757369
 20
151.8595646611754
 30
0.0
 10
117.13229024137
 20
155.18150017429
 30
0.0
 10
114.7162431837115
 20
155.886194920681
 30
0.0
 10
113.3351034925446
 20
155.886194920681
 30
0.0
 10
111.9829026225447
 20
155.886194920681
 30
0.0
 10
108.3414342923792
 20
156.1251124501957
 30
0.0
 10
106.2595617172429
 20
153.4105476718098
 30
0.0
  0
HATCH
  5
6AC
330
6A2
100
AcDbEntity
  8
LOGO
 62
   250
420
  2234388
100
AcDbHatch
 10
0.0
 20
0.0
 30
0.0
210
0.0
220
0.0
230
1.0
  2
SOLID
 70
     1
 71
     0
 91
        2
 92
        1
 93
        1
 72
     4
 94
        3
 73
     0
 74
     1
 95
       29
 96
       25
 40
0.0
 40
0.0
 40
0.0
 40
0.0
 40
1.0
 40
1.0
 40
1.0
 40
2.0
 40
2.0
 40
2.0
 40
3.0
 40
3.0
 40
3.0
 40
4.0
 40
4.0
 40
4.0
 40
5.0
 40
5.0
 40
5.0
 40
6.0
 40
6.0
 40
6.0
 40
7.0
 40
7.0
 40
7.0
 40
8.0
 40
8.0
 40
8.0
 40
8.0
 10
101.6420971922469
 20
132.8388354296931
 10
101.630039350094
 20
134.7164137077823
 10
102.2236296937908
 20
138.0598810818841
 10
103.7487744712405
 20
142.5378191476827
 10
105.819967243327
 20
148.5896501242061
 10
107.0602024361932
 20
150.8074318058939
 10
108.1522984254671
 20
151.8833358357054
 10
109.741177511439
 20
153.4532668840085
 10
111.8740375333931
 20
153.5290590346837
 10
112.5075910110823
 20
153.4532668840085
 10
113.4012493694975
 20
153.3490526768302
 10
114.6683563248758
 20
152.7580461564518
 10
114.7493161221879
 20
150.7838328862519
 10
114.8106388622796
 20
149.0909118479895
 10
114.3186789024427
 20
145.9191825971221
 10
112.6164561002338
 20
140.9489400617108
 10
110.6444821435766
 20
135.1746117095912
 10
109.4669477299053
 20
132.8960240524753
 10
108.5212683953448
 20
131.9072809959403
 10
106.7346406980658
 20
130.0538184021569
 10
104.8222669326213
 20
130.2336525051225
 10
104.5408024457958
 20
130.2336525051225
 10
104.1721769856939
 20
130.2336525051225
 10
101.6465758193322
 20
130.6305277668397
 10
101.6420971922469
 20
132.8388354296931
 97
        0
 92
        1
 93
        1
 72
     4
 94
        3
 73
     0
 74
     1
 95
       32
 96
       28
 40
0.0
 40
0.0
 40
0.0
 40
0.0
 40
1.0
 40
1.0
 40
1.0
 40
2.0
 40
2.0
 40
2.0
 40
3.0
 40
3.0
 40
3.0
 40
4.0
 40
4.0
 40
4.0
 40
5.0
 40
5.0
 40
5.0
 40
6.0
 40
6.0
 40
6.0
 40
7.0
 40
7.0
 40
7.0
 40
8.0
 40
8.0
 40
8.0
 40
9.0
 40
9.0
 40
9.0
 40
9.0
 10
106.2595617172429
 20
153.4105476718098
 10
104.8222669326213
 20
151.5474388043041
 10
103.7177685914188
 20
149.8758773721411
 10
101.9232171692965
 20
144.6141795664062
 10
100.2754269116635
 20
139.7999999594306
 10
99.22777268346732
 20
136.3052927937542
 10
99.06964269637689
 20
132.039572749846
 10
98.94665270641765
 20
128.8673267343149
 10
100.8807305877373
 20
127.8027915271048
 10
103.7129454545577
 20
127.8027915271048
 10
104.9352661390825
 20
127.8027915271048
 10
108.0151835347002
 20
127.8827177950895
 10
110.2045431598849
 20
130.5926316915021
 10
111.7417457794874
 20
132.4984597712065
 10
113.155269389579
 20
134.475256864725
 10
115.0562743324223
 20
140.9489400617108
 10
116.6361961642235
 20
146.3680788349845
 10
117.7282921534974
 20
149.8639917848761
 10
117.6480213757369
 20
151.8595646611754
 10
117.6480213757369
 20
151.8595646611754
 10
117.6480213757369
 20
151.8595646611754
 10
117.6480213757369
 20
151.8595646611754
 10
117.13229024137
 20
155.18150017429
 10
114.7162431837115
 20
155.886194920681
 10
113.3351034925446
 20
155.886194920681
 10
111.9829026225447
 20
155.886194920681
 10
108.3414342923792
 20
156.1251124501957
 10
106.2595617172429
 20
153.4105476718098
 97
        0
 75
     2
 76
     1
 98
        0
  0
ENDBLK
  5
6AD
330
6A2
100
AcDbEntity
  8
0
100
AcDbBlockEnd
  0
BLOCK
  5
1144
330
1143
100
AcDbEntity
  8
0
100
AcDbBlockBegin
  2
*D6
 70
     1
 10
0.0
 20
0.0
 30
0.0
  3
*D6
  1
*D39
  0
LINE
  5
1146
330
1143
100
AcDbEntity
  8
DIM
 62
     0
 48
5.0
370
    -2
100
AcDbLine
 10
1700.626572993122
 20
2180.856943155734
 30
0.0
 11
1719.014548152618
 21
2180.856943155734
 31
0.0
  0
LINE
  5
1147
330
1143
100
AcDbEntity
  8
DIM
 62
     0
 48
5.0
370
    -2
100
AcDbLine
 10
1700.626572993122
 20
1781.465599074151
 30
0.0
 11
1719.014548152618
 21
1781.465599074151
 31
0.0
  0
LINE
  5
1148
330
1143
100
AcDbEntity
  8
DIM
 62
     0
 48
5.0
370
    -2
100
AcDbLine
 10
1718.834548152618
 20
2180.676943155734
 30
0.0
 11
1718.834548152618
 21
1986.251271114942
 31
0.0
  0
LINE
  5
1149
330
1143
100
AcDbEntity
  8
DIM
 62
     0
 48
5.0
370
    -2
100
AcDbLine
 10
1718.834548152618
 20
1781.645599074151
 30
0.0
 11
1718.834548152618
 21
1976.071271114942
 31
0.0
  0
SOLID
  5
114A
330
1143
100
AcDbEntity
  8
DIM
 62
     0
100
AcDbTrace
 10
1718.864548152618
 20
2180.676943155734
 30
0.0
 11
1718.804548152618
 21
2180.676943155734
 31
0.0
 12
1718.834548152618
 22
2180.856943155734
 32
0.0
 13
1718.834548152618
 23
2180.856943155734
 33
0.0
  0
SOLID
  5
114B
330
1143
100
AcDbEntity
  8
DIM
 62
     0
100
AcDbTrace
 10
1718.804548152618
 20
1781.645599074151
 30
0.0
 11
1718.864548152618
 21
1781.645599074151
 31
0.0
 12
1718.834548152618
 22
1781.465599074151
 32
0.0
 13
1718.834548152618
 23
1781.465599074151
 33
0.0
  0
MTEXT
  5
114C
330
1143
100
AcDbEntity
  8
DIM
  6
Continuous
 62
     0
100
AcDbMText
 10
1718.834548152618
 20
1981.161271114942
 30
0.0
 40
10.0
 41
0.0
 46
0.0
 71
     5
 72
     1
  1
\A1;400
 73
     1
 44
1.0
  0
POINT
  5
114D
330
1143
100
AcDbEntity
  8
Defpoints
 62
     0
100
AcDbPoint
 10
1700.564072993122
 20
2180.856943155734
 30
0.0
  0
POINT
  5
114E
330
1143
100
AcDbEntity
  8
Defpoints
 62
     0
100
AcDbPoint
 10
1700.564072993122
 20
1781.465599074151
 30
0.0
  0
POINT
  5
114F
330
1143
100
AcDbEntity
  8
Defpoints
 62
     0
100
AcDbPoint
 10
1718.834548152618
 20
1781.465599074151
 30
0.0
  0
ENDBLK
  5
1145
330
1143
100
AcDbEntity
  8
0
100
AcDbBlockEnd
  0
BLOCK
  5
1151
330
1150
100
AcDbEntity
  8
0
100
AcDbBlockBegin
  2
*D7
 70
     1
 10
0.0
 20
0.0
 30
0.0
  3
*D7
  1
*D40
  0
LINE
  5
1153
330
1150
100
AcDbEntity
  8
DIM
 62
     0
 48
5.0
370
    -2
100
AcDbLine
 10
1667.843920620796
 20
1742.313153667494
 30
0.0
 11
1667.843920620796
 21
1719.264605987777
 31
0.0
  0
LINE
  5
1154
330
1150
100
AcDbEntity
  8
DIM
 62
     0
 48
5.0
370
    -2
100
AcDbLine
 10
1272.399273136317
 20
1742.313153667494
 30
0.0
 11
1272.399273136317
 21
1719.264605987777
 31
0.0
  0
LINE
  5
1155
330
1150
100
AcDbEntity
  8
DIM
 62
     0
 48
5.0
370
    -2
100
AcDbLine
 10
1667.663920620796
 20
1719.444605987777
 30
0.0
 11
1505.211596878557
 21
1719.444605987777
 31
0.0
  0
LINE
  5
1156
330
1150
100
AcDbEntity
  8
DIM
 62
     0
 48
5.0
370
    -2
100
AcDbLine
 10
1272.579273136317
 20
1719.444605987777
 30
0.0
 11
1435.031596878557
 21
1719.444605987777
 31
0.0
  0
SOLID
  5
1157
330
1150
100
AcDbEntity
  8
DIM
 62
     0
100
AcDbTrace
 10
1667.663920620796
 20
1719.414605987777
 30
0.0
 11
1667.663920620796
 21
1719.474605987777
 31
0.0
 12
1667.843920620796
 22
1719.444605987777
 32
0.0
 13
1667.843920620796
 23
1719.444605987777
 33
0.0
  0
SOLID
  5
1158
330
1150
100
AcDbEntity
  8
DIM
 62
     0
100
AcDbTrace
 10
1272.579273136317
 20
1719.474605987777
 30
0.0
 11
1272.579273136317
 21
1719.414605987777
 31
0.0
 12
1272.399273136317
 22
1719.444605987777
 32
0.0
 13
1272.399273136317
 23
1719.444605987777
 33
0.0
  0
MTEXT
  5
1159
330
1150
100
AcDbEntity
  8
DIM
  6
Continuous
 62
     0
100
AcDbMText
 10
1470.121596878557
 20
1719.444605987777
 30
0.0
 40
10.0
 41
0.0
 46
0.0
 71
     5
 72
     1
  1
\A1;395.4446
 73
     1
 44
1.0
  0
POINT
  5
115A
330
1150
100
AcDbEntity
  8
Defpoints
 62
     0
100
AcDbPoint
 10
1667.843920620796
 20
1742.375653667494
 30
0.0
  0
POINT
  5
115B
330
1150
100
AcDbEntity
  8
Defpoints
 62
     0
100
AcDbPoint
 10
1272.399273136317
 20
1742.375653667494
 30
0.0
  0
POINT
  5
115C
330
1150
100
AcDbEntity
  8
Defpoints
 62
     0
100
AcDbPoint
 10
1272.399273136317
 20
1719.444605987777
 30
0.0
  0
ENDBLK
  5
1152
330
1150
100
AcDbEntity
  8
0
100
AcDbBlockEnd
  0
BLOCK
  5
1161
330
1160
100
AcDbEntity
  8
0
100
AcDbBlockBegin
  2
*D8
 70
     1
 10
0.0
 20
0.0
 30
0.0
  3
*D8
  1
*D41
  0
LINE
  5
1163
330
1160
100
AcDbEntity
  8
DIM
 62
     0
370
    -2
100
AcDbLine
 10
377.2713987522075
 20
1973.958146962221
 30
0.0
 11
377.2713987522075
 21
2288.958146962221
 31
0.0
  0
LINE
  5
1164
330
1160
100
AcDbEntity
  8
DIM
 62
     0
370
    -2
100
AcDbLine
 10
827.2713987522075
 20
1973.958146962221
 30
0.0
 11
827.2713987522075
 21
2288.958146962221
 31
0.0
  0
LINE
  5
1165
330
1160
100
AcDbEntity
  8
DIM
 62
     0
370
    -2
100
AcDbLine
 10
386.2713987522075
 20
2288.958146962221
 30
0.0
 11
818.2713987522075
 21
2288.958146962221
 31
0.0
  0
INSERT
  5
1166
330
1160
100
AcDbEntity
  8
DIM
 62
     0
370
    -2
100
AcDbBlockReference
  2
_DOT
 10
377.2713987522075
 20
2288.958146962221
 30
0.0
 41
9.0
 42
9.0
 43
9.0
 50
180.0
  0
INSERT
  5
1167
330
1160
100
AcDbEntity
  8
DIM
 62
     0
370
    -2
100
AcDbBlockReference
  2
_DOT
 10
827.2713987522075
 20
2288.958146962221
 30
0.0
 41
9.0
 42
9.0
 43
9.0
  0
MTEXT
  5
1168
330
1160
100
AcDbEntity
  8
DIM
  6
Continuous
 62
     0
100
AcDbMText
 10
602.2713987522075
 20
2320.958146962221
 30
0.0
 40
24.0
 41
0.0
 46
0.0
 71
     5
 72
     1
  1
\A1;Φ450
  7
ＭＳ ゴシック
 73
     1
 44
1.0
  0
POINT
  5
1169
330
1160
100
AcDbEntity
  8
Defpoints
 62
     0
100
AcDbPoint
 10
377.2713987522075
 20
1963.958146962221
 30
0.0
  0
POINT
  5
116A
330
1160
100
AcDbEntity
  8
Defpoints
 62
     0
100
AcDbPoint
 10
827.2713987522075
 20
1963.958146962221
 30
0.0
  0
POINT
  5
116B
330
1160
100
AcDbEntity
  8
Defpoints
 62
     0
100
AcDbPoint
 10
827.2713987522075
 20
2288.958146962221
 30
0.0
  0
ENDBLK
  5
1162
330
1160
100
AcDbEntity
  8
0
100
AcDbBlockEnd
  0
BLOCK
  5
1170
330
116F
100
AcDbEntity
  8
0
100
AcDbBlockBegin
  2
*D9
 70
     1
 10
0.0
 20
0.0
 30
0.0
  3
*D9
  1
*D42
  0
LINE
  5
1172
330
116F
100
AcDbEntity
  8
DIM
 62
     0
370
    -2
100
AcDbLine
 10
592.2713987522075
 20
2188.958146962221
 30
0.0
 11
277.2713987522075
 21
2188.958146962221
 31
0.0
  0
LINE
  5
1173
330
116F
100
AcDbEntity
  8
DIM
 62
     0
370
    -2
100
AcDbLine
 10
405.2980582054929
 20
2089.121919375816
 30
0.0
 11
277.2713987522075
 21
2089.121919375816
 31
0.0
  0
LINE
  5
1174
330
116F
100
AcDbEntity
  8
DIM
 62
     0
370
    -2
100
AcDbLine
 10
277.2713987522075
 20
2179.958146962221
 30
0.0
 11
277.2713987522075
 21
2098.121919375816
 31
0.0
  0
INSERT
  5
1175
330
116F
100
AcDbEntity
  8
DIM
 62
     0
370
    -2
100
AcDbBlockReference
  2
_DOT
 10
277.2713987522075
 20
2188.958146962221
 30
0.0
 41
9.0
 42
9.0
 43
9.0
 50
90.0
  0
INSERT
  5
1176
330
116F
100
AcDbEntity
  8
DIM
 62
     0
370
    -2
100
AcDbBlockReference
  2
_DOT
 10
277.2713987522075
 20
2089.121919375816
 30
0.0
 41
9.0
 42
9.0
 43
9.0
 50
270.0
  0
MTEXT
  5
1177
330
116F
100
AcDbEntity
  8
DIM
  6
Continuous
 62
     0
100
AcDbMText
 10
245.2713987522075
 20
2139.040033169018
 30
0.0
 40
24.0
 41
0.0
 46
0.0
 71
     5
 72
     1
  1
\A1;100
  7
ＭＳ ゴシック
 11
0.0
 21
1.0
 31
0.0
 73
     1
 44
1.0
  0
POINT
  5
1178
330
116F
100
AcDbEntity
  8
Defpoints
 62
     0
100
AcDbPoint
 10
602.2713987522075
 20
2188.958146962221
 30
0.0
  0
POINT
  5
1179
330
116F
100
AcDbEntity
  8
Defpoints
 62
     0
100
AcDbPoint
 10
415.2980582054929
 20
2089.121919375816
 30
0.0
  0
POINT
  5
117A
330
116F
100
AcDbEntity
  8
Defpoints
 62
     0
100
AcDbPoint
 10
277.2713987522075
 20
2089.121919375816
 30
0.0
  0
ENDBLK
  5
1171
330
116F
100
AcDbEntity
  8
0
100
AcDbBlockEnd
  0
BLOCK
  5
117F
330
117E
100
AcDbEntity
  8
0
100
AcDbBlockBegin
  2
*D10
 70
     1
 10
0.0
 20
0.0
 30
0.0
  3
*D10
  1
*D43
  0
LINE
  5
1181
330
117E
100
AcDbEntity
  8
DIM
 62
     0
370
    -2
100
AcDbLine
 10
405.2980582054929
 20
2089.121919375816
 30
0.0
 11
277.2713987522075
 21
2089.121919375816
 31
0.0
  0
LINE
  5
1182
330
117E
100
AcDbEntity
  8
DIM
 62
     0
370
    -2
100
AcDbLine
 10
479.9698802281096
 20
1768.987972481144
 30
0.0
 11
277.2713987522075
 21
1768.987972481144
 31
0.0
  0
LINE
  5
1183
330
117E
100
AcDbEntity
  8
DIM
 62
     0
370
    -2
100
AcDbLine
 10
277.2713987522075
 20
2080.121919375816
 30
0.0
 11
277.2713987522075
 21
1777.987972481144
 31
0.0
  0
INSERT
  5
1184
330
117E
100
AcDbEntity
  8
DIM
 62
     0
370
    -2
100
AcDbBlockReference
  2
_DOT
 10
277.2713987522075
 20
2089.121919375816
 30
0.0
 41
9.0
 42
9.0
 43
9.0
 50
90.0
  0
INSERT
  5
1185
330
117E
100
AcDbEntity
  8
DIM
 62
     0
370
    -2
100
AcDbBlockReference
  2
_DOT
 10
277.2713987522075
 20
1768.987972481144
 30
0.0
 41
9.0
 42
9.0
 43
9.0
 50
270.0
  0
MTEXT
  5
1186
330
117E
100
AcDbEntity
  8
DIM
  6
Continuous
 62
     0
100
AcDbMText
 10
245.2713987522075
 20
1929.05494592848
 30
0.0
 40
24.0
 41
0.0
 46
0.0
 71
     5
 72
     1
  1
\A1;320
  7
ＭＳ ゴシック
 11
0.0
 21
1.0
 31
0.0
 73
     1
 44
1.0
  0
POINT
  5
1187
330
117E
100
AcDbEntity
  8
Defpoints
 62
     0
100
AcDbPoint
 10
415.2980582054929
 20
2089.121919375816
 30
0.0
  0
POINT
  5
1188
330
117E
100
AcDbEntity
  8
Defpoints
 62
     0
100
AcDbPoint
 10
489.9698802281096
 20
1768.987972481144
 30
0.0
  0
POINT
  5
1189
330
117E
100
AcDbEntity
  8
Defpoints
 62
     0
100
AcDbPoint
 10
277.2713987522075
 20
1768.987972481144
 30
0.0
  0
ENDBLK
  5
1180
330
117E
100
AcDbEntity
  8
0
100
AcDbBlockEnd
  0
BLOCK
  5
1191
330
1190
100
AcDbEntity
  8
0
100
AcDbBlockBegin
  2
*D11
 70
     1
 10
0.0
 20
0.0
 30
0.0
  3
*D11
  1
*D44
  0
LINE
  5
1193
330
1190
100
AcDbEntity
  8
DIM
 62
     0
370
    -2
100
AcDbLine
 10
442.2044253048712
 20
1795.83299396179
 30
0.0
 11
442.2044253048712
 21
1638.958146962221
 31
0.0
  0
LINE
  5
1194
330
1190
100
AcDbEntity
  8
DIM
 62
     0
370
    -2
100
AcDbLine
 10
762.3383721995438
 20
1795.83299396179
 30
0.0
 11
762.3383721995438
 21
1638.958146962221
 31
0.0
  0
LINE
  5
1195
330
1190
100
AcDbEntity
  8
DIM
 62
     0
370
    -2
100
AcDbLine
 10
451.2044253048712
 20
1638.958146962221
 30
0.0
 11
753.3383721995438
 21
1638.958146962221
 31
0.0
  0
INSERT
  5
1196
330
1190
100
AcDbEntity
  8
DIM
 62
     0
370
    -2
100
AcDbBlockReference
  2
_DOT
 10
442.2044253048712
 20
1638.958146962221
 30
0.0
 41
9.0
 42
9.0
 43
9.0
 50
180.0
  0
INSERT
  5
1197
330
1190
100
AcDbEntity
  8
DIM
 62
     0
370
    -2
100
AcDbBlockReference
  2
_DOT
 10
762.3383721995438
 20
1638.958146962221
 30
0.0
 41
9.0
 42
9.0
 43
9.0
  0
MTEXT
  5
1198
330
1190
100
AcDbEntity
  8
DIM
  6
Continuous
 62
     0
100
AcDbMText
 10
602.2713987522075
 20
1670.958146962221
 30
0.0
 40
24.0
 41
0.0
 46
0.0
 71
     5
 72
     1
  1
\A1;Φ320
  7
ＭＳ ゴシック
 73
     1
 44
1.0
  0
POINT
  5
1199
330
1190
100
AcDbEntity
  8
Defpoints
 62
     0
100
AcDbPoint
 10
442.2044253048712
 20
1805.83299396179
 30
0.0
  0
POINT
  5
119A
330
1190
100
AcDbEntity
  8
Defpoints
 62
     0
100
AcDbPoint
 10
762.3383721995438
 20
1805.83299396179
 30
0.0
  0
POINT
  5
119B
330
1190
100
AcDbEntity
  8
Defpoints
 62
     0
100
AcDbPoint
 10
762.3383721995438
 20
1638.958146962221
 30
0.0
  0
ENDBLK
  5
1192
330
1190
100
AcDbEntity
  8
0
100
AcDbBlockEnd
  0
BLOCK
  5
11A3
330
11A2
100
AcDbEntity
  8
0
100
AcDbBlockBegin
  2
*D12
 70
     1
 10
0.0
 20
0.0
 30
0.0
  3
*D12
  1
*D45
  0
LINE
  5
11A5
330
11A2
100
AcDbEntity
  8
DIM
 62
     0
370
    -2
100
AcDbLine
 10
1237.355884079233
 20
1094.845725225289
 30
0.0
 11
1141.356797908224
 21
1094.845725225289
 31
0.0
  0
LINE
  5
11A6
330
11A2
100
AcDbEntity
  8
DIM
 62
     0
370
    -2
100
AcDbLine
 10
1238.717379143349
 20
999.8457252252895
 30
0.0
 11
1141.356797908224
 21
999.8457252252895
 31
0.0
  0
LINE
  5
11A7
330
11A2
100
AcDbEntity
  8
DIM
 62
     0
370
    -2
100
AcDbLine
 10
1141.356797908224
 20
1085.845725225289
 30
0.0
 11
1141.356797908224
 21
1008.845725225289
 31
0.0
  0
INSERT
  5
11A8
330
11A2
100
AcDbEntity
  8
DIM
 62
     0
370
    -2
100
AcDbBlockReference
  2
_DOT
 10
1141.356797908224
 20
1094.845725225289
 30
0.0
 41
9.0
 42
9.0
 43
9.0
 50
90.0
  0
INSERT
  5
11A9
330
11A2
100
AcDbEntity
  8
DIM
 62
     0
370
    -2
100
AcDbBlockReference
  2
_DOT
 10
1141.356797908224
 20
999.8457252252895
 30
0.0
 41
9.0
 42
9.0
 43
9.0
 50
270.0
  0
MTEXT
  5
11AA
330
11A2
100
AcDbEntity
  8
DIM
  6
Continuous
 62
     0
100
AcDbMText
 10
1109.356797908224
 20
1047.345725225289
 30
0.0
 40
24.0
 41
0.0
 46
0.0
 71
     5
 72
     1
  1
\A1;95
  7
ＭＳ ゴシック
 11
0.0
 21
1.0
 31
0.0
 73
     1
 44
1.0
  0
POINT
  5
11AB
330
11A2
100
AcDbEntity
  8
Defpoints
 62
     0
100
AcDbPoint
 10
1247.355884079233
 20
1094.845725225289
 30
0.0
  0
POINT
  5
11AC
330
11A2
100
AcDbEntity
  8
Defpoints
 62
     0
100
AcDbPoint
 10
1248.717379143349
 20
999.8457252252895
 30
0.0
  0
POINT
  5
11AD
330
11A2
100
AcDbEntity
  8
Defpoints
 62
     0
100
AcDbPoint
 10
1141.356797908224
 20
999.8457252252895
 30
0.0
  0
ENDBLK
  5
11A4
330
11A2
100
AcDbEntity
  8
0
100
AcDbBlockEnd
  0
BLOCK
  5
11B2
330
11B1
100
AcDbEntity
  8
0
100
AcDbBlockBegin
  2
*D13
 70
     1
 10
0.0
 20
0.0
 30
0.0
  3
*D13
  1
*D46
  0
LINE
  5
11B4
330
11B1
100
AcDbEntity
  8
DIM
 62
     0
370
    -2
100
AcDbLine
 10
1238.717379143562
 20
999.8457252252895
 30
0.0
 11
1141.356797908223
 21
999.8457252252895
 31
0.0
  0
LINE
  5
11B5
330
11B1
100
AcDbEntity
  8
DIM
 62
     0
370
    -2
100
AcDbLine
 10
1299.803984161748
 20
914.857190180853
 30
0.0
 11
1141.356797908223
 21
914.857190180853
 31
0.0
  0
LINE
  5
11B6
330
11B1
100
AcDbEntity
  8
DIM
 62
     0
370
    -2
100
AcDbLine
 10
1141.356797908223
 20
990.8457252252895
 30
0.0
 11
1141.356797908223
 21
923.857190180853
 31
0.0
  0
INSERT
  5
11B7
330
11B1
100
AcDbEntity
  8
DIM
 62
     0
370
    -2
100
AcDbBlockReference
  2
_DOT
 10
1141.356797908223
 20
999.8457252252895
 30
0.0
 41
9.0
 42
9.0
 43
9.0
 50
90.0
  0
INSERT
  5
11B8
330
11B1
100
AcDbEntity
  8
DIM
 62
     0
370
    -2
100
AcDbBlockReference
  2
_DOT
 10
1141.356797908223
 20
914.857190180853
 30
0.0
 41
9.0
 42
9.0
 43
9.0
 50
270.0
  0
MTEXT
  5
11B9
330
11B1
100
AcDbEntity
  8
DIM
  6
Continuous
 62
     0
100
AcDbMText
 10
1109.356797908223
 20
957.3514577030712
 30
0.0
 40
24.0
 41
0.0
 46
0.0
 71
     5
 72
     1
  1
\A1;85
  7
ＭＳ ゴシック
 11
0.0
 21
1.0
 31
0.0
 73
     1
 44
1.0
  0
POINT
  5
11BA
330
11B1
100
AcDbEntity
  8
Defpoints
 62
     0
100
AcDbPoint
 10
1248.717379143562
 20
999.8457252252895
 30
0.0
  0
POINT
  5
11BB
330
11B1
100
AcDbEntity
  8
Defpoints
 62
     0
100
AcDbPoint
 10
1309.803984161748
 20
914.857190180853
 30
0.0
  0
POINT
  5
11BC
330
11B1
100
AcDbEntity
  8
Defpoints
 62
     0
100
AcDbPoint
 10
1141.356797908223
 20
914.857190180853
 30
0.0
  0
ENDBLK
  5
11B3
330
11B1
100
AcDbEntity
  8
0
100
AcDbBlockEnd
  0
BLOCK
  5
11C1
330
11C0
100
AcDbEntity
  8
0
100
AcDbBlockBegin
  2
*D14
 70
     1
 10
0.0
 20
0.0
 30
0.0
  3
*D14
  1
*D47
  0
LINE
  5
11C3
330
11C0
100
AcDbEntity
  8
DIM
 62
     0
370
    -2
100
AcDbLine
 10
831.1935296388137
 20
1094.84572522529
 30
0.0
 11
927.2722628214706
 21
1094.84572522529
 31
0.0
  0
LINE
  5
11C4
330
11C0
100
AcDbEntity
  8
DIM
 62
     0
370
    -2
100
AcDbLine
 10
764.6215751382538
 20
914.894967470962
 30
0.0
 11
927.2722628214706
 21
914.894967470962
 31
0.0
  0
LINE
  5
11C5
330
11C0
100
AcDbEntity
  8
DIM
 62
     0
370
    -2
100
AcDbLine
 10
927.2722628214706
 20
1085.84572522529
 30
0.0
 11
927.2722628214706
 21
923.894967470962
 31
0.0
  0
INSERT
  5
11C6
330
11C0
100
AcDbEntity
  8
DIM
 62
     0
370
    -2
100
AcDbBlockReference
  2
_DOT
 10
927.2722628214706
 20
1094.84572522529
 30
0.0
 41
9.0
 42
9.0
 43
9.0
 50
90.0
  0
INSERT
  5
11C7
330
11C0
100
AcDbEntity
  8
DIM
 62
     0
370
    -2
100
AcDbBlockReference
  2
_DOT
 10
927.2722628214706
 20
914.894967470962
 30
0.0
 41
9.0
 42
9.0
 43
9.0
 50
270.0
  0
MTEXT
  5
11C8
330
11C0
100
AcDbEntity
  8
DIM
  6
Continuous
 62
     0
100
AcDbMText
 10
895.2722628214706
 20
1004.870346348126
 30
0.0
 40
24.0
 41
0.0
 46
0.0
 71
     5
 72
     1
  1
\A1;180
  7
ＭＳ ゴシック
 11
0.0
 21
1.0
 31
0.0
 73
     1
 44
1.0
  0
POINT
  5
11C9
330
11C0
100
AcDbEntity
  8
Defpoints
 62
     0
100
AcDbPoint
 10
821.1935296388137
 20
1094.84572522529
 30
0.0
  0
POINT
  5
11CA
330
11C0
100
AcDbEntity
  8
Defpoints
 62
     0
100
AcDbPoint
 10
754.6215751382538
 20
914.894967470962
 30
0.0
  0
POINT
  5
11CB
330
11C0
100
AcDbEntity
  8
Defpoints
 62
     0
100
AcDbPoint
 10
927.2722628214706
 20
914.894967470962
 30
0.0
  0
ENDBLK
  5
11C2
330
11C0
100
AcDbEntity
  8
0
100
AcDbBlockEnd
  0
BLOCK
  5
11D0
330
11CF
100
AcDbEntity
  8
0
100
AcDbBlockBegin
  2
*D15
 70
     1
 10
0.0
 20
0.0
 30
0.0
  3
*D15
  1
*D48
  0
LINE
  5
11D2
330
11CF
100
AcDbEntity
  8
DIM
 62
     0
370
    -2
100
AcDbLine
 10
1691.595127243454
 20
1078.73297583188
 30
0.0
 11
1691.595127243454
 21
814.8949674709618
 31
0.0
  0
LINE
  5
11D3
330
11CF
100
AcDbEntity
  8
DIM
 62
     0
370
    -2
100
AcDbLine
 10
1431.31167896418
 20
907.8457252252899
 30
0.0
 11
1431.31167896418
 21
814.8949674709618
 31
0.0
  0
LINE
  5
11D4
330
11CF
100
AcDbEntity
  8
DIM
 62
     0
370
    -2
100
AcDbLine
 10
1682.595127243454
 20
814.8949674709618
 30
0.0
 11
1440.31167896418
 21
814.8949674709618
 31
0.0
  0
INSERT
  5
11D5
330
11CF
100
AcDbEntity
  8
DIM
 62
     0
370
    -2
100
AcDbBlockReference
  2
_DOT
 10
1691.595127243454
 20
814.8949674709618
 30
0.0
 41
9.0
 42
9.0
 43
9.0
  0
INSERT
  5
11D6
330
11CF
100
AcDbEntity
  8
DIM
 62
     0
370
    -2
100
AcDbBlockReference
  2
_DOT
 10
1431.31167896418
 20
814.8949674709618
 30
0.0
 41
9.0
 42
9.0
 43
9.0
 50
180.0
  0
MTEXT
  5
11D7
330
11CF
100
AcDbEntity
  8
DIM
  6
Continuous
 62
     0
100
AcDbMText
 10
1561.453403103817
 20
846.8949674709618
 30
0.0
 40
24.0
 41
0.0
 46
0.0
 71
     5
 72
     1
  1
\A1;260
  7
ＭＳ ゴシック
 73
     1
 44
1.0
  0
POINT
  5
11D8
330
11CF
100
AcDbEntity
  8
Defpoints
 62
     0
100
AcDbPoint
 10
1691.595127243454
 20
1088.73297583188
 30
0.0
  0
POINT
  5
11D9
330
11CF
100
AcDbEntity
  8
Defpoints
 62
     0
100
AcDbPoint
 10
1431.31167896418
 20
917.8457252252899
 30
0.0
  0
POINT
  5
11DA
330
11CF
100
AcDbEntity
  8
Defpoints
 62
     0
100
AcDbPoint
 10
1431.31167896418
 20
814.8949674709618
 30
0.0
  0
ENDBLK
  5
11D1
330
11CF
100
AcDbEntity
  8
0
100
AcDbBlockEnd
  0
BLOCK
  5
11EC
330
11EB
100
AcDbEntity
  8
0
100
AcDbBlockBegin
  2
*D16
 70
     1
 10
0.0
 20
0.0
 30
0.0
  3
*D16
  1
*D50
  0
LINE
  5
11EE
330
11EB
100
AcDbEntity
  8
DIM
 62
     0
370
    -2
100
AcDbLine
 10
1442.011625726017
 20
1094.84572522529
 30
0.0
 11
1435.691175345994
 21
1094.84572522529
 31
0.0
  0
LINE
  5
11EF
330
11EB
100
AcDbEntity
  8
DIM
 62
     0
370
    -2
100
AcDbLine
 10
1442.011625726017
 20
969.8457252252899
 30
0.0
 11
1435.691175345994
 21
969.8457252252899
 31
0.0
  0
LINE
  5
11F0
330
11EB
100
AcDbEntity
  8
DIM
 62
     0
370
    -2
100
AcDbLine
 10
1435.691175345994
 20
1094.84572522529
 30
0.0
 11
1435.691175345994
 21
1288.87772522529
 31
0.0
  0
LINE
  5
11F1
330
11EB
100
AcDbEntity
  8
DIM
 62
     0
370
    -2
100
AcDbLine
 10
1435.691175345994
 20
1085.84572522529
 30
0.0
 11
1435.691175345994
 21
978.8457252252899
 31
0.0
  0
INSERT
  5
11F2
330
11EB
100
AcDbEntity
  8
DIM
 62
     0
370
    -2
100
AcDbBlockReference
  2
_DOT
 10
1435.691175345994
 20
1094.84572522529
 30
0.0
 41
9.0
 42
9.0
 43
9.0
 50
90.0
  0
INSERT
  5
11F3
330
11EB
100
AcDbEntity
  8
DIM
 62
     0
370
    -2
100
AcDbBlockReference
  2
_DOT
 10
1435.691175345994
 20
969.8457252252899
 30
0.0
 41
9.0
 42
9.0
 43
9.0
 50
270.0
  0
MTEXT
  5
11F4
330
11EB
100
AcDbEntity
  8
DIM
  6
Continuous
 62
     0
100
AcDbMText
 10
1401.567175345994
 20
1203.86172522529
 30
0.0
 40
24.0
 41
0.0
 46
0.0
 71
     5
 72
     1
  1
\A1;125(深さ)
  7
ＭＳ ゴシック
 11
0.0
 21
1.0
 31
0.0
 73
     1
 44
1.0
  0
POINT
  5
11F5
330
11EB
100
AcDbEntity
  8
Defpoints
 62
     0
100
AcDbPoint
 10
1432.011625726017
 20
1094.84572522529
 30
0.0
  0
POINT
  5
11F6
330
11EB
100
AcDbEntity
  8
Defpoints
 62
     0
100
AcDbPoint
 10
1432.011625726017
 20
969.8457252252899
 30
0.0
  0
POINT
  5
11F7
330
11EB
100
AcDbEntity
  8
Defpoints
 62
     0
100
AcDbPoint
 10
1435.691175345994
 20
969.8457252252899
 30
0.0
  0
ENDBLK
  5
11ED
330
11EB
100
AcDbEntity
  8
0
100
AcDbBlockEnd
  0
BLOCK
  5
11FE
330
11FD
100
AcDbEntity
  8
0
100
AcDbBlockBegin
  2
*D17
 70
     1
 10
0.0
 20
0.0
 30
0.0
  3
*D17
  1
*D51
  0
LINE
  5
1200
330
11FD
100
AcDbEntity
  8
DIM
 62
     0
370
    -2
100
AcDbLine
 10
446.9216874026415
 20
905.8688633190454
 30
0.0
 11
446.9216874026415
 21
814.894967470962
 31
0.0
  0
LINE
  5
1201
330
11FD
100
AcDbEntity
  8
DIM
 62
     0
370
    -2
100
AcDbLine
 10
757.2318612891986
 20
905.8688633190454
 30
0.0
 11
757.2318612891986
 21
814.894967470962
 31
0.0
  0
LINE
  5
1202
330
11FD
100
AcDbEntity
  8
DIM
 62
     0
370
    -2
100
AcDbLine
 10
455.9216874026415
 20
814.894967470962
 30
0.0
 11
748.2318612891986
 21
814.894967470962
 31
0.0
  0
INSERT
  5
1203
330
11FD
100
AcDbEntity
  8
DIM
 62
     0
370
    -2
100
AcDbBlockReference
  2
_DOT
 10
446.9216874026415
 20
814.894967470962
 30
0.0
 41
9.0
 42
9.0
 43
9.0
 50
180.0
  0
INSERT
  5
1204
330
11FD
100
AcDbEntity
  8
DIM
 62
     0
370
    -2
100
AcDbBlockReference
  2
_DOT
 10
757.2318612891986
 20
814.894967470962
 30
0.0
 41
9.0
 42
9.0
 43
9.0
  0
MTEXT
  5
1205
330
11FD
100
AcDbEntity
  8
DIM
  6
STAR4
 62
     0
100
AcDbMText
 10
602.0767743459201
 20
846.894967470962
 30
0.0
 40
24.0
 41
0.0
 46
0.0
 71
     5
 72
     1
  1
\A1;310
  7
ＭＳ ゴシック
 73
     1
 44
1.0
  0
POINT
  5
1206
330
11FD
100
AcDbEntity
  8
Defpoints
 62
     0
100
AcDbPoint
 10
446.9216874026415
 20
915.8688633190454
 30
0.0
  0
POINT
  5
1207
330
11FD
100
AcDbEntity
  8
Defpoints
 62
     0
100
AcDbPoint
 10
757.2318612891986
 20
915.8688633190454
 30
0.0
  0
POINT
  5
1208
330
11FD
100
AcDbEntity
  8
Defpoints
 62
     0
100
AcDbPoint
 10
757.2318612891986
 20
814.894967470962
 30
0.0
  0
ENDBLK
  5
11FF
330
11FD
100
AcDbEntity
  8
0
100
AcDbBlockEnd
  0
BLOCK
  5
120B
330
120A
100
AcDbEntity
  8
0
100
AcDbBlockBegin
  2
*D18
 70
     1
 10
0.0
 20
0.0
 30
0.0
  3
*D18
  1
*D52
  0
LINE
  5
120D
330
120A
100
AcDbEntity
  8
DIM
  6
Continuous
 62
     0
370
    -2
100
AcDbLine
 10
1691.595127243454
 20
1098.732975831877
 30
0.0
 11
1691.595127243454
 21
1194.845725225291
 31
0.0
  0
LINE
  5
120E
330
120A
100
AcDbEntity
  8
DIM
  6
Continuous
 62
     0
370
    -2
100
AcDbLine
 10
1631.595127243454
 20
1098.732975831877
 30
0.0
 11
1631.595127243454
 21
1194.845725225291
 31
0.0
  0
LINE
  5
120F
330
120A
100
AcDbEntity
  8
DIM
  6
Continuous
 62
     0
370
    -2
100
AcDbLine
 10
1682.595127243454
 20
1194.845725225291
 30
0.0
 11
1640.595127243454
 21
1194.845725225291
 31
0.0
  0
INSERT
  5
1210
330
120A
100
AcDbEntity
  8
DIM
 62
     0
370
    -2
100
AcDbBlockReference
  2
_DOT
 10
1691.595127243454
 20
1194.845725225291
 30
0.0
 41
9.0
 42
9.0
 43
9.0
  0
INSERT
  5
1211
330
120A
100
AcDbEntity
  8
DIM
 62
     0
370
    -2
100
AcDbBlockReference
  2
_DOT
 10
1631.595127243454
 20
1194.845725225291
 30
0.0
 41
9.0
 42
9.0
 43
9.0
 50
180.0
  0
MTEXT
  5
1212
330
120A
100
AcDbEntity
  8
DIM
  6
Continuous
 62
     0
100
AcDbMText
 10
1661.595127243454
 20
1226.845725225291
 30
0.0
 40
24.0
 41
0.0
 46
0.0
 71
     5
 72
     1
  1
\A1;60
  7
ＭＳ ゴシック
 73
     1
 44
1.0
  0
POINT
  5
1213
330
120A
100
AcDbEntity
  8
Defpoints
 62
     0
100
AcDbPoint
 10
1691.595127243454
 20
1088.732975831877
 30
0.0
  0
POINT
  5
1214
330
120A
100
AcDbEntity
  8
Defpoints
 62
     0
100
AcDbPoint
 10
1631.595127243454
 20
1088.732975831877
 30
0.0
  0
POINT
  5
1217
330
120A
100
AcDbEntity
  8
Defpoints
 62
     0
100
AcDbPoint
 10
1631.595127243454
 20
1194.845725225291
 30
0.0
  0
ENDBLK
  5
120C
330
120A
100
AcDbEntity
  8
0
100
AcDbBlockEnd
  0
BLOCK
  5
1223
330
1222
100
AcDbEntity
  8
0
100
AcDbBlockBegin
  2
*D19
 70
     1
 10
0.0
 20
0.0
 30
0.0
  3
*D19
  1
*D53
  0
LINE
  5
1225
330
1222
100
AcDbEntity
  8
MODEL
  6
Continuous
 62
     0
370
    -2
100
AcDbLine
 10
623.9821748687104
 20
2144.397628802493
 30
0.0
 11
735.9636845199868
 21
2222.772276286079
 31
0.0
  0
MTEXT
  5
1226
330
1222
100
AcDbEntity
  8
MODEL
  6
Continuous
 62
     0
100
AcDbMText
 10
683.1004511564443
 20
2224.979286560551
 30
0.0
 40
24.0
 41
0.0
 46
0.0
 71
     5
 72
     1
  1
\A1;%%c35
  7
ＭＳ ゴシック
 11
0.8192745704340727
 21
0.5734014110900545
 31
0.0
 73
     1
 44
1.0
  0
INSERT
  5
1227
330
1222
100
AcDbEntity
  8
MODEL
 62
     0
370
    -2
100
AcDbBlockReference
  2
_DOT
 10
616.6087037348038
 20
2139.237016102683
 30
0.0
 41
9.0
 42
9.0
 43
9.0
 50
214.9877587331227
  0
POINT
  5
1228
330
1222
100
AcDbEntity
  8
Defpoints
 62
     0
100
AcDbPoint
 10
616.6087037348038
 20
2139.237016102683
 30
0.0
  0
POINT
  5
1229
330
1222
100
AcDbEntity
  8
Defpoints
 62
     0
100
AcDbPoint
 10
587.9340937696111
 20
2119.167966714531
 30
0.0
  0
ENDBLK
  5
1224
330
1222
100
AcDbEntity
  8
0
100
AcDbBlockEnd
  0
BLOCK
  5
1384
330
1383
100
AcDbEntity
  8
0
100
AcDbBlockBegin
  2
*D20
 70
     1
 10
0.0
 20
0.0
 30
0.0
  3
*D20
  1
*D20
  0
LINE
  5
1386
330
1383
100
AcDbEntity
  8
MODEL
  6
Continuous
 62
     0
370
    -2
100
AcDbLine
 10
1254.662365382176
 20
1953.958146962221
 30
0.0
 11
1254.662365382176
 21
1641.958146962221
 31
0.0
  0
LINE
  5
1387
330
1383
100
AcDbEntity
  8
MODEL
  6
Continuous
 62
     0
370
    -2
100
AcDbLine
 10
1684.662365382176
 20
1953.958146962221
 30
0.0
 11
1684.662365382176
 21
1641.958146962221
 31
0.0
  0
LINE
  5
1388
330
1383
100
AcDbEntity
  8
MODEL
  6
Continuous
 62
     0
370
    -2
100
AcDbLine
 10
1263.662365382176
 20
1641.958146962221
 30
0.0
 11
1675.662365382176
 21
1641.958146962221
 31
0.0
  0
INSERT
  5
1389
330
1383
100
AcDbEntity
  8
MODEL
 62
     0
370
    -2
100
AcDbBlockReference
  2
_DOT
 10
1254.662365382176
 20
1641.958146962221
 30
0.0
 41
9.0
 42
9.0
 43
9.0
 50
180.0
  0
INSERT
  5
138A
330
1383
100
AcDbEntity
  8
MODEL
 62
     0
370
    -2
100
AcDbBlockReference
  2
_DOT
 10
1684.662365382176
 20
1641.958146962221
 30
0.0
 41
9.0
 42
9.0
 43
9.0
  0
MTEXT
  5
138B
330
1383
100
AcDbEntity
  8
MODEL
  6
Continuous
 62
     0
100
AcDbMText
 10
1469.662365382176
 20
1673.958146962221
 30
0.0
 40
24.0
 41
0.0
 46
0.0
 71
     5
 72
     1
  1
\A1;Φ430
  7
ＭＳ ゴシック
 73
     1
 44
1.0
  0
POINT
  5
138C
330
1383
100
AcDbEntity
  8
Defpoints
 62
     0
100
AcDbPoint
 10
1254.662365382176
 20
1963.958146962221
 30
0.0
  0
POINT
  5
138D
330
1383
100
AcDbEntity
  8
Defpoints
 62
     0
100
AcDbPoint
 10
1684.662365382176
 20
1963.958146962221
 30
0.0
  0
POINT
  5
138E
330
1383
100
AcDbEntity
  8
Defpoints
 62
     0
100
AcDbPoint
 10
1684.662365382176
 20
1641.958146962221
 30
0.0
  0
ENDBLK
  5
1385
330
1383
100
AcDbEntity
  8
0
100
AcDbBlockEnd
  0
BLOCK
  5
13CD
330
13CC
100
AcDbEntity
  8
0
100
AcDbBlockBegin
  2
*D21
 70
     1
 10
0.0
 20
0.0
 30
0.0
  3
*D21
  1
*D51
  0
LINE
  5
13CE
330
13CC
100
AcDbEntity
  8
DIM
 62
     0
370
    -2
100
AcDbLine
 10
4.5
 20
95.25365017141166
 30
0.0
 11
4.5
 21
4.279754323328234
 31
0.0
  0
LINE
  5
13CF
330
13CC
100
AcDbEntity
  8
DIM
 62
     0
370
    -2
100
AcDbLine
 10
317.8101738865571
 20
95.25365017141166
 30
0.0
 11
317.8101738865571
 21
4.279754323328234
 31
0.0
  0
LINE
  5
13D0
330
13CC
100
AcDbEntity
  8
DIM
 62
     0
370
    -2
100
AcDbLine
 10
13.5
 20
4.279754323328234
 30
0.0
 11
308.8101738865571
 21
4.279754323328234
 31
0.0
  0
INSERT
  5
13D1
330
13CC
100
AcDbEntity
  8
DIM
 62
     0
370
    -2
100
AcDbBlockReference
  2
_DOT
 10
4.5
 20
4.279754323328234
 30
0.0
 41
9.0
 42
9.0
 43
9.0
 50
180.0
  0
INSERT
  5
13D2
330
13CC
100
AcDbEntity
  8
DIM
 62
     0
370
    -2
100
AcDbBlockReference
  2
_DOT
 10
317.8101738865571
 20
4.279754323328234
 30
0.0
 41
9.0
 42
9.0
 43
9.0
  0
MTEXT
  5
13D3
330
13CC
100
AcDbEntity
  8
DIM
  6
Continuous
 62
     0
100
AcDbMText
 10
161.1550869432785
 20
36.27975432332823
 30
0.0
 40
24.0
 41
0.0
 46
0.0
 71
     5
 72
     1
  1
\A1;313
  7
ＭＳ ゴシック
 73
     1
 44
1.0
  0
POINT
  5
13D4
330
13CC
100
AcDbEntity
  8
Defpoints
 62
     0
100
AcDbPoint
 10
4.5
 20
105.2536501714117
 30
0.0
  0
POINT
  5
13D5
330
13CC
100
AcDbEntity
  8
Defpoints
 62
     0
100
AcDbPoint
 10
317.8101738865571
 20
105.2536501714117
 30
0.0
  0
POINT
  5
13D6
330
13CC
100
AcDbEntity
  8
Defpoints
 62
     0
100
AcDbPoint
 10
317.8101738865571
 20
4.279754323328234
 30
0.0
  0
ENDBLK
  5
13D7
330
13CC
100
AcDbEntity
  8
0
100
AcDbBlockEnd
  0
BLOCK
  5
13DD
330
13DC
100
AcDbEntity
  8
0
100
AcDbBlockBegin
  2
*D22
 70
     1
 10
0.0
 20
0.0
 30
0.0
  3
*D22
  1
*D23
  0
LINE
  5
13DF
330
13DC
100
AcDbEntity
  8
DIM
  6
STAR4
370
    -2
100
AcDbLine
 10
578.1779067663834
 20
549.6693594104484
 30
0.0
 11
687.3397104755193
 21
549.6693594104484
 31
0.0
  0
LINE
  5
13E0
330
13DC
100
AcDbEntity
  8
DIM
  6
STAR4
370
    -2
100
AcDbLine
 10
873.4880806529405
 20
549.6693594104484
 30
0.0
 11
770.9477104755192
 21
549.6693594104484
 31
0.0
  0
INSERT
  5
13E1
330
13DC
100
AcDbEntity
  8
DIM
370
    -2
100
AcDbBlockReference
  2
_DOT
 10
569.1779067663834
 20
549.6693594104484
 30
0.0
 41
9.0
 42
9.0
 43
9.0
 50
180.0
  0
INSERT
  5
13E2
330
13DC
100
AcDbEntity
  8
DIM
370
    -2
100
AcDbBlockReference
  2
_DOT
 10
882.4880806529405
 20
549.6693594104484
 30
0.0
 41
9.0
 42
9.0
 43
9.0
  0
MTEXT
  5
13E3
330
13DC
100
AcDbEntity
  8
DIM
  6
STAR4
 62
     0
370
     0
100
AcDbMText
 10
729.1437104755192
 20
551.171702502065
 30
0.0
 40
24.0
 41
0.0
 46
0.0
 71
     5
 72
     1
  1
\A1;313
  7
ＭＳ ゴシック
 73
     1
 44
1.0
  0
POINT
  5
13E4
330
13DC
100
AcDbEntity
  8
Defpoints
 62
     0
100
AcDbPoint
 10
569.1779067663834
 20
650.6432552585318
 30
0.0
  0
POINT
  5
13EA
330
13DC
100
AcDbEntity
  8
Defpoints
 62
     0
100
AcDbPoint
 10
882.4880806529405
 20
650.6432552585318
 30
0.0
  0
POINT
  5
13ED
330
13DC
100
AcDbEntity
  8
Defpoints
 62
     0
100
AcDbPoint
 10
882.4880806529405
 20
549.6693594104484
 30
0.0
  0
ENDBLK
  5
13DE
330
13DC
100
AcDbEntity
  8
0
100
AcDbBlockEnd
  0
ENDSEC
  0
SECTION
  2
ENTITIES
  0
MTEXT
  5
177
330
A
100
AcDbEntity
  8
TEMPLATE
390
1D
100
AcDbMText
 10
79.20214454773075
 20
343.7317516314282
 30
0.0
 40
16.28841145833333
 41
0.0
 46
0.0
 71
     1
 72
     1
  1
品名
  7
ＭＳ ゴシック
 73
     1
 44
0.7828267384257843
  0
MTEXT
  5
178
330
A
100
AcDbEntity
  8
TEMPLATE
390
1D
100
AcDbMText
 10
79.20214454773075
 20
258.731751631428
 30
0.0
 40
16.28841145833333
 41
0.0
 46
0.0
 71
     1
 72
     1
  1
仕様
  7
ＭＳ ゴシック
 73
     1
 44
0.7828267384257843
  0
LINE
  5
179
330
A
100
AcDbEntity
  8
TEMPLATE
390
1D
100
AcDbLine
 10
2022.202144547248
 20
267.1466735064284
 30
0.0
 11
72.20214454724874
 21
267.1466735064284
 31
0.0
  0
LWPOLYLINE
  5
17A
330
A
100
AcDbEntity
  8
TEMPLATE
390
1D
100
AcDbPolyline
 90
        5
 70
   128
 43
0.0
 10
2022.202144547248
 20
2897.146673506426
 10
72.20214454724874
 20
2897.146673506426
 10
72.20214454724874
 20
97.14667350642826
 10
2022.202144547248
 20
97.14667350642826
 10
2022.202144547248
 20
2897.146673506426
  0
LINE
  5
17B
330
A
100
AcDbEntity
  8
TEMPLATE
390
1D
100
AcDbLine
 10
2022.202144547248
 20
352.1466735064282
 30
0.0
 11
72.20214454724874
 21
352.1466735064282
 31
0.0
  0
LINE
  5
17C
330
A
100
AcDbEntity
  8
TEMPLATE
390
1D
100
AcDbLine
 10
2022.202144547732
 20
182.1466735064282
 30
0.0
 11
1269.20214454773
 21
182.1466735064282
 31
0.0
  0
MTEXT
  5
17D
330
A
100
AcDbEntity
  8
TEMPLATE
390
1D
100
AcDbMText
 10
72.2021445479345
 20
85.29285144957115
 30
0.0
 40
21.71788194444444
 41
0.0
 46
21.71788194444444
 71
     1
 72
     1
  1
{150518SO}
  7
ＭＳ ゴシック
 73
     1
 44
0.7828267384257843
1001
ACAD
1000
ACAD_MTEXT_DEFINED_HEIGHT_BEGIN
1070
    46
1040
21.71788194444444
1000
ACAD_MTEXT_DEFINED_HEIGHT_END
  0
MTEXT
  5
17E
330
A
100
AcDbEntity
  8
TEMPLATE
390
1D
100
AcDbMText
 10
1299.073550799991
 20
152.2362790331201
 30
0.0
 40
24.4326171875
 41
0.0
 46
0.0
 71
     1
 72
     1
  1
大洋金物株式会社 ティーフォルム事業部
  7
ＭＳ ゴシック
 73
     1
 44
0.7828267384257843
  0
MTEXT
  5
180
330
A
100
AcDbEntity
  8
TEMPLATE
390
1D
100
AcDbMText
 10
1831.20214454799
 20
230.1492906939282
 30
0.0
 40
24.4326171875
 41
0.0
 46
24.4326171875
 71
     1
 72
     1
  1
{1:10}
  7
ＭＳ ゴシック
 73
     1
 44
0.7828267384257843
1001
ACAD
1000
ACAD_MTEXT_DEFINED_HEIGHT_BEGIN
1070
    46
1040
24.4326171875
1000
ACAD_MTEXT_DEFINED_HEIGHT_END
  0
MTEXT
  5
181
330
A
100
AcDbEntity
  8
TEMPLATE
390
1D
100
AcDbMText
 10
1778.20214454799
 20
258.731751631428
 30
0.0
 40
16.28841145833333
 41
0.0
 46
0.0
 71
     1
 72
     1
  1
縮尺
  7
ＭＳ ゴシック
 73
     1
 44
0.7828267384257843
  0
LINE
  5
182
330
A
100
AcDbEntity
  8
TEMPLATE
390
1D
100
AcDbLine
 10
1771.20214454799
 20
182.1466735064282
 30
0.0
 11
1771.20214454799
 21
267.1466735064284
 31
0.0
  0
MTEXT
  5
183
330
A
100
AcDbEntity
  8
TEMPLATE
390
1D
100
AcDbMText
 10
1527.20214454799
 20
258.731751631428
 30
0.0
 40
16.28841145833333
 41
0.0
 46
0.0
 71
     1
 72
     1
  1
容量
  7
ＭＳ ゴシック
 73
     1
 44
0.7828267384257843
  0
LINE
  5
184
330
A
100
AcDbEntity
  8
TEMPLATE
390
1D
100
AcDbLine
 10
1520.20214454799
 20
182.1466735064282
 30
0.0
 11
1520.20214454799
 21
267.1466735064284
 31
0.0
  0
MTEXT
  5
185
330
A
100
AcDbEntity
  8
TEMPLATE
390
1D
100
AcDbMText
 10
1276.20214454799
 20
343.7317516314282
 30
0.0
 40
16.28841145833333
 41
0.0
 46
0.0
 71
     1
 72
     1
  1
品番
  7
ＭＳ ゴシック
 73
     1
 44
0.7828267384257843
  0
MTEXT
  5
186
330
A
100
AcDbEntity
  8
TEMPLATE
390
1D
100
AcDbMText
 10
1276.20214454799
 20
258.731751631428
 30
0.0
 40
16.28841145833333
 41
0.0
 46
0.0
 71
     1
 72
     1
  1
重量
  7
ＭＳ ゴシック
 73
     1
 44
0.7828267384257843
  0
MTEXT
  5
187
330
A
100
AcDbEntity
  8
TEMPLATE
390
1D
100
AcDbMText
 10
1329.20214454799
 20
315.1492906939282
 30
0.0
 40
24.4326171875
 41
0.0
 46
24.4326171875
 71
     1
 72
     1
  1
{ADF70-0026}
  7
ＭＳ ゴシック
 73
     1
 44
0.7828267384257843
1001
ACAD
1000
ACAD_MTEXT_DEFINED_HEIGHT_BEGIN
1070
    46
1040
24.4326171875
1000
ACAD_MTEXT_DEFINED_HEIGHT_END
  0
LINE
  5
188
330
A
100
AcDbEntity
  8
TEMPLATE
390
1D
100
AcDbLine
 10
1269.20214454799
 20
97.14667350642826
 30
0.0
 11
1269.20214454799
 21
352.1466735064282
 31
0.0
  0
MTEXT
  5
189
330
A
100
AcDbEntity
  8
TEMPLATE
390
1D
100
AcDbMText
 10
132.2021445477307
 20
315.1492906939282
 30
0.0
 40
24.4326171875
 41
0.0
 46
24.4326171875
 71
     1
 72
     1
  1
{手洗器　-CATALANO,Zero-}
  7
ＭＳ ゴシック
 73
     1
 44
0.7828267384257843
1001
ACAD
1000
ACAD_MTEXT_DEFINED_HEIGHT_BEGIN
1070
    46
1040
24.4326171875
1000
ACAD_MTEXT_DEFINED_HEIGHT_END
  0
INSERT
  5
6B5
330
A
100
AcDbEntity
  8
TEMPLATE
100
AcDbBlockReference
  2
名称未設定-1
 10
1870.75074808845
 20
25.94676575665382
 30
0.0
 41
0.7619999999999998
 42
0.7619999999999998
 43
0.7619999999999998
  0
MTEXT
  5
7D9
330
A
100
AcDbEntity
  8
TEMPLATE
390
1D
100
AcDbMText
 10
125.2543452760364
 20
226.8119760293952
 30
0.0
 40
24.4326171875
 41
0.0
 46
70.96046451822917
 71
     1
 72
     1
  1
{半埋め込み/オーバーフロー付き/\P陶器/ホワイト}
  7
ＭＳ ゴシック
 73
     1
 44
1.1
1001
ACAD
1000
ACAD_MTEXT_DEFINED_HEIGHT_BEGIN
1070
    46
1040
70.96046451822917
1000
ACAD_MTEXT_DEFINED_HEIGHT_END
  0
INSERT
  5
68C
330
A
100
AcDbEntity
  8
TEMPLATE
100
AcDbBlockReference
  2
block 2
 10
919.2743017702577
 20
8.373076514336368
 30
0.0
 41
0.3809999999999999
 42
0.3809999999999999
 43
0.3809999999999999
  0
CIRCLE
  5
F7F
102
{ACAD_REACTORS
330
115F
330
116E
102
}
330
A
100
AcDbEntity
  8
MODEL
100
AcDbCircle
 10
602.2713987522075
 20
1963.958146962221
 30
0.0
 40
225.0
  0
CIRCLE
  5
F80
102
{ACAD_REACTORS
330
1221
102
}
330
A
100
AcDbEntity
  8
MODEL
100
AcDbCircle
 10
602.2713987522075
 20
2129.202491408607
 30
0.0
 40
17.5
  0
CIRCLE
  5
F81
330
A
100
AcDbEntity
  8
MODEL
100
AcDbCircle
 10
602.2713987522075
 20
1929.05494592848
 30
0.0
 40
160.0669734473362
  0
CIRCLE
  5
F82
330
A
100
AcDbEntity
  8
MODEL
100
AcDbCircle
 10
602.2713987522075
 20
1929.05494592848
 30
0.0
 40
22.5
  0
CIRCLE
  5
F83
330
A
100
AcDbEntity
  8
MODEL
100
AcDbCircle
 10
602.2713987522075
 20
1929.05494592848
 30
0.0
 40
39.0
  0
SPLINE
  5
F84
330
A
100
AcDbEntity
  8
MODEL
100
AcDbSpline
210
0.0
220
0.0
230
1.0
 70
     8
 71
     3
 72
    10
 73
     6
 74
     0
 42
0.000000001
 43
0.0000000001
 40
0.0
 40
0.0
 40
0.0
 40
0.0
 40
2.807615945840406
 40
5.625121226918836
 40
8.295816872222396
 40
8.295816872222396
 40
8.295816872222396
 40
8.295816872222396
 10
602.271604043337
 20
1773.352941674313
 30
0.0
 10
601.3357320617661
 20
1773.352915245442
 30
0.0
 10
599.4520216343908
 20
1773.259694824022
 30
0.0
 10
596.8626554973171
 20
1772.864108602328
 30
0.0
 10
595.3593645173432
 20
1772.463534380166
 30
0.0
 10
594.6915485953441
 20
1772.243567275842
 30
0.0
  0
SPLINE
  5
F85
330
A
100
AcDbEntity
  8
MODEL
100
AcDbSpline
210
0.0
220
0.0
230
1.0
 70
     8
 71
     3
 72
    22
 73
    18
 74
     0
 42
0.000000001
 43
0.0000000001
 40
0.0
 40
0.0
 40
0.0
 40
0.0
 40
3.574504061786346
 40
6.256081213865947
 40
8.878291618990955
 40
11.55310437475148
 40
14.47834718805741
 40
17.39932998301717
 40
20.38670640035675
 40
23.60634822951825
 40
26.69418736092896
 40
29.76870836607995
 40
32.92188577764934
 40
35.8270921578961
 40
38.67046509571004
 40
41.54522838413685
 40
45.16795238009509
 40
45.16795238009509
 40
45.16795238009509
 40
45.16795238009509
 10
602.2714297590137
 20
1781.465599074151
 30
0.0
 10
601.0906287955559
 20
1781.465597796975
 30
0.0
 10
599.0245291515021
 20
1781.355085146771
 30
0.0
 10
596.2834678032632
 20
1780.942686114643
 30
0.0
 10
594.057968509971
 20
1780.402024648133
 30
0.0
 10
592.0812365456786
 20
1779.701700091294
 30
0.0
 10
590.439324092773
 20
1778.857059523126
 30
0.0
 10
589.2240786047787
 20
1777.897696023412
 30
0.0
 10
588.5093442348261
 20
1776.86231314648
 30
0.0
 10
588.3802367483268
 20
1775.80485955391
 30
0.0
 10
588.8736791451265
 20
1774.778709036068
 30
0.0
 10
589.9612005263889
 20
1773.838104077882
 30
0.0
 10
591.5921183715036
 20
1773.028486166579
 30
0.0
 10
593.6650468416228
 20
1772.376847788179
 30
0.0
 10
596.0469619040614
 20
1771.894283891016
 30
0.0
 10
598.9294109982566
 20
1771.550498238575
 30
0.0
 10
601.0749794798867
 20
1771.463056802663
 30
0.0
 10
602.2714357959612
 20
1771.463057309097
 30
0.0
  0
LINE
  5
F86
330
A
100
AcDbEntity
  8
MODEL
100
AcDbLine
 10
602.2714355165299
 20
1771.499588320726
 30
0.0
 11
602.2714355320213
 21
1771.463057309097
 31
0.0
  0
SPLINE
  5
F87
330
A
100
AcDbEntity
  8
MODEL
100
AcDbSpline
210
0.0
220
0.0
230
1.0
 70
     8
 71
     3
 72
    10
 73
     6
 74
     0
 42
0.000000001
 43
0.0000000001
 40
0.0
 40
0.0
 40
0.0
 40
0.0
 40
2.807615945840406
 40
5.625121226918836
 40
8.295816872222348
 40
8.295816872222348
 40
8.295816872222348
 40
8.295816872222348
 10
602.2711934663967
 20
1773.352941674313
 30
0.0
 10
603.2070654479676
 20
1773.352915245442
 30
0.0
 10
605.0907758753428
 20
1773.259694824022
 30
0.0
 10
607.6801420124157
 20
1772.864108602328
 30
0.0
 10
609.1834329923904
 20
1772.463534380166
 30
0.0
 10
609.8512489143895
 20
1772.243567275842
 30
0.0
  0
SPLINE
  5
F88
330
A
100
AcDbEntity
  8
MODEL
100
AcDbSpline
210
0.0
220
0.0
230
1.0
 70
     8
 71
     3
 72
    22
 73
    18
 74
     0
 42
0.000000001
 43
0.0000000001
 40
0.0
 40
0.0
 40
0.0
 40
0.0
 40
3.574504061786346
 40
6.256081213865947
 40
8.878291618990955
 40
11.55310437475148
 40
14.47834718805741
 40
17.39932998301717
 40
20.38670640035675
 40
23.60634822951825
 40
26.69418736092896
 40
29.76870836607995
 40
32.92188577764934
 40
35.8270921578961
 40
38.67046509571004
 40
41.54522838413685
 40
45.16795238009509
 40
45.16795238009509
 40
45.16795238009509
 40
45.16795238009509
 10
602.27136775072
 20
1781.465599074151
 30
0.0
 10
603.4521687141778
 20
1781.465597796975
 30
0.0
 10
605.5182683582316
 20
1781.355085146771
 30
0.0
 10
608.2593297064705
 20
1780.942686114643
 30
0.0
 10
610.4848289997626
 20
1780.402024648133
 30
0.0
 10
612.461560964055
 20
1779.701700091294
 30
0.0
 10
614.1034734169607
 20
1778.857059523126
 30
0.0
 10
615.318718904955
 20
1777.897696023412
 30
0.0
 10
616.0334532749075
 20
1776.86231314648
 30
0.0
 10
616.1625607614069
 20
1775.80485955391
 30
0.0
 10
615.6691183646071
 20
1774.778709036068
 30
0.0
 10
614.5815969833448
 20
1773.838104077882
 30
0.0
 10
612.95067913823
 20
1773.028486166579
 30
0.0
 10
610.8777506681108
 20
1772.376847788179
 30
0.0
 10
608.4958356056723
 20
1771.894283891016
 30
0.0
 10
605.6133865114771
 20
1771.550498238575
 30
0.0
 10
603.467818029847
 20
1771.463056802663
 30
0.0
 10
602.2713617137724
 20
1771.463057309097
 30
0.0
  0
LINE
  5
F8B
330
A
100
AcDbEntity
  8
MODEL
100
AcDbLine
 10
436.3099183808727
 20
1094.84572522529
 30
0.0
 11
768.2328791235423
 21
1094.84572522529
 31
0.0
  0
LINE
  5
F8C
330
A
100
AcDbEntity
  8
HIDDEN
100
AcDbLine
 10
578.9646822098739
 20
917.8853452061637
 30
0.0
 11
625.1888664673252
 21
917.8853452061637
 31
0.0
  0
LINE
  5
F8E
330
A
100
AcDbEntity
  8
MODEL
100
AcDbLine
 10
383.3492678656012
 20
1094.84572522529
 30
0.0
 11
435.920670078991
 21
1094.84572522529
 31
0.0
  0
SPLINE
  5
F91
330
A
100
AcDbEntity
  8
MODEL
100
AcDbSpline
210
0.0
220
0.0
230
1.0
 70
     8
 71
     3
 72
    14
 73
    10
 74
     0
 42
0.000000001
 43
0.0000000001
 40
0.0
 40
0.0
 40
0.0
 40
0.0
 40
1.228081046450892
 40
3.152089584446984
 40
4.283003277742329
 40
5.407916475567819
 40
6.301437608616394
 40
8.305492714227647
 40
9.591567618112734
 40
9.591567618112734
 40
9.591567618112734
 40
9.591567618112734
 10
383.3492678656012
 20
1094.845725225289
 30
0.0
 10
382.9405798073476
 20
1094.845725225238
 30
0.0
 10
381.8886353876214
 20
1094.740902957207
 30
0.0
 10
380.5344857737146
 20
1094.237496437652
 30
0.0
 10
379.3843535384294
 20
1093.440106286802
 30
0.0
 10
378.6440961543713
 20
1092.68940503554
 30
0.0
 10
377.8729544344205
 20
1091.587774077185
 30
0.0
 10
377.3637191430507
 20
1090.269075574416
 30
0.0
 10
377.2638379729533
 20
1089.168828694534
 30
0.0
 10
377.2713987522075
 20
1088.741035411825
 30
0.0
  0
LINE
  5
F95
330
A
100
AcDbEntity
  8
HIDDEN
100
AcDbLine
 10
567.1891519365163
 20
965.6338661425723
 30
0.0
 11
577.2465556517327
 21
957.1946781124086
 31
0.0
  0
LINE
  5
F96
330
A
100
AcDbEntity
  8
HIDDEN
100
AcDbLine
 10
578.3177359301926
 20
954.9489020023627
 30
0.0
 11
578.9646827351817
 21
917.8853452061637
 31
0.0
  0
ARC
  5
F97
330
A
100
AcDbEntity
  8
HIDDEN
100
AcDbCircle
 10
575.3181916175245
 20
954.896544178793
 30
0.0
 40
3.000001237550746
100
AcDbArc
 50
1.00001113022654
 51
49.99998978663526
  0
LINE
  5
F98
330
A
100
AcDbEntity
  8
MODEL
100
AcDbLine
 10
377.2705346829443
 20
1088.790537906761
 30
0.0
 11
378.6320297473449
 21
1005.790537906761
 31
0.0
  0
LINE
  5
F9B
330
A
100
AcDbEntity
  8
MODEL
100
AcDbLine
 10
443.637305578095
 20
918.6109043217082
 30
0.0
 11
420.5656977380386
 21
1000.436128124342
 31
0.0
  0
LINE
  5
F9E
330
A
100
AcDbEntity
  8
HIDDEN
100
AcDbLine
 10
578.3177354195259
 20
954.9489020023627
 30
0.0
 11
625.8358132723142
 21
954.9489020023627
 31
0.0
  0
ARC
  5
F9F
330
A
100
AcDbEntity
  8
HIDDEN
100
AcDbCircle
 10
435.727841312394
 20
1088.355161785098
 30
0.0
 40
6.493427192505948
100
AcDbArc
 50
14.66249989667599
 51
88.29829477810767
  0
LINE
  5
FA0
330
A
100
AcDbEntity
  8
MODEL
100
AcDbLine
 10
383.9532091463025
 20
999.933671815844
 30
0.0
 11
420.699212797359
 21
999.933671815844
 31
0.0
  0
SPLINE
  5
FA1
330
A
100
AcDbEntity
  8
HIDDEN
100
AcDbSpline
210
0.0
220
0.0
230
1.0
 70
     8
 71
     3
 72
    21
 73
    17
 74
     0
 42
0.000000001
 43
0.0000000001
 40
0.0
 40
0.0
 40
0.0
 40
0.0
 40
8.718563869107605
 40
26.15569160732282
 40
39.50999370501658
 40
52.94054501891115
 40
79.71475798597604
 40
92.94161035015735
 40
105.9816254475782
 40
118.7975810802053
 40
131.3732257163423
 40
143.7198747217067
 40
155.8838384731344
 40
167.9537041417468
 40
176.0282707777904
 40
179.3161014446461
 40
179.3161014446461
 40
179.3161014446461
 40
179.3161014446461
 10
442.0098011538958
 20
1089.998809330689
 30
0.0
 10
442.6024272936338
 20
1087.956145043041
 30
0.0
 10
444.7683946917632
 20
1079.50781438081
 30
0.0
 10
448.996526585981
 20
1066.988908055963
 30
0.0
 10
454.8529554393162
 20
1053.454175663823
 30
0.0
 10
463.0856679032313
 20
1037.598963386781
 30
0.0
 10
472.9658720833677
 20
1022.688339488739
 30
0.0
 10
484.3648852410843
 20
1009.153952413911
 30
0.0
 10
493.5496264435078
 20
999.8923599225725
 30
0.0
 10
503.3417749664222
 20
991.6056843641634
 30
0.0
 10
513.685324155108
 20
984.4106746768362
 30
0.0
 10
524.5258854281792
 20
978.4202194055144
 30
0.0
 10
535.8170945985275
 20
973.7421895083567
 30
0.0
 10
546.216171934494
 20
970.8455717266268
 30
0.0
 10
553.9410092828566
 20
969.5673501908761
 30
0.0
 10
557.7098242384636
 20
969.1823197146371
 30
0.0
 10
558.8019461054819
 20
969.0906516367902
 30
0.0
  0
ARC
  5
FA4
330
A
100
AcDbEntity
  8
HIDDEN
100
AcDbCircle
 10
557.5473215112643
 20
954.1432131563099
 30
0.0
 40
15.0
100
AcDbArc
 50
49.99991882339963
 51
85.2020816176162
  0
LINE
  5
FA6
330
A
100
AcDbEntity
  8
HIDDEN
100
AcDbLine
 10
563.263135056689
 20
968.0115034443713
 30
0.0
 11
640.890414145817
 21
968.0115034443709
 31
0.0
  0
ARC
  5
FA7
330
A
100
AcDbEntity
  8
MODEL
100
AcDbCircle
 10
384.631115918286
 20
1005.895252345242
 30
0.0
 40
6.0
100
AcDbArc
 50
180.9999999986424
 51
269.9999999979677
  0
ARC
  5
FB3
330
A
100
AcDbEntity
  8
MODEL
100
AcDbCircle
 10
448.469611635117
 20
919.894967470962
 30
0.0
 40
5.0
100
AcDbArc
 50
194.8810185720334
 51
269.9999999997916
  0
LINE
  5
FB8
102
{ACAD_REACTORS
330
11BF
102
}
330
A
100
AcDbEntity
  8
MODEL
100
AcDbLine
 10
821.1935296388137
 20
1094.84572522529
 30
0.0
 11
768.2328791235159
 21
1094.84572522529
 31
0.0
  0
SPLINE
  5
FBB
330
A
100
AcDbEntity
  8
MODEL
100
AcDbSpline
210
0.0
220
0.0
230
1.0
 70
     8
 71
     3
 72
    14
 73
    10
 74
     0
 42
0.000000001
 43
0.0000000001
 40
0.0
 40
0.0
 40
0.0
 40
0.0
 40
1.228081046450892
 40
3.152089584446984
 40
4.283003277742329
 40
5.407916475567819
 40
6.301437608616394
 40
8.305492714227647
 40
9.591567618112734
 40
9.591567618112734
 40
9.591567618112734
 40
9.591567618112734
 10
821.1935296388137
 20
1094.84572522529
 30
0.0
 10
821.6022176970673
 20
1094.845725225239
 30
0.0
 10
822.6541621167935
 20
1094.740902957208
 30
0.0
 10
824.0083117307004
 20
1094.237496437653
 30
0.0
 10
825.1584439659855
 20
1093.440106286802
 30
0.0
 10
825.8987013500437
 20
1092.689405035541
 30
0.0
 10
826.6698430699944
 20
1091.587774077185
 30
0.0
 10
827.1790783613642
 20
1090.269075574417
 30
0.0
 10
827.2789595314616
 20
1089.168828694534
 30
0.0
 10
827.2713987522075
 20
1088.741035411825
 30
0.0
  0
LINE
  5
FBF
330
A
100
AcDbEntity
  8
HIDDEN
100
AcDbLine
 10
636.9643972659906
 20
965.6338661425723
 30
0.0
 11
626.9069935507741
 21
957.1946781124086
 31
0.0
  0
LINE
  5
FC0
330
A
100
AcDbEntity
  8
HIDDEN
100
AcDbLine
 10
625.8358132723142
 20
954.9489020023627
 30
0.0
 11
625.1888664673252
 21
917.8853452061637
 31
0.0
  0
ARC
  5
FC1
330
A
100
AcDbEntity
  8
HIDDEN
100
AcDbCircle
 10
628.8353575849824
 20
954.896544178793
 30
0.0
 40
3.000001237550746
100
AcDbArc
 50
130.0000102133648
 51
178.9999888697735
  0
LINE
  5
FC2
330
A
100
AcDbEntity
  8
MODEL
100
AcDbLine
 10
827.2722628214706
 20
1088.790537906761
 30
0.0
 11
825.9107677570701
 21
1005.790537906761
 31
0.0
  0
LINE
  5
FC5
330
A
100
AcDbEntity
  8
MODEL
100
AcDbLine
 10
760.5162436244118
 20
918.6109043217082
 30
0.0
 11
783.5878514644683
 21
1000.436128124342
 31
0.0
  0
ARC
  5
FC8
330
A
100
AcDbEntity
  8
HIDDEN
100
AcDbCircle
 10
768.4257078901128
 20
1088.355161785098
 30
0.0
 40
6.493427192505948
100
AcDbArc
 50
91.70170522188832
 51
165.3375001033343
  0
LINE
  5
FC9
330
A
100
AcDbEntity
  8
MODEL
100
AcDbLine
 10
820.5895883581084
 20
999.933671815844
 30
0.0
 11
783.4543364051478
 21
999.933671815844
 31
0.0
  0
SPLINE
  5
FCA
330
A
100
AcDbEntity
  8
HIDDEN
100
AcDbSpline
210
0.0
220
0.0
230
1.0
 70
     8
 71
     3
 72
    21
 73
    17
 74
     0
 42
0.000000001
 43
0.0000000001
 40
0.0
 40
0.0
 40
0.0
 40
0.0
 40
8.718563869107605
 40
26.15569160732282
 40
39.50999370501658
 40
52.94054501891115
 40
79.71475798597604
 40
92.94161035015735
 40
105.9816254475782
 40
118.7975810802053
 40
131.3732257163423
 40
143.7198747217067
 40
155.8838384731344
 40
167.9537041417468
 40
176.0282707777904
 40
179.3161014446461
 40
179.3161014446461
 40
179.3161014446461
 40
179.3161014446461
 10
762.1437480486111
 20
1089.998809330689
 30
0.0
 10
761.551121908873
 20
1087.956145043041
 30
0.0
 10
759.3851545107436
 20
1079.50781438081
 30
0.0
 10
755.1570226165259
 20
1066.988908055963
 30
0.0
 10
749.3005937631906
 20
1053.454175663823
 30
0.0
 10
741.0678812992755
 20
1037.598963386781
 30
0.0
 10
731.1876771191392
 20
1022.688339488739
 30
0.0
 10
719.7886639614226
 20
1009.153952413911
 30
0.0
 10
710.603922758999
 20
999.8923599225725
 30
0.0
 10
700.8117742360846
 20
991.6056843641634
 30
0.0
 10
690.4682250473988
 20
984.4106746768362
 30
0.0
 10
679.6276637743276
 20
978.4202194055144
 30
0.0
 10
668.3364546039793
 20
973.7421895083567
 30
0.0
 10
657.9373772680128
 20
970.8455717266268
 30
0.0
 10
650.2125399196502
 20
969.5673501908761
 30
0.0
 10
646.4437249640432
 20
969.1823197146371
 30
0.0
 10
645.351603097025
 20
969.0906516367902
 30
0.0
  0
ARC
  5
FCD
330
A
100
AcDbEntity
  8
HIDDEN
100
AcDbCircle
 10
646.6062276912426
 20
954.1432131563099
 30
0.0
 40
15.0
100
AcDbArc
 50
94.7979183823838
 51
130.0000811766004
  0
ARC
  5
FCF
330
A
100
AcDbEntity
  8
MODEL
100
AcDbCircle
 10
819.9116815861289
 20
1005.895252345243
 30
0.0
 40
6.0
100
AcDbArc
 50
270.0000000020844
 51
359.0000000013575
  0
LINE
  5
FD9
330
A
100
AcDbEntity
  8
MODEL
100
AcDbLine
 10
816.7736648059181
 20
999.8952523452429
 30
0.0
 11
815.2727509767092
 21
999.8952523452429
 31
0.0
  0
LINE
  5
FDD
330
A
100
AcDbEntity
  8
MODEL
100
AcDbLine
 10
448.469611635117
 20
914.894967470962
 30
0.0
 11
754.6215751382538
 21
914.894967470962
 31
0.0
  0
ARC
  5
FEC
330
A
100
AcDbEntity
  8
MODEL
100
AcDbCircle
 10
755.6839370567232
 20
919.894967470962
 30
0.0
 40
5.0
100
AcDbArc
 50
270.0000000002084
 51
345.1189814279746
  0
LINE
  5
1001
330
A
100
AcDbEntity
  8
MODEL
100
AcDbLine
 10
1685.596186705802
 20
1094.845725225289
 30
0.0
 11
1597.465790724177
 21
1094.845725225291
 31
0.0
  0
LINE
  5
1002
102
{ACAD_REACTORS
330
11CE
102
}
330
A
100
AcDbEntity
  8
HIDDEN
100
AcDbLine
 10
1454.42377135556
 20
917.8457252252904
 30
0.0
 11
1408.199586572801
 21
917.8457252252895
 31
0.0
  0
LINE
  5
1003
330
A
100
AcDbEntity
  8
HIDDEN
100
AcDbLine
 10
1455.094578705415
 20
956.2762525601386
 30
0.0
 11
1407.752964005704
 21
956.2762525601386
 31
0.0
  0
LINE
  5
1004
330
A
100
AcDbEntity
  8
HIDDEN
100
AcDbLine
 10
1470.549242948657
 20
967.5967942656619
 30
0.0
 11
1392.298299762437
 21
967.5967942656619
 31
0.0
  0
LINE
  5
1006
330
A
100
AcDbEntity
  8
MODEL
100
AcDbLine
 10
1241.356797908223
 20
1088.741010786666
 30
0.0
 11
1242.718292972621
 21
1005.741010786808
 31
0.0
  0
LINE
  5
1007
330
A
100
AcDbEntity
  8
HIDDEN
100
AcDbLine
 10
1249.444377958554
 20
1083.793368005978
 30
0.0
 11
1250.545863265508
 21
1015.689317033643
 31
0.0
  0
LINE
  5
1008
330
A
100
AcDbEntity
  8
HIDDEN
100
AcDbLine
 10
1455.094578705414
 20
956.2762525601386
 30
0.0
 11
1465.124674270288
 21
964.6925020492956
 31
0.0
  0
LINE
  5
100C
330
A
100
AcDbEntity
  8
HIDDEN
100
AcDbLine
 10
1454.42377135556
 20
917.8457252252904
 30
0.0
 11
1455.094578705414
 21
956.2762525601386
 31
0.0
  0
ARC
  5
1012
330
A
100
AcDbEntity
  8
HIDDEN
100
AcDbCircle
 10
1395.133830360618
 20
946.8457252252867
 30
0.0
 40
2.0
100
AcDbArc
 50
184.9999999986136
 51
269.9999999979677
  0
ARC
  5
1013
102
{ACAD_REACTORS
330
11A1
102
}
330
A
100
AcDbEntity
  8
MODEL
100
AcDbCircle
 10
1247.355884079162
 20
1088.845725225289
 30
0.0
 40
6.0
100
AcDbArc
 50
89.99999999932257
 51
180.9999999986206
  0
ARC
  5
1014
102
{ACAD_REACTORS
330
11A1
102
}
330
A
100
AcDbEntity
  8
MODEL
100
AcDbCircle
 10
1248.717379143562
 20
1005.845725225289
 30
0.0
 40
6.0
100
AcDbArc
 50
180.9999999986206
 51
269.9999999979677
  0
LINE
  5
1015
330
A
100
AcDbEntity
  8
HIDDEN
100
AcDbLine
 10
1407.952484602497
 20
944.8457252252913
 30
0.0
 11
1395.133830360618
 21
944.8457252252867
 31
0.0
  0
LINE
  5
1018
330
A
100
AcDbEntity
  8
HIDDEN
100
AcDbLine
 10
1407.752964005703
 20
956.2762525601377
 30
0.0
 11
1407.952484602497
 21
944.8457252252913
 31
0.0
  0
LINE
  5
1019
330
A
100
AcDbEntity
  8
HIDDEN
100
AcDbLine
 10
1408.002406457093
 20
929.9401371217457
 30
0.0
 11
1408.199586572801
 21
917.8457252252895
 31
0.0
  0
LINE
  5
101D
330
A
100
AcDbEntity
  8
HIDDEN
100
AcDbLine
 10
1408.002406457093
 20
929.9401371217457
 30
0.0
 11
1314.842671739596
 21
929.9401371217475
 31
0.0
  0
ARC
  5
101E
330
A
100
AcDbEntity
  8
HIDDEN
100
AcDbCircle
 10
1314.842671739596
 20
935.9401371217475
 30
0.0
 40
6.0
100
AcDbArc
 50
194.8810185720523
 51
270.0
  0
LINE
  5
101F
330
A
100
AcDbEntity
  8
MODEL
100
AcDbLine
 10
1247.355884079162
 20
1094.845725225289
 30
0.0
 11
1265.452665646005
 21
1094.84572522529
 31
0.0
  0
LINE
  5
1020
330
A
100
AcDbEntity
  8
HIDDEN
100
AcDbLine
 10
1252.443921044023
 20
1086.84572522529
 30
0.0
 11
1261.519216308858
 21
1086.84572522529
 31
0.0
  0
ARC
  5
1021
330
A
100
AcDbEntity
  8
HIDDEN
100
AcDbCircle
 10
1252.443921044023
 20
1083.84572522529
 30
0.0
 40
3.0
100
AcDbArc
 50
89.99999999973944
 51
180.9999999995065
  0
LINE
  5
1022
330
A
100
AcDbEntity
  8
HIDDEN
100
AcDbLine
 10
1393.141440964434
 20
946.6714137397914
 30
0.0
 11
1393.141440964434
 21
952.6334136538765
 31
0.0
  0
LINE
  5
1023
102
{ACAD_REACTORS
330
11CE
102
}
330
A
100
AcDbEntity
  8
MODEL
100
AcDbLine
 10
1691.595127243454
 20
1088.73297583188
 30
0.0
 11
1690.146502487699
 21
1005.741010786643
 31
0.0
  0
ARC
  5
1027
330
A
100
AcDbEntity
  8
MODEL
100
AcDbCircle
 10
1685.596186705802
 20
1088.845725225289
 30
0.0
 40
6.0
100
AcDbArc
 50
358.9232592258127
 51
89.999999999531
  0
LINE
  5
1028
330
A
100
AcDbEntity
  8
HIDDEN
100
AcDbLine
 10
1397.722868440831
 20
964.6925020492947
 30
0.0
 11
1407.752964005703
 21
956.2762525601377
 31
0.0
  0
ARC
  5
1029
330
A
100
AcDbEntity
  8
HIDDEN
100
AcDbCircle
 10
1597.465790724175
 20
1088.845725225291
 30
0.0
 40
6.0
100
AcDbArc
 50
89.99999999973944
 51
174.7726279656767
  0
ARC
  5
102A
330
A
100
AcDbEntity
  8
MODEL
100
AcDbCircle
 10
1250.218292972623
 20
1002.34572522529
 30
0.0
 40
2.5
100
AcDbArc
 50
270.0000000004169
 51
0.0
  0
LINE
  5
102B
330
A
100
AcDbEntity
  8
MODEL
100
AcDbLine
 10
1255.218292972623
 20
1004.845725225289
 30
0.0
 11
1277.433048790885
 21
1004.845725225289
 31
0.0
  0
ARC
  5
102C
330
A
100
AcDbEntity
  8
MODEL
100
AcDbCircle
 10
1255.218292972623
 20
1002.345725225289
 30
0.0
 40
2.5
100
AcDbArc
 50
89.99999999954143
 51
179.999999999062
  0
ARC
  5
102D
330
A
100
AcDbEntity
  8
HIDDEN
100
AcDbCircle
 10
1255.218292972623
 20
1002.345725225289
 30
0.0
 40
10.5
100
AcDbArc
 50
89.99999999953349
 51
97.11824866748405
  0
ARC
  5
102E
330
A
100
AcDbEntity
  8
HIDDEN
100
AcDbCircle
 10
1253.545406350977
 20
1015.74167425293
 30
0.0
 40
3.0
100
AcDbArc
 50
180.9999999995065
 51
277.1182486670638
  0
LINE
  5
102F
330
A
100
AcDbEntity
  8
MODEL
100
AcDbLine
 10
1685.596186705802
 20
1094.845725225289
 30
0.0
 11
1661.263864247356
 21
1094.845725225289
 31
0.0
  0
LINE
  5
1031
330
A
100
AcDbEntity
  8
MODEL
100
AcDbLine
 10
1612.577763618396
 20
1082.78488820702
 30
0.0
 11
1612.577763618396
 21
1094.845725225291
 31
0.0
  0
LINE
  5
1032
330
A
100
AcDbEntity
  8
MODEL
100
AcDbLine
 10
1650.577763618396
 20
1094.84572522529
 30
0.0
 11
1650.577725727486
 21
1082.78488820702
 31
0.0
  0
ARC
  5
1034
330
A
100
AcDbEntity
  8
HIDDEN
100
AcDbCircle
 10
1474.766488415582
 20
953.2018354025142
 30
0.0
 40
15.0
100
AcDbArc
 50
94.1477901193661
 51
129.9999999993181
  0
ARC
  5
1035
330
A
100
AcDbEntity
  8
HIDDEN
100
AcDbCircle
 10
1386.671900450087
 20
950.8600315442893
 30
0.0
 40
17.70483362825566
100
AcDbArc
 50
51.37811832463824
 51
82.78330226834308
  0
LINE
  5
1037
330
A
100
AcDbEntity
  8
MODEL
100
AcDbLine
 10
1309.803984161748
 20
914.857190180853
 30
0.0
 11
1313.163901807983
 21
914.857190180853
 31
0.0
  0
LINE
  5
103F
330
A
100
AcDbEntity
  8
HIDDEN
100
AcDbLine
 10
1309.04390447117
 20
934.3992613426419
 30
0.0
 11
1290.963505750547
 21
1002.441102043196
 31
0.0
  0
ARC
  5
1040
330
A
100
AcDbEntity
  8
MODEL
100
AcDbCircle
 10
1277.433048790885
 20
998.8457252252895
 30
0.0
 40
6.0
100
AcDbArc
 50
14.88101857199857
 51
89.99999999973944
  0
ARC
  5
1041
330
A
100
AcDbEntity
  8
HIDDEN
100
AcDbCircle
 10
1277.433048790885
 20
998.8457252252895
 30
0.0
 40
14.0
100
AcDbArc
 50
14.88101857199849
 51
89.99999999973944
  0
LINE
  5
1043
330
A
100
AcDbEntity
  8
MODEL
100
AcDbLine
 10
1265.465392497176
 20
1094.84572522529
 30
0.0
 11
1598.557858954859
 21
1094.845725225289
 31
0.0
  0
ARC
  5
1044
330
A
100
AcDbEntity
  8
HIDDEN
100
AcDbCircle
 10
1400.330395437622
 20
937.3673196431248
 30
0.0
 40
10.67814559222585
100
AcDbArc
 50
315.9289509694309
 51
44.45483809783502
  0
LINE
  5
1045
330
A
100
AcDbEntity
  8
HIDDEN
100
AcDbLine
 10
1255.218292972633
 20
1012.845725225289
 30
0.0
 11
1277.433048790885
 21
1012.845725225289
 31
0.0
  0
ARC
  5
1046
330
A
100
AcDbEntity
  8
HIDDEN
100
AcDbCircle
 10
1384.969522126125
 20
952.5713500721452
 30
0.0
 40
8.172154513227117
100
AcDbArc
 50
0.435138062165245
 51
79.2417016681755
  0
LINE
  5
1048
330
A
100
AcDbEntity
  8
MODEL
100
AcDbLine
 10
1248.717379143423
 20
999.8457252252895
 30
0.0
 11
1250.218292972632
 21
999.8457252252895
 31
0.0
  0
ARC
  5
1049
330
A
100
AcDbEntity
  8
HIDDEN
100
AcDbCircle
 10
1261.519216308858
 20
1083.84572522529
 30
0.0
 40
3.0
100
AcDbArc
 50
17.874490845585
 51
90.0
  0
ARC
  5
104C
330
A
100
AcDbEntity
  8
MODEL
100
AcDbCircle
 10
1309.803984161766
 20
919.857190180853
 30
0.0
 40
5.0
100
AcDbArc
 50
194.8810185720524
 51
269.9999999997916
  0
LINE
  5
104D
330
A
100
AcDbEntity
  8
MODEL
100
AcDbLine
 10
1667.248937212672
 20
914.8571901808521
 30
0.0
 11
1313.163901807983
 21
914.857190180853
 31
0.0
  0
LINE
  5
104E
330
A
100
AcDbEntity
  8
HIDDEN
100
AcDbLine
 10
1286.564164270001
 20
1048.396197461512
 30
0.0
 11
1279.335225798206
 21
1044.962892740194
 31
0.0
  0
LINE
  5
104F
330
A
100
AcDbEntity
  8
HIDDEN
100
AcDbLine
 10
1277.067741365564
 20
1070.45525553833
 30
0.0
 11
1269.805606231412
 21
1067.00618442779
 31
0.0
  0
SPLINE
  5
1050
330
A
100
AcDbEntity
  8
HIDDEN
100
AcDbSpline
210
0.0
220
0.0
230
1.0
 70
     8
 71
     3
 72
     8
 73
     4
 74
     0
 42
0.000000001
 43
0.0000000001
 40
-0.0001724528812138
 40
-0.0001724528812138
 40
-0.0001724528812138
 40
-0.0001724528812138
 40
0.1001296133632335
 40
0.1001296133632335
 40
0.1001296133632335
 40
0.1001296133632335
 10
1264.374409760322
 20
1084.766523984369
 30
0.0
 10
1265.870350242588
 20
1078.807975548582
 30
0.0
 10
1267.694008162398
 20
1072.852220088927
 30
0.0
 10
1269.824820982271
 20
1066.952962868256
 30
0.0
  0
SPLINE
  5
1051
330
A
100
AcDbEntity
  8
HIDDEN
100
AcDbSpline
210
0.0
220
0.0
230
1.0
 70
     8
 71
     3
 72
     8
 73
     4
 74
     0
 42
0.000000001
 43
0.0000000001
 40
0.1001296133632335
 40
0.1001296133632335
 40
0.1001296133632335
 40
0.1001296133632335
 40
0.2269062481924332
 40
0.2269062481924332
 40
0.2269062481924332
 40
0.2269062481924332
 10
1269.824820982271
 20
1066.952962868256
 30
0.0
 10
1272.518058408669
 20
1059.49660622047
 30
0.0
 10
1275.701995914138
 20
1052.130509211491
 30
0.0
 10
1279.335112792935
 20
1044.963115676037
 30
0.0
  0
SPLINE
  5
1052
330
A
100
AcDbEntity
  8
HIDDEN
100
AcDbSpline
210
0.0
220
0.0
230
1.0
 70
     8
 71
     3
 72
     8
 73
     4
 74
     0
 42
0.000000001
 43
0.0000000001
 40
0.2269062481924332
 40
0.2269062481924332
 40
0.2269062481924332
 40
0.2269062481924332
 40
1.0
 40
1.0
 40
1.0
 40
1.0
 10
1279.335112792935
 20
1044.963115676037
 30
0.0
 10
1301.490141299314
 20
1001.255794003789
 30
0.0
 10
1340.348600990787
 20
964.9375689672418
 30
0.0
 10
1386.494988180522
 20
960.599865669996
 30
0.0
  0
SPLINE
  5
1053
330
A
100
AcDbEntity
  8
HIDDEN
100
AcDbSpline
210
0.0
220
0.0
230
1.0
 70
     8
 71
     3
 72
     9
 73
     5
 74
     0
 42
0.000000001
 43
0.0000000001
 40
0.0
 40
0.0
 40
0.0
 40
0.0
 40
8.718563869107488
 40
20.54764514647254
 40
20.54764514647254
 40
20.54764514647254
 40
20.54764514647254
 10
1271.301783969803
 20
1090.182817157137
 30
0.0
 10
1271.949424047951
 20
1087.34971095247
 30
0.0
 10
1273.650985993388
 20
1080.712788360868
 30
0.0
 10
1275.743244269268
 20
1074.175097948938
 30
0.0
 10
1277.067741365565
 20
1070.45525553833
 30
0.0
  0
SPLINE
  5
1054
330
A
100
AcDbEntity
  8
HIDDEN
100
AcDbSpline
210
0.0
220
0.0
230
1.0
 70
     8
 71
     3
 72
    10
 73
     6
 74
     0
 42
0.000000001
 43
0.0000000001
 40
20.54764514647254
 40
20.54764514647254
 40
20.54764514647254
 40
20.54764514647254
 40
26.15569160732246
 40
39.50999370501618
 40
44.57068606329658
 40
44.57068606329658
 40
44.57068606329658
 40
44.57068606329658
 10
1277.067741365565
 20
1070.45525553833
 30
0.0
 10
1277.695671893653
 20
1068.691716293263
 30
0.0
 10
1279.910078503591
 20
1062.762024465591
 30
0.0
 10
1283.091510594875
 20
1055.409449533382
 30
0.0
 10
1285.799675277291
 20
1049.900293344199
 30
0.0
 10
1286.564085215367
 20
1048.396352997603
 30
0.0
  0
SPLINE
  5
1055
330
A
100
AcDbEntity
  8
HIDDEN
100
AcDbSpline
210
0.0
220
0.0
230
1.0
 70
     8
 71
     3
 72
    18
 73
    14
 74
     0
 42
0.000000001
 43
0.0000000001
 40
44.57068606329658
 40
44.57068606329658
 40
44.57068606329658
 40
44.57068606329658
 40
52.94054501891065
 40
79.71475798597564
 40
92.94161035015665
 40
105.9816254475774
 40
118.7975810802043
 40
131.3732257163412
 40
143.7198747217057
 40
155.883838473133
 40
167.9537041417453
 40
176.028270777789
 40
180.0655540958109
 40
180.0655540958109
 40
180.0655540958109
 40
180.0655540958109
 10
1286.564085215367
 20
1048.396352997603
 30
0.0
 10
1287.828339770476
 20
1045.908992042324
 30
0.0
 10
1293.368452809435
 20
1035.580292774917
 30
0.0
 10
1302.312868837688
 20
1022.081905398169
 30
0.0
 10
1313.711881995401
 20
1008.54751832334
 30
0.0
 10
1322.896623197825
 20
999.2859258320025
 30
0.0
 10
1332.68877172074
 20
990.9992502735934
 30
0.0
 10
1343.032320909425
 20
983.8042405862655
 30
0.0
 10
1353.872882182496
 20
977.813785314944
 30
0.0
 10
1365.164091352845
 20
973.135755417786
 30
0.0
 10
1375.563168688811
 20
970.2391376360558
 30
0.0
 10
1383.535075636794
 20
968.920033727147
 30
0.0
 10
1387.554095824855
 20
968.5261146048026
 30
0.0
 10
1388.896023444803
 20
968.4246098400693
 30
0.0
  0
SPLINE
  5
1056
330
A
100
AcDbEntity
  8
HIDDEN
100
AcDbSpline
210
0.0
220
0.0
230
1.0
 70
     8
 71
     3
 72
    21
 73
    17
 74
     0
 42
0.000000001
 43
0.0000000001
 40
0.0
 40
0.0
 40
0.0
 40
0.0
 40
8.718563869107605
 40
26.15569160732282
 40
39.50999370501658
 40
52.94054501891115
 40
79.71475798597604
 40
92.94161035015735
 40
105.9816254475782
 40
118.7975810802053
 40
131.3732257163423
 40
143.7198747217067
 40
155.8838384731344
 40
167.9537041417468
 40
176.0282707777904
 40
180.0655540958122
 40
180.0655540958122
 40
180.0655540958122
 40
180.0655540958122
 10
1591.490744802905
 20
1089.392375240117
 30
0.0
 10
1590.898118663167
 20
1087.34971095247
 30
0.0
 10
1588.732151265037
 20
1078.901380290238
 30
0.0
 10
1584.50401937082
 20
1066.382473965392
 30
0.0
 10
1578.647590517484
 20
1052.847741573252
 30
0.0
 10
1570.414878053569
 20
1036.99252929621
 30
0.0
 10
1560.534673873433
 20
1022.081905398168
 30
0.0
 10
1549.135660715716
 20
1008.54751832334
 30
0.0
 10
1539.950919513293
 20
999.2859258320016
 30
0.0
 10
1530.158770990378
 20
990.9992502735925
 30
0.0
 10
1519.815221801693
 20
983.8042405862655
 30
0.0
 10
1508.974660528621
 20
977.8137853149431
 30
0.0
 10
1497.683451358273
 20
973.135755417786
 30
0.0
 10
1487.284374022307
 20
970.2391376360558
 30
0.0
 10
1479.312467074324
 20
968.920033727147
 30
0.0
 10
1475.293446886262
 20
968.5261146048026
 30
0.0
 10
1473.68154772056
 20
968.1625474072382
 30
0.0
  0
ARC
  5
1058
330
A
100
AcDbEntity
  8
HIDDEN
100
AcDbCircle
 10
1265.452665646008
 20
1088.845725225292
 30
0.0
 40
6.0
100
AcDbArc
 50
12.87640353353358
 51
90.00000000005215
  0
ARC
  5
105A
330
A
100
AcDbEntity
  8
MODEL
100
AcDbCircle
 10
1684.14741631676
 20
1005.845725225291
 30
0.0
 40
6.0
100
AcDbArc
 50
270.0
 51
358.9999999997636
  0
LINE
  5
105B
330
A
100
AcDbEntity
  8
MODEL
100
AcDbLine
 10
1684.14741631676
 20
999.8457252252913
 30
0.0
 11
1677.26102497053
 21
999.8457252252913
 31
0.0
  0
SPLINE
  5
105C
330
A
100
AcDbEntity
  8
MODEL
100
AcDbSpline
210
0.0
220
0.0
230
1.0
 70
     8
 71
     5
 72
    12
 73
     6
 74
     0
 42
0.000000001
 43
0.0000000001
 40
0.0
 40
0.0
 40
0.0
 40
0.0
 40
0.0
 40
0.0
 40
1.0
 40
1.0
 40
1.0
 40
1.0
 40
1.0
 40
1.0
 10
1677.59112984211
 20
999.8457252252913
 30
0.0
 10
1676.659188945161
 20
999.8457252252813
 30
0.0
 10
1675.727248048211
 20
999.8457252252704
 30
0.0
 10
1674.624327543567
 20
998.7620012321997
 30
0.0
 10
1674.607957925982
 20
997.8302040821502
 30
0.0
 10
1674.591592536674
 20
996.8984068578395
 30
0.0
  0
ARC
  5
105E
330
A
100
AcDbEntity
  8
MODEL
100
AcDbCircle
 10
-794337.5605993965
 20
14784.96737720773
 30
0.0
 40
796131.5577736914
100
AcDbArc
 50
359.0020285881475
 51
359.0076543888919
  0
ARC
  5
105F
330
A
100
AcDbEntity
  8
MODEL
100
AcDbCircle
 10
1669.234528899754
 20
918.808706515548
 30
0.0
 40
4.0
100
AcDbArc
 50
268.5650589893269
 51
359.0020285875743
  0
LINE
  5
1060
330
A
100
AcDbEntity
  8
MODEL
100
AcDbLine
 10
1667.248937212601
 20
914.857190180853
 30
0.0
 11
1669.134361590915
 21
914.8099608984533
 31
0.0
  0
LINE
  5
1062
330
A
100
AcDbEntity
  8
MODEL
100
AcDbLine
 10
1283.231816059312
 20
1000.386601004391
 30
0.0
 11
1304.971678104745
 21
918.5731270315976
 31
0.0
  0
CIRCLE
  5
111A
330
A
100
AcDbEntity
  8
HIDDEN
100
AcDbCircle
 10
1469.662365382176
 20
1963.958146962221
 30
0.0
 40
225.0
  0
CIRCLE
  5
111B
330
A
100
AcDbEntity
  8
HIDDEN
100
AcDbCircle
 10
1469.662365382176
 20
2129.202491408607
 30
0.0
 40
17.5
  0
CIRCLE
  5
111C
330
A
100
AcDbEntity
  8
HIDDEN
100
AcDbCircle
 10
1469.662365382176
 20
1929.05494592848
 30
0.0
 40
160.0669734473362
  0
CIRCLE
  5
111D
330
A
100
AcDbEntity
  8
HIDDEN
100
AcDbCircle
 10
1469.662365382176
 20
1929.05494592848
 30
0.0
 40
22.5
  0
CIRCLE
  5
111E
330
A
100
AcDbEntity
  8
HIDDEN
100
AcDbCircle
 10
1469.662365382176
 20
1929.05494592848
 30
0.0
 40
39.0
  0
SPLINE
  5
111F
330
A
100
AcDbEntity
  8
HIDDEN
100
AcDbSpline
210
0.0
220
0.0
230
1.0
 70
     8
 71
     3
 72
    10
 73
     6
 74
     0
 42
0.000000001
 43
0.0000000001
 40
0.0
 40
0.0
 40
0.0
 40
0.0
 40
2.807615945840406
 40
5.625121226918836
 40
8.295816872222396
 40
8.295816872222396
 40
8.295816872222396
 40
8.295816872222396
 10
1469.662570673305
 20
1773.352941674313
 30
0.0
 10
1468.726698691734
 20
1773.352915245442
 30
0.0
 10
1466.842988264359
 20
1773.259694824022
 30
0.0
 10
1464.253622127285
 20
1772.864108602328
 30
0.0
 10
1462.750331147311
 20
1772.463534380166
 30
0.0
 10
1462.082515225312
 20
1772.243567275842
 30
0.0
  0
SPLINE
  5
1120
330
A
100
AcDbEntity
  8
HIDDEN
100
AcDbSpline
210
0.0
220
0.0
230
1.0
 70
     8
 71
     3
 72
    22
 73
    18
 74
     0
 42
0.000000001
 43
0.0000000001
 40
0.0
 40
0.0
 40
0.0
 40
0.0
 40
3.574504061786346
 40
6.256081213865947
 40
8.878291618990955
 40
11.55310437475148
 40
14.47834718805741
 40
17.39932998301717
 40
20.38670640035675
 40
23.60634822951825
 40
26.69418736092896
 40
29.76870836607995
 40
32.92188577764934
 40
35.8270921578961
 40
38.67046509571004
 40
41.54522838413685
 40
45.16795238009509
 40
45.16795238009509
 40
45.16795238009509
 40
45.16795238009509
 10
1469.662396388982
 20
1781.465599074151
 30
0.0
 10
1468.481595425524
 20
1781.465597796975
 30
0.0
 10
1466.41549578147
 20
1781.355085146771
 30
0.0
 10
1463.674434433231
 20
1780.942686114643
 30
0.0
 10
1461.448935139939
 20
1780.402024648133
 30
0.0
 10
1459.472203175647
 20
1779.701700091294
 30
0.0
 10
1457.830290722741
 20
1778.857059523126
 30
0.0
 10
1456.615045234747
 20
1777.897696023412
 30
0.0
 10
1455.900310864794
 20
1776.86231314648
 30
0.0
 10
1455.771203378295
 20
1775.80485955391
 30
0.0
 10
1456.264645775095
 20
1774.778709036068
 30
0.0
 10
1457.352167156357
 20
1773.838104077882
 30
0.0
 10
1458.983085001472
 20
1773.028486166579
 30
0.0
 10
1461.056013471591
 20
1772.376847788179
 30
0.0
 10
1463.43792853403
 20
1771.894283891016
 30
0.0
 10
1466.320377628225
 20
1771.550498238575
 30
0.0
 10
1468.465946109855
 20
1771.463056802663
 30
0.0
 10
1469.662402425929
 20
1771.463057309097
 30
0.0
  0
LINE
  5
1121
330
A
100
AcDbEntity
  8
HIDDEN
100
AcDbLine
 10
1469.662402146498
 20
1771.499588320726
 30
0.0
 11
1469.66240216199
 21
1771.463057309097
 31
0.0
  0
SPLINE
  5
1122
330
A
100
AcDbEntity
  8
HIDDEN
100
AcDbSpline
210
0.0
220
0.0
230
1.0
 70
     8
 71
     3
 72
    10
 73
     6
 74
     0
 42
0.000000001
 43
0.0000000001
 40
0.0
 40
0.0
 40
0.0
 40
0.0
 40
2.807615945840406
 40
5.625121226918836
 40
8.295816872222348
 40
8.295816872222348
 40
8.295816872222348
 40
8.295816872222348
 10
1469.662160096365
 20
1773.352941674313
 30
0.0
 10
1470.598032077936
 20
1773.352915245442
 30
0.0
 10
1472.481742505311
 20
1773.259694824022
 30
0.0
 10
1475.071108642384
 20
1772.864108602328
 30
0.0
 10
1476.574399622359
 20
1772.463534380166
 30
0.0
 10
1477.242215544358
 20
1772.243567275842
 30
0.0
  0
SPLINE
  5
1123
330
A
100
AcDbEntity
  8
HIDDEN
100
AcDbSpline
210
0.0
220
0.0
230
1.0
 70
     8
 71
     3
 72
    22
 73
    18
 74
     0
 42
0.000000001
 43
0.0000000001
 40
0.0
 40
0.0
 40
0.0
 40
0.0
 40
3.574504061786346
 40
6.256081213865947
 40
8.878291618990955
 40
11.55310437475148
 40
14.47834718805741
 40
17.39932998301717
 40
20.38670640035675
 40
23.60634822951825
 40
26.69418736092896
 40
29.76870836607995
 40
32.92188577764934
 40
35.8270921578961
 40
38.67046509571004
 40
41.54522838413685
 40
45.16795238009509
 40
45.16795238009509
 40
45.16795238009509
 40
45.16795238009509
 10
1469.662334380688
 20
1781.465599074151
 30
0.0
 10
1470.843135344146
 20
1781.465597796975
 30
0.0
 10
1472.9092349882
 20
1781.355085146771
 30
0.0
 10
1475.650296336439
 20
1780.942686114643
 30
0.0
 10
1477.875795629731
 20
1780.402024648133
 30
0.0
 10
1479.852527594023
 20
1779.701700091294
 30
0.0
 10
1481.494440046929
 20
1778.857059523126
 30
0.0
 10
1482.709685534923
 20
1777.897696023412
 30
0.0
 10
1483.424419904876
 20
1776.86231314648
 30
0.0
 10
1483.553527391375
 20
1775.80485955391
 30
0.0
 10
1483.060084994575
 20
1774.778709036068
 30
0.0
 10
1481.972563613313
 20
1773.838104077882
 30
0.0
 10
1480.341645768198
 20
1773.028486166579
 30
0.0
 10
1478.268717298079
 20
1772.376847788179
 30
0.0
 10
1475.886802235641
 20
1771.894283891016
 30
0.0
 10
1473.004353141445
 20
1771.550498238575
 30
0.0
 10
1470.858784659815
 20
1771.463056802663
 30
0.0
 10
1469.662328343741
 20
1771.463057309097
 30
0.0
  0
DIMENSION
  5
115D
102
{ACAD_REACTORS
330
115F
102
}
102
{ACAD_XDICTIONARY
360
115E
102
}
330
A
100
AcDbEntity
  8
DIM
100
AcDbDimension
  2
*D8
 10
827.2713987522075
 20
2288.958146962221
 30
0.0
 11
602.2713987522075
 21
2320.958146962221
 31
0.0
 70
    32
 71
     5
 42
449.9999999999999
 73
     0
 74
     0
 75
     0
  3
tfrom線あり
100
AcDbAlignedDimension
 13
377.2713987522075
 23
1963.958146962221
 33
0.0
 14
827.2713987522075
 24
1963.958146962221
 34
0.0
100
AcDbRotatedDimension
1001
ACAD
1000
DSTYLE
1002
{
1070
     3
1000
Φ<>
1002
}
  0
DIMENSION
  5
116C
102
{ACAD_REACTORS
330
116E
102
}
102
{ACAD_XDICTIONARY
360
116D
102
}
330
A
100
AcDbEntity
  8
DIM
100
AcDbDimension
  2
*D9
 10
277.2713987522075
 20
2089.121919375816
 30
0.0
 11
245.2713987522075
 21
2139.040033169018
 31
0.0
 70
    32
 71
     5
 42
99.83622758640469
 73
     0
 74
     0
 75
     0
  3
tfrom線あり
100
AcDbAlignedDimension
 13
602.2713987522075
 23
2188.958146962221
 33
0.0
 14
415.2980582054929
 24
2089.121919375816
 34
0.0
 50
90.0
100
AcDbRotatedDimension
  0
DIMENSION
  5
117B
330
A
100
AcDbEntity
  8
DIM
100
AcDbDimension
  2
*D10
 10
277.2713987522075
 20
1768.987972481144
 30
0.0
 11
245.2713987522075
 21
1929.05494592848
 31
0.0
 70
    32
 71
     5
 42
320.1339468946721
 73
     0
 74
     0
 75
     0
  3
tfrom線あり
100
AcDbAlignedDimension
 13
415.2980582054929
 23
2089.121919375816
 33
0.0
 14
489.9698802281096
 24
1768.987972481144
 34
0.0
 50
90.0
100
AcDbRotatedDimension
  0
DIMENSION
  5
118D
330
A
100
AcDbEntity
  8
DIM
100
AcDbDimension
  2
*D11
 10
762.3383721995438
 20
1638.958146962221
 30
0.0
 11
602.2713987522075
 21
1670.958146962221
 31
0.0
 70
    32
 71
     5
 42
320.1339468946725
 73
     0
 74
     0
 75
     0
  3
tfrom線あり
100
AcDbAlignedDimension
 13
442.2044253048712
 23
1805.83299396179
 33
0.0
 14
762.3383721995438
 24
1805.83299396179
 34
0.0
100
AcDbRotatedDimension
1001
ACAD
1000
DSTYLE
1002
{
1070
     3
1000
Φ<>
1002
}
  0
DIMENSION
  5
119F
102
{ACAD_REACTORS
330
11A1
102
}
102
{ACAD_XDICTIONARY
360
11A0
102
}
330
A
100
AcDbEntity
  8
DIM
100
AcDbDimension
  2
*D12
 10
1141.356797908224
 20
999.8457252252895
 30
0.0
 11
1109.356797908224
 21
1047.345725225289
 31
0.0
 70
    32
 71
     5
 42
94.99999999999955
 73
     0
 74
     0
 75
     0
  3
tfrom線あり
100
AcDbAlignedDimension
 13
1247.355884079233
 23
1094.845725225289
 33
0.0
 14
1248.717379143349
 24
999.8457252252895
 34
0.0
 50
90.0
100
AcDbRotatedDimension
  0
DIMENSION
  5
11AE
330
A
100
AcDbEntity
  8
DIM
100
AcDbDimension
  2
*D13
 10
1141.356797908223
 20
914.857190180853
 30
0.0
 11
1109.356797908223
 21
957.3514577030712
 31
0.0
 70
    32
 71
     5
 42
84.9885350444365
 73
     0
 74
     0
 75
     0
  3
tfrom線あり
100
AcDbAlignedDimension
 13
1248.717379143562
 23
999.8457252252895
 33
0.0
 14
1309.803984161748
 24
914.857190180853
 34
0.0
 50
90.0
100
AcDbRotatedDimension
  0
DIMENSION
  5
11BD
102
{ACAD_REACTORS
330
11BF
102
}
102
{ACAD_XDICTIONARY
360
11BE
102
}
330
A
100
AcDbEntity
  8
DIM
100
AcDbDimension
  2
*D14
 10
927.2722628214706
 20
914.894967470962
 30
0.0
 11
895.2722628214706
 21
1004.870346348126
 31
0.0
 70
    32
 71
     5
 42
179.9507577543279
 73
     0
 74
     0
 75
     0
  3
tfrom線あり
100
AcDbAlignedDimension
 13
821.1935296388137
 23
1094.84572522529
 33
0.0
 14
754.6215751382538
 24
914.894967470962
 34
0.0
 50
90.0
100
AcDbRotatedDimension
  0
DIMENSION
  5
11CC
102
{ACAD_REACTORS
330
11CE
102
}
102
{ACAD_XDICTIONARY
360
11CD
102
}
330
A
100
AcDbEntity
  8
DIM
100
AcDbDimension
  2
*D15
 10
1431.31167896418
 20
814.8949674709618
 30
0.0
 11
1561.453403103817
 21
846.8949674709618
 31
0.0
 70
    32
 71
     5
 42
260.2834482792741
 73
     0
 74
     0
 75
     0
  3
tfrom線あり
100
AcDbAlignedDimension
 13
1691.595127243454
 23
1088.73297583188
 33
0.0
 14
1431.31167896418
 24
917.8457252252899
 34
0.0
100
AcDbRotatedDimension
  0
DIMENSION
  5
11EA
330
A
100
AcDbEntity
  8
DIM
100
AcDbDimension
  2
*D16
 10
1435.691175345994
 20
969.8457252252899
 30
0.0
 11
1435.691175345994
 21
1203.86172522529
 31
0.0
 70
   160
 71
     5
 42
125.0
 73
     0
 74
     1
 75
     1
  3
tfrom線あり
100
AcDbAlignedDimension
 13
1432.011625726017
 23
1094.84572522529
 33
0.0
 14
1432.011625726017
 24
969.8457252252899
 34
0.0
 50
90.0
100
AcDbRotatedDimension
1001
ACAD
1000
DSTYLE
1002
{
1070
   172
1070
     1
1070
     3
1000
<>(深さ)
1002
}
  0
DIMENSION
  5
11FA
330
A
100
AcDbEntity
  8
DIM
100
AcDbDimension
  2
*D17
 10
757.2318612891986
 20
814.894967470962
 30
0.0
 11
602.0767743459201
 21
846.894967470962
 31
0.0
 70
    32
 71
     5
 42
310.3101738865571
 73
     0
 74
     0
 75
     0
  3
tfrom線あり
100
AcDbAlignedDimension
 13
446.9216874026415
 23
915.8688633190454
 33
0.0
 14
757.2318612891986
 24
915.8688633190454
 34
0.0
100
AcDbRotatedDimension
  0
DIMENSION
  5
1209
330
A
100
AcDbEntity
  8
DIM
  6
Continuous
100
AcDbDimension
  2
*D18
 10
1631.595127243454
 20
1194.845725225291
 30
0.0
 11
1661.595127243454
 21
1226.845725225291
 31
0.0
 70
    32
 71
     5
 42
60.0
 73
     0
 74
     1
 75
     1
  3
tfrom線あり
100
AcDbAlignedDimension
 13
1691.595127243454
 23
1088.732975831877
 33
0.0
 14
1631.595127243454
 24
1088.732975831877
 34
0.0
100
AcDbRotatedDimension
1001
ACAD
1000
DSTYLE
1002
{
1070
   172
1070
     1
1002
}
  0
DIMENSION
  5
121F
102
{ACAD_REACTORS
330
1221
102
}
102
{ACAD_XDICTIONARY
360
1220
102
}
330
A
100
AcDbEntity
  8
MODEL
  6
Continuous
100
AcDbDimension
  2
*D19
 10
587.9340937696111
 20
2119.167966714531
 30
0.0
 11
701.5181044806567
 21
2198.664187358208
 31
0.0
 70
   163
  1
<>
 71
     5
 42
35.00000000000026
 73
     0
 74
     0
 75
     0
  3
tfrom線あり
100
AcDbDiametricDimension
 15
616.6087037348038
 25
2139.237016102683
 35
0.0
 40
0.0
1001
ACAD_DSTYLE_DIMRADIAL_EXTENSION
1070
   387
1070
     1
1070
   388
1040
0.0
1070
   390
1040
6.283185307179586
  0
MTEXT
  5
122A
330
A
100
AcDbEntity
  8
DIM
390
1D
100
AcDbMText
 10
1329.642062880908
 20
2320.545111332352
 30
0.0
 40
24.4326171875
 41
0.0
 46
24.4326171875
 71
     1
 72
     1
  1
{カウンター切込寸法}
  7
ＭＳ ゴシック
 73
     1
 44
0.7828267384257843
1001
ACAD
1000
ACAD_MTEXT_DEFINED_HEIGHT_BEGIN
1070
    46
1040
24.4326171875
1000
ACAD_MTEXT_DEFINED_HEIGHT_END
  0
MTEXT
  5
122B
330
A
100
AcDbEntity
  8
TEMPLATE
390
1D
100
AcDbMText
 10
1329.20214454799
 20
229.5510788788304
 30
0.0
 40
24.4326171875
 41
0.0
 46
24.4326171875
 71
     1
 72
     1
  1
{14kg}
  7
ＭＳ ゴシック
 73
     1
 44
0.7828267384257843
1001
ACAD
1000
ACAD_MTEXT_DEFINED_HEIGHT_BEGIN
1070
    46
1040
24.4326171875
1000
ACAD_MTEXT_DEFINED_HEIGHT_END
  0
MTEXT
  5
122C
330
A
100
AcDbEntity
  8
TEMPLATE
390
1D
100
AcDbMText
 10
1575.946612220621
 20
229.5510788788304
 30
0.0
 40
24.4326171875
 41
0.0
 46
24.4326171875
 71
     1
 72
     1
  1
{5L}
  7
ＭＳ ゴシック
 73
     1
 44
0.7828267384257843
1001
ACAD
1000
ACAD_MTEXT_DEFINED_HEIGHT_BEGIN
1070
    46
1040
24.4326171875
1000
ACAD_MTEXT_DEFINED_HEIGHT_END
  0
MTEXT
  5
122D
330
A
100
AcDbEntity
  8
DIM
390
1D
100
AcDbMText
 10
1098.336025332033
 20
1583.87564954774
 30
0.0
 40
24.4326171875
 41
0.0
 46
118.0991272786459
 71
     1
 72
     1
  1
{\fメイリオ|b0|i0|c0|p0;※\fＭＳ ゴシック|b0|i0|c0|p0;陶器製品には寸法公差があります。\P  洗面器の収め方をご確認の上、必ず現物を合わせて\P  カウンターに切込を行ってください}
  7
ＭＳ ゴシック
 73
     1
 44
1.1
1001
ACAD
1000
ACAD_MTEXT_DEFINED_HEIGHT_BEGIN
1070
    46
1040
118.0991272786459
1000
ACAD_MTEXT_DEFINED_HEIGHT_END
  0
CIRCLE
  5
137F
102
{ACAD_REACTORS
330
1382
330
1429
102
}
330
A
100
AcDbEntity
  8
MODEL
100
AcDbCircle
 10
1469.662365382176
 20
1963.958146962221
 30
0.0
 40
215.0
  0
DIMENSION
  5
1380
102
{ACAD_REACTORS
330
1382
102
}
102
{ACAD_XDICTIONARY
360
1381
102
}
330
A
100
AcDbEntity
  8
MODEL
  6
Continuous
100
AcDbDimension
  2
*D20
 10
1684.662365382176
 20
1641.958146962221
 30
0.0
 11
1469.662365382176
 21
1673.958146962221
 31
0.0
 70
    32
 71
     5
 42
430.0
 73
     0
 74
     0
 75
     0
  3
tfrom線あり
100
AcDbAlignedDimension
 13
1254.662365382176
 23
1963.958146962221
 33
0.0
 14
1684.662365382176
 24
1963.958146962221
 34
0.0
100
AcDbRotatedDimension
1001
ACAD
1000
DSTYLE
1002
{
1070
     3
1000
Φ<>
1002
}
  0
LINE
  5
139D
330
A
100
AcDbEntity
  8
MODEL
  6
Continuous
100
AcDbLine
 10
366.1747407924827
 20
999.895252345242
 30
0.0
 11
259.4955337671627
 21
999.895252345242
 31
0.0
  0
LINE
  5
139E
330
A
100
AcDbEntity
  8
MODEL
  6
Continuous
100
AcDbLine
 10
297.4587499667925
 20
999.895252345242
 30
0.0
 11
297.4587499667925
 21
753.1480422159823
 31
0.0
  0
MTEXT
  5
139F
330
A
100
AcDbEntity
  8
TEMPLATE
390
1D
100
AcDbMText
 10
282.817903882912
 20
737.2752593236662
 30
0.0
 40
24.4326171875
 41
0.0
 46
24.4326171875
 71
     1
 72
     1
  1
{半埋め込み}
  7
ＭＳ ゴシック
 73
     1
 44
0.7828267384257843
1001
ACAD
1000
ACAD_MTEXT_DEFINED_HEIGHT_BEGIN
1070
    46
1040
24.4326171875
1000
ACAD_MTEXT_DEFINED_HEIGHT_END
  0
HATCH
  5
1429
330
A
100
AcDbEntity
  8
MODEL
100
AcDbHatch
 10
0.0
 20
0.0
 30
0.0
210
0.0
220
0.0
230
1.0
  2
ANSI31
 70
     0
 71
     1
 91
        1
 92
        1
 93
        1
 72
     2
 10
1469.662365382176
 20
1963.958146962221
 40
215.0
 50
0.0
 51
360.0
 73
     1
 97
        1
330
137F
 75
     0
 76
     1
 52
0.0
 41
3.0
 77
     0
 78
     1
 53
45.0
 43
0.0
 44
0.0
 45
-6.735192090801863
 46
6.735192090801865
 79
     0
 98
        1
 10
0.0
 20
0.0
1001
ACAD
1010
0.0
1020
0.0
1030
0.0
  0
VIEWPORT
  5
349
330
B
100
AcDbEntity
 67
     1
  8
0
100
AcDbViewport
 10
202.5
 20
128.5
 30
0.0
 40
486.0
 41
308.4
 68
     1
 69
     1
 12
202.5
 22
128.5
 13
0.0
 23
0.0
 14
0.5
 24
0.5
 15
0.0
 25
0.0
 16
0.0
 26
0.0
 36
1.0
 17
0.0
 27
0.0
 37
0.0
 42
50.0
 43
0.0
 44
0.0
 45
308.4
 50
0.0
 51
0.0
 72
   100
 90
   557152
  1

281
     0
 71
     1
 74
     0
110
0.0
120
0.0
130
0.0
111
1.0
121
0.0
131
0.0
112
0.0
122
1.0
132
0.0
 79
     0
146
0.0
170
     0
 61
     5
348
26C
292
     1
282
     1
141
0.0
142
0.0
 63
   256
  0
VIEWPORT
  5
34A
330
B
100
AcDbEntity
 67
     1
  8
0
100
AcDbViewport
 10
202.5
 20
128.5
 30
0.0
 40
324.0
 41
205.6
 68
     2
 69
     2
 12
986.6781359294573
 22
1427.077061889956
 13
0.0
 23
0.0
 14
0.5
 24
0.5
 15
0.0
 25
0.0
 16
0.0
 26
0.0
 36
1.0
 17
0.0
 27
0.0
 37
0.0
 42
50.0
 43
0.0
 44
0.0
 45
2890.021615685494
 50
0.0
 51
0.0
 72
   100
 90
   557152
  1

281
     0
 71
     1
 74
     0
110
0.0
120
0.0
130
0.0
111
1.0
121
0.0
131
0.0
112
0.0
122
1.0
132
0.0
 79
     0
146
0.0
170
     0
 61
     5
348
26C
292
     1
282
     1
141
0.0
142
0.0
 63
   256
  0
ENDSEC
  0
SECTION
  2
OBJECTS
  0
DICTIONARY
  5
19
330
0
100
AcDbDictionary
281
     1
  3
ACAD_COLOR
350
674
  3
ACAD_DETAILVIEWSTYLE
350
BBF
  3
ACAD_GROUP
350
1A
  3
ACAD_IMAGE_VARS
350
27B
  3
ACAD_LAYOUT
350
1E
  3
ACAD_MATERIAL
350
263
  3
ACAD_MLEADERSTYLE
350
336
  3
ACAD_MLINESTYLE
350
1B
  3
ACAD_PLOTSETTINGS
350
22
  3
ACAD_PLOTSTYLENAME
350
1F
  3
ACAD_SCALELIST
350
241
  3
ACAD_SECTIONVIEWSTYLE
350
BC0
  3
ACAD_TABLESTYLE
350
278
  3
ACAD_VISUALSTYLE
350
267
  3
ACDB_RECOMPOSE_DATA
350
1432
  3
AcDbVariableDictionary
350
330
  3
APPDATA
350
27A
  0
SUN
  5
904
330
15
100
AcDbSun
 90
        1
290
     0
 63
     7
421
 16777215
 40
1.0
291
     1
 91
  2455826
 92
 54000000
292
     0
 70
     2
 71
   256
280
     1
  0
DICTIONARY
  5
2E1
330
2
100
AcDbDictionary
280
     1
281
     1
  3
ACAD_LAYERSTATES
360
2E2
  3
ACLYDICTIONARY
360
D22
  0
DICTIONARY
  5
115E
330
115D
100
AcDbDictionary
280
     1
281
     1
  3
ACAD_DIMASSOC
360
115F
  0
DICTIONARY
  5
116D
330
116C
100
AcDbDictionary
280
     1
281
     1
  3
ACAD_DIMASSOC
360
116E
  0
DICTIONARY
  5
11A0
330
119F
100
AcDbDictionary
280
     1
281
     1
  3
ACAD_DIMASSOC
360
11A1
  0
DICTIONARY
  5
11BE
330
11BD
100
AcDbDictionary
280
     1
281
     1
  3
ACAD_DIMASSOC
360
11BF
  0
DICTIONARY
  5
11CD
330
11CC
100
AcDbDictionary
280
     1
281
     1
  3
ACAD_DIMASSOC
360
11CE
  0
DICTIONARY
  5
1220
330
121F
100
AcDbDictionary
280
     1
281
     1
  3
ACAD_DIMASSOC
360
1221
  0
DICTIONARY
  5
1381
330
1380
100
AcDbDictionary
280
     1
281
     1
  3
ACAD_DIMASSOC
360
1382
  0
DICTIONARY
  5
674
102
{ACAD_REACTORS
330
19
102
}
330
19
100
AcDbDictionary
281
     1
  0
DICTIONARY
  5
BBF
102
{ACAD_REACTORS
330
19
102
}
330
19
100
AcDbDictionary
281
     1
  0
DICTIONARY
  5
1A
102
{ACAD_REACTORS
330
19
102
}
330
19
100
AcDbDictionary
281
     1
  0
RASTERVARIABLES
  5
27B
102
{ACAD_REACTORS
330
19
102
}
330
19
100
AcDbRasterVariables
 90
        0
 70
     1
 71
     1
 72
     1
  0
DICTIONARY
  5
1E
102
{ACAD_REACTORS
330
19
102
}
330
19
100
AcDbDictionary
281
     1
  3
Layout1
350
21
  3
Model
350
20
  0
DICTIONARY
  5
263
102
{ACAD_REACTORS
330
19
102
}
330
19
100
AcDbDictionary
281
     1
  3
ByBlock
350
137C
  3
ByLayer
350
264
  3
Global
350
266
  0
DICTIONARY
  5
336
102
{ACAD_REACTORS
330
19
102
}
330
19
100
AcDbDictionary
281
     1
  0
DICTIONARY
  5
1B
102
{ACAD_REACTORS
330
19
102
}
330
19
100
AcDbDictionary
281
     1
  3
Standard
350
1C
  0
DICTIONARY
  5
22
102
{ACAD_REACTORS
330
19
102
}
330
19
100
AcDbDictionary
281
     1
  0
ACDBDICTIONARYWDFLT
  5
1F
102
{ACAD_REACTORS
330
19
102
}
330
19
100
AcDbDictionary
281
     1
  3
Normal
350
1D
100
AcDbDictionaryWithDefault
340
1D
  0
DICTIONARY
  5
241
102
{ACAD_REACTORS
330
19
102
}
330
19
100
AcDbDictionary
281
     1
  3
A0
350
242
  3
A1
350
243
  3
A2
350
244
  3
A3
350
245
  3
A4
350
246
  3
A5
350
247
  3
A6
350
248
  3
A7
350
249
  3
A8
350
24A
  3
A9
350
24B
  3
B0
350
24C
  3
B1
350
24D
  3
B2
350
24E
  3
B3
350
24F
  3
B4
350
250
  3
B5
350
251
  3
B6
350
252
  3
B7
350
253
  3
B8
350
254
  3
B9
350
255
  3
C0
350
256
  3
C1
350
257
  3
C2
350
258
  3
C3
350
259
  3
C4
350
25A
  3
C5
350
25B
  3
C6
350
25C
  3
C7
350
25D
  3
C8
350
25E
  3
C9
350
25F
  3
D0
350
260
  3
D1
350
261
  3
D2
350
262
  0
DICTIONARY
  5
BC0
102
{ACAD_REACTORS
330
19
102
}
330
19
100
AcDbDictionary
281
     1
  0
DICTIONARY
  5
278
102
{ACAD_REACTORS
330
19
102
}
330
19
100
AcDbDictionary
281
     1
  3
Standard
350
279
  0
DICTIONARY
  5
267
102
{ACAD_REACTORS
330
19
102
}
330
19
100
AcDbDictionary
281
     1
  3
2dWireframe
350
26C
  3
3D Hidden
350
26E
  3
3dWireframe
350
26D
  3
Basic
350
26F
  3
Brighten
350
273
  3
ColorChange
350
277
  3
Conceptual
350
271
  3
Dim
350
272
  3
EdgeColorOff
350
8FE
  3
Facepattern
350
276
  3
Flat
350
268
  3
FlatWithEdges
350
269
  3
Gouraud
350
26A
  3
GouraudWithEdges
350
26B
  3
Hidden
350
8FB
  3
JitterOff
350
8FC
  3
Linepattern
350
275
  3
OverhangOff
350
8FD
  3
Realistic
350
270
  3
Shaded
350
903
  3
Shaded with edges
350
902
  3
Shades of Gray
350
8FF
  3
Sketchy
350
900
  3
Thicken
350
274
  3
Wireframe
350
8FA
  3
X-Ray
350
901
  0
XRECORD
  5
1432
102
{ACAD_REACTORS
330
19
102
}
330
19
100
AcDbXrecord
280
     1
 90
        1
330
279
  0
DICTIONARY
  5
330
102
{ACAD_REACTORS
330
19
102
}
330
19
100
AcDbDictionary
281
     1
  3
CANNOSCALE
350
331
  3
CTABLESTYLE
350
335
  3
HPTRANSPARENCY
350
D52
  3
XCLIPFRAME
350
896
  0
DICTIONARY
  5
27A
102
{ACAD_REACTORS
330
19
102
}
330
19
100
AcDbDictionary
281
     1
  0
DICTIONARY
  5
2E2
102
{ACAD_REACTORS
330
2E1
102
}
330
2E1
100
AcDbDictionary
281
     1
  3
ARGON_LAYERP_7
350
1372
  3
ARGON_LAYERP_8
350
C9F
  3
ARGON_LAYERP_9
350
7AA
  0
DICTIONARY
  5
D22
102
{ACAD_REACTORS
330
2E1
102
}
330
2E1
100
AcDbDictionary
281
     1
1001
ACAD
1000
<All
  0
DIMASSOC
  5
115F
102
{ACAD_REACTORS
330
115E
102
}
330
115E
100
AcDbDimAssoc
330
115D
 90
        3
 70
     0
 71
     1
  1
AcDbOsnapPointRef
 72
     5
331
F7F
 73
     0
 91
        0
 40
3.141592653589793
 10
0.0
 20
0.0
 30
0.0
 75
     0
  1
AcDbOsnapPointRef
 72
     5
331
F7F
 73
     0
 91
        0
 40
0.0
 10
0.0
 20
0.0
 30
0.0
 75
     0
  0
DIMASSOC
  5
116E
102
{ACAD_REACTORS
330
116D
102
}
330
116D
100
AcDbDimAssoc
330
116C
 90
        1
 70
     0
 71
     1
  1
AcDbOsnapPointRef
 72
     5
331
F7F
 73
     0
 91
        0
 40
1.570796326794897
 10
0.0
 20
0.0
 30
0.0
 75
     0
  0
DIMASSOC
  5
11A1
102
{ACAD_REACTORS
330
11A0
102
}
330
11A0
100
AcDbDimAssoc
330
119F
 90
        3
 70
     0
 71
     1
  1
AcDbOsnapPointRef
 72
    13
331
1013
 73
     0
 91
        0
 40
0.0
 10
0.0
 20
0.0
 30
0.0
 75
     0
  1
AcDbOsnapPointRef
 72
     1
331
1014
 73
     0
 91
        0
 40
0.0
 10
0.0
 20
0.0
 30
0.0
 75
     0
  0
DIMASSOC
  5
11BF
102
{ACAD_REACTORS
330
11BE
102
}
330
11BE
100
AcDbDimAssoc
330
11BD
 90
        1
 70
     0
 71
     1
  1
AcDbOsnapPointRef
 72
    13
331
FB8
 73
     0
 91
        0
 40
0.0
 10
0.0
 20
0.0
 30
0.0
 75
     0
  0
DIMASSOC
  5
11CE
102
{ACAD_REACTORS
330
11CD
102
}
330
11CD
100
AcDbDimAssoc
330
11CC
 90
        3
 70
     0
 71
     1
  1
AcDbOsnapPointRef
 72
    13
331
1023
 73
     0
 91
        0
 40
0.0
 10
0.0
 20
0.0
 30
0.0
 75
     0
  1
AcDbOsnapPointRef
 72
     2
331
1002
 73
     0
 91
        0
 40
0.5
 10
0.0
 20
0.0
 30
0.0
 75
     0
  0
DIMASSOC
  5
1221
102
{ACAD_REACTORS
330
1220
102
}
330
1220
100
AcDbDimAssoc
330
121F
 90
        2
 70
     0
 71
     1
  1
AcDbOsnapPointRef
 72
     3
331
F80
 73
     0
 91
        0
 40
0.0
 10
0.0
 20
0.0
 30
0.0
 75
     0
  0
DIMASSOC
  5
1382
102
{ACAD_REACTORS
330
1381
102
}
330
1381
100
AcDbDimAssoc
330
1380
 90
        3
 70
     0
 71
     1
  1
AcDbOsnapPointRef
 72
     5
331
137F
 73
     0
 91
        0
 40
3.141592653589793
 10
0.0
 20
0.0
 30
0.0
 75
     0
  1
AcDbOsnapPointRef
 72
     5
331
137F
 73
     0
 91
        0
 40
0.0
 10
0.0
 20
0.0
 30
0.0
 75
     0
  0
LAYOUT
  5
21
102
{ACAD_REACTORS
330
1E
102
}
330
1E
100
AcDbPlotSettings
  1

  2
none_device
  4
ISO_A3_(420.00_x_297.00_MM)
  6

 40
7.5
 41
20.0
 42
7.5
 43
20.0
 44
420.0
 45
297.0
 46
0.0
 47
0.0
 48
0.0
 49
0.0
140
0.0
141
0.0
142
1.0
143
1.0
 70
     0
 72
     1
 73
     0
 74
     0
  7

 75
     0
 76
     0
 77
     2
 78
   300
147
1.0
148
0.0
149
0.0
100
AcDbLayout
  1
Layout1
 70
     0
 71
     0
 10
-7.5
 20
-20.0
 11
412.5
 21
277.0
 12
0.0
 22
0.0
 32
0.0
 14
0.0
 24
0.0
 34
0.0
 15
0.0
 25
0.0
 35
0.0
146
0.0
 13
0.0
 23
0.0
 33
0.0
 16
0.0
 26
0.0
 36
0.0
 17
0.0
 27
0.0
 37
0.0
 76
     0
330
B
331
349
  0
LAYOUT
  5
20
102
{ACAD_REACTORS
330
1E
102
}
330
1E
100
AcDbPlotSettings
  1

  2
none_device
  4
ISO_A3_(420.00_x_297.00_MM)
  6

 40
7.5
 41
20.0
 42
7.5
 43
20.0
 44
420.0
 45
297.0
 46
0.0
 47
0.0
 48
0.0
 49
0.0
140
0.0
141
0.0
142
1.0
143
1.0
 70
  1024
 72
     1
 73
     0
 74
     0
  7

 75
     0
 76
     0
 77
     2
 78
   300
147
1.0
148
0.0
149
0.0
100
AcDbLayout
  1
Model
 70
     0
 71
     1
 10
0.0
 20
0.0
 11
2100.0
 21
2970.0
 12
0.0
 22
0.0
 32
0.0
 14
72.20214454724874
 24
63.79214832457114
 34
0.0
 15
2022.202144547732
 25
2897.146673506426
 35
0.0
146
0.0
 13
0.0
 23
0.0
 33
0.0
 16
0.0
 26
0.0
 36
0.0
 17
0.0
 27
0.0
 37
0.0
 76
     0
330
A
331
15
  0
MATERIAL
  5
137C
102
{ACAD_REACTORS
330
263
102
}
330
263
100
AcDbMaterial
  1
ByBlock
 72
     1
 94
      127
  0
MATERIAL
  5
264
102
{ACAD_REACTORS
330
263
102
}
330
263
100
AcDbMaterial
  1
ByLayer
 72
     1
 94
      127
  0
MATERIAL
  5
266
102
{ACAD_REACTORS
330
263
102
}
330
263
100
AcDbMaterial
  1
Global
 72
     1
 94
      127
  0
MLINESTYLE
  5
1C
102
{ACAD_REACTORS
330
1B
102
}
330
1B
100
AcDbMlineStyle
  2
Standard
 70
     0
  3

 62
     0
 51
90.0
 52
90.0
 71
     2
 49
0.5
 62
   256
  6
BYLAYER
 49
-0.5
 62
   256
  6
BYLAYER
  0
ACDBPLACEHOLDER
  5
1D
102
{ACAD_REACTORS
330
1F
102
}
330
1F
  0
SCALE
  5
242
102
{ACAD_REACTORS
330
241
102
}
330
241
100
AcDbScale
 70
     0
300
1:1
140
1.0
141
1.0
290
     1
  0
SCALE
  5
243
102
{ACAD_REACTORS
330
241
102
}
330
241
100
AcDbScale
 70
     0
300
1:2
140
1.0
141
2.0
290
     0
  0
SCALE
  5
244
102
{ACAD_REACTORS
330
241
102
}
330
241
100
AcDbScale
 70
     0
300
1:4
140
1.0
141
4.0
290
     0
  0
SCALE
  5
245
102
{ACAD_REACTORS
330
241
102
}
330
241
100
AcDbScale
 70
     0
300
1:5
140
1.0
141
5.0
290
     0
  0
SCALE
  5
246
102
{ACAD_REACTORS
330
241
102
}
330
241
100
AcDbScale
 70
     0
300
1:8
140
1.0
141
8.0
290
     0
  0
SCALE
  5
247
102
{ACAD_REACTORS
330
241
102
}
330
241
100
AcDbScale
 70
     0
300
1:10
140
1.0
141
10.0
290
     0
  0
SCALE
  5
248
102
{ACAD_REACTORS
330
241
102
}
330
241
100
AcDbScale
 70
     0
300
1:16
140
1.0
141
16.0
290
     0
  0
SCALE
  5
249
102
{ACAD_REACTORS
330
241
102
}
330
241
100
AcDbScale
 70
     0
300
1:20
140
1.0
141
20.0
290
     0
  0
SCALE
  5
24A
102
{ACAD_REACTORS
330
241
102
}
330
241
100
AcDbScale
 70
     0
300
1:30
140
1.0
141
30.0
290
     0
  0
SCALE
  5
24B
102
{ACAD_REACTORS
330
241
102
}
330
241
100
AcDbScale
 70
     0
300
1:40
140
1.0
141
40.0
290
     0
  0
SCALE
  5
24C
102
{ACAD_REACTORS
330
241
102
}
330
241
100
AcDbScale
 70
     0
300
1:50
140
1.0
141
50.0
290
     0
  0
SCALE
  5
24D
102
{ACAD_REACTORS
330
241
102
}
330
241
100
AcDbScale
 70
     0
300
1:100
140
1.0
141
100.0
290
     0
  0
SCALE
  5
24E
102
{ACAD_REACTORS
330
241
102
}
330
241
100
AcDbScale
 70
     0
300
2:1
140
2.0
141
1.0
290
     0
  0
SCALE
  5
24F
102
{ACAD_REACTORS
330
241
102
}
330
241
100
AcDbScale
 70
     0
300
4:1
140
4.0
141
1.0
290
     0
  0
SCALE
  5
250
102
{ACAD_REACTORS
330
241
102
}
330
241
100
AcDbScale
 70
     0
300
8:1
140
8.0
141
1.0
290
     0
  0
SCALE
  5
251
102
{ACAD_REACTORS
330
241
102
}
330
241
100
AcDbScale
 70
     0
300
10:1
140
10.0
141
1.0
290
     0
  0
SCALE
  5
252
102
{ACAD_REACTORS
330
241
102
}
330
241
100
AcDbScale
 70
     0
300
100:1
140
100.0
141
1.0
290
     0
  0
SCALE
  5
253
102
{ACAD_REACTORS
330
241
102
}
330
241
100
AcDbScale
 70
     0
300
1/128" = 1'-0"
140
0.0078125
141
12.0
290
     0
  0
SCALE
  5
254
102
{ACAD_REACTORS
330
241
102
}
330
241
100
AcDbScale
 70
     0
300
1/64" = 1'-0"
140
0.015625
141
12.0
290
     0
  0
SCALE
  5
255
102
{ACAD_REACTORS
330
241
102
}
330
241
100
AcDbScale
 70
     0
300
1/32" = 1'-0"
140
0.03125
141
12.0
290
     0
  0
SCALE
  5
256
102
{ACAD_REACTORS
330
241
102
}
330
241
100
AcDbScale
 70
     0
300
1/16" = 1'-0"
140
0.0625
141
12.0
290
     0
  0
SCALE
  5
257
102
{ACAD_REACTORS
330
241
102
}
330
241
100
AcDbScale
 70
     0
300
3/32" = 1'-0"
140
0.09375
141
12.0
290
     0
  0
SCALE
  5
258
102
{ACAD_REACTORS
330
241
102
}
330
241
100
AcDbScale
 70
     0
300
1/8" = 1'-0"
140
0.125
141
12.0
290
     0
  0
SCALE
  5
259
102
{ACAD_REACTORS
330
241
102
}
330
241
100
AcDbScale
 70
     0
300
3/16" = 1'-0"
140
0.1875
141
12.0
290
     0
  0
SCALE
  5
25A
102
{ACAD_REACTORS
330
241
102
}
330
241
100
AcDbScale
 70
     0
300
1/4" = 1'-0"
140
0.25
141
12.0
290
     0
  0
SCALE
  5
25B
102
{ACAD_REACTORS
330
241
102
}
330
241
100
AcDbScale
 70
     0
300
3/8" = 1'-0"
140
0.375
141
12.0
290
     0
  0
SCALE
  5
25C
102
{ACAD_REACTORS
330
241
102
}
330
241
100
AcDbScale
 70
     0
300
1/2" = 1'-0"
140
0.5
141
12.0
290
     0
  0
SCALE
  5
25D
102
{ACAD_REACTORS
330
241
102
}
330
241
100
AcDbScale
 70
     0
300
3/4" = 1'-0"
140
0.75
141
12.0
290
     0
  0
SCALE
  5
25E
102
{ACAD_REACTORS
330
241
102
}
330
241
100
AcDbScale
 70
     0
300
1" = 1'-0"
140
1.0
141
12.0
290
     0
  0
SCALE
  5
25F
102
{ACAD_REACTORS
330
241
102
}
330
241
100
AcDbScale
 70
     0
300
1-1/2" = 1'-0"
140
1.5
141
12.0
290
     0
  0
SCALE
  5
260
102
{ACAD_REACTORS
330
241
102
}
330
241
100
AcDbScale
 70
     0
300
3" = 1'-0"
140
3.0
141
12.0
290
     0
  0
SCALE
  5
261
102
{ACAD_REACTORS
330
241
102
}
330
241
100
AcDbScale
 70
     0
300
6" = 1'-0"
140
6.0
141
12.0
290
     0
  0
SCALE
  5
262
102
{ACAD_REACTORS
330
241
102
}
330
241
100
AcDbScale
 70
     0
300
1'-0" = 1'-0"
140
12.0
141
12.0
290
     0
  0
TABLESTYLE
  5
279
102
{ACAD_REACTORS
330
278
102
}
102
{ACAD_XDICTIONARY
360
1430
102
}
330
278
100
AcDbTableStyle
  3
Standard
 70
     0
 71
     0
 40
0.06
 41
0.06
280
     0
281
     0
  7
Standard
140
4.5
170
     2
 62
     0
 63
   257
283
     0
 90
        4
 91
        0
  1

274
    -2
284
     1
 64
     0
275
    -2
285
     1
 65
     0
276
    -2
286
     1
 66
     0
277
    -2
287
     1
 67
     0
278
    -2
288
     1
 68
     0
279
    -2
289
     1
 69
     0
  7
Standard
140
6.0
170
     5
 62
     0
 63
   257
283
     0
 90
        4
 91
        0
  1

274
    -2
284
     1
 64
     0
275
    -2
285
     1
 65
     0
276
    -2
286
     1
 66
     0
277
    -2
287
     1
 67
     0
278
    -2
288
     1
 68
     0
279
    -2
289
     1
 69
     0
  7
Standard
140
4.5
170
     5
 62
     0
 63
   257
283
     0
 90
        4
 91
        0
  1

274
    -2
284
     1
 64
     0
275
    -2
285
     1
 65
     0
276
    -2
286
     1
 66
     0
277
    -2
287
     1
 67
     0
278
    -2
288
     1
 68
     0
279
    -2
289
     1
 69
     0
  0
VISUALSTYLE
  5
26C
102
{ACAD_REACTORS
330
267
102
}
330
267
100
AcDbVisualStyle
  2
2dWireframe
 70
     4
 71
     0
 72
     2
 73
     0
 90
        0
 40
-0.6
 41
-30.0
 62
     5
 63
     7
421
 16777215
 74
     1
 91
        4
 64
     7
 65
   257
 75
     1
175
     1
 42
1.0
 92
        0
 66
   257
 43
1.0
 76
     1
 77
     6
 78
     2
 67
     7
 79
     5
170
     0
171
     0
290
     0
174
     0
 93
        1
 44
0.0
173
     0
291
     0
 45
0.0
  0
VISUALSTYLE
  5
26E
102
{ACAD_REACTORS
330
267
102
}
330
267
100
AcDbVisualStyle
  2
3D Hidden
 70
     6
 71
     1
 72
     2
 73
     2
 90
        0
 40
-0.6
 41
-30.0
 62
     5
 63
     7
421
 16777215
 74
     2
 91
        2
 64
     7
 65
   257
 75
     2
175
     1
 42
40.0
 92
        0
 66
   257
 43
1.0
 76
     1
 77
     6
 78
     2
 67
     7
 79
     3
170
     0
171
     0
290
     0
174
     0
 93
        1
 44
0.0
173
     0
291
     0
 45
0.0
  0
VISUALSTYLE
  5
26D
102
{ACAD_REACTORS
330
267
102
}
330
267
100
AcDbVisualStyle
  2
3dWireframe
 70
     5
 71
     0
 72
     2
 73
     0
 90
        0
 40
-0.6
 41
-30.0
 62
     5
 63
     7
421
 16777215
 74
     1
 91
        4
 64
     7
 65
   257
 75
     1
175
     1
 42
1.0
 92
        0
 66
   257
 43
1.0
 76
     1
 77
     6
 78
     2
 67
     7
 79
     5
170
     0
171
     0
290
     0
174
     0
 93
        1
 44
0.0
173
     0
291
     0
 45
0.0
  0
VISUALSTYLE
  5
26F
102
{ACAD_REACTORS
330
267
102
}
330
267
100
AcDbVisualStyle
  2
Basic
 70
     7
 71
     1
 72
     0
 73
     1
 90
        0
 40
-0.6
 41
-30.0
 62
     5
 63
     7
421
 16777215
 74
     0
 91
        4
 64
     7
 65
   257
 75
     1
175
     1
 42
1.0
 92
        8
 66
     7
 43
1.0
 76
     1
 77
     6
 78
     2
 67
     7
 79
     5
170
     0
171
     0
290
     0
174
     0
 93
        1
 44
0.0
173
     0
291
     1
 45
0.0
  0
VISUALSTYLE
  5
273
102
{ACAD_REACTORS
330
267
102
}
330
267
100
AcDbVisualStyle
  2
Brighten
 70
    12
 71
     2
 72
     2
 73
     0
 90
        0
 40
-0.6
 41
-30.0
 62
     5
 63
     7
421
 16777215
 74
     1
 91
        4
 64
     7
 65
   257
 75
     1
175
     1
 42
1.0
 92
        8
 66
     7
 43
1.0
 76
     1
 77
     6
 78
     2
 67
     7
 79
     5
170
     0
171
     0
290
     0
174
     0
 93
        1
 44
50.0
173
     0
291
     1
 45
0.0
  0
VISUALSTYLE
  5
277
102
{ACAD_REACTORS
330
267
102
}
330
267
100
AcDbVisualStyle
  2
ColorChange
 70
    16
 71
     2
 72
     2
 73
     3
 90
        0
 40
-0.6
 41
-30.0
 62
     5
 63
     8
421
  8421504
 74
     1
 91
        4
 64
     7
 65
   257
 75
     1
175
     1
 42
1.0
 92
        8
 66
     8
424
  8421504
 43
1.0
 76
     1
 77
     6
 78
     2
 67
     7
 79
     5
170
     0
171
     0
290
     0
174
     0
 93
        1
 44
0.0
173
     0
291
     1
 45
0.0
  0
VISUALSTYLE
  5
271
102
{ACAD_REACTORS
330
267
102
}
330
267
100
AcDbVisualStyle
  2
Conceptual
 70
     9
 71
     3
 72
     2
 73
     0
 90
        0
 40
-0.6
 41
-30.0
 62
     5
 63
     7
421
 16777215
 74
     2
 91
        2
 64
     7
 65
   257
 75
     1
175
     1
 42
40.0
 92
        8
 66
     7
 43
1.0
 76
     1
 77
     6
 78
     2
 67
     7
 79
     3
170
     0
171
     0
290
     0
174
     0
 93
        1
 44
0.0
173
     0
291
     0
 45
0.0
  0
VISUALSTYLE
  5
272
102
{ACAD_REACTORS
330
267
102
}
330
267
100
AcDbVisualStyle
  2
Dim
 70
    11
 71
     2
 72
     2
 73
     0
 90
        0
 40
-0.6
 41
-30.0
 62
     5
 63
     7
421
 16777215
 74
     1
 91
        4
 64
     7
 65
   257
 75
     1
175
     1
 42
1.0
 92
        8
 66
     7
 43
1.0
 76
     1
 77
     6
 78
     2
 67
     7
 79
     5
170
     0
171
     0
290
     0
174
     0
 93
        1
 44
-50.0
173
     0
291
     1
 45
0.0
  0
VISUALSTYLE
  5
8FE
102
{ACAD_REACTORS
330
267
102
}
330
267
100
AcDbVisualStyle
  2
EdgeColorOff
 70
    22
 71
     2
 72
     2
 73
     0
 90
        0
 40
0.6
 41
30.0
 62
     5
 63
     7
421
 16777215
 74
     1
 91
        4
 64
     7
 65
   257
 75
     1
175
     1
 42
1.0
 92
        8
 66
     7
 43
1.0
 76
     1
 77
     6
 78
     2
 67
     7
 79
     5
170
     0
171
     0
290
     0
174
     0
 93
        1
 44
0.0
173
     0
291
     1
 45
0.0
  0
VISUALSTYLE
  5
276
102
{ACAD_REACTORS
330
267
102
}
330
267
100
AcDbVisualStyle
  2
Facepattern
 70
    15
 71
     2
 72
     2
 73
     0
 90
        0
 40
-0.6
 41
-30.0
 62
     5
 63
     7
421
 16777215
 74
     1
 91
        4
 64
     7
 65
   257
 75
     1
175
     1
 42
1.0
 92
        8
 66
     7
 43
1.0
 76
     1
 77
     6
 78
     2
 67
     7
 79
     5
170
     0
171
     0
290
     0
174
     0
 93
        1
 44
0.0
173
     0
291
     1
 45
0.0
  0
VISUALSTYLE
  5
268
102
{ACAD_REACTORS
330
267
102
}
330
267
100
AcDbVisualStyle
  2
Flat
 70
     0
 71
     2
 72
     1
 73
     1
 90
        2
 40
-0.6
 41
30.0
 62
     5
 63
     7
421
 16777215
 74
     0
 91
        4
 64
     7
 65
   257
 75
     1
175
     1
 42
1.0
 92
        8
 66
     7
 43
1.0
 76
     1
 77
     6
 78
     2
 67
     7
 79
     5
170
     0
171
     0
290
     0
174
     0
 93
       13
 44
0.0
173
     0
291
     1
 45
0.0
  0
VISUALSTYLE
  5
269
102
{ACAD_REACTORS
330
267
102
}
330
267
100
AcDbVisualStyle
  2
FlatWithEdges
 70
     1
 71
     2
 72
     1
 73
     1
 90
        2
 40
-0.6
 41
30.0
 62
     5
 63
     7
421
 16777215
 74
     1
 91
        4
 64
     7
 65
   257
 75
     1
175
     1
 42
1.0
 92
        0
 66
   257
 43
1.0
 76
     1
 77
     6
 78
     2
 67
     7
 79
     5
170
     0
171
     0
290
     0
174
     0
 93
       13
 44
0.0
173
     0
291
     1
 45
0.0
  0
VISUALSTYLE
  5
26A
102
{ACAD_REACTORS
330
267
102
}
330
267
100
AcDbVisualStyle
  2
Gouraud
 70
     2
 71
     2
 72
     2
 73
     1
 90
        2
 40
-0.6
 41
30.0
 62
     5
 63
     7
421
 16777215
 74
     0
 91
        4
 64
     7
 65
   257
 75
     1
175
     1
 42
1.0
 92
        0
 66
     7
 43
1.0
 76
     1
 77
     6
 78
     2
 67
     7
 79
     5
170
     0
171
     0
290
     0
174
     0
 93
       13
 44
0.0
173
     0
291
     1
 45
0.0
  0
VISUALSTYLE
  5
26B
102
{ACAD_REACTORS
330
267
102
}
330
267
100
AcDbVisualStyle
  2
GouraudWithEdges
 70
     3
 71
     2
 72
     2
 73
     1
 90
        2
 40
-0.6
 41
30.0
 62
     5
 63
     7
421
 16777215
 74
     1
 91
        4
 64
     7
 65
   257
 75
     1
175
     1
 42
1.0
 92
        0
 66
   257
 43
1.0
 76
     1
 77
     6
 78
     2
 67
     7
 79
     5
170
     0
171
     0
290
     0
174
     0
 93
       13
 44
0.0
173
     0
291
     1
 45
0.0
  0
VISUALSTYLE
  5
8FB
102
{ACAD_REACTORS
330
267
102
}
330
267
100
AcDbVisualStyle
  2
Hidden
 70
     6
 71
     1
 72
     2
 73
     2
 90
        0
 40
0.6
 41
30.0
 62
     5
 63
     7
421
 16777215
 74
     2
 91
        2
 64
     7
 65
   257
 75
     2
175
     1
 42
40.0
 92
        0
 66
   257
 43
1.0
 76
     1
 77
     6
 78
     2
 67
     7
 79
     3
170
     0
171
     0
290
     0
174
     0
 93
        1
 44
0.0
173
     0
291
     0
 45
0.0
  0
VISUALSTYLE
  5
8FC
102
{ACAD_REACTORS
330
267
102
}
330
267
100
AcDbVisualStyle
  2
JitterOff
 70
    20
 71
     2
 72
     2
 73
     0
 90
        0
 40
0.6
 41
30.0
 62
     5
 63
     7
421
 16777215
 74
     1
 91
        4
 64
     7
 65
   257
 75
     1
175
     1
 42
1.0
 92
       10
 66
     7
 43
1.0
 76
     1
 77
     6
 78
     2
 67
     7
 79
     5
170
     0
171
     0
290
     0
174
     0
 93
        1
 44
0.0
173
     0
291
     1
 45
0.0
  0
VISUALSTYLE
  5
275
102
{ACAD_REACTORS
330
267
102
}
330
267
100
AcDbVisualStyle
  2
Linepattern
 70
    14
 71
     2
 72
     2
 73
     0
 90
        0
 40
-0.6
 41
-30.0
 62
     5
 63
     7
421
 16777215
 74
     1
 91
        4
 64
     7
 65
   257
 75
     7
175
     7
 42
1.0
 92
        8
 66
     7
 43
1.0
 76
     1
 77
     6
 78
     2
 67
     7
 79
     5
170
     0
171
     0
290
     0
174
     0
 93
        1
 44
0.0
173
     0
291
     1
 45
0.0
  0
VISUALSTYLE
  5
8FD
102
{ACAD_REACTORS
330
267
102
}
330
267
100
AcDbVisualStyle
  2
OverhangOff
 70
    21
 71
     2
 72
     2
 73
     0
 90
        0
 40
0.6
 41
30.0
 62
     5
 63
     7
421
 16777215
 74
     1
 91
        4
 64
     7
 65
   257
 75
     1
175
     1
 42
1.0
 92
        9
 66
     7
 43
1.0
 76
     1
 77
     6
 78
     2
 67
     7
 79
     5
170
     0
171
     0
290
     0
174
     0
 93
        1
 44
0.0
173
     0
291
     1
 45
0.0
  0
VISUALSTYLE
  5
270
102
{ACAD_REACTORS
330
267
102
}
330
267
100
AcDbVisualStyle
  2
Realistic
 70
     8
 71
     2
 72
     2
 73
     0
 90
        0
 40
-0.6
 41
-30.0
 62
     5
 63
     7
421
 16777215
 74
     1
 91
        0
 64
     7
 65
   257
 75
     1
175
     1
 42
1.0
 92
        8
 66
     8
424
  7895160
 43
1.0
 76
     1
 77
     6
 78
     2
 67
     7
 79
     5
170
     0
171
     0
290
     0
174
     0
 93
       13
 44
0.0
173
     0
291
     0
 45
0.0
  0
VISUALSTYLE
  5
903
102
{ACAD_REACTORS
330
267
102
}
330
267
100
AcDbVisualStyle
  2
Shaded
 70
    27
 71
     2
 72
     2
 73
     1
 90
        2
 40
0.6
 41
30.0
 62
     5
 63
     7
421
 16777215
 74
     0
 91
        4
 64
     7
 65
   257
 75
     1
175
     1
 42
1.0
 92
        8
 66
   257
 43
1.0
 76
     1
 77
     6
 78
     2
 67
     8
425
  7895160
 79
     3
170
     0
171
     0
290
     0
174
     0
 93
        5
 44
0.0
173
     0
291
     0
 45
0.0
  0
VISUALSTYLE
  5
902
102
{ACAD_REACTORS
330
267
102
}
330
267
100
AcDbVisualStyle
  2
Shaded with edges
 70
    26
 71
     2
 72
     2
 73
     1
 90
        2
 40
0.6
 41
30.0
 62
     5
 63
     7
421
 16777215
 74
     1
 91
       10
 64
     7
 65
   257
 75
     2
175
     1
 42
1.0
 92
        8
 66
   257
 43
1.0
 76
     1
 77
     6
 78
     2
 67
     7
 79
     3
170
     0
171
     0
290
     0
174
     0
 93
        5
 44
0.0
173
     0
291
     0
 45
0.0
  0
VISUALSTYLE
  5
8FF
102
{ACAD_REACTORS
330
267
102
}
330
267
100
AcDbVisualStyle
  2
Shades of Gray
 70
    23
 71
     2
 72
     2
 73
     3
 90
        0
 40
0.6
 41
30.0
 62
     5
 63
     7
421
 16777215
 74
     2
 91
        2
 64
     7
 65
     7
 75
     1
175
     1
 42
40.0
 92
        8
 66
     7
 43
1.0
 76
     1
 77
     6
 78
     2
 67
     7
 79
     3
170
     0
171
     0
290
     0
174
     0
 93
        1
 44
0.0
173
     0
291
     0
 45
0.0
  0
VISUALSTYLE
  5
900
102
{ACAD_REACTORS
330
267
102
}
330
267
100
AcDbVisualStyle
  2
Sketchy
 70
    24
 71
     1
 72
     2
 73
     2
 90
        0
 40
0.6
 41
30.0
 62
     5
 63
     7
421
 16777215
 74
     2
 91
        2
 64
     7
 65
     7
 75
     1
175
     1
 42
40.0
 92
       11
 66
     7
 43
1.0
 76
     1
 77
     6
 78
     2
 67
     7
 79
     6
170
     0
171
     0
290
     0
174
     0
 93
        1
 44
0.0
173
     0
291
     0
 45
0.0
  0
VISUALSTYLE
  5
274
102
{ACAD_REACTORS
330
267
102
}
330
267
100
AcDbVisualStyle
  2
Thicken
 70
    13
 71
     2
 72
     2
 73
     0
 90
        0
 40
-0.6
 41
-30.0
 62
     5
 63
     7
421
 16777215
 74
     1
 91
        4
 64
     7
 65
   257
 75
     1
175
     1
 42
1.0
 92
       12
 66
     7
 43
1.0
 76
     1
 77
     6
 78
     2
 67
     7
 79
     5
170
     0
171
     0
290
     0
174
     0
 93
        1
 44
0.0
173
     0
291
     1
 45
0.0
  0
VISUALSTYLE
  5
8FA
102
{ACAD_REACTORS
330
267
102
}
330
267
100
AcDbVisualStyle
  2
Wireframe
 70
     5
 71
     0
 72
     2
 73
     0
 90
        0
 40
0.6
 41
30.0
 62
     5
 63
     7
421
 16777215
 74
     1
 91
        4
 64
     7
 65
   257
 75
     1
175
     1
 42
1.0
 92
        0
 66
   257
 43
1.0
 76
     1
 77
     6
 78
     2
 67
     7
 79
     3
170
     0
171
     0
290
     0
174
     0
 93
        1
 44
0.0
173
     0
291
     0
 45
0.0
  0
VISUALSTYLE
  5
901
102
{ACAD_REACTORS
330
267
102
}
330
267
100
AcDbVisualStyle
  2
X-Ray
 70
    25
 71
     2
 72
     2
 73
     1
 90
        1
 40
0.5
 41
30.0
 62
     5
 63
     7
421
 16777215
 74
     1
 91
        0
 64
     7
 65
   257
 75
     1
175
     1
 42
1.0
 92
        8
 66
     7
 43
1.0
 76
     1
 77
     6
 78
     2
 67
     7
 79
     3
170
     0
171
     0
290
     0
174
     0
 93
       13
 44
0.0
173
     0
291
     0
 45
0.0
  0
DICTIONARYVAR
  5
331
102
{ACAD_REACTORS
330
330
102
}
330
330
100
DictionaryVariables
280
     0
  1
1:1
  0
DICTIONARYVAR
  5
335
102
{ACAD_REACTORS
330
330
102
}
330
330
100
DictionaryVariables
280
     0
  1
Standard
  0
DICTIONARYVAR
  5
D52
102
{ACAD_REACTORS
330
330
102
}
330
330
100
DictionaryVariables
280
     0
  1
ByLayer
  0
DICTIONARYVAR
  5
896
102
{ACAD_REACTORS
330
330
102
}
330
330
100
DictionaryVariables
280
     0
  1
0
  0
XRECORD
  5
1372
102
{ACAD_REACTORS
330
2E2
102
}
330
2E2
100
AcDbXrecord
280
     1
 91
     1023
301

290
     0
302
MODEL
330
14
 90
        8
 62
     7
370
    -3
331
13
  1
Color_7
330
4B
 90
        8
 62
     7
370
    20
331
13
  1
Color_7
330
4C
 90
        8
 62
     7
370
    13
331
13
  1
Color_7
330
4D
 90
        8
 62
     7
370
    20
331
13
  1
Color_7
330
667
 90
        8
 62
     7
370
    -3
331
13
  1
Color_7
330
88C
 90
        8
 62
     7
370
    20
331
45
  1
Color_7
330
D5D
 90
        0
 62
     7
370
    -3
331
13
  1
Color_7
330
0
 90
        8
 62
     8
370
    -3
331
13
  1
Color_8
330
0
 90
        8
 62
     5
370
    -3
331
13
  1
Color_5
330
0
 90
        8
 62
     4
370
     5
331
13
  1
Color_4
330
0
 90
        8
 62
     1
370
    -3
331
13
  1
Color_1
  0
XRECORD
  5
C9F
102
{ACAD_REACTORS
330
2E2
102
}
330
2E2
100
AcDbXrecord
280
     1
 91
     1023
301

290
     0
302
MODEL
330
14
 90
        8
 62
     7
370
    -3
331
13
  1
Color_7
330
4B
 90
        8
 62
     7
370
    20
331
13
  1
Color_7
330
4C
 90
        8
 62
     7
370
    13
331
13
  1
Color_7
330
4D
 90
        9
 62
     7
370
    20
331
13
  1
Color_7
330
667
 90
        8
 62
     7
370
    -3
331
13
  1
Color_7
330
88C
 90
        8
 62
     7
370
    20
331
45
  1
Color_7
330
D5D
 90
        0
 62
     7
370
    -3
331
13
  1
Color_7
330
0
 90
        8
 62
     8
370
    -3
331
13
  1
Color_8
330
0
 90
        8
 62
     5
370
    -3
331
13
  1
Color_5
330
0
 90
        8
 62
     4
370
     5
331
13
  1
Color_4
330
0
 90
        8
 62
     1
370
    -3
331
13
  1
Color_1
  0
XRECORD
  5
7AA
102
{ACAD_REACTORS
330
2E2
102
}
330
2E2
100
AcDbXrecord
280
     1
 91
     1023
301

290
     0
302
MODEL
330
14
 90
        8
 62
     7
370
    -3
331
13
  1
Color_7
330
0
 90
        0
 62
     7
370
    -3
331
13
  1
Color_7
330
4B
 90
        8
 62
     7
370
    20
331
13
  1
Color_7
330
4C
 90
        8
 62
     7
370
    13
331
13
  1
Color_7
330
4D
 90
        8
 62
     7
370
    20
331
13
  1
Color_7
330
667
 90
        8
 62
     7
370
    -3
331
13
  1
Color_7
330
88C
 90
        8
 62
     7
370
    20
331
45
  1
Color_7
330
0
 90
        8
 62
     7
370
    -3
331
13
  1
Color_7
  0
DICTIONARY
  5
1430
330
279
100
AcDbDictionary
280
     1
281
     1
  3
ACAD_ROUNDTRIP_2008_TABLESTYLE_CELLSTYLEMAP
360
1431
  0
CELLSTYLEMAP
  5
1431
102
{ACAD_REACTORS
330
1430
102
}
330
1430
100
AcDbCellStyleMap
 90
        3
300
CELLSTYLE
  1
TABLEFORMAT_BEGIN
 90
        5
170
     1
 91
        0
 92
    32768
 62
   257
 93
        1
300
CONTENTFORMAT
  1
CONTENTFORMAT_BEGIN
 90
        0
 91
        0
 92
        4
 93
        0
300

 40
0.0
140
1.0
 94
        5
 62
     0
340
17
144
6.0
309
CONTENTFORMAT_END
171
     1
301
MARGIN
  1
CELLMARGIN_BEGIN
 40
0.06
 40
0.06
 40
0.06
 40
0.06
 40
0.18
 40
0.18
309
CELLMARGIN_END
 94
        6
 95
        1
302
GRIDFORMAT
  1
GRIDFORMAT_BEGIN
 90
        0
 91
        1
 62
     0
 92
       -2
340
0
 93
        0
 40
0.045
309
GRIDFORMAT_END
 95
        2
302
GRIDFORMAT
  1
GRIDFORMAT_BEGIN
 90
        0
 91
        1
 62
     0
 92
       -2
340
0
 93
        0
 40
0.045
309
GRIDFORMAT_END
 95
        4
302
GRIDFORMAT
  1
GRIDFORMAT_BEGIN
 90
        0
 91
        1
 62
     0
 92
       -2
340
0
 93
        0
 40
0.045
309
GRIDFORMAT_END
 95
        8
302
GRIDFORMAT
  1
GRIDFORMAT_BEGIN
 90
        0
 91
        1
 62
     0
 92
       -2
340
0
 93
        0
 40
0.045
309
GRIDFORMAT_END
 95
       16
302
GRIDFORMAT
  1
GRIDFORMAT_BEGIN
 90
        0
 91
        1
 62
     0
 92
       -2
340
0
 93
        0
 40
0.045
309
GRIDFORMAT_END
 95
       32
302
GRIDFORMAT
  1
GRIDFORMAT_BEGIN
 90
        0
 91
        1
 62
     0
 92
       -2
340
0
 93
        0
 40
0.045
309
GRIDFORMAT_END
309
TABLEFORMAT_END
  1
CELLSTYLE_BEGIN
 90
        1
 91
        1
300
_TITLE
309
CELLSTYLE_END
300
CELLSTYLE
  1
TABLEFORMAT_BEGIN
 90
        5
170
     1
 91
        0
 92
        0
 62
   257
 93
        1
300
CONTENTFORMAT
  1
CONTENTFORMAT_BEGIN
 90
        0
 91
        0
 92
        4
 93
        0
300

 40
0.0
140
1.0
 94
        5
 62
     0
340
17
144
4.5
309
CONTENTFORMAT_END
171
     1
301
MARGIN
  1
CELLMARGIN_BEGIN
 40
0.06
 40
0.06
 40
0.06
 40
0.06
 40
0.18
 40
0.18
309
CELLMARGIN_END
 94
        6
 95
        1
302
GRIDFORMAT
  1
GRIDFORMAT_BEGIN
 90
        0
 91
        1
 62
     0
 92
       -2
340
0
 93
        0
 40
0.045
309
GRIDFORMAT_END
 95
        2
302
GRIDFORMAT
  1
GRIDFORMAT_BEGIN
 90
        0
 91
        1
 62
     0
 92
       -2
340
0
 93
        0
 40
0.045
309
GRIDFORMAT_END
 95
        4
302
GRIDFORMAT
  1
GRIDFORMAT_BEGIN
 90
        0
 91
        1
 62
     0
 92
       -2
340
0
 93
        0
 40
0.045
309
GRIDFORMAT_END
 95
        8
302
GRIDFORMAT
  1
GRIDFORMAT_BEGIN
 90
        0
 91
        1
 62
     0
 92
       -2
340
0
 93
        0
 40
0.045
309
GRIDFORMAT_END
 95
       16
302
GRIDFORMAT
  1
GRIDFORMAT_BEGIN
 90
        0
 91
        1
 62
     0
 92
       -2
340
0
 93
        0
 40
0.045
309
GRIDFORMAT_END
 95
       32
302
GRIDFORMAT
  1
GRIDFORMAT_BEGIN
 90
        0
 91
        1
 62
     0
 92
       -2
340
0
 93
        0
 40
0.045
309
GRIDFORMAT_END
309
TABLEFORMAT_END
  1
CELLSTYLE_BEGIN
 90
        2
 91
        1
300
_HEADER
309
CELLSTYLE_END
300
CELLSTYLE
  1
TABLEFORMAT_BEGIN
 90
        5
170
     1
 91
        0
 92
        0
 62
   257
 93
        1
300
CONTENTFORMAT
  1
CONTENTFORMAT_BEGIN
 90
        0
 91
        0
 92
        4
 93
        0
300

 40
0.0
140
1.0
 94
        2
 62
     0
340
17
144
4.5
309
CONTENTFORMAT_END
171
     1
301
MARGIN
  1
CELLMARGIN_BEGIN
 40
0.06
 40
0.06
 40
0.06
 40
0.06
 40
0.18
 40
0.18
309
CELLMARGIN_END
 94
        6
 95
        1
302
GRIDFORMAT
  1
GRIDFORMAT_BEGIN
 90
        0
 91
        1
 62
     0
 92
       -2
340
0
 93
        0
 40
0.045
309
GRIDFORMAT_END
 95
        2
302
GRIDFORMAT
  1
GRIDFORMAT_BEGIN
 90
        0
 91
        1
 62
     0
 92
       -2
340
0
 93
        0
 40
0.045
309
GRIDFORMAT_END
 95
        4
302
GRIDFORMAT
  1
GRIDFORMAT_BEGIN
 90
        0
 91
        1
 62
     0
 92
       -2
340
0
 93
        0
 40
0.045
309
GRIDFORMAT_END
 95
        8
302
GRIDFORMAT
  1
GRIDFORMAT_BEGIN
 90
        0
 91
        1
 62
     0
 92
       -2
340
0
 93
        0
 40
0.045
309
GRIDFORMAT_END
 95
       16
302
GRIDFORMAT
  1
GRIDFORMAT_BEGIN
 90
        0
 91
        1
 62
     0
 92
       -2
340
0
 93
        0
 40
0.045
309
GRIDFORMAT_END
 95
       32
302
GRIDFORMAT
  1
GRIDFORMAT_BEGIN
 90
        0
 91
        1
 62
     0
 92
       -2
340
0
 93
        0
 40
0.045
309
GRIDFORMAT_END
309
TABLEFORMAT_END
  1
CELLSTYLE_BEGIN
 90
        3
 91
        2
300
_DATA
309
CELLSTYLE_END
  0
ENDSEC
  0
EOF
