  0
SECTION
  2
HEADER
  9
$ACADVER
  1
AC1021
  9
$ACADMAINTVER
 70
    25
  9
$DWGCODEPAGE
  3
ANSI_932
  9
$LASTSAVEDBY
  1
Shimosaki
  9
$INSBASE
 10
0.0
 20
0.0
 30
0.0
  9
$EXTMIN
 10
-975.000000000241
 20
-1431.525522471113
 30
-14.83430555555556
  9
$EXTMAX
 10
975.0000000002412
 20
1405.9972926413
 30
14.83430555555556
  9
$LIMMIN
 10
-1050.0
 20
-1485.0
  9
$LIMMAX
 10
1050.0
 20
1485.0
  9
$ORTHOMODE
 70
     0
  9
$REGENMODE
 70
     1
  9
$FILLMODE
 70
     1
  9
$QTEXTMODE
 70
     0
  9
$MIRRTEXT
 70
     1
  9
$LTSCALE
 40
50.8
  9
$ATTMODE
 70
     1
  9
$TEXTSIZE
 40
0.0
  9
$TRACEWID
 40
1.0
  9
$TEXTSTYLE
  7
Standard
  9
$CLAYER
  8
0
  9
$CELTYPE
  6
Continuous
  9
$CECOLOR
 62
   256
  9
$CELTSCALE
 40
1.0
  9
$DISPSILH
 70
     0
  9
$DIMSCALE
 40
1.0
  9
$DIMASZ
 40
31.75
  9
$DIMEXO
 40
0.0
  9
$DIMDLI
 40
6.99999999999994
  9
$DIMRND
 40
0.0
  9
$DIMDLE
 40
0.0
  9
$DIMEXE
 40
19.9999999999962
  9
$DIMTP
 40
0.0
  9
$DIMTM
 40
0.0
  9
$DIMTXT
 40
24.4326171875
  9
$DIMCEN
 40
0.0
  9
$DIMTSZ
 40
0.0
  9
$DIMTOL
 70
     0
  9
$DIMLIM
 70
     0
  9
$DIMTIH
 70
     0
  9
$DIMTOH
 70
     0
  9
$DIMSE1
 70
     0
  9
$DIMSE2
 70
     0
  9
$DIMTAD
 70
     1
  9
$DIMZIN
 70
    11
  9
$DIMBLK
  1
VW_FILLEDARROW
  9
$DIMASO
 70
     1
  9
$DIMSHO
 70
     1
  9
$DIMPOST
  1
<>
  9
$DIMAPOST
  1
[]
  9
$DIMALT
 70
     0
  9
$DIMALTD
 70
     1
  9
$DIMALTF
 40
1.0
  9
$DIMLFAC
 40
1.0
  9
$DIMTOFL
 70
     0
  9
$DIMTVP
 40
0.0
  9
$DIMTIX
 70
     1
  9
$DIMSOXD
 70
     0
  9
$DIMSAH
 70
     0
  9
$DIMBLK1
  1

  9
$DIMBLK2
  1

  9
$DIMSTYLE
  2
JIS
  9
$DIMCLRD
 70
     0
  9
$DIMCLRE
 70
     0
  9
$DIMCLRT
 70
     0
  9
$DIMTFAC
 40
1.0
  9
$DIMGAP
 40
1.00000000000108
  9
$DIMJUST
 70
     0
  9
$DIMSD1
 70
     0
  9
$DIMSD2
 70
     0
  9
$DIMTOLJ
 70
     1
  9
$DIMTZIN
 70
    11
  9
$DIMALTZ
 70
    11
  9
$DIMALTTZ
 70
    11
  9
$DIMUPT
 70
     0
  9
$DIMDEC
 70
     1
  9
$DIMTDEC
 70
     1
  9
$DIMALTU
 70
     2
  9
$DIMALTTD
 70
     2
  9
$DIMTXSTY
  7
ＭＳ ゴシック
  9
$DIMAUNIT
 70
     0
  9
$DIMADEC
 70
     2
  9
$DIMALTRND
 40
0.0
  9
$DIMAZIN
 70
     0
  9
$DIMDSEP
 70
    46
  9
$DIMATFIT
 70
     0
  9
$DIMFRAC
 70
     2
  9
$DIMLDRBLK
  1

  9
$DIMLUNIT
 70
     2
  9
$DIMLWD
 70
    -2
  9
$DIMLWE
 70
    -2
  9
$DIMTMOVE
 70
     0
  9
$DIMFXL
 40
1.0
  9
$DIMFXLON
 70
     0
  9
$DIMJOGANG
 40
0.7853981633974483
  9
$DIMTFILL
 70
     0
  9
$DIMTFILLCLR
 70
     0
  9
$DIMARCSYM
 70
     0
  9
$DIMLTYPE
  6

  9
$DIMLTEX1
  6

  9
$DIMLTEX2
  6

  9
$LUNITS
 70
     2
  9
$LUPREC
 70
     4
  9
$SKETCHINC
 40
0.1
  9
$FILLETRAD
 40
0.0
  9
$AUNITS
 70
     0
  9
$AUPREC
 70
     0
  9
$MENU
  1
acad
  9
$ELEVATION
 40
0.0
  9
$PELEVATION
 40
0.0
  9
$THICKNESS
 40
0.0
  9
$LIMCHECK
 70
     0
  9
$CHAMFERA
 40
0.0
  9
$CHAMFERB
 40
0.0
  9
$CHAMFERC
 40
0.0
  9
$CHAMFERD
 40
0.0
  9
$SKPOLY
 70
     0
  9
$TDCREATE
 40
2447893.375
  9
$TDUCREATE
 40
0.0
  9
$TDUPDATE
 40
2457030.728454421
  9
$TDUUPDATE
 40
2457030.353454421
  9
$TDINDWG
 40
0.0041080787
  9
$TDUSRTIMER
 40
2457030.349346447
  9
$USRTIMER
 70
     1
  9
$ANGBASE
 50
0.0
  9
$ANGDIR
 70
     0
  9
$PDMODE
 70
     1
  9
$PDSIZE
 40
-2.0
  9
$PLINEWID
 40
0.0
  9
$SPLFRAME
 70
     0
  9
$SPLINETYPE
 70
     6
  9
$SPLINESEGS
 70
     8
  9
$HANDSEED
  5
2B8
  9
$SURFTAB1
 70
     6
  9
$SURFTAB2
 70
     6
  9
$SURFTYPE
 70
     6
  9
$SURFU
 70
     6
  9
$SURFV
 70
     6
  9
$UCSBASE
  2

  9
$UCSNAME
  2

  9
$UCSORG
 10
0.0
 20
0.0
 30
0.0
  9
$UCSXDIR
 10
1.0
 20
0.0
 30
0.0
  9
$UCSYDIR
 10
0.0
 20
1.0
 30
0.0
  9
$UCSORTHOREF
  2

  9
$UCSORTHOVIEW
 70
     0
  9
$UCSORGTOP
 10
0.0
 20
0.0
 30
0.0
  9
$UCSORGBOTTOM
 10
0.0
 20
0.0
 30
0.0
  9
$UCSORGLEFT
 10
0.0
 20
0.0
 30
0.0
  9
$UCSORGRIGHT
 10
0.0
 20
0.0
 30
0.0
  9
$UCSORGFRONT
 10
0.0
 20
0.0
 30
0.0
  9
$UCSORGBACK
 10
0.0
 20
0.0
 30
0.0
  9
$PUCSBASE
  2

  9
$PUCSNAME
  2

  9
$PUCSORG
 10
0.0
 20
0.0
 30
0.0
  9
$PUCSXDIR
 10
1.0
 20
0.0
 30
0.0
  9
$PUCSYDIR
 10
0.0
 20
1.0
 30
0.0
  9
$PUCSORTHOREF
  2

  9
$PUCSORTHOVIEW
 70
     0
  9
$PUCSORGTOP
 10
0.0
 20
0.0
 30
0.0
  9
$PUCSORGBOTTOM
 10
0.0
 20
0.0
 30
0.0
  9
$PUCSORGLEFT
 10
0.0
 20
0.0
 30
0.0
  9
$PUCSORGRIGHT
 10
0.0
 20
0.0
 30
0.0
  9
$PUCSORGFRONT
 10
0.0
 20
0.0
 30
0.0
  9
$PUCSORGBACK
 10
0.0
 20
0.0
 30
0.0
  9
$USERI1
 70
     0
  9
$USERI2
 70
     0
  9
$USERI3
 70
     0
  9
$USERI4
 70
     0
  9
$USERI5
 70
     0
  9
$USERR1
 40
0.0
  9
$USERR2
 40
0.0
  9
$USERR3
 40
0.0
  9
$USERR4
 40
0.0
  9
$USERR5
 40
0.0
  9
$WORLDVIEW
 70
     1
  9
$SHADEDGE
 70
     3
  9
$SHADEDIF
 70
    70
  9
$TILEMODE
 70
     1
  9
$MAXACTVP
 70
    64
  9
$PINSBASE
 10
0.0
 20
0.0
 30
0.0
  9
$PLIMCHECK
 70
     0
  9
$PEXTMIN
 10
1.000000000000000E+20
 20
1.000000000000000E+20
 30
1.000000000000000E+20
  9
$PEXTMAX
 10
-1.000000000000000E+20
 20
-1.000000000000000E+20
 30
-1.000000000000000E+20
  9
$PLIMMIN
 10
0.0
 20
0.0
  9
$PLIMMAX
 10
0.0
 20
0.0
  9
$UNITMODE
 70
     0
  9
$VISRETAIN
 70
     0
  9
$PLINEGEN
 70
     1
  9
$PSLTSCALE
 70
     0
  9
$TREEDEPTH
 70
  3020
  9
$CMLSTYLE
  2
Standard
  9
$CMLJUST
 70
     0
  9
$CMLSCALE
 40
1.0
  9
$PROXYGRAPHICS
 70
     0
  9
$MEASUREMENT
 70
     1
  9
$CELWEIGHT
370
     0
  9
$ENDCAPS
280
     0
  9
$JOINSTYLE
280
     0
  9
$LWDISPLAY
290
     1
  9
$INSUNITS
 70
     4
  9
$HYPERLINKBASE
  1

  9
$STYLESHEET
  1

  9
$XEDIT
290
     1
  9
$CEPSNTYPE
380
     0
  9
$PSTYLEMODE
290
     1
  9
$FINGERPRINTGUID
  2

  9
$VERSIONGUID
  2

  9
$EXTNAMES
290
     1
  9
$PSVPSCALE
 40
0.0
  9
$OLESTARTUP
290
     0
  9
$SORTENTS
280
   127
  9
$INDEXCTL
280
     0
  9
$HIDETEXT
280
     1
  9
$XCLIPFRAME
290
     0
  9
$HALOGAP
280
     0
  9
$OBSCOLOR
 70
   257
  9
$OBSLTYPE
280
     0
  9
$INTERSECTIONDISPLAY
280
     0
  9
$INTERSECTIONCOLOR
 70
   257
  9
$DIMASSOC
280
     2
  9
$PROJECTNAME
  1

  9
$CAMERADISPLAY
290
     0
  9
$LENSLENGTH
 40
50.0
  9
$CAMERAHEIGHT
 40
0.0
  9
$STEPSPERSEC
 40
2.0
  9
$STEPSIZE
 40
6.0
  9
$3DDWFPREC
 40
2.0
  9
$PSOLWIDTH
 40
0.25
  9
$PSOLHEIGHT
 40
4.0
  9
$LOFTANG1
 40
1.570796326794897
  9
$LOFTANG2
 40
1.570796326794897
  9
$LOFTMAG1
 40
0.0
  9
$LOFTMAG2
 40
0.0
  9
$LOFTPARAM
 70
     7
  9
$LOFTNORMALS
280
     1
  9
$LATITUDE
 40
37.795
  9
$LONGITUDE
 40
-122.394
  9
$NORTHDIRECTION
 40
0.0
  9
$TIMEZONE
 70
 -8000
  9
$LIGHTGLYPHDISPLAY
280
     1
  9
$TILEMODELIGHTSYNCH
280
     1
  9
$SOLIDHIST
280
     1
  9
$SHOWHIST
280
     1
  9
$DWFFRAME
280
     2
  9
$DGNFRAME
280
     2
  9
$REALWORLDSCALE
290
     1
  9
$INTERFERECOLOR
 62
   256
  9
$CSHADOW
280
     0
  9
$SHADOWPLANELOCATION
 40
0.0
  0
ENDSEC
  0
SECTION
  2
CLASSES
  0
CLASS
  1
LWPOLYLINE
  2
AcDbPolyline
  3
ObjectDBX Classes
 90
        0
 91
        1
280
     0
281
     1
  0
CLASS
  1
IMAGE
  2
AcDbRasterImage
  3
ISM
 90
      127
 91
        6
280
     0
281
     1
  0
CLASS
  1
OLE2FRAME
  2
AcDbOle2Frame
  3
ObjectDBX Classes
 90
        0
 91
        1
280
     0
281
     1
  0
CLASS
  1
HATCH
  2
AcDbHatch
  3
ObjectDBX Classes
 90
        0
 91
        1
280
     0
281
     1
  0
CLASS
  1
DICTIONARYVAR
  2
AcDbDictionaryVar
  3
ObjectDBX Classes
 90
        0
 91
        5
280
     0
281
     0
  0
CLASS
  1
RASTERVARIABLES
  2
AcDbRasterVariables
  3
ISM
 90
        0
 91
        7
280
     0
281
     0
  0
CLASS
  1
IMAGEDEF
  2
AcDbRasterImageDef
  3
ISM
 90
        0
 91
        5
280
     0
281
     0
  0
CLASS
  1
IMAGEDEF_REACTOR
  2
AcDbRasterImageDefReactor
  3
ISM
 90
        1
 91
        5
280
     0
281
     0
  0
CLASS
  1
IDBUFFER
  2
AcDbIdBuffer
  3
ObjectDBX Classes
 90
        0
 91
        5
280
     0
281
     0
  0
CLASS
  1
SPATIAL_FILTER
  2
AcDbSpatialFilter
  3
ObjectDBX Classes
 90
        0
 91
        5
280
     0
281
     0
  0
CLASS
  1
XRECORD
  2
AcDbXrecord
  3
ObjectDBX Classes
 90
        0
 91
        1
280
     0
281
     0
  0
CLASS
  1
SORTENTSTABLE
  2
AcDbSortentsTable
  3
ObjectDBX Classes
 90
        0
 91
        5
280
     0
281
     0
  0
CLASS
  1
LAYER_INDEX
  2
AcDbLayerIndex
  3
ObjectDBX Classes
 90
        0
 91
        5
280
     0
281
     0
  0
CLASS
  1
SPATIAL_INDEX
  2
AcDbSpatialIndex
  3
AutoCAD 2000
 90
        0
 91
        5
280
     0
281
     0
  0
CLASS
  1
OBJECT_PTR
  2
CAseDLPNTableRecord
  3
ASE-LPNTableRecord
 90
        1
 91
        5
280
     0
281
     0
  0
CLASS
  1
LAYOUT
  2
AcDbLayout
  3
ObjectDBX Classes
 90
        0
 91
        1
280
     0
281
     0
  0
CLASS
  1
PLOTSETTINGS
  2
AcDbPlotSettings
  3
ObjectDBX Classes
 90
        0
 91
        5
280
     0
281
     0
  0
CLASS
  1
ACDBDICTIONARYWDFLT
  2
AcDbDictionaryWithDefault
  3
ObjectDBX Classes
 90
        0
 91
        7
280
     0
281
     0
  0
CLASS
  1
ACDBPLACEHOLDER
  2
AcDbPlaceHolder
  3
ObjectDBX Classes
 90
        0
 91
        1
280
     0
281
     0
  0
CLASS
  1
SCALE
  2
AcDbScale
  3
ObjectDBX Classes
 90
     1153
 91
        7
280
     0
281
     0
  0
CLASS
  1
VISUALSTYLE
  2
AcDbVisualStyle
  3
ObjectDBX Classes
 90
     4095
 91
        7
280
     0
281
     0
  0
CLASS
  1
MATERIAL
  2
AcDbMaterial
  3
ObjectDBX Classes
 90
     1153
 91
        7
280
     0
281
     0
  0
CLASS
  1
TABLESTYLE
  2
AcDbTableStyle
  3
ObjectDBX Classes
 90
     4095
 91
        7
280
     0
281
     0
  0
CLASS
  1
SUN
  2
AcDbSun
  3
SCENEOE
 90
     1153
 91
        7
280
     0
281
     0
  0
CLASS
  1
CELLSTYLEMAP
  2
AcDbCellStyleMap
  3
ObjectDBX Classes
 90
     1152
 91
        5
280
     0
281
     0
  0
ENDSEC
  0
SECTION
  2
TABLES
  0
TABLE
  2
VPORT
  5
7
330
0
100
AcDbSymbolTable
 70
     1
  0
VPORT
  5
15
330
7
100
AcDbSymbolTableRecord
100
AcDbViewportTableRecord
  2
*ACTIVE
 70
     0
 10
0.0
 20
0.0
 11
1.0
 21
1.0
 12
-129.3967374049176
 22
-567.5028551409293
 13
0.0
 23
0.0
 14
1.0
 24
1.0
 15
0.0
 25
0.0
 16
0.0
 26
0.0
 36
1.0
 17
0.0
 27
0.0
 37
0.0
 40
4433.629398613142
 41
2.184105960264901
 42
50.0
 43
0.0
 44
0.0
 50
0.0
 51
0.0
 71
    16
 72
  2000
 73
     1
 74
     1
 75
     0
 76
     0
 77
     0
 78
     0
281
     0
 65
     0
110
0.0
120
0.0
130
0.0
111
1.0
121
0.0
131
0.0
112
0.0
122
1.0
132
0.0
 79
     0
146
0.0
348
216
 60
     3
 61
     5
292
     1
282
     1
141
0.0
142
0.0
 63
   250
361
231
  0
ENDTAB
  0
TABLE
  2
LTYPE
  5
4
330
0
100
AcDbSymbolTable
 70
    13
  0
LTYPE
  5
11
330
4
100
AcDbSymbolTableRecord
100
AcDbLinetypeTableRecord
  2
ByBlock
 70
     0
  3

 72
    65
 73
     0
 40
0.0
  0
LTYPE
  5
12
330
4
100
AcDbSymbolTableRecord
100
AcDbLinetypeTableRecord
  2
ByLayer
 70
     0
  3

 72
    65
 73
     0
 40
0.0
  0
LTYPE
  5
13
330
4
100
AcDbSymbolTableRecord
100
AcDbLinetypeTableRecord
  2
Continuous
 70
     0
  3
Solid line
 72
    65
 73
     0
 40
0.0
  0
LTYPE
  5
39
330
4
100
AcDbSymbolTableRecord
100
AcDbLinetypeTableRecord
  2
STYLE_01
 70
     0
  3

 72
    65
 73
     2
 40
0.1875
 49
0.125
 74
     0
 49
-0.0625
 74
     0
  0
LTYPE
  5
3A
330
4
100
AcDbSymbolTableRecord
100
AcDbLinetypeTableRecord
  2
STYLE_02
 70
     0
  3

 72
    65
 73
     4
 40
0.4999999999999999
 49
0.25
 74
     0
 49
-0.125
 74
     0
 49
0.0005
 74
     0
 49
-0.1245
 74
     0
  0
LTYPE
  5
3B
330
4
100
AcDbSymbolTableRecord
100
AcDbLinetypeTableRecord
  2
STYLE_03
 70
     0
  3

 72
    65
 73
     2
 40
1.25
 49
1.04164
 74
     0
 49
-0.2083599999999999
 74
     0
  0
LTYPE
  5
3C
330
4
100
AcDbSymbolTableRecord
100
AcDbLinetypeTableRecord
  2
STYLE_04
 70
     0
  3

 72
    65
 73
     2
 40
1.52771
 49
1.319425
 74
     0
 49
-0.208285
 74
     0
  0
LTYPE
  5
3D
330
4
100
AcDbSymbolTableRecord
100
AcDbLinetypeTableRecord
  2
STYLE_05
 70
     0
  3

 72
    65
 73
     2
 40
0.20828
 49
0.069425
 74
     0
 49
-0.138855
 74
     0
  0
LTYPE
  5
3E
330
4
100
AcDbSymbolTableRecord
100
AcDbLinetypeTableRecord
  2
STYLE_06
 70
     0
  3

 72
    65
 73
     4
 40
1.04164
 49
0.625
 74
     0
 49
-0.20828
 74
     0
 49
0.06943
 74
     0
 49
-0.13893
 74
     0
  0
LTYPE
  5
3F
330
4
100
AcDbSymbolTableRecord
100
AcDbLinetypeTableRecord
  2
STYLE_07
 70
     0
  3

 72
    65
 73
     6
 40
1.875
 49
0.625
 74
     0
 49
-0.20828
 74
     0
 49
0.6250000000000001
 74
     0
 49
-0.2083599999999999
 74
     0
 49
0.06943
 74
     0
 49
-0.1389299999999999
 74
     0
  0
LTYPE
  5
40
330
4
100
AcDbSymbolTableRecord
100
AcDbLinetypeTableRecord
  2
STYLE_08
 70
     0
  3

 72
    65
 73
     6
 40
1.25
 49
0.625
 74
     0
 49
-0.20828
 74
     0
 49
0.06943
 74
     0
 49
-0.13893
 74
     0
 49
0.0694299999999999
 74
     0
 49
-0.13893
 74
     0
  0
LTYPE
  5
41
330
4
100
AcDbSymbolTableRecord
100
AcDbLinetypeTableRecord
  2
STYLE_09
 70
     0
  3

 72
    65
 73
     4
 40
5.0
 49
3.75
 74
     0
 49
-0.2777849999999998
 74
     0
 49
0.6944300000000003
 74
     0
 49
-0.2777849999999998
 74
     0
  0
LTYPE
  5
42
330
4
100
AcDbSymbolTableRecord
100
AcDbLinetypeTableRecord
  2
STYLE_10
 70
     0
  3

 72
    65
 73
     6
 40
5.9375
 49
3.75
 74
     0
 49
-0.2777849999999998
 74
     0
 49
0.6944300000000003
 74
     0
 49
-0.2777849999999998
 74
     0
 49
0.625
 74
     0
 49
-0.3125
 74
     0
  0
LTYPE
  5
43
330
4
100
AcDbSymbolTableRecord
100
AcDbLinetypeTableRecord
  2
STYLE_11
 70
     0
  3

 72
    65
 73
     2
 40
0.0694444881889764
 49
0.0347222440944882
 74
     0
 49
-0.0347222440944882
 74
     0
  0
LTYPE
  5
44
330
4
100
AcDbSymbolTableRecord
100
AcDbLinetypeTableRecord
  2
STYLE_12
 70
     0
  3

 72
    65
 73
     2
 40
0.3937007874015748
 49
0.1968503937007874
 74
     0
 49
-0.1968503937007874
 74
     0
  0
ENDTAB
  0
TABLE
  2
LAYER
  5
2
102
{ACAD_XDICTIONARY
360
233
102
}
330
0
100
AcDbSymbolTable
 70
     7
  0
LAYER
  5
14
330
2
100
AcDbSymbolTableRecord
100
AcDbLayerTableRecord
  2
0
 70
     0
 62
     7
  6
Continuous
370
    -3
390
1D
347
22D
  0
LAYER
  5
45
330
2
100
AcDbSymbolTableRecord
100
AcDbLayerTableRecord
  2
Defpoints
 70
     0
 62
    -7
  6
Continuous
290
     0
370
    -3
390
1D
347
22D
  0
LAYER
  5
46
330
2
100
AcDbSymbolTableRecord
100
AcDbLayerTableRecord
  2
template
 70
     0
 62
     7
  6
Continuous
370
    -3
390
1D
347
22D
  0
LAYER
  5
47
330
2
100
AcDbSymbolTableRecord
100
AcDbLayerTableRecord
  2
notes
 70
     0
 62
     7
  6
Continuous
370
     5
390
1D
347
22D
  0
LAYER
  5
48
330
2
100
AcDbSymbolTableRecord
100
AcDbLayerTableRecord
  2
ADF70-0602
 70
     0
 62
     7
  6
Continuous
370
    13
390
1D
347
22D
  0
LAYER
  5
25D
330
2
100
AcDbSymbolTableRecord
100
AcDbLayerTableRecord
  2
MODEL
 70
     0
 62
     7
  6
Continuous
370
    -3
390
1D
347
22D
  0
LAYER
  5
25E
330
2
100
AcDbSymbolTableRecord
100
AcDbLayerTableRecord
  2
LOGO
 70
     0
 62
     7
  6
Continuous
370
    -3
390
1D
347
22D
  0
ENDTAB
  0
TABLE
  2
STYLE
  5
3
330
0
100
AcDbSymbolTable
 70
     2
  0
STYLE
  5
17
330
3
100
AcDbSymbolTableRecord
100
AcDbTextStyleTableRecord
  2
Standard
 70
     0
 40
0.0
 41
1.0
 50
0.0
 71
     0
 42
0.0
  3
txt
  4
BIGFONT.SHX
  0
STYLE
  5
38
330
3
100
AcDbSymbolTableRecord
100
AcDbTextStyleTableRecord
  2
ＭＳ ゴシック
 70
     0
 40
0.0
 41
1.0
 50
0.0
 71
     0
 42
0.0
  3
msgothic.ttc
  4
ＭＳ ゴシック
1001
ACAD
1000
ＭＳ ゴシック
1071
        0
  0
ENDTAB
  0
TABLE
  2
VIEW
  5
5
330
0
100
AcDbSymbolTable
 70
     0
  0
ENDTAB
  0
TABLE
  2
UCS
  5
6
330
0
100
AcDbSymbolTable
 70
     0
  0
ENDTAB
  0
TABLE
  2
APPID
  5
8
330
0
100
AcDbSymbolTable
 70
     1
  0
APPID
  5
16
330
8
100
AcDbSymbolTableRecord
100
AcDbRegAppTableRecord
  2
ACAD
 70
     0
  0
ENDTAB
  0
TABLE
  2
DIMSTYLE
  5
9
330
0
100
AcDbSymbolTable
 70
     3
100
AcDbDimStyleTable
  0
DIMSTYLE
105
18
330
9
100
AcDbSymbolTableRecord
100
AcDbDimStyleTableRecord
  2
Standard
 70
     0
178
     0
340
17
  0
DIMSTYLE
105
51
330
9
100
AcDbSymbolTableRecord
100
AcDbDimStyleTableRecord
  2
tform線あり
 70
     0
  3
<>
  4
[]
 41
9.999389648437498
 42
25.0
 43
0.9999999999999999
 44
0.0
 73
     0
 74
     0
 77
     1
 78
    11
140
24.4326171875
141
0.0
143
1.0
147
0.4999999999999999
171
     1
174
     1
178
     0
179
     2
271
     1
272
     1
276
     2
284
    11
285
    11
286
    11
289
     0
340
38
341
49
342
49
  0
DIMSTYLE
105
56
330
9
100
AcDbSymbolTableRecord
100
AcDbDimStyleTableRecord
  2
JIS
 70
     0
  3
<>
  4
[]
 41
31.75
 42
0.0
 43
6.99999999999994
 44
19.9999999999962
 73
     0
 74
     0
 77
     1
 78
    11
140
24.4326171875
141
0.0
143
1.0
147
1.00000000000108
171
     1
174
     1
178
     0
179
     2
271
     1
272
     1
276
     2
284
    11
285
    11
286
    11
289
     0
340
38
341
52
342
52
  0
ENDTAB
  0
TABLE
  2
BLOCK_RECORD
  5
1
330
0
100
AcDbSymbolTable
 70
    27
  0
BLOCK_RECORD
  5
A
330
1
100
AcDbSymbolTableRecord
100
AcDbBlockTableRecord
  2
*MODEL_SPACE
340
20
 70
     0
280
     1
281
     0
  0
BLOCK_RECORD
  5
B
330
1
100
AcDbSymbolTableRecord
100
AcDbBlockTableRecord
  2
*PAPER_SPACE
340
21
 70
     0
280
     1
281
     0
  0
BLOCK_RECORD
  5
49
330
1
100
AcDbSymbolTableRecord
100
AcDbBlockTableRecord
  2
_DOT
340
0
 70
     0
280
     1
281
     0
  0
BLOCK_RECORD
  5
52
330
1
100
AcDbSymbolTableRecord
100
AcDbBlockTableRecord
  2
VW_FILLEDARROW
340
0
 70
     0
280
     1
281
     0
  0
BLOCK_RECORD
  5
23
330
1
100
AcDbSymbolTableRecord
100
AcDbBlockTableRecord
  2
グループ
340
0
102
{BLKREFS
331
0
102
}
 70
     0
280
     1
281
     0
  0
BLOCK_RECORD
  5
24
330
1
100
AcDbSymbolTableRecord
100
AcDbBlockTableRecord
  2
*D3
340
0
 70
     0
280
     1
281
     0
  0
BLOCK_RECORD
  5
25
330
1
100
AcDbSymbolTableRecord
100
AcDbBlockTableRecord
  2
*D4
340
0
 70
     0
280
     1
281
     0
  0
BLOCK_RECORD
  5
26
330
1
100
AcDbSymbolTableRecord
100
AcDbBlockTableRecord
  2
*D5
340
0
 70
     0
280
     1
281
     0
  0
BLOCK_RECORD
  5
27
330
1
100
AcDbSymbolTableRecord
100
AcDbBlockTableRecord
  2
*D6
340
0
 70
     0
280
     1
281
     0
  0
BLOCK_RECORD
  5
28
330
1
100
AcDbSymbolTableRecord
100
AcDbBlockTableRecord
  2
*D7
340
0
 70
     0
280
     1
281
     0
  0
BLOCK_RECORD
  5
29
330
1
100
AcDbSymbolTableRecord
100
AcDbBlockTableRecord
  2
*D8
340
0
 70
     0
280
     1
281
     0
  0
BLOCK_RECORD
  5
2A
330
1
100
AcDbSymbolTableRecord
100
AcDbBlockTableRecord
  2
*D9
340
0
 70
     0
280
     1
281
     0
  0
BLOCK_RECORD
  5
2B
330
1
100
AcDbSymbolTableRecord
100
AcDbBlockTableRecord
  2
*D10
340
0
 70
     0
280
     1
281
     0
  0
BLOCK_RECORD
  5
2C
330
1
100
AcDbSymbolTableRecord
100
AcDbBlockTableRecord
  2
*D11
340
0
 70
     0
280
     1
281
     0
  0
BLOCK_RECORD
  5
2D
330
1
100
AcDbSymbolTableRecord
100
AcDbBlockTableRecord
  2
*D12
340
0
 70
     0
280
     1
281
     0
  0
BLOCK_RECORD
  5
2E
330
1
100
AcDbSymbolTableRecord
100
AcDbBlockTableRecord
  2
*D13
340
0
 70
     0
280
     1
281
     0
  0
BLOCK_RECORD
  5
2F
330
1
100
AcDbSymbolTableRecord
100
AcDbBlockTableRecord
  2
*D14
340
0
 70
     0
280
     1
281
     0
  0
BLOCK_RECORD
  5
30
330
1
100
AcDbSymbolTableRecord
100
AcDbBlockTableRecord
  2
*D15
340
0
 70
     0
280
     1
281
     0
  0
BLOCK_RECORD
  5
31
330
1
100
AcDbSymbolTableRecord
100
AcDbBlockTableRecord
  2
*D16
340
0
 70
     0
280
     1
281
     0
  0
BLOCK_RECORD
  5
32
330
1
100
AcDbSymbolTableRecord
100
AcDbBlockTableRecord
  2
*D17
340
0
 70
     0
280
     1
281
     0
  0
BLOCK_RECORD
  5
33
330
1
100
AcDbSymbolTableRecord
100
AcDbBlockTableRecord
  2
*D18
340
0
 70
     0
280
     1
281
     0
  0
BLOCK_RECORD
  5
34
330
1
100
AcDbSymbolTableRecord
100
AcDbBlockTableRecord
  2
*D19
340
0
 70
     0
280
     1
281
     0
  0
BLOCK_RECORD
  5
35
330
1
100
AcDbSymbolTableRecord
100
AcDbBlockTableRecord
  2
*D20
340
0
 70
     0
280
     1
281
     0
  0
BLOCK_RECORD
  5
36
330
1
100
AcDbSymbolTableRecord
100
AcDbBlockTableRecord
  2
*D21
340
0
 70
     0
280
     1
281
     0
  0
BLOCK_RECORD
  5
37
330
1
100
AcDbSymbolTableRecord
100
AcDbBlockTableRecord
  2
*D22
340
0
 70
     0
280
     1
281
     0
  0
BLOCK_RECORD
  5
28A
330
1
100
AcDbSymbolTableRecord
100
AcDbBlockTableRecord
  2
block 3
340
0
102
{BLKREFS
331
289
331
2AD
102
}
 70
     0
280
     1
281
     0
  0
BLOCK_RECORD
  5
28D
330
1
100
AcDbSymbolTableRecord
100
AcDbBlockTableRecord
  2
block 4
340
0
102
{BLKREFS
331
28C
331
28C
102
}
 70
     0
280
     1
281
     0
  0
BLOCK_RECORD
  5
29C
330
1
100
AcDbSymbolTableRecord
100
AcDbBlockTableRecord
  2
block 5
340
0
102
{BLKREFS
331
29B
331
29B
102
}
 70
     0
280
     1
281
     0
  0
ENDTAB
  0
ENDSEC
  0
SECTION
  2
BLOCKS
  0
BLOCK
  5
D
330
A
100
AcDbEntity
  8
0
390
1D
100
AcDbBlockBegin
  2
*MODEL_SPACE
 70
     0
 10
0.0
 20
0.0
 30
0.0
  3
*MODEL_SPACE
  1
*MODEL_SPACE
  0
ENDBLK
  5
E
330
A
100
AcDbEntity
  8
0
390
1D
100
AcDbBlockEnd
  0
BLOCK
  5
F
330
B
100
AcDbEntity
 67
     1
  8
0
390
1D
100
AcDbBlockBegin
  2
*PAPER_SPACE
 70
     0
 10
0.0
 20
0.0
 30
0.0
  3
*PAPER_SPACE
  1
*PAPER_SPACE
  0
ENDBLK
  5
10
330
B
100
AcDbEntity
 67
     1
  8
0
390
1D
100
AcDbBlockEnd
  0
BLOCK
  5
4A
330
49
100
AcDbEntity
  8
0
390
1D
100
AcDbBlockBegin
  2
_DOT
 70
     0
 10
0.0
 20
0.0
 30
0.0
  3
_DOT
  1
_DOT
  0
POLYLINE
  5
4B
330
49
100
AcDbEntity
  8
0
  6
ByBlock
 62
     0
370
    -2
390
1D
100
AcDb2dPolyline
 66
     1
 10
0.0
 20
0.0
 30
0.0
 70
     1
 40
0.5
 41
0.5
  0
VERTEX
  5
4C
330
4B
100
AcDbEntity
  8
0
  6
ByBlock
 62
     0
370
    -2
390
1D
100
AcDbVertex
100
AcDb2dVertex
 10
-0.25
 20
0.0
 30
0.0
 42
1.0
  0
VERTEX
  5
4D
330
4B
100
AcDbEntity
  8
0
  6
ByBlock
 62
     0
370
    -2
390
1D
100
AcDbVertex
100
AcDb2dVertex
 10
0.25
 20
0.0
 30
0.0
 42
1.0
  0
SEQEND
  5
4E
330
4B
100
AcDbEntity
  8
0
390
1D
  0
LINE
  5
4F
330
49
100
AcDbEntity
  8
0
  6
ByBlock
 62
     0
370
    -2
390
1D
100
AcDbLine
 10
-0.5
 20
0.0
 30
0.0
 11
-1.0
 21
0.0
 31
0.0
  0
ENDBLK
  5
50
330
49
100
AcDbEntity
  8
0
390
1D
100
AcDbBlockEnd
  0
BLOCK
  5
53
330
52
100
AcDbEntity
  8
0
  6
ByBlock
 62
     0
370
    -2
390
1D
100
AcDbBlockBegin
  2
VW_FILLEDARROW
 70
     0
 10
0.0
 20
0.0
 30
0.0
  3
VW_FILLEDARROW
  1
VW_FILLEDARROW
  0
SOLID
  5
54
330
52
100
AcDbEntity
  8
0
 62
     0
370
    -2
390
1D
100
AcDbTrace
 10
0.0
 20
0.0
 30
0.0
 11
-0.9921874999999999
 21
-0.2658558393652545
 31
0.0
 12
-0.9921874999999999
 22
0.2658558393652548
 32
0.0
 13
-0.9921874999999999
 23
0.2658558393652548
 33
0.0
  0
ENDBLK
  5
55
330
52
100
AcDbEntity
  8
0
390
1D
100
AcDbBlockEnd
  0
BLOCK
  5
57
330
23
100
AcDbEntity
  8
template
390
1D
100
AcDbBlockBegin
  2
グループ
 70
     0
 10
0.0
 20
0.0
 30
0.0
  3
グループ
  1
グループ
  0
LWPOLYLINE
  5
58
330
23
100
AcDbEntity
  8
0
  6
Continuous
 62
     7
370
    15
390
1D
100
AcDbPolyline
 90
        8
 70
   129
 43
0.0
 10
-1968.621883232245
 20
-2161.199286996197
 10
-1968.621883232245
 20
-2167.196675689773
 10
-1978.123080150248
 20
-2167.196675689773
 10
-1978.123080150248
 20
-2191.647638953282
 10
-1986.478457412031
 20
-2191.647638953282
 10
-1986.478457412031
 20
-2167.196675689773
 10
-1995.811414358341
 20
-2167.196675689773
 10
-1995.811414358341
 20
-2161.199286996197
  0
LWPOLYLINE
  5
59
330
23
100
AcDbEntity
  8
0
  6
Continuous
 62
     7
370
    15
390
1D
100
AcDbPolyline
 90
      101
 70
   128
 43
0.0
 10
-1955.893591401688
 20
-2161.927535489133
 10
-1955.878241372906
 20
-2161.923174732449
 42
-0.0222221607813691
 10
-1955.588236796232
 20
-2161.854550267204
 10
-1955.572443032239
 20
-2161.851546844107
 42
-0.0146883565593402
 10
-1955.309740327014
 20
-2161.809543657158
 42
-0.0127458844185369
 10
-1955.04510135986
 20
-2161.782006689084
 10
-1954.982646281549
 20
-2161.777113266497
 42
-0.0198099018565224
 10
-1954.591797172073
 20
-2161.7620281091
 10
-1954.539985702628
 20
-2161.762081884765
 42
-0.0147617382764964
 10
-1954.045362241649
 20
-2161.77720191001
 10
-1953.972670786781
 20
-2161.781574516898
 42
-0.0162624549002563
 10
-1953.582517157314
 20
-2161.81780739217
 10
-1953.460984766059
 20
-2161.833093951166
 42
-0.0080020874670855
 10
-1953.315405734963
 20
-2161.853776798435
 10
-1953.277086264347
 20
-2161.85984807625
 42
-0.0053821929669679
 10
-1953.208602159053
 20
-2161.871455600068
 10
-1953.935007858252
 20
-2164.052384055782
 42
0.0108667757391692
 10
-1954.002324928377
 20
-2164.039196940563
 10
-1954.039792951573
 20
-2164.032699197967
 42
0.0170663203300372
 10
-1954.18300973848
 20
-2164.012869600676
 10
-1954.250885071171
 20
-2164.005822430088
 42
0.0220162375280579
 10
-1954.531264479025
 20
-2163.989140069318
 10
-1954.60912004608
 20
-2163.987940702051
 42
0.0282606915780829
 10
-1954.944756369656
 20
-2164.00174397902
 10
-1954.988669643431
 20
-2164.006043969024
 42
0.0169677213688335
 10
-1955.234594138388
 20
-2164.038581018576
 42
0.0190576269871857
 10
-1955.477502100965
 20
-2164.088727890682
 10
-1955.483761289079
 20
-2164.090270864792
 42
0.0213685642847814
 10
-1955.734145773559
 20
-2164.163471149897
 10
-1955.739635668473
 20
-2164.165334145956
 42
0.0237595297597574
 10
-1955.993130553373
 20
-2164.265018667852
 10
-1955.998232627401
 20
-2164.267310443329
 42
0.0261857468820563
 10
-1956.25040340363
 20
-2164.396846780704
 10
-1956.260829592719
 20
-2164.402912255173
 42
0.0272553062017781
 10
-1956.497259367956
 20
-2164.558284461116
 10
-1956.532022381467
 20
-2164.583945609209
 42
0.0325996893179613
 10
-1956.682177725117
 20
-2164.71069348218
 10
-1956.70588715424
 20
-2164.733511510693
 42
0.0138050960608294
 10
-1956.79777031045
 20
-2164.826961172244
 42
0.0125280103792501
 10
-1956.884612843279
 20
-2164.925124498839
 10
-1956.908293288192
 20
-2164.953282997032
 42
0.0205218024735534
 10
-1957.033393363703
 20
-2165.115076311257
 10
-1957.055859704193
 20
-2165.146736041088
 42
0.0163110129588489
 10
-1957.211570083447
 20
-2165.382066476162
 10
-1957.214293979495
 20
-2165.386490238143
 42
0.0131897341897009
 10
-1957.361094500405
 20
-2165.639622330514
 10
-1957.362794595768
 20
-2165.642740569644
 42
0.0107895576055271
 10
-1957.500571297979
 20
-2165.908955779279
 10
-1957.501304187504
 20
-2165.910450011925
 42
0.0091371507213846
 10
-1957.629784136147
 20
-2166.184975209671
 10
-1957.659529767562
 20
-2166.251681716843
 42
0.0135418326356775
 10
-1957.831243706637
 20
-2166.666619502119
 10
-1957.864848515067
 20
-2166.754485644391
 42
0.009283454241283
 10
-1958.036077574989
 20
-2167.228384142699
 10
-1958.061694702708
 20
-2167.303625212497
 42
0.005426104358263
 10
-1958.169332851
 20
-2167.631389185558
 10
-1958.18685883722
 20
-2167.686777347925
 42
0.0008225090838021
 10
-1958.255528889007
 20
-2167.905046105937
 10
-1959.240218020941
 20
-2170.929937399193
 10
-1956.007594180867
 20
-2170.929937399193
 10
-1956.51178661072
 20
-2172.834415697545
 10
-1959.767842892704
 20
-2172.834415697545
 10
-1965.596991925057
 20
-2191.64763876355
 10
-1967.422089535368
 20
-2191.64763876355
 10
-1961.587411499867
 20
-2172.834415697545
 10
-1963.992527868907
 20
-2172.834415697545
 10
-1963.488335439054
 20
-2170.929937399193
 10
-1961.059786628104
 20
-2170.929937399193
 10
-1960.199631709915
 20
-2168.293524398494
 42
-0.0005863560635588
 10
-1960.162897031745
 20
-2168.176697978309
 10
-1960.086809198051
 20
-2167.935705678817
 42
-0.0087522378925931
 10
-1959.887341054591
 20
-2167.34042959166
 10
-1959.795076779185
 20
-2167.080289423168
 42
-0.0077400953826124
 10
-1959.53714312005
 20
-2166.38728474561
 10
-1959.52137814847
 20
-2166.346853862222
 42
-0.0082369946329625
 10
-1959.274293677859
 20
-2165.742774796028
 42
-0.0085725238365112
 10
-1959.007047581856
 20
-2165.14734875674
 10
-1958.905417980848
 20
-2164.930927654755
 42
-0.0168109410594098
 10
-1958.618473552119
 20
-2164.369720128651
 10
-1958.492630161726
 20
-2164.142756095774
 42
-0.000781772688137
 10
-1958.438345811603
 20
-2164.045211850623
 10
-1958.438217505593
 20
-2164.0449821419
 42
-0.0036626142135051
 10
-1958.383329641564
 20
-2163.948384261918
 42
-0.0080221150669677
 10
-1958.326205386157
 20
-2163.853105027164
 10
-1958.295505434796
 20
-2163.803714078043
 42
-0.0202139325571928
 10
-1958.16784969499
 20
-2163.615732477362
 10
-1958.113782229802
 20
-2163.54265361312
 42
-0.0249323791790007
 10
-1957.854619436084
 20
-2163.226608370967
 10
-1957.830479621956
 20
-2163.199994098053
 42
-0.0242132121540343
 10
-1957.490798880411
 20
-2162.860110611847
 10
-1957.442887307663
 20
-2162.816601475663
 42
-0.0251017527849098
 10
-1957.158905607023
 20
-2162.583608729899
 10
-1957.15746013021
 20
-2162.58253947232
 42
-0.0130868069028866
 10
-1956.859199480252
 20
-2162.373759003777
 10
-1956.857637661109
 20
-2162.372725563502
 42
-0.029032952638718
 10
-1956.546526519716
 20
-2162.191900061873
 10
-1956.516680957729
 20
-2162.176797679033
 42
-0.0160250190053128
 10
-1956.250776543965
 20
-2162.05278156882
 42
-0.026760037477179
 10
-1955.975500466493
 20
-2161.952033248271
 10
-1955.948764546975
 20
-2161.943840689446
 42
-0.0049981587650976
 10
-1955.893591401688
 20
-2161.927535489133
 42
-0.0049981587650976
  0
LWPOLYLINE
  5
5A
330
23
100
AcDbEntity
  8
0
  6
Continuous
 62
     7
370
    15
390
1D
100
AcDbPolyline
 90
      118
 70
   128
 43
0.0
 10
-1936.079223837241
 20
-2171.003920727021
 10
-1934.204101912742
 20
-2171.003920727021
 10
-1935.042140818342
 20
-2173.68548725342
 42
-0.0010587229256383
 10
-1935.010685002794
 20
-2173.648582720094
 10
-1934.952490912138
 20
-2173.58060046389
 42
-0.0071874740417468
 10
-1934.802115694051
 20
-2173.409959771873
 10
-1934.660392920778
 20
-2173.253723630547
 42
-0.0148118053510417
 10
-1934.210263628063
 20
-2172.786109784533
 10
-1934.123041293162
 20
-2172.70071246368
 42
-0.0086273358694657
 10
-1933.787492492155
 20
-2172.383336829665
 10
-1933.743658775927
 20
-2172.34328718533
 42
-0.010313832311652
 10
-1933.485635073695
 20
-2172.117124047993
 10
-1933.43986066737
 20
-2172.078642000735
 42
-0.0060206748570948
 10
-1933.267012603256
 20
-2171.936847349979
 10
-1933.264981472374
 20
-2171.93522164435
 42
-0.0067069027288761
 10
-1933.092688657708
 20
-2171.801071010552
 10
-1933.090139891775
 20
-2171.799140840672
 42
-0.0076184352054572
 10
-1932.91923462591
 20
-2171.673765965433
 42
-0.0089652861670046
 10
-1932.744273663174
 20
-2171.5541327051
 10
-1932.707921943032
 20
-2171.530221491618
 42
-0.0156916245942144
 10
-1932.51196244587
 20
-2171.409959005143
 42
-0.0023299011066357
 10
-1932.311700401906
 20
-2171.296781065611
 10
-1932.296316269511
 20
-2171.288181070538
 42
-0.0107669341487851
 10
-1932.062079444411
 20
-2171.163780937189
 10
-1932.039814643334
 20
-2171.152564187238
 42
-0.0078058045907405
 10
-1931.756224525383
 20
-2171.0152027316
 10
-1931.746317437673
 20
-2171.010593603731
 42
-0.0181829330466959
 10
-1931.436008033057
 20
-2170.879729862635
 10
-1931.381952590493
 20
-2170.859214742693
 42
-0.0208411536030692
 10
-1931.03286762304
 20
-2170.743124280199
 10
-1931.01851152291
 20
-2170.739005835245
 42
-0.0222799817142634
 10
-1930.689791728995
 20
-2170.660364269105
 10
-1930.680902765763
 20
-2170.658652258521
 42
-0.0215509523875975
 10
-1930.364431797479
 20
-2170.611736569986
 10
-1930.321949836435
 20
-2170.607299043195
 42
-0.0182545924867892
 10
-1930.087841057124
 20
-2170.591455217804
 10
-1930.04844004079
 20
-2170.590230672725
 42
-0.007296285652096
 10
-1929.892517161088
 20
-2170.587661344202
 10
-1929.863417490505
 20
-2170.587606508799
 42
-0.0059227516303431
 10
-1929.76566799137
 20
-2170.588580220589
 10
-1929.736425773772
 20
-2170.589217987195
 42
-0.0011833111952812
 10
-1929.697174490166
 20
-2170.590166991503
 10
-1930.492561085773
 20
-2173.128900936602
 42
0.0143932051653722
 10
-1930.51896246812
 20
-2173.118701966558
 10
-1930.526234440541
 20
-2173.116130747699
 42
0.0234388603450215
 10
-1930.568065306473
 20
-2173.103511511984
 10
-1930.576746969386
 20
-2173.101330549979
 42
0.019916274300902
 10
-1930.637035803465
 20
-2173.088713814644
 10
-1930.657849741272
 20
-2173.085216615215
 42
0.0293643550691133
 10
-1930.760924600032
 20
-2173.074066569562
 10
-1930.785609780752
 20
-2173.072854952543
 42
0.0214606686864086
 10
-1930.93875069671
 20
-2173.071916392126
 10
-1930.948122607522
 20
-2173.072261303671
 42
0.0167564054187226
 10
-1931.119642798633
 20
-2173.084338346038
 10
-1931.12810259139
 20
-2173.085219686465
 42
0.0137677553235409
 10
-1931.315455904659
 20
-2173.10996899501
 10
-1931.322807644162
 20
-2173.111146914977
 42
0.0118497261489554
 10
-1931.523305408263
 20
-2173.148164265166
 10
-1931.529455415511
 20
-2173.149451127886
 42
0.0106421143879476
 10
-1931.7403363028
 20
-2173.198283503462
 10
-1931.745245111185
 20
-2173.199530846146
 42
0.0099746379709752
 10
-1931.963703580352
 20
-2173.259705374462
 10
-1932.025251620517
 20
-2173.277987253091
 42
0.0191613675855515
 10
-1932.361236083039
 20
-2173.391964633381
 10
-1932.449295855783
 20
-2173.425651543704
 42
0.0205274080144304
 10
-1932.834602627679
 20
-2173.591479951529
 10
-1932.892251909661
 20
-2173.619147916101
 42
0.0181256912197248
 10
-1933.150528850328
 20
-2173.754831735079
 10
-1933.203484233641
 20
-2173.785149348294
 42
0.0140709242428408
 10
-1933.34843916827
 20
-2173.873644021728
 10
-1933.374688036883
 20
-2173.89070084044
 42
0.0086667884418596
 10
-1933.463614198432
 20
-2173.950703508327
 42
0.0036408192019797
 10
-1933.551047436463
 20
-2174.012884366118
 10
-1933.586274310934
 20
-2174.038325312032
 42
0.0052260781291509
 10
-1933.742503008329
 20
-2174.153657698669
 10
-1933.758709864584
 20
-2174.165885809284
 42
0.005002443590313
 10
-1933.944713207645
 20
-2174.309168377548
 10
-1933.960031364158
 20
-2174.321214399992
 42
0.0136138710277265
 10
-1934.170472632484
 20
-2174.496180904906
 10
-1934.204140508277
 20
-2174.52575987762
 42
0.0172815186913138
 10
-1934.46854404994
 20
-2174.774756550243
 10
-1934.471106395782
 20
-2174.77734236739
 42
0.0189403857987823
 10
-1934.721688194363
 20
-2175.050147632196
 10
-1934.754319687899
 20
-2175.088491563693
 42
0.0185044199513221
 10
-1934.946276126877
 20
-2175.331740144814
 42
0.0088565243903371
 10
-1935.124736233505
 20
-2175.585256564964
 10
-1935.133914213154
 20
-2175.598797944725
 42
0.0157195347226999
 10
-1935.317134819488
 20
-2175.888320154039
 10
-1935.363217761415
 20
-2175.966472351054
 42
0.0095451879778099
 10
-1935.528303311557
 20
-2176.259066993417
 10
-1935.539451230487
 20
-2176.27973766555
 42
0.010035170626158
 10
-1935.671494979646
 20
-2176.536793226041
 42
0.0086935915430618
 10
-1935.793826131441
 20
-2176.798626371448
 10
-1935.797146872854
 20
-2176.806068694416
 42
0.0072580174867472
 10
-1935.917493324805
 20
-2177.086660686013
 10
-1935.920754958106
 20
-2177.094580712017
 42
0.0060005122617421
 10
-1936.039955626452
 20
-2177.394190382632
 10
-1936.04316660479
 20
-2177.402551910527
 42
0.004901778698953
 10
-1936.162066763647
 20
-2177.721480891132
 10
-1936.165232570038
 20
-2177.730233828363
 42
0.0039415167604396
 10
-1936.284668848099
 20
-2178.06877589079
 10
-1936.287799950747
 20
-2178.077879091652
 42
0.0031035838766976
 10
-1936.408604736425
 20
-2178.436318953381
 10
-1936.41171478097
 20
-2178.4457395748
 42
0.0025070747149414
 10
-1936.534616132294
 20
-2178.824386791772
 10
-1936.571910028711
 20
-2178.941278456997
 42
0.0029081910283284
 10
-1936.763928326531
 20
-2179.555442115317
 10
-1936.804731495039
 20
-2179.688665357564
 42
0.0009266453737432
 10
-1937.073148869413
 20
-2180.570889817685
 10
-1937.094036341989
 20
-2180.640001696707
 42
-0.0005809993660575
 10
-1937.371373022585
 20
-2181.553809803363
 10
-1937.43765482084
 20
-2181.771294735463
 42
-0.0012018708167166
 10
-1937.584639130287
 20
-2182.249457400043
 10
-1937.636958981916
 20
-2182.418216541112
 42
-0.0002691059597626
 10
-1937.680528463021
 20
-2182.558484161251
 10
-1940.513484361311
 20
-2191.64763876355
 10
-1942.331473253289
 20
-2191.64763876355
 10
-1936.079223837241
 20
-2171.003920727021
  0
SPLINE
  5
5B
330
23
100
AcDbEntity
  8
0
  6
Continuous
 62
     7
370
    15
390
1D
100
AcDbSpline
210
0.0
220
0.0
230
1.0
 70
    15
 71
     2
 72
   782
 73
   779
 74
     0
 42
0.000000001
 43
0.000001
 40
0.0
 40
0.0
 40
0.0
 40
1.0
 40
1.0
 40
2.0
 40
2.0
 40
3.0
 40
3.0
 40
4.0
 40
4.0
 40
5.0
 40
5.0
 40
6.0
 40
6.0
 40
7.0
 40
7.0
 40
8.0
 40
8.0
 40
9.0
 40
9.0
 40
10.0
 40
10.0
 40
11.0
 40
11.0
 40
12.0
 40
12.0
 40
13.0
 40
13.0
 40
14.0
 40
14.0
 40
15.0
 40
15.0
 40
16.0
 40
16.0
 40
17.0
 40
17.0
 40
18.0
 40
18.0
 40
19.0
 40
19.0
 40
20.0
 40
20.0
 40
21.0
 40
21.0
 40
22.0
 40
22.0
 40
23.0
 40
23.0
 40
24.0
 40
24.0
 40
25.0
 40
25.0
 40
26.0
 40
26.0
 40
27.0
 40
27.0
 40
28.0
 40
28.0
 40
29.0
 40
29.0
 40
30.0
 40
30.0
 40
31.0
 40
31.0
 40
32.0
 40
32.0
 40
33.0
 40
33.0
 40
34.0
 40
34.0
 40
35.0
 40
35.0
 40
36.0
 40
36.0
 40
37.0
 40
37.0
 40
38.0
 40
38.0
 40
39.0
 40
39.0
 40
40.0
 40
40.0
 40
41.0
 40
41.0
 40
42.0
 40
42.0
 40
43.0
 40
43.0
 40
44.0
 40
44.0
 40
45.0
 40
45.0
 40
46.0
 40
46.0
 40
47.0
 40
47.0
 40
48.0
 40
48.0
 40
49.0
 40
49.0
 40
50.0
 40
50.0
 40
51.0
 40
51.0
 40
52.0
 40
52.0
 40
53.0
 40
53.0
 40
54.0
 40
54.0
 40
55.0
 40
55.0
 40
56.0
 40
56.0
 40
57.0
 40
57.0
 40
58.0
 40
58.0
 40
59.0
 40
59.0
 40
60.0
 40
60.0
 40
61.0
 40
61.0
 40
62.0
 40
62.0
 40
63.0
 40
63.0
 40
64.0
 40
64.0
 40
65.0
 40
65.0
 40
66.0
 40
66.0
 40
67.0
 40
67.0
 40
68.0
 40
68.0
 40
69.0
 40
69.0
 40
70.0
 40
70.0
 40
71.0
 40
71.0
 40
72.0
 40
72.0
 40
73.0
 40
73.0
 40
74.0
 40
74.0
 40
75.0
 40
75.0
 40
76.0
 40
76.0
 40
77.0
 40
77.0
 40
78.0
 40
78.0
 40
79.0
 40
79.0
 40
80.0
 40
80.0
 40
81.0
 40
81.0
 40
82.0
 40
82.0
 40
83.0
 40
83.0
 40
84.0
 40
84.0
 40
85.0
 40
85.0
 40
86.0
 40
86.0
 40
87.0
 40
87.0
 40
88.0
 40
88.0
 40
89.0
 40
89.0
 40
90.0
 40
90.0
 40
91.0
 40
91.0
 40
92.0
 40
92.0
 40
93.0
 40
93.0
 40
94.0
 40
94.0
 40
95.0
 40
95.0
 40
96.0
 40
96.0
 40
97.0
 40
97.0
 40
98.0
 40
98.0
 40
99.0
 40
99.0
 40
100.0
 40
100.0
 40
101.0
 40
101.0
 40
102.0
 40
102.0
 40
103.0
 40
103.0
 40
104.0
 40
104.0
 40
105.0
 40
105.0
 40
106.0
 40
106.0
 40
107.0
 40
107.0
 40
108.0
 40
108.0
 40
109.0
 40
109.0
 40
110.0
 40
110.0
 40
111.0
 40
111.0
 40
112.0
 40
112.0
 40
113.0
 40
113.0
 40
114.0
 40
114.0
 40
115.0
 40
115.0
 40
116.0
 40
116.0
 40
117.0
 40
117.0
 40
118.0
 40
118.0
 40
119.0
 40
119.0
 40
120.0
 40
120.0
 40
121.0
 40
121.0
 40
122.0
 40
122.0
 40
123.0
 40
123.0
 40
124.0
 40
124.0
 40
125.0
 40
125.0
 40
126.0
 40
126.0
 40
127.0
 40
127.0
 40
128.0
 40
128.0
 40
129.0
 40
129.0
 40
130.0
 40
130.0
 40
131.0
 40
131.0
 40
132.0
 40
132.0
 40
133.0
 40
133.0
 40
134.0
 40
134.0
 40
135.0
 40
135.0
 40
136.0
 40
136.0
 40
137.0
 40
137.0
 40
138.0
 40
138.0
 40
139.0
 40
139.0
 40
140.0
 40
140.0
 40
141.0
 40
141.0
 40
142.0
 40
142.0
 40
143.0
 40
143.0
 40
144.0
 40
144.0
 40
145.0
 40
145.0
 40
146.0
 40
146.0
 40
147.0
 40
147.0
 40
148.0
 40
148.0
 40
149.0
 40
149.0
 40
150.0
 40
150.0
 40
151.0
 40
151.0
 40
152.0
 40
152.0
 40
153.0
 40
153.0
 40
154.0
 40
154.0
 40
155.0
 40
155.0
 40
156.0
 40
156.0
 40
157.0
 40
157.0
 40
158.0
 40
158.0
 40
159.0
 40
159.0
 40
160.0
 40
160.0
 40
161.0
 40
161.0
 40
162.0
 40
162.0
 40
163.0
 40
163.0
 40
164.0
 40
164.0
 40
165.0
 40
165.0
 40
166.0
 40
166.0
 40
167.0
 40
167.0
 40
168.0
 40
168.0
 40
169.0
 40
169.0
 40
170.0
 40
170.0
 40
171.0
 40
171.0
 40
172.0
 40
172.0
 40
173.0
 40
173.0
 40
174.0
 40
174.0
 40
175.0
 40
175.0
 40
176.0
 40
176.0
 40
177.0
 40
177.0
 40
178.0
 40
178.0
 40
179.0
 40
179.0
 40
180.0
 40
180.0
 40
181.0
 40
181.0
 40
182.0
 40
182.0
 40
183.0
 40
183.0
 40
184.0
 40
184.0
 40
185.0
 40
185.0
 40
186.0
 40
186.0
 40
187.0
 40
187.0
 40
188.0
 40
188.0
 40
189.0
 40
189.0
 40
190.0
 40
190.0
 40
191.0
 40
191.0
 40
192.0
 40
192.0
 40
193.0
 40
193.0
 40
194.0
 40
194.0
 40
195.0
 40
195.0
 40
196.0
 40
196.0
 40
197.0
 40
197.0
 40
198.0
 40
198.0
 40
199.0
 40
199.0
 40
200.0
 40
200.0
 40
201.0
 40
201.0
 40
202.0
 40
202.0
 40
203.0
 40
203.0
 40
204.0
 40
204.0
 40
205.0
 40
205.0
 40
206.0
 40
206.0
 40
207.0
 40
207.0
 40
208.0
 40
208.0
 40
209.0
 40
209.0
 40
210.0
 40
210.0
 40
211.0
 40
211.0
 40
212.0
 40
212.0
 40
213.0
 40
213.0
 40
214.0
 40
214.0
 40
215.0
 40
215.0
 40
216.0
 40
216.0
 40
217.0
 40
217.0
 40
218.0
 40
218.0
 40
219.0
 40
219.0
 40
220.0
 40
220.0
 40
221.0
 40
221.0
 40
222.0
 40
222.0
 40
223.0
 40
223.0
 40
224.0
 40
224.0
 40
225.0
 40
225.0
 40
226.0
 40
226.0
 40
227.0
 40
227.0
 40
228.0
 40
228.0
 40
229.0
 40
229.0
 40
230.0
 40
230.0
 40
231.0
 40
231.0
 40
232.0
 40
232.0
 40
233.0
 40
233.0
 40
234.0
 40
234.0
 40
235.0
 40
235.0
 40
236.0
 40
236.0
 40
237.0
 40
237.0
 40
238.0
 40
238.0
 40
239.0
 40
239.0
 40
240.0
 40
240.0
 40
241.0
 40
241.0
 40
242.0
 40
242.0
 40
243.0
 40
243.0
 40
244.0
 40
244.0
 40
245.0
 40
245.0
 40
246.0
 40
246.0
 40
247.0
 40
247.0
 40
248.0
 40
248.0
 40
249.0
 40
249.0
 40
250.0
 40
250.0
 40
251.0
 40
251.0
 40
252.0
 40
252.0
 40
253.0
 40
253.0
 40
254.0
 40
254.0
 40
255.0
 40
255.0
 40
256.0
 40
256.0
 40
257.0
 40
257.0
 40
258.0
 40
258.0
 40
259.0
 40
259.0
 40
260.0
 40
260.0
 40
261.0
 40
261.0
 40
262.0
 40
262.0
 40
263.0
 40
263.0
 40
264.0
 40
264.0
 40
265.0
 40
265.0
 40
266.0
 40
266.0
 40
267.0
 40
267.0
 40
268.0
 40
268.0
 40
269.0
 40
269.0
 40
270.0
 40
270.0
 40
271.0
 40
271.0
 40
272.0
 40
272.0
 40
273.0
 40
273.0
 40
274.0
 40
274.0
 40
275.0
 40
275.0
 40
276.0
 40
276.0
 40
277.0
 40
277.0
 40
278.0
 40
278.0
 40
279.0
 40
279.0
 40
280.0
 40
280.0
 40
281.0
 40
281.0
 40
282.0
 40
282.0
 40
283.0
 40
283.0
 40
284.0
 40
284.0
 40
285.0
 40
285.0
 40
286.0
 40
286.0
 40
287.0
 40
287.0
 40
288.0
 40
288.0
 40
289.0
 40
289.0
 40
290.0
 40
290.0
 40
291.0
 40
291.0
 40
292.0
 40
292.0
 40
293.0
 40
293.0
 40
294.0
 40
294.0
 40
295.0
 40
295.0
 40
296.0
 40
296.0
 40
297.0
 40
297.0
 40
298.0
 40
298.0
 40
299.0
 40
299.0
 40
300.0
 40
300.0
 40
301.0
 40
301.0
 40
302.0
 40
302.0
 40
303.0
 40
303.0
 40
304.0
 40
304.0
 40
305.0
 40
305.0
 40
306.0
 40
306.0
 40
307.0
 40
307.0
 40
308.0
 40
308.0
 40
309.0
 40
309.0
 40
310.0
 40
310.0
 40
311.0
 40
311.0
 40
312.0
 40
312.0
 40
313.0
 40
313.0
 40
314.0
 40
314.0
 40
315.0
 40
315.0
 40
316.0
 40
316.0
 40
317.0
 40
317.0
 40
318.0
 40
318.0
 40
319.0
 40
319.0
 40
320.0
 40
320.0
 40
321.0
 40
321.0
 40
322.0
 40
322.0
 40
323.0
 40
323.0
 40
324.0
 40
324.0
 40
325.0
 40
325.0
 40
326.0
 40
326.0
 40
327.0
 40
327.0
 40
328.0
 40
328.0
 40
329.0
 40
329.0
 40
330.0
 40
330.0
 40
331.0
 40
331.0
 40
332.0
 40
332.0
 40
333.0
 40
333.0
 40
334.0
 40
334.0
 40
335.0
 40
335.0
 40
336.0
 40
336.0
 40
337.0
 40
337.0
 40
338.0
 40
338.0
 40
339.0
 40
339.0
 40
340.0
 40
340.0
 40
341.0
 40
341.0
 40
342.0
 40
342.0
 40
343.0
 40
343.0
 40
344.0
 40
344.0
 40
345.0
 40
345.0
 40
346.0
 40
346.0
 40
347.0
 40
347.0
 40
348.0
 40
348.0
 40
349.0
 40
349.0
 40
350.0
 40
350.0
 40
351.0
 40
351.0
 40
352.0
 40
352.0
 40
353.0
 40
353.0
 40
354.0
 40
354.0
 40
355.0
 40
355.0
 40
356.0
 40
356.0
 40
357.0
 40
357.0
 40
358.0
 40
358.0
 40
359.0
 40
359.0
 40
360.0
 40
360.0
 40
361.0
 40
361.0
 40
362.0
 40
362.0
 40
363.0
 40
363.0
 40
364.0
 40
364.0
 40
365.0
 40
365.0
 40
366.0
 40
366.0
 40
367.0
 40
367.0
 40
368.0
 40
368.0
 40
369.0
 40
369.0
 40
370.0
 40
370.0
 40
371.0
 40
371.0
 40
372.0
 40
372.0
 40
373.0
 40
373.0
 40
374.0
 40
374.0
 40
375.0
 40
375.0
 40
376.0
 40
376.0
 40
377.0
 40
377.0
 40
378.0
 40
378.0
 40
379.0
 40
379.0
 40
380.0
 40
380.0
 40
381.0
 40
381.0
 40
382.0
 40
382.0
 40
383.0
 40
383.0
 40
384.0
 40
384.0
 40
385.0
 40
385.0
 40
386.0
 40
386.0
 40
387.0
 40
387.0
 40
388.0
 40
388.0
 40
389.0
 40
389.0
 40
389.0
 10
-1925.750519386509
 20
-2170.992994363658
 30
0.0
 41
1.0
 10
-1924.932095277788
 20
-2170.992994363658
 30
0.0
 41
1.0
 10
-1924.113671169068
 20
-2170.992994363658
 30
0.0
 41
1.0
 10
-1924.527424904585
 20
-2172.335620627908
 30
0.0
 41
1.0
 10
-1924.941178640101
 20
-2173.678246892157
 30
0.0
 41
1.0
 10
-1924.922839144964
 20
-2173.649546119294
 30
0.0
 41
0.9999957264349633
 10
-1924.904332148128
 20
-2173.620953069135
 30
0.0
 41
1.0
 10
-1924.873902823978
 20
-2173.573940190739
 30
0.0
 41
1.0
 10
-1924.843473499828
 20
-2173.526927312344
 30
0.0
 41
1.0
 10
-1924.764107854724
 20
-2173.404308505443
 30
0.0
 41
0.9995394069081145
 10
-1924.677449463174
 20
-2173.286730443704
 30
0.0
 41
1.0
 10
-1924.641692600912
 20
-2173.238215551109
 30
0.0
 41
1.0
 10
-1924.605935738651
 20
-2173.189700658513
 30
0.0
 41
1.0
 10
-1924.472209070831
 20
-2173.008260383384
 30
0.0
 41
0.9994460617143137
 10
-1924.326708589544
 20
-2172.836117985736
 30
0.0
 41
1.0
 10
-1924.322320408568
 20
-2172.830926305352
 30
0.0
 41
1.0
 10
-1924.317932227591
 20
-2172.825734624967
 30
0.0
 41
1.0
 10
-1924.181208108257
 20
-2172.663975588086
 30
0.0
 41
0.999435939493381
 10
-1924.033933877905
 20
-2172.511759386921
 30
0.0
 41
1.0
 10
-1924.031550523951
 20
-2172.509296056548
 30
0.0
 41
1.0
 10
-1924.029167169998
 20
-2172.506832726175
 30
0.0
 41
1.0
 10
-1923.886659647554
 20
-2172.359543185757
 30
0.0
 41
0.9995293688567565
 10
-1923.735387966571
 20
-2172.221269973592
 30
0.0
 41
1.0
 10
-1923.716094207309
 20
-2172.203634087942
 30
0.0
 41
1.0
 10
-1923.696800448046
 20
-2172.185998202292
 30
0.0
 41
1.0
 10
-1923.584116285587
 20
-2172.082996761426
 30
0.0
 41
0.9997087614803482
 10
-1923.466593396634
 20
-2171.98555248063
 30
0.0
 41
1.0
 10
-1923.447427323455
 20
-2171.96966090212
 30
0.0
 41
1.0
 10
-1923.428261250277
 20
-2171.953769323609
 30
0.0
 41
1.0
 10
-1923.349070507676
 20
-2171.88810819983
 30
0.0
 41
0.9999595338695549
 10
-1923.268711236824
 20
-2171.823882469178
 30
0.0
 41
1.0
 10
-1923.188351965976
 20
-2171.759656738529
 30
0.0
 41
0.9999749417501667
 10
-1923.107091431638
 20
-2171.696575184586
 30
0.0
 41
1.0
 10
-1923.086105285454
 20
-2171.680283897268
 30
0.0
 41
1.0
 10
-1923.06511913927
 20
-2171.663992609949
 30
0.0
 41
1.0
 10
-1922.980551253982
 20
-2171.59834360012
 30
0.0
 41
0.9999792037131602
 10
-1922.895143654223
 20
-2171.533790818484
 30
0.0
 41
1.0
 10
-1922.874318828282
 20
-2171.518050996204
 30
0.0
 41
1.0
 10
-1922.853494002342
 20
-2171.502311173924
 30
0.0
 41
1.0
 10
-1922.809736054428
 20
-2171.46923803682
 30
0.0
 41
0.9999993374010054
 10
-1922.76605436831
 20
-2171.436064241416
 30
0.0
 41
1.0
 10
-1922.722372682166
 20
-2171.402890445991
 30
0.0
 41
0.9999160953816303
 10
-1922.677846271245
 20
-2171.370859380792
 30
0.0
 41
1.0
 10
-1922.645024383827
 20
-2171.347248225208
 30
0.0
 41
1.0
 10
-1922.612202496408
 20
-2171.323637069624
 30
0.0
 41
1.0
 10
-1922.502032310649
 20
-2171.244383693256
 30
0.0
 41
0.9980964527232296
 10
-1922.382943317148
 20
-2171.179296220399
 30
0.0
 41
1.0
 10
-1922.345910710221
 20
-2171.159056240806
 30
0.0
 41
1.0
 10
-1922.308878103294
 20
-2171.138816261214
 30
0.0
 41
1.0
 10
-1922.129551090022
 20
-2171.040806010513
 30
0.0
 41
0.9984572810572083
 10
-1921.940462523661
 20
-2170.963283749166
 30
0.0
 41
1.0
 10
-1921.936816254266
 20
-2170.961788856829
 30
0.0
 41
1.0
 10
-1921.933169984871
 20
-2170.960293964491
 30
0.0
 41
1.0
 10
-1921.751373957303
 20
-2170.88576148782
 30
0.0
 41
0.9987838528033881
 10
-1921.563121298743
 20
-2170.829495847654
 30
0.0
 41
1.0
 10
-1921.558883349545
 20
-2170.828229193964
 30
0.0
 41
1.0
 10
-1921.554645400346
 20
-2170.826962540274
 30
0.0
 41
1.0
 10
-1921.374868640184
 20
-2170.773230207488
 30
0.0
 41
0.9990652816207879
 10
-1921.191122708468
 20
-2170.735226527946
 30
0.0
 41
1.0
 10
-1921.185934307437
 20
-2170.734153424839
 30
0.0
 41
1.0
 10
-1921.180745906405
 20
-2170.733080321733
 30
0.0
 41
1.0
 10
-1921.007376776752
 20
-2170.697222848404
 30
0.0
 41
0.9992909934269844
 10
-1920.831801010294
 20
-2170.674512415937
 30
0.0
 41
1.0
 10
-1920.656225243832
 20
-2170.651801983471
 30
0.0
 41
0.9994553539449436
 10
-1920.479533810734
 20
-2170.640722679264
 30
0.0
 41
1.0
 10
-1920.444099402942
 20
-2170.638500791217
 30
0.0
 41
1.0
 10
-1920.408664995149
 20
-2170.636278903169
 30
0.0
 41
1.0
 10
-1920.24243922858
 20
-2170.625855840757
 30
0.0
 41
0.9990928098292359
 10
-1920.075929436679
 20
-2170.629615481992
 30
0.0
 41
1.0
 10
-1920.037367601416
 20
-2170.630486173525
 30
0.0
 41
1.0
 10
-1919.998805766154
 20
-2170.631356865058
 30
0.0
 41
1.0
 10
-1919.909419644785
 20
-2170.633375123226
 30
0.0
 41
0.9998382089203769
 10
-1919.82016396199
 20
-2170.638607249754
 30
0.0
 41
1.0
 10
-1919.819734055764
 20
-2170.638632450657
 30
0.0
 41
1.0
 10
-1919.819304149539
 20
-2170.63865765156
 30
0.0
 41
1.0
 10
-1919.730908279198
 20
-2170.643839376283
 30
0.0
 41
0.9997558016759388
 10
-1919.642827702003
 20
-2170.652921891649
 30
0.0
 41
1.0
 10
-1919.642351563576
 20
-2170.652970989132
 30
0.0
 41
1.0
 10
-1919.641875425149
 20
-2170.653020086614
 30
0.0
 41
1.0
 10
-1919.554747124805
 20
-2170.662004407015
 30
0.0
 41
0.999656514418007
 10
-1919.46820927146
 20
-2170.675541713705
 30
0.0
 41
1.0
 10
-1919.467743346081
 20
-2170.675614599436
 30
0.0
 41
1.0
 10
-1919.467277420702
 20
-2170.675687485168
 30
0.0
 41
1.0
 10
-1919.381671418116
 20
-2170.689079020394
 30
0.0
 41
0.9995321806865644
 10
-1919.29704433779
 20
-2170.707679508823
 30
0.0
 41
1.0
 10
-1919.296655143218
 20
-2170.707765051289
 30
0.0
 41
1.0
 10
-1919.296265948645
 20
-2170.707850593755
 30
0.0
 41
1.0
 10
-1919.212417257462
 20
-2170.726279997252
 30
0.0
 41
0.9993819199219903
 10
-1919.130070723266
 20
-2170.750555380513
 30
0.0
 41
1.0
 10
-1919.129832289766
 20
-2170.750625669623
 30
0.0
 41
1.0
 10
-1919.129593856266
 20
-2170.750695958733
 30
0.0
 41
1.0
 10
-1919.047724189067
 20
-2170.774830763774
 30
0.0
 41
0.9992088568505836
 10
-1918.968031670081
 20
-2170.805395999568
 30
0.0
 41
1.0
 10
-1918.888350679203
 20
-2170.835955600301
 30
0.0
 41
0.9990226101774163
 10
-1918.811680009295
 20
-2170.873433031916
 30
0.0
 41
1.0
 10
-1918.735020867497
 20
-2170.910904828469
 30
0.0
 41
0.9988424273972297
 10
-1918.662317240285
 20
-2170.955569603722
 30
0.0
 41
1.0
 10
-1918.662049531905
 20
-2170.955734067794
 30
0.0
 41
1.0
 10
-1918.661781823526
 20
-2170.955898531866
 30
0.0
 41
1.0
 10
-1918.588542779556
 20
-2171.000892235263
 30
0.0
 41
0.9986928844489522
 10
-1918.520279912847
 20
-2171.053127969542
 30
0.0
 41
1.0
 10
-1918.519698620624
 20
-2171.053572782771
 30
0.0
 41
1.0
 10
-1918.5191173284
 20
-2171.054017595999
 30
0.0
 41
1.0
 10
-1918.449691877244
 20
-2171.107142956736
 30
0.0
 41
0.9986007262279605
 10
-1918.386265707478
 20
-2171.167303726429
 30
0.0
 41
1.0
 10
-1918.385371292021
 20
-2171.168152094263
 30
0.0
 41
1.0
 10
-1918.384476876564
 20
-2171.169000462098
 30
0.0
 41
1.0
 10
-1918.319261875881
 20
-2171.230857967464
 30
0.0
 41
0.9985581491380876
 10
-1918.261054264178
 20
-2171.299350457738
 30
0.0
 41
1.0
 10
-1918.251795810583
 20
-2171.310244815437
 30
0.0
 41
1.0
 10
-1918.242537356989
 20
-2171.321139173137
 30
0.0
 41
1.0
 10
-1918.165812838098
 20
-2171.41142037881
 30
0.0
 41
0.9970460233519288
 10
-1918.103820936938
 20
-2171.512387462991
 30
0.0
 41
1.0
 10
-1918.089351571859
 20
-2171.535953922071
 30
0.0
 41
1.0
 10
-1918.074882206781
 20
-2171.559520381151
 30
0.0
 41
1.0
 10
-1918.035145506767
 20
-2171.624240105185
 30
0.0
 41
0.9988468816636992
 10
-1918.001799136014
 20
-2171.692472557616
 30
0.0
 41
1.0
 10
-1917.994763113519
 20
-2171.706869478761
 30
0.0
 41
1.0
 10
-1917.987727091024
 20
-2171.721266399906
 30
0.0
 41
1.0
 10
-1917.968452765261
 20
-2171.760705010045
 30
0.0
 41
0.9998431189996462
 10
-1917.950587437767
 20
-2171.800801564484
 30
0.0
 41
1.0
 10
-1917.932722110273
 20
-2171.840898118923
 30
0.0
 41
0.9999989989865078
 10
-1917.914743386787
 20
-2171.880943956649
 30
0.0
 41
1.0
 10
-1917.908571075224
 20
-2171.894692173391
 30
0.0
 41
1.0
 10
-1917.902398763662
 20
-2171.908440390134
 30
0.0
 41
1.0
 10
-1917.872075417051
 20
-2171.975982661344
 30
0.0
 41
0.9998790356320808
 10
-1917.843867536907
 20
-2172.044435413295
 30
0.0
 41
1.0
 10
-1917.837032355628
 20
-2172.06102251471
 30
0.0
 41
1.0
 10
-1917.830197174349
 20
-2172.077609616125
 30
0.0
 41
1.0
 10
-1917.806639511967
 20
-2172.134777571016
 30
0.0
 41
0.9998227574562215
 10
-1917.785250763575
 20
-2172.192791879298
 30
0.0
 41
1.0
 10
-1917.763862015184
 20
-2172.250806187578
 30
0.0
 41
0.9996797971040745
 10
-1917.745435730225
 20
-2172.309828306698
 30
0.0
 41
1.0
 10
-1917.7415319275
 20
-2172.322332764865
 30
0.0
 41
1.0
 10
-1917.737628124775
 20
-2172.334837223031
 30
0.0
 41
1.0
 10
-1917.711394234364
 20
-2172.418868258491
 30
0.0
 41
0.9979274938735655
 10
-1917.696169710885
 20
-2172.505572617155
 30
0.0
 41
1.0
 10
-1917.693946023624
 20
-2172.518236617973
 30
0.0
 41
1.0
 10
-1917.691722336363
 20
-2172.530900618792
 30
0.0
 41
1.0
 10
-1917.680792396665
 20
-2172.593147126081
 30
0.0
 41
0.9994985982136642
 10
-1917.673824231488
 20
-2172.655960627222
 30
0.0
 41
1.0
 10
-1917.666856066311
 20
-2172.718774128375
 30
0.0
 41
0.9996372611202905
 10
-1917.663280200543
 20
-2172.78187170706
 30
0.0
 41
1.0
 10
-1917.663111623054
 20
-2172.784846324135
 30
0.0
 41
1.0
 10
-1917.662943045565
 20
-2172.787820941211
 30
0.0
 41
1.0
 10
-1917.659030024819
 20
-2172.856867754041
 30
0.0
 41
0.9997730630735484
 10
-1917.658061711331
 20
-2172.926018578069
 30
0.0
 41
1.0
 10
-1917.658004604913
 20
-2172.930096757222
 30
0.0
 41
1.0
 10
-1917.657947498494
 20
-2172.934174936375
 30
0.0
 41
1.0
 10
-1917.65686497217
 20
-2173.011482118687
 30
0.0
 41
0.9998772614071462
 10
-1917.658205058902
 20
-2173.088785265246
 30
0.0
 41
1.0
 10
-1917.658294322101
 20
-2173.093934429086
 30
0.0
 41
1.0
 10
-1917.658383585299
 20
-2173.099083592927
 30
0.0
 41
1.0
 10
-1917.659902198429
 20
-2173.186685067179
 30
0.0
 41
0.9999415567325882
 10
-1917.663314508676
 20
-2173.274233228873
 30
0.0
 41
1.0
 10
-1917.66355582935
 20
-2173.280424688592
 30
0.0
 41
1.0
 10
-1917.663797150025
 20
-2173.286616148311
 30
0.0
 41
1.0
 10
-1917.667692101623
 20
-2173.386547229486
 30
0.0
 41
0.9999716810428196
 10
-1917.673090684741
 20
-2173.486408367709
 30
0.0
 41
1.0
 10
-1917.676303483529
 20
-2173.545837617341
 30
0.0
 41
1.0
 10
-1917.679516282316
 20
-2173.605266866974
 30
0.0
 41
1.0
 10
-1917.687590191469
 20
-2173.754615268271
 30
0.0
 41
0.9999819129906493
 10
-1917.697459983087
 20
-2173.903855745997
 30
0.0
 41
1.0
 10
-1917.707329774704
 20
-2174.053096223708
 30
0.0
 41
1.0
 10
-1917.709769095268
 20
-2174.090289269557
 30
0.0
 41
1.0
 10
-1917.687070861428
 20
-2174.051548272213
 30
0.0
 41
0.9999982128178426
 10
-1917.664226302655
 20
-2174.012893378226
 30
0.0
 41
1.0
 10
-1917.637316742783
 20
-2173.967360164193
 30
0.0
 41
1.0
 10
-1917.610407182911
 20
-2173.921826950159
 30
0.0
 41
1.0
 10
-1917.533743504388
 20
-2173.792105628093
 30
0.0
 41
0.9998609190057162
 10
-1917.452796191521
 20
-2173.665013246156
 30
0.0
 41
1.0
 10
-1917.423147870044
 20
-2173.618463513206
 30
0.0
 41
1.0
 10
-1917.393499548567
 20
-2173.571913780255
 30
0.0
 41
1.0
 10
-1917.311227328326
 20
-2173.442741210255
 30
0.0
 41
0.9999067609732677
 10
-1917.225458318859
 20
-2173.315863520809
 30
0.0
 41
1.0
 10
-1917.223053615659
 20
-2173.312306254755
 30
0.0
 41
1.0
 10
-1917.220648912458
 20
-2173.308748988701
 30
0.0
 41
1.0
 10
-1917.139689309393
 20
-2173.188985831364
 30
0.0
 41
0.9998784952149548
 10
-1917.055035699714
 20
-2173.071804614659
 30
0.0
 41
1.0
 10
-1916.970382090036
 20
-2172.954623397955
 30
0.0
 41
0.9998532968283893
 10
-1916.881764469217
 20
-2172.84041048949
 30
0.0
 41
1.0
 10
-1916.861802680222
 20
-2172.814683168465
 30
0.0
 41
1.0
 10
-1916.841840891227
 20
-2172.78895584744
 30
0.0
 41
1.0
 10
-1916.723356841468
 20
-2172.63625023647
 30
0.0
 41
0.999155197579495
 10
-1916.592732391845
 20
-2172.493790674388
 30
0.0
 41
1.0
 10
-1916.589222775868
 20
-2172.489963072766
 30
0.0
 41
1.0
 10
-1916.58571315989
 20
-2172.486135471144
 30
0.0
 41
1.0
 10
-1916.462107942222
 20
-2172.351331112304
 30
0.0
 41
0.9997418144181806
 10
-1916.332505802521
 20
-2172.222281701692
 30
0.0
 41
1.0
 10
-1916.202903662821
 20
-2172.093232291079
 30
0.0
 41
0.9989238204633373
 10
-1916.06190111457
 20
-2171.97674732904
 30
0.0
 41
1.0
 10
-1916.01665343643
 20
-2171.939367337432
 30
0.0
 41
1.0
 10
-1915.97140575829
 20
-2171.901987345822
 30
0.0
 41
1.0
 10
-1915.83116570107
 20
-2171.786132292533
 30
0.0
 41
0.9990825084096322
 10
-1915.681525768465
 20
-2171.682703294699
 30
0.0
 41
1.0
 10
-1915.67148040441
 20
-2171.675760081621
 30
0.0
 41
1.0
 10
-1915.661435040355
 20
-2171.668816868543
 30
0.0
 41
1.0
 10
-1915.531885835866
 20
-2171.579274296869
 30
0.0
 41
0.9998164899827915
 10
-1915.399001632485
 20
-2171.49476005535
 30
0.0
 41
1.0
 10
-1915.387156071958
 20
-2171.487226288824
 30
0.0
 41
1.0
 10
-1915.375310511432
 20
-2171.479692522298
 30
0.0
 41
1.0
 10
-1915.266117429108
 20
-2171.410245813833
 30
0.0
 41
0.999747344913084
 10
-1915.153913471859
 20
-2171.345776856017
 30
0.0
 41
1.0
 10
-1915.04170951461
 20
-2171.281307898202
 30
0.0
 41
0.9999327861143716
 10
-1914.928040903846
 20
-2171.21945790652
 30
0.0
 41
1.0
 10
-1914.927488901285
 20
-2171.219157547841
 30
0.0
 41
1.0
 10
-1914.926936898725
 20
-2171.218857189162
 30
0.0
 41
1.0
 10
-1914.81216428284
 20
-2171.156406480122
 30
0.0
 41
0.9996956420483457
 10
-1914.694450957004
 20
-2171.09969301315
 30
0.0
 41
1.0
 10
-1914.664010552107
 20
-2171.085027036418
 30
0.0
 41
1.0
 10
-1914.633570147211
 20
-2171.070361059686
 30
0.0
 41
1.0
 10
-1914.530593040469
 20
-2171.020747401244
 30
0.0
 41
0.9998070570177416
 10
-1914.425746651529
 20
-2170.975216814343
 30
0.0
 41
1.0
 10
-1914.320900262593
 20
-2170.929686227444
 30
0.0
 41
0.9997827436147665
 10
-1914.214247325984
 20
-2170.888565056132
 30
0.0
 41
1.0
 10
-1914.19502447635
 20
-2170.881153482499
 30
0.0
 41
1.0
 10
-1914.175801626716
 20
-2170.873741908866
 30
0.0
 41
1.0
 10
-1914.030702990842
 20
-2170.817797590289
 30
0.0
 41
0.9988031841977625
 10
-1913.880832628236
 20
-2170.776297526121
 30
0.0
 41
1.0
 10
-1913.855915379874
 20
-2170.769397780314
 30
0.0
 41
1.0
 10
-1913.830998131512
 20
-2170.762498034508
 30
0.0
 41
1.0
 10
-1913.663728105865
 20
-2170.716179892101
 30
0.0
 41
0.9984748040550108
 10
-1913.492371197216
 20
-2170.688585659836
 30
0.0
 41
1.0
 10
-1913.487632060966
 20
-2170.687822499322
 30
0.0
 41
1.0
 10
-1913.482892924715
 20
-2170.687059338808
 30
0.0
 41
1.0
 10
-1913.321014288565
 20
-2170.660991427571
 30
0.0
 41
0.9984436495480542
 10
-1913.157239544842
 20
-2170.653113473752
 30
0.0
 41
1.0
 10
-1913.135542336709
 20
-2170.652069786553
 30
0.0
 41
1.0
 10
-1913.113845128577
 20
-2170.651026099353
 30
0.0
 41
1.0
 10
-1912.993464801116
 20
-2170.645235519934
 30
0.0
 41
0.9987954789335585
 10
-1912.873096556208
 20
-2170.651272047676
 30
0.0
 41
1.0
 10
-1912.853131763713
 20
-2170.652273292014
 30
0.0
 41
1.0
 10
-1912.833166971217
 20
-2170.653274536353
 30
0.0
 41
1.0
 10
-1912.752728311297
 20
-2170.657308575418
 30
0.0
 41
0.9997941595877503
 10
-1912.672519533204
 20
-2170.664602641339
 30
0.0
 41
1.0
 10
-1912.59231075511
 20
-2170.67189670726
 30
0.0
 41
0.9998589466235922
 10
-1912.512392208254
 20
-2170.68188056171
 30
0.0
 41
1.0
 10
-1912.479986006446
 20
-2170.68592891863
 30
0.0
 41
1.0
 10
-1912.447579804638
 20
-2170.689977275549
 30
0.0
 41
1.0
 10
-1912.302848854166
 20
-2170.708057843837
 30
0.0
 41
0.9993495063249545
 10
-1912.159797610399
 20
-2170.736523553579
 30
0.0
 41
1.0
 10
-1912.126863913248
 20
-2170.743077016794
 30
0.0
 41
1.0
 10
-1912.093930216096
 20
-2170.749630480008
 30
0.0
 41
1.0
 10
-1911.984636392891
 20
-2170.771378814144
 30
0.0
 41
0.9996788715561169
 10
-1911.876584820935
 20
-2170.798636613507
 30
0.0
 41
1.0
 10
-1911.874521818399
 20
-2170.799157040079
 30
0.0
 41
1.0
 10
-1911.872458815862
 20
-2170.799677466652
 30
0.0
 41
1.0
 10
-1911.768533248981
 20
-2170.82589441287
 30
0.0
 41
0.9995480654493093
 10
-1911.66637101375
 20
-2170.858309369494
 30
0.0
 41
1.0
 10
-1911.664681371622
 20
-2170.858845474408
 30
0.0
 41
1.0
 10
-1911.662991729494
 20
-2170.859381579322
 30
0.0
 41
1.0
 10
-1911.564208778522
 20
-2170.890724326118
 30
0.0
 41
0.9993867959455461
 10
-1911.467861620077
 20
-2170.928903695409
 30
0.0
 41
1.0
 10
-1911.466618670994
 20
-2170.929396237304
 30
0.0
 41
1.0
 10
-1911.465375721911
 20
-2170.9298887792
 30
0.0
 41
1.0
 10
-1911.371514461636
 20
-2170.967083064697
 30
0.0
 41
0.9992050256521279
 10
-1911.280914786602
 20
-2171.011636963937
 30
0.0
 41
1.0
 10
-1911.28018010389
 20
-2171.011998256398
 30
0.0
 41
1.0
 10
-1911.279445421178
 20
-2171.012359548859
 30
0.0
 41
1.0
 10
-1911.190315111568
 20
-2171.056190863176
 30
0.0
 41
0.9990222350741438
 10
-1911.105405050175
 20
-2171.107724130874
 30
0.0
 41
1.0
 10
-1911.105221164891
 20
-2171.10783573378
 30
0.0
 41
1.0
 10
-1911.105037279607
 20
-2171.107947336685
 30
0.0
 41
1.0
 10
-1911.020494988779
 20
-2171.159257398574
 30
0.0
 41
0.9988642743807086
 10
-1910.941220454162
 20
-2171.218381586098
 30
0.0
 41
1.0
 10
-1910.861945919542
 20
-2171.277505773624
 30
0.0
 41
0.9987681233310054
 10
-1910.788922135264
 20
-2171.344196465026
 30
0.0
 41
1.0
 10
-1910.7885932073
 20
-2171.344496866239
 30
0.0
 41
1.0
 10
-1910.788264279335
 20
-2171.344797267452
 30
0.0
 41
1.0
 10
-1910.714582639123
 20
-2171.412088761286
 30
0.0
 41
0.9987496570901098
 10
-1910.647988833794
 20
-2171.486401575375
 30
0.0
 41
1.0
 10
-1910.647216664036
 20
-2171.48726324873
 30
0.0
 41
1.0
 10
-1910.646444494279
 20
-2171.488124922083
 30
0.0
 41
1.0
 10
-1910.578306349427
 20
-2171.564161082892
 30
0.0
 41
0.9988147669829083
 10
-1910.517884095198
 20
-2171.64646208974
 30
0.0
 41
1.0
 10
-1910.516764769125
 20
-2171.647986721086
 30
0.0
 41
1.0
 10
-1910.515645443051
 20
-2171.649511352433
 30
0.0
 41
1.0
 10
-1910.452984536668
 20
-2171.734861621985
 30
0.0
 41
0.9989452636216927
 10
-1910.398417623704
 20
-2171.825600311146
 30
0.0
 41
1.0
 10
-1910.397068897621
 20
-2171.827843092169
 30
0.0
 41
1.0
 10
-1910.395720171538
 20
-2171.830085873191
 30
0.0
 41
1.0
 10
-1910.338455806404
 20
-2171.925310124402
 30
0.0
 41
0.999104643606965
 10
-1910.289446593082
 20
-2172.025034557429
 30
0.0
 41
1.0
 10
-1910.287982731493
 20
-2172.0280132375
 30
0.0
 41
1.0
 10
-1910.286518869903
 20
-2172.030991917572
 30
0.0
 41
1.0
 10
-1910.2345819334
 20
-2172.136673710747
 30
0.0
 41
0.9992763831101901
 10
-1910.190828804845
 20
-2172.245997772703
 30
0.0
 41
1.0
 10
-1910.189349535182
 20
-2172.249693960234
 30
0.0
 41
1.0
 10
-1910.18787026552
 20
-2172.253390147765
 30
0.0
 41
1.0
 10
-1910.141158597638
 20
-2172.370106584789
 30
0.0
 41
0.9994163472883374
 10
-1910.102525566447
 20
-2172.489740173259
 30
0.0
 41
1.0
 10
-1910.101287414202
 20
-2172.493574317035
 30
0.0
 41
1.0
 10
-1910.100049261957
 20
-2172.497408460812
 30
0.0
 41
1.0
 10
-1910.06016570094
 20
-2172.620914522289
 30
0.0
 41
0.9997268055890254
 10
-1910.026097645026
 20
-2172.746149554247
 30
0.0
 41
1.0
 10
-1910.025167464755
 20
-2172.749568920359
 30
0.0
 41
1.0
 10
-1910.024237284485
 20
-2172.75298828647
 30
0.0
 41
1.0
 10
-1909.992029589113
 20
-2172.8713845862
 30
0.0
 41
0.9996701319000936
 10
-1909.965943972343
 20
-2172.991278539462
 30
0.0
 41
1.0
 10
-1909.939858355572
 20
-2173.111172492729
 30
0.0
 41
0.9995785451108784
 10
-1909.92077477823
 20
-2173.232378253771
 30
0.0
 41
1.0
 10
-1909.916554996058
 20
-2173.259179408531
 30
0.0
 41
1.0
 10
-1909.912335213885
 20
-2173.285980563291
 30
0.0
 41
1.0
 10
-1909.885760237947
 20
-2173.454766536992
 30
0.0
 41
0.9979925101217622
 10
-1909.880734652021
 20
-2173.625557865081
 30
0.0
 41
1.0
 10
-1909.879909839596
 20
-2173.653588588563
 30
0.0
 41
1.0
 10
-1909.879085027171
 20
-2173.681619312045
 30
0.0
 41
1.0
 10
-1909.875709066094
 20
-2173.79634919317
 30
0.0
 41
0.9995314902262499
 10
-1909.879359258233
 20
-2173.911070676925
 30
0.0
 41
1.0
 10
-1909.883009450371
 20
-2174.025792160672
 30
0.0
 41
0.999624548694384
 10
-1909.892938545501
 20
-2174.140141431784
 30
0.0
 41
1.0
 10
-1909.893101593495
 20
-2174.142019187928
 30
0.0
 41
1.0
 10
-1909.893264641491
 20
-2174.143896944071
 30
0.0
 41
1.0
 10
-1909.90351983261
 20
-2174.262001727464
 30
0.0
 41
0.9997286095001564
 10
-1909.919265156181
 20
-2174.379500636356
 30
0.0
 41
1.0
 10
-1909.919658648832
 20
-2174.38243706106
 30
0.0
 41
1.0
 10
-1909.920052141482
 20
-2174.385373485764
 30
0.0
 41
1.0
 10
-1909.936584450355
 20
-2174.50874524407
 30
0.0
 41
0.9998265533969006
 10
-1909.957699909087
 20
-2174.631415718854
 30
0.0
 41
1.0
 10
-1909.958376451224
 20
-2174.63534609736
 30
0.0
 41
1.0
 10
-1909.959052993361
 20
-2174.639276475866
 30
0.0
 41
1.0
 10
-1909.981521536368
 20
-2174.769807707669
 30
0.0
 41
0.9999022530852056
 10
-1910.007631000978
 20
-2174.899659676306
 30
0.0
 41
1.0
 10
-1910.008609642143
 20
-2174.904526818694
 30
0.0
 41
1.0
 10
-1910.009588283309
 20
-2174.909393961083
 30
0.0
 41
1.0
 10
-1910.037655030247
 20
-2175.048980214487
 30
0.0
 41
0.999952476193455
 10
-1910.06843799908
 20
-2175.187992707641
 30
0.0
 41
1.0
 10
-1910.069714106257
 20
-2175.193755466953
 30
0.0
 41
1.0
 10
-1910.070990213435
 20
-2175.199518226265
 30
0.0
 41
1.0
 10
-1910.104325396621
 20
-2175.350056238035
 30
0.0
 41
0.9999813588731253
 10
-1910.139496397425
 20
-2175.500175950728
 30
0.0
 41
1.0
 10
-1910.141050322878
 20
-2175.506808541131
 30
0.0
 41
1.0
 10
-1910.14260424833
 20
-2175.513441131535
 30
0.0
 41
1.0
 10
-1910.180883100038
 20
-2175.676826025036
 30
0.0
 41
0.9999955237704238
 10
-1910.220138978003
 20
-2175.839978928576
 30
0.0
 41
1.0
 10
-1910.232420613646
 20
-2175.891023119132
 30
0.0
 41
1.0
 10
-1910.244702249288
 20
-2175.942067309688
 30
0.0
 41
1.0
 10
-1910.308521398537
 20
-2176.20730859434
 30
0.0
 41
0.9999993604284731
 10
-1910.372940345706
 20
-2176.472404845027
 30
0.0
 41
1.0
 10
-1910.377659181252
 20
-2176.491823753066
 30
0.0
 41
1.0
 10
-1910.382378016799
 20
-2176.511242661105
 30
0.0
 41
1.0
 10
-1910.456234635064
 20
-2176.815176727884
 30
0.0
 41
0.9999659914736556
 10
-1910.535094230955
 20
-2177.117851274462
 30
0.0
 41
1.0
 10
-1910.540046919881
 20
-2177.136860411625
 30
0.0
 41
1.0
 10
-1910.544999608806
 20
-2177.155869548788
 30
0.0
 41
1.0
 10
-1910.633764582552
 20
-2177.496562369709
 30
0.0
 41
0.9999441976021856
 10
-1910.729707615517
 20
-2177.835303795012
 30
0.0
 41
1.0
 10
-1910.746408133941
 20
-2177.894267507537
 30
0.0
 41
1.0
 10
-1910.763108652366
 20
-2177.953231220062
 30
0.0
 41
1.0
 10
-1910.892452722182
 20
-2178.40990007042
 30
0.0
 41
0.9999625120735465
 10
-1911.029685489506
 20
-2178.86426060442
 30
0.0
 41
1.0
 10
-1911.065475432588
 20
-2178.982756631044
 30
0.0
 41
1.0
 10
-1911.10126537567
 20
-2179.101252657668
 30
0.0
 41
1.0
 10
-1911.175785579706
 20
-2179.347979735751
 30
0.0
 41
0.9999793386324445
 10
-1911.253471602849
 20
-2179.593728375005
 30
0.0
 41
1.0
 10
-1911.331157625986
 20
-2179.839477014241
 30
0.0
 41
1.0
 10
-1911.341937184857
 20
-2179.873494918616
 30
0.0
 41
1.0
 10
-1913.192310238126
 20
-2185.760566841083
 30
0.0
 41
1.0
 10
-1915.042683291395
 20
-2191.64763876355
 30
0.0
 41
1.0
 10
-1916.003939981419
 20
-2191.64763876355
 30
0.0
 41
1.0
 10
-1916.965196671442
 20
-2191.64763876355
 30
0.0
 41
1.0
 10
-1915.346251892764
 20
-2186.499610261761
 30
0.0
 41
1.0
 10
-1913.727307114086
 20
-2181.351581759972
 30
0.0
 41
1.0
 10
-1913.682141290906
 20
-2181.207550537685
 30
0.0
 41
1.0
 10
-1913.636975467726
 20
-2181.063519315398
 30
0.0
 41
1.0
 10
-1913.466671050376
 20
-2180.520428286273
 30
0.0
 41
0.9999911657912868
 10
-1913.300938238694
 20
-2179.975924754905
 30
0.0
 41
1.0
 10
-1913.271242295188
 20
-2179.878360814835
 30
0.0
 41
1.0
 10
-1913.241546351681
 20
-2179.780796874765
 30
0.0
 41
1.0
 10
-1913.135205427008
 20
-2179.431421223523
 30
0.0
 41
0.9999952428157296
 10
-1913.031021837689
 20
-2179.081396199193
 30
0.0
 41
1.0
 10
-1913.025962367358
 20
-2179.064397924923
 30
0.0
 41
1.0
 10
-1913.020902897027
 20
-2179.047399650653
 30
0.0
 41
1.0
 10
-1912.926838248356
 20
-2178.731371174818
 30
0.0
 41
0.9999931687512829
 10
-1912.83511241049
 20
-2178.414655961572
 30
0.0
 41
1.0
 10
-1912.83017714603
 20
-2178.3976152523
 30
0.0
 41
1.0
 10
-1912.82524188157
 20
-2178.380574543027
 30
0.0
 41
1.0
 10
-1912.743386572615
 20
-2178.097940748298
 30
0.0
 41
0.9999893840799158
 10
-1912.66413934616
 20
-2177.814564619055
 30
0.0
 41
1.0
 10
-1912.584892119707
 20
-2177.531188489823
 30
0.0
 41
0.9999833980076294
 10
-1912.508915878971
 20
-2177.246917906817
 30
0.0
 41
1.0
 10
-1912.499911942243
 20
-2177.213229028317
 30
0.0
 41
1.0
 10
-1912.490908005515
 20
-2177.179540149818
 30
0.0
 41
1.0
 10
-1912.421943456649
 20
-2176.921504317522
 30
0.0
 41
0.9999233658066448
 10
-1912.359388485429
 20
-2176.661840158802
 30
0.0
 41
1.0
 10
-1912.296833514209
 20
-2176.40217600008
 30
0.0
 41
1.0
 10
-1912.257350095352
 20
-2176.238369335654
 30
0.0
 41
1.0
 10
-1912.252371491375
 20
-2176.217714373785
 30
0.0
 41
1.0
 10
-1912.247392887398
 20
-2176.197059411917
 30
0.0
 41
1.0
 10
-1912.217866676494
 20
-2176.074562671227
 30
0.0
 41
0.9999868670843189
 10
-1912.189597592498
 20
-2175.951769725582
 30
0.0
 41
1.0
 10
-1912.185700105336
 20
-2175.934840138146
 30
0.0
 41
1.0
 10
-1912.181802618174
 20
-2175.91791055071
 30
0.0
 41
1.0
 10
-1912.161328508498
 20
-2175.828976779921
 30
0.0
 41
0.9999778173345749
 10
-1912.142040910386
 20
-2175.739778162706
 30
0.0
 41
1.0
 10
-1912.122753312273
 20
-2175.650579545486
 30
0.0
 41
0.9999602692867181
 10
-1912.105058953638
 20
-2175.561051257041
 30
0.0
 41
1.0
 10
-1912.101855121562
 20
-2175.544840802159
 30
0.0
 41
1.0
 10
-1912.098651289485
 20
-2175.528630347278
 30
0.0
 41
1.0
 10
-1912.074549266699
 20
-2175.406681149083
 30
0.0
 41
0.9995617985321205
 10
-1912.057705919482
 20
-2175.283519401387
 30
0.0
 41
1.0
 10
-1912.055241429575
 20
-2175.265498584015
 30
0.0
 41
1.0
 10
-1912.052776939668
 20
-2175.247477766643
 30
0.0
 41
1.0
 10
-1912.032493678619
 20
-2175.099162716942
 30
0.0
 41
0.9991121410639388
 10
-1912.024768325031
 20
-2174.949666618136
 30
0.0
 41
1.0
 10
-1912.023849535006
 20
-2174.931886781561
 30
0.0
 41
1.0
 10
-1912.022930744982
 20
-2174.914106944987
 30
0.0
 41
1.0
 10
-1912.017042971442
 20
-2174.800170519331
 30
0.0
 41
0.998979249490466
 10
-1912.02146206356
 20
-2174.686167683431
 30
0.0
 41
1.0
 10
-1912.022110035429
 20
-2174.669451437501
 30
0.0
 41
1.0
 10
-1912.022758007297
 20
-2174.652735191572
 30
0.0
 41
1.0
 10
-1912.025881155678
 20
-2174.57216484753
 30
0.0
 41
0.9997820295394717
 10
-1912.032365153053
 20
-2174.491795125788
 30
0.0
 41
1.0
 10
-1912.038849150427
 20
-2174.411425404058
 30
0.0
 41
0.9998335105973719
 10
-1912.048261345939
 20
-2174.33134578761
 30
0.0
 41
1.0
 10
-1912.049856270616
 20
-2174.317776057119
 30
0.0
 41
1.0
 10
-1912.051451195293
 20
-2174.304206326628
 30
0.0
 41
1.0
 10
-1912.064053240158
 20
-2174.19698724921
 30
0.0
 41
0.9996876457878354
 10
-1912.081997152957
 20
-2174.090531821492
 30
0.0
 41
1.0
 10
-1912.084228816102
 20
-2174.077292086251
 30
0.0
 41
1.0
 10
-1912.086460479247
 20
-2174.064052351009
 30
0.0
 41
1.0
 10
-1912.100256300667
 20
-2173.982206207053
 30
0.0
 41
0.9995547496492935
 10
-1912.11890962256
 20
-2173.901328709863
 30
0.0
 41
1.0
 10
-1912.119283579432
 20
-2173.899707299157
 30
0.0
 41
1.0
 10
-1912.119657536303
 20
-2173.898085888451
 30
0.0
 41
1.0
 10
-1912.137562944453
 20
-2173.820451212671
 30
0.0
 41
0.9994899427177194
 10
-1912.160387853132
 20
-2173.744117929838
 30
0.0
 41
1.0
 10
-1912.160846379873
 20
-2173.742584480048
 30
0.0
 41
1.0
 10
-1912.161304906614
 20
-2173.741051030259
 30
0.0
 41
1.0
 10
-1912.183212761812
 20
-2173.667784647
 30
0.0
 41
0.9993784877590872
 10
-1912.210228396918
 20
-2173.596243941844
 30
0.0
 41
1.0
 10
-1912.210760087896
 20
-2173.59483595912
 30
0.0
 41
1.0
 10
-1912.211291778875
 20
-2173.593427976396
 30
0.0
 41
1.0
 10
-1912.237244032026
 20
-2173.524703236681
 30
0.0
 41
0.9992430832253151
 10
-1912.268460567184
 20
-2173.458204084617
 30
0.0
 41
1.0
 10
-1912.269042683241
 20
-2173.456964029499
 30
0.0
 41
1.0
 10
-1912.269624799297
 20
-2173.455723974382
 30
0.0
 41
1.0
 10
-1912.299677102343
 20
-2173.391704932549
 30
0.0
 41
0.999078963279773
 10
-1912.33510772912
 20
-2173.330498320799
 30
0.0
 41
1.0
 10
-1912.335703435303
 20
-2173.329469234939
 30
0.0
 41
1.0
 10
-1912.336299141485
 20
-2173.328440149079
 30
0.0
 41
1.0
 10
-1912.370538355898
 20
-2173.269291709048
 30
0.0
 41
0.9988874801120892
 10
-1912.410197631929
 20
-2173.213631996631
 30
0.0
 41
1.0
 10
-1912.41075315799
 20
-2173.212852344961
 30
0.0
 41
1.0
 10
-1912.411308684052
 20
-2173.21207269329
 30
0.0
 41
1.0
 10
-1912.449856907958
 20
-2173.157972284217
 30
0.0
 41
0.9986762060692717
 10
-1912.493759379237
 20
-2173.108118569774
 30
0.0
 41
1.0
 10
-1912.494203339567
 20
-2173.10761442796
 30
0.0
 41
1.0
 10
-1912.494647299898
 20
-2173.107110286145
 30
0.0
 41
1.0
 10
-1912.537661850511
 20
-2173.058264855337
 30
0.0
 41
0.9984621642489931
 10
-1912.585819407291
 20
-2173.014481554864
 30
0.0
 41
1.0
 10
-1912.586066041809
 20
-2173.014257322699
 30
0.0
 41
1.0
 10
-1912.586312676327
 20
-2173.014033090535
 30
0.0
 41
1.0
 10
-1912.633976964069
 20
-2172.970698254393
 30
0.0
 41
0.998272469385083
 10
-1912.68639559591
 20
-2172.933253903876
 30
0.0
 41
1.0
 10
-1912.738814227751
 20
-2172.895809553359
 30
0.0
 41
0.99813991801605
 10
-1912.795400291144
 20
-2172.865023033914
 30
0.0
 41
1.0
 10
-1912.795445953223
 20
-2172.864998190757
 30
0.0
 41
1.0
 10
-1912.795491615302
 20
-2172.8649733476
 30
0.0
 41
1.0
 10
-1912.852169002854
 20
-2172.834137141841
 30
0.0
 41
0.998092708683444
 10
-1912.912214353923
 20
-2172.810520332987
 30
0.0
 41
1.0
 10
-1912.912654523633
 20
-2172.810347207113
 30
0.0
 41
1.0
 10
-1912.913094693342
 20
-2172.810174081239
 30
0.0
 41
1.0
 10
-1912.974020383833
 20
-2172.786211020637
 30
0.0
 41
0.9981411356560208
 10
-1913.037408905234
 20
-2172.769838379131
 30
0.0
 41
1.0
 10
-1913.038291021934
 20
-2172.769610536926
 30
0.0
 41
1.0
 10
-1913.039173138634
 20
-2172.769382694721
 30
0.0
 41
1.0
 10
-1913.104325893437
 20
-2172.752554368804
 30
0.0
 41
0.9983031812936145
 10
-1913.170993322433
 20
-2172.743415007628
 30
0.0
 41
1.0
 10
-1913.179864347836
 20
-2172.742198888956
 30
0.0
 41
1.0
 10
-1913.188735373239
 20
-2172.740982770285
 30
0.0
 41
1.0
 10
-1913.243085015743
 20
-2172.733532040294
 30
0.0
 41
0.9983887708264458
 10
-1913.297928865036
 20
-2172.732287366661
 30
0.0
 41
1.0
 10
-1913.30599227025
 20
-2172.732104368786
 30
0.0
 41
1.0
 10
-1913.314055675465
 20
-2172.731921370911
 30
0.0
 41
1.0
 10
-1913.352772714326
 20
-2172.731042693028
 30
0.0
 41
0.9998869563079799
 10
-1913.391498667531
 20
-2172.731328562387
 30
0.0
 41
1.0
 10
-1913.430224620662
 20
-2172.731614431746
 30
0.0
 41
0.9999972320126419
 10
-1913.468948799799
 20
-2172.732082531275
 30
0.0
 41
1.0
 10
-1913.488301816452
 20
-2172.732316471365
 30
0.0
 41
1.0
 10
-1913.507654833105
 20
-2172.732550411455
 30
0.0
 41
1.0
 10
-1913.585085045475
 20
-2172.733486391163
 30
0.0
 41
0.9997304945086325
 10
-1913.662388351712
 20
-2172.738015484949
 30
0.0
 41
1.0
 10
-1913.671437993417
 20
-2172.738545690939
 30
0.0
 41
1.0
 10
-1913.680487635122
 20
-2172.739075896929
 30
0.0
 41
1.0
 10
-1913.775890224775
 20
-2172.744665402695
 30
0.0
 41
0.9997888306414913
 10
-1913.870982560624
 20
-2172.754170367185
 30
0.0
 41
1.0
 10
-1913.87970362219
 20
-2172.755042081816
 30
0.0
 41
1.0
 10
-1913.888424683756
 20
-2172.755913796448
 30
0.0
 41
1.0
 10
-1914.000959142744
 20
-2172.767162190201
 30
0.0
 41
0.9984170238190574
 10
-1914.111518290096
 20
-2172.790978272137
 30
0.0
 41
1.0
 10
-1914.147899421081
 20
-2172.798815307942
 30
0.0
 41
1.0
 10
-1914.184280552066
 20
-2172.806652343748
 30
0.0
 41
1.0
 10
-1914.299471620488
 20
-2172.831466210258
 30
0.0
 41
0.9976592854199348
 10
-1914.410199786895
 20
-2172.871764887406
 30
0.0
 41
1.0
 10
-1914.520927953299
 20
-2172.912063564553
 30
0.0
 41
0.9993255074353061
 10
-1914.628399752089
 20
-2172.960380463045
 30
0.0
 41
1.0
 10
-1914.633024931013
 20
-2172.962459839245
 30
0.0
 41
1.0
 10
-1914.637650109937
 20
-2172.964539215445
 30
0.0
 41
1.0
 10
-1914.754372266575
 20
-2173.017014866337
 30
0.0
 41
0.9976475078273391
 10
-1914.862819610885
 20
-2173.084962855996
 30
0.0
 41
1.0
 10
-1914.881162005021
 20
-2173.096455334811
 30
0.0
 41
1.0
 10
-1914.899504399156
 20
-2173.107947813626
 30
0.0
 41
1.0
 10
-1914.983706590707
 20
-2173.160704934392
 30
0.0
 41
0.999513133640608
 10
-1915.064454305664
 20
-2173.218611146346
 30
0.0
 41
1.0
 10
-1915.14520202062
 20
-2173.276517358298
 30
0.0
 41
0.9995810107606252
 10
-1915.222463668347
 20
-2173.338999040763
 30
0.0
 41
1.0
 10
-1915.225433699559
 20
-2173.341400912228
 30
0.0
 41
1.0
 10
-1915.22840373077
 20
-2173.343802783694
 30
0.0
 41
1.0
 10
-1915.311605440918
 20
-2173.411088209088
 30
0.0
 41
0.9996617837954842
 10
-1915.391196128057
 20
-2173.482608664651
 30
0.0
 41
1.0
 10
-1915.403326878933
 20
-2173.493509397641
 30
0.0
 41
1.0
 10
-1915.415457629808
 20
-2173.50441013063
 30
0.0
 41
1.0
 10
-1915.483733157206
 20
-2173.565762746104
 30
0.0
 41
0.9997267750052184
 10
-1915.54906666549
 20
-2173.630239282629
 30
0.0
 41
1.0
 10
-1915.614400173769
 20
-2173.69471581915
 30
0.0
 41
0.9999667288960357
 10
-1915.678673116912
 20
-2173.76024962604
 30
0.0
 41
1.0
 10
-1915.747500564691
 20
-2173.830427284803
 30
0.0
 41
1.0
 10
-1915.81632801247
 20
-2173.900604943565
 30
0.0
 41
1.0
 10
-1916.018255851167
 20
-2174.106494067976
 30
0.0
 41
0.9988205335175525
 10
-1916.199261468146
 20
-2174.330998300037
 30
0.0
 41
1.0
 10
-1916.229901433051
 20
-2174.369001550467
 30
0.0
 41
1.0
 10
-1916.260541397956
 20
-2174.407004800897
 30
0.0
 41
1.0
 10
-1916.502826944746
 20
-2174.707515533819
 30
0.0
 41
0.9997077826754814
 10
-1916.730304895852
 20
-2175.019385328037
 30
0.0
 41
1.0
 10
-1916.732028310982
 20
-2175.021748111415
 30
0.0
 41
1.0
 10
-1916.733751726111
 20
-2175.024110894793
 30
0.0
 41
1.0
 10
-1916.964676507475
 20
-2175.340706255766
 30
0.0
 41
0.9989147567079344
 10
-1917.16514001036
 20
-2175.677415716952
 30
0.0
 41
1.0
 10
-1917.189881155666
 20
-2175.718972297503
 30
0.0
 41
1.0
 10
-1917.214622300972
 20
-2175.760528878054
 30
0.0
 41
1.0
 10
-1917.369833599611
 20
-2176.021230262509
 30
0.0
 41
0.9997476598181725
 10
-1917.513178587122
 20
-2176.288640011092
 30
0.0
 41
1.0
 10
-1917.65652357463
 20
-2176.556049759673
 30
0.0
 41
0.9996258967110253
 10
-1917.785031826564
 20
-2176.830897696302
 30
0.0
 41
1.0
 10
-1917.798231736013
 20
-2176.859129096396
 30
0.0
 41
1.0
 10
-1917.811431645463
 20
-2176.887360496491
 30
0.0
 41
1.0
 10
-1917.951640366462
 20
-2177.187232894444
 30
0.0
 41
0.9998735413946228
 10
-1918.082241713183
 20
-2177.491412493911
 30
0.0
 41
1.0
 10
-1918.085684541245
 20
-2177.499431079382
 30
0.0
 41
1.0
 10
-1918.089127369308
 20
-2177.507449664852
 30
0.0
 41
1.0
 10
-1918.212843059905
 20
-2177.795592093384
 30
0.0
 41
0.9999377418860684
 10
-1918.330097862078
 20
-2178.086423561054
 30
0.0
 41
1.0
 10
-1918.447352664247
 20
-2178.377255028714
 30
0.0
 41
0.9999508299507247
 10
-1918.558816607624
 20
-2178.670354705536
 30
0.0
 41
1.0
 10
-1918.56189737629
 20
-2178.678455731508
 30
0.0
 41
1.0
 10
-1918.564978144955
 20
-2178.686556757479
 30
0.0
 41
1.0
 10
-1918.68260362566
 20
-2178.995858486234
 30
0.0
 41
0.9999609228433052
 10
-1918.794742228537
 20
-2179.307191502257
 30
0.0
 41
1.0
 10
-1918.797698238884
 20
-2179.31539834266
 30
0.0
 41
1.0
 10
-1918.800654249231
 20
-2179.323605183063
 30
0.0
 41
1.0
 10
-1918.918704872799
 20
-2179.651351879882
 30
0.0
 41
0.999967460740502
 10
-1919.031452398862
 20
-2179.980960499863
 30
0.0
 41
1.0
 10
-1919.082850789428
 20
-2180.131219695564
 30
0.0
 41
1.0
 10
-1919.134249179994
 20
-2180.281478891265
 30
0.0
 41
1.0
 10
-1919.250259786753
 20
-2180.620626873774
 30
0.0
 41
0.9999287532308767
 10
-1919.358141190726
 20
-2180.962447612755
 30
0.0
 41
1.0
 10
-1919.40461844685
 20
-2181.109710157079
 30
0.0
 41
1.0
 10
-1919.451095702974
 20
-2181.256972701402
 30
0.0
 41
1.0
 10
-1919.466022594743
 20
-2181.304268351878
 30
0.0
 41
0.999999822466711
 10
-1919.480893103427
 20
-2181.351581759972
 30
0.0
 41
1.0
 10
-1921.101549240223
 20
-2186.499610261761
 30
0.0
 41
1.0
 10
-1922.722205377018
 20
-2191.64763876355
 30
0.0
 41
1.0
 10
-1923.627513820909
 20
-2191.64763876355
 30
0.0
 41
1.0
 10
-1924.5328222648
 20
-2191.64763876355
 30
0.0
 41
1.0
 10
-1922.680737853414
 20
-2185.760566841083
 30
0.0
 41
1.0
 10
-1920.828653442028
 20
-2179.873494918616
 30
0.0
 41
1.0
 10
-1920.818531683725
 20
-2179.841451705166
 30
0.0
 41
1.0
 10
-1920.745924014875
 20
-2179.61115216334
 30
0.0
 41
1.0
 10
-1920.673316346032
 20
-2179.380852621535
 30
0.0
 41
0.9999825681976992
 10
-1920.603433306826
 20
-2179.149711726489
 30
0.0
 41
1.0
 10
-1920.555142244655
 20
-2178.98998714296
 30
0.0
 41
1.0
 10
-1920.506851182484
 20
-2178.83026255943
 30
0.0
 41
1.0
 10
-1920.409698829172
 20
-2178.508927337671
 30
0.0
 41
0.9999672528963693
 10
-1920.317760023553
 20
-2178.186061792099
 30
0.0
 41
1.0
 10
-1920.314971139885
 20
-2178.176267946716
 30
0.0
 41
1.0
 10
-1920.312182256217
 20
-2178.166474101332
 30
0.0
 41
1.0
 10
-1920.225821217931
 20
-2177.863196246516
 30
0.0
 41
0.9999899749146751
 10
-1920.142179608395
 20
-2177.559157158061
 30
0.0
 41
1.0
 10
-1920.132073689376
 20
-2177.522421920376
 30
0.0
 41
1.0
 10
-1920.121967770356
 20
-2177.48568668269
 30
0.0
 41
1.0
 10
-1920.058537998859
 20
-2177.255118069604
 30
0.0
 41
0.9999214200502614
 10
-1920.000908570483
 20
-2177.023031727399
 30
0.0
 41
1.0
 10
-1919.988142718302
 20
-2176.971620842003
 30
0.0
 41
1.0
 10
-1919.975376866122
 20
-2176.920209956607
 30
0.0
 41
1.0
 10
-1919.943279142105
 20
-2176.790945385192
 30
0.0
 41
0.9999828681657916
 10
-1919.91269689011
 20
-2176.661313910722
 30
0.0
 41
1.0
 10
-1919.882114638116
 20
-2176.531682436264
 30
0.0
 41
0.9999389844481049
 10
-1919.854403649329
 20
-2176.401406980372
 30
0.0
 41
1.0
 10
-1919.847265905606
 20
-2176.367850876526
 30
0.0
 41
1.0
 10
-1919.840128161884
 20
-2176.33429477268
 30
0.0
 41
1.0
 10
-1919.798141685652
 20
-2176.136907109092
 30
0.0
 41
0.9998933699440233
 10
-1919.761937421251
 20
-2175.938377501335
 30
0.0
 41
1.0
 10
-1919.760564596035
 20
-2175.930849480644
 30
0.0
 41
1.0
 10
-1919.75919177082
 20
-2175.923321459953
 30
0.0
 41
1.0
 10
-1919.720241855985
 20
-2175.709735810801
 30
0.0
 41
0.9996850305192971
 10
-1919.692058179728
 20
-2175.494464805374
 30
0.0
 41
1.0
 10
-1919.690063146357
 20
-2175.479226451246
 30
0.0
 41
1.0
 10
-1919.688068112987
 20
-2175.463988097118
 30
0.0
 41
1.0
 10
-1919.660660250528
 20
-2175.254642869965
 30
0.0
 41
0.9994697936706687
 10
-1919.646935691309
 20
-2175.043957674635
 30
0.0
 41
1.0
 10
-1919.64645862206
 20
-2175.036634202427
 30
0.0
 41
1.0
 10
-1919.64598155281
 20
-2175.029310730218
 30
0.0
 41
1.0
 10
-1919.63321113209
 20
-2174.833272479307
 30
0.0
 41
0.9991804893137605
 10
-1919.636339448362
 20
-2174.636843629331
 30
0.0
 41
1.0
 10
-1919.636423327184
 20
-2174.631576827918
 30
0.0
 41
1.0
 10
-1919.636507206006
 20
-2174.626310026506
 30
0.0
 41
1.0
 10
-1919.639467764635
 20
-2174.440414779358
 30
0.0
 41
0.9988448329320964
 10
-1919.660259310259
 20
-2174.255662189524
 30
0.0
 41
1.0
 10
-1919.661853383961
 20
-2174.241497333758
 30
0.0
 41
1.0
 10
-1919.663447457664
 20
-2174.227332477991
 30
0.0
 41
1.0
 10
-1919.681050855882
 20
-2174.070909599697
 30
0.0
 41
0.9985503209460107
 10
-1919.715367128182
 20
-2173.917285415601
 30
0.0
 41
1.0
 10
-1919.722953120253
 20
-2173.883325088201
 30
0.0
 41
1.0
 10
-1919.730539112325
 20
-2173.8493647608
 30
0.0
 41
1.0
 10
-1919.749683400482
 20
-2173.763661231512
 30
0.0
 41
0.9991036781370211
 10
-1919.776008262133
 20
-2173.679884144187
 30
0.0
 41
1.0
 10
-1919.779990487589
 20
-2173.667210981675
 30
0.0
 41
1.0
 10
-1919.783972713045
 20
-2173.654537819164
 30
0.0
 41
1.0
 10
-1919.802333123785
 20
-2173.596107056861
 30
0.0
 41
0.9998874504369314
 10
-1919.822438331462
 20
-2173.538253454639
 30
0.0
 41
1.0
 10
-1919.842543539142
 20
-2173.480399852414
 30
0.0
 41
0.9994041637544181
 10
-1919.866592152074
 20
-2173.424071148528
 30
0.0
 41
1.0
 10
-1919.870788936299
 20
-2173.414241084045
 30
0.0
 41
1.0
 10
-1919.874985720523
 20
-2173.404411019563
 30
0.0
 41
1.0
 10
-1919.902864551518
 20
-2173.339110853595
 30
0.0
 41
0.9991846840702596
 10
-1919.935920908211
 20
-2173.276272822315
 30
0.0
 41
1.0
 10
-1919.937057514605
 20
-2173.274112205861
 30
0.0
 41
1.0
 10
-1919.938194120999
 20
-2173.271951589408
 30
0.0
 41
1.0
 10
-1919.968977264902
 20
-2173.213434791037
 30
0.0
 41
0.9989253167922698
 10
-1920.005046688959
 20
-2173.158019862644
 30
0.0
 41
1.0
 10
-1920.006100813634
 20
-2173.15640036788
 30
0.0
 41
1.0
 10
-1920.007154938309
 20
-2173.154780873117
 30
0.0
 41
1.0
 10
-1920.041116113013
 20
-2173.102604934254
 30
0.0
 41
0.9986467172835567
 10
-1920.080313265651
 20
-2173.054238900624
 30
0.0
 41
1.0
 10
-1920.081187394352
 20
-2173.053160298346
 30
0.0
 41
1.0
 10
-1920.082061523052
 20
-2173.052081696068
 30
0.0
 41
1.0
 10
-1920.119510418288
 20
-2173.005872866996
 30
0.0
 41
0.9984001104267869
 10
-1920.161937148806
 20
-2172.964187759626
 30
0.0
 41
1.0
 10
-1920.162524286916
 20
-2172.963610884744
 30
0.0
 41
1.0
 10
-1920.163111425027
 20
-2172.963034009862
 30
0.0
 41
1.0
 10
-1920.204363879323
 20
-2172.922502652258
 30
0.0
 41
0.9982442159084135
 10
-1920.250119980658
 20
-2172.887134090997
 30
0.0
 41
1.0
 10
-1920.250334776122
 20
-2172.886968058353
 30
0.0
 41
1.0
 10
-1920.250549571586
 20
-2172.886802025708
 30
0.0
 41
1.0
 10
-1920.295876081995
 20
-2172.851765529736
 30
0.0
 41
0.9982450060832819
 10
-1920.345027061066
 20
-2172.822333746703
 30
0.0
 41
1.0
 10
-1920.394178040137
 20
-2172.792901963669
 30
0.0
 41
0.9983922639632734
 10
-1920.446344346303
 20
-2172.769222329016
 30
0.0
 41
1.0
 10
-1920.446571223627
 20
-2172.769119343534
 30
0.0
 41
1.0
 10
-1920.446798100951
 20
-2172.769016358053
 30
0.0
 41
1.0
 10
-1920.499418161766
 20
-2172.745130752436
 30
0.0
 41
0.9986517147151555
 10
-1920.554231134635
 20
-2172.726829633314
 30
0.0
 41
1.0
 10
-1920.554909056062
 20
-2172.726603286882
 30
0.0
 41
1.0
 10
-1920.555586977489
 20
-2172.726376940451
 30
0.0
 41
1.0
 10
-1920.611755793212
 20
-2172.707623128466
 30
0.0
 41
0.9989435598955239
 10
-1920.669409180364
 20
-2172.694105426232
 30
0.0
 41
1.0
 10
-1920.670489299946
 20
-2172.693852175979
 30
0.0
 41
1.0
 10
-1920.671569419527
 20
-2172.693598925726
 30
0.0
 41
1.0
 10
-1920.731383045837
 20
-2172.679574722987
 30
0.0
 41
0.9992249241241707
 10
-1920.79211455473
 20
-2172.670299380271
 30
0.0
 41
1.0
 10
-1920.793528243026
 20
-2172.670083471863
 30
0.0
 41
1.0
 10
-1920.794941931321
 20
-2172.669867563454
 30
0.0
 41
1.0
 10
-1920.858500816802
 20
-2172.660160403923
 30
0.0
 41
0.9994396597833761
 10
-1920.92256675334
 20
-2172.654727481578
 30
0.0
 41
1.0
 10
-1920.941707420817
 20
-2172.653104313859
 30
0.0
 41
1.0
 10
-1920.960848088293
 20
-2172.651481146141
 30
0.0
 41
1.0
 10
-1921.063195359785
 20
-2172.642801888358
 30
0.0
 41
0.9987693403121048
 10
-1921.165898983372
 20
-2172.644304951811
 30
0.0
 41
1.0
 10
-1921.176153317598
 20
-2172.644455023585
 30
0.0
 41
1.0
 10
-1921.186407651823
 20
-2172.644605095359
 30
0.0
 41
1.0
 10
-1921.295963418004
 20
-2172.646208439646
 30
0.0
 41
0.9989753644967084
 10
-1921.404925418023
 20
-2172.657711446571
 30
0.0
 41
1.0
 10
-1921.51388741804
 20
-2172.669214453496
 30
0.0
 41
0.9983190067305442
 10
-1921.620786229006
 20
-2172.693249445284
 30
0.0
 41
1.0
 10
-1921.629687180612
 20
-2172.695250723846
 30
0.0
 41
1.0
 10
-1921.638588132218
 20
-2172.697252002409
 30
0.0
 41
1.0
 10
-1921.763288846395
 20
-2172.725289551321
 30
0.0
 41
0.9985539388304467
 10
-1921.884258600073
 20
-2172.766553227366
 30
0.0
 41
1.0
 10
-1921.886604031034
 20
-2172.767353271182
 30
0.0
 41
1.0
 10
-1921.888949461995
 20
-2172.768153314998
 30
0.0
 41
1.0
 10
-1922.014610077594
 20
-2172.811017078676
 30
0.0
 41
0.9988468746494014
 10
-1922.135580419895
 20
-2172.865735163738
 30
0.0
 41
1.0
 10
-1922.138763241883
 20
-2172.867174838298
 30
0.0
 41
1.0
 10
-1922.141946063871
 20
-2172.868614512858
 30
0.0
 41
1.0
 10
-1922.269282050148
 20
-2172.92621194704
 30
0.0
 41
0.9991322885918023
 10
-1922.391382634204
 20
-2172.994207279221
 30
0.0
 41
1.0
 10
-1922.408984645246
 20
-2173.00400948121
 30
0.0
 41
1.0
 10
-1922.426586656289
 20
-2173.013811683199
 30
0.0
 41
1.0
 10
-1922.528763337349
 20
-2173.070711798982
 30
0.0
 41
0.9993860037850348
 10
-1922.626704341424
 20
-2173.134627814571
 30
0.0
 41
1.0
 10
-1922.632322654278
 20
-2173.138294309267
 30
0.0
 41
1.0
 10
-1922.637940967132
 20
-2173.141960803962
 30
0.0
 41
1.0
 10
-1922.724645345499
 20
-2173.19854383016
 30
0.0
 41
0.9998821494953652
 10
-1922.80957172131
 20
-2173.257762060236
 30
0.0
 41
1.0
 10
-1922.894498097123
 20
-2173.316980290313
 30
0.0
 41
0.9997976482743611
 10
-1922.976973727527
 20
-2173.379566698355
 30
0.0
 41
1.0
 10
-1922.991609992332
 20
-2173.390673388134
 30
0.0
 41
1.0
 10
-1923.006246257136
 20
-2173.401780077914
 30
0.0
 41
1.0
 10
-1923.11799441715
 20
-2173.486579865516
 30
0.0
 41
0.9998091630800833
 10
-1923.226344695178
 20
-2173.575680216217
 30
0.0
 41
1.0
 10
-1923.239350447655
 20
-2173.586375316663
 30
0.0
 41
1.0
 10
-1923.252356200132
 20
-2173.597070417109
 30
0.0
 41
1.0
 10
-1923.386717983116
 20
-2173.707560968704
 30
0.0
 41
0.9995035112317457
 10
-1923.513853860878
 20
-2173.826294785717
 30
0.0
 41
1.0
 10
-1923.523501171265
 20
-2173.835304531875
 30
0.0
 41
1.0
 10
-1923.533148481652
 20
-2173.844314278033
 30
0.0
 41
1.0
 10
-1923.656571544416
 20
-2173.959580649787
 30
0.0
 41
0.9994630424299339
 10
-1923.772179950202
 20
-2174.082683393024
 30
0.0
 41
1.0
 10
-1923.775862788972
 20
-2174.086604972535
 30
0.0
 41
1.0
 10
-1923.779545627742
 20
-2174.090526552047
 30
0.0
 41
1.0
 10
-1923.887788355982
 20
-2174.205786136255
 30
0.0
 41
0.999516069375025
 10
-1923.988654385518
 20
-2174.327553554132
 30
0.0
 41
1.0
 10
-1923.990588105598
 20
-2174.329887978339
 30
0.0
 41
1.0
 10
-1923.992521825678
 20
-2174.332222402546
 30
0.0
 41
1.0
 10
-1924.089520415049
 20
-2174.449320972004
 30
0.0
 41
0.9996561470513811
 10
-1924.180246633715
 20
-2174.571343734454
 30
0.0
 41
1.0
 10
-1924.186404299615
 20
-2174.579625523494
 30
0.0
 41
1.0
 10
-1924.192561965516
 20
-2174.587907312533
 30
0.0
 41
1.0
 10
-1924.270972852383
 20
-2174.693366496905
 30
0.0
 41
0.9998349055171916
 10
-1924.345500134314
 20
-2174.801605080566
 30
0.0
 41
1.0
 10
-1924.420027416246
 20
-2174.909843664231
 30
0.0
 41
0.9999728109573135
 10
-1924.492950312156
 20
-2175.019169589785
 30
0.0
 41
1.0
 10
-1924.494265527568
 20
-2175.021141359288
 30
0.0
 41
1.0
 10
-1924.495580742979
 20
-2175.02311312879
 30
0.0
 41
1.0
 10
-1924.571134069711
 20
-2175.136382593347
 30
0.0
 41
0.9999972147402159
 10
-1924.646151880082
 20
-2175.250007436178
 30
0.0
 41
1.0
 10
-1924.651123422707
 20
-2175.257537524654
 30
0.0
 41
1.0
 10
-1924.656094965332
 20
-2175.265067613131
 30
0.0
 41
1.0
 10
-1924.741055860953
 20
-2175.393752632915
 30
0.0
 41
0.9999371979006088
 10
-1924.823111210358
 20
-2175.524309546694
 30
0.0
 41
1.0
 10
-1924.826620094719
 20
-2175.529892474756
 30
0.0
 41
1.0
 10
-1924.830128979079
 20
-2175.535475402819
 30
0.0
 41
1.0
 10
-1924.91920209721
 20
-2175.677198172732
 30
0.0
 41
0.999827202561133
 10
-1925.00294548809
 20
-2175.82213404947
 30
0.0
 41
1.0
 10
-1925.018160660114
 20
-2175.848467163927
 30
0.0
 41
1.0
 10
-1925.033375832138
 20
-2175.874800278383
 30
0.0
 41
1.0
 10
-1925.147549567069
 20
-2176.072402384041
 30
0.0
 41
0.9995217214838392
 10
-1925.249289256623
 20
-2176.2766847119
 30
0.0
 41
1.0
 10
-1925.25693281926
 20
-2176.292032161607
 30
0.0
 41
1.0
 10
-1925.264576381897
 20
-2176.307379611314
 30
0.0
 41
1.0
 10
-1925.351481674485
 20
-2176.481876069392
 30
0.0
 41
0.9998269762606862
 10
-1925.431836140755
 20
-2176.659484356112
 30
0.0
 41
1.0
 10
-1925.512190607028
 20
-2176.837092642838
 30
0.0
 41
0.9998944747386974
 10
-1925.587351401594
 20
-2177.016960368469
 30
0.0
 41
1.0
 10
-1925.592305071183
 20
-2177.028815023382
 30
0.0
 41
1.0
 10
-1925.597258740772
 20
-2177.040669678295
 30
0.0
 41
1.0
 10
-1925.677905801322
 20
-2177.233666618306
 30
0.0
 41
0.9999506734411504
 10
-1925.754703330231
 20
-2177.428227423175
 30
0.0
 41
1.0
 10
-1925.769303295497
 20
-2177.465215344969
 30
0.0
 41
1.0
 10
-1925.783903260763
 20
-2177.502203266763
 30
0.0
 41
1.0
 10
-1925.831500859123
 20
-2177.622788228002
 30
0.0
 41
0.9999912393956656
 10
-1925.878087303157
 20
-2177.743767430727
 30
0.0
 41
1.0
 10
-1925.924673747164
 20
-2177.864746633381
 30
0.0
 41
0.9999927113956789
 10
-1925.97033504156
 20
-2177.98607804089
 30
0.0
 41
1.0
 10
-1925.984303472965
 20
-2178.023195022906
 30
0.0
 41
1.0
 10
-1925.998271904369
 20
-2178.060312004923
 30
0.0
 41
1.0
 10
-1926.07187006156
 20
-2178.255877376425
 30
0.0
 41
0.9999487550952324
 10
-1926.141493686532
 20
-2178.452892741609
 30
0.0
 41
1.0
 10
-1926.165087296473
 20
-2178.519656051913
 30
0.0
 41
1.0
 10
-1926.188680906414
 20
-2178.586419362217
 30
0.0
 41
1.0
 10
-1926.283366540779
 20
-2178.854353197026
 30
0.0
 41
0.9999808436924305
 10
-1926.374728129416
 20
-2179.12343862828
 30
0.0
 41
1.0
 10
-1926.466089718057
 20
-2179.392524059542
 30
0.0
 41
0.9999873932910097
 10
-1926.554744426787
 20
-2179.662513414591
 30
0.0
 41
1.0
 10
-1926.57483678365
 20
-2179.723702747327
 30
0.0
 41
1.0
 10
-1926.594929140515
 20
-2179.784892080064
 30
0.0
 41
1.0
 10
-1926.723768562967
 20
-2180.177260100569
 30
0.0
 41
0.9999794883037411
 10
-1926.847571347932
 20
-2180.571246306869
 30
0.0
 41
1.0
 10
-1926.858723607368
 20
-2180.606736917101
 30
0.0
 41
1.0
 10
-1926.869875866803
 20
-2180.642227527331
 30
0.0
 41
1.0
 10
-1927.012434030678
 20
-2181.095900279345
 30
0.0
 41
0.9999982761746965
 10
-1927.153306470717
 20
-2181.550099301544
 30
0.0
 41
1.0
 10
-1928.74144680329
 20
-2186.598869032547
 30
0.0
 41
1.0
 10
-1930.329587135862
 20
-2191.64763876355
 30
0.0
 41
1.0
 10
-1931.278337747339
 20
-2191.64763876355
 30
0.0
 41
1.0
 10
-1932.227088358815
 20
-2191.64763876355
 30
0.0
 41
1.0
 10
-1928.988803872662
 20
-2181.320316563604
 30
0.0
 41
1.0
 10
-1925.750519386509
 20
-2170.992994363658
 30
0.0
 41
1.0
  0
LWPOLYLINE
  5
5C
330
23
100
AcDbEntity
  8
0
  6
Continuous
 62
     7
370
    15
390
1D
100
AcDbPolyline
 90
      232
 70
   128
 43
0.0
 10
-1951.454065160336
 20
-2172.077337195174
 42
0.0004370800693705
 10
-1951.506942334341
 20
-2172.146003834343
 10
-1951.546226565535
 20
-2172.197110947326
 42
0.0030481992172051
 10
-1951.676565282657
 20
-2172.368832639674
 10
-1951.715076954405
 20
-2172.420219423459
 42
0.0042058245754199
 10
-1951.91906200509
 20
-2172.697225168554
 10
-1951.971467127575
 20
-2172.769658015313
 42
0.0120948898743927
 10
-1952.267511044335
 20
-2173.200407619859
 10
-1952.363703543462
 20
-2173.347888355092
 42
0.014160126394281
 10
-1952.667347590381
 20
-2173.843557691822
 10
-1952.706884857803
 20
-2173.912401659248
 42
0.0071131081303506
 10
-1952.912157181045
 20
-2174.281904458092
 42
0.0068458791001065
 10
-1953.107036707887
 20
-2174.656996021566
 10
-1953.113848570346
 20
-2174.670557735292
 42
0.0064120880292091
 10
-1953.311990820395
 20
-2175.07798221022
 10
-1953.319525505907
 20
-2175.093994066932
 42
0.0058857236451443
 10
-1953.522280897779
 20
-2175.538370177966
 10
-1953.530455824073
 20
-2175.556860331601
 42
0.0053189741893469
 10
-1953.739160136746
 20
-2176.042823805533
 10
-1953.747907942422
 20
-2176.063805683715
 42
0.0047503650419719
 10
-1953.963881668566
 20
-2176.596005116907
 10
-1953.973149916921
 20
-2176.619481493033
 42
0.0042071762168817
 10
-1954.197697300645
 20
-2177.202575087094
 10
-1954.207446702997
 20
-2177.228541261972
 42
0.003668008648231
 10
-1954.441901346311
 20
-2177.867176646508
 10
-1954.452109126157
 20
-2177.895625180848
 42
0.003257314263309
 10
-1954.697741412125
 20
-2178.594477840606
 10
-1954.766391932961
 20
-2178.793940924645
 42
0.0026133366649775
 10
-1955.114837131722
 20
-2179.823804208326
 10
-1955.178093919217
 20
-2180.014035043702
 42
0.0020592950745697
 10
-1955.39195698819
 20
-2180.666138696332
 10
-1955.395008779359
 20
-2180.67557518476
 42
0.0025609928535093
 10
-1955.596829280839
 20
-2181.310720407108
 10
-1955.599420647967
 20
-2181.319022748051
 42
0.0031362356238703
 10
-1955.788911433643
 20
-2181.939785604228
 10
-1955.791042476569
 20
-2181.946926910435
 42
0.0037229918028538
 10
-1955.967842863496
 20
-2182.555912212413
 10
-1955.969521452703
 20
-2182.561859102588
 42
0.0043077623711374
 10
-1956.133262254768
 20
-2183.161677834356
 42
0.004765416182037
 10
-1956.286090977278
 20
-2183.764363923236
 10
-1956.320555586123
 20
-2183.905925700409
 42
0.011296936844546
 10
-1956.516419944267
 20
-2184.797617861037
 10
-1956.544426333363
 20
-2184.940445907131
 42
0.0130056762568573
 10
-1956.74526357701
 20
-2186.127386978776
 10
-1956.765803327155
 20
-2186.271465092239
 42
0.0138721532141141
 10
-1956.869506331695
 20
-2187.178294578078
 10
-1956.888801819604
 20
-2187.401792300021
 42
0.0071254697012206
 10
-1956.922148465525
 20
-2187.864979308851
 10
-1956.92710943969
 20
-2187.950983303436
 42
0.0028881799204447
 10
-1956.942247732979
 20
-2188.242725013253
 42
0.0060297297135468
 10
-1956.952179932754
 20
-2188.534673949366
 10
-1956.953242214421
 20
-2188.5830663213
 42
0.0229523164148317
 10
-1956.945511186635
 20
-2188.905821167585
 10
-1956.941285413114
 20
-2188.966224701616
 42
0.0123673300684421
 10
-1956.922206766596
 20
-2189.167345426776
 42
0.0128577674461357
 10
-1956.893011376192
 20
-2189.367243276694
 10
-1956.885885502803
 20
-2189.4085720913
 42
0.0285717853769852
 10
-1956.821391501105
 20
-2189.68668824262
 10
-1956.807722977442
 20
-2189.733343012088
 42
0.0316283099153576
 10
-1956.691912397527
 20
-2190.052357513916
 10
-1956.688863705771
 20
-2190.059343886242
 42
0.033898482423662
 10
-1956.539431994804
 20
-2190.346909850431
 10
-1956.537123265434
 20
-2190.350700879706
 42
0.0350228718356049
 10
-1956.354762974761
 20
-2190.607752864384
 10
-1956.353877722983
 20
-2190.608831942151
 42
0.0347476747530352
 10
-1956.139453035746
 20
-2190.836016989368
 42
0.0331337701901071
 10
-1955.89620971
 20
-2191.032145651444
 10
-1955.895109611483
 20
-2191.032918354617
 42
0.0305233319089651
 10
-1955.626564915907
 20
-2191.19804652471
 10
-1955.623334871409
 20
-2191.199770536572
 42
0.0273744481154286
 10
-1955.330781159839
 20
-2191.33590868046
 10
-1955.325676624697
 20
-2191.337952264932
 42
0.0240964406199079
 10
-1955.010199549049
 20
-2191.446935991213
 10
-1955.003616219841
 20
-2191.448860730888
 42
0.0209636179821062
 10
-1954.666216067186
 20
-2191.53232887882
 10
-1954.65858360674
 20
-2191.533880791822
 42
0.0181388704691016
 10
-1954.300261214743
 20
-2191.593296885035
 10
-1954.291980366363
 20
-2191.594363068853
 42
0.0156086547583661
 10
-1953.913793002178
 20
-2191.631099255429
 10
-1953.870597749848
 20
-2191.633937757908
 42
0.0137148329017623
 10
-1953.542924604548
 20
-2191.64645801316
 10
-1953.49698841458
 20
-2191.646952446275
 42
0.0051057823894385
 10
-1953.26084282803
 20
-2191.647082700684
 42
0.0052256693307502
 10
-1953.024745544258
 20
-2191.64233387622
 10
-1952.954518760502
 20
-2191.640186910206
 42
0.0161507179045661
 10
-1952.578781682401
 20
-2191.616536539879
 10
-1952.558768722028
 20
-2191.614626344592
 42
0.0101216737831848
 10
-1952.144741500532
 20
-2191.566633414225
 10
-1952.11068821111
 20
-2191.561985717416
 42
0.0245291776400494
 10
-1951.633898555555
 20
-2191.472910639339
 10
-1951.549075240034
 20
-2191.452714718994
 42
0.0143509212554463
 10
-1951.192444136096
 20
-2191.356910085216
 42
0.0156557857043632
 10
-1950.842228071366
 20
-2191.239898869395
 10
-1950.834726856874
 20
-2191.237128707642
 42
0.0170137333633135
 10
-1950.47813086119
 20
-2191.09147109277
 10
-1950.471026938785
 20
-2191.088283257207
 42
0.0183105364405316
 10
-1950.11167727062
 20
-2190.910948215384
 10
-1950.10473050598
 20
-2190.907197780511
 42
0.0194899958154281
 10
-1949.746249764995
 20
-2190.69521879862
 10
-1949.739235885659
 20
-2190.690693456325
 42
0.0204869852947293
 10
-1949.385221583568
 20
-2190.441173441242
 10
-1949.377955974978
 20
-2190.435593375891
 42
0.0212516938552829
 10
-1949.031966043869
 20
-2190.145689378996
 10
-1948.985449349795
 20
-2190.103222068904
 42
0.0215248918258092
 10
-1948.725423180907
 20
-2189.844457789908
 10
-1948.680393446521
 20
-2189.795613668552
 42
0.0114578554964138
 10
-1948.525601292849
 20
-2189.6197907351
 10
-1948.514406756865
 20
-2189.606471971558
 42
0.0061531305119459
 10
-1948.387932110868
 20
-2189.452182438249
 42
0.0006325587120629
 10
-1948.263553626698
 20
-2189.296179062551
 10
-1948.240513491665
 20
-2189.267205541914
 42
0.004189776155356
 10
-1948.072058087682
 20
-2189.05168616584
 10
-1948.0135959678
 20
-2188.975584818867
 42
0.0092993880040835
 10
-1947.736984040581
 20
-2188.60130605499
 10
-1947.654589547381
 20
-2188.485369051421
 42
0.0159321727083087
 10
-1947.307983064735
 20
-2187.963194830659
 10
-1947.263626929346
 20
-2187.89151526641
 42
0.0085547317015436
 10
-1947.02911516402
 20
-2187.497640317184
 42
0.00846011568869
 10
-1946.808138986576
 20
-2187.096013468148
 10
-1946.800023512747
 20
-2187.080653785879
 42
0.0081429654282486
 10
-1946.576774242307
 20
-2186.640932273331
 10
-1946.567914078126
 20
-2186.622753431318
 42
0.0076574581332792
 10
-1946.341506567554
 20
-2186.139570556055
 10
-1946.332026926836
 20
-2186.118506077763
 42
0.0070682724200158
 10
-1946.101582019024
 20
-2185.586468772969
 10
-1946.091591735047
 20
-2185.562479583969
 42
0.0064559514448081
 10
-1945.85625852686
 20
-2184.976167317436
 10
-1945.8458491687
 20
-2184.949232392009
 42
0.0058311413906208
 10
-1945.604802431941
 20
-2184.303200297634
 10
-1945.59404735455
 20
-2184.273315956464
 42
0.0052312425818036
 10
-1945.346466076509
 20
-2183.56211354263
 10
-1945.335422240129
 20
-2183.52928683056
 42
0.0046680544796187
 10
-1945.080493812394
 20
-2182.747460514802
 10
-1945.038501662352
 20
-2182.614477277516
 42
0.0041666856442192
 10
-1944.835215649956
 20
-2181.951508502508
 10
-1944.797553209279
 20
-2181.824927394808
 42
0.0015170975162443
 10
-1944.67636663088
 20
-2181.41305904336
 42
-0.0004887993112627
 10
-1944.556026857757
 20
-2181.000940631321
 10
-1944.479549600261
 20
-2180.739983245377
 42
0.0002583378926508
 10
-1944.206335030119
 20
-2179.805926541929
 10
-1944.12456218065
 20
-2179.525827282717
 42
0.0006636169672989
 10
-1943.930694420609
 20
-2178.858474359028
 10
-1943.925597766272
 20
-2178.840842776184
 42
0.0010589131324179
 10
-1943.744149065345
 20
-2178.208111433099
 10
-1943.739166994864
 20
-2178.190598526077
 42
0.0015655524462281
 10
-1943.570896787682
 20
-2177.591981846878
 10
-1943.566066587285
 20
-2177.574589688006
 42
0.0021640440475394
 10
-1943.411776615281
 20
-2177.009562669924
 10
-1943.40714239585
 20
-2176.992297939926
 42
0.0028763871857334
 10
-1943.267626677798
 20
-2176.460329989083
 10
-1943.263240813635
 20
-2176.443206010945
 42
0.0037310511950513
 10
-1943.139284121794
 20
-2175.943758416905
 10
-1943.135208901506
 20
-2175.926798145663
 42
0.0047652197761677
 10
-1943.027585000997
 20
-2175.459320377354
 10
-1943.023894401676
 20
-2175.442560822215
 42
0.0060276699302069
 10
-1942.93336430252
 20
-2175.00648502706
 10
-1942.930145612233
 20
-2174.989983812764
 42
0.0075824337757814
 10
-1942.857456302815
 20
-2174.584716648325
 10
-1942.854810925433
 20
-2174.56856170086
 42
0.0095130624605305
 10
-1942.800695689804
 20
-2174.193472347803
 10
-1942.793709465922
 20
-2174.137538789694
 42
0.0121054653227809
 10
-1942.767118135343
 20
-2173.872642961212
 10
-1942.766251645584
 20
-2173.861239518284
 42
0.0069050827383776
 10
-1942.751162827546
 20
-2173.618298291439
 10
-1942.750027527878
 20
-2173.594772034395
 42
0.0169063976697977
 10
-1942.747200248897
 20
-2173.398579307093
 10
-1942.748370900428
 20
-2173.33824354574
 42
0.0052007732874593
 10
-1942.750624349021
 20
-2173.262650155592
 42
0.0054038123284255
 10
-1942.770587860856
 20
-2173.142631859602
 10
-1942.775673716731
 20
-2173.113973373001
 42
0.011205046045622
 10
-1942.811058078792
 20
-2172.93764693465
 10
-1942.82888304083
 20
-2172.858105347941
 42
0.0240764468016784
 10
-1942.919780406976
 20
-2172.527868312441
 10
-1942.938339169789
 20
-2172.471248147448
 42
0.0256812331827796
 10
-1943.081702089979
 20
-2172.099523941189
 10
-1943.087111515799
 20
-2172.087392606203
 42
0.0268360501214426
 10
-1943.25653875665
 20
-2171.756399472178
 10
-1943.262075164287
 20
-2171.746879801862
 42
0.0274670231740433
 10
-1943.454276140699
 20
-2171.454592426948
 10
-1943.459657440664
 20
-2171.447313279403
 42
0.0275035967105582
 10
-1943.671230320223
 20
-2171.191797389103
 10
-1943.676299821184
 20
-2171.186318301479
 42
0.0269557673529709
 10
-1943.903703364629
 20
-2170.96567601551
 10
-1943.908446422412
 20
-2170.961546061049
 42
0.025912480220732
 10
-1944.148001253842
 20
-2170.773855533897
 10
-1944.15253209903
 20
-2170.770670031563
 42
0.0245162153014197
 10
-1944.400448452119
 20
-2170.613937022456
 10
-1944.404974998441
 20
-2170.611376825257
 42
0.0229282588830942
 10
-1944.657394555271
 20
-2170.483508632757
 10
-1944.662175049099
 20
-2170.481356332998
 42
0.0212984135686427
 10
-1944.915213001569
 20
-2170.380157415752
 10
-1944.92051728654
 20
-2170.378293852992
 42
0.0197555462347481
 10
-1945.170295624262
 20
-2170.301478435028
 42
0.0183511896789275
 10
-1945.425224349726
 20
-2170.243895528062
 10
-1945.511589546445
 20
-2170.227692737677
 42
0.0338057877139479
 10
-1945.797096895708
 20
-2170.193884332537
 10
-1945.888102300767
 20
-2170.189304677274
 42
0.0091990524528015
 10
-1945.993949409384
 20
-2170.185928821353
 42
0.0028333980770111
 10
-1946.099863325386
 20
-2170.185100713837
 10
-1946.100778778427
 20
-2170.185098744013
 42
-0.0023619827795139
 10
-1946.208524793551
 20
-2170.184357902934
 10
-1946.244929963708
 20
-2170.183935596471
 42
0.0008824598472245
 10
-1946.425485953393
 20
-2170.182159818234
 10
-1946.469347385964
 20
-2170.181805856707
 42
0.0038132665776936
 10
-1946.737630281863
 20
-2170.181686920641
 10
-1946.754163936636
 20
-2170.181805686784
 42
0.006066556933209
 10
-1947.055444428222
 20
-2170.187625986204
 10
-1947.069694760253
 20
-2170.188074294172
 42
0.0080356953331643
 10
-1947.399153476584
 20
-2170.203742016239
 10
-1947.411223491679
 20
-2170.20451059918
 42
0.0098996399106625
 10
-1947.763986576324
 20
-2170.233995828377
 10
-1947.774032285705
 20
-2170.235036124576
 42
0.0117740981371784
 10
-1948.145189144053
 20
-2170.282328372106
 10
-1948.153411840536
 20
-2170.283573488677
 42
0.0137435215137111
 10
-1948.538000660022
 20
-2170.352670462239
 10
-1948.544657699145
 20
-2170.354056358472
 42
0.0158359869388467
 10
-1948.937654792949
 20
-2170.448948446953
 10
-1948.943067979814
 20
-2170.450438387823
 42
0.0180554124025452
 10
-1949.339383024424
 20
-2170.57507640406
 10
-1949.34393981251
 20
-2170.576692440328
 42
0.0203657431285368
 10
-1949.738417330323
 20
-2170.734952781845
 10
-1949.742560869329
 20
-2170.736814403286
 42
0.0226819684652736
 10
-1950.129996925533
 20
-2170.932456981957
 10
-1950.134196716551
 20
-2170.934822573877
 42
0.0248634984611475
 10
-1950.509378657731
 20
-2171.171449219823
 10
-1950.557573586514
 20
-2171.205306261648
 42
0.0267044190881268
 10
-1950.831866283432
 20
-2171.420746637517
 42
0.0139303002196872
 10
-1951.088033449374
 20
-2171.657985478433
 10
-1951.092886835092
 20
-2171.66273814129
 42
0.0283460963439869
 10
-1951.336959429319
 20
-2171.930468801734
 10
-1951.376627934476
 20
-2171.979270379208
 42
0.0070695364826305
 10
-1951.454065160336
 20
-2172.077337195174
 42
0.0070695364826305
  0
LWPOLYLINE
  5
5D
330
23
100
AcDbEntity
  8
0
  6
Continuous
 62
     7
370
    15
390
1D
100
AcDbPolyline
 90
      226
 70
   128
 43
0.0
 10
-1954.982885597582
 20
-2187.798926001357
 42
-0.0026277636727102
 10
-1954.982963481382
 20
-2187.732154075689
 10
-1954.98274612315
 20
-2187.678998858171
 42
-0.0088680296720275
 10
-1954.978969506857
 20
-2187.505983075769
 10
-1954.976623147745
 20
-2187.446703050315
 42
-0.0077381705621514
 10
-1954.960577036981
 20
-2187.155442554517
 10
-1954.959709125808
 20
-2187.143154320831
 42
-0.0068872530532338
 10
-1954.933077046059
 20
-2186.827932568748
 10
-1954.931872821874
 20
-2186.815691589743
 42
-0.0062130021481344
 10
-1954.894279105042
 20
-2186.476821898471
 10
-1954.892775201511
 20
-2186.464648026589
 42
-0.0056726929674122
 10
-1954.843853342007
 20
-2186.102452804461
 10
-1954.842079896365
 20
-2186.09035900423
 42
-0.005234188450511
 10
-1954.781469310111
 20
-2185.705165748752
 10
-1954.779451321328
 20
-2185.69316081872
 42
-0.0049768450167629
 10
-1954.706712639901
 20
-2185.285316251284
 10
-1954.68246362518
 20
-2185.156768268281
 42
-0.0089029805624135
 10
-1954.545382773385
 20
-2184.494992820857
 10
-1954.512637398067
 20
-2184.349961390335
 42
-0.0080318257099057
 10
-1954.283088783727
 20
-2183.404251758487
 10
-1954.271103857277
 20
-2183.358121123291
 42
-0.0074265721320384
 10
-1953.987092318431
 20
-2182.328056544923
 10
-1953.967212775305
 20
-2182.259922484302
 42
-0.0069711922702793
 10
-1953.639908196804
 20
-2181.193654743994
 10
-1953.5799562497
 20
-2181.007633385627
 42
-0.0052070422895823
 10
-1953.35053102444
 20
-2180.320361308592
 10
-1953.333249832278
 20
-2180.270334028005
 42
-0.0009167004447333
 10
-1953.130157944978
 20
-2179.68587817982
 42
-0.0025162726942828
 10
-1952.923060314701
 20
-2179.102836915619
 10
-1952.885835702907
 20
-2178.999687369745
 42
-0.0028212681457951
 10
-1952.637659783947
 20
-2178.323956737581
 10
-1952.627829021192
 20
-2178.297649292895
 42
-0.0031964916825322
 10
-1952.391536763534
 20
-2177.677444530777
 10
-1952.381902309527
 20
-2177.652634540614
 42
-0.0036281836452558
 10
-1952.156796348434
 20
-2177.085193859741
 10
-1952.147357938272
 20
-2177.061896428228
 42
-0.0041269166836297
 10
-1951.932740241617
 20
-2176.54445553226
 10
-1951.900107285209
 20
-2176.467577085928
 42
-0.0047472213061578
 10
-1951.743062479643
 20
-2176.107155618015
 10
-1951.736168398437
 20
-2176.091735020689
 42
-0.0025651659994557
 10
-1951.587810364584
 20
-2175.764406964935
 42
-0.0057144634994817
 10
-1951.434060670811
 20
-2175.439597291568
 10
-1951.406029965415
 20
-2175.382088909186
 42
-0.0065388068370528
 10
-1951.222562937672
 20
-2175.017856412514
 10
-1951.214104481895
 20
-2175.001596833146
 42
-0.0074510843036002
 10
-1951.037922236015
 20
-2174.674908552021
 10
-1951.029742565484
 20
-2174.660267774751
 42
-0.0084648979863561
 10
-1950.860108712384
 20
-2174.368358763791
 10
-1950.852252585893
 20
-2174.355351772134
 42
-0.0095638542797661
 10
-1950.688417138302
 20
-2174.095462900162
 10
-1950.680942194626
 20
-2174.0840935387
 42
-0.0107191626785368
 10
-1950.522140614243
 20
-2173.853482304162
 10
-1950.515123880513
 20
-2173.843746211799
 42
-0.0118458573914888
 10
-1950.360575781999
 20
-2173.639674016487
 42
-0.0129184518195547
 10
-1950.196123158397
 20
-2173.443513500316
 10
-1950.165978386034
 20
-2173.409387421416
 42
-0.0217742579636632
 10
-1949.989366063699
 20
-2173.226180651167
 10
-1949.978620519242
 20
-2173.215963817967
 42
-0.0097266568658406
 10
-1949.812562900383
 20
-2173.064116243526
 42
-0.0187720905726162
 10
-1949.638215324494
 20
-2172.922047390137
 10
-1949.60750933382
 20
-2172.898888307742
 42
-0.0179428207520104
 10
-1949.375088613823
 20
-2172.736336130629
 10
-1949.371436286908
 20
-2172.733972195741
 42
-0.017004787769317
 10
-1949.135672649377
 20
-2172.59251168159
 10
-1949.131889660632
 20
-2172.590413376555
 42
-0.0160190788358581
 10
-1948.894981112995
 20
-2172.468762074566
 42
-0.0151102861501301
 10
-1948.650949330548
 20
-2172.362079298511
 10
-1948.598562828337
 20
-2172.341039165617
 42
-0.0271945441881495
 10
-1948.239900269276
 20
-2172.21917435491
 10
-1948.170835468791
 20
-2172.199824813645
 42
-0.0237596594029447
 10
-1947.755038621768
 20
-2172.104374101663
 10
-1947.686975768034
 20
-2172.092119413535
 42
-0.0213715440547534
 10
-1947.401100836592
 20
-2172.053172382026
 10
-1947.340953670383
 20
-2172.047582667326
 42
-0.0101465655824882
 10
-1947.17346113838
 20
-2172.035439124061
 10
-1947.164120752198
 20
-2172.034952209065
 42
-0.0100375910880401
 10
-1947.014966651619
 20
-2172.030176391139
 10
-1947.00470738194
 20
-2172.030053952124
 42
-0.0103625633382098
 10
-1946.875999387284
 20
-2172.031185385651
 10
-1946.853733736018
 20
-2172.031842744116
 42
-0.011568925021365
 10
-1946.769682998489
 20
-2172.036272250361
 42
-0.0072438037458433
 10
-1946.685844719059
 20
-2172.043861450109
 10
-1946.669044209577
 20
-2172.045627992834
 42
-0.0217917313124108
 10
-1946.55247444626
 20
-2172.063047885556
 10
-1946.486874355692
 20
-2172.075794493971
 42
-0.0332943556765464
 10
-1946.282482190669
 20
-2172.129834785277
 10
-1946.252309622121
 20
-2172.140002862394
 42
-0.0184824084803228
 10
-1946.113804565653
 20
-2172.192453877782
 42
-0.0198002050701301
 10
-1945.979730225148
 20
-2172.255337937984
 10
-1945.977843587777
 20
-2172.256315724861
 42
-0.0212242342956649
 10
-1945.845704645369
 20
-2172.332078463658
 10
-1945.843889349831
 20
-2172.333224265863
 42
-0.0226090605811609
 10
-1945.715385448614
 20
-2172.422703909423
 10
-1945.713541006872
 20
-2172.424116162415
 42
-0.0238457052245017
 10
-1945.590358925579
 20
-2172.528112058277
 10
-1945.58840619702
 20
-2172.529926936043
 42
-0.0248160564140639
 10
-1945.47220468972
 20
-2172.649201537252
 10
-1945.470101056318
 20
-2172.651586870956
 42
-0.0254109591439344
 10
-1945.362495838452
 20
-2172.786875256919
 10
-1945.360247816538
 20
-2172.790016805321
 42
-0.0255528488282636
 10
-1945.262801137739
 20
-2172.942043859559
 10
-1945.260470037824
 20
-2172.946125471163
 42
-0.0252146793218274
 10
-1945.174689011812
 20
-2173.115627717167
 10
-1945.172386772658
 20
-2173.120809799073
 42
-0.0244265635953225
 10
-1945.099732078897
 20
-2173.308556371117
 10
-1945.090485677427
 20
-2173.33642178946
 42
-0.0231319612912209
 10
-1945.044562898436
 20
-2173.499722836259
 42
-0.0112130424373223
 10
-1945.0099268759
 20
-2173.665926436434
 10
-1945.008724350785
 20
-2173.672423023335
 42
-0.0210527881248605
 10
-1944.983037875414
 20
-2173.853478668778
 10
-1944.979527280592
 20
-2173.888884217324
 42
-0.0190029892429318
 10
-1944.964085807047
 20
-2174.142420063597
 10
-1944.963275830604
 20
-2174.177895677965
 42
-0.0137974553644522
 10
-1944.964824683439
 20
-2174.50292708471
 10
-1944.965670138395
 20
-2174.529045829309
 42
-0.0081336634211821
 10
-1944.980529473617
 20
-2174.834393296891
 42
-0.007352692357029
 10
-1945.004838006992
 20
-2175.139141541172
 10
-1945.006099430775
 20
-2175.152478215842
 42
-0.0066886138695315
 10
-1945.041835016824
 20
-2175.483064259361
 10
-1945.043492106291
 20
-2175.49668587833
 42
-0.0061359187357089
 10
-1945.091342708341
 20
-2175.853449858428
 10
-1945.093380209415
 20
-2175.867344661259
 42
-0.0056698610065236
 10
-1945.154030540181
 20
-2176.250623230094
 10
-1945.156435973505
 20
-2176.264782349328
 42
-0.0052721077271679
 10
-1945.230568174305
 20
-2176.674909689008
 10
-1945.233331323146
 20
-2176.689326324392
 42
-0.0049289272182895
 10
-1945.321625441246
 20
-2177.126634835512
 10
-1945.324737935929
 20
-2177.14130368833
 42
-0.0047415956712713
 10
-1945.427975927457
 20
-2177.606100445724
 10
-1945.462744137821
 20
-2177.755907541124
 42
-0.0084404470905937
 10
-1945.652760581389
 20
-2178.516131565642
 10
-1945.658887269378
 20
-2178.538995689808
 42
-0.0039635940259533
 10
-1945.880340953656
 20
-2179.339984554034
 10
-1945.893717748842
 20
-2179.386916170648
 42
-0.0072475040835489
 10
-1946.161164636702
 20
-2180.276135887028
 10
-1946.231376963526
 20
-2180.497876236991
 42
-0.0051345458828978
 10
-1946.518136335591
 20
-2181.372201424821
 10
-1946.539662602358
 20
-2181.435627691949
 42
-0.0019150016599823
 10
-1946.795196009225
 20
-2182.179176812178
 10
-1946.801663613626
 20
-2182.197764277109
 42
-0.0021524362749754
 10
-1947.050141664686
 20
-2182.902090098807
 10
-1947.059352085394
 20
-2182.927843677141
 42
-0.0024331286818503
 10
-1947.295607344418
 20
-2183.578442985227
 10
-1947.304655296977
 20
-2183.602986291603
 42
-0.0027449721790447
 10
-1947.529269867804
 20
-2184.202116170505
 10
-1947.538159875191
 20
-2184.225438760343
 42
-0.0031083229769382
 10
-1947.751702361806
 20
-2184.775362797937
 10
-1947.760438493482
 20
-2184.797452513796
 42
-0.0035311343288712
 10
-1947.963479679074
 20
-2185.300435639525
 10
-1947.972065018223
 20
-2185.321278363039
 42
-0.0040245640950032
 10
-1948.165176822016
 20
-2185.779587685628
 10
-1948.173612935616
 20
-2185.799167053693
 42
-0.0046015135856876
 10
-1948.357369228782
 20
-2186.215072083342
 10
-1948.365655406612
 20
-2186.233369222797
 42
-0.0052768638272051
 10
-1948.540632925566
 20
-2186.609142107064
 10
-1948.548765136197
 20
-2186.626135445615
 42
-0.0060672675633692
 10
-1948.715544748959
 20
-2186.964051068722
 10
-1948.72351422944
 20
-2186.979716327718
 42
-0.0069904648866878
 10
-1948.882682623442
 20
-2187.282052134383
 10
-1948.890474023053
 20
-2187.296362683611
 42
-0.0080637022770348
 10
-1949.042625883399
 20
-2187.565397986763
 10
-1949.050214916031
 20
-2187.578325852365
 42
-0.0093006455655438
 10
-1949.195955592562
 20
-2187.816340250867
 10
-1949.203306259307
 20
-2187.827858220043
 42
-0.0107060778034515
 10
-1949.343254802744
 20
-2188.037128537419
 10
-1949.35031657102
 20
-2188.04721407998
 42
-0.0122723111401236
 10
-1949.485110289221
 20
-2188.230007409474
 10
-1949.485436512773
 20
-2188.230427797281
 42
-0.0141836319635952
 10
-1949.62901811575
 20
-2188.404997555113
 10
-1949.635965871402
 20
-2188.412972555378
 42
-0.0175957477191092
 10
-1949.775872039436
 20
-2188.562593443783
 42
-0.0080466359667753
 10
-1949.923335804467
 20
-2188.704915971935
 10
-1949.969370348984
 20
-2188.747936410025
 42
-0.0269600260396008
 10
-1950.222650594964
 20
-2188.960259668532
 10
-1950.289217731261
 20
-2189.010211083157
 42
-0.017836283975171
 10
-1950.52916222092
 20
-2189.17722900941
 10
-1950.536407191918
 20
-2189.181897521614
 42
-0.0174650732660953
 10
-1950.772743389361
 20
-2189.322758486574
 42
-0.0169240130168372
 10
-1951.018209635223
 20
-2189.447050746354
 10
-1951.064195790777
 20
-2189.468412701919
 42
-0.0318883036846563
 10
-1951.414546646396
 20
-2189.604751011429
 10
-1951.482912181564
 20
-2189.626451631905
 42
-0.0284435909902667
 10
-1951.858962307853
 20
-2189.72266906738
 10
-1951.894120468354
 20
-2189.729562663209
 42
-0.0243909341018974
 10
-1952.20756392927
 20
-2189.775283694238
 10
-1952.257844656044
 20
-2189.78012924114
 42
-0.0196639292924395
 10
-1952.473440233568
 20
-2189.792377526653
 10
-1952.525264304726
 20
-2189.79328078739
 42
-0.0100501510673219
 10
-1952.637687586396
 20
-2189.792980389037
 10
-1952.669347447699
 20
-2189.792259317153
 42
-0.0019752031169077
 10
-1952.718439784422
 20
-2189.790947156942
 10
-1952.721200087645
 20
-2189.790862465115
 42
0.0065378751937213
 10
-1952.764776662399
 20
-2189.790095573901
 42
-0.01679746946534
 10
-1952.808307485335
 20
-2189.788435675374
 10
-1952.812386824593
 20
-2189.78814266448
 42
-0.0081283276285757
 10
-1952.863946622334
 20
-2189.783595670842
 10
-1952.87568619621
 20
-2189.782367753264
 42
-0.0126703440172995
 10
-1952.950404492009
 20
-2189.772632962191
 10
-1952.97319235968
 20
-2189.769074706277
 42
-0.0117852088446078
 10
-1953.092731345497
 20
-2189.747511711123
 10
-1953.148111797275
 20
-2189.736168170885
 42
-0.0251774592303036
 10
-1953.374955836283
 20
-2189.677670161452
 10
-1953.419675026135
 20
-2189.663703342117
 42
-0.0146525199892491
 10
-1953.606068013673
 20
-2189.599436814919
 42
-0.0166929435872412
 10
-1953.788045669798
 20
-2189.523629681865
 10
-1953.792702301072
 20
-2189.52150478125
 42
-0.0191684358433164
 10
-1953.977885932327
 20
-2189.428268697457
 10
-1953.981218518079
 20
-2189.426427449907
 42
-0.0221181781814308
 10
-1954.164528821976
 20
-2189.314293951539
 10
-1954.166878625989
 20
-2189.312709653545
 42
-0.0254984685382973
 10
-1954.343168776375
 20
-2189.180298503575
 10
-1954.36565092407
 20
-2189.161546194644
 42
-0.0292492648840531
 10
-1954.49041986292
 20
-2189.044453394996
 42
-0.0159048957508744
 10
-1954.604259860371
 20
-2188.916433403395
 10
-1954.605578650949
 20
-2188.914851790377
 42
-0.0343813379558445
 10
-1954.708215912577
 20
-2188.772980464604
 10
-1954.739707443936
 20
-2188.722477072514
 42
-0.0369117275705079
 10
-1954.825599945833
 20
-2188.558999831565
 42
-0.019175137990615
 10
-1954.892793331391
 20
-2188.386595225557
 10
-1954.89455665515
 20
-2188.381501880884
 42
-0.037817804222105
 10
-1954.944351373935
 20
-2188.1925611048
 10
-1954.950346669665
 20
-2188.160000486602
 42
-0.0184846046475209
 10
-1954.971063868959
 20
-2188.018247666061
 42
-0.0179866351323958
 10
-1954.981396874033
 20
-2187.875356852972
 10
-1954.981453316478
 20
-2187.873799166367
 42
-0.0085497186108352
 10
-1954.982885597582
 20
-2187.798926001357
 42
-0.0085497186108352
  0
ENDBLK
  5
5E
330
23
100
AcDbEntity
  8
template
390
1D
100
AcDbBlockEnd
  0
BLOCK
  5
5F
330
24
100
AcDbEntity
  8
notes
390
1D
100
AcDbBlockBegin
  2
*D3
 70
     1
 10
0.0
 20
0.0
 30
0.0
  3
*D3
  1
*D3
  0
LINE
  5
60
330
24
100
AcDbEntity
  8
0
  6
Continuous
 62
     0
370
    -2
390
1D
100
AcDbLine
 10
-689.7293474643129
 20
772.4571200900467
 30
0.0
 11
-689.7293474643129
 21
901.4571200900469
 31
0.0
  0
LINE
  5
61
330
24
100
AcDbEntity
  8
0
  6
Continuous
 62
     0
370
    -2
390
1D
100
AcDbLine
 10
-189.7293474643134
 20
772.4571200900469
 30
0.0
 11
-189.7293474643134
 21
901.4571200900469
 31
0.0
  0
LINE
  5
62
330
24
100
AcDbEntity
  8
0
  6
Continuous
 62
     0
370
    -2
390
1D
100
AcDbLine
 10
-689.7293474643129
 20
901.4571200900469
 30
0.0
 11
-189.7293474643134
 21
901.4571200900469
 31
0.0
  0
CIRCLE
  5
63
102
{ACAD_REACTORS
330
64
102
}
330
24
100
AcDbEntity
  8
0
  6
Continuous
 62
     0
370
    -2
390
1D
100
AcDbCircle
 10
-689.7293474643129
 20
901.4571200900469
 30
0.0
 40
4.99969482421875
  0
HATCH
  5
64
330
24
100
AcDbEntity
  8
0
  6
Continuous
 62
     0
370
    -2
390
1D
100
AcDbHatch
 10
0.0
 20
0.0
 30
0.0
210
0.0
220
0.0
230
1.0
  2
SOLID
 70
     1
 71
     1
 91
        1
 92
        1
 93
        1
 72
     2
 10
-689.7293474643129
 20
901.4571200900469
 40
4.99969482421875
 50
0.0
 51
360.0
 73
     0
 97
        1
330
63
 75
     0
 76
     1
 98
        1
 10
0.0
 20
0.0
  0
CIRCLE
  5
65
102
{ACAD_REACTORS
330
66
102
}
330
24
100
AcDbEntity
  8
0
  6
Continuous
 62
     0
370
    -2
390
1D
100
AcDbCircle
 10
-189.7293474643134
 20
901.4571200900469
 30
0.0
 40
4.99969482421875
  0
HATCH
  5
66
330
24
100
AcDbEntity
  8
0
  6
Continuous
 62
     0
370
    -2
390
1D
100
AcDbHatch
 10
0.0
 20
0.0
 30
0.0
210
0.0
220
0.0
230
1.0
  2
SOLID
 70
     1
 71
     1
 91
        1
 92
        1
 93
        1
 72
     2
 10
-189.7293474643134
 20
901.4571200900469
 40
4.99969482421875
 50
0.0
 51
360.0
 73
     0
 97
        1
330
65
 75
     0
 76
     1
 98
        1
 10
0.0
 20
0.0
  0
MTEXT
  5
67
330
24
100
AcDbEntity
  8
0
 62
     0
390
1D
100
AcDbMText
 10
-463.5418491464884
 20
935.334737277547
 30
0.0
 40
24.4326171875
 41
0.0
 46
0.0
 71
     1
 72
     1
  1
500
  7
ＭＳ ゴシック
 73
     1
 44
0.7828267384257843
  0
POINT
  5
68
330
24
100
AcDbEntity
  8
Defpoints
 62
     0
370
     0
390
1D
100
AcDbPoint
 10
-189.7293474643134
 20
747.4571200900469
 30
0.0
  0
POINT
  5
69
330
24
100
AcDbEntity
  8
Defpoints
 62
     0
370
     0
390
1D
100
AcDbPoint
 10
-689.7293474643129
 20
747.4571200900467
 30
0.0
  0
POINT
  5
6A
330
24
100
AcDbEntity
  8
Defpoints
 62
     0
370
     0
390
1D
100
AcDbPoint
 10
-689.7293474643129
 20
901.4571200900469
 30
0.0
  0
ENDBLK
  5
6B
330
24
100
AcDbEntity
  8
notes
390
1D
100
AcDbBlockEnd
  0
BLOCK
  5
6C
330
25
100
AcDbEntity
  8
notes
390
1D
100
AcDbBlockBegin
  2
*D4
 70
     1
 10
0.0
 20
0.0
 30
0.0
  3
*D4
  1
*D4
  0
LINE
  5
6D
330
25
100
AcDbEntity
  8
0
  6
Continuous
 62
     0
370
    -2
390
1D
100
AcDbLine
 10
-249.7293474643134
 20
668.9571200900469
 30
0.0
 11
-249.7293474643134
 21
851.4571200900469
 31
0.0
  0
LINE
  5
6E
330
25
100
AcDbEntity
  8
0
  6
Continuous
 62
     0
370
    -2
390
1D
100
AcDbLine
 10
-189.7293474643134
 20
772.4571200900469
 30
0.0
 11
-189.7293474643134
 21
851.4571200900469
 31
0.0
  0
LINE
  5
6F
330
25
100
AcDbEntity
  8
0
  6
Continuous
 62
     0
370
    -2
390
1D
100
AcDbLine
 10
-249.7293474643134
 20
851.4571200900469
 30
0.0
 11
-189.7293474643134
 21
851.4571200900469
 31
0.0
  0
CIRCLE
  5
70
102
{ACAD_REACTORS
330
71
102
}
330
25
100
AcDbEntity
  8
0
  6
Continuous
 62
     0
370
    -2
390
1D
100
AcDbCircle
 10
-249.7293474643134
 20
851.4571200900469
 30
0.0
 40
4.99969482421875
  0
HATCH
  5
71
330
25
100
AcDbEntity
  8
0
  6
Continuous
 62
     0
370
    -2
390
1D
100
AcDbHatch
 10
0.0
 20
0.0
 30
0.0
210
0.0
220
0.0
230
1.0
  2
SOLID
 70
     1
 71
     1
 91
        1
 92
        1
 93
        1
 72
     2
 10
-249.7293474643134
 20
851.4571200900469
 40
4.99969482421875
 50
0.0
 51
360.0
 73
     0
 97
        1
330
70
 75
     0
 76
     1
 98
        1
 10
0.0
 20
0.0
  0
CIRCLE
  5
72
102
{ACAD_REACTORS
330
73
102
}
330
25
100
AcDbEntity
  8
0
  6
Continuous
 62
     0
370
    -2
390
1D
100
AcDbCircle
 10
-189.7293474643134
 20
851.4571200900469
 30
0.0
 40
4.99969482421875
  0
HATCH
  5
73
330
25
100
AcDbEntity
  8
0
  6
Continuous
 62
     0
370
    -2
390
1D
100
AcDbHatch
 10
0.0
 20
0.0
 30
0.0
210
0.0
220
0.0
230
1.0
  2
SOLID
 70
     1
 71
     1
 91
        1
 92
        1
 93
        1
 72
     2
 10
-189.7293474643134
 20
851.4571200900469
 40
4.99969482421875
 50
0.0
 51
360.0
 73
     0
 97
        1
330
72
 75
     0
 76
     1
 98
        1
 10
0.0
 20
0.0
  0
MTEXT
  5
74
330
25
100
AcDbEntity
  8
0
 62
     0
390
1D
100
AcDbMText
 10
-235.6043474643134
 20
885.334737277547
 30
0.0
 40
24.4326171875
 41
0.0
 46
0.0
 71
     1
 72
     1
  1
60
  7
ＭＳ ゴシック
 73
     1
 44
0.7828267384257843
  0
POINT
  5
75
330
25
100
AcDbEntity
  8
Defpoints
 62
     0
370
     0
390
1D
100
AcDbPoint
 10
-189.7293474643134
 20
747.4571200900469
 30
0.0
  0
POINT
  5
76
330
25
100
AcDbEntity
  8
Defpoints
 62
     0
370
     0
390
1D
100
AcDbPoint
 10
-249.7293474643134
 20
643.9571200900469
 30
0.0
  0
POINT
  5
77
330
25
100
AcDbEntity
  8
Defpoints
 62
     0
370
     0
390
1D
100
AcDbPoint
 10
-249.7293474643134
 20
851.4571200900469
 30
0.0
  0
ENDBLK
  5
78
330
25
100
AcDbEntity
  8
notes
390
1D
100
AcDbBlockEnd
  0
BLOCK
  5
79
330
26
100
AcDbEntity
  8
notes
390
1D
100
AcDbBlockBegin
  2
*D5
 70
     1
 10
0.0
 20
0.0
 30
0.0
  3
*D5
  1
*D5
  0
LINE
  5
7A
330
26
100
AcDbEntity
  8
0
  6
Continuous
 62
     0
370
    -2
390
1D
100
AcDbLine
 10
-168.7293474643134
 20
751.4571200900469
 30
0.0
 11
-89.72934746431338
 21
751.4571200900469
 31
0.0
  0
LINE
  5
7B
330
26
100
AcDbEntity
  8
0
  6
Continuous
 62
     0
370
    -2
390
1D
100
AcDbLine
 10
-168.7293474643134
 20
501.4571200900469
 30
0.0
 11
-89.72934746431338
 21
501.4571200900469
 31
0.0
  0
LINE
  5
7C
330
26
100
AcDbEntity
  8
0
  6
Continuous
 62
     0
370
    -2
390
1D
100
AcDbLine
 10
-89.72934746431338
 20
751.4571200900469
 30
0.0
 11
-89.72934746431338
 21
501.4571200900469
 31
0.0
  0
CIRCLE
  5
7D
102
{ACAD_REACTORS
330
7E
102
}
330
26
100
AcDbEntity
  8
0
  6
Continuous
 62
     0
370
    -2
390
1D
100
AcDbCircle
 10
-89.72934746431338
 20
751.4571200900469
 30
0.0
 40
4.99969482421875
  0
HATCH
  5
7E
330
26
100
AcDbEntity
  8
0
  6
Continuous
 62
     0
370
    -2
390
1D
100
AcDbHatch
 10
0.0
 20
0.0
 30
0.0
210
0.0
220
0.0
230
1.0
  2
SOLID
 70
     1
 71
     1
 91
        1
 92
        1
 93
        1
 72
     2
 10
-89.72934746431338
 20
751.4571200900469
 40
4.99969482421875
 50
0.0
 51
360.0
 73
     0
 97
        1
330
7D
 75
     0
 76
     1
 98
        1
 10
0.0
 20
0.0
  0
CIRCLE
  5
7F
102
{ACAD_REACTORS
330
80
102
}
330
26
100
AcDbEntity
  8
0
  6
Continuous
 62
     0
370
    -2
390
1D
100
AcDbCircle
 10
-89.72934746431338
 20
501.4571200900469
 30
0.0
 40
4.99969482421875
  0
HATCH
  5
80
330
26
100
AcDbEntity
  8
0
  6
Continuous
 62
     0
370
    -2
390
1D
100
AcDbHatch
 10
0.0
 20
0.0
 30
0.0
210
0.0
220
0.0
230
1.0
  2
SOLID
 70
     1
 71
     1
 91
        1
 92
        1
 93
        1
 72
     2
 10
-89.72934746431338
 20
501.4571200900469
 40
4.99969482421875
 50
0.0
 51
360.0
 73
     0
 97
        1
330
7F
 75
     0
 76
     1
 98
        1
 10
0.0
 20
0.0
  0
MTEXT
  5
81
330
26
100
AcDbEntity
  8
0
 62
     0
390
1D
100
AcDbMText
 10
-123.6069646518135
 20
602.6446184078713
 30
0.0
 40
24.4326171875
 41
0.0
 46
0.0
 71
     1
 72
     1
  1
250
  7
ＭＳ ゴシック
 11
0.0
 21
1.0
 31
0.0
 73
     1
 44
0.7828267384257843
  0
POINT
  5
82
330
26
100
AcDbEntity
  8
Defpoints
 62
     0
370
     0
390
1D
100
AcDbPoint
 10
-193.7293474643134
 20
501.4571200900469
 30
0.0
  0
POINT
  5
83
330
26
100
AcDbEntity
  8
Defpoints
 62
     0
370
     0
390
1D
100
AcDbPoint
 10
-193.7293474643134
 20
751.4571200900469
 30
0.0
  0
POINT
  5
84
330
26
100
AcDbEntity
  8
Defpoints
 62
     0
370
     0
390
1D
100
AcDbPoint
 10
-89.72934746431338
 20
751.4571200900469
 30
0.0
  0
ENDBLK
  5
85
330
26
100
AcDbEntity
  8
notes
390
1D
100
AcDbBlockEnd
  0
BLOCK
  5
86
330
27
100
AcDbEntity
  8
notes
390
1D
100
AcDbBlockBegin
  2
*D6
 70
     1
 10
0.0
 20
0.0
 30
0.0
  3
*D6
  1
*D6
  0
LINE
  5
87
330
27
100
AcDbEntity
  8
0
  6
Continuous
 62
     0
370
    -2
390
1D
100
AcDbLine
 10
-289.7293474643134
 20
476.4571200900469
 30
0.0
 11
-289.7293474643134
 21
401.4571200900469
 31
0.0
  0
LINE
  5
88
330
27
100
AcDbEntity
  8
0
  6
Continuous
 62
     0
370
    -2
390
1D
100
AcDbLine
 10
-189.7293474643134
 20
480.4571200900467
 30
0.0
 11
-189.7293474643134
 21
401.4571200900469
 31
0.0
  0
LINE
  5
89
330
27
100
AcDbEntity
  8
0
  6
Continuous
 62
     0
370
    -2
390
1D
100
AcDbLine
 10
-289.7293474643134
 20
401.4571200900469
 30
0.0
 11
-189.7293474643134
 21
401.4571200900469
 31
0.0
  0
CIRCLE
  5
8A
102
{ACAD_REACTORS
330
8B
102
}
330
27
100
AcDbEntity
  8
0
  6
Continuous
 62
     0
370
    -2
390
1D
100
AcDbCircle
 10
-289.7293474643134
 20
401.4571200900469
 30
0.0
 40
4.99969482421875
  0
HATCH
  5
8B
330
27
100
AcDbEntity
  8
0
  6
Continuous
 62
     0
370
    -2
390
1D
100
AcDbHatch
 10
0.0
 20
0.0
 30
0.0
210
0.0
220
0.0
230
1.0
  2
SOLID
 70
     1
 71
     1
 91
        1
 92
        1
 93
        1
 72
     2
 10
-289.7293474643134
 20
401.4571200900469
 40
4.99969482421875
 50
0.0
 51
360.0
 73
     0
 97
        1
330
8A
 75
     0
 76
     1
 98
        1
 10
0.0
 20
0.0
  0
CIRCLE
  5
8C
102
{ACAD_REACTORS
330
8D
102
}
330
27
100
AcDbEntity
  8
0
  6
Continuous
 62
     0
370
    -2
390
1D
100
AcDbCircle
 10
-189.7293474643134
 20
401.4571200900469
 30
0.0
 40
4.99969482421875
  0
HATCH
  5
8D
330
27
100
AcDbEntity
  8
0
  6
Continuous
 62
     0
370
    -2
390
1D
100
AcDbHatch
 10
0.0
 20
0.0
 30
0.0
210
0.0
220
0.0
230
1.0
  2
SOLID
 70
     1
 71
     1
 91
        1
 92
        1
 93
        1
 72
     2
 10
-189.7293474643134
 20
401.4571200900469
 40
4.99969482421875
 50
0.0
 51
360.0
 73
     0
 97
        1
330
8C
 75
     0
 76
     1
 98
        1
 10
0.0
 20
0.0
  0
MTEXT
  5
8E
330
27
100
AcDbEntity
  8
0
 62
     0
390
1D
100
AcDbMText
 10
-263.5418491464889
 20
435.3347372775469
 30
0.0
 40
24.4326171875
 41
0.0
 46
0.0
 71
     1
 72
     1
  1
100
  7
ＭＳ ゴシック
 73
     1
 44
0.7828267384257843
  0
POINT
  5
8F
330
27
100
AcDbEntity
  8
Defpoints
 62
     0
370
     0
390
1D
100
AcDbPoint
 10
-189.7293474643134
 20
505.4571200900467
 30
0.0
  0
POINT
  5
90
330
27
100
AcDbEntity
  8
Defpoints
 62
     0
370
     0
390
1D
100
AcDbPoint
 10
-289.7293474643134
 20
501.4571200900469
 30
0.0
  0
POINT
  5
91
330
27
100
AcDbEntity
  8
Defpoints
 62
     0
370
     0
390
1D
100
AcDbPoint
 10
-289.7293474643134
 20
401.4571200900469
 30
0.0
  0
ENDBLK
  5
92
330
27
100
AcDbEntity
  8
notes
390
1D
100
AcDbBlockEnd
  0
BLOCK
  5
93
330
28
100
AcDbEntity
  8
notes
390
1D
100
AcDbBlockBegin
  2
*D7
 70
     1
 10
0.0
 20
0.0
 30
0.0
  3
*D7
  1
*D7
  0
LINE
  5
94
330
28
100
AcDbEntity
  8
0
  6
Continuous
 62
     0
370
    -2
390
1D
100
AcDbLine
 10
-289.7293474643134
 20
476.4571200900469
 30
0.0
 11
-289.7293474643134
 21
401.4571200900469
 31
0.0
  0
LINE
  5
95
330
28
100
AcDbEntity
  8
0
  6
Continuous
 62
     0
370
    -2
390
1D
100
AcDbLine
 10
-664.7293474643134
 20
476.4571200900469
 30
0.0
 11
-664.7293474643134
 21
401.4571200900469
 31
0.0
  0
LINE
  5
96
330
28
100
AcDbEntity
  8
0
  6
Continuous
 62
     0
370
    -2
390
1D
100
AcDbLine
 10
-289.7293474643134
 20
401.4571200900469
 30
0.0
 11
-664.7293474643134
 21
401.4571200900469
 31
0.0
  0
CIRCLE
  5
97
102
{ACAD_REACTORS
330
98
102
}
330
28
100
AcDbEntity
  8
0
  6
Continuous
 62
     0
370
    -2
390
1D
100
AcDbCircle
 10
-289.7293474643134
 20
401.4571200900469
 30
0.0
 40
4.99969482421875
  0
HATCH
  5
98
330
28
100
AcDbEntity
  8
0
  6
Continuous
 62
     0
370
    -2
390
1D
100
AcDbHatch
 10
0.0
 20
0.0
 30
0.0
210
0.0
220
0.0
230
1.0
  2
SOLID
 70
     1
 71
     1
 91
        1
 92
        1
 93
        1
 72
     2
 10
-289.7293474643134
 20
401.4571200900469
 40
4.99969482421875
 50
0.0
 51
360.0
 73
     0
 97
        1
330
97
 75
     0
 76
     1
 98
        1
 10
0.0
 20
0.0
  0
CIRCLE
  5
99
102
{ACAD_REACTORS
330
9A
102
}
330
28
100
AcDbEntity
  8
0
  6
Continuous
 62
     0
370
    -2
390
1D
100
AcDbCircle
 10
-664.7293474643134
 20
401.4571200900469
 30
0.0
 40
4.99969482421875
  0
HATCH
  5
9A
330
28
100
AcDbEntity
  8
0
  6
Continuous
 62
     0
370
    -2
390
1D
100
AcDbHatch
 10
0.0
 20
0.0
 30
0.0
210
0.0
220
0.0
230
1.0
  2
SOLID
 70
     1
 71
     1
 91
        1
 92
        1
 93
        1
 72
     2
 10
-664.7293474643134
 20
401.4571200900469
 40
4.99969482421875
 50
0.0
 51
360.0
 73
     0
 97
        1
330
99
 75
     0
 76
     1
 98
        1
 10
0.0
 20
0.0
  0
MTEXT
  5
9B
330
28
100
AcDbEntity
  8
0
 62
     0
390
1D
100
AcDbMText
 10
-501.0418491464889
 20
435.3347372775469
 30
0.0
 40
24.4326171875
 41
0.0
 46
0.0
 71
     1
 72
     1
  1
375
  7
ＭＳ ゴシック
 73
     1
 44
0.7828267384257843
  0
POINT
  5
9C
330
28
100
AcDbEntity
  8
Defpoints
 62
     0
370
     0
390
1D
100
AcDbPoint
 10
-664.7293474643134
 20
501.4571200900469
 30
0.0
  0
POINT
  5
9D
330
28
100
AcDbEntity
  8
Defpoints
 62
     0
370
     0
390
1D
100
AcDbPoint
 10
-289.7293474643134
 20
501.4571200900469
 30
0.0
  0
POINT
  5
9E
330
28
100
AcDbEntity
  8
Defpoints
 62
     0
370
     0
390
1D
100
AcDbPoint
 10
-289.7293474643134
 20
401.4571200900469
 30
0.0
  0
ENDBLK
  5
9F
330
28
100
AcDbEntity
  8
notes
390
1D
100
AcDbBlockEnd
  0
BLOCK
  5
A0
330
29
100
AcDbEntity
  8
notes
390
1D
100
AcDbBlockBegin
  2
*D8
 70
     1
 10
0.0
 20
0.0
 30
0.0
  3
*D8
  1
*D8
  0
LINE
  5
A1
330
29
100
AcDbEntity
  8
0
  6
Continuous
 62
     0
370
    -2
390
1D
100
AcDbLine
 10
-714.7293474643129
 20
726.4571200900465
 30
0.0
 11
-789.7293474643129
 21
726.4571200900465
 31
0.0
  0
LINE
  5
A2
330
29
100
AcDbEntity
  8
0
  6
Continuous
 62
     0
370
    -2
390
1D
100
AcDbLine
 10
-714.7293474643129
 20
526.4571200900469
 30
0.0
 11
-789.7293474643129
 21
526.4571200900469
 31
0.0
  0
LINE
  5
A3
330
29
100
AcDbEntity
  8
0
  6
Continuous
 62
     0
370
    -2
390
1D
100
AcDbLine
 10
-789.7293474643129
 20
726.4571200900465
 30
0.0
 11
-789.7293474643129
 21
526.4571200900469
 31
0.0
  0
CIRCLE
  5
A4
102
{ACAD_REACTORS
330
A5
102
}
330
29
100
AcDbEntity
  8
0
  6
Continuous
 62
     0
370
    -2
390
1D
100
AcDbCircle
 10
-789.7293474643129
 20
726.4571200900465
 30
0.0
 40
4.99969482421875
  0
HATCH
  5
A5
330
29
100
AcDbEntity
  8
0
  6
Continuous
 62
     0
370
    -2
390
1D
100
AcDbHatch
 10
0.0
 20
0.0
 30
0.0
210
0.0
220
0.0
230
1.0
  2
SOLID
 70
     1
 71
     1
 91
        1
 92
        1
 93
        1
 72
     2
 10
-789.7293474643129
 20
726.4571200900465
 40
4.99969482421875
 50
0.0
 51
360.0
 73
     0
 97
        1
330
A4
 75
     0
 76
     1
 98
        1
 10
0.0
 20
0.0
  0
CIRCLE
  5
A6
102
{ACAD_REACTORS
330
A7
102
}
330
29
100
AcDbEntity
  8
0
  6
Continuous
 62
     0
370
    -2
390
1D
100
AcDbCircle
 10
-789.7293474643129
 20
526.4571200900469
 30
0.0
 40
4.99969482421875
  0
HATCH
  5
A7
330
29
100
AcDbEntity
  8
0
  6
Continuous
 62
     0
370
    -2
390
1D
100
AcDbHatch
 10
0.0
 20
0.0
 30
0.0
210
0.0
220
0.0
230
1.0
  2
SOLID
 70
     1
 71
     1
 91
        1
 92
        1
 93
        1
 72
     2
 10
-789.7293474643129
 20
526.4571200900469
 40
4.99969482421875
 50
0.0
 51
360.0
 73
     0
 97
        1
330
A6
 75
     0
 76
     1
 98
        1
 10
0.0
 20
0.0
  0
MTEXT
  5
A8
330
29
100
AcDbEntity
  8
0
 62
     0
390
1D
100
AcDbMText
 10
-823.6069646518131
 20
602.6446184078711
 30
0.0
 40
24.4326171875
 41
0.0
 46
0.0
 71
     1
 72
     1
  1
200
  7
ＭＳ ゴシック
 11
0.0
 21
1.0
 31
0.0
 73
     1
 44
0.7828267384257843
  0
POINT
  5
A9
330
29
100
AcDbEntity
  8
Defpoints
 62
     0
370
     0
390
1D
100
AcDbPoint
 10
-689.7293474643129
 20
526.4571200900469
 30
0.0
  0
POINT
  5
AA
330
29
100
AcDbEntity
  8
Defpoints
 62
     0
370
     0
390
1D
100
AcDbPoint
 10
-689.7293474643129
 20
726.4571200900465
 30
0.0
  0
POINT
  5
AB
330
29
100
AcDbEntity
  8
Defpoints
 62
     0
370
     0
390
1D
100
AcDbPoint
 10
-789.7293474643129
 20
726.4571200900465
 30
0.0
  0
ENDBLK
  5
AC
330
29
100
AcDbEntity
  8
notes
390
1D
100
AcDbBlockEnd
  0
BLOCK
  5
AD
330
2A
100
AcDbEntity
  8
notes
390
1D
100
AcDbBlockBegin
  2
*D9
 70
     1
 10
0.0
 20
0.0
 30
0.0
  3
*D9
  1
*D9
  0
LINE
  5
AE
330
2A
100
AcDbEntity
  8
0
  6
Continuous
 62
     0
370
    -2
390
1D
100
AcDbLine
 10
-189.7293474643134
 20
-616.3171271402439
 30
0.0
 11
-189.7293474643134
 21
-693.3171271402439
 31
0.0
  0
LINE
  5
AF
330
2A
100
AcDbEntity
  8
0
  6
Continuous
 62
     0
370
    -2
390
1D
100
AcDbLine
 10
-474.7293474643134
 20
-618.3171271402439
 30
0.0
 11
-474.7293474643134
 21
-693.3171271402439
 31
0.0
  0
LINE
  5
B0
330
2A
100
AcDbEntity
  8
0
  6
Continuous
 62
     0
370
    -2
390
1D
100
AcDbLine
 10
-189.7293474643134
 20
-693.3171271402439
 30
0.0
 11
-474.7293474643134
 21
-693.3171271402439
 31
0.0
  0
CIRCLE
  5
B1
102
{ACAD_REACTORS
330
B2
102
}
330
2A
100
AcDbEntity
  8
0
  6
Continuous
 62
     0
370
    -2
390
1D
100
AcDbCircle
 10
-189.7293474643134
 20
-693.3171271402439
 30
0.0
 40
4.99969482421875
  0
HATCH
  5
B2
330
2A
100
AcDbEntity
  8
0
  6
Continuous
 62
     0
370
    -2
390
1D
100
AcDbHatch
 10
0.0
 20
0.0
 30
0.0
210
0.0
220
0.0
230
1.0
  2
SOLID
 70
     1
 71
     1
 91
        1
 92
        1
 93
        1
 72
     2
 10
-189.7293474643134
 20
-693.3171271402439
 40
4.99969482421875
 50
0.0
 51
360.0
 73
     0
 97
        1
330
B1
 75
     0
 76
     1
 98
        1
 10
0.0
 20
0.0
  0
CIRCLE
  5
B3
102
{ACAD_REACTORS
330
B4
102
}
330
2A
100
AcDbEntity
  8
0
  6
Continuous
 62
     0
370
    -2
390
1D
100
AcDbCircle
 10
-474.7293474643134
 20
-693.3171271402439
 30
0.0
 40
4.99969482421875
  0
HATCH
  5
B4
330
2A
100
AcDbEntity
  8
0
  6
Continuous
 62
     0
370
    -2
390
1D
100
AcDbHatch
 10
0.0
 20
0.0
 30
0.0
210
0.0
220
0.0
230
1.0
  2
SOLID
 70
     1
 71
     1
 91
        1
 92
        1
 93
        1
 72
     2
 10
-474.7293474643134
 20
-693.3171271402439
 40
4.99969482421875
 50
0.0
 51
360.0
 73
     0
 97
        1
330
B3
 75
     0
 76
     1
 98
        1
 10
0.0
 20
0.0
  0
MTEXT
  5
B5
330
2A
100
AcDbEntity
  8
0
 62
     0
390
1D
100
AcDbMText
 10
-363.5303677124548
 20
-659.439509952744
 30
0.0
 40
24.4326171875
 41
0.0
 46
0.0
 71
     1
 72
     1
  1
285
  7
ＭＳ ゴシック
 73
     1
 44
0.7828267384257843
  0
POINT
  5
B6
330
2A
100
AcDbEntity
  8
Defpoints
 62
     0
370
     0
390
1D
100
AcDbPoint
 10
-474.7293474643134
 20
-593.3171271402439
 30
0.0
  0
POINT
  5
B7
330
2A
100
AcDbEntity
  8
Defpoints
 62
     0
370
     0
390
1D
100
AcDbPoint
 10
-189.7293474643134
 20
-591.3171271402439
 30
0.0
  0
POINT
  5
B8
330
2A
100
AcDbEntity
  8
Defpoints
 62
     0
370
     0
390
1D
100
AcDbPoint
 10
-189.7293474643134
 20
-693.3171271402439
 30
0.0
  0
ENDBLK
  5
B9
330
2A
100
AcDbEntity
  8
notes
390
1D
100
AcDbBlockEnd
  0
BLOCK
  5
BA
330
2B
100
AcDbEntity
  8
notes
390
1D
100
AcDbBlockBegin
  2
*D10
 70
     1
 10
0.0
 20
0.0
 30
0.0
  3
*D10
  1
*D10
  0
LINE
  5
BB
330
2B
100
AcDbEntity
  8
0
  6
Continuous
 62
     0
370
    -2
390
1D
100
AcDbLine
 10
338.9872047980907
 20
-563.3599569335033
 30
0.0
 11
338.9872047980907
 21
-693.3171271402441
 31
0.0
  0
LINE
  5
BC
330
2B
100
AcDbEntity
  8
0
  6
Continuous
 62
     0
370
    -2
390
1D
100
AcDbLine
 10
453.9872047980907
 20
-563.3599569335033
 30
0.0
 11
453.9872047980907
 21
-693.3171271402441
 31
0.0
  0
LINE
  5
BD
330
2B
100
AcDbEntity
  8
0
  6
Continuous
 62
     0
370
    -2
390
1D
100
AcDbLine
 10
338.9872047980907
 20
-693.3171271402441
 30
0.0
 11
453.9872047980907
 21
-693.3171271402441
 31
0.0
  0
CIRCLE
  5
BE
102
{ACAD_REACTORS
330
BF
102
}
330
2B
100
AcDbEntity
  8
0
  6
Continuous
 62
     0
370
    -2
390
1D
100
AcDbCircle
 10
338.9872047980907
 20
-693.3171271402441
 30
0.0
 40
4.99969482421875
  0
HATCH
  5
BF
330
2B
100
AcDbEntity
  8
0
  6
Continuous
 62
     0
370
    -2
390
1D
100
AcDbHatch
 10
0.0
 20
0.0
 30
0.0
210
0.0
220
0.0
230
1.0
  2
SOLID
 70
     1
 71
     1
 91
        1
 92
        1
 93
        1
 72
     2
 10
338.9872047980907
 20
-693.3171271402441
 40
4.99969482421875
 50
0.0
 51
360.0
 73
     0
 97
        1
330
BE
 75
     0
 76
     1
 98
        1
 10
0.0
 20
0.0
  0
CIRCLE
  5
C0
102
{ACAD_REACTORS
330
C1
102
}
330
2B
100
AcDbEntity
  8
0
  6
Continuous
 62
     0
370
    -2
390
1D
100
AcDbCircle
 10
453.9872047980907
 20
-693.3171271402441
 30
0.0
 40
4.99969482421875
  0
HATCH
  5
C1
330
2B
100
AcDbEntity
  8
0
  6
Continuous
 62
     0
370
    -2
390
1D
100
AcDbHatch
 10
0.0
 20
0.0
 30
0.0
210
0.0
220
0.0
230
1.0
  2
SOLID
 70
     1
 71
     1
 91
        1
 92
        1
 93
        1
 72
     2
 10
453.9872047980907
 20
-693.3171271402441
 40
4.99969482421875
 50
0.0
 51
360.0
 73
     0
 97
        1
330
C0
 75
     0
 76
     1
 98
        1
 10
0.0
 20
0.0
  0
MTEXT
  5
C2
330
2B
100
AcDbEntity
  8
0
 62
     0
390
1D
100
AcDbMText
 10
372.6747031159152
 20
-659.4395099527442
 30
0.0
 40
24.4326171875
 41
0.0
 46
0.0
 71
     1
 72
     1
  1
115
  7
ＭＳ ゴシック
 73
     1
 44
0.7828267384257843
  0
POINT
  5
C3
330
2B
100
AcDbEntity
  8
Defpoints
 62
     0
370
     0
390
1D
100
AcDbPoint
 10
453.9872047980907
 20
-538.3599569335033
 30
0.0
  0
POINT
  5
C4
330
2B
100
AcDbEntity
  8
Defpoints
 62
     0
370
     0
390
1D
100
AcDbPoint
 10
338.9872047980907
 20
-538.3599569335033
 30
0.0
  0
POINT
  5
C5
330
2B
100
AcDbEntity
  8
Defpoints
 62
     0
370
     0
390
1D
100
AcDbPoint
 10
338.9872047980907
 20
-693.3171271402441
 30
0.0
  0
ENDBLK
  5
C6
330
2B
100
AcDbEntity
  8
notes
390
1D
100
AcDbBlockEnd
  0
BLOCK
  5
C7
330
2C
100
AcDbEntity
  8
notes
390
1D
100
AcDbBlockBegin
  2
*D11
 70
     1
 10
0.0
 20
0.0
 30
0.0
  3
*D11
  1
*D11
  0
LINE
  5
C8
330
2C
100
AcDbEntity
  8
0
  6
Continuous
 62
     0
370
    -2
390
1D
100
AcDbLine
 10
542.4872047980912
 20
-463.3171271402443
 30
0.0
 11
621.4872047980912
 21
-463.3171271402443
 31
0.0
  0
LINE
  5
C9
330
2C
100
AcDbEntity
  8
0
  6
Continuous
 62
     0
370
    -2
390
1D
100
AcDbLine
 10
499.2795128033354
 20
-518.3171271402439
 30
0.0
 11
621.4872047980912
 21
-518.3171271402439
 31
0.0
  0
LINE
  5
CA
330
2C
100
AcDbEntity
  8
0
  6
Continuous
 62
     0
370
    -2
390
1D
100
AcDbLine
 10
621.4872047980912
 20
-463.3171271402443
 30
0.0
 11
621.4872047980912
 21
-518.3171271402439
 31
0.0
  0
CIRCLE
  5
CB
102
{ACAD_REACTORS
330
CC
102
}
330
2C
100
AcDbEntity
  8
0
  6
Continuous
 62
     0
370
    -2
390
1D
100
AcDbCircle
 10
621.4872047980912
 20
-463.3171271402443
 30
0.0
 40
4.99969482421875
  0
HATCH
  5
CC
330
2C
100
AcDbEntity
  8
0
  6
Continuous
 62
     0
370
    -2
390
1D
100
AcDbHatch
 10
0.0
 20
0.0
 30
0.0
210
0.0
220
0.0
230
1.0
  2
SOLID
 70
     1
 71
     1
 91
        1
 92
        1
 93
        1
 72
     2
 10
621.4872047980912
 20
-463.3171271402443
 40
4.99969482421875
 50
0.0
 51
360.0
 73
     0
 97
        1
330
CB
 75
     0
 76
     1
 98
        1
 10
0.0
 20
0.0
  0
CIRCLE
  5
CD
102
{ACAD_REACTORS
330
CE
102
}
330
2C
100
AcDbEntity
  8
0
  6
Continuous
 62
     0
370
    -2
390
1D
100
AcDbCircle
 10
621.4872047980912
 20
-518.3171271402439
 30
0.0
 40
4.99969482421875
  0
HATCH
  5
CE
330
2C
100
AcDbEntity
  8
0
  6
Continuous
 62
     0
370
    -2
390
1D
100
AcDbHatch
 10
0.0
 20
0.0
 30
0.0
210
0.0
220
0.0
230
1.0
  2
SOLID
 70
     1
 71
     1
 91
        1
 92
        1
 93
        1
 72
     2
 10
621.4872047980912
 20
-518.3171271402439
 40
4.99969482421875
 50
0.0
 51
360.0
 73
     0
 97
        1
330
CD
 75
     0
 76
     1
 98
        1
 10
0.0
 20
0.0
  0
MTEXT
  5
CF
330
2C
100
AcDbEntity
  8
0
 62
     0
390
1D
100
AcDbMText
 10
587.609587610591
 20
-506.6921271402441
 30
0.0
 40
24.4326171875
 41
0.0
 46
0.0
 71
     1
 72
     1
  1
55
  7
ＭＳ ゴシック
 11
0.0
 21
1.0
 31
0.0
 73
     1
 44
0.7828267384257843
  0
POINT
  5
D0
330
2C
100
AcDbEntity
  8
Defpoints
 62
     0
370
     0
390
1D
100
AcDbPoint
 10
474.2795128033354
 20
-518.3171271402439
 30
0.0
  0
POINT
  5
D1
330
2C
100
AcDbEntity
  8
Defpoints
 62
     0
370
     0
390
1D
100
AcDbPoint
 10
517.4872047980912
 20
-463.3171271402443
 30
0.0
  0
POINT
  5
D2
330
2C
100
AcDbEntity
  8
Defpoints
 62
     0
370
     0
390
1D
100
AcDbPoint
 10
621.4872047980912
 20
-463.3171271402443
 30
0.0
  0
ENDBLK
  5
D3
330
2C
100
AcDbEntity
  8
notes
390
1D
100
AcDbBlockEnd
  0
BLOCK
  5
D4
330
2D
100
AcDbEntity
  8
notes
390
1D
100
AcDbBlockBegin
  2
*D12
 70
     1
 10
0.0
 20
0.0
 30
0.0
  3
*D12
  1
*D12
  0
LINE
  5
D5
330
2D
100
AcDbEntity
  8
0
  6
Continuous
 62
     0
370
    -2
390
1D
100
AcDbLine
 10
-168.7293474643134
 20
-463.3171271402439
 30
0.0
 11
-75.71786603027931
 21
-463.3171271402439
 31
0.0
  0
LINE
  5
D6
330
2D
100
AcDbEntity
  8
0
  6
Continuous
 62
     0
370
    -2
390
1D
100
AcDbLine
 10
-194.7293474643134
 20
-513.3171271402439
 30
0.0
 11
-75.71786603027931
 21
-513.3171271402439
 31
0.0
  0
LINE
  5
D7
330
2D
100
AcDbEntity
  8
0
  6
Continuous
 62
     0
370
    -2
390
1D
100
AcDbLine
 10
-75.71786603027931
 20
-463.3171271402439
 30
0.0
 11
-75.71786603027931
 21
-513.3171271402439
 31
0.0
  0
CIRCLE
  5
D8
102
{ACAD_REACTORS
330
D9
102
}
330
2D
100
AcDbEntity
  8
0
  6
Continuous
 62
     0
370
    -2
390
1D
100
AcDbCircle
 10
-75.71786603027931
 20
-463.3171271402439
 30
0.0
 40
4.99969482421875
  0
HATCH
  5
D9
330
2D
100
AcDbEntity
  8
0
  6
Continuous
 62
     0
370
    -2
390
1D
100
AcDbHatch
 10
0.0
 20
0.0
 30
0.0
210
0.0
220
0.0
230
1.0
  2
SOLID
 70
     1
 71
     1
 91
        1
 92
        1
 93
        1
 72
     2
 10
-75.71786603027931
 20
-463.3171271402439
 40
4.99969482421875
 50
0.0
 51
360.0
 73
     0
 97
        1
330
D8
 75
     0
 76
     1
 98
        1
 10
0.0
 20
0.0
  0
CIRCLE
  5
DA
102
{ACAD_REACTORS
330
DB
102
}
330
2D
100
AcDbEntity
  8
0
  6
Continuous
 62
     0
370
    -2
390
1D
100
AcDbCircle
 10
-75.71786603027931
 20
-513.3171271402439
 30
0.0
 40
4.99969482421875
  0
HATCH
  5
DB
330
2D
100
AcDbEntity
  8
0
  6
Continuous
 62
     0
370
    -2
390
1D
100
AcDbHatch
 10
0.0
 20
0.0
 30
0.0
210
0.0
220
0.0
230
1.0
  2
SOLID
 70
     1
 71
     1
 91
        1
 92
        1
 93
        1
 72
     2
 10
-75.71786603027931
 20
-513.3171271402439
 40
4.99969482421875
 50
0.0
 51
360.0
 73
     0
 97
        1
330
DA
 75
     0
 76
     1
 98
        1
 10
0.0
 20
0.0
  0
MTEXT
  5
DC
330
2D
100
AcDbEntity
  8
0
 62
     0
390
1D
100
AcDbMText
 10
-109.5954832177795
 20
-504.1921271402439
 30
0.0
 40
24.4326171875
 41
0.0
 46
0.0
 71
     1
 72
     1
  1
50
  7
ＭＳ ゴシック
 11
0.0
 21
1.0
 31
0.0
 73
     1
 44
0.7828267384257843
  0
POINT
  5
DD
330
2D
100
AcDbEntity
  8
Defpoints
 62
     0
370
     0
390
1D
100
AcDbPoint
 10
-219.7293474643134
 20
-513.3171271402439
 30
0.0
  0
POINT
  5
DE
330
2D
100
AcDbEntity
  8
Defpoints
 62
     0
370
     0
390
1D
100
AcDbPoint
 10
-193.7293474643134
 20
-463.3171271402439
 30
0.0
  0
POINT
  5
DF
330
2D
100
AcDbEntity
  8
Defpoints
 62
     0
370
     0
390
1D
100
AcDbPoint
 10
-75.71786603027931
 20
-463.3171271402439
 30
0.0
  0
ENDBLK
  5
E0
330
2D
100
AcDbEntity
  8
notes
390
1D
100
AcDbBlockEnd
  0
BLOCK
  5
E1
330
2E
100
AcDbEntity
  8
notes
390
1D
100
AcDbBlockBegin
  2
*D13
 70
     1
 10
0.0
 20
0.0
 30
0.0
  3
*D13
  1
*D13
  0
LINE
  5
E2
330
2E
100
AcDbEntity
  8
0
  6
Continuous
 62
     0
370
    -2
390
1D
100
AcDbLine
 10
-189.7293474643134
 20
-442.3171271402439
 30
0.0
 11
-189.7293474643134
 21
-363.3171271402439
 31
0.0
  0
LINE
  5
E3
330
2E
100
AcDbEntity
  8
0
  6
Continuous
 62
     0
370
    -2
390
1D
100
AcDbLine
 10
-239.7293474643134
 20
-468.3171271402439
 30
0.0
 11
-239.7293474643134
 21
-363.3171271402439
 31
0.0
  0
LINE
  5
E4
330
2E
100
AcDbEntity
  8
0
  6
Continuous
 62
     0
370
    -2
390
1D
100
AcDbLine
 10
-189.7293474643134
 20
-363.3171271402439
 30
0.0
 11
-239.7293474643134
 21
-363.3171271402439
 31
0.0
  0
CIRCLE
  5
E5
102
{ACAD_REACTORS
330
E6
102
}
330
2E
100
AcDbEntity
  8
0
  6
Continuous
 62
     0
370
    -2
390
1D
100
AcDbCircle
 10
-189.7293474643134
 20
-363.3171271402439
 30
0.0
 40
4.99969482421875
  0
HATCH
  5
E6
330
2E
100
AcDbEntity
  8
0
  6
Continuous
 62
     0
370
    -2
390
1D
100
AcDbHatch
 10
0.0
 20
0.0
 30
0.0
210
0.0
220
0.0
230
1.0
  2
SOLID
 70
     1
 71
     1
 91
        1
 92
        1
 93
        1
 72
     2
 10
-189.7293474643134
 20
-363.3171271402439
 40
4.99969482421875
 50
0.0
 51
360.0
 73
     0
 97
        1
330
E5
 75
     0
 76
     1
 98
        1
 10
0.0
 20
0.0
  0
CIRCLE
  5
E7
102
{ACAD_REACTORS
330
E8
102
}
330
2E
100
AcDbEntity
  8
0
  6
Continuous
 62
     0
370
    -2
390
1D
100
AcDbCircle
 10
-239.7293474643134
 20
-363.3171271402439
 30
0.0
 40
4.99969482421875
  0
HATCH
  5
E8
330
2E
100
AcDbEntity
  8
0
  6
Continuous
 62
     0
370
    -2
390
1D
100
AcDbHatch
 10
0.0
 20
0.0
 30
0.0
210
0.0
220
0.0
230
1.0
  2
SOLID
 70
     1
 71
     1
 91
        1
 92
        1
 93
        1
 72
     2
 10
-239.7293474643134
 20
-363.3171271402439
 40
4.99969482421875
 50
0.0
 51
360.0
 73
     0
 97
        1
330
E7
 75
     0
 76
     1
 98
        1
 10
0.0
 20
0.0
  0
MTEXT
  5
E9
330
2E
100
AcDbEntity
  8
0
 62
     0
390
1D
100
AcDbMText
 10
-230.6043474643134
 20
-329.4395099527439
 30
0.0
 40
24.4326171875
 41
0.0
 46
0.0
 71
     1
 72
     1
  1
50
  7
ＭＳ ゴシック
 73
     1
 44
0.7828267384257843
  0
POINT
  5
EA
330
2E
100
AcDbEntity
  8
Defpoints
 62
     0
370
     0
390
1D
100
AcDbPoint
 10
-239.7293474643134
 20
-493.3171271402439
 30
0.0
  0
POINT
  5
EB
330
2E
100
AcDbEntity
  8
Defpoints
 62
     0
370
     0
390
1D
100
AcDbPoint
 10
-189.7293474643134
 20
-467.3171271402439
 30
0.0
  0
POINT
  5
EC
330
2E
100
AcDbEntity
  8
Defpoints
 62
     0
370
     0
390
1D
100
AcDbPoint
 10
-189.7293474643134
 20
-363.3171271402439
 30
0.0
  0
ENDBLK
  5
ED
330
2E
100
AcDbEntity
  8
notes
390
1D
100
AcDbBlockEnd
  0
BLOCK
  5
EE
330
2F
100
AcDbEntity
  8
notes
390
1D
100
AcDbBlockBegin
  2
*D14
 70
     1
 10
0.0
 20
0.0
 30
0.0
  3
*D14
  1
*D14
  0
LINE
  5
EF
330
2F
100
AcDbEntity
  8
0
  6
Continuous
 62
     0
370
    -2
390
1D
100
AcDbLine
 10
-710.7293474643134
 20
-463.3171271402439
 30
0.0
 11
-789.7293474643134
 21
-463.3171271402439
 31
0.0
  0
LINE
  5
F0
330
2F
100
AcDbEntity
  8
0
  6
Continuous
 62
     0
370
    -2
390
1D
100
AcDbLine
 10
-694.7293474643134
 20
-533.3171271402439
 30
0.0
 11
-789.7293474643134
 21
-533.3171271402439
 31
0.0
  0
LINE
  5
F1
330
2F
100
AcDbEntity
  8
0
  6
Continuous
 62
     0
370
    -2
390
1D
100
AcDbLine
 10
-789.7293474643134
 20
-463.3171271402439
 30
0.0
 11
-789.7293474643134
 21
-533.3171271402439
 31
0.0
  0
CIRCLE
  5
F2
102
{ACAD_REACTORS
330
F3
102
}
330
2F
100
AcDbEntity
  8
0
  6
Continuous
 62
     0
370
    -2
390
1D
100
AcDbCircle
 10
-789.7293474643134
 20
-463.3171271402439
 30
0.0
 40
4.99969482421875
  0
HATCH
  5
F3
330
2F
100
AcDbEntity
  8
0
  6
Continuous
 62
     0
370
    -2
390
1D
100
AcDbHatch
 10
0.0
 20
0.0
 30
0.0
210
0.0
220
0.0
230
1.0
  2
SOLID
 70
     1
 71
     1
 91
        1
 92
        1
 93
        1
 72
     2
 10
-789.7293474643134
 20
-463.3171271402439
 40
4.99969482421875
 50
0.0
 51
360.0
 73
     0
 97
        1
330
F2
 75
     0
 76
     1
 98
        1
 10
0.0
 20
0.0
  0
CIRCLE
  5
F4
102
{ACAD_REACTORS
330
F5
102
}
330
2F
100
AcDbEntity
  8
0
  6
Continuous
 62
     0
370
    -2
390
1D
100
AcDbCircle
 10
-789.7293474643134
 20
-533.3171271402439
 30
0.0
 40
4.99969482421875
  0
HATCH
  5
F5
330
2F
100
AcDbEntity
  8
0
  6
Continuous
 62
     0
370
    -2
390
1D
100
AcDbHatch
 10
0.0
 20
0.0
 30
0.0
210
0.0
220
0.0
230
1.0
  2
SOLID
 70
     1
 71
     1
 91
        1
 92
        1
 93
        1
 72
     2
 10
-789.7293474643134
 20
-533.3171271402439
 40
4.99969482421875
 50
0.0
 51
360.0
 73
     0
 97
        1
330
F4
 75
     0
 76
     1
 98
        1
 10
0.0
 20
0.0
  0
MTEXT
  5
F6
330
2F
100
AcDbEntity
  8
0
 62
     0
390
1D
100
AcDbMText
 10
-823.6069646518135
 20
-514.1921271402439
 30
0.0
 40
24.4326171875
 41
0.0
 46
0.0
 71
     1
 72
     1
  1
70
  7
ＭＳ ゴシック
 11
0.0
 21
1.0
 31
0.0
 73
     1
 44
0.7828267384257843
  0
POINT
  5
F7
330
2F
100
AcDbEntity
  8
Defpoints
 62
     0
370
     0
390
1D
100
AcDbPoint
 10
-669.7293474643134
 20
-533.3171271402439
 30
0.0
  0
POINT
  5
F8
330
2F
100
AcDbEntity
  8
Defpoints
 62
     0
370
     0
390
1D
100
AcDbPoint
 10
-685.7293474643134
 20
-463.3171271402439
 30
0.0
  0
POINT
  5
F9
330
2F
100
AcDbEntity
  8
Defpoints
 62
     0
370
     0
390
1D
100
AcDbPoint
 10
-789.7293474643134
 20
-463.3171271402439
 30
0.0
  0
ENDBLK
  5
FA
330
2F
100
AcDbEntity
  8
notes
390
1D
100
AcDbBlockEnd
  0
BLOCK
  5
FB
330
30
100
AcDbEntity
  8
notes
390
1D
100
AcDbBlockBegin
  2
*D15
 70
     1
 10
0.0
 20
0.0
 30
0.0
  3
*D15
  1
*D15
  0
LINE
  5
FC
330
30
100
AcDbEntity
  8
0
  6
Continuous
 62
     0
370
    -2
390
1D
100
AcDbLine
 10
-239.7293474643134
 20
-468.3171271402439
 30
0.0
 11
-239.7293474643134
 21
-363.3171271402439
 31
0.0
  0
LINE
  5
FD
330
30
100
AcDbEntity
  8
0
  6
Continuous
 62
     0
370
    -2
390
1D
100
AcDbLine
 10
-649.7293474643134
 20
-488.3171271402439
 30
0.0
 11
-649.7293474643134
 21
-363.3171271402439
 31
0.0
  0
LINE
  5
FE
330
30
100
AcDbEntity
  8
0
  6
Continuous
 62
     0
370
    -2
390
1D
100
AcDbLine
 10
-239.7293474643134
 20
-363.3171271402439
 30
0.0
 11
-649.7293474643134
 21
-363.3171271402439
 31
0.0
  0
CIRCLE
  5
FF
102
{ACAD_REACTORS
330
100
102
}
330
30
100
AcDbEntity
  8
0
  6
Continuous
 62
     0
370
    -2
390
1D
100
AcDbCircle
 10
-239.7293474643134
 20
-363.3171271402439
 30
0.0
 40
4.99969482421875
  0
HATCH
  5
100
330
30
100
AcDbEntity
  8
0
  6
Continuous
 62
     0
370
    -2
390
1D
100
AcDbHatch
 10
0.0
 20
0.0
 30
0.0
210
0.0
220
0.0
230
1.0
  2
SOLID
 70
     1
 71
     1
 91
        1
 92
        1
 93
        1
 72
     2
 10
-239.7293474643134
 20
-363.3171271402439
 40
4.99969482421875
 50
0.0
 51
360.0
 73
     0
 97
        1
330
FF
 75
     0
 76
     1
 98
        1
 10
0.0
 20
0.0
  0
CIRCLE
  5
101
102
{ACAD_REACTORS
330
102
102
}
330
30
100
AcDbEntity
  8
0
  6
Continuous
 62
     0
370
    -2
390
1D
100
AcDbCircle
 10
-649.7293474643134
 20
-363.3171271402439
 30
0.0
 40
4.99969482421875
  0
HATCH
  5
102
330
30
100
AcDbEntity
  8
0
  6
Continuous
 62
     0
370
    -2
390
1D
100
AcDbHatch
 10
0.0
 20
0.0
 30
0.0
210
0.0
220
0.0
230
1.0
  2
SOLID
 70
     1
 71
     1
 91
        1
 92
        1
 93
        1
 72
     2
 10
-649.7293474643134
 20
-363.3171271402439
 40
4.99969482421875
 50
0.0
 51
360.0
 73
     0
 97
        1
330
101
 75
     0
 76
     1
 98
        1
 10
0.0
 20
0.0
  0
MTEXT
  5
103
330
30
100
AcDbEntity
  8
0
 62
     0
390
1D
100
AcDbMText
 10
-468.5418491464889
 20
-329.4395099527439
 30
0.0
 40
24.4326171875
 41
0.0
 46
0.0
 71
     1
 72
     1
  1
410
  7
ＭＳ ゴシック
 73
     1
 44
0.7828267384257843
  0
POINT
  5
104
330
30
100
AcDbEntity
  8
Defpoints
 62
     0
370
     0
390
1D
100
AcDbPoint
 10
-649.7293474643134
 20
-513.3171271402439
 30
0.0
  0
POINT
  5
105
330
30
100
AcDbEntity
  8
Defpoints
 62
     0
370
     0
390
1D
100
AcDbPoint
 10
-239.7293474643134
 20
-493.3171271402439
 30
0.0
  0
POINT
  5
106
330
30
100
AcDbEntity
  8
Defpoints
 62
     0
370
     0
390
1D
100
AcDbPoint
 10
-239.7293474643134
 20
-363.3171271402439
 30
0.0
  0
ENDBLK
  5
107
330
30
100
AcDbEntity
  8
notes
390
1D
100
AcDbBlockEnd
  0
BLOCK
  5
108
330
31
100
AcDbEntity
  8
notes
390
1D
100
AcDbBlockBegin
  2
*D16
 70
     1
 10
0.0
 20
0.0
 30
0.0
  3
*D16
  1
*D16
  0
LINE
  5
109
330
31
100
AcDbEntity
  8
0
  6
Continuous
 62
     0
370
    -2
390
1D
100
AcDbLine
 10
404.7123192023505
 20
551.482872859756
 30
0.0
 11
404.7123192023505
 21
401.4571200900469
 31
0.0
  0
LINE
  5
10A
330
31
100
AcDbEntity
  8
0
  6
Continuous
 62
     0
370
    -2
390
1D
100
AcDbLine
 10
704.7123192023505
 20
551.482872859756
 30
0.0
 11
704.7123192023505
 21
401.4571200900469
 31
0.0
  0
LINE
  5
10B
330
31
100
AcDbEntity
  8
0
  6
Continuous
 62
     0
370
    -2
390
1D
100
AcDbLine
 10
404.7123192023505
 20
401.4571200900469
 30
0.0
 11
704.7123192023505
 21
401.4571200900469
 31
0.0
  0
CIRCLE
  5
10C
102
{ACAD_REACTORS
330
10D
102
}
330
31
100
AcDbEntity
  8
0
  6
Continuous
 62
     0
370
    -2
390
1D
100
AcDbCircle
 10
404.7123192023505
 20
401.4571200900469
 30
0.0
 40
4.99969482421875
  0
HATCH
  5
10D
330
31
100
AcDbEntity
  8
0
  6
Continuous
 62
     0
370
    -2
390
1D
100
AcDbHatch
 10
0.0
 20
0.0
 30
0.0
210
0.0
220
0.0
230
1.0
  2
SOLID
 70
     1
 71
     1
 91
        1
 92
        1
 93
        1
 72
     2
 10
404.7123192023505
 20
401.4571200900469
 40
4.99969482421875
 50
0.0
 51
360.0
 73
     0
 97
        1
330
10C
 75
     0
 76
     1
 98
        1
 10
0.0
 20
0.0
  0
CIRCLE
  5
10E
102
{ACAD_REACTORS
330
10F
102
}
330
31
100
AcDbEntity
  8
0
  6
Continuous
 62
     0
370
    -2
390
1D
100
AcDbCircle
 10
704.7123192023505
 20
401.4571200900469
 30
0.0
 40
4.99969482421875
  0
HATCH
  5
10F
330
31
100
AcDbEntity
  8
0
  6
Continuous
 62
     0
370
    -2
390
1D
100
AcDbHatch
 10
0.0
 20
0.0
 30
0.0
210
0.0
220
0.0
230
1.0
  2
SOLID
 70
     1
 71
     1
 91
        1
 92
        1
 93
        1
 72
     2
 10
704.7123192023505
 20
401.4571200900469
 40
4.99969482421875
 50
0.0
 51
360.0
 73
     0
 97
        1
330
10E
 75
     0
 76
     1
 98
        1
 10
0.0
 20
0.0
  0
MTEXT
  5
110
330
31
100
AcDbEntity
  8
0
 62
     0
390
1D
100
AcDbMText
 10
530.899817520175
 20
435.3347372775469
 30
0.0
 40
24.4326171875
 41
0.0
 46
0.0
 71
     1
 72
     1
  1
300
  7
ＭＳ ゴシック
 73
     1
 44
0.7828267384257843
  0
POINT
  5
111
330
31
100
AcDbEntity
  8
Defpoints
 62
     0
370
     0
390
1D
100
AcDbPoint
 10
704.7123192023505
 20
576.482872859756
 30
0.0
  0
POINT
  5
112
330
31
100
AcDbEntity
  8
Defpoints
 62
     0
370
     0
390
1D
100
AcDbPoint
 10
404.7123192023505
 20
576.482872859756
 30
0.0
  0
POINT
  5
113
330
31
100
AcDbEntity
  8
Defpoints
 62
     0
370
     0
390
1D
100
AcDbPoint
 10
404.7123192023505
 20
401.4571200900469
 30
0.0
  0
ENDBLK
  5
114
330
31
100
AcDbEntity
  8
notes
390
1D
100
AcDbBlockEnd
  0
BLOCK
  5
115
330
32
100
AcDbEntity
  8
notes
390
1D
100
AcDbBlockBegin
  2
*D17
 70
     1
 10
0.0
 20
0.0
 30
0.0
  3
*D17
  1
*D17
  0
LINE
  5
116
330
32
100
AcDbEntity
  8
0
  6
Continuous
 62
     0
370
    -2
390
1D
100
AcDbLine
 10
379.7123192023505
 20
576.482872859756
 30
0.0
 11
304.7123192023505
 21
576.482872859756
 31
0.0
  0
LINE
  5
117
330
32
100
AcDbEntity
  8
0
  6
Continuous
 62
     0
370
    -2
390
1D
100
AcDbLine
 10
379.7123192023505
 20
676.482872859756
 30
0.0
 11
304.7123192023505
 21
676.482872859756
 31
0.0
  0
LINE
  5
118
330
32
100
AcDbEntity
  8
0
  6
Continuous
 62
     0
370
    -2
390
1D
100
AcDbLine
 10
304.7123192023505
 20
576.482872859756
 30
0.0
 11
304.7123192023505
 21
676.482872859756
 31
0.0
  0
CIRCLE
  5
119
102
{ACAD_REACTORS
330
11A
102
}
330
32
100
AcDbEntity
  8
0
  6
Continuous
 62
     0
370
    -2
390
1D
100
AcDbCircle
 10
304.7123192023505
 20
576.482872859756
 30
0.0
 40
4.99969482421875
  0
HATCH
  5
11A
330
32
100
AcDbEntity
  8
0
  6
Continuous
 62
     0
370
    -2
390
1D
100
AcDbHatch
 10
0.0
 20
0.0
 30
0.0
210
0.0
220
0.0
230
1.0
  2
SOLID
 70
     1
 71
     1
 91
        1
 92
        1
 93
        1
 72
     2
 10
304.7123192023505
 20
576.482872859756
 40
4.99969482421875
 50
0.0
 51
360.0
 73
     0
 97
        1
330
119
 75
     0
 76
     1
 98
        1
 10
0.0
 20
0.0
  0
CIRCLE
  5
11B
102
{ACAD_REACTORS
330
11C
102
}
330
32
100
AcDbEntity
  8
0
  6
Continuous
 62
     0
370
    -2
390
1D
100
AcDbCircle
 10
304.7123192023505
 20
676.482872859756
 30
0.0
 40
4.99969482421875
  0
HATCH
  5
11C
330
32
100
AcDbEntity
  8
0
  6
Continuous
 62
     0
370
    -2
390
1D
100
AcDbHatch
 10
0.0
 20
0.0
 30
0.0
210
0.0
220
0.0
230
1.0
  2
SOLID
 70
     1
 71
     1
 91
        1
 92
        1
 93
        1
 72
     2
 10
304.7123192023505
 20
676.482872859756
 40
4.99969482421875
 50
0.0
 51
360.0
 73
     0
 97
        1
330
11B
 75
     0
 76
     1
 98
        1
 10
0.0
 20
0.0
  0
MTEXT
  5
11D
330
32
100
AcDbEntity
  8
0
 62
     0
390
1D
100
AcDbMText
 10
270.8347020148503
 20
602.6703711775804
 30
0.0
 40
24.4326171875
 41
0.0
 46
0.0
 71
     1
 72
     1
  1
100
  7
ＭＳ ゴシック
 11
0.0
 21
1.0
 31
0.0
 73
     1
 44
0.7828267384257843
  0
POINT
  5
11E
330
32
100
AcDbEntity
  8
Defpoints
 62
     0
370
     0
390
1D
100
AcDbPoint
 10
404.7123192023505
 20
676.482872859756
 30
0.0
  0
POINT
  5
11F
330
32
100
AcDbEntity
  8
Defpoints
 62
     0
370
     0
390
1D
100
AcDbPoint
 10
404.7123192023505
 20
576.482872859756
 30
0.0
  0
POINT
  5
120
330
32
100
AcDbEntity
  8
Defpoints
 62
     0
370
     0
390
1D
100
AcDbPoint
 10
304.7123192023505
 20
576.482872859756
 30
0.0
  0
ENDBLK
  5
121
330
32
100
AcDbEntity
  8
notes
390
1D
100
AcDbBlockEnd
  0
BLOCK
  5
122
330
33
100
AcDbEntity
  8
notes
390
1D
100
AcDbBlockBegin
  2
*D18
 70
     1
 10
0.0
 20
0.0
 30
0.0
  3
*D18
  1
*D18
  0
LINE
  5
123
330
33
100
AcDbEntity
  8
0
  6
Continuous
 62
     0
370
    -2
390
1D
100
AcDbLine
 10
380.8795128033353
 20
676.482872859756
 30
0.0
 11
304.712319202351
 21
676.482872859756
 31
0.0
  0
LINE
  5
124
330
33
100
AcDbEntity
  8
0
  6
Continuous
 62
     0
370
    -2
390
1D
100
AcDbLine
 10
380.8795128033353
 20
751.4571200900469
 30
0.0
 11
304.712319202351
 21
751.4571200900469
 31
0.0
  0
LINE
  5
125
330
33
100
AcDbEntity
  8
0
  6
Continuous
 62
     0
370
    -2
390
1D
100
AcDbLine
 10
304.712319202351
 20
676.482872859756
 30
0.0
 11
304.712319202351
 21
751.4571200900469
 31
0.0
  0
CIRCLE
  5
126
102
{ACAD_REACTORS
330
127
102
}
330
33
100
AcDbEntity
  8
0
  6
Continuous
 62
     0
370
    -2
390
1D
100
AcDbCircle
 10
304.712319202351
 20
676.482872859756
 30
0.0
 40
4.99969482421875
  0
HATCH
  5
127
330
33
100
AcDbEntity
  8
0
  6
Continuous
 62
     0
370
    -2
390
1D
100
AcDbHatch
 10
0.0
 20
0.0
 30
0.0
210
0.0
220
0.0
230
1.0
  2
SOLID
 70
     1
 71
     1
 91
        1
 92
        1
 93
        1
 72
     2
 10
304.712319202351
 20
676.482872859756
 40
4.99969482421875
 50
0.0
 51
360.0
 73
     0
 97
        1
330
126
 75
     0
 76
     1
 98
        1
 10
0.0
 20
0.0
  0
CIRCLE
  5
128
102
{ACAD_REACTORS
330
129
102
}
330
33
100
AcDbEntity
  8
0
  6
Continuous
 62
     0
370
    -2
390
1D
100
AcDbCircle
 10
304.712319202351
 20
751.4571200900469
 30
0.0
 40
4.99969482421875
  0
HATCH
  5
129
330
33
100
AcDbEntity
  8
0
  6
Continuous
 62
     0
370
    -2
390
1D
100
AcDbHatch
 10
0.0
 20
0.0
 30
0.0
210
0.0
220
0.0
230
1.0
  2
SOLID
 70
     1
 71
     1
 91
        1
 92
        1
 93
        1
 72
     2
 10
304.712319202351
 20
751.4571200900469
 40
4.99969482421875
 50
0.0
 51
360.0
 73
     0
 97
        1
330
128
 75
     0
 76
     1
 98
        1
 10
0.0
 20
0.0
  0
MTEXT
  5
12A
330
33
100
AcDbEntity
  8
0
 62
     0
390
1D
100
AcDbMText
 10
270.8347020148508
 20
698.0949964749014
 30
0.0
 40
24.4326171875
 41
0.0
 46
0.0
 71
     1
 72
     1
  1
75
  7
ＭＳ ゴシック
 11
0.0
 21
1.0
 31
0.0
 73
     1
 44
0.7828267384257843
  0
POINT
  5
12B
330
33
100
AcDbEntity
  8
Defpoints
 62
     0
370
     0
390
1D
100
AcDbPoint
 10
405.8795128033353
 20
751.4571200900469
 30
0.0
  0
POINT
  5
12C
330
33
100
AcDbEntity
  8
Defpoints
 62
     0
370
     0
390
1D
100
AcDbPoint
 10
405.8795128033353
 20
676.482872859756
 30
0.0
  0
POINT
  5
12D
330
33
100
AcDbEntity
  8
Defpoints
 62
     0
370
     0
390
1D
100
AcDbPoint
 10
304.712319202351
 20
676.482872859756
 30
0.0
  0
ENDBLK
  5
12E
330
33
100
AcDbEntity
  8
notes
390
1D
100
AcDbBlockEnd
  0
BLOCK
  5
12F
330
34
100
AcDbEntity
  8
notes
390
1D
100
AcDbBlockBegin
  2
*D19
 70
     1
 10
0.0
 20
0.0
 30
0.0
  3
*D19
  1
*D19
  0
LINE
  5
130
330
34
100
AcDbEntity
  8
0
  6
Continuous
 62
     0
370
    -2
390
1D
100
AcDbLine
 10
380.2795128033354
 20
-463.3171271402439
 30
0.0
 11
399.9123336271045
 21
-463.3171271402439
 31
0.0
  0
LINE
  5
131
330
34
100
AcDbEntity
  8
0
  6
Continuous
 62
     0
370
    -2
390
1D
100
AcDbLine
 10
380.2795128033354
 20
-563.3171271402439
 30
0.0
 11
399.9123336271045
 21
-563.3171271402439
 31
0.0
  0
LINE
  5
132
330
34
100
AcDbEntity
  8
0
  6
Continuous
 62
     0
370
    -2
390
1D
100
AcDbLine
 10
399.9123336271045
 20
-463.3171271402439
 30
0.0
 11
399.9123336271045
 21
-315.4421271402439
 31
0.0
  0
LINE
  5
133
330
34
100
AcDbEntity
  8
0
  6
Continuous
 62
     0
370
    -2
390
1D
100
AcDbLine
 10
399.9123336271045
 20
-463.3171271402439
 30
0.0
 11
399.9123336271045
 21
-563.3171271402439
 31
0.0
  0
CIRCLE
  5
134
102
{ACAD_REACTORS
330
135
102
}
330
34
100
AcDbEntity
  8
0
  6
Continuous
 62
     0
370
    -2
390
1D
100
AcDbCircle
 10
399.9123336271045
 20
-463.3171271402439
 30
0.0
 40
4.99969482421875
  0
HATCH
  5
135
330
34
100
AcDbEntity
  8
0
  6
Continuous
 62
     0
370
    -2
390
1D
100
AcDbHatch
 10
0.0
 20
0.0
 30
0.0
210
0.0
220
0.0
230
1.0
  2
SOLID
 70
     1
 71
     1
 91
        1
 92
        1
 93
        1
 72
     2
 10
399.9123336271045
 20
-463.3171271402439
 40
4.99969482421875
 50
0.0
 51
360.0
 73
     0
 97
        1
330
134
 75
     0
 76
     1
 98
        1
 10
0.0
 20
0.0
  0
CIRCLE
  5
136
102
{ACAD_REACTORS
330
137
102
}
330
34
100
AcDbEntity
  8
0
  6
Continuous
 62
     0
370
    -2
390
1D
100
AcDbCircle
 10
399.9123336271045
 20
-563.3171271402439
 30
0.0
 40
4.99969482421875
  0
HATCH
  5
137
330
34
100
AcDbEntity
  8
0
  6
Continuous
 62
     0
370
    -2
390
1D
100
AcDbHatch
 10
0.0
 20
0.0
 30
0.0
210
0.0
220
0.0
230
1.0
  2
SOLID
 70
     1
 71
     1
 91
        1
 92
        1
 93
        1
 72
     2
 10
399.9123336271045
 20
-563.3171271402439
 40
4.99969482421875
 50
0.0
 51
360.0
 73
     0
 97
        1
330
136
 75
     0
 76
     1
 98
        1
 10
0.0
 20
0.0
  0
MTEXT
  5
138
330
34
100
AcDbEntity
  8
0
 62
     0
390
1D
100
AcDbMText
 10
366.0347164396044
 20
-458.3171271402439
 30
0.0
 40
24.4326171875
 41
0.0
 46
0.0
 71
     1
 72
     1
  1
100(深さ)
  7
ＭＳ ゴシック
 11
0.0
 21
1.0
 31
0.0
 73
     1
 44
0.7828267384257843
  0
POINT
  5
139
330
34
100
AcDbEntity
  8
Defpoints
 62
     0
370
     0
390
1D
100
AcDbPoint
 10
405.2795128033354
 20
-563.3171271402439
 30
0.0
  0
POINT
  5
13A
330
34
100
AcDbEntity
  8
Defpoints
 62
     0
370
     0
390
1D
100
AcDbPoint
 10
405.2795128033354
 20
-463.3171271402439
 30
0.0
  0
POINT
  5
13B
330
34
100
AcDbEntity
  8
Defpoints
 62
     0
370
     0
390
1D
100
AcDbPoint
 10
399.9123336271045
 20
-463.3171271402439
 30
0.0
  0
ENDBLK
  5
13C
330
34
100
AcDbEntity
  8
notes
390
1D
100
AcDbBlockEnd
  0
BLOCK
  5
13D
330
35
100
AcDbEntity
  8
notes
390
1D
100
AcDbBlockBegin
  2
*D20
 70
     1
 10
0.0
 20
0.0
 30
0.0
  3
*D20
  1
*D20
  0
LINE
  5
13E
330
35
100
AcDbEntity
  8
0
  6
Continuous
 62
     0
370
    -2
390
1D
100
AcDbLine
 10
-649.7293474643134
 20
-488.3171271402439
 30
0.0
 11
-649.7293474643134
 21
-363.3171271402439
 31
0.0
  0
LINE
  5
13F
330
35
100
AcDbEntity
  8
0
  6
Continuous
 62
     0
370
    -2
390
1D
100
AcDbLine
 10
-689.7293474643134
 20
-442.3171271402439
 30
0.0
 11
-689.7293474643134
 21
-363.3171271402439
 31
0.0
  0
LINE
  5
140
330
35
100
AcDbEntity
  8
0
  6
Continuous
 62
     0
370
    -2
390
1D
100
AcDbLine
 10
-649.7293474643134
 20
-363.3171271402439
 30
0.0
 11
-689.7293474643134
 21
-363.3171271402439
 31
0.0
  0
CIRCLE
  5
141
102
{ACAD_REACTORS
330
142
102
}
330
35
100
AcDbEntity
  8
0
  6
Continuous
 62
     0
370
    -2
390
1D
100
AcDbCircle
 10
-649.7293474643134
 20
-363.3171271402439
 30
0.0
 40
4.99969482421875
  0
HATCH
  5
142
330
35
100
AcDbEntity
  8
0
  6
Continuous
 62
     0
370
    -2
390
1D
100
AcDbHatch
 10
0.0
 20
0.0
 30
0.0
210
0.0
220
0.0
230
1.0
  2
SOLID
 70
     1
 71
     1
 91
        1
 92
        1
 93
        1
 72
     2
 10
-649.7293474643134
 20
-363.3171271402439
 40
4.99969482421875
 50
0.0
 51
360.0
 73
     0
 97
        1
330
141
 75
     0
 76
     1
 98
        1
 10
0.0
 20
0.0
  0
CIRCLE
  5
143
102
{ACAD_REACTORS
330
144
102
}
330
35
100
AcDbEntity
  8
0
  6
Continuous
 62
     0
370
    -2
390
1D
100
AcDbCircle
 10
-689.7293474643134
 20
-363.3171271402439
 30
0.0
 40
4.99969482421875
  0
HATCH
  5
144
330
35
100
AcDbEntity
  8
0
  6
Continuous
 62
     0
370
    -2
390
1D
100
AcDbHatch
 10
0.0
 20
0.0
 30
0.0
210
0.0
220
0.0
230
1.0
  2
SOLID
 70
     1
 71
     1
 91
        1
 92
        1
 93
        1
 72
     2
 10
-689.7293474643134
 20
-363.3171271402439
 40
4.99969482421875
 50
0.0
 51
360.0
 73
     0
 97
        1
330
143
 75
     0
 76
     1
 98
        1
 10
0.0
 20
0.0
  0
MTEXT
  5
145
330
35
100
AcDbEntity
  8
0
 62
     0
390
1D
100
AcDbMText
 10
-685.6043474643134
 20
-329.4395099527439
 30
0.0
 40
24.4326171875
 41
0.0
 46
0.0
 71
     1
 72
     1
  1
40
  7
ＭＳ ゴシック
 73
     1
 44
0.7828267384257843
  0
POINT
  5
146
330
35
100
AcDbEntity
  8
Defpoints
 62
     0
370
     0
390
1D
100
AcDbPoint
 10
-689.7293474643134
 20
-467.3171271402439
 30
0.0
  0
POINT
  5
147
330
35
100
AcDbEntity
  8
Defpoints
 62
     0
370
     0
390
1D
100
AcDbPoint
 10
-649.7293474643134
 20
-513.3171271402439
 30
0.0
  0
POINT
  5
148
330
35
100
AcDbEntity
  8
Defpoints
 62
     0
370
     0
390
1D
100
AcDbPoint
 10
-649.7293474643134
 20
-363.3171271402439
 30
0.0
  0
ENDBLK
  5
149
330
35
100
AcDbEntity
  8
notes
390
1D
100
AcDbBlockEnd
  0
BLOCK
  5
14A
330
36
100
AcDbEntity
  8
notes
390
1D
100
AcDbBlockBegin
  2
*D21
 70
     1
 10
0.0
 20
0.0
 30
0.0
  3
*D21
  1
*D21
  0
LINE
  5
14B
330
36
100
AcDbEntity
  8
0
  6
Continuous
 62
     0
370
    -2
390
1D
100
AcDbLine
 10
724.7123192023505
 20
480.4571200900469
 30
0.0
 11
724.7123192023505
 21
401.4571200900469
 31
0.0
  0
LINE
  5
14C
330
36
100
AcDbEntity
  8
0
  6
Continuous
 62
     0
370
    -2
390
1D
100
AcDbLine
 10
704.7123192023505
 20
551.482872859756
 30
0.0
 11
704.7123192023505
 21
401.4571200900469
 31
0.0
  0
LINE
  5
14D
330
36
100
AcDbEntity
  8
0
  6
Continuous
 62
     0
370
    -2
390
1D
100
AcDbLine
 10
724.7123192023505
 20
401.4571200900469
 30
0.0
 11
763.0295128033349
 21
401.4571200900469
 31
0.0
  0
LINE
  5
14E
330
36
100
AcDbEntity
  8
0
  6
Continuous
 62
     0
370
    -2
390
1D
100
AcDbLine
 10
724.7123192023505
 20
401.4571200900469
 30
0.0
 11
704.7123192023505
 21
401.4571200900469
 31
0.0
  0
CIRCLE
  5
14F
102
{ACAD_REACTORS
330
150
102
}
330
36
100
AcDbEntity
  8
0
  6
Continuous
 62
     0
370
    -2
390
1D
100
AcDbCircle
 10
724.7123192023505
 20
401.4571200900469
 30
0.0
 40
4.99969482421875
  0
HATCH
  5
150
330
36
100
AcDbEntity
  8
0
  6
Continuous
 62
     0
370
    -2
390
1D
100
AcDbHatch
 10
0.0
 20
0.0
 30
0.0
210
0.0
220
0.0
230
1.0
  2
SOLID
 70
     1
 71
     1
 91
        1
 92
        1
 93
        1
 72
     2
 10
724.7123192023505
 20
401.4571200900469
 40
4.99969482421875
 50
0.0
 51
360.0
 73
     0
 97
        1
330
14F
 75
     0
 76
     1
 98
        1
 10
0.0
 20
0.0
  0
CIRCLE
  5
151
102
{ACAD_REACTORS
330
152
102
}
330
36
100
AcDbEntity
  8
0
  6
Continuous
 62
     0
370
    -2
390
1D
100
AcDbCircle
 10
704.7123192023505
 20
401.4571200900469
 30
0.0
 40
4.99969482421875
  0
HATCH
  5
152
330
36
100
AcDbEntity
  8
0
  6
Continuous
 62
     0
370
    -2
390
1D
100
AcDbHatch
 10
0.0
 20
0.0
 30
0.0
210
0.0
220
0.0
230
1.0
  2
SOLID
 70
     1
 71
     1
 91
        1
 92
        1
 93
        1
 72
     2
 10
704.7123192023505
 20
401.4571200900469
 40
4.99969482421875
 50
0.0
 51
360.0
 73
     0
 97
        1
330
151
 75
     0
 76
     1
 98
        1
 10
0.0
 20
0.0
  0
MTEXT
  5
153
330
36
100
AcDbEntity
  8
0
 62
     0
390
1D
100
AcDbMText
 10
731.2795128033349
 20
435.3347372775469
 30
0.0
 40
24.4326171875
 41
0.0
 46
0.0
 71
     1
 72
     1
  1
20
  7
ＭＳ ゴシック
 73
     1
 44
0.7828267384257843
  0
POINT
  5
154
330
36
100
AcDbEntity
  8
Defpoints
 62
     0
370
     0
390
1D
100
AcDbPoint
 10
704.7123192023505
 20
576.482872859756
 30
0.0
  0
POINT
  5
155
330
36
100
AcDbEntity
  8
Defpoints
 62
     0
370
     0
390
1D
100
AcDbPoint
 10
724.7123192023505
 20
505.4571200900469
 30
0.0
  0
POINT
  5
156
330
36
100
AcDbEntity
  8
Defpoints
 62
     0
370
     0
390
1D
100
AcDbPoint
 10
724.7123192023505
 20
401.4571200900469
 30
0.0
  0
ENDBLK
  5
157
330
36
100
AcDbEntity
  8
notes
390
1D
100
AcDbBlockEnd
  0
BLOCK
  5
158
330
37
100
AcDbEntity
  8
notes
390
1D
100
AcDbBlockBegin
  2
*D22
 70
     1
 10
0.0
 20
0.0
 30
0.0
  3
*D22
  1
*D22
  0
LINE
  5
159
330
37
100
AcDbEntity
  8
0
  6
Continuous
 62
     0
370
    -2
390
1D
100
AcDbLine
 10
250.4872047980912
 20
-463.3171271402439
 30
0.0
 11
171.4872047980903
 21
-463.3171271402439
 31
0.0
  0
LINE
  5
15A
330
37
100
AcDbEntity
  8
0
  6
Continuous
 62
     0
370
    -2
390
1D
100
AcDbLine
 10
250.4872047980903
 20
-593.3171271402439
 30
0.0
 11
171.4872047980903
 21
-593.3171271402439
 31
0.0
  0
LINE
  5
15B
330
37
100
AcDbEntity
  8
0
  6
Continuous
 62
     0
370
    -2
390
1D
100
AcDbLine
 10
171.4872047980903
 20
-463.3171271402439
 30
0.0
 11
171.4872047980903
 21
-593.3171271402439
 31
0.0
  0
CIRCLE
  5
15C
102
{ACAD_REACTORS
330
15D
102
}
330
37
100
AcDbEntity
  8
0
  6
Continuous
 62
     0
370
    -2
390
1D
100
AcDbCircle
 10
171.4872047980903
 20
-463.3171271402439
 30
0.0
 40
4.99969482421875
  0
HATCH
  5
15D
330
37
100
AcDbEntity
  8
0
  6
Continuous
 62
     0
370
    -2
390
1D
100
AcDbHatch
 10
0.0
 20
0.0
 30
0.0
210
0.0
220
0.0
230
1.0
  2
SOLID
 70
     1
 71
     1
 91
        1
 92
        1
 93
        1
 72
     2
 10
171.4872047980903
 20
-463.3171271402439
 40
4.99969482421875
 50
0.0
 51
360.0
 73
     0
 97
        1
330
15C
 75
     0
 76
     1
 98
        1
 10
0.0
 20
0.0
  0
CIRCLE
  5
15E
102
{ACAD_REACTORS
330
15F
102
}
330
37
100
AcDbEntity
  8
0
  6
Continuous
 62
     0
370
    -2
390
1D
100
AcDbCircle
 10
171.4872047980903
 20
-593.3171271402439
 30
0.0
 40
4.99969482421875
  0
HATCH
  5
15F
330
37
100
AcDbEntity
  8
0
  6
Continuous
 62
     0
370
    -2
390
1D
100
AcDbHatch
 10
0.0
 20
0.0
 30
0.0
210
0.0
220
0.0
230
1.0
  2
SOLID
 70
     1
 71
     1
 91
        1
 92
        1
 93
        1
 72
     2
 10
171.4872047980903
 20
-593.3171271402439
 40
4.99969482421875
 50
0.0
 51
360.0
 73
     0
 97
        1
330
15E
 75
     0
 76
     1
 98
        1
 10
0.0
 20
0.0
  0
MTEXT
  5
160
330
37
100
AcDbEntity
  8
0
 62
     0
390
1D
100
AcDbMText
 10
137.6095876105901
 20
-552.1296288224194
 30
0.0
 40
24.4326171875
 41
0.0
 46
0.0
 71
     1
 72
     1
  1
130
  7
ＭＳ ゴシック
 11
0.0
 21
1.0
 31
0.0
 73
     1
 44
0.7828267384257843
  0
POINT
  5
161
330
37
100
AcDbEntity
  8
Defpoints
 62
     0
370
     0
390
1D
100
AcDbPoint
 10
275.4872047980903
 20
-593.3171271402439
 30
0.0
  0
POINT
  5
162
330
37
100
AcDbEntity
  8
Defpoints
 62
     0
370
     0
390
1D
100
AcDbPoint
 10
275.4872047980912
 20
-463.3171271402439
 30
0.0
  0
POINT
  5
163
330
37
100
AcDbEntity
  8
Defpoints
 62
     0
370
     0
390
1D
100
AcDbPoint
 10
171.4872047980903
 20
-463.3171271402439
 30
0.0
  0
ENDBLK
  5
164
330
37
100
AcDbEntity
  8
notes
390
1D
100
AcDbBlockEnd
  0
BLOCK
  5
28B
330
28A
100
AcDbEntity
  8
0
100
AcDbBlockBegin
  2
block 3
 70
     0
 10
0.0
 20
0.0
 30
0.0
  3
block 3
  1
block 3
  0
INSERT
  5
28C
330
28A
100
AcDbEntity
  8
LOGO
100
AcDbBlockReference
  2
block 4
 10
0.0
 20
0.0
 30
0.0
  0
ENDBLK
  5
2A9
330
28A
100
AcDbEntity
  8
0
100
AcDbBlockEnd
  0
BLOCK
  5
28E
330
28D
100
AcDbEntity
  8
0
100
AcDbBlockBegin
  2
block 4
 70
     0
 10
0.0
 20
0.0
 30
0.0
  3
block 4
  1
block 4
  0
POLYLINE
  5
28F
330
28D
100
AcDbEntity
  8
LOGO
370
     0
100
AcDb2dPolyline
 66
     1
 10
0.0
 20
0.0
 30
0.0
  0
VERTEX
  5
290
330
28F
100
AcDbEntity
  8
LOGO
370
     0
100
AcDbVertex
100
AcDb2dVertex
 10
83.79545727667795
 20
167.6444858234922
 30
0.0
  0
VERTEX
  5
291
330
28F
100
AcDbEntity
  8
LOGO
370
     0
100
AcDbVertex
100
AcDb2dVertex
 10
83.79545727667795
 20
159.7968976406313
 30
0.0
  0
VERTEX
  5
292
330
28F
100
AcDbEntity
  8
LOGO
370
     0
100
AcDbVertex
100
AcDb2dVertex
 10
71.3631329975216
 20
159.7968976406313
 30
0.0
  0
VERTEX
  5
293
330
28F
100
AcDbEntity
  8
LOGO
370
     0
100
AcDbVertex
100
AcDb2dVertex
 10
71.3631329975216
 20
127.8027915271048
 30
0.0
  0
VERTEX
  5
294
330
28F
100
AcDbEntity
  8
LOGO
370
     0
100
AcDbVertex
100
AcDb2dVertex
 10
60.43011526263018
 20
127.8027915271048
 30
0.0
  0
VERTEX
  5
295
330
28F
100
AcDbEntity
  8
LOGO
370
     0
100
AcDbVertex
100
AcDb2dVertex
 10
60.43011526263018
 20
159.7968976406313
 30
0.0
  0
VERTEX
  5
296
330
28F
100
AcDbEntity
  8
LOGO
370
     0
100
AcDbVertex
100
AcDb2dVertex
 10
48.21793273020759
 20
159.7968976406313
 30
0.0
  0
VERTEX
  5
297
330
28F
100
AcDbEntity
  8
LOGO
370
     0
100
AcDbVertex
100
AcDb2dVertex
 10
48.21793273020759
 20
167.6444858234922
 30
0.0
  0
VERTEX
  5
298
330
28F
100
AcDbEntity
  8
LOGO
370
     0
100
AcDbVertex
100
AcDb2dVertex
 10
83.79545727667795
 20
167.6444858234922
 30
0.0
  0
SEQEND
  5
299
330
28F
100
AcDbEntity
  8
LOGO
370
     0
  0
HATCH
  5
29A
330
28D
100
AcDbEntity
  8
LOGO
 62
   250
420
  2234388
100
AcDbHatch
 10
0.0
 20
0.0
 30
0.0
210
0.0
220
0.0
230
1.0
  2
SOLID
 70
     1
 71
     0
 91
        1
 92
        1
 93
        8
 72
     1
 10
83.79545727667795
 20
167.6444858234922
 11
83.79545727667795
 21
159.7968976406313
 72
     1
 10
83.79545727667795
 20
159.7968976406313
 11
71.3631329975216
 21
159.7968976406313
 72
     1
 10
71.3631329975216
 20
159.7968976406313
 11
71.3631329975216
 21
127.8027915271048
 72
     1
 10
71.3631329975216
 20
127.8027915271048
 11
60.43011526263018
 21
127.8027915271048
 72
     1
 10
60.43011526263018
 20
127.8027915271048
 11
60.43011526263018
 21
159.7968976406313
 72
     1
 10
60.43011526263018
 20
159.7968976406313
 11
48.21793273020759
 21
159.7968976406313
 72
     1
 10
48.21793273020759
 20
159.7968976406313
 11
48.21793273020759
 21
167.6444858234922
 72
     1
 10
48.21793273020759
 20
167.6444858234922
 11
83.79545727667795
 21
167.6444858234922
 97
        0
 75
     2
 76
     1
 98
        0
  0
INSERT
  5
29B
330
28D
100
AcDbEntity
  8
LOGO
100
AcDbBlockReference
  2
block 5
 10
0.0
 20
0.0
 30
0.0
  0
ENDBLK
  5
2A8
330
28D
100
AcDbEntity
  8
0
100
AcDbBlockEnd
  0
BLOCK
  5
29D
330
29C
100
AcDbEntity
  8
0
100
AcDbBlockBegin
  2
block 5
 70
     0
 10
0.0
 20
0.0
 30
0.0
  3
block 5
  1
block 5
  0
SPLINE
  5
29E
330
29C
100
AcDbEntity
  8
LOGO
370
     0
100
AcDbSpline
210
0.0
220
0.0
230
1.0
 70
    11
 71
     3
 72
    56
 73
    52
 74
     0
 42
0.000000001
 43
0.0000000001
 40
0.0
 40
0.0
 40
0.0
 40
0.0
 40
1.0
 40
1.0
 40
1.0
 40
2.0
 40
2.0
 40
2.0
 40
3.0
 40
3.0
 40
3.0
 40
4.0
 40
4.0
 40
4.0
 40
5.0
 40
5.0
 40
5.0
 40
6.0
 40
6.0
 40
6.0
 40
7.0
 40
7.0
 40
7.0
 40
8.0
 40
8.0
 40
8.0
 40
9.0
 40
9.0
 40
9.0
 40
10.0
 40
10.0
 40
10.0
 40
11.0
 40
11.0
 40
11.0
 40
12.0
 40
12.0
 40
12.0
 40
13.0
 40
13.0
 40
13.0
 40
14.0
 40
14.0
 40
14.0
 40
15.0
 40
15.0
 40
15.0
 40
16.0
 40
16.0
 40
16.0
 40
17.0
 40
17.0
 40
17.0
 40
17.0
 10
100.4504378777679
 20
166.69157178364
 30
0.0
 10
101.9848844191641
 20
167.1313385124438
 30
0.0
 10
103.9637485713373
 20
166.7649523658846
 30
0.0
 10
103.9637485713373
 20
166.7649523658846
 30
0.0
 10
103.9637485713373
 20
166.7649523658846
 30
0.0
 10
103.0132460999156
 20
163.911205638077
 30
0.0
 10
103.0132460999156
 20
163.911205638077
 30
0.0
 10
103.0132460999156
 20
163.911205638077
 30
0.0
 10
101.0674548862189
 20
164.3601018759394
 30
0.0
 10
99.57090442016032
 20
163.1805004036133
 30
0.0
 10
98.40508333886608
 20
162.258247733807
 30
0.0
 10
97.65301849830304
 20
159.804132345923
 30
0.0
 10
97.3598406791005
 20
158.8699940888517
 30
0.0
 10
97.3598406791005
 20
158.8699940888517
 30
0.0
 10
96.07137411762282
 20
154.9119212747295
 30
0.0
 10
96.07137411762282
 20
154.9119212747295
 30
0.0
 10
96.07137411762282
 20
154.9119212747295
 30
0.0
 10
100.3012651448482
 20
154.9119212747295
 30
0.0
 10
100.3012651448482
 20
154.9119212747295
 30
0.0
 10
100.3012651448482
 20
154.9119212747295
 30
0.0
 10
99.64152892419852
 20
152.4199098115079
 30
0.0
 10
99.64152892419852
 20
152.4199098115079
 30
0.0
 10
99.64152892419852
 20
152.4199098115079
 30
0.0
 10
95.38097652692731
 20
152.4199098115079
 30
0.0
 10
95.38097652692731
 20
152.4199098115079
 30
0.0
 10
95.38097652692731
 20
152.4199098115079
 30
0.0
 10
87.75353009080013
 20
127.8027915271048
 30
0.0
 10
87.75353009080013
 20
127.8027915271048
 30
0.0
 10
87.75353009080013
 20
127.8027915271048
 30
0.0
 10
85.36538832498108
 20
127.8027915271048
 30
0.0
 10
85.36538832498108
 20
127.8027915271048
 30
0.0
 10
85.36538832498108
 20
127.8027915271048
 30
0.0
 10
93.00006946639998
 20
152.4199098115079
 30
0.0
 10
93.00006946639998
 20
152.4199098115079
 30
0.0
 10
93.00006946639998
 20
152.4199098115079
 30
0.0
 10
89.85297266450198
 20
152.4199098115079
 30
0.0
 10
89.85297266450198
 20
152.4199098115079
 30
0.0
 10
89.85297266450198
 20
152.4199098115079
 30
0.0
 10
90.51270888515164
 20
154.9119212747295
 30
0.0
 10
90.51270888515164
 20
154.9119212747295
 30
0.0
 10
90.51270888515164
 20
154.9119212747295
 30
0.0
 10
93.6904670570955
 20
154.9119212747295
 30
0.0
 10
93.6904670570955
 20
154.9119212747295
 30
0.0
 10
93.6904670570955
 20
154.9119212747295
 30
0.0
 10
94.81598049462158
 20
158.3616699146644
 30
0.0
 10
94.81598049462158
 20
158.3616699146644
 30
0.0
 10
95.7237637538445
 20
161.2605474231013
 30
0.0
 10
96.4968436907311
 20
162.8139420021662
 30
0.0
 10
97.15657991138076
 20
163.9844139654337
 30
0.0
 10
97.81183750494507
 20
165.1523021053827
 30
0.0
 10
99.1047826935081
 20
166.3084769129547
 30
0.0
 10
100.4504378777679
 20
166.69157178364
 30
0.0
  0
HATCH
  5
29F
330
29C
100
AcDbEntity
  8
LOGO
 62
   250
420
  2234388
100
AcDbHatch
 10
0.0
 20
0.0
 30
0.0
210
0.0
220
0.0
230
1.0
  2
SOLID
 70
     1
 71
     0
 91
        1
 92
        1
 93
        1
 72
     4
 94
        3
 73
     0
 74
     1
 95
       56
 96
       52
 40
0.0
 40
0.0
 40
0.0
 40
0.0
 40
1.0
 40
1.0
 40
1.0
 40
2.0
 40
2.0
 40
2.0
 40
3.0
 40
3.0
 40
3.0
 40
4.0
 40
4.0
 40
4.0
 40
5.0
 40
5.0
 40
5.0
 40
6.0
 40
6.0
 40
6.0
 40
7.0
 40
7.0
 40
7.0
 40
8.0
 40
8.0
 40
8.0
 40
9.0
 40
9.0
 40
9.0
 40
10.0
 40
10.0
 40
10.0
 40
11.0
 40
11.0
 40
11.0
 40
12.0
 40
12.0
 40
12.0
 40
13.0
 40
13.0
 40
13.0
 40
14.0
 40
14.0
 40
14.0
 40
15.0
 40
15.0
 40
15.0
 40
16.0
 40
16.0
 40
16.0
 40
17.0
 40
17.0
 40
17.0
 40
17.0
 10
100.4504378777679
 20
166.69157178364
 10
101.9848844191641
 20
167.1313385124438
 10
103.9637485713373
 20
166.7649523658846
 10
103.9637485713373
 20
166.7649523658846
 10
103.9637485713373
 20
166.7649523658846
 10
103.0132460999156
 20
163.911205638077
 10
103.0132460999156
 20
163.911205638077
 10
103.0132460999156
 20
163.911205638077
 10
101.0674548862189
 20
164.3601018759394
 10
99.57090442016032
 20
163.1805004036133
 10
98.40508333886608
 20
162.258247733807
 10
97.65301849830304
 20
159.804132345923
 10
97.3598406791005
 20
158.8699940888517
 10
97.3598406791005
 20
158.8699940888517
 10
96.07137411762282
 20
154.9119212747295
 10
96.07137411762282
 20
154.9119212747295
 10
96.07137411762282
 20
154.9119212747295
 10
100.3012651448482
 20
154.9119212747295
 10
100.3012651448482
 20
154.9119212747295
 10
100.3012651448482
 20
154.9119212747295
 10
99.64152892419852
 20
152.4199098115079
 10
99.64152892419852
 20
152.4199098115079
 10
99.64152892419852
 20
152.4199098115079
 10
95.38097652692731
 20
152.4199098115079
 10
95.38097652692731
 20
152.4199098115079
 10
95.38097652692731
 20
152.4199098115079
 10
87.75353009080013
 20
127.8027915271048
 10
87.75353009080013
 20
127.8027915271048
 10
87.75353009080013
 20
127.8027915271048
 10
85.36538832498108
 20
127.8027915271048
 10
85.36538832498108
 20
127.8027915271048
 10
85.36538832498108
 20
127.8027915271048
 10
93.00006946639998
 20
152.4199098115079
 10
93.00006946639998
 20
152.4199098115079
 10
93.00006946639998
 20
152.4199098115079
 10
89.85297266450198
 20
152.4199098115079
 10
89.85297266450198
 20
152.4199098115079
 10
89.85297266450198
 20
152.4199098115079
 10
90.51270888515164
 20
154.9119212747295
 10
90.51270888515164
 20
154.9119212747295
 10
90.51270888515164
 20
154.9119212747295
 10
93.6904670570955
 20
154.9119212747295
 10
93.6904670570955
 20
154.9119212747295
 10
93.6904670570955
 20
154.9119212747295
 10
94.81598049462158
 20
158.3616699146644
 10
94.81598049462158
 20
158.3616699146644
 10
95.7237637538445
 20
161.2605474231013
 10
96.4968436907311
 20
162.8139420021662
 10
97.15657991138076
 20
163.9844139654337
 10
97.81183750494507
 20
165.1523021053827
 10
99.1047826935081
 20
166.3084769129547
 10
100.4504378777679
 20
166.69157178364
 97
        0
 75
     2
 76
     1
 98
        0
  0
SPLINE
  5
2A0
330
29C
100
AcDbEntity
  8
LOGO
370
     0
100
AcDbSpline
210
0.0
220
0.0
230
1.0
 70
    11
 71
     3
 72
    38
 73
    34
 74
     0
 42
0.000000001
 43
0.0000000001
 40
0.0
 40
0.0
 40
0.0
 40
0.0
 40
1.0
 40
1.0
 40
1.0
 40
2.0
 40
2.0
 40
2.0
 40
3.0
 40
3.0
 40
3.0
 40
4.0
 40
4.0
 40
4.0
 40
5.0
 40
5.0
 40
5.0
 40
6.0
 40
6.0
 40
6.0
 40
7.0
 40
7.0
 40
7.0
 40
8.0
 40
8.0
 40
8.0
 40
9.0
 40
9.0
 40
9.0
 40
10.0
 40
10.0
 40
10.0
 40
11.0
 40
11.0
 40
11.0
 40
11.0
 10
126.377554584636
 20
154.8151140277308
 30
0.0
 10
126.377554584636
 20
154.8151140277308
 30
0.0
 10
128.8311532078563
 20
154.8151140277308
 30
0.0
 10
128.8311532078563
 20
154.8151140277308
 30
0.0
 10
128.8311532078563
 20
154.8151140277308
 30
0.0
 10
127.7345785914971
 20
151.3062819612468
 30
0.0
 10
127.7345785914971
 20
151.3062819612468
 30
0.0
 10
128.571392836906
 20
152.2922689395754
 30
0.0
 10
129.8860421413442
 20
153.604506675583
 30
0.0
 10
131.0163787157314
 20
154.2664822097754
 30
0.0
 10
132.7044766171327
 20
155.2500576196734
 30
0.0
 10
133.6642808525008
 20
155.3847609420097
 30
0.0
 10
134.7284715499351
 20
155.3565111403944
 30
0.0
 10
134.7284715499351
 20
155.3565111403944
 30
0.0
 10
133.6877075172549
 20
152.0345756272799
 30
0.0
 10
133.6877075172549
 20
152.0345756272799
 30
0.0
 10
133.011434827367
 20
152.3184516825359
 30
0.0
 10
130.930940291334
 20
151.7768823149844
 30
0.0
 10
129.739280976855
 20
150.9162968950455
 30
0.0
 10
128.66613302525
 20
150.1454562717016
 30
0.0
 10
127.9192358313239
 20
149.4857200510519
 30
0.0
 10
127.0393578639405
 20
147.8282835196966
 30
0.0
 10
126.164647543194
 20
146.1699857139017
 30
0.0
 10
125.4742499524985
 20
143.5262176944419
 30
0.0
 10
124.2822461282437
 20
139.6959580071401
 30
0.0
 10
124.2822461282437
 20
139.6959580071401
 30
0.0
 10
120.5753209406769
 20
127.8027915271048
 30
0.0
 10
120.5753209406769
 20
127.8027915271048
 30
0.0
 10
120.5753209406769
 20
127.8027915271048
 30
0.0
 10
118.1964809388044
 20
127.8027915271048
 30
0.0
 10
118.1964809388044
 20
127.8027915271048
 30
0.0
 10
118.1964809388044
 20
127.8027915271048
 30
0.0
 10
126.377554584636
 20
154.8151140277308
 30
0.0
 10
126.377554584636
 20
154.8151140277308
 30
0.0
  0
HATCH
  5
2A1
330
29C
100
AcDbEntity
  8
LOGO
 62
   250
420
  2234388
100
AcDbHatch
 10
0.0
 20
0.0
 30
0.0
210
0.0
220
0.0
230
1.0
  2
SOLID
 70
     1
 71
     0
 91
        1
 92
        1
 93
        1
 72
     4
 94
        3
 73
     0
 74
     1
 95
       38
 96
       34
 40
0.0
 40
0.0
 40
0.0
 40
0.0
 40
1.0
 40
1.0
 40
1.0
 40
2.0
 40
2.0
 40
2.0
 40
3.0
 40
3.0
 40
3.0
 40
4.0
 40
4.0
 40
4.0
 40
5.0
 40
5.0
 40
5.0
 40
6.0
 40
6.0
 40
6.0
 40
7.0
 40
7.0
 40
7.0
 40
8.0
 40
8.0
 40
8.0
 40
9.0
 40
9.0
 40
9.0
 40
10.0
 40
10.0
 40
10.0
 40
11.0
 40
11.0
 40
11.0
 40
11.0
 10
126.377554584636
 20
154.8151140277308
 10
126.377554584636
 20
154.8151140277308
 10
128.8311532078563
 20
154.8151140277308
 10
128.8311532078563
 20
154.8151140277308
 10
128.8311532078563
 20
154.8151140277308
 10
127.7345785914971
 20
151.3062819612468
 10
127.7345785914971
 20
151.3062819612468
 10
128.571392836906
 20
152.2922689395754
 10
129.8860421413442
 20
153.604506675583
 10
131.0163787157314
 20
154.2664822097754
 10
132.7044766171327
 20
155.2500576196734
 10
133.6642808525008
 20
155.3847609420097
 10
134.7284715499351
 20
155.3565111403944
 10
134.7284715499351
 20
155.3565111403944
 10
133.6877075172549
 20
152.0345756272799
 10
133.6877075172549
 20
152.0345756272799
 10
133.011434827367
 20
152.3184516825359
 10
130.930940291334
 20
151.7768823149844
 10
129.739280976855
 20
150.9162968950455
 10
128.66613302525
 20
150.1454562717016
 10
127.9192358313239
 20
149.4857200510519
 10
127.0393578639405
 20
147.8282835196966
 10
126.164647543194
 20
146.1699857139017
 10
125.4742499524985
 20
143.5262176944419
 10
124.2822461282437
 20
139.6959580071401
 10
124.2822461282437
 20
139.6959580071401
 10
120.5753209406769
 20
127.8027915271048
 10
120.5753209406769
 20
127.8027915271048
 10
120.5753209406769
 20
127.8027915271048
 10
118.1964809388044
 20
127.8027915271048
 10
118.1964809388044
 20
127.8027915271048
 10
118.1964809388044
 20
127.8027915271048
 10
126.377554584636
 20
154.8151140277308
 10
126.377554584636
 20
154.8151140277308
 97
        0
 75
     2
 76
     1
 98
        0
  0
SPLINE
  5
2A2
330
29C
100
AcDbEntity
  8
LOGO
370
     0
100
AcDbSpline
210
0.0
220
0.0
230
1.0
 70
    11
 71
     3
 72
   104
 73
   100
 74
     0
 42
0.000000001
 43
0.0000000001
 40
0.0
 40
0.0
 40
0.0
 40
0.0
 40
1.0
 40
1.0
 40
1.0
 40
2.0
 40
2.0
 40
2.0
 40
3.0
 40
3.0
 40
3.0
 40
4.0
 40
4.0
 40
4.0
 40
5.0
 40
5.0
 40
5.0
 40
6.0
 40
6.0
 40
6.0
 40
7.0
 40
7.0
 40
7.0
 40
8.0
 40
8.0
 40
8.0
 40
9.0
 40
9.0
 40
9.0
 40
10.0
 40
10.0
 40
10.0
 40
11.0
 40
11.0
 40
11.0
 40
12.0
 40
12.0
 40
12.0
 40
13.0
 40
13.0
 40
13.0
 40
14.0
 40
14.0
 40
14.0
 40
15.0
 40
15.0
 40
15.0
 40
16.0
 40
16.0
 40
16.0
 40
17.0
 40
17.0
 40
17.0
 40
18.0
 40
18.0
 40
18.0
 40
19.0
 40
19.0
 40
19.0
 40
20.0
 40
20.0
 40
20.0
 40
21.0
 40
21.0
 40
21.0
 40
22.0
 40
22.0
 40
22.0
 40
23.0
 40
23.0
 40
23.0
 40
24.0
 40
24.0
 40
24.0
 40
25.0
 40
25.0
 40
25.0
 40
26.0
 40
26.0
 40
26.0
 40
27.0
 40
27.0
 40
27.0
 40
28.0
 40
28.0
 40
28.0
 40
29.0
 40
29.0
 40
29.0
 40
30.0
 40
30.0
 40
30.0
 40
31.0
 40
31.0
 40
31.0
 40
32.0
 40
32.0
 40
32.0
 40
33.0
 40
33.0
 40
33.0
 40
33.0
 10
139.8926730891197
 20
154.8294111834263
 30
0.0
 10
139.8926730891197
 20
154.8294111834263
 30
0.0
 10
142.0344903652445
 20
154.8294111834263
 30
0.0
 10
142.0344903652445
 20
154.8294111834263
 30
0.0
 10
142.0344903652445
 20
154.8294111834263
 30
0.0
 10
140.9516961399171
 20
151.3157559800812
 30
0.0
 10
140.9516961399171
 20
151.3157559800812
 30
0.0
 10
141.8928968473923
 20
152.7887075264977
 30
0.0
 10
142.7341897198865
 20
153.4484437471474
 30
0.0
 10
143.8552245303272
 20
154.2926649527359
 30
0.0
 10
144.9803934580775
 20
155.1296514530327
 30
0.0
 10
146.3139908001845
 20
155.3044901642492
 30
0.0
 10
147.241066606852
 20
155.3044901642492
 30
0.0
 10
148.3855280820469
 20
155.3044901642492
 30
0.0
 10
149.4969166187653
 20
155.0752189084569
 30
0.0
 10
150.0784491203092
 20
153.8172414621372
 30
0.0
 10
150.5228667310863
 20
152.833838307127
 30
0.0
 10
150.5414702589793
 20
152.7201500811143
 30
0.0
 10
150.4140016419347
 20
150.7765981809602
 30
0.0
 10
151.5818897818837
 20
152.7699317437168
 30
0.0
 10
152.4424752018226
 20
153.6256940267945
 30
0.0
 10
153.9038856707499
 20
154.4507949398263
 30
0.0
 10
155.4455669174378
 20
155.3044901642492
 30
0.0
 10
156.339225275853
 20
155.3659851592288
 30
0.0
 10
157.3748216618963
 20
155.2147453676543
 30
0.0
 10
158.911679771723
 20
154.9877134254046
 30
0.0
 10
159.8859534176746
 20
154.4390816074493
 30
0.0
 10
160.3965169054045
 20
152.7816450760939
 30
0.0
 10
160.9070803931344
 20
151.1219692311958
 30
0.0
 10
160.6328506116007
 20
150.2303779314354
 30
0.0
 10
159.9992971339115
 20
147.597634224801
 30
0.0
 10
159.7105979417943
 20
146.4014962832367
 30
0.0
 10
159.2947746424084
 20
144.9400858143094
 30
0.0
 10
158.7463150793409
 20
143.2092687007094
 30
0.0
 10
158.7463150793409
 20
143.2092687007094
 30
0.0
 10
153.9038856707499
 20
127.8027915271048
 30
0.0
 10
153.9038856707499
 20
127.8027915271048
 30
0.0
 10
153.9038856707499
 20
127.8027915271048
 30
0.0
 10
151.3882752878863
 20
127.8027915271048
 30
0.0
 10
151.3882752878863
 20
127.8027915271048
 30
0.0
 10
151.3882752878863
 20
127.8027915271048
 30
0.0
 10
155.6250565106276
 20
141.2751908193897
 30
0.0
 10
155.6250565106276
 20
141.2751908193897
 30
0.0
 10
156.5094131050963
 20
144.0936252951782
 30
0.0
 10
157.109893644309
 20
146.1506931664571
 30
0.0
 10
157.4220195011804
 20
147.4415712963654
 30
0.0
 10
157.8095929989511
 20
149.0530157726519
 30
0.0
 10
157.9656559273867
 20
149.5826995529385
 30
0.0
 10
157.7816877071116
 20
150.7529992613181
 30
0.0
 10
157.6111553680925
 20
151.8430281919372
 30
0.0
 10
157.0582171779396
 20
152.5547853887321
 30
0.0
 10
156.1170164704645
 20
152.5547853887321
 30
0.0
 10
155.1096698860365
 20
152.5547853887321
 30
0.0
 10
154.2962823053817
 20
152.4412694176073
 30
0.0
 10
153.156643967048
 20
151.2945686288697
 30
0.0
 10
152.0170056287143
 20
150.1476955852443
 30
0.0
 10
151.076149431015
 20
148.7930831468137
 30
0.0
 10
150.3337308641742
 20
147.2290087646991
 30
0.0
 10
149.5957909244188
 20
145.6683794803425
 30
0.0
 10
148.8530278478023
 20
143.6822806228776
 30
0.0
 10
148.0964843801539
 20
141.2751908193897
 30
0.0
 10
148.0964843801539
 20
141.2751908193897
 30
0.0
 10
143.8552245303272
 20
127.8027915271048
 30
0.0
 10
143.8552245303272
 20
127.8027915271048
 30
0.0
 10
143.8552245303272
 20
127.8027915271048
 30
0.0
 10
141.486030802177
 20
127.8027915271048
 30
0.0
 10
141.486030802177
 20
127.8027915271048
 30
0.0
 10
141.486030802177
 20
127.8027915271048
 30
0.0
 10
146.3329388378533
 20
143.2092687007094
 30
0.0
 10
146.3329388378533
 20
143.2092687007094
 30
0.0
 10
146.8483254624444
 20
144.8408669988801
 30
0.0
 10
147.2314203331297
 20
146.1837661049335
 30
0.0
 10
147.4867020769946
 20
147.224185627838
 30
0.0
 10
147.9169947869641
 20
149.0197705792876
 30
0.0
 10
148.0306830129768
 20
150.2400242051577
 30
0.0
 10
147.709255392159
 20
151.3157559800812
 30
0.0
 10
147.3874832615654
 20
152.3916600098926
 30
0.0
 10
146.8245542879144
 20
152.6683013598569
 30
0.0
 10
145.8840425999909
 20
152.6683013598569
 30
0.0
 10
145.0989048209514
 20
152.6683013598569
 30
0.0
 10
144.3282364524954
 20
152.3275811915945
 30
0.0
 10
143.4531816219731
 20
151.6538923250251
 30
0.0
 10
142.34627171234
 20
150.8074318058939
 30
0.0
 10
141.901854101563
 20
150.1097995099067
 30
0.0
 10
141.3578731655808
 20
149.289521733736
 30
0.0
 10
140.6299240093235
 20
148.192602607601
 30
0.0
 10
140.2850697237515
 20
147.455696197173
 30
0.0
 10
139.6652966370942
 20
145.8385673095858
 30
0.0
 10
139.0506911970739
 20
144.2214384219986
 30
0.0
 10
138.463991048893
 20
142.3252566160164
 30
0.0
 10
138.0571250036777
 20
141.0154304484394
 30
0.0
 10
138.0571250036777
 20
141.0154304484394
 30
0.0
 10
133.9009590684727
 20
127.8027915271048
 30
0.0
 10
133.9009590684727
 20
127.8027915271048
 30
0.0
 10
133.9009590684727
 20
127.8027915271048
 30
0.0
 10
131.4180771143097
 20
127.8027915271048
 30
0.0
 10
131.4180771143097
 20
127.8027915271048
 30
0.0
 10
131.4180771143097
 20
127.8027915271048
 30
0.0
 10
139.8926730891197
 20
154.8294111834263
 30
0.0
 10
139.8926730891197
 20
154.8294111834263
 30
0.0
  0
HATCH
  5
2A3
330
29C
100
AcDbEntity
  8
LOGO
 62
   250
420
  2234388
100
AcDbHatch
 10
0.0
 20
0.0
 30
0.0
210
0.0
220
0.0
230
1.0
  2
SOLID
 70
     1
 71
     0
 91
        1
 92
        1
 93
        1
 72
     4
 94
        3
 73
     0
 74
     1
 95
      104
 96
      100
 40
0.0
 40
0.0
 40
0.0
 40
0.0
 40
1.0
 40
1.0
 40
1.0
 40
2.0
 40
2.0
 40
2.0
 40
3.0
 40
3.0
 40
3.0
 40
4.0
 40
4.0
 40
4.0
 40
5.0
 40
5.0
 40
5.0
 40
6.0
 40
6.0
 40
6.0
 40
7.0
 40
7.0
 40
7.0
 40
8.0
 40
8.0
 40
8.0
 40
9.0
 40
9.0
 40
9.0
 40
10.0
 40
10.0
 40
10.0
 40
11.0
 40
11.0
 40
11.0
 40
12.0
 40
12.0
 40
12.0
 40
13.0
 40
13.0
 40
13.0
 40
14.0
 40
14.0
 40
14.0
 40
15.0
 40
15.0
 40
15.0
 40
16.0
 40
16.0
 40
16.0
 40
17.0
 40
17.0
 40
17.0
 40
18.0
 40
18.0
 40
18.0
 40
19.0
 40
19.0
 40
19.0
 40
20.0
 40
20.0
 40
20.0
 40
21.0
 40
21.0
 40
21.0
 40
22.0
 40
22.0
 40
22.0
 40
23.0
 40
23.0
 40
23.0
 40
24.0
 40
24.0
 40
24.0
 40
25.0
 40
25.0
 40
25.0
 40
26.0
 40
26.0
 40
26.0
 40
27.0
 40
27.0
 40
27.0
 40
28.0
 40
28.0
 40
28.0
 40
29.0
 40
29.0
 40
29.0
 40
30.0
 40
30.0
 40
30.0
 40
31.0
 40
31.0
 40
31.0
 40
32.0
 40
32.0
 40
32.0
 40
33.0
 40
33.0
 40
33.0
 40
33.0
 10
139.8926730891197
 20
154.8294111834263
 10
139.8926730891197
 20
154.8294111834263
 10
142.0344903652445
 20
154.8294111834263
 10
142.0344903652445
 20
154.8294111834263
 10
142.0344903652445
 20
154.8294111834263
 10
140.9516961399171
 20
151.3157559800812
 10
140.9516961399171
 20
151.3157559800812
 10
141.8928968473923
 20
152.7887075264977
 10
142.7341897198865
 20
153.4484437471474
 10
143.8552245303272
 20
154.2926649527359
 10
144.9803934580775
 20
155.1296514530327
 10
146.3139908001845
 20
155.3044901642492
 10
147.241066606852
 20
155.3044901642492
 10
148.3855280820469
 20
155.3044901642492
 10
149.4969166187653
 20
155.0752189084569
 10
150.0784491203092
 20
153.8172414621372
 10
150.5228667310863
 20
152.833838307127
 10
150.5414702589793
 20
152.7201500811143
 10
150.4140016419347
 20
150.7765981809602
 10
151.5818897818837
 20
152.7699317437168
 10
152.4424752018226
 20
153.6256940267945
 10
153.9038856707499
 20
154.4507949398263
 10
155.4455669174378
 20
155.3044901642492
 10
156.339225275853
 20
155.3659851592288
 10
157.3748216618963
 20
155.2147453676543
 10
158.911679771723
 20
154.9877134254046
 10
159.8859534176746
 20
154.4390816074493
 10
160.3965169054045
 20
152.7816450760939
 10
160.9070803931344
 20
151.1219692311958
 10
160.6328506116007
 20
150.2303779314354
 10
159.9992971339115
 20
147.597634224801
 10
159.7105979417943
 20
146.4014962832367
 10
159.2947746424084
 20
144.9400858143094
 10
158.7463150793409
 20
143.2092687007094
 10
158.7463150793409
 20
143.2092687007094
 10
153.9038856707499
 20
127.8027915271048
 10
153.9038856707499
 20
127.8027915271048
 10
153.9038856707499
 20
127.8027915271048
 10
151.3882752878863
 20
127.8027915271048
 10
151.3882752878863
 20
127.8027915271048
 10
151.3882752878863
 20
127.8027915271048
 10
155.6250565106276
 20
141.2751908193897
 10
155.6250565106276
 20
141.2751908193897
 10
156.5094131050963
 20
144.0936252951782
 10
157.109893644309
 20
146.1506931664571
 10
157.4220195011804
 20
147.4415712963654
 10
157.8095929989511
 20
149.0530157726519
 10
157.9656559273867
 20
149.5826995529385
 10
157.7816877071116
 20
150.7529992613181
 10
157.6111553680925
 20
151.8430281919372
 10
157.0582171779396
 20
152.5547853887321
 10
156.1170164704645
 20
152.5547853887321
 10
155.1096698860365
 20
152.5547853887321
 10
154.2962823053817
 20
152.4412694176073
 10
153.156643967048
 20
151.2945686288697
 10
152.0170056287143
 20
150.1476955852443
 10
151.076149431015
 20
148.7930831468137
 10
150.3337308641742
 20
147.2290087646991
 10
149.5957909244188
 20
145.6683794803425
 10
148.8530278478023
 20
143.6822806228776
 10
148.0964843801539
 20
141.2751908193897
 10
148.0964843801539
 20
141.2751908193897
 10
143.8552245303272
 20
127.8027915271048
 10
143.8552245303272
 20
127.8027915271048
 10
143.8552245303272
 20
127.8027915271048
 10
141.486030802177
 20
127.8027915271048
 10
141.486030802177
 20
127.8027915271048
 10
141.486030802177
 20
127.8027915271048
 10
146.3329388378533
 20
143.2092687007094
 10
146.3329388378533
 20
143.2092687007094
 10
146.8483254624444
 20
144.8408669988801
 10
147.2314203331297
 20
146.1837661049335
 10
147.4867020769946
 20
147.224185627838
 10
147.9169947869641
 20
149.0197705792876
 10
148.0306830129768
 20
150.2400242051577
 10
147.709255392159
 20
151.3157559800812
 10
147.3874832615654
 20
152.3916600098926
 10
146.8245542879144
 20
152.6683013598569
 10
145.8840425999909
 20
152.6683013598569
 10
145.0989048209514
 20
152.6683013598569
 10
144.3282364524954
 20
152.3275811915945
 10
143.4531816219731
 20
151.6538923250251
 10
142.34627171234
 20
150.8074318058939
 10
141.901854101563
 20
150.1097995099067
 10
141.3578731655808
 20
149.289521733736
 10
140.6299240093235
 20
148.192602607601
 10
140.2850697237515
 20
147.455696197173
 10
139.6652966370942
 20
145.8385673095858
 10
139.0506911970739
 20
144.2214384219986
 10
138.463991048893
 20
142.3252566160164
 10
138.0571250036777
 20
141.0154304484394
 10
138.0571250036777
 20
141.0154304484394
 10
133.9009590684727
 20
127.8027915271048
 10
133.9009590684727
 20
127.8027915271048
 10
133.9009590684727
 20
127.8027915271048
 10
131.4180771143097
 20
127.8027915271048
 10
131.4180771143097
 20
127.8027915271048
 10
131.4180771143097
 20
127.8027915271048
 10
139.8926730891197
 20
154.8294111834263
 10
139.8926730891197
 20
154.8294111834263
 97
        0
 75
     2
 76
     1
 98
        0
  0
SPLINE
  5
2A4
330
29C
100
AcDbEntity
  8
LOGO
370
     0
100
AcDbSpline
210
0.0
220
0.0
230
1.0
 70
    11
 71
     3
 72
    29
 73
    25
 74
     0
 42
0.000000001
 43
0.0000000001
 40
0.0
 40
0.0
 40
0.0
 40
0.0
 40
1.0
 40
1.0
 40
1.0
 40
2.0
 40
2.0
 40
2.0
 40
3.0
 40
3.0
 40
3.0
 40
4.0
 40
4.0
 40
4.0
 40
5.0
 40
5.0
 40
5.0
 40
6.0
 40
6.0
 40
6.0
 40
7.0
 40
7.0
 40
7.0
 40
8.0
 40
8.0
 40
8.0
 40
8.0
 10
101.6420971922469
 20
132.8388354296931
 30
0.0
 10
101.630039350094
 20
134.7164137077823
 30
0.0
 10
102.2236296937908
 20
138.0598810818841
 30
0.0
 10
103.7487744712405
 20
142.5378191476827
 30
0.0
 10
105.819967243327
 20
148.5896501242061
 30
0.0
 10
107.0602024361932
 20
150.8074318058939
 30
0.0
 10
108.1522984254671
 20
151.8833358357054
 30
0.0
 10
109.741177511439
 20
153.4532668840085
 30
0.0
 10
111.8740375333931
 20
153.5290590346837
 30
0.0
 10
112.5075910110823
 20
153.4532668840085
 30
0.0
 10
113.4012493694975
 20
153.3490526768302
 30
0.0
 10
114.6683563248758
 20
152.7580461564518
 30
0.0
 10
114.7493161221879
 20
150.7838328862519
 30
0.0
 10
114.8106388622796
 20
149.0909118479895
 30
0.0
 10
114.3186789024427
 20
145.9191825971221
 30
0.0
 10
112.6164561002338
 20
140.9489400617108
 30
0.0
 10
110.6444821435766
 20
135.1746117095912
 30
0.0
 10
109.4669477299053
 20
132.8960240524753
 30
0.0
 10
108.5212683953448
 20
131.9072809959403
 30
0.0
 10
106.7346406980658
 20
130.0538184021569
 30
0.0
 10
104.8222669326213
 20
130.2336525051225
 30
0.0
 10
104.5408024457958
 20
130.2336525051225
 30
0.0
 10
104.1721769856939
 20
130.2336525051225
 30
0.0
 10
101.6465758193322
 20
130.6305277668397
 30
0.0
 10
101.6420971922469
 20
132.8388354296931
 30
0.0
  0
SPLINE
  5
2A5
330
29C
100
AcDbEntity
  8
LOGO
370
     0
100
AcDbSpline
210
0.0
220
0.0
230
1.0
 70
    11
 71
     3
 72
    32
 73
    28
 74
     0
 42
0.000000001
 43
0.0000000001
 40
0.0
 40
0.0
 40
0.0
 40
0.0
 40
1.0
 40
1.0
 40
1.0
 40
2.0
 40
2.0
 40
2.0
 40
3.0
 40
3.0
 40
3.0
 40
4.0
 40
4.0
 40
4.0
 40
5.0
 40
5.0
 40
5.0
 40
6.0
 40
6.0
 40
6.0
 40
7.0
 40
7.0
 40
7.0
 40
8.0
 40
8.0
 40
8.0
 40
9.0
 40
9.0
 40
9.0
 40
9.0
 10
106.2595617172429
 20
153.4105476718098
 30
0.0
 10
104.8222669326213
 20
151.5474388043041
 30
0.0
 10
103.7177685914188
 20
149.8758773721411
 30
0.0
 10
101.9232171692965
 20
144.6141795664062
 30
0.0
 10
100.2754269116635
 20
139.7999999594306
 30
0.0
 10
99.22777268346732
 20
136.3052927937542
 30
0.0
 10
99.06964269637689
 20
132.039572749846
 30
0.0
 10
98.94665270641765
 20
128.8673267343149
 30
0.0
 10
100.8807305877373
 20
127.8027915271048
 30
0.0
 10
103.7129454545577
 20
127.8027915271048
 30
0.0
 10
104.9352661390825
 20
127.8027915271048
 30
0.0
 10
108.0151835347002
 20
127.8827177950895
 30
0.0
 10
110.2045431598849
 20
130.5926316915021
 30
0.0
 10
111.7417457794874
 20
132.4984597712065
 30
0.0
 10
113.155269389579
 20
134.475256864725
 30
0.0
 10
115.0562743324223
 20
140.9489400617108
 30
0.0
 10
116.6361961642235
 20
146.3680788349845
 30
0.0
 10
117.7282921534974
 20
149.8639917848761
 30
0.0
 10
117.6480213757369
 20
151.8595646611754
 30
0.0
 10
117.6480213757369
 20
151.8595646611754
 30
0.0
 10
117.6480213757369
 20
151.8595646611754
 30
0.0
 10
117.6480213757369
 20
151.8595646611754
 30
0.0
 10
117.13229024137
 20
155.18150017429
 30
0.0
 10
114.7162431837115
 20
155.886194920681
 30
0.0
 10
113.3351034925446
 20
155.886194920681
 30
0.0
 10
111.9829026225447
 20
155.886194920681
 30
0.0
 10
108.3414342923792
 20
156.1251124501957
 30
0.0
 10
106.2595617172429
 20
153.4105476718098
 30
0.0
  0
HATCH
  5
2A6
330
29C
100
AcDbEntity
  8
LOGO
 62
   250
420
  2234388
100
AcDbHatch
 10
0.0
 20
0.0
 30
0.0
210
0.0
220
0.0
230
1.0
  2
SOLID
 70
     1
 71
     0
 91
        2
 92
        1
 93
        1
 72
     4
 94
        3
 73
     0
 74
     1
 95
       29
 96
       25
 40
0.0
 40
0.0
 40
0.0
 40
0.0
 40
1.0
 40
1.0
 40
1.0
 40
2.0
 40
2.0
 40
2.0
 40
3.0
 40
3.0
 40
3.0
 40
4.0
 40
4.0
 40
4.0
 40
5.0
 40
5.0
 40
5.0
 40
6.0
 40
6.0
 40
6.0
 40
7.0
 40
7.0
 40
7.0
 40
8.0
 40
8.0
 40
8.0
 40
8.0
 10
101.6420971922469
 20
132.8388354296931
 10
101.630039350094
 20
134.7164137077823
 10
102.2236296937908
 20
138.0598810818841
 10
103.7487744712405
 20
142.5378191476827
 10
105.819967243327
 20
148.5896501242061
 10
107.0602024361932
 20
150.8074318058939
 10
108.1522984254671
 20
151.8833358357054
 10
109.741177511439
 20
153.4532668840085
 10
111.8740375333931
 20
153.5290590346837
 10
112.5075910110823
 20
153.4532668840085
 10
113.4012493694975
 20
153.3490526768302
 10
114.6683563248758
 20
152.7580461564518
 10
114.7493161221879
 20
150.7838328862519
 10
114.8106388622796
 20
149.0909118479895
 10
114.3186789024427
 20
145.9191825971221
 10
112.6164561002338
 20
140.9489400617108
 10
110.6444821435766
 20
135.1746117095912
 10
109.4669477299053
 20
132.8960240524753
 10
108.5212683953448
 20
131.9072809959403
 10
106.7346406980658
 20
130.0538184021569
 10
104.8222669326213
 20
130.2336525051225
 10
104.5408024457958
 20
130.2336525051225
 10
104.1721769856939
 20
130.2336525051225
 10
101.6465758193322
 20
130.6305277668397
 10
101.6420971922469
 20
132.8388354296931
 97
        0
 92
        1
 93
        1
 72
     4
 94
        3
 73
     0
 74
     1
 95
       32
 96
       28
 40
0.0
 40
0.0
 40
0.0
 40
0.0
 40
1.0
 40
1.0
 40
1.0
 40
2.0
 40
2.0
 40
2.0
 40
3.0
 40
3.0
 40
3.0
 40
4.0
 40
4.0
 40
4.0
 40
5.0
 40
5.0
 40
5.0
 40
6.0
 40
6.0
 40
6.0
 40
7.0
 40
7.0
 40
7.0
 40
8.0
 40
8.0
 40
8.0
 40
9.0
 40
9.0
 40
9.0
 40
9.0
 10
106.2595617172429
 20
153.4105476718098
 10
104.8222669326213
 20
151.5474388043041
 10
103.7177685914188
 20
149.8758773721411
 10
101.9232171692965
 20
144.6141795664062
 10
100.2754269116635
 20
139.7999999594306
 10
99.22777268346732
 20
136.3052927937542
 10
99.06964269637689
 20
132.039572749846
 10
98.94665270641765
 20
128.8673267343149
 10
100.8807305877373
 20
127.8027915271048
 10
103.7129454545577
 20
127.8027915271048
 10
104.9352661390825
 20
127.8027915271048
 10
108.0151835347002
 20
127.8827177950895
 10
110.2045431598849
 20
130.5926316915021
 10
111.7417457794874
 20
132.4984597712065
 10
113.155269389579
 20
134.475256864725
 10
115.0562743324223
 20
140.9489400617108
 10
116.6361961642235
 20
146.3680788349845
 10
117.7282921534974
 20
149.8639917848761
 10
117.6480213757369
 20
151.8595646611754
 10
117.6480213757369
 20
151.8595646611754
 10
117.6480213757369
 20
151.8595646611754
 10
117.6480213757369
 20
151.8595646611754
 10
117.13229024137
 20
155.18150017429
 10
114.7162431837115
 20
155.886194920681
 10
113.3351034925446
 20
155.886194920681
 10
111.9829026225447
 20
155.886194920681
 10
108.3414342923792
 20
156.1251124501957
 10
106.2595617172429
 20
153.4105476718098
 97
        0
 75
     2
 76
     1
 98
        0
  0
ENDBLK
  5
2A7
330
29C
100
AcDbEntity
  8
0
100
AcDbBlockEnd
  0
ENDSEC
  0
SECTION
  2
ENTITIES
  0
MTEXT
  5
165
330
A
100
AcDbEntity
  8
template
 62
     7
390
1D
100
AcDbMText
 10
-967.999999999759
 20
-1147.4176292337
 30
0.0
 40
16.28841145833333
 41
0.0
 46
0.0
 71
     1
 72
     1
  1
品名
  7
ＭＳ ゴシック
 73
     1
 44
0.7828267384257843
  0
MTEXT
  5
166
330
A
100
AcDbEntity
  8
template
 62
     7
390
1D
100
AcDbMText
 10
-967.999999999759
 20
-1232.417629233701
 30
0.0
 40
16.28841145833333
 41
0.0
 46
0.0
 71
     1
 72
     1
  1
仕様
  7
ＭＳ ゴシック
 73
     1
 44
0.7828267384257843
  0
MTEXT
  5
167
330
A
100
AcDbEntity
  8
template
 62
     7
390
1D
100
AcDbMText
 10
-914.999999999759
 20
-1176.000090171201
 30
0.0
 40
24.4326171875
 41
0.0
 46
0.0
 71
     1
 72
     1
  1
手洗器 -CATALANO,Verso-
  7
ＭＳ ゴシック
 73
     1
 44
0.7828267384257843
  0
LINE
  5
168
330
A
100
AcDbEntity
  8
template
  6
Continuous
 62
     7
370
     5
390
1D
100
AcDbLine
 10
974.9999999997588
 20
-1224.002707358701
 30
0.0
 11
-975.000000000241
 21
-1224.002707358701
 31
0.0
  0
LWPOLYLINE
  5
169
330
A
100
AcDbEntity
  8
template
  6
Continuous
 62
     7
370
     5
390
1D
100
AcDbPolyline
 90
        5
 70
   128
 43
0.0
 10
975.0000000002412
 20
1405.9972926413
 10
-974.999999999759
 20
1405.9972926413
 10
-974.999999999759
 20
-1394.002707358701
 10
975.0000000002412
 20
-1394.002707358701
 10
975.0000000002412
 20
1405.9972926413
  0
LINE
  5
16A
330
A
100
AcDbEntity
  8
template
  6
Continuous
 62
     7
370
     5
390
1D
100
AcDbLine
 10
974.9999999997588
 20
-1139.0027073587
 30
0.0
 11
-975.000000000241
 21
-1139.0027073587
 31
0.0
  0
LINE
  5
16B
330
A
100
AcDbEntity
  8
template
  6
Continuous
 62
     7
370
     5
390
1D
100
AcDbLine
 10
975.0000000002412
 20
-1309.002707358701
 30
0.0
 11
222.000000000241
 21
-1309.002707358701
 31
0.0
  0
MTEXT
  5
16C
330
A
100
AcDbEntity
  8
template
 62
     7
390
1D
100
AcDbMText
 10
-974.9999999995562
 20
-1405.856529415558
 30
0.0
 40
21.71788194444445
 41
0.0
 46
0.0
 71
     1
 72
     1
  1
100707SH
  7
ＭＳ ゴシック
 73
     1
 44
0.7828267384257843
  0
MTEXT
  5
16D
330
A
100
AcDbEntity
  8
template
 62
     7
390
1D
100
AcDbMText
 10
251.8714062525009
 20
-1338.913101832008
 30
0.0
 40
24.4326171875
 41
0.0
 46
0.0
 71
     1
 72
     1
  1
大洋金物株式会社 ティーフォルム事業部
  7
ＭＳ ゴシック
 73
     1
 44
0.7828267384257843
  0
MTEXT
  5
16F
330
A
100
AcDbEntity
  8
template
 62
     7
390
1D
100
AcDbMText
 10
784.0000000005002
 20
-1261.000090171201
 30
0.0
 40
24.4326171875
 41
0.0
 46
0.0
 71
     1
 72
     1
  1
1:10
  7
ＭＳ ゴシック
 73
     1
 44
0.7828267384257843
  0
MTEXT
  5
170
330
A
100
AcDbEntity
  8
template
 62
     7
390
1D
100
AcDbMText
 10
731.0000000005002
 20
-1232.417629233701
 30
0.0
 40
16.28841145833333
 41
0.0
 46
0.0
 71
     1
 72
     1
  1
縮尺
  7
ＭＳ ゴシック
 73
     1
 44
0.7828267384257843
  0
LINE
  5
171
330
A
100
AcDbEntity
  8
template
  6
Continuous
 62
     7
370
     5
390
1D
100
AcDbLine
 10
724.0000000005002
 20
-1309.002707358701
 30
0.0
 11
724.0000000005002
 21
-1224.002707358701
 31
0.0
  0
MTEXT
  5
172
330
A
100
AcDbEntity
  8
template
 62
     7
390
1D
100
AcDbMText
 10
480.0000000005002
 20
-1232.417629233701
 30
0.0
 40
16.28841145833333
 41
0.0
 46
0.0
 71
     1
 72
     1
  1
容量
  7
ＭＳ ゴシック
 73
     1
 44
0.7828267384257843
  0
MTEXT
  5
173
330
A
100
AcDbEntity
  8
template
 62
     7
390
1D
100
AcDbMText
 10
533.0000000005002
 20
-1261.000090171201
 30
0.0
 40
24.4326171875
 41
0.0
 46
0.0
 71
     1
 72
     1
  1
5.5L
  7
ＭＳ ゴシック
 73
     1
 44
0.7828267384257843
  0
LINE
  5
174
330
A
100
AcDbEntity
  8
template
  6
Continuous
 62
     7
370
     5
390
1D
100
AcDbLine
 10
473.0000000005002
 20
-1309.002707358701
 30
0.0
 11
473.0000000005002
 21
-1224.002707358701
 31
0.0
  0
MTEXT
  5
175
330
A
100
AcDbEntity
  8
template
 62
     7
390
1D
100
AcDbMText
 10
229.0000000005002
 20
-1147.4176292337
 30
0.0
 40
16.28841145833333
 41
0.0
 46
0.0
 71
     1
 72
     1
  1
品番
  7
ＭＳ ゴシック
 73
     1
 44
0.7828267384257843
  0
MTEXT
  5
176
330
A
100
AcDbEntity
  8
template
 62
     7
390
1D
100
AcDbMText
 10
229.0000000005002
 20
-1232.417629233701
 30
0.0
 40
16.28841145833333
 41
0.0
 46
0.0
 71
     1
 72
     1
  1
重量
  7
ＭＳ ゴシック
 73
     1
 44
0.7828267384257843
  0
MTEXT
  5
177
330
A
100
AcDbEntity
  8
template
 62
     7
390
1D
100
AcDbMText
 10
282.0000000005002
 20
-1176.000090171201
 30
0.0
 40
24.4326171875
 41
0.0
 46
0.0
 71
     1
 72
     1
  1
ADF70-0602
  7
ＭＳ ゴシック
 73
     1
 44
0.7828267384257843
  0
MTEXT
  5
178
330
A
100
AcDbEntity
  8
template
 62
     7
390
1D
100
AcDbMText
 10
282.0000000005002
 20
-1261.000090171201
 30
0.0
 40
24.4326171875
 41
0.0
 46
0.0
 71
     1
 72
     1
  1
10kg
  7
ＭＳ ゴシック
 73
     1
 44
0.7828267384257843
  0
LINE
  5
179
330
A
100
AcDbEntity
  8
template
  6
Continuous
 62
     7
370
     5
390
1D
100
AcDbLine
 10
222.0000000005002
 20
-1394.002707358701
 30
0.0
 11
222.0000000005002
 21
-1139.0027073587
 31
0.0
  0
MTEXT
  5
17A
330
A
100
AcDbEntity
  8
template
 62
     7
390
1D
100
AcDbMText
 10
-914.999999999759
 20
-1261.0000901712
 30
0.0
 40
24.4326171875
 41
0.0
 46
0.0
 71
     1
 72
     1
  1
壁掛け,カウンタ ー置き/オーバーフローなし/壁取付ボルト付属/\P陶器,背面釉薬あり/ホワイト
  7
ＭＳ ゴシック
 73
     1
 44
1.304711230709641
  0
MTEXT
  5
17B
330
A
100
AcDbEntity
  8
notes
 62
     7
390
1D
100
AcDbMText
 10
-847.7204871966646
 20
135.3359505208334
 30
0.0
 40
24.4326171875
 41
835.0
 46
69.15933207177669
 71
     1
 72
     1
  1
{\fメイリオ|b0|i0|c0|p0;＝\fＭＳ ゴシック|b0|i0|c0|p0;φ30、φ33、φ35のいずれかの水栓取付用穴あけ加工を\P　承ります。必要な場合、ご注文の際にご指示ください。}
  7
ＭＳ ゴシック
 73
     1
 44
1.043768984567712
1001
ACAD
1000
ACAD_MTEXT_DEFINED_HEIGHT_BEGIN
1070
    46
1040
69.15933207177669
1000
ACAD_MTEXT_DEFINED_HEIGHT_END
  0
MTEXT
  5
17C
330
A
100
AcDbEntity
  8
notes
 62
     7
390
1D
100
AcDbMText
 10
-170.5427094188867
 20
-374.5588350283078
 30
0.0
 40
24.4326171875
 41
0.0
 46
0.0
 71
     1
 72
     1
  1
壁取付ボルト位置(2ヶ所)
  7
ＭＳ ゴシック
 73
     1
 44
0.7828267384257843
  0
MTEXT
  5
17D
330
A
100
AcDbEntity
  8
notes
 62
     7
390
1D
100
AcDbMText
 10
334.4045128033354
 20
996.685490047256
 30
0.0
 40
24.4326171875
 41
0.0
 46
0.0
 71
     1
 72
     1
  1
カウンター切込寸法
  7
ＭＳ ゴシック
 73
     1
 44
0.7828267384257843
  0
LINE
  5
17E
330
A
100
AcDbEntity
  8
notes
  6
Continuous
 62
     7
370
     5
390
1D
100
AcDbLine
 10
-239.7293474643134
 20
-513.3171271402439
 30
0.0
 11
-152.7204871966646
 21
-404.3171271402439
 31
0.0
  0
CIRCLE
  5
17F
330
A
100
AcDbEntity
  8
notes
  6
STYLE_12
 62
     7
370
     5
390
1D
100
AcDbCircle
 10
-872.7204871966646
 20
121.682872859756
 30
0.0
 40
17.5
  0
MTEXT
  5
180
330
A
100
AcDbEntity
  8
notes
 62
     7
390
1D
100
AcDbMText
 10
98.59854368285005
 20
135.3359505208334
 30
0.0
 40
24.4326171875
 41
770.0
 46
113.5195576982409
 71
     1
 72
     1
  1
{\fメイリオ|b0|i0|c0|p0;※\fＭＳ ゴシック|b0|i0|c0|p0;陶器製品には寸法公差があります。\P  洗面器の収め方をご確認の上、必ず現物を合わせて\P  カウンターに切込を行ってください。}
  7
ＭＳ ゴシック
 73
     1
 44
1.043768984567712
1001
ACAD
1000
ACAD_MTEXT_DEFINED_HEIGHT_BEGIN
1070
    46
1040
113.5195576982409
1000
ACAD_MTEXT_DEFINED_HEIGHT_END
  0
DIMENSION
  5
181
330
A
100
AcDbEntity
  8
notes
  6
Continuous
 62
     7
370
     5
390
1D
100
AcDbDimension
  2
*D3
 10
-689.7293474643129
 20
901.4571200900469
 30
0.0
 11
-439.7293474643129
 21
901.4571200900469
 31
0.0
 70
    32
 71
     5
 42
0.0
 73
     0
 74
     0
 75
     0
  3
tform線あり
100
AcDbAlignedDimension
 13
-189.7293474643134
 23
747.4571200900469
 33
0.0
 14
-689.7293474643129
 24
747.4571200900467
 34
0.0
100
AcDbRotatedDimension
1001
ACAD
1000
DSTYLE
1002
{
1070
   279
1070
     2
1070
   340
1005
38
1070
   147
1040
5.0
1002
}
  0
DIMENSION
  5
182
330
A
100
AcDbEntity
  8
notes
  6
Continuous
 62
     7
370
     5
390
1D
100
AcDbDimension
  2
*D4
 10
-249.7293474643134
 20
851.4571200900469
 30
0.0
 11
-219.7293474643134
 21
851.4571200900469
 31
0.0
 70
    32
 71
     5
 42
0.0
 73
     0
 74
     0
 75
     0
  3
tform線あり
100
AcDbAlignedDimension
 13
-189.7293474643134
 23
747.4571200900469
 33
0.0
 14
-249.7293474643134
 24
643.9571200900469
 34
0.0
100
AcDbRotatedDimension
1001
ACAD
1000
DSTYLE
1002
{
1070
   279
1070
     2
1070
   340
1005
38
1070
   147
1040
5.0
1002
}
  0
DIMENSION
  5
183
330
A
100
AcDbEntity
  8
notes
  6
Continuous
 62
     7
370
     5
390
1D
100
AcDbDimension
  2
*D5
 10
-89.72934746431338
 20
751.4571200900469
 30
0.0
 11
-89.72934746431338
 21
626.4571200900469
 31
0.0
 70
    32
 71
     5
 42
0.0
 73
     0
 74
     0
 75
     0
  3
tform線あり
100
AcDbAlignedDimension
 13
-193.7293474643134
 23
501.4571200900469
 33
0.0
 14
-193.7293474643134
 24
751.4571200900469
 34
0.0
 50
90.0
100
AcDbRotatedDimension
1001
ACAD
1000
DSTYLE
1002
{
1070
   279
1070
     2
1070
   340
1005
38
1070
   147
1040
5.0
1002
}
  0
DIMENSION
  5
184
330
A
100
AcDbEntity
  8
notes
  6
Continuous
 62
     7
370
     5
390
1D
100
AcDbDimension
  2
*D6
 10
-289.7293474643134
 20
401.4571200900469
 30
0.0
 11
-239.7293474643134
 21
401.4571200900469
 31
0.0
 70
    32
 71
     5
 42
0.0
 73
     0
 74
     0
 75
     0
  3
tform線あり
100
AcDbAlignedDimension
 13
-189.7293474643134
 23
505.4571200900467
 33
0.0
 14
-289.7293474643134
 24
501.4571200900469
 34
0.0
100
AcDbRotatedDimension
1001
ACAD
1000
DSTYLE
1002
{
1070
   279
1070
     2
1070
   340
1005
38
1070
   147
1040
5.0
1002
}
  0
DIMENSION
  5
185
330
A
100
AcDbEntity
  8
notes
  6
Continuous
 62
     7
370
     5
390
1D
100
AcDbDimension
  2
*D7
 10
-289.7293474643134
 20
401.4571200900469
 30
0.0
 11
-477.2293474643134
 21
401.4571200900469
 31
0.0
 70
    32
 71
     5
 42
0.0
 73
     0
 74
     0
 75
     0
  3
tform線あり
100
AcDbAlignedDimension
 13
-664.7293474643134
 23
501.4571200900469
 33
0.0
 14
-289.7293474643134
 24
501.4571200900469
 34
0.0
100
AcDbRotatedDimension
1001
ACAD
1000
DSTYLE
1002
{
1070
   279
1070
     2
1070
   340
1005
38
1070
   147
1040
5.0
1002
}
  0
DIMENSION
  5
186
330
A
100
AcDbEntity
  8
notes
  6
Continuous
 62
     7
370
     5
390
1D
100
AcDbDimension
  2
*D8
 10
-789.7293474643129
 20
726.4571200900465
 30
0.0
 11
-789.7293474643129
 21
626.4571200900467
 31
0.0
 70
    32
 71
     5
 42
0.0
 73
     0
 74
     0
 75
     0
  3
tform線あり
100
AcDbAlignedDimension
 13
-689.7293474643129
 23
526.4571200900469
 33
0.0
 14
-689.7293474643129
 24
726.4571200900465
 34
0.0
 50
90.0
100
AcDbRotatedDimension
1001
ACAD
1000
DSTYLE
1002
{
1070
   279
1070
     2
1070
   340
1005
38
1070
   147
1040
5.0
1002
}
  0
DIMENSION
  5
187
330
A
100
AcDbEntity
  8
notes
  6
Continuous
 62
     7
370
     5
390
1D
100
AcDbDimension
  2
*D9
 10
-189.7293474643134
 20
-693.3171271402439
 30
0.0
 11
-339.7178660302793
 21
-688.3171271402439
 31
0.0
 70
   128
 71
     5
 42
0.0
 73
     0
 74
     0
 75
     0
  3
tform線あり
100
AcDbAlignedDimension
 13
-474.7293474643134
 23
-593.3171271402439
 33
0.0
 14
-189.7293474643134
 24
-591.3171271402439
 34
0.0
100
AcDbRotatedDimension
1001
ACAD
1000
DSTYLE
1002
{
1070
   279
1070
     2
1070
   340
1005
38
1070
   147
1040
5.0
1002
}
  0
DIMENSION
  5
188
330
A
100
AcDbEntity
  8
notes
  6
Continuous
 62
     7
370
     5
390
1D
100
AcDbDimension
  2
*D10
 10
338.9872047980907
 20
-693.3171271402441
 30
0.0
 11
396.4872047980907
 21
-693.3171271402441
 31
0.0
 70
    32
 71
     5
 42
0.0
 73
     0
 74
     0
 75
     0
  3
tform線あり
100
AcDbAlignedDimension
 13
453.9872047980907
 23
-538.3599569335033
 33
0.0
 14
338.9872047980907
 24
-538.3599569335033
 34
0.0
100
AcDbRotatedDimension
1001
ACAD
1000
DSTYLE
1002
{
1070
   279
1070
     2
1070
   340
1005
38
1070
   147
1040
5.0
1002
}
  0
DIMENSION
  5
189
330
A
100
AcDbEntity
  8
notes
  6
Continuous
 62
     7
370
     5
390
1D
100
AcDbDimension
  2
*D11
 10
621.4872047980912
 20
-463.3171271402443
 30
0.0
 11
621.4872047980912
 21
-490.8171271402441
 31
0.0
 70
    32
 71
     5
 42
0.0
 73
     0
 74
     0
 75
     0
  3
tform線あり
100
AcDbAlignedDimension
 13
474.2795128033354
 23
-518.3171271402439
 33
0.0
 14
517.4872047980912
 24
-463.3171271402443
 34
0.0
 50
90.0
100
AcDbRotatedDimension
1001
ACAD
1000
DSTYLE
1002
{
1070
   279
1070
     2
1070
   340
1005
38
1070
   147
1040
5.0
1002
}
  0
DIMENSION
  5
18A
330
A
100
AcDbEntity
  8
notes
  6
Continuous
 62
     7
370
     5
390
1D
100
AcDbDimension
  2
*D12
 10
-75.71786603027931
 20
-463.3171271402439
 30
0.0
 11
-75.71786603027931
 21
-488.3171271402439
 31
0.0
 70
    32
 71
     5
 42
0.0
 73
     0
 74
     0
 75
     0
  3
tform線あり
100
AcDbAlignedDimension
 13
-219.7293474643134
 23
-513.3171271402439
 33
0.0
 14
-193.7293474643134
 24
-463.3171271402439
 34
0.0
 50
90.0
100
AcDbRotatedDimension
1001
ACAD
1000
DSTYLE
1002
{
1070
   279
1070
     2
1070
   340
1005
38
1070
   147
1040
5.0
1002
}
  0
DIMENSION
  5
18B
330
A
100
AcDbEntity
  8
notes
  6
Continuous
 62
     7
370
     5
390
1D
100
AcDbDimension
  2
*D13
 10
-189.7293474643134
 20
-363.3171271402439
 30
0.0
 11
-214.7293474643134
 21
-358.3171271402439
 31
0.0
 70
   128
 71
     5
 42
0.0
 73
     0
 74
     0
 75
     0
  3
tform線あり
100
AcDbAlignedDimension
 13
-239.7293474643134
 23
-493.3171271402439
 33
0.0
 14
-189.7293474643134
 24
-467.3171271402439
 34
0.0
100
AcDbRotatedDimension
1001
ACAD
1000
DSTYLE
1002
{
1070
   279
1070
     2
1070
   340
1005
38
1070
   147
1040
5.0
1002
}
  0
DIMENSION
  5
18C
330
A
100
AcDbEntity
  8
notes
  6
Continuous
 62
     7
370
     5
390
1D
100
AcDbDimension
  2
*D14
 10
-789.7293474643134
 20
-463.3171271402439
 30
0.0
 11
-789.7293474643134
 21
-498.3171271402439
 31
0.0
 70
    32
 71
     5
 42
0.0
 73
     0
 74
     0
 75
     0
  3
tform線あり
100
AcDbAlignedDimension
 13
-669.7293474643134
 23
-533.3171271402439
 33
0.0
 14
-685.7293474643134
 24
-463.3171271402439
 34
0.0
 50
90.0
100
AcDbRotatedDimension
1001
ACAD
1000
DSTYLE
1002
{
1070
   279
1070
     2
1070
   340
1005
38
1070
   147
1040
5.0
1002
}
  0
DIMENSION
  5
18D
330
A
100
AcDbEntity
  8
notes
  6
Continuous
 62
     7
370
     5
390
1D
100
AcDbDimension
  2
*D15
 10
-239.7293474643134
 20
-363.3171271402439
 30
0.0
 11
-444.7293474643134
 21
-363.3171271402439
 31
0.0
 70
    32
 71
     5
 42
0.0
 73
     0
 74
     0
 75
     0
  3
tform線あり
100
AcDbAlignedDimension
 13
-649.7293474643134
 23
-513.3171271402439
 33
0.0
 14
-239.7293474643134
 24
-493.3171271402439
 34
0.0
100
AcDbRotatedDimension
1001
ACAD
1000
DSTYLE
1002
{
1070
   279
1070
     2
1070
   340
1005
38
1070
   147
1040
5.0
1002
}
  0
DIMENSION
  5
18E
330
A
100
AcDbEntity
  8
notes
  6
Continuous
 62
     7
370
     5
390
1D
100
AcDbDimension
  2
*D16
 10
404.7123192023505
 20
401.4571200900469
 30
0.0
 11
554.7123192023505
 21
401.4571200900469
 31
0.0
 70
    32
 71
     5
 42
0.0
 73
     0
 74
     0
 75
     0
  3
tform線あり
100
AcDbAlignedDimension
 13
704.7123192023505
 23
576.482872859756
 33
0.0
 14
404.7123192023505
 24
576.482872859756
 34
0.0
100
AcDbRotatedDimension
1001
ACAD
1000
DSTYLE
1002
{
1070
   279
1070
     2
1070
   340
1005
38
1070
   147
1040
5.0
1002
}
  0
DIMENSION
  5
18F
330
A
100
AcDbEntity
  8
notes
  6
Continuous
 62
     7
370
     5
390
1D
100
AcDbDimension
  2
*D17
 10
304.7123192023505
 20
576.482872859756
 30
0.0
 11
304.7123192023505
 21
626.482872859756
 31
0.0
 70
    32
 71
     5
 42
0.0
 73
     0
 74
     0
 75
     0
  3
tform線あり
100
AcDbAlignedDimension
 13
404.7123192023505
 23
676.482872859756
 33
0.0
 14
404.7123192023505
 24
576.482872859756
 34
0.0
 50
90.0
100
AcDbRotatedDimension
1001
ACAD
1000
DSTYLE
1002
{
1070
   279
1070
     2
1070
   340
1005
38
1070
   147
1040
5.0
1002
}
  0
DIMENSION
  5
190
330
A
100
AcDbEntity
  8
notes
  6
Continuous
 62
     7
370
     5
390
1D
100
AcDbDimension
  2
*D18
 10
304.712319202351
 20
676.482872859756
 30
0.0
 11
304.712319202351
 21
713.9699964749014
 31
0.0
 70
    32
 71
     5
 42
0.0
 73
     0
 74
     0
 75
     0
  3
tform線あり
100
AcDbAlignedDimension
 13
405.8795128033353
 23
751.4571200900469
 33
0.0
 14
405.8795128033353
 24
676.482872859756
 34
0.0
 50
90.0
100
AcDbRotatedDimension
1001
ACAD
1000
DSTYLE
1002
{
1070
   279
1070
     2
1070
   340
1005
38
1070
   147
1040
5.0
1002
}
  0
DIMENSION
  5
191
330
A
100
AcDbEntity
  8
notes
  6
Continuous
 62
     7
370
     5
390
1D
100
AcDbDimension
  2
*D19
 10
399.9123336271045
 20
-463.3171271402439
 30
0.0
 11
394.9123336271045
 21
-458.3171271402439
 31
0.0
 70
   128
 71
     5
 42
0.0
 73
     0
 74
     0
 75
     0
  3
tform線あり
100
AcDbAlignedDimension
 13
405.2795128033354
 23
-563.3171271402439
 33
0.0
 14
405.2795128033354
 24
-463.3171271402439
 34
0.0
 50
90.0
100
AcDbRotatedDimension
1001
ACAD
1000
DSTYLE
1002
{
1070
   279
1070
     2
1070
   340
1005
38
1070
     3
1000
<>(深さ)
1070
   174
1070
     0
1070
   147
1040
5.0
1002
}
  0
MTEXT
  5
192
330
A
100
AcDbEntity
  8
notes
 62
     7
390
1D
100
AcDbMText
 10
495.4572905811133
 20
-374.5588350283078
 30
0.0
 40
24.4326171875
 41
0.0
 46
0.0
 71
     1
 72
     1
  1
壁取付ボルト位置(2ヶ所)
  7
ＭＳ ゴシック
 73
     1
 44
0.7828267384257843
  0
DIMENSION
  5
193
330
A
100
AcDbEntity
  8
notes
  6
Continuous
 62
     7
370
     5
390
1D
100
AcDbDimension
  2
*D20
 10
-649.7293474643134
 20
-363.3171271402439
 30
0.0
 11
-669.7293474643134
 21
-363.3171271402439
 31
0.0
 70
    32
 71
     5
 42
0.0
 73
     0
 74
     0
 75
     0
  3
tform線あり
100
AcDbAlignedDimension
 13
-689.7293474643134
 23
-467.3171271402439
 33
0.0
 14
-649.7293474643134
 24
-513.3171271402439
 34
0.0
100
AcDbRotatedDimension
1001
ACAD
1000
DSTYLE
1002
{
1070
   279
1070
     2
1070
   340
1005
38
1070
   147
1040
5.0
1002
}
  0
DIMENSION
  5
194
330
A
100
AcDbEntity
  8
notes
  6
Continuous
 62
     7
370
     5
390
1D
100
AcDbDimension
  2
*D21
 10
724.7123192023505
 20
401.4571200900469
 30
0.0
 11
731.2795128033349
 21
406.4571200900469
 31
0.0
 70
   128
 71
     5
 42
0.0
 73
     0
 74
     0
 75
     0
  3
tform線あり
100
AcDbAlignedDimension
 13
704.7123192023505
 23
576.482872859756
 33
0.0
 14
724.7123192023505
 24
505.4571200900469
 34
0.0
100
AcDbRotatedDimension
1001
ACAD
1000
DSTYLE
1002
{
1070
   279
1070
     2
1070
   340
1005
38
1070
   174
1070
     0
1070
   147
1040
5.0
1002
}
  0
DIMENSION
  5
195
330
A
100
AcDbEntity
  8
notes
  6
Continuous
 62
     7
370
     5
390
1D
100
AcDbDimension
  2
*D22
 10
171.4872047980903
 20
-463.3171271402439
 30
0.0
 11
171.4872047980903
 21
-528.3171271402439
 31
0.0
 70
    32
 71
     5
 42
0.0
 73
     0
 74
     0
 75
     0
  3
tform線あり
100
AcDbAlignedDimension
 13
275.4872047980903
 23
-593.3171271402439
 33
0.0
 14
275.4872047980912
 24
-463.3171271402439
 34
0.0
 50
90.0
100
AcDbRotatedDimension
1001
ACAD
1000
DSTYLE
1002
{
1070
   279
1070
     2
1070
   340
1005
38
1070
   147
1040
5.0
1002
}
  0
LINE
  5
196
330
A
100
AcDbEntity
  8
notes
  6
Continuous
 62
     7
370
     5
390
1D
100
AcDbLine
 10
453.9872047980907
 20
-518.3599569335033
 30
0.0
 11
518.2795128033354
 21
-407.0024129325525
 31
0.0
  0
MTEXT
  5
197
330
A
100
AcDbEntity
  8
notes
 62
     7
390
1D
100
AcDbMText
 10
98.59854368285005
 20
-5.466266865032139
 30
0.0
 40
24.4326171875
 41
0.0
 46
24.4326171875
 71
     1
 72
     1
  1
{\fメイリオ|b0|i0|c0|p0;※\fＭＳ ゴシック|b0|i0|c0|p0;取付は左シンク/右シンク/正面の3方向となります。}
  7
ＭＳ ゴシック
 73
     1
 44
0.7828267384257843
1001
ACAD
1000
ACAD_MTEXT_DEFINED_HEIGHT_BEGIN
1070
    46
1040
24.4326171875
1000
ACAD_MTEXT_DEFINED_HEIGHT_END
  0
CIRCLE
  5
198
330
A
100
AcDbEntity
  8
ADF70-0602
  6
STYLE_12
 62
     7
370
    13
390
1D
100
AcDbCircle
 10
-649.7293474643134
 20
-533.3171271402439
 30
0.0
 40
10.0
  0
CIRCLE
  5
199
330
A
100
AcDbEntity
  8
ADF70-0602
  6
STYLE_12
 62
     7
370
    13
390
1D
100
AcDbCircle
 10
-239.7293474643134
 20
-513.3171271402439
 30
0.0
 40
10.0
  0
CIRCLE
  5
19A
330
A
100
AcDbEntity
  8
ADF70-0602
  6
STYLE_12
 62
     7
370
    13
390
1D
100
AcDbCircle
 10
338.9872047980907
 20
-518.3599569335033
 30
0.0
 40
10.0
  0
CIRCLE
  5
19B
330
A
100
AcDbEntity
  8
ADF70-0602
  6
STYLE_12
 62
     7
370
    13
390
1D
100
AcDbCircle
 10
453.9872047980907
 20
-518.3599569335033
 30
0.0
 40
10.0
  0
CIRCLE
  5
19C
330
A
100
AcDbEntity
  8
ADF70-0602
  6
Continuous
 62
     7
370
    13
390
1D
100
AcDbCircle
 10
-477.2293474643134
 20
626.5487591735492
 30
0.0
 40
22.5
  0
CIRCLE
  5
19D
330
A
100
AcDbEntity
  8
ADF70-0602
  6
Continuous
 62
     7
370
    13
390
1D
100
AcDbCircle
 10
-477.2293474643134
 20
626.5487591735492
 30
0.0
 40
37.5
  0
LINE
  5
19E
330
A
100
AcDbEntity
  8
ADF70-0602
  6
STYLE_12
 62
     7
370
    13
390
1D
100
AcDbLine
 10
357.3667167238473
 20
-567.1788431402179
 30
0.0
 11
436.4579505303623
 21
-567.1788431402179
 31
0.0
  0
LINE
  5
19F
330
A
100
AcDbEntity
  8
ADF70-0602
  6
STYLE_12
 62
     7
370
    13
390
1D
100
AcDbLine
 10
373.5354606979085
 20
-580.5234065440004
 30
0.0
 11
419.4389488982738
 21
-580.5234065440004
 31
0.0
  0
LINE
  5
1A0
330
A
100
AcDbEntity
  8
ADF70-0602
  6
Continuous
 62
     7
370
    13
390
1D
100
AcDbLine
 10
296.295644591075
 20
-463.3171271402439
 30
0.0
 11
496.6787650051069
 21
-463.3171271402443
 31
0.0
  0
ARC
  5
1A1
330
A
100
AcDbEntity
  8
ADF70-0602
  6
STYLE_12
 62
     7
370
    13
390
1D
100
AcDbCircle
 10
356.9415878948344
 20
-572.1607369045137
 30
0.0
 40
4.999999999998684
100
AcDbArc
 50
49.08561677996963
 51
85.12249349490241
  0
LWPOLYLINE
  5
1A2
330
A
100
AcDbEntity
  8
ADF70-0602
  6
STYLE_12
 62
     7
370
    13
390
1D
100
AcDbPolyline
 90
        5
 70
   128
 43
0.0
 10
357.3667167238473
 20
-567.1788431402179
 10
320.1991682464395
 20
-564.0071584136726
 42
-0.3547201887641306
 10
311.1239643880526
 20
-555.2620643191299
 10
300.2658291976409
 20
-466.8296497666233
 42
0.3788661086953791
 10
296.2956445910754
 20
-463.3171271402439
 42
0.3788661086953791
  0
LINE
  5
1A3
330
A
100
AcDbEntity
  8
ADF70-0602
  6
Continuous
 62
     7
370
    13
390
1D
100
AcDbLine
 10
275.4872047980912
 20
-463.3171271402439
 30
0.0
 11
296.2956445910754
 21
-463.3171271402439
 31
0.0
  0
ARC
  5
1A4
330
A
100
AcDbEntity
  8
ADF70-0602
  6
Continuous
 62
     7
370
    13
390
1D
100
AcDbCircle
 10
275.4872047980912
 20
-467.3171271402439
 30
0.0
 40
4.0
100
AcDbArc
 50
90.0
 51
180.0
  0
LINE
  5
1A5
330
A
100
AcDbEntity
  8
ADF70-0602
  6
Continuous
 62
     7
370
    13
390
1D
100
AcDbLine
 10
271.4872047980903
 20
-589.3171271402439
 30
0.0
 11
271.4872047980912
 21
-467.3171271402439
 31
0.0
  0
ARC
  5
1A6
330
A
100
AcDbEntity
  8
ADF70-0602
  6
Continuous
 62
     7
370
    13
390
1D
100
AcDbCircle
 10
275.4872047980903
 20
-589.3171271402439
 30
0.0
 40
4.0
100
AcDbArc
 50
180.0
 51
270.0
  0
LINE
  5
1A7
330
A
100
AcDbEntity
  8
ADF70-0602
  6
Continuous
 62
     7
370
    13
390
1D
100
AcDbLine
 10
517.4872047980912
 20
-593.3171271402439
 30
0.0
 11
275.4872047980903
 21
-593.3171271402439
 31
0.0
  0
LINE
  5
1A8
330
A
100
AcDbEntity
  8
ADF70-0602
  6
STYLE_12
 62
     7
370
    13
390
1D
100
AcDbLine
 10
373.9872047980912
 20
-582.6002715540039
 30
0.0
 11
373.9872047980912
 21
-593.3171271402439
 31
0.0
  0
ARC
  5
1A9
330
A
100
AcDbEntity
  8
ADF70-0602
  6
STYLE_12
 62
     7
370
    13
390
1D
100
AcDbCircle
 10
368.9872047980907
 20
-582.6002715540039
 30
0.0
 40
5.000000000000455
100
AcDbArc
 50
0.0
 51
49.08561677996637
  0
LINE
  5
1AA
330
A
100
AcDbEntity
  8
ADF70-0602
  6
STYLE_12
 62
     7
370
    13
390
1D
100
AcDbLine
 10
360.216240586923
 20
-568.3822914905659
 30
0.0
 11
372.2618574901803
 21
-578.8218261400548
 31
0.0
  0
ARC
  5
1AB
330
A
100
AcDbEntity
  8
ADF70-0602
  6
Continuous
 62
     7
370
    13
390
1D
100
AcDbCircle
 10
471.9249836917161
 20
-554.0433708850787
 30
0.0
 40
9.999999999999796
100
AcDbArc
 50
274.8775065050991
 51
353.0000000000019
  0
LWPOLYLINE
  5
1AC
330
A
100
AcDbEntity
  8
ADF70-0602
  6
STYLE_12
 62
     7
370
    13
390
1D
100
AcDbPolyline
 90
        5
 70
   128
 43
0.0
 10
496.6787650051065
 20
-463.3171271402443
 42
0.3788661086952176
 10
492.7085803985415
 20
-466.8296497666229
 10
481.8504452081293
 20
-555.2620643191299
 42
-0.3547201887641651
 10
472.7752413497424
 20
-564.0071584136726
 10
435.6076928723346
 20
-567.1788431402179
  0
LINE
  5
1AD
330
A
100
AcDbEntity
  8
ADF70-0602
  6
Continuous
 62
     7
370
    13
390
1D
100
AcDbLine
 10
517.4872047980912
 20
-463.3171271402443
 30
0.0
 11
496.6787650051069
 21
-463.3171271402443
 31
0.0
  0
ARC
  5
1AE
330
A
100
AcDbEntity
  8
ADF70-0602
  6
Continuous
 62
     7
370
    13
390
1D
100
AcDbCircle
 10
517.4872047980912
 20
-467.3171271402443
 30
0.0
 40
4.0
100
AcDbArc
 50
0.0
 51
90.0
  0
LINE
  5
1AF
330
A
100
AcDbEntity
  8
ADF70-0602
  6
Continuous
 62
     7
370
    13
390
1D
100
AcDbLine
 10
521.4872047980912
 20
-589.3171271402439
 30
0.0
 11
521.4872047980912
 21
-467.3171271402443
 31
0.0
  0
ARC
  5
1B0
330
A
100
AcDbEntity
  8
ADF70-0602
  6
Continuous
 62
     7
370
    13
390
1D
100
AcDbCircle
 10
517.4872047980912
 20
-589.3171271402439
 30
0.0
 40
4.0
100
AcDbArc
 50
270.0
 51
0.0
  0
LINE
  5
1B1
330
A
100
AcDbEntity
  8
ADF70-0602
  6
STYLE_12
 62
     7
370
    13
390
1D
100
AcDbLine
 10
418.9872047980912
 20
-582.6002715540044
 30
0.0
 11
418.9872047980912
 21
-593.3171271402439
 31
0.0
  0
ARC
  5
1B2
330
A
100
AcDbEntity
  8
ADF70-0602
  6
STYLE_12
 62
     7
370
    13
390
1D
100
AcDbCircle
 10
423.9872047980907
 20
-582.6002715540042
 30
0.0
 40
4.999999999999497
100
AcDbArc
 50
130.9143832200292
 51
180.0000000000052
  0
LINE
  5
1B3
330
A
100
AcDbEntity
  8
ADF70-0602
  6
STYLE_12
 62
     7
370
    13
390
1D
100
AcDbLine
 10
432.7581690092588
 20
-568.3822914905659
 30
0.0
 11
420.712552106002
 21
-578.8218261400552
 31
0.0
  0
ARC
  5
1B4
330
A
100
AcDbEntity
  8
ADF70-0602
  6
STYLE_12
 62
     7
370
    13
390
1D
100
AcDbCircle
 10
436.032821701348
 20
-572.1607369045141
 30
0.0
 40
4.999999999999238
100
AcDbArc
 50
94.87750650510233
 51
130.9143832200309
  0
POLYLINE
  5
1B5
330
A
100
AcDbEntity
  8
ADF70-0602
  6
Continuous
 62
     7
370
    13
390
1D
100
AcDb3dPolyline
 66
     1
 10
0.0
 20
0.0
 30
0.0
 70
     8
  0
VERTEX
  5
1B6
330
1B5
100
AcDbEntity
  8
ADF70-0602
  6
Continuous
 62
     7
370
    13
390
1D
100
AcDbVertex
100
AcDb3dPolylineVertex
 10
-583.2224643976465
 20
715.9336698533385
 30
0.0000000000011692
 70
    32
  0
VERTEX
  5
1B7
330
1B5
100
AcDbEntity
  8
ADF70-0602
  6
Continuous
 62
     7
370
    13
390
1D
100
AcDbVertex
100
AcDb3dPolylineVertex
 10
-659.579653036631
 20
724.8677567001756
 30
0.0
 70
    32
  0
SEQEND
  5
1B8
330
1B5
100
AcDbEntity
  8
ADF70-0602
  6
Continuous
 62
     7
370
    13
390
1D
  0
POLYLINE
  5
1B9
330
A
100
AcDbEntity
  8
ADF70-0602
  6
Continuous
 62
     7
370
    13
390
1D
100
AcDb3dPolyline
 66
     1
 10
0.0
 20
0.0
 30
0.0
 70
     8
  0
VERTEX
  5
1BA
330
1B9
100
AcDbEntity
  8
ADF70-0602
  6
Continuous
 62
     7
370
    13
390
1D
100
AcDbVertex
100
AcDb3dPolylineVertex
 10
-583.2214537687682
 20
537.1552907974441
 30
0.0000000000143569
 70
    32
  0
VERTEX
  5
1BB
330
1B9
100
AcDbEntity
  8
ADF70-0602
  6
Continuous
 62
     7
370
    13
390
1D
100
AcDbVertex
100
AcDb3dPolylineVertex
 10
-659.5804705990149
 20
528.054196162436
 30
0.0
 70
    32
  0
SEQEND
  5
1BC
330
1B9
100
AcDbEntity
  8
ADF70-0602
  6
Continuous
 62
     7
370
    13
390
1D
  0
POLYLINE
  5
1BD
330
A
100
AcDbEntity
  8
ADF70-0602
  6
Continuous
 62
     7
370
    13
390
1D
100
AcDb3dPolyline
 66
     1
 10
0.0
 20
0.0
 30
0.0
 70
     8
  0
VERTEX
  5
1BE
330
1BD
100
AcDbEntity
  8
ADF70-0602
  6
Continuous
 62
     7
370
    13
390
1D
100
AcDbVertex
100
AcDb3dPolylineVertex
 10
-371.2371839392904
 20
537.1557711303896
 30
0.0000000000007927
 70
    32
  0
VERTEX
  5
1BF
330
1BD
100
AcDbEntity
  8
ADF70-0602
  6
Continuous
 62
     7
370
    13
390
1D
100
AcDbVertex
100
AcDb3dPolylineVertex
 10
-294.8771716603001
 20
528.0639232886573
 30
0.0
 70
    32
  0
SEQEND
  5
1C0
330
1BD
100
AcDbEntity
  8
ADF70-0602
  6
Continuous
 62
     7
370
    13
390
1D
  0
POLYLINE
  5
1C1
330
A
100
AcDbEntity
  8
ADF70-0602
  6
Continuous
 62
     7
370
    13
390
1D
100
AcDb3dPolyline
 66
     1
 10
0.0
 20
0.0
 30
0.0
 70
     8
  0
VERTEX
  5
1C2
330
1C1
100
AcDbEntity
  8
ADF70-0602
  6
Continuous
 62
     7
370
    13
390
1D
100
AcDbVertex
100
AcDb3dPolylineVertex
 10
-294.8780268151654
 20
724.8582018254957
 30
0.0
 70
    32
  0
VERTEX
  5
1C3
330
1C1
100
AcDbEntity
  8
ADF70-0602
  6
Continuous
 62
     7
370
    13
390
1D
100
AcDbVertex
100
AcDb3dPolylineVertex
 10
-371.2361753366631
 20
715.9331978797737
 30
-0.0000000000251185
 70
    32
  0
SEQEND
  5
1C4
330
1C1
100
AcDbEntity
  8
ADF70-0602
  6
Continuous
 62
     7
370
    13
390
1D
  0
LINE
  5
1C5
330
A
100
AcDbEntity
  8
ADF70-0602
  6
STYLE_12
 62
     7
370
    13
390
1D
100
AcDbLine
 10
-514.7293474643134
 20
-567.3171271402439
 30
0.0
 11
-439.7293474643134
 21
-567.3171271402439
 31
0.0
  0
LINE
  5
1C6
330
A
100
AcDbEntity
  8
ADF70-0602
  6
STYLE_12
 62
     7
370
    13
390
1D
100
AcDbLine
 10
-499.7293474643134
 20
-580.3171271402439
 30
0.0
 11
-454.7293474643134
 21
-580.3171271402439
 31
0.0
  0
LINE
  5
1C7
330
A
100
AcDbEntity
  8
ADF70-0602
  6
STYLE_12
 62
     7
370
    13
390
1D
100
AcDbLine
 10
-499.7293474643134
 20
-581.2303849057475
 30
0.0
 11
-499.7293474643134
 21
-593.3171271402439
 31
0.0
  0
ARC
  5
1C8
330
A
100
AcDbEntity
  8
ADF70-0602
  6
STYLE_12
 62
     7
370
    13
390
1D
100
AcDbCircle
 10
-501.7293474643129
 20
-581.2303849057475
 30
0.0
 40
1.999999999999545
100
AcDbArc
 50
0.0
 51
49.0856167799841
  0
LINE
  5
1C9
330
A
100
AcDbEntity
  8
ADF70-0602
  6
STYLE_12
 62
     7
370
    13
390
1D
100
AcDbLine
 10
-513.7047051333052
 20
-568.2051504937845
 30
0.0
 11
-500.4194863874777
 21
-579.719006740168
 31
0.0
  0
ARC
  5
1CA
330
A
100
AcDbEntity
  8
ADF70-0602
  6
STYLE_12
 62
     7
370
    13
390
1D
100
AcDbCircle
 10
-516.3244272869729
 20
-571.2279068249354
 30
0.0
 40
3.999999999990926
100
AcDbArc
 50
49.08561677995798
 51
86.53648412730786
  0
LWPOLYLINE
  5
1CB
330
A
100
AcDbEntity
  8
ADF70-0602
  6
STYLE_12
 62
     7
370
    13
390
1D
100
AcDbPolyline
 90
        5
 70
   128
 43
0.0
 10
-516.0827754999505
 20
-567.2352129456401
 10
-576.5271275226055
 20
-563.5769095235783
 42
-0.2058912135918227
 10
-583.5834424862292
 20
-560.0230509221851
 10
-663.5304003244578
 20
-464.745976701498
 42
0.2216946626426552
 10
-666.5945780969328
 20
-463.3171271402439
 42
0.2216946626426552
  0
LINE
  5
1CC
330
A
100
AcDbEntity
  8
ADF70-0602
  6
Continuous
 62
     7
370
    13
390
1D
100
AcDbLine
 10
-685.7293474643134
 20
-463.3171271402439
 30
0.0
 11
-193.7293474643134
 21
-463.3171271402439
 31
0.0
  0
ARC
  5
1CD
330
A
100
AcDbEntity
  8
ADF70-0602
  6
Continuous
 62
     7
370
    13
390
1D
100
AcDbCircle
 10
-685.7293474643134
 20
-467.3171271402439
 30
0.0
 40
4.0
100
AcDbArc
 50
90.0
 51
180.0
  0
LINE
  5
1CE
330
A
100
AcDbEntity
  8
ADF70-0602
  6
Continuous
 62
     7
370
    13
390
1D
100
AcDbLine
 10
-689.7293474643134
 20
-591.3171271402439
 30
0.0
 11
-689.7293474643134
 21
-467.3171271402439
 31
0.0
  0
ARC
  5
1CF
330
A
100
AcDbEntity
  8
ADF70-0602
  6
Continuous
 62
     7
370
    13
390
1D
100
AcDbCircle
 10
-687.7293474643134
 20
-591.3171271402439
 30
0.0
 40
2.0
100
AcDbArc
 50
180.0
 51
270.0
  0
LINE
  5
1D0
330
A
100
AcDbEntity
  8
ADF70-0602
  6
Continuous
 62
     7
370
    13
390
1D
100
AcDbLine
 10
-267.2178660302793
 20
-463.3599569335033
 30
0.0
 11
-267.2178660302793
 21
-478.3599569335033
 31
0.0
  0
LWPOLYLINE
  5
1D1
330
A
100
AcDbEntity
  8
ADF70-0602
  6
STYLE_12
 62
     7
370
    13
390
1D
100
AcDbPolyline
 90
        6
 70
   128
 43
0.0
 10
-287.8641168316931
 20
-463.3171271402437
 42
0.2216946626429738
 10
-290.928294604169
 20
-464.745976701498
 10
-370.8752524423985
 20
-560.0230509221853
 42
-0.2058912135918845
 10
-377.9315674060226
 20
-563.5769095235783
 10
-438.3759194286763
 20
-567.2352129456401
 42
0.1648804506790211
 10
-440.7539897953202
 20
-568.2051504937838
 42
0.1648804506790211
  0
LINE
  5
1D2
330
A
100
AcDbEntity
  8
ADF70-0602
  6
STYLE_12
 62
     7
370
    13
390
1D
100
AcDbLine
 10
-454.039208541149
 20
-579.7190067401684
 30
0.0
 11
-440.7539897953216
 21
-568.2051504937845
 31
0.0
  0
ARC
  5
1D3
330
A
100
AcDbEntity
  8
ADF70-0602
  6
STYLE_12
 62
     7
370
    13
390
1D
100
AcDbCircle
 10
-452.7293474643129
 20
-581.2303849057482
 30
0.0
 40
2.000000000000406
100
AcDbArc
 50
130.9143832200313
 51
179.9999999999935
  0
LINE
  5
1D4
330
A
100
AcDbEntity
  8
ADF70-0602
  6
STYLE_12
 62
     7
370
    13
390
1D
100
AcDbLine
 10
-454.7293474643134
 20
-593.3171271402439
 30
0.0
 11
-454.7293474643134
 21
-581.230384905748
 31
0.0
  0
CIRCLE
  5
1D5
330
A
100
AcDbEntity
  8
ADF70-0602
  6
STYLE_12
 62
     7
370
    13
390
1D
100
AcDbCircle
 10
-249.7293474643134
 20
626.4571200900469
 30
0.0
 40
17.5
  0
LINE
  5
1D6
330
A
100
AcDbEntity
  8
ADF70-0602
  6
Continuous
 62
     7
370
    13
390
1D
100
AcDbLine
 10
-232.2178660302793
 20
-478.3599569335033
 30
0.0
 11
-232.2178660302793
 21
-463.3599569335033
 31
0.0
  0
LINE
  5
1D7
330
A
100
AcDbEntity
  8
ADF70-0602
  6
Continuous
 62
     7
370
    13
390
1D
100
AcDbLine
 10
-191.7293474643134
 20
-593.3171271402439
 30
0.0
 11
-688.0
 21
-593.3171271402439
 31
0.0
  0
ARC
  5
1D8
330
A
100
AcDbEntity
  8
ADF70-0602
  6
Continuous
 62
     7
370
    13
390
1D
100
AcDbCircle
 10
-191.7293474643134
 20
-591.3171271402439
 30
0.0
 40
2.0
100
AcDbArc
 50
270.0
 51
0.0
  0
LINE
  5
1D9
330
A
100
AcDbEntity
  8
ADF70-0602
  6
Continuous
 62
     7
370
    13
390
1D
100
AcDbLine
 10
-189.7293474643134
 20
-467.3171271402439
 30
0.0
 11
-189.7293474643134
 21
-591.3171271402439
 31
0.0
  0
ARC
  5
1DA
330
A
100
AcDbEntity
  8
ADF70-0602
  6
Continuous
 62
     7
370
    13
390
1D
100
AcDbCircle
 10
-193.7293474643134
 20
-467.3171271402439
 30
0.0
 40
4.0
100
AcDbArc
 50
0.0
 51
90.0
  0
LWPOLYLINE
  5
1DB
330
A
100
AcDbEntity
  8
ADF70-0602
  6
Continuous
 62
     7
370
    13
390
1D
100
AcDbPolyline
 90
        8
 70
   129
 43
0.0
 10
-374.0375557940229
 20
712.6403982570517
 42
0.414213562373095
 10
-378.0375557940229
 20
716.6403982570517
 10
-576.4211391346039
 20
716.640398257052
 42
0.4142135623730867
 10
-580.4211391346039
 20
712.640398257052
 10
-580.4211391346043
 20
540.4571200900466
 42
0.414213562373095
 10
-576.4211391346043
 20
536.4571200900466
 10
-378.0375557940229
 20
536.4571200900467
 42
0.4142135623730867
 10
-374.0375557940229
 20
540.4571200900467
  0
LWPOLYLINE
  5
1DC
330
A
100
AcDbEntity
  8
ADF70-0602
  6
Continuous
 62
     7
370
    13
390
1D
100
AcDbPolyline
 90
        9
 70
   129
 43
0.0
 10
-660.7293474643134
 20
526.4571200900469
 10
-293.7293474643134
 20
526.4571200900467
 42
0.4142135623730867
 10
-289.7293474643134
 20
530.4571200900467
 10
-289.7293474643134
 20
722.4571200900469
 42
0.414213562373095
 10
-293.7293474643134
 20
726.4571200900469
 10
-660.7293474643134
 20
726.4571200900465
 42
0.4142135623730867
 10
-664.7293474643134
 20
722.4571200900465
 10
-664.7293474643134
 20
530.4571200900469
 42
0.414213562373095
 10
-660.7293474643134
 20
526.4571200900469
  0
LWPOLYLINE
  5
1DD
330
A
100
AcDbEntity
  8
ADF70-0602
  6
Continuous
 62
     7
370
    13
390
1D
100
AcDbPolyline
 90
        9
 70
   129
 43
0.0
 10
-193.7293474643134
 20
751.4571200900469
 10
-685.7293474643129
 20
751.4571200900467
 42
0.4142135623731034
 10
-689.7293474643129
 20
747.4571200900467
 10
-689.7293474643129
 20
505.4571200900469
 42
0.414213562373095
 10
-685.7293474643129
 20
501.4571200900469
 10
-193.7293474643134
 20
501.4571200900469
 42
0.4142135623731034
 10
-189.7293474643134
 20
505.4571200900469
 10
-189.7293474643134
 20
747.4571200900469
 42
0.414213562373095
 10
-193.7293474643134
 20
751.4571200900469
  0
LINE
  5
1DE
330
A
100
AcDbEntity
  8
ADF70-0602
  6
STYLE_12
 62
     7
370
    13
390
1D
100
AcDbLine
 10
338.9872047980907
 20
-538.3599569335033
 30
0.0
 11
338.9872047980907
 21
-498.3599569335033
 31
0.0
  0
LINE
  5
1DF
330
A
100
AcDbEntity
  8
ADF70-0602
  6
STYLE_12
 62
     7
370
    13
390
1D
100
AcDbLine
 10
-239.7293474643134
 20
-533.3171271402439
 30
0.0
 11
-239.7293474643134
 21
-493.3171271402439
 31
0.0
  0
LINE
  5
1E0
330
A
100
AcDbEntity
  8
ADF70-0602
  6
STYLE_12
 62
     7
370
    13
390
1D
100
AcDbLine
 10
-219.7293474643134
 20
-513.3171271402439
 30
0.0
 11
-259.7293474643134
 21
-513.3171271402439
 31
0.0
  0
LINE
  5
1E1
330
A
100
AcDbEntity
  8
ADF70-0602
  6
STYLE_12
 62
     7
370
    13
390
1D
100
AcDbLine
 10
-649.7293474643134
 20
-553.3171271402439
 30
0.0
 11
-649.7293474643134
 21
-513.3171271402439
 31
0.0
  0
LINE
  5
1E2
330
A
100
AcDbEntity
  8
ADF70-0602
  6
STYLE_12
 62
     7
370
    13
390
1D
100
AcDbLine
 10
-629.7293474643134
 20
-533.3171271402439
 30
0.0
 11
-669.7293474643134
 21
-533.3171271402439
 31
0.0
  0
CIRCLE
  5
1E3
330
A
100
AcDbEntity
  8
ADF70-0602
  6
STYLE_12
 62
     7
370
     5
390
1D
100
AcDbCircle
 10
437.2123192023505
 20
626.5487591735492
 30
0.0
 40
22.5
  0
CIRCLE
  5
1E4
330
A
100
AcDbEntity
  8
ADF70-0602
  6
STYLE_12
 62
     7
370
     5
390
1D
100
AcDbCircle
 10
674.7123192023505
 20
626.4571200900469
 30
0.0
 40
17.5
  0
LWPOLYLINE
  5
1E5
330
A
100
AcDbEntity
  8
ADF70-0602
  6
STYLE_12
 62
     7
370
     5
390
1D
100
AcDbPolyline
 90
        9
 70
   129
 43
0.0
 10
720.7123192023505
 20
751.4571200900469
 10
228.7123192023514
 20
751.4571200900467
 42
0.4142135623731034
 10
224.7123192023514
 20
747.4571200900467
 10
224.7123192023514
 20
505.4571200900469
 42
0.414213562373095
 10
228.7123192023514
 20
501.4571200900469
 10
720.7123192023505
 20
501.4571200900469
 42
0.4142135623731034
 10
724.7123192023505
 20
505.4571200900469
 10
724.7123192023505
 20
747.4571200900469
 42
0.414213562373095
 10
720.7123192023505
 20
751.4571200900469
  0
POLYLINE
  5
1E6
330
A
100
AcDbEntity
  8
ADF70-0602
  6
Continuous
 62
     7
370
    13
390
1D
100
AcDb2dPolyline
 66
     1
 10
0.0
 20
0.0
 30
0.0
 70
     1
 75
     5
  0
VERTEX
  5
1E7
330
1E6
100
AcDbEntity
  8
ADF70-0602
  6
Continuous
 62
     7
370
    13
390
1D
100
AcDbVertex
100
AcDb2dVertex
 10
404.7123192023505
 20
676.482872859756
 30
0.0
  0
VERTEX
  5
1E8
330
1E6
100
AcDbEntity
  8
ADF70-0602
  6
Continuous
 62
     7
370
    13
390
1D
100
AcDbVertex
100
AcDb2dVertex
 10
704.7123192023505
 20
676.482872859756
 30
0.0
  0
VERTEX
  5
1E9
330
1E6
100
AcDbEntity
  8
ADF70-0602
  6
Continuous
 62
     7
370
    13
390
1D
100
AcDbVertex
100
AcDb2dVertex
 10
704.7123192023505
 20
576.482872859756
 30
0.0
  0
VERTEX
  5
1EA
330
1E6
100
AcDbEntity
  8
ADF70-0602
  6
Continuous
 62
     7
370
    13
390
1D
100
AcDbVertex
100
AcDb2dVertex
 10
404.7123192023505
 20
576.482872859756
 30
0.0
  0
SEQEND
  5
1EB
330
1E6
100
AcDbEntity
  8
ADF70-0602
  6
Continuous
 62
     7
370
    13
390
1D
  0
LINE
  5
1EC
330
A
100
AcDbEntity
  8
ADF70-0602
  6
STYLE_12
 62
     7
370
    13
390
1D
100
AcDbLine
 10
358.9872047980907
 20
-518.3599569335033
 30
0.0
 11
318.9872047980907
 21
-518.3599569335033
 31
0.0
  0
LINE
  5
1ED
330
A
100
AcDbEntity
  8
ADF70-0602
  6
STYLE_12
 62
     7
370
    13
390
1D
100
AcDbLine
 10
453.9872047980907
 20
-538.3599569335033
 30
0.0
 11
453.9872047980907
 21
-498.3599569335033
 31
0.0
  0
LINE
  5
1EE
330
A
100
AcDbEntity
  8
ADF70-0602
  6
STYLE_12
 62
     7
370
    13
390
1D
100
AcDbLine
 10
473.9872047980907
 20
-518.3599569335033
 30
0.0
 11
433.9872047980907
 21
-518.3599569335033
 31
0.0
  0
LWPOLYLINE
  5
23D
330
A
100
AcDbEntity
  8
Defpoints
  6
Continuous
370
     0
100
AcDbPolyline
 90
        4
 70
     1
 43
0.0
 10
-1050.0
 20
-1485.0
 10
-1050.0
 20
1485.0
 10
1050.0
 20
1485.0
 10
1050.0
 20
-1485.0
  0
INSERT
  5
2AD
330
A
100
AcDbEntity
  8
template
100
AcDbBlockReference
  2
block 3
 10
823.5849161282524
 20
-1464.39451985657
 30
0.0
 41
0.7619999999999999
 42
0.7619999999999999
 43
0.7619999999999999
  0
ENDSEC
  0
SECTION
  2
OBJECTS
  0
DICTIONARY
  5
19
330
0
100
AcDbDictionary
281
     1
  3
ACAD_COLOR
350
26B
  3
ACAD_DETAILVIEWSTYLE
350
2B6
  3
ACAD_GROUP
350
1A
  3
ACAD_IMAGE_VARS
350
232
  3
ACAD_LAYOUT
350
1E
  3
ACAD_MATERIAL
350
22A
  3
ACAD_MLEADERSTYLE
350
26F
  3
ACAD_MLINESTYLE
350
1B
  3
ACAD_PLOTSETTINGS
350
22
  3
ACAD_PLOTSTYLENAME
350
1F
  3
ACAD_SCALELIST
350
1EF
  3
ACAD_SECTIONVIEWSTYLE
350
2B7
  3
ACAD_TABLESTYLE
350
22E
  3
ACAD_VISUALSTYLE
350
211
  3
ACDB_RECOMPOSE_DATA
350
2B3
  3
AcDbVariableDictionary
350
2AE
  3
APPDATA
350
230
  0
SUN
  5
231
330
15
100
AcDbSun
 90
        1
290
     0
 63
     7
421
 16777215
 40
1.0
291
     1
 91
  2455826
 92
 54000000
292
     0
 70
     2
 71
   256
280
     1
  0
DICTIONARY
  5
233
330
2
100
AcDbDictionary
280
     1
281
     1
  3
ACAD_LAYERSTATES
360
234
  3
ACLYDICTIONARY
360
24D
  0
DICTIONARY
  5
26B
102
{ACAD_REACTORS
330
19
102
}
330
19
100
AcDbDictionary
281
     1
  0
DICTIONARY
  5
2B6
102
{ACAD_REACTORS
330
19
102
}
330
19
100
AcDbDictionary
281
     1
  0
DICTIONARY
  5
1A
102
{ACAD_REACTORS
330
19
102
}
330
19
100
AcDbDictionary
281
     1
  0
RASTERVARIABLES
  5
232
102
{ACAD_REACTORS
330
19
102
}
330
19
100
AcDbRasterVariables
 90
        0
 70
     1
 71
     1
 72
     1
  0
DICTIONARY
  5
1E
102
{ACAD_REACTORS
330
19
102
}
330
19
100
AcDbDictionary
281
     1
  3
Layout1
350
21
  3
Model
350
20
  0
DICTIONARY
  5
22A
102
{ACAD_REACTORS
330
19
102
}
330
19
100
AcDbDictionary
281
     1
  3
ByBlock
350
22C
  3
ByLayer
350
22B
  3
Global
350
22D
  0
DICTIONARY
  5
26F
102
{ACAD_REACTORS
330
19
102
}
330
19
100
AcDbDictionary
281
     1
  0
DICTIONARY
  5
1B
102
{ACAD_REACTORS
330
19
102
}
330
19
100
AcDbDictionary
281
     1
  3
Standard
350
1C
  0
DICTIONARY
  5
22
102
{ACAD_REACTORS
330
19
102
}
330
19
100
AcDbDictionary
281
     1
  0
ACDBDICTIONARYWDFLT
  5
1F
102
{ACAD_REACTORS
330
19
102
}
330
19
100
AcDbDictionary
281
     1
  3
Normal
350
1D
100
AcDbDictionaryWithDefault
340
1D
  0
DICTIONARY
  5
1EF
102
{ACAD_REACTORS
330
19
102
}
330
19
100
AcDbDictionary
281
     1
  3
A0
350
1F0
  3
A1
350
1F1
  3
A2
350
1F2
  3
A3
350
1F3
  3
A4
350
1F4
  3
A5
350
1F5
  3
A6
350
1F6
  3
A7
350
1F7
  3
A8
350
1F8
  3
A9
350
1F9
  3
B0
350
1FA
  3
B1
350
1FB
  3
B2
350
1FC
  3
B3
350
1FD
  3
B4
350
1FE
  3
B5
350
1FF
  3
B6
350
200
  3
B7
350
201
  3
B8
350
202
  3
B9
350
203
  3
C0
350
204
  3
C1
350
205
  3
C2
350
206
  3
C3
350
207
  3
C4
350
208
  3
C5
350
209
  3
C6
350
20A
  3
C7
350
20B
  3
C8
350
20C
  3
C9
350
20D
  3
D0
350
20E
  3
D1
350
20F
  3
D2
350
210
  0
DICTIONARY
  5
2B7
102
{ACAD_REACTORS
330
19
102
}
330
19
100
AcDbDictionary
281
     1
  0
DICTIONARY
  5
22E
102
{ACAD_REACTORS
330
19
102
}
330
19
100
AcDbDictionary
281
     1
  3
Standard
350
22F
  0
DICTIONARY
  5
211
102
{ACAD_REACTORS
330
19
102
}
330
19
100
AcDbDictionary
281
     1
  3
2dWireframe
350
216
  3
Basic
350
219
  3
Brighten
350
21D
  3
ColorChange
350
221
  3
Conceptual
350
21B
  3
Dim
350
21C
  3
EdgeColorOff
350
224
  3
Facepattern
350
220
  3
Flat
350
212
  3
FlatWithEdges
350
213
  3
Gouraud
350
214
  3
GouraudWithEdges
350
215
  3
Hidden
350
218
  3
JitterOff
350
222
  3
Linepattern
350
21F
  3
OverhangOff
350
223
  3
Realistic
350
21A
  3
Shaded
350
229
  3
Shaded with edges
350
228
  3
Shades of Gray
350
225
  3
Sketchy
350
226
  3
Thicken
350
21E
  3
Wireframe
350
217
  3
X-Ray
350
227
  0
XRECORD
  5
2B3
102
{ACAD_REACTORS
330
19
102
}
330
19
100
AcDbXrecord
280
     1
 90
        1
330
22F
  0
DICTIONARY
  5
2AE
102
{ACAD_REACTORS
330
19
102
}
330
19
100
AcDbDictionary
281
     1
  3
CANNOSCALE
350
2AF
  3
CTABLESTYLE
350
2B4
  3
LIGHTINGUNITS
350
2B0
  3
MSLTSCALE
350
2B5
  0
DICTIONARY
  5
230
102
{ACAD_REACTORS
330
19
102
}
330
19
100
AcDbDictionary
281
     1
  0
DICTIONARY
  5
234
102
{ACAD_REACTORS
330
233
102
}
330
233
100
AcDbDictionary
281
     1
  3
ARGON_LAYERP_1
350
235
  3
ARGON_LAYERP_10
350
23F
  3
ARGON_LAYERP_11
350
240
  3
ARGON_LAYERP_12
350
241
  3
ARGON_LAYERP_13
350
242
  3
ARGON_LAYERP_14
350
243
  3
ARGON_LAYERP_15
350
244
  3
ARGON_LAYERP_16
350
245
  3
ARGON_LAYERP_17
350
246
  3
ARGON_LAYERP_18
350
247
  3
ARGON_LAYERP_19
350
248
  3
ARGON_LAYERP_2
350
236
  3
ARGON_LAYERP_20
350
249
  3
ARGON_LAYERP_21
350
24A
  3
ARGON_LAYERP_22
350
24C
  3
ARGON_LAYERP_23
350
24E
  3
ARGON_LAYERP_24
350
24F
  3
ARGON_LAYERP_25
350
250
  3
ARGON_LAYERP_26
350
251
  3
ARGON_LAYERP_27
350
252
  3
ARGON_LAYERP_28
350
253
  3
ARGON_LAYERP_29
350
254
  3
ARGON_LAYERP_3
350
237
  3
ARGON_LAYERP_30
350
255
  3
ARGON_LAYERP_31
350
256
  3
ARGON_LAYERP_32
350
257
  3
ARGON_LAYERP_33
350
258
  3
ARGON_LAYERP_34
350
259
  3
ARGON_LAYERP_4
350
238
  3
ARGON_LAYERP_5
350
239
  3
ARGON_LAYERP_6
350
23A
  3
ARGON_LAYERP_7
350
23B
  3
ARGON_LAYERP_8
350
23C
  3
ARGON_LAYERP_9
350
23E
  0
DICTIONARY
  5
24D
102
{ACAD_REACTORS
330
233
102
}
330
233
100
AcDbDictionary
281
     1
1001
ACAD
1000
<All
  0
LAYOUT
  5
21
102
{ACAD_REACTORS
330
1E
102
}
330
1E
100
AcDbPlotSettings
  1

  2

  4

  6

 40
0.0
 41
0.0
 42
0.0
 43
0.0
 44
0.0
 45
0.0
 46
0.0
 47
0.0
 48
0.0
 49
0.0
140
0.0
141
0.0
142
1.0
143
1.0
 70
     0
 72
     0
 73
     0
 74
     0
  7

 75
     0
 76
     0
 77
     2
 78
   300
147
1.0
148
0.0
149
0.0
100
AcDbLayout
  1
Layout1
 70
     0
 71
     0
 10
0.0
 20
0.0
 11
0.0
 21
0.0
 12
0.0
 22
0.0
 32
0.0
 14
0.0
 24
0.0
 34
0.0
 15
0.0
 25
0.0
 35
0.0
146
0.0
 13
0.0
 23
0.0
 33
0.0
 16
0.0
 26
0.0
 36
0.0
 17
0.0
 27
0.0
 37
0.0
 76
     0
330
B
  0
LAYOUT
  5
20
102
{ACAD_REACTORS
330
1E
102
}
330
1E
100
AcDbPlotSettings
  1

  2

  4

  6

 40
0.0
 41
0.0
 42
0.0
 43
0.0
 44
0.0
 45
0.0
 46
0.0
 47
0.0
 48
0.0
 49
0.0
140
0.0
141
0.0
142
1.0
143
1.0
 70
  1024
 72
     0
 73
     0
 74
     0
  7

 75
     0
 76
     0
 77
     2
 78
   300
147
1.0
148
0.0
149
0.0
100
AcDbLayout
  1
Model
 70
     0
 71
     1
 10
-1050.0
 20
-1485.0
 11
1050.0
 21
1485.0
 12
0.0
 22
0.0
 32
0.0
 14
0.0
 24
0.0
 34
0.0
 15
0.0
 25
0.0
 35
0.0
146
0.0
 13
0.0
 23
0.0
 33
0.0
 16
0.0
 26
0.0
 36
0.0
 17
0.0
 27
0.0
 37
0.0
 76
     0
330
A
331
15
  0
MATERIAL
  5
22C
102
{ACAD_REACTORS
330
22A
102
}
330
22A
100
AcDbMaterial
  1
ByBlock
 72
     1
 94
      127
  0
MATERIAL
  5
22B
102
{ACAD_REACTORS
330
22A
102
}
330
22A
100
AcDbMaterial
  1
ByLayer
 72
     1
 94
      127
  0
MATERIAL
  5
22D
102
{ACAD_REACTORS
330
22A
102
}
330
22A
100
AcDbMaterial
  1
Global
 72
     1
 94
      127
  0
MLINESTYLE
  5
1C
102
{ACAD_REACTORS
330
1B
102
}
330
1B
100
AcDbMlineStyle
  2
Standard
 70
     0
  3

 62
     0
 51
90.0
 52
90.0
 71
     2
 49
0.5
 62
   256
  6
BYLAYER
 49
-0.5
 62
   256
  6
BYLAYER
  0
ACDBPLACEHOLDER
  5
1D
102
{ACAD_REACTORS
330
1F
102
}
330
1F
  0
SCALE
  5
1F0
102
{ACAD_REACTORS
330
1EF
102
}
330
1EF
100
AcDbScale
 70
     0
300
1:1
140
1.0
141
1.0
290
     1
  0
SCALE
  5
1F1
102
{ACAD_REACTORS
330
1EF
102
}
330
1EF
100
AcDbScale
 70
     0
300
1:2
140
1.0
141
2.0
290
     0
  0
SCALE
  5
1F2
102
{ACAD_REACTORS
330
1EF
102
}
330
1EF
100
AcDbScale
 70
     0
300
1:4
140
1.0
141
4.0
290
     0
  0
SCALE
  5
1F3
102
{ACAD_REACTORS
330
1EF
102
}
330
1EF
100
AcDbScale
 70
     0
300
1:5
140
1.0
141
5.0
290
     0
  0
SCALE
  5
1F4
102
{ACAD_REACTORS
330
1EF
102
}
330
1EF
100
AcDbScale
 70
     0
300
1:8
140
1.0
141
8.0
290
     0
  0
SCALE
  5
1F5
102
{ACAD_REACTORS
330
1EF
102
}
330
1EF
100
AcDbScale
 70
     0
300
1:10
140
1.0
141
10.0
290
     0
  0
SCALE
  5
1F6
102
{ACAD_REACTORS
330
1EF
102
}
330
1EF
100
AcDbScale
 70
     0
300
1:16
140
1.0
141
16.0
290
     0
  0
SCALE
  5
1F7
102
{ACAD_REACTORS
330
1EF
102
}
330
1EF
100
AcDbScale
 70
     0
300
1:20
140
1.0
141
20.0
290
     0
  0
SCALE
  5
1F8
102
{ACAD_REACTORS
330
1EF
102
}
330
1EF
100
AcDbScale
 70
     0
300
1:30
140
1.0
141
30.0
290
     0
  0
SCALE
  5
1F9
102
{ACAD_REACTORS
330
1EF
102
}
330
1EF
100
AcDbScale
 70
     0
300
1:40
140
1.0
141
40.0
290
     0
  0
SCALE
  5
1FA
102
{ACAD_REACTORS
330
1EF
102
}
330
1EF
100
AcDbScale
 70
     0
300
1:50
140
1.0
141
50.0
290
     0
  0
SCALE
  5
1FB
102
{ACAD_REACTORS
330
1EF
102
}
330
1EF
100
AcDbScale
 70
     0
300
1:100
140
1.0
141
100.0
290
     0
  0
SCALE
  5
1FC
102
{ACAD_REACTORS
330
1EF
102
}
330
1EF
100
AcDbScale
 70
     0
300
2:1
140
2.0
141
1.0
290
     0
  0
SCALE
  5
1FD
102
{ACAD_REACTORS
330
1EF
102
}
330
1EF
100
AcDbScale
 70
     0
300
4:1
140
4.0
141
1.0
290
     0
  0
SCALE
  5
1FE
102
{ACAD_REACTORS
330
1EF
102
}
330
1EF
100
AcDbScale
 70
     0
300
8:1
140
8.0
141
1.0
290
     0
  0
SCALE
  5
1FF
102
{ACAD_REACTORS
330
1EF
102
}
330
1EF
100
AcDbScale
 70
     0
300
10:1
140
10.0
141
1.0
290
     0
  0
SCALE
  5
200
102
{ACAD_REACTORS
330
1EF
102
}
330
1EF
100
AcDbScale
 70
     0
300
100:1
140
100.0
141
1.0
290
     0
  0
SCALE
  5
201
102
{ACAD_REACTORS
330
1EF
102
}
330
1EF
100
AcDbScale
 70
     0
300
1/128" = 1'-0"
140
0.0078125
141
12.0
290
     0
  0
SCALE
  5
202
102
{ACAD_REACTORS
330
1EF
102
}
330
1EF
100
AcDbScale
 70
     0
300
1/64" = 1'-0"
140
0.015625
141
12.0
290
     0
  0
SCALE
  5
203
102
{ACAD_REACTORS
330
1EF
102
}
330
1EF
100
AcDbScale
 70
     0
300
1/32" = 1'-0"
140
0.03125
141
12.0
290
     0
  0
SCALE
  5
204
102
{ACAD_REACTORS
330
1EF
102
}
330
1EF
100
AcDbScale
 70
     0
300
1/16" = 1'-0"
140
0.0625
141
12.0
290
     0
  0
SCALE
  5
205
102
{ACAD_REACTORS
330
1EF
102
}
330
1EF
100
AcDbScale
 70
     0
300
3/32" = 1'-0"
140
0.09375
141
12.0
290
     0
  0
SCALE
  5
206
102
{ACAD_REACTORS
330
1EF
102
}
330
1EF
100
AcDbScale
 70
     0
300
1/8" = 1'-0"
140
0.125
141
12.0
290
     0
  0
SCALE
  5
207
102
{ACAD_REACTORS
330
1EF
102
}
330
1EF
100
AcDbScale
 70
     0
300
3/16" = 1'-0"
140
0.1875
141
12.0
290
     0
  0
SCALE
  5
208
102
{ACAD_REACTORS
330
1EF
102
}
330
1EF
100
AcDbScale
 70
     0
300
1/4" = 1'-0"
140
0.25
141
12.0
290
     0
  0
SCALE
  5
209
102
{ACAD_REACTORS
330
1EF
102
}
330
1EF
100
AcDbScale
 70
     0
300
3/8" = 1'-0"
140
0.375
141
12.0
290
     0
  0
SCALE
  5
20A
102
{ACAD_REACTORS
330
1EF
102
}
330
1EF
100
AcDbScale
 70
     0
300
1/2" = 1'-0"
140
0.5
141
12.0
290
     0
  0
SCALE
  5
20B
102
{ACAD_REACTORS
330
1EF
102
}
330
1EF
100
AcDbScale
 70
     0
300
3/4" = 1'-0"
140
0.75
141
12.0
290
     0
  0
SCALE
  5
20C
102
{ACAD_REACTORS
330
1EF
102
}
330
1EF
100
AcDbScale
 70
     0
300
1" = 1'-0"
140
1.0
141
12.0
290
     0
  0
SCALE
  5
20D
102
{ACAD_REACTORS
330
1EF
102
}
330
1EF
100
AcDbScale
 70
     0
300
1-1/2" = 1'-0"
140
1.5
141
12.0
290
     0
  0
SCALE
  5
20E
102
{ACAD_REACTORS
330
1EF
102
}
330
1EF
100
AcDbScale
 70
     0
300
3" = 1'-0"
140
3.0
141
12.0
290
     0
  0
SCALE
  5
20F
102
{ACAD_REACTORS
330
1EF
102
}
330
1EF
100
AcDbScale
 70
     0
300
6" = 1'-0"
140
6.0
141
12.0
290
     0
  0
SCALE
  5
210
102
{ACAD_REACTORS
330
1EF
102
}
330
1EF
100
AcDbScale
 70
     0
300
1'-0" = 1'-0"
140
12.0
141
12.0
290
     0
  0
TABLESTYLE
  5
22F
102
{ACAD_REACTORS
330
22E
102
}
102
{ACAD_XDICTIONARY
360
2B1
102
}
330
22E
100
AcDbTableStyle
  3
Standard
 70
     0
 71
     0
 40
0.06
 41
0.06
280
     0
281
     0
  7
Standard
140
4.5
170
     2
 62
     0
 63
   257
283
     0
 90
        4
 91
        0
  1

274
    -2
284
     1
 64
     0
275
    -2
285
     1
 65
     0
276
    -2
286
     1
 66
     0
277
    -2
287
     1
 67
     0
278
    -2
288
     1
 68
     0
279
    -2
289
     1
 69
     0
  7
Standard
140
6.0
170
     5
 62
     0
 63
   257
283
     0
 90
        4
 91
        0
  1

274
    -2
284
     1
 64
     0
275
    -2
285
     1
 65
     0
276
    -2
286
     1
 66
     0
277
    -2
287
     1
 67
     0
278
    -2
288
     1
 68
     0
279
    -2
289
     1
 69
     0
  7
Standard
140
4.5
170
     5
 62
     0
 63
   257
283
     0
 90
        4
 91
        0
  1

274
    -2
284
     1
 64
     0
275
    -2
285
     1
 65
     0
276
    -2
286
     1
 66
     0
277
    -2
287
     1
 67
     0
278
    -2
288
     1
 68
     0
279
    -2
289
     1
 69
     0
  0
VISUALSTYLE
  5
216
102
{ACAD_REACTORS
330
211
102
}
330
211
100
AcDbVisualStyle
  2
2dWireframe
 70
     4
 71
     0
 72
     2
 73
     0
 90
        0
 40
0.6
 41
30.0
 62
     5
 63
     7
421
 16777215
 74
     1
 91
        4
 64
     7
 65
   257
 75
     1
175
     1
 42
1.0
 92
        0
 66
   257
 43
1.0
 76
     1
 77
     6
 78
     2
 67
     7
 79
     5
170
     0
171
     0
290
     0
174
     0
 93
        1
 44
0.0
173
     0
291
     0
 45
0.0
  0
VISUALSTYLE
  5
219
102
{ACAD_REACTORS
330
211
102
}
330
211
100
AcDbVisualStyle
  2
Basic
 70
     7
 71
     1
 72
     0
 73
     1
 90
        0
 40
0.6
 41
30.0
 62
     5
 63
     7
421
 16777215
 74
     0
 91
        4
 64
     7
 65
   257
 75
     1
175
     1
 42
1.0
 92
        8
 66
     7
 43
1.0
 76
     1
 77
     6
 78
     2
 67
     7
 79
     5
170
     0
171
     0
290
     0
174
     0
 93
        1
 44
0.0
173
     0
291
     1
 45
0.0
  0
VISUALSTYLE
  5
21D
102
{ACAD_REACTORS
330
211
102
}
330
211
100
AcDbVisualStyle
  2
Brighten
 70
    12
 71
     2
 72
     2
 73
     0
 90
        0
 40
0.6
 41
30.0
 62
     5
 63
     7
421
 16777215
 74
     1
 91
        4
 64
     7
 65
   257
 75
     1
175
     1
 42
1.0
 92
        8
 66
     7
 43
1.0
 76
     1
 77
     6
 78
     2
 67
     7
 79
     5
170
     0
171
     0
290
     0
174
     0
 93
        1
 44
50.0
173
     0
291
     1
 45
0.0
  0
VISUALSTYLE
  5
221
102
{ACAD_REACTORS
330
211
102
}
330
211
100
AcDbVisualStyle
  2
ColorChange
 70
    16
 71
     2
 72
     2
 73
     3
 90
        0
 40
0.6
 41
30.0
 62
     5
 63
     8
421
  8421504
 74
     1
 91
        4
 64
     7
 65
   257
 75
     1
175
     1
 42
1.0
 92
        8
 66
     8
424
  8421504
 43
1.0
 76
     1
 77
     6
 78
     2
 67
     7
 79
     5
170
     0
171
     0
290
     0
174
     0
 93
        1
 44
0.0
173
     0
291
     1
 45
0.0
  0
VISUALSTYLE
  5
21B
102
{ACAD_REACTORS
330
211
102
}
330
211
100
AcDbVisualStyle
  2
Conceptual
 70
     9
 71
     3
 72
     2
 73
     0
 90
        0
 40
0.6
 41
30.0
 62
     5
 63
     7
421
 16777215
 74
     2
 91
        2
 64
     7
 65
   257
 75
     1
175
     1
 42
179.0
 92
        8
 66
     7
 43
1.0
 76
     1
 77
     6
 78
     2
 67
     7
 79
     3
170
     0
171
     0
290
     0
174
     0
 93
        1
 44
0.0
173
     0
291
     0
 45
0.0
  0
VISUALSTYLE
  5
21C
102
{ACAD_REACTORS
330
211
102
}
330
211
100
AcDbVisualStyle
  2
Dim
 70
    11
 71
     2
 72
     2
 73
     0
 90
        0
 40
0.6
 41
30.0
 62
     5
 63
     7
421
 16777215
 74
     1
 91
        4
 64
     7
 65
   257
 75
     1
175
     1
 42
1.0
 92
        8
 66
     7
 43
1.0
 76
     1
 77
     6
 78
     2
 67
     7
 79
     5
170
     0
171
     0
290
     0
174
     0
 93
        1
 44
-50.0
173
     0
291
     1
 45
0.0
  0
VISUALSTYLE
  5
224
102
{ACAD_REACTORS
330
211
102
}
330
211
100
AcDbVisualStyle
  2
EdgeColorOff
 70
    22
 71
     2
 72
     2
 73
     0
 90
        0
 40
0.6
 41
30.0
 62
     5
 63
     7
421
 16777215
 74
     1
 91
        4
 64
     7
 65
   257
 75
     1
175
     1
 42
1.0
 92
        8
 66
     7
 43
1.0
 76
     1
 77
     6
 78
     2
 67
     7
 79
     5
170
     0
171
     0
290
     0
174
     0
 93
        1
 44
0.0
173
     0
291
     1
 45
0.0
  0
VISUALSTYLE
  5
220
102
{ACAD_REACTORS
330
211
102
}
330
211
100
AcDbVisualStyle
  2
Facepattern
 70
    15
 71
     2
 72
     2
 73
     0
 90
        0
 40
0.6
 41
30.0
 62
     5
 63
     7
421
 16777215
 74
     1
 91
        4
 64
     7
 65
   257
 75
     1
175
     1
 42
1.0
 92
        8
 66
     7
 43
1.0
 76
     1
 77
     6
 78
     2
 67
     7
 79
     5
170
     0
171
     0
290
     0
174
     0
 93
        1
 44
0.0
173
     0
291
     1
 45
0.0
  0
VISUALSTYLE
  5
212
102
{ACAD_REACTORS
330
211
102
}
330
211
100
AcDbVisualStyle
  2
Flat
 70
     0
 71
     2
 72
     1
 73
     1
 90
        2
 40
0.6
 41
30.0
 62
     5
 63
     7
421
 16777215
 74
     0
 91
        0
 64
     7
 65
   257
 75
     1
175
     1
 42
1.0
 92
        8
 66
     7
 43
1.0
 76
     1
 77
     6
 78
     2
 67
     7
 79
     5
170
     0
171
     0
290
     0
174
     0
 93
       13
 44
0.0
173
     0
291
     1
 45
0.0
  0
VISUALSTYLE
  5
213
102
{ACAD_REACTORS
330
211
102
}
330
211
100
AcDbVisualStyle
  2
FlatWithEdges
 70
     1
 71
     2
 72
     1
 73
     1
 90
        2
 40
0.6
 41
30.0
 62
     5
 63
     7
421
 16777215
 74
     1
 91
        0
 64
     7
 65
   257
 75
     1
175
     1
 42
1.0
 92
        0
 66
   257
 43
1.0
 76
     1
 77
     6
 78
     2
 67
     7
 79
     5
170
     0
171
     0
290
     0
174
     0
 93
       13
 44
0.0
173
     0
291
     1
 45
0.0
  0
VISUALSTYLE
  5
214
102
{ACAD_REACTORS
330
211
102
}
330
211
100
AcDbVisualStyle
  2
Gouraud
 70
     2
 71
     2
 72
     2
 73
     1
 90
        2
 40
0.6
 41
30.0
 62
     5
 63
     7
421
 16777215
 74
     0
 91
        0
 64
     7
 65
   257
 75
     1
175
     1
 42
1.0
 92
        0
 66
     7
 43
1.0
 76
     1
 77
     6
 78
     2
 67
     7
 79
     5
170
     0
171
     0
290
     0
174
     0
 93
       13
 44
0.0
173
     0
291
     1
 45
0.0
  0
VISUALSTYLE
  5
215
102
{ACAD_REACTORS
330
211
102
}
330
211
100
AcDbVisualStyle
  2
GouraudWithEdges
 70
     3
 71
     2
 72
     2
 73
     1
 90
        2
 40
0.6
 41
30.0
 62
     5
 63
     7
421
 16777215
 74
     1
 91
        0
 64
     7
 65
   257
 75
     1
175
     1
 42
1.0
 92
        0
 66
   257
 43
1.0
 76
     1
 77
     6
 78
     2
 67
     7
 79
     5
170
     0
171
     0
290
     0
174
     0
 93
       13
 44
0.0
173
     0
291
     1
 45
0.0
  0
VISUALSTYLE
  5
218
102
{ACAD_REACTORS
330
211
102
}
330
211
100
AcDbVisualStyle
  2
Hidden
 70
     6
 71
     1
 72
     2
 73
     2
 90
        0
 40
0.6
 41
30.0
 62
     5
 63
     7
421
 16777215
 74
     2
 91
        2
 64
     7
 65
   257
 75
     2
175
     1
 42
40.0
 92
        0
 66
   257
 43
1.0
 76
     1
 77
     6
 78
     2
 67
     7
 79
     3
170
     0
171
     0
290
     0
174
     0
 93
        1
 44
0.0
173
     0
291
     0
 45
0.0
  0
VISUALSTYLE
  5
222
102
{ACAD_REACTORS
330
211
102
}
330
211
100
AcDbVisualStyle
  2
JitterOff
 70
    20
 71
     2
 72
     2
 73
     0
 90
        0
 40
0.6
 41
30.0
 62
     5
 63
     7
421
 16777215
 74
     1
 91
        4
 64
     7
 65
   257
 75
     1
175
     1
 42
1.0
 92
       10
 66
     7
 43
1.0
 76
     1
 77
     6
 78
     2
 67
     7
 79
     5
170
     0
171
     0
290
     0
174
     0
 93
        1
 44
0.0
173
     0
291
     1
 45
0.0
  0
VISUALSTYLE
  5
21F
102
{ACAD_REACTORS
330
211
102
}
330
211
100
AcDbVisualStyle
  2
Linepattern
 70
    14
 71
     2
 72
     2
 73
     0
 90
        0
 40
0.6
 41
30.0
 62
     5
 63
     7
421
 16777215
 74
     1
 91
        4
 64
     7
 65
   257
 75
     7
175
     7
 42
1.0
 92
        8
 66
     7
 43
1.0
 76
     1
 77
     6
 78
     2
 67
     7
 79
     5
170
     0
171
     0
290
     0
174
     0
 93
        1
 44
0.0
173
     0
291
     1
 45
0.0
  0
VISUALSTYLE
  5
223
102
{ACAD_REACTORS
330
211
102
}
330
211
100
AcDbVisualStyle
  2
OverhangOff
 70
    21
 71
     2
 72
     2
 73
     0
 90
        0
 40
0.6
 41
30.0
 62
     5
 63
     7
421
 16777215
 74
     1
 91
        4
 64
     7
 65
   257
 75
     1
175
     1
 42
1.0
 92
        9
 66
     7
 43
1.0
 76
     1
 77
     6
 78
     2
 67
     7
 79
     5
170
     0
171
     0
290
     0
174
     0
 93
        1
 44
0.0
173
     0
291
     1
 45
0.0
  0
VISUALSTYLE
  5
21A
102
{ACAD_REACTORS
330
211
102
}
330
211
100
AcDbVisualStyle
  2
Realistic
 70
     8
 71
     2
 72
     3
 73
     0
 90
        2
 40
0.6
 41
30.0
 62
     5
 63
     7
421
 16777215
 74
     0
 91
        0
 64
     7
 65
   257
 75
     1
175
     1
 42
1.0
 92
        8
 66
   257
 43
1.0
 76
     1
 77
     6
 78
     2
 67
     7
 79
     3
170
     0
171
     0
290
     0
174
     0
 93
       13
 44
0.0
173
     0
291
     0
 45
0.0
  0
VISUALSTYLE
  5
229
102
{ACAD_REACTORS
330
211
102
}
330
211
100
AcDbVisualStyle
  2
Shaded
 70
    27
 71
     2
 72
     2
 73
     1
 90
        2
 40
0.6
 41
30.0
 62
     5
 63
     7
421
 16777215
 74
     0
 91
        4
 64
     7
 65
   257
 75
     1
175
     1
 42
1.0
 92
        8
 66
   257
 43
1.0
 76
     1
 77
     6
 78
     2
 67
     8
425
  7895160
 79
     3
170
     0
171
     0
290
     0
174
     0
 93
        5
 44
0.0
173
     0
291
     0
 45
0.0
  0
VISUALSTYLE
  5
228
102
{ACAD_REACTORS
330
211
102
}
330
211
100
AcDbVisualStyle
  2
Shaded with edges
 70
    26
 71
     2
 72
     2
 73
     1
 90
        2
 40
0.6
 41
30.0
 62
     5
 63
     7
421
 16777215
 74
     1
 91
       10
 64
     7
 65
   257
 75
     2
175
     1
 42
1.0
 92
        8
 66
   257
 43
1.0
 76
     1
 77
     6
 78
     2
 67
     7
 79
     3
170
     0
171
     0
290
     0
174
     0
 93
        5
 44
0.0
173
     0
291
     0
 45
0.0
  0
VISUALSTYLE
  5
225
102
{ACAD_REACTORS
330
211
102
}
330
211
100
AcDbVisualStyle
  2
Shades of Gray
 70
    23
 71
     2
 72
     2
 73
     3
 90
        0
 40
0.6
 41
30.0
 62
     5
 63
     7
421
 16777215
 74
     2
 91
        2
 64
     7
 65
     7
 75
     1
175
     1
 42
40.0
 92
        8
 66
     7
 43
1.0
 76
     1
 77
     6
 78
     2
 67
     7
 79
     3
170
     0
171
     0
290
     0
174
     0
 93
        1
 44
0.0
173
     0
291
     0
 45
0.0
  0
VISUALSTYLE
  5
226
102
{ACAD_REACTORS
330
211
102
}
330
211
100
AcDbVisualStyle
  2
Sketchy
 70
    24
 71
     1
 72
     2
 73
     2
 90
        0
 40
0.6
 41
30.0
 62
     5
 63
     7
421
 16777215
 74
     2
 91
        2
 64
     7
 65
     7
 75
     1
175
     1
 42
40.0
 92
       11
 66
     7
 43
1.0
 76
     1
 77
     6
 78
     2
 67
     7
 79
     6
170
     0
171
     0
290
     0
174
     0
 93
        1
 44
0.0
173
     0
291
     0
 45
0.0
  0
VISUALSTYLE
  5
21E
102
{ACAD_REACTORS
330
211
102
}
330
211
100
AcDbVisualStyle
  2
Thicken
 70
    13
 71
     2
 72
     2
 73
     0
 90
        0
 40
0.6
 41
30.0
 62
     5
 63
     7
421
 16777215
 74
     1
 91
        4
 64
     7
 65
   257
 75
     1
175
     1
 42
1.0
 92
       12
 66
     7
 43
1.0
 76
     1
 77
     6
 78
     2
 67
     7
 79
     5
170
     0
171
     0
290
     0
174
     0
 93
        1
 44
0.0
173
     0
291
     1
 45
0.0
  0
VISUALSTYLE
  5
217
102
{ACAD_REACTORS
330
211
102
}
330
211
100
AcDbVisualStyle
  2
Wireframe
 70
     5
 71
     0
 72
     2
 73
     0
 90
        0
 40
0.6
 41
30.0
 62
     5
 63
     7
421
 16777215
 74
     1
 91
        4
 64
     7
 65
   257
 75
     1
175
     1
 42
1.0
 92
        0
 66
   257
 43
1.0
 76
     1
 77
     6
 78
     2
 67
     7
 79
     3
170
     0
171
     0
290
     0
174
     0
 93
        1
 44
0.0
173
     0
291
     0
 45
0.0
  0
VISUALSTYLE
  5
227
102
{ACAD_REACTORS
330
211
102
}
330
211
100
AcDbVisualStyle
  2
X-Ray
 70
    25
 71
     2
 72
     2
 73
     1
 90
        1
 40
0.5
 41
30.0
 62
     5
 63
     7
421
 16777215
 74
     1
 91
        0
 64
     7
 65
   257
 75
     1
175
     1
 42
1.0
 92
        8
 66
     7
 43
1.0
 76
     1
 77
     6
 78
     2
 67
     7
 79
     3
170
     0
171
     0
290
     0
174
     0
 93
       13
 44
0.0
173
     0
291
     0
 45
0.0
  0
DICTIONARYVAR
  5
2AF
102
{ACAD_REACTORS
330
2AE
102
}
330
2AE
100
DictionaryVariables
280
     0
  1
1:1
  0
DICTIONARYVAR
  5
2B4
102
{ACAD_REACTORS
330
2AE
102
}
330
2AE
100
DictionaryVariables
280
     0
  1
Standard
  0
DICTIONARYVAR
  5
2B0
102
{ACAD_REACTORS
330
2AE
102
}
330
2AE
100
DictionaryVariables
280
     0
  1
0
  0
DICTIONARYVAR
  5
2B5
102
{ACAD_REACTORS
330
2AE
102
}
330
2AE
100
DictionaryVariables
280
     0
  1
0
  0
XRECORD
  5
235
102
{ACAD_REACTORS
330
234
102
}
330
234
100
AcDbXrecord
280
     1
 91
     1023
301

290
     0
302
notes
330
14
 90
        8
 62
     7
370
    -3
331
13
  1
Color_7
330
45
 90
        0
 62
     7
370
    -3
331
13
  1
Color_7
330
46
 90
        8
 62
     7
370
    -3
331
13
  1
Color_7
330
47
 90
        8
 62
     7
370
    -3
331
13
  1
Color_7
330
48
 90
        8
 62
     7
370
    -3
331
13
  1
Color_7
  0
XRECORD
  5
23F
102
{ACAD_REACTORS
330
234
102
}
330
234
100
AcDbXrecord
280
     1
 91
     1023
301

290
     0
302
ADF70-0602
330
14
 90
        8
 62
     7
370
    -3
331
13
  1
Color_7
330
45
 90
        0
 62
     7
370
    -3
331
13
  1
Color_7
330
46
 90
        8
 62
     7
370
    -3
331
13
  1
Color_7
330
47
 90
        8
 62
     7
370
    -3
331
13
  1
Color_7
330
48
 90
        8
 62
     7
370
    -3
331
13
  1
Color_7
  0
XRECORD
  5
240
102
{ACAD_REACTORS
330
234
102
}
330
234
100
AcDbXrecord
280
     1
 91
     1023
301

290
     0
302
ADF70-0602
330
14
 90
        8
 62
     7
370
    -3
331
13
  1
Color_7
330
45
 90
        1
 62
     7
370
    -3
331
13
  1
Color_7
330
46
 90
        8
 62
     7
370
    -3
331
13
  1
Color_7
330
47
 90
        8
 62
     7
370
    -3
331
13
  1
Color_7
330
48
 90
        8
 62
     7
370
    -3
331
13
  1
Color_7
  0
XRECORD
  5
241
102
{ACAD_REACTORS
330
234
102
}
330
234
100
AcDbXrecord
280
     1
 91
     1023
301

290
     0
302
ADF70-0602
330
14
 90
        8
 62
     7
370
    -3
331
13
  1
Color_7
330
45
 90
        1
 62
     7
370
    -3
331
13
  1
Color_7
330
46
 90
        8
 62
     7
370
    -3
331
13
  1
Color_7
330
47
 90
        9
 62
     7
370
    -3
331
13
  1
Color_7
330
48
 90
        8
 62
     7
370
    -3
331
13
  1
Color_7
  0
XRECORD
  5
242
102
{ACAD_REACTORS
330
234
102
}
330
234
100
AcDbXrecord
280
     1
 91
     1023
301

290
     0
302
ADF70-0602
330
14
 90
        8
 62
     7
370
    -3
331
13
  1
Color_7
330
45
 90
        1
 62
     7
370
    -3
331
13
  1
Color_7
330
46
 90
        8
 62
     7
370
    -3
331
13
  1
Color_7
330
47
 90
        8
 62
     7
370
    -3
331
13
  1
Color_7
330
48
 90
        8
 62
     7
370
    -3
331
13
  1
Color_7
  0
XRECORD
  5
243
102
{ACAD_REACTORS
330
234
102
}
330
234
100
AcDbXrecord
280
     1
 91
     1023
301

290
     0
302
ADF70-0602
330
14
 90
        8
 62
     7
370
    -3
331
13
  1
Color_7
330
45
 90
        1
 62
     7
370
    -3
331
13
  1
Color_7
330
46
 90
        8
 62
     7
370
    -3
331
13
  1
Color_7
330
47
 90
        9
 62
     7
370
    -3
331
13
  1
Color_7
330
48
 90
        8
 62
     7
370
    -3
331
13
  1
Color_7
  0
XRECORD
  5
244
102
{ACAD_REACTORS
330
234
102
}
330
234
100
AcDbXrecord
280
     1
 91
     1023
301

290
     0
302
ADF70-0602
330
14
 90
        8
 62
     7
370
    -3
331
13
  1
Color_7
330
45
 90
        1
 62
     7
370
    -3
331
13
  1
Color_7
330
46
 90
        8
 62
     7
370
    -3
331
13
  1
Color_7
330
47
 90
        8
 62
     7
370
    -3
331
13
  1
Color_7
330
48
 90
        8
 62
     7
370
    -3
331
13
  1
Color_7
  0
XRECORD
  5
245
102
{ACAD_REACTORS
330
234
102
}
330
234
100
AcDbXrecord
280
     1
 91
     1023
301

290
     0
302
ADF70-0602
330
14
 90
        8
 62
     7
370
    -3
331
13
  1
Color_7
330
45
 90
        1
 62
     7
370
    -3
331
13
  1
Color_7
330
46
 90
        8
 62
     7
370
    -3
331
13
  1
Color_7
330
47
 90
        9
 62
     7
370
    -3
331
13
  1
Color_7
330
48
 90
        8
 62
     7
370
    -3
331
13
  1
Color_7
  0
XRECORD
  5
246
102
{ACAD_REACTORS
330
234
102
}
330
234
100
AcDbXrecord
280
     1
 91
     1023
301

290
     0
302
ADF70-0602
330
14
 90
        8
 62
     7
370
    -3
331
13
  1
Color_7
330
45
 90
        1
 62
     7
370
    -3
331
13
  1
Color_7
330
46
 90
        8
 62
     7
370
    -3
331
13
  1
Color_7
330
47
 90
        8
 62
     7
370
    -3
331
13
  1
Color_7
330
48
 90
        8
 62
     7
370
    -3
331
13
  1
Color_7
  0
XRECORD
  5
247
102
{ACAD_REACTORS
330
234
102
}
330
234
100
AcDbXrecord
280
     1
 91
     1023
301

290
     0
302
ADF70-0602
330
14
 90
        8
 62
     7
370
    -3
331
13
  1
Color_7
330
45
 90
        1
 62
     7
370
    -3
331
13
  1
Color_7
330
46
 90
        8
 62
     7
370
    -3
331
13
  1
Color_7
330
47
 90
        9
 62
     7
370
    -3
331
13
  1
Color_7
330
48
 90
        8
 62
     7
370
    -3
331
13
  1
Color_7
  0
XRECORD
  5
248
102
{ACAD_REACTORS
330
234
102
}
330
234
100
AcDbXrecord
280
     1
 91
     1023
301

290
     0
302
ADF70-0602
330
14
 90
        8
 62
     7
370
    -3
331
13
  1
Color_7
330
45
 90
        1
 62
     7
370
    -3
331
13
  1
Color_7
330
46
 90
        8
 62
     7
370
    -3
331
13
  1
Color_7
330
47
 90
        8
 62
     7
370
    -3
331
13
  1
Color_7
330
48
 90
        8
 62
     7
370
    -3
331
13
  1
Color_7
  0
XRECORD
  5
236
102
{ACAD_REACTORS
330
234
102
}
330
234
100
AcDbXrecord
280
     1
 91
     1023
301

290
     0
302
template
330
14
 90
        8
 62
     7
370
    -3
331
13
  1
Color_7
330
45
 90
        0
 62
     7
370
    -3
331
13
  1
Color_7
330
46
 90
        8
 62
     7
370
    -3
331
13
  1
Color_7
330
47
 90
        8
 62
     7
370
    -3
331
13
  1
Color_7
330
48
 90
        8
 62
     7
370
    -3
331
13
  1
Color_7
  0
XRECORD
  5
249
102
{ACAD_REACTORS
330
234
102
}
330
234
100
AcDbXrecord
280
     1
 91
     1023
301

290
     0
302
ADF70-0602
330
14
 90
        8
 62
     7
370
    -3
331
13
  1
Color_7
330
45
 90
        1
 62
     7
370
    -3
331
13
  1
Color_7
330
46
 90
        8
 62
     7
370
    -3
331
13
  1
Color_7
330
47
 90
        9
 62
     7
370
    -3
331
13
  1
Color_7
330
48
 90
        8
 62
     7
370
    -3
331
13
  1
Color_7
  0
XRECORD
  5
24A
102
{ACAD_REACTORS
330
234
102
}
330
234
100
AcDbXrecord
280
     1
 91
     1023
301

290
     0
302
ADF70-0602
330
14
 90
        8
 62
     7
370
    -3
331
13
  1
Color_7
330
45
 90
        1
 62
     7
370
    -3
331
13
  1
Color_7
330
46
 90
        8
 62
     7
370
    -3
331
13
  1
Color_7
330
47
 90
        8
 62
     7
370
    -3
331
13
  1
Color_7
330
48
 90
        8
 62
     7
370
    -3
331
13
  1
Color_7
  0
XRECORD
  5
24C
102
{ACAD_REACTORS
330
234
102
}
330
234
100
AcDbXrecord
280
     1
 91
     1023
301

290
     0
302
notes
330
14
 90
        8
 62
     7
370
    -3
331
13
  1
Color_7
330
45
 90
        1
 62
     7
370
    -3
331
13
  1
Color_7
330
46
 90
        8
 62
     7
370
    -3
331
13
  1
Color_7
330
47
 90
        8
 62
     7
370
    -3
331
13
  1
Color_7
330
48
 90
        8
 62
     7
370
    -3
331
13
  1
Color_7
  0
XRECORD
  5
24E
102
{ACAD_REACTORS
330
234
102
}
330
234
100
AcDbXrecord
280
     1
 91
     1023
301

290
     0
302
notes
330
14
 90
        8
 62
     7
370
    -3
331
13
  1
Color_7
330
45
 90
        1
 62
     7
370
    -3
331
13
  1
Color_7
330
46
 90
        8
 62
     7
370
    -3
331
13
  1
Color_7
330
47
 90
        8
 62
     7
370
     5
331
13
  1
Color_7
330
48
 90
        8
 62
     7
370
    13
331
13
  1
Color_7
  0
XRECORD
  5
24F
102
{ACAD_REACTORS
330
234
102
}
330
234
100
AcDbXrecord
280
     1
 91
     1023
301

290
     0
302
notes
330
14
 90
        8
 62
     7
370
    -3
331
13
  1
Color_7
330
45
 90
        1
 62
     7
370
    -3
331
13
  1
Color_7
330
46
 90
        8
 62
     7
370
    -3
331
13
  1
Color_7
330
47
 90
        9
 62
     7
370
     5
331
13
  1
Color_7
330
48
 90
        8
 62
     7
370
    13
331
13
  1
Color_7
  0
XRECORD
  5
250
102
{ACAD_REACTORS
330
234
102
}
330
234
100
AcDbXrecord
280
     1
 91
     1023
301

290
     0
302
ADF70-0602
330
14
 90
        8
 62
     7
370
    -3
331
13
  1
Color_7
330
45
 90
        1
 62
     7
370
    -3
331
13
  1
Color_7
330
46
 90
        8
 62
     7
370
    -3
331
13
  1
Color_7
330
47
 90
        9
 62
     7
370
     5
331
13
  1
Color_7
330
48
 90
        8
 62
     7
370
    13
331
13
  1
Color_7
  0
XRECORD
  5
251
102
{ACAD_REACTORS
330
234
102
}
330
234
100
AcDbXrecord
280
     1
 91
     1023
301

290
     0
302
0
330
14
 90
        8
 62
     7
370
    -3
331
13
  1
Color_7
330
45
 90
        1
 62
     7
370
    -3
331
13
  1
Color_7
330
46
 90
        8
 62
     7
370
    -3
331
13
  1
Color_7
330
47
 90
        9
 62
     7
370
     5
331
13
  1
Color_7
330
48
 90
        8
 62
     7
370
    13
331
13
  1
Color_7
  0
XRECORD
  5
252
102
{ACAD_REACTORS
330
234
102
}
330
234
100
AcDbXrecord
280
     1
 91
     1023
301

290
     0
302
0
330
14
 90
        8
 62
     7
370
    -3
331
13
  1
Color_7
330
45
 90
        1
 62
     7
370
    -3
331
13
  1
Color_7
330
46
 90
        8
 62
     7
370
    -3
331
13
  1
Color_7
330
47
 90
        9
 62
     7
370
     5
331
13
  1
Color_7
330
48
 90
        9
 62
     7
370
    13
331
13
  1
Color_7
  0
XRECORD
  5
253
102
{ACAD_REACTORS
330
234
102
}
330
234
100
AcDbXrecord
280
     1
 91
     1023
301

290
     0
302
0
330
14
 90
        8
 62
     7
370
    -3
331
13
  1
Color_7
330
45
 90
        1
 62
     7
370
    -3
331
13
  1
Color_7
330
46
 90
        8
 62
     7
370
    -3
331
13
  1
Color_7
330
47
 90
        9
 62
     7
370
     5
331
13
  1
Color_7
330
48
 90
        8
 62
     7
370
    13
331
13
  1
Color_7
  0
XRECORD
  5
254
102
{ACAD_REACTORS
330
234
102
}
330
234
100
AcDbXrecord
280
     1
 91
     1023
301

290
     0
302
0
330
14
 90
        8
 62
     7
370
    -3
331
13
  1
Color_7
330
45
 90
        1
 62
     7
370
    -3
331
13
  1
Color_7
330
46
 90
        8
 62
     7
370
    -3
331
13
  1
Color_7
330
47
 90
        9
 62
     7
370
     5
331
13
  1
Color_7
330
48
 90
        9
 62
     7
370
    13
331
13
  1
Color_7
  0
XRECORD
  5
237
102
{ACAD_REACTORS
330
234
102
}
330
234
100
AcDbXrecord
280
     1
 91
     1023
301

290
     0
302
template
330
14
 90
        8
 62
     7
370
    -3
331
13
  1
Color_7
330
45
 90
        0
 62
     7
370
    -3
331
13
  1
Color_7
330
46
 90
        8
 62
     7
370
    -3
331
13
  1
Color_7
330
47
 90
        9
 62
     7
370
    -3
331
13
  1
Color_7
330
48
 90
        8
 62
     7
370
    -3
331
13
  1
Color_7
  0
XRECORD
  5
255
102
{ACAD_REACTORS
330
234
102
}
330
234
100
AcDbXrecord
280
     1
 91
     1023
301

290
     0
302
0
330
14
 90
        8
 62
     7
370
    -3
331
13
  1
Color_7
330
45
 90
        1
 62
     7
370
    -3
331
13
  1
Color_7
330
46
 90
        8
 62
     7
370
    -3
331
13
  1
Color_7
330
47
 90
        9
 62
     7
370
     5
331
13
  1
Color_7
330
48
 90
        8
 62
     7
370
    13
331
13
  1
Color_7
  0
XRECORD
  5
256
102
{ACAD_REACTORS
330
234
102
}
330
234
100
AcDbXrecord
280
     1
 91
     1023
301

290
     0
302
0
330
14
 90
        8
 62
     7
370
    -3
331
13
  1
Color_7
330
45
 90
        1
 62
     7
370
    -3
331
13
  1
Color_7
330
46
 90
        8
 62
     7
370
    -3
331
13
  1
Color_7
330
47
 90
        8
 62
     7
370
     5
331
13
  1
Color_7
330
48
 90
        8
 62
     7
370
    13
331
13
  1
Color_7
  0
XRECORD
  5
257
102
{ACAD_REACTORS
330
234
102
}
330
234
100
AcDbXrecord
280
     1
 91
     1023
301

290
     0
302
0
330
14
 90
        8
 62
     7
370
    -3
331
13
  1
Color_7
330
45
 90
        1
 62
     7
370
    -3
331
13
  1
Color_7
330
46
 90
        8
 62
     7
370
    -3
331
13
  1
Color_7
330
47
 90
        8
 62
     7
370
     5
331
13
  1
Color_7
330
48
 90
        9
 62
     7
370
    13
331
13
  1
Color_7
  0
XRECORD
  5
258
102
{ACAD_REACTORS
330
234
102
}
330
234
100
AcDbXrecord
280
     1
 91
     1023
301

290
     0
302
0
330
14
 90
        8
 62
     7
370
    -3
331
13
  1
Color_7
330
45
 90
        1
 62
     7
370
    -3
331
13
  1
Color_7
330
46
 90
        8
 62
     7
370
    -3
331
13
  1
Color_7
330
47
 90
        9
 62
     7
370
     5
331
13
  1
Color_7
330
48
 90
        9
 62
     7
370
    13
331
13
  1
Color_7
  0
XRECORD
  5
259
102
{ACAD_REACTORS
330
234
102
}
330
234
100
AcDbXrecord
280
     1
 91
     1023
301

290
     0
302
0
330
14
 90
        8
 62
     7
370
    -3
331
13
  1
Color_7
330
45
 90
        1
 62
     7
370
    -3
331
13
  1
Color_7
330
46
 90
        8
 62
     7
370
    -3
331
13
  1
Color_7
330
47
 90
        8
 62
     7
370
     5
331
13
  1
Color_7
330
48
 90
        9
 62
     7
370
    13
331
13
  1
Color_7
  0
XRECORD
  5
238
102
{ACAD_REACTORS
330
234
102
}
330
234
100
AcDbXrecord
280
     1
 91
     1023
301

290
     0
302
template
330
14
 90
        8
 62
     7
370
    -3
331
13
  1
Color_7
330
45
 90
        0
 62
     7
370
    -3
331
13
  1
Color_7
330
46
 90
        8
 62
     7
370
    -3
331
13
  1
Color_7
330
47
 90
        8
 62
     7
370
    -3
331
13
  1
Color_7
330
48
 90
        8
 62
     7
370
    -3
331
13
  1
Color_7
  0
XRECORD
  5
239
102
{ACAD_REACTORS
330
234
102
}
330
234
100
AcDbXrecord
280
     1
 91
     1023
301

290
     0
302
template
330
14
 90
        8
 62
     7
370
    -3
331
13
  1
Color_7
330
45
 90
        1
 62
     7
370
    -3
331
13
  1
Color_7
330
46
 90
        8
 62
     7
370
    -3
331
13
  1
Color_7
330
47
 90
        8
 62
     7
370
    -3
331
13
  1
Color_7
330
48
 90
        8
 62
     7
370
    -3
331
13
  1
Color_7
  0
XRECORD
  5
23A
102
{ACAD_REACTORS
330
234
102
}
330
234
100
AcDbXrecord
280
     1
 91
     1023
301

290
     0
302
template
330
14
 90
        8
 62
     7
370
    -3
331
13
  1
Color_7
330
45
 90
        0
 62
     7
370
    -3
331
13
  1
Color_7
330
46
 90
        8
 62
     7
370
    -3
331
13
  1
Color_7
330
47
 90
        8
 62
     7
370
    -3
331
13
  1
Color_7
330
48
 90
        8
 62
     7
370
    -3
331
13
  1
Color_7
  0
XRECORD
  5
23B
102
{ACAD_REACTORS
330
234
102
}
330
234
100
AcDbXrecord
280
     1
 91
     1023
301

290
     0
302
template
330
14
 90
        8
 62
     7
370
    -3
331
13
  1
Color_7
330
45
 90
        1
 62
     7
370
    -3
331
13
  1
Color_7
330
46
 90
        8
 62
     7
370
    -3
331
13
  1
Color_7
330
47
 90
        8
 62
     7
370
    -3
331
13
  1
Color_7
330
48
 90
        8
 62
     7
370
    -3
331
13
  1
Color_7
  0
XRECORD
  5
23C
102
{ACAD_REACTORS
330
234
102
}
330
234
100
AcDbXrecord
280
     1
 91
     1023
301

290
     0
302
template
330
14
 90
        8
 62
     7
370
    -3
331
13
  1
Color_7
330
45
 90
        0
 62
     7
370
    -3
331
13
  1
Color_7
330
46
 90
        8
 62
     7
370
    -3
331
13
  1
Color_7
330
47
 90
        8
 62
     7
370
    -3
331
13
  1
Color_7
330
48
 90
        8
 62
     7
370
    -3
331
13
  1
Color_7
  0
XRECORD
  5
23E
102
{ACAD_REACTORS
330
234
102
}
330
234
100
AcDbXrecord
280
     1
 91
     1023
301

290
     0
302
Defpoints
330
14
 90
        8
 62
     7
370
    -3
331
13
  1
Color_7
330
45
 90
        0
 62
     7
370
    -3
331
13
  1
Color_7
330
46
 90
        8
 62
     7
370
    -3
331
13
  1
Color_7
330
47
 90
        8
 62
     7
370
    -3
331
13
  1
Color_7
330
48
 90
        8
 62
     7
370
    -3
331
13
  1
Color_7
  0
DICTIONARY
  5
2B1
330
22F
100
AcDbDictionary
280
     1
281
     1
  3
ACAD_ROUNDTRIP_2008_TABLESTYLE_CELLSTYLEMAP
360
2B2
  0
CELLSTYLEMAP
  5
2B2
102
{ACAD_REACTORS
330
2B1
102
}
330
2B1
100
AcDbCellStyleMap
 90
        3
300
CELLSTYLE
  1
TABLEFORMAT_BEGIN
 90
        5
170
     1
 91
        0
 92
        0
 62
   257
 93
        1
300
CONTENTFORMAT
  1
CONTENTFORMAT_BEGIN
 90
        0
 91
        0
 92
        4
 93
        0
300

 40
0.0
140
1.0
 94
        5
 62
     0
340
17
144
6.0
309
CONTENTFORMAT_END
171
     1
301
MARGIN
  1
CELLMARGIN_BEGIN
 40
1.5
 40
1.5
 40
1.5
 40
1.5
 40
1.5
 40
1.5
309
CELLMARGIN_END
 94
        6
 95
        1
302
GRIDFORMAT
  1
GRIDFORMAT_BEGIN
 90
        0
 91
        1
 62
     0
 92
       -2
340
11
 93
        0
 40
0.045
309
GRIDFORMAT_END
 95
        2
302
GRIDFORMAT
  1
GRIDFORMAT_BEGIN
 90
        0
 91
        1
 62
     0
 92
       -2
340
11
 93
        0
 40
0.045
309
GRIDFORMAT_END
 95
        4
302
GRIDFORMAT
  1
GRIDFORMAT_BEGIN
 90
        0
 91
        1
 62
     0
 92
       -2
340
11
 93
        0
 40
0.045
309
GRIDFORMAT_END
 95
        8
302
GRIDFORMAT
  1
GRIDFORMAT_BEGIN
 90
        0
 91
        1
 62
     0
 92
       -2
340
11
 93
        0
 40
0.045
309
GRIDFORMAT_END
 95
       16
302
GRIDFORMAT
  1
GRIDFORMAT_BEGIN
 90
        0
 91
        1
 62
     0
 92
       -2
340
11
 93
        0
 40
0.045
309
GRIDFORMAT_END
 95
       32
302
GRIDFORMAT
  1
GRIDFORMAT_BEGIN
 90
        0
 91
        1
 62
     0
 92
       -2
340
11
 93
        0
 40
0.045
309
GRIDFORMAT_END
309
TABLEFORMAT_END
  1
CELLSTYLE_BEGIN
 90
        1
 91
        1
300
_TITLE
309
CELLSTYLE_END
300
CELLSTYLE
  1
TABLEFORMAT_BEGIN
 90
        5
170
     1
 91
        0
 92
        0
 62
   257
 93
        1
300
CONTENTFORMAT
  1
CONTENTFORMAT_BEGIN
 90
        0
 91
        0
 92
        4
 93
        0
300

 40
0.0
140
1.0
 94
        5
 62
     0
340
17
144
4.5
309
CONTENTFORMAT_END
171
     1
301
MARGIN
  1
CELLMARGIN_BEGIN
 40
1.5
 40
1.5
 40
1.5
 40
1.5
 40
1.5
 40
1.5
309
CELLMARGIN_END
 94
        6
 95
        1
302
GRIDFORMAT
  1
GRIDFORMAT_BEGIN
 90
        0
 91
        1
 62
     0
 92
       -2
340
11
 93
        0
 40
0.045
309
GRIDFORMAT_END
 95
        2
302
GRIDFORMAT
  1
GRIDFORMAT_BEGIN
 90
        0
 91
        1
 62
     0
 92
       -2
340
11
 93
        0
 40
0.045
309
GRIDFORMAT_END
 95
        4
302
GRIDFORMAT
  1
GRIDFORMAT_BEGIN
 90
        0
 91
        1
 62
     0
 92
       -2
340
11
 93
        0
 40
0.045
309
GRIDFORMAT_END
 95
        8
302
GRIDFORMAT
  1
GRIDFORMAT_BEGIN
 90
        0
 91
        1
 62
     0
 92
       -2
340
11
 93
        0
 40
0.045
309
GRIDFORMAT_END
 95
       16
302
GRIDFORMAT
  1
GRIDFORMAT_BEGIN
 90
        0
 91
        1
 62
     0
 92
       -2
340
11
 93
        0
 40
0.045
309
GRIDFORMAT_END
 95
       32
302
GRIDFORMAT
  1
GRIDFORMAT_BEGIN
 90
        0
 91
        1
 62
     0
 92
       -2
340
11
 93
        0
 40
0.045
309
GRIDFORMAT_END
309
TABLEFORMAT_END
  1
CELLSTYLE_BEGIN
 90
        2
 91
        1
300
_HEADER
309
CELLSTYLE_END
300
CELLSTYLE
  1
TABLEFORMAT_BEGIN
 90
        5
170
     1
 91
        0
 92
        0
 62
   257
 93
        1
300
CONTENTFORMAT
  1
CONTENTFORMAT_BEGIN
 90
        0
 91
        0
 92
        4
 93
        0
300

 40
0.0
140
1.0
 94
        2
 62
     0
340
17
144
4.5
309
CONTENTFORMAT_END
171
     1
301
MARGIN
  1
CELLMARGIN_BEGIN
 40
1.5
 40
1.5
 40
1.5
 40
1.5
 40
1.5
 40
1.5
309
CELLMARGIN_END
 94
        6
 95
        1
302
GRIDFORMAT
  1
GRIDFORMAT_BEGIN
 90
        0
 91
        1
 62
     0
 92
       -2
340
11
 93
        0
 40
0.045
309
GRIDFORMAT_END
 95
        2
302
GRIDFORMAT
  1
GRIDFORMAT_BEGIN
 90
        0
 91
        1
 62
     0
 92
       -2
340
11
 93
        0
 40
0.045
309
GRIDFORMAT_END
 95
        4
302
GRIDFORMAT
  1
GRIDFORMAT_BEGIN
 90
        0
 91
        1
 62
     0
 92
       -2
340
11
 93
        0
 40
0.045
309
GRIDFORMAT_END
 95
        8
302
GRIDFORMAT
  1
GRIDFORMAT_BEGIN
 90
        0
 91
        1
 62
     0
 92
       -2
340
11
 93
        0
 40
0.045
309
GRIDFORMAT_END
 95
       16
302
GRIDFORMAT
  1
GRIDFORMAT_BEGIN
 90
        0
 91
        1
 62
     0
 92
       -2
340
11
 93
        0
 40
0.045
309
GRIDFORMAT_END
 95
       32
302
GRIDFORMAT
  1
GRIDFORMAT_BEGIN
 90
        0
 91
        1
 62
     0
 92
       -2
340
11
 93
        0
 40
0.045
309
GRIDFORMAT_END
309
TABLEFORMAT_END
  1
CELLSTYLE_BEGIN
 90
        3
 91
        2
300
_DATA
309
CELLSTYLE_END
  0
ENDSEC
  0
EOF
