  0
SECTION
  2
HEADER
  9
$ACADVER
  1
AC1021
  9
$ACADMAINTVER
 70
    25
  9
$DWGCODEPAGE
  3
ANSI_932
  9
$LASTSAVEDBY
  1
howeNelson
  9
$INSBASE
 10
0.0
 20
0.0
 30
0.0
  9
$EXTMIN
 10
0.0
 20
0.0
 30
0.0
  9
$EXTMAX
 10
2100.0
 20
2970.0
 30
0.0
  9
$LIMMIN
 10
0.0
 20
0.0
  9
$LIMMAX
 10
2100.0
 20
2970.0
  9
$ORTHOMODE
 70
     0
  9
$REGENMODE
 70
     1
  9
$FILLMODE
 70
     1
  9
$QTEXTMODE
 70
     0
  9
$MIRRTEXT
 70
     1
  9
$LTSCALE
 40
5.0
  9
$ATTMODE
 70
     1
  9
$TEXTSIZE
 40
533.0403732820173
  9
$TRACEWID
 40
1.0
  9
$TEXTSTYLE
  7
Standard
  9
$CLAYER
  8
Dim
  9
$CELTYPE
  6
ByLayer
  9
$CECOLOR
 62
   256
  9
$CELTSCALE
 40
1.0
  9
$DISPSILH
 70
     0
  9
$DIMSCALE
 40
1.0
  9
$DIMASZ
 40
9.999389648437498
  9
$DIMEXO
 40
25.0
  9
$DIMDLI
 40
0.9999999999999999
  9
$DIMRND
 40
0.0
  9
$DIMDLE
 40
0.0
  9
$DIMEXE
 40
0.0
  9
$DIMTP
 40
0.0
  9
$DIMTM
 40
0.0
  9
$DIMTXT
 40
24.4326171875
  9
$DIMCEN
 40
0.0
  9
$DIMTSZ
 40
0.0
  9
$DIMTOL
 70
     0
  9
$DIMLIM
 70
     0
  9
$DIMTIH
 70
     0
  9
$DIMTOH
 70
     0
  9
$DIMSE1
 70
     0
  9
$DIMSE2
 70
     0
  9
$DIMTAD
 70
     1
  9
$DIMZIN
 70
    11
  9
$DIMBLK
  1
DOT
  9
$DIMASO
 70
     1
  9
$DIMSHO
 70
     1
  9
$DIMPOST
  1
<>
  9
$DIMAPOST
  1
[]
  9
$DIMALT
 70
     0
  9
$DIMALTD
 70
     1
  9
$DIMALTF
 40
1.0
  9
$DIMLFAC
 40
1.0
  9
$DIMTOFL
 70
     1
  9
$DIMTVP
 40
0.0
  9
$DIMTIX
 70
     1
  9
$DIMSOXD
 70
     0
  9
$DIMSAH
 70
     0
  9
$DIMBLK1
  1

  9
$DIMBLK2
  1

  9
$DIMSTYLE
  2
tform線あり
  9
$DIMCLRD
 70
     0
  9
$DIMCLRE
 70
     0
  9
$DIMCLRT
 70
     0
  9
$DIMTFAC
 40
0.8
  9
$DIMGAP
 40
10.0
  9
$DIMJUST
 70
     0
  9
$DIMSD1
 70
     0
  9
$DIMSD2
 70
     0
  9
$DIMTOLJ
 70
     1
  9
$DIMTZIN
 70
    11
  9
$DIMALTZ
 70
    11
  9
$DIMALTTZ
 70
    11
  9
$DIMUPT
 70
     0
  9
$DIMDEC
 70
     1
  9
$DIMTDEC
 70
     1
  9
$DIMALTU
 70
     2
  9
$DIMALTTD
 70
     2
  9
$DIMTXSTY
  7
ＭＳ ゴシック
  9
$DIMAUNIT
 70
     0
  9
$DIMADEC
 70
     2
  9
$DIMALTRND
 40
0.0
  9
$DIMAZIN
 70
     0
  9
$DIMDSEP
 70
    46
  9
$DIMATFIT
 70
     0
  9
$DIMFRAC
 70
     2
  9
$DIMLDRBLK
  1
DOT
  9
$DIMLUNIT
 70
     2
  9
$DIMLWD
 70
    -2
  9
$DIMLWE
 70
    -2
  9
$DIMTMOVE
 70
     0
  9
$DIMFXL
 40
1.0
  9
$DIMFXLON
 70
     0
  9
$DIMJOGANG
 40
0.7853981633974483
  9
$DIMTFILL
 70
     0
  9
$DIMTFILLCLR
 70
     0
  9
$DIMARCSYM
 70
     0
  9
$DIMLTYPE
  6

  9
$DIMLTEX1
  6

  9
$DIMLTEX2
  6

  9
$LUNITS
 70
     2
  9
$LUPREC
 70
     0
  9
$SKETCHINC
 40
0.1
  9
$FILLETRAD
 40
0.0
  9
$AUNITS
 70
     0
  9
$AUPREC
 70
     0
  9
$MENU
  1
acad
  9
$ELEVATION
 40
0.0
  9
$PELEVATION
 40
0.0
  9
$THICKNESS
 40
0.0
  9
$LIMCHECK
 70
     0
  9
$CHAMFERA
 40
0.0
  9
$CHAMFERB
 40
0.0
  9
$CHAMFERC
 40
0.0
  9
$CHAMFERD
 40
0.0
  9
$SKPOLY
 70
     0
  9
$TDCREATE
 40
2447893.375
  9
$TDUCREATE
 40
0.0
  9
$TDUPDATE
 40
2457966.48096375
  9
$TDUUPDATE
 40
2457966.10596375
  9
$TDINDWG
 40
0.0351394792
  9
$TDUSRTIMER
 40
2457966.098924826
  9
$USRTIMER
 70
     1
  9
$ANGBASE
 50
0.0
  9
$ANGDIR
 70
     0
  9
$PDMODE
 70
     1
  9
$PDSIZE
 40
-2.0
  9
$PLINEWID
 40
0.0
  9
$SPLFRAME
 70
     0
  9
$SPLINETYPE
 70
     6
  9
$SPLINESEGS
 70
     8
  9
$HANDSEED
  5
5750
  9
$SURFTAB1
 70
     6
  9
$SURFTAB2
 70
     6
  9
$SURFTYPE
 70
     6
  9
$SURFU
 70
     6
  9
$SURFV
 70
     6
  9
$UCSBASE
  2

  9
$UCSNAME
  2

  9
$UCSORG
 10
0.0
 20
0.0
 30
0.0
  9
$UCSXDIR
 10
1.0
 20
0.0
 30
0.0
  9
$UCSYDIR
 10
0.0
 20
1.0
 30
0.0
  9
$UCSORTHOREF
  2

  9
$UCSORTHOVIEW
 70
     0
  9
$UCSORGTOP
 10
0.0
 20
0.0
 30
0.0
  9
$UCSORGBOTTOM
 10
0.0
 20
0.0
 30
0.0
  9
$UCSORGLEFT
 10
0.0
 20
0.0
 30
0.0
  9
$UCSORGRIGHT
 10
0.0
 20
0.0
 30
0.0
  9
$UCSORGFRONT
 10
0.0
 20
0.0
 30
0.0
  9
$UCSORGBACK
 10
0.0
 20
0.0
 30
0.0
  9
$PUCSBASE
  2

  9
$PUCSNAME
  2

  9
$PUCSORG
 10
0.0
 20
0.0
 30
0.0
  9
$PUCSXDIR
 10
1.0
 20
0.0
 30
0.0
  9
$PUCSYDIR
 10
0.0
 20
1.0
 30
0.0
  9
$PUCSORTHOREF
  2

  9
$PUCSORTHOVIEW
 70
     0
  9
$PUCSORGTOP
 10
0.0
 20
0.0
 30
0.0
  9
$PUCSORGBOTTOM
 10
0.0
 20
0.0
 30
0.0
  9
$PUCSORGLEFT
 10
0.0
 20
0.0
 30
0.0
  9
$PUCSORGRIGHT
 10
0.0
 20
0.0
 30
0.0
  9
$PUCSORGFRONT
 10
0.0
 20
0.0
 30
0.0
  9
$PUCSORGBACK
 10
0.0
 20
0.0
 30
0.0
  9
$USERI1
 70
     0
  9
$USERI2
 70
     0
  9
$USERI3
 70
     0
  9
$USERI4
 70
     0
  9
$USERI5
 70
     0
  9
$USERR1
 40
0.0
  9
$USERR2
 40
0.0
  9
$USERR3
 40
0.0
  9
$USERR4
 40
0.0
  9
$USERR5
 40
0.0
  9
$WORLDVIEW
 70
     1
  9
$SHADEDGE
 70
     3
  9
$SHADEDIF
 70
    70
  9
$TILEMODE
 70
     1
  9
$MAXACTVP
 70
    64
  9
$PINSBASE
 10
0.0
 20
0.0
 30
0.0
  9
$PLIMCHECK
 70
     0
  9
$PEXTMIN
 10
0.0
 20
0.0
 30
0.0
  9
$PEXTMAX
 10
0.0
 20
0.0
 30
0.0
  9
$PLIMMIN
 10
-7.5
 20
-20.0
  9
$PLIMMAX
 10
412.5
 20
277.0
  9
$UNITMODE
 70
     0
  9
$VISRETAIN
 70
     0
  9
$PLINEGEN
 70
     1
  9
$PSLTSCALE
 70
     0
  9
$TREEDEPTH
 70
  3020
  9
$CMLSTYLE
  2
Standard
  9
$CMLJUST
 70
     0
  9
$CMLSCALE
 40
1.0
  9
$PROXYGRAPHICS
 70
     0
  9
$MEASUREMENT
 70
     1
  9
$CELWEIGHT
370
    -1
  9
$ENDCAPS
280
     0
  9
$JOINSTYLE
280
     0
  9
$LWDISPLAY
290
     1
  9
$INSUNITS
 70
     4
  9
$HYPERLINKBASE
  1

  9
$STYLESHEET
  1

  9
$XEDIT
290
     1
  9
$CEPSNTYPE
380
     0
  9
$PSTYLEMODE
290
     1
  9
$FINGERPRINTGUID
  2

  9
$VERSIONGUID
  2

  9
$EXTNAMES
290
     1
  9
$PSVPSCALE
 40
0.0
  9
$OLESTARTUP
290
     0
  9
$SORTENTS
280
   127
  9
$INDEXCTL
280
     0
  9
$HIDETEXT
280
     1
  9
$XCLIPFRAME
290
     0
  9
$HALOGAP
280
     0
  9
$OBSCOLOR
 70
   257
  9
$OBSLTYPE
280
     0
  9
$INTERSECTIONDISPLAY
280
     0
  9
$INTERSECTIONCOLOR
 70
   257
  9
$DIMASSOC
280
     2
  9
$PROJECTNAME
  1

  9
$CAMERADISPLAY
290
     0
  9
$LENSLENGTH
 40
50.0
  9
$CAMERAHEIGHT
 40
0.0
  9
$STEPSPERSEC
 40
2.0
  9
$STEPSIZE
 40
6.0
  9
$3DDWFPREC
 40
2.0
  9
$PSOLWIDTH
 40
0.25
  9
$PSOLHEIGHT
 40
4.0
  9
$LOFTANG1
 40
1.570796326794897
  9
$LOFTANG2
 40
1.570796326794897
  9
$LOFTMAG1
 40
0.0
  9
$LOFTMAG2
 40
0.0
  9
$LOFTPARAM
 70
     7
  9
$LOFTNORMALS
280
     1
  9
$LATITUDE
 40
37.795
  9
$LONGITUDE
 40
-122.394
  9
$NORTHDIRECTION
 40
0.0
  9
$TIMEZONE
 70
 -8000
  9
$LIGHTGLYPHDISPLAY
280
     1
  9
$TILEMODELIGHTSYNCH
280
     1
  9
$SOLIDHIST
280
     1
  9
$SHOWHIST
280
     1
  9
$DWFFRAME
280
     2
  9
$DGNFRAME
280
     2
  9
$REALWORLDSCALE
290
     1
  9
$INTERFERECOLOR
 62
   256
  9
$CSHADOW
280
     0
  9
$SHADOWPLANELOCATION
 40
0.0
  0
ENDSEC
  0
SECTION
  2
CLASSES
  0
CLASS
  1
LWPOLYLINE
  2
AcDbPolyline
  3
ObjectDBX Classes
 90
        0
 91
        1
280
     0
281
     1
  0
CLASS
  1
IMAGE
  2
AcDbRasterImage
  3
ISM
 90
      127
 91
        5
280
     0
281
     1
  0
CLASS
  1
OLE2FRAME
  2
AcDbOle2Frame
  3
ObjectDBX Classes
 90
        0
 91
        1
280
     0
281
     1
  0
CLASS
  1
HATCH
  2
AcDbHatch
  3
ObjectDBX Classes
 90
        0
 91
        1
280
     0
281
     1
  0
CLASS
  1
DICTIONARYVAR
  2
AcDbDictionaryVar
  3
ObjectDBX Classes
 90
        0
 91
        4
280
     0
281
     0
  0
CLASS
  1
RASTERVARIABLES
  2
AcDbRasterVariables
  3
ISM
 90
        0
 91
        4
280
     0
281
     0
  0
CLASS
  1
IMAGEDEF
  2
AcDbRasterImageDef
  3
ISM
 90
        0
 91
        4
280
     0
281
     0
  0
CLASS
  1
IMAGEDEF_REACTOR
  2
AcDbRasterImageDefReactor
  3
ISM
 90
        1
 91
        4
280
     0
281
     0
  0
CLASS
  1
IDBUFFER
  2
AcDbIdBuffer
  3
ObjectDBX Classes
 90
        0
 91
        4
280
     0
281
     0
  0
CLASS
  1
SPATIAL_FILTER
  2
AcDbSpatialFilter
  3
ObjectDBX Classes
 90
        0
 91
        4
280
     0
281
     0
  0
CLASS
  1
XRECORD
  2
AcDbXrecord
  3
ObjectDBX Classes
 90
        0
 91
        1
280
     0
281
     0
  0
CLASS
  1
SORTENTSTABLE
  2
AcDbSortentsTable
  3
ObjectDBX Classes
 90
        0
 91
        4
280
     0
281
     0
  0
CLASS
  1
LAYER_INDEX
  2
AcDbLayerIndex
  3
ObjectDBX Classes
 90
        0
 91
        4
280
     0
281
     0
  0
CLASS
  1
SPATIAL_INDEX
  2
AcDbSpatialIndex
  3
AutoCAD 2000
 90
        0
 91
        4
280
     0
281
     0
  0
CLASS
  1
OBJECT_PTR
  2
CAseDLPNTableRecord
  3
ASE-LPNTableRecord
 90
        1
 91
        4
280
     0
281
     0
  0
CLASS
  1
LAYOUT
  2
AcDbLayout
  3
ObjectDBX Classes
 90
        0
 91
        1
280
     0
281
     0
  0
CLASS
  1
PLOTSETTINGS
  2
AcDbPlotSettings
  3
ObjectDBX Classes
 90
        0
 91
        4
280
     0
281
     0
  0
CLASS
  1
ACDBDICTIONARYWDFLT
  2
AcDbDictionaryWithDefault
  3
ObjectDBX Classes
 90
        0
 91
        4
280
     0
281
     0
  0
CLASS
  1
ACDBPLACEHOLDER
  2
AcDbPlaceHolder
  3
ObjectDBX Classes
 90
        0
 91
        1
280
     0
281
     0
  0
CLASS
  1
SCALE
  2
AcDbScale
  3
ObjectDBX Classes
 90
     1153
 91
        4
280
     0
281
     0
  0
CLASS
  1
MATERIAL
  2
AcDbMaterial
  3
ObjectDBX Classes
 90
     1153
 91
        4
280
     0
281
     0
  0
CLASS
  1
VISUALSTYLE
  2
AcDbVisualStyle
  3
ObjectDBX Classes
 90
     4095
 91
        4
280
     0
281
     0
  0
CLASS
  1
TABLESTYLE
  2
AcDbTableStyle
  3
ObjectDBX Classes
 90
     4095
 91
        4
280
     0
281
     0
  0
CLASS
  1
DIMASSOC
  2
AcDbDimAssoc
  3
"AcDbDimAssoc|Product Desc:     AcDim ARX App For Dimension|Company:          Autodesk, Inc.|WEB Address:      www.autodesk.com"
 90
        0
 91
        4
280
     0
281
     0
  0
CLASS
  1
CELLSTYLEMAP
  2
AcDbCellStyleMap
  3
ObjectDBX Classes
 90
     1152
 91
        4
280
     0
281
     0
  0
CLASS
  1
SUN
  2
AcDbSun
  3
SCENEOE
 90
     1153
 91
        4
280
     0
281
     0
  0
CLASS
  1
MLEADERSTYLE
  2
AcDbMLeaderStyle
  3
ACDB_MLEADERSTYLE_CLASS
 90
     4095
 91
        4
280
     0
281
     0
  0
CLASS
  1
FIELD
  2
AcDbField
  3
ObjectDBX Classes
 90
     1152
 91
        4
280
     0
281
     0
  0
CLASS
  1
FIELDLIST
  2
AcDbFieldList
  3
ObjectDBX Classes
 90
     1152
 91
        4
280
     0
281
     0
  0
CLASS
  1
ACDB_ALDIMOBJECTCONTEXTDATA_CLASS
  2
AcDbAlignedDimensionObjectContextData
  3
ObjectDBX Classes
 90
     1153
 91
        4
280
     0
281
     0
  0
ENDSEC
  0
SECTION
  2
TABLES
  0
TABLE
  2
VPORT
  5
7
330
0
100
AcDbSymbolTable
 70
     1
  0
VPORT
  5
15
330
7
100
AcDbSymbolTableRecord
100
AcDbViewportTableRecord
  2
*ACTIVE
 70
     0
 10
0.0
 20
0.0
 11
1.0
 21
1.0
 12
672.9525617540362
 22
1782.612370234521
 13
0.0
 23
0.0
 14
1.0
 24
1.0
 15
0.0
 25
0.0
 16
0.0
 26
0.0
 36
1.0
 17
377.0474382459638
 27
-297.6123702345208
 37
0.0
 40
3029.4
 41
2.27536231884058
 42
50.0
 43
0.0
 44
0.0
 50
0.0
 51
0.0
 71
    16
 72
  2000
 73
     1
 74
     1
 75
     0
 76
     0
 77
     0
 78
     0
281
     0
 65
     1
110
0.0
120
0.0
130
0.0
111
1.0
121
0.0
131
0.0
112
0.0
122
1.0
132
0.0
 79
     0
146
0.0
348
573A
 60
     3
 61
     5
292
     1
282
     1
141
0.0
142
0.0
 63
   256
361
8C2
  0
ENDTAB
  0
TABLE
  2
LTYPE
  5
4
330
0
100
AcDbSymbolTable
 70
     4
  0
LTYPE
  5
11
330
4
100
AcDbSymbolTableRecord
100
AcDbLinetypeTableRecord
  2
ByBlock
 70
     0
  3

 72
    65
 73
     0
 40
0.0
  0
LTYPE
  5
12
330
4
100
AcDbSymbolTableRecord
100
AcDbLinetypeTableRecord
  2
ByLayer
 70
     0
  3

 72
    65
 73
     0
 40
0.0
  0
LTYPE
  5
13
330
4
100
AcDbSymbolTableRecord
100
AcDbLinetypeTableRecord
  2
Continuous
 70
     0
  3
Solid line
 72
    65
 73
     0
 40
0.0
  0
LTYPE
  5
8D4
330
4
100
AcDbSymbolTableRecord
100
AcDbLinetypeTableRecord
  2
HIDDEN
 70
     0
  3
Hidden _ _ _ _ _ _ _ _ _ _ _ _ _ _ _ _ _ _ _ _ 
 72
    65
 73
     2
 40
9.524999999999999
 49
6.35
 74
     0
 49
-3.175
 74
     0
  0
LTYPE
  5
BF2
330
4
100
AcDbSymbolTableRecord
100
AcDbLinetypeTableRecord
  2
BORDER
 70
     0
  3
Border __  __  . __  __  . __  __  . __  __  . 
 72
    65
 73
     6
 40
44.45
 49
12.7
 74
     0
 49
-6.35
 74
     0
 49
12.7
 74
     0
 49
-6.35
 74
     0
 49
0.0
 74
     0
 49
-6.35
 74
     0
  0
LTYPE
  5
50D0
330
4
100
AcDbSymbolTableRecord
100
AcDbLinetypeTableRecord
  2
CENTER2
 70
     0
  3
Center (.5x) ___ _ ___ _ ___ _ ___ _ ___ _ ___
 72
    65
 73
     4
 40
28.575
 49
19.05
 74
     0
 49
-3.175
 74
     0
 49
3.175
 74
     0
 49
-3.175
 74
     0
  0
ENDTAB
  0
TABLE
  2
LAYER
  5
2
102
{ACAD_XDICTIONARY
360
2E1
102
}
330
0
100
AcDbSymbolTable
 70
    10
  0
LAYER
  5
14
330
2
100
AcDbSymbolTableRecord
100
AcDbLayerTableRecord
  2
0
 70
     0
 62
     7
  6
Continuous
370
    -3
390
1D
347
266
  0
LAYER
  5
4A
330
2
100
AcDbSymbolTableRecord
100
AcDbLayerTableRecord
  2
Defpoints
 70
     0
 62
     7
  6
Continuous
290
     0
370
    20
390
1D
347
266
  0
LAYER
  5
4B
330
2
100
AcDbSymbolTableRecord
100
AcDbLayerTableRecord
  2
template
 70
     0
 62
     7
  6
Continuous
370
    20
390
1D
347
266
  0
LAYER
  5
382
330
2
100
AcDbSymbolTableRecord
100
AcDbLayerTableRecord
  2
レイヤー 1
 70
     0
 62
     7
  6
Continuous
370
    -3
390
1D
347
266
  0
LAYER
  5
5C4
330
2
100
AcDbSymbolTableRecord
100
AcDbLayerTableRecord
  2
HIDDEN
 70
     0
 62
   253
  6
HIDDEN
370
    13
390
1D
347
266
1001
AcAecLayerStandard
1000

1000

  0
LAYER
  5
5EB
330
2
100
AcDbSymbolTableRecord
100
AcDbLayerTableRecord
  2
Dim
 70
     0
 62
     3
  6
Continuous
370
    13
390
1D
347
266
1001
AcAecLayerStandard
1000

1000

  0
LAYER
  5
BF1
330
2
100
AcDbSymbolTableRecord
100
AcDbLayerTableRecord
  2
PRINT BORDER
 70
     0
 62
     4
  6
BORDER
290
     0
370
    20
390
1D
347
266
1001
AcAecLayerStandard
1000

1000

  0
LAYER
  5
1BD2
330
2
100
AcDbSymbolTableRecord
100
AcDbLayerTableRecord
  2
retino
 70
     0
 62
   253
  6
Continuous
370
     0
390
1D
347
266
  0
LAYER
  5
50CC
330
2
100
AcDbSymbolTableRecord
100
AcDbLayerTableRecord
  2
MODEL
 70
     0
 62
     7
  6
Continuous
370
    20
390
1D
347
266
  0
LAYER
  5
53E5
330
2
100
AcDbSymbolTableRecord
100
AcDbLayerTableRecord
  2
notes
 70
     0
 62
     7
  6
Continuous
370
    20
390
1D
347
266
  0
ENDTAB
  0
TABLE
  2
STYLE
  5
3
330
0
100
AcDbSymbolTable
 70
     2
  0
STYLE
  5
17
330
3
100
AcDbSymbolTableRecord
100
AcDbTextStyleTableRecord
  2
Standard
 70
     0
 40
0.0
 41
1.0
 50
0.0
 71
     0
 42
533.0403732820173
  3
txt
  4
BIGFONT.SHX
  0
STYLE
  5
39
330
3
100
AcDbSymbolTableRecord
100
AcDbTextStyleTableRecord
  2
ＭＳ ゴシック
 70
     0
 40
0.0
 41
1.0
 50
0.0
 71
     0
 42
533.0403732820173
  3
msgothic.ttc
  4
ＭＳ ゴシック
1001
ACAD
1000
ＭＳ ゴシック
1071
        0
  0
ENDTAB
  0
TABLE
  2
VIEW
  5
5
330
0
100
AcDbSymbolTable
 70
     0
  0
ENDTAB
  0
TABLE
  2
UCS
  5
6
330
0
100
AcDbSymbolTable
 70
     0
  0
ENDTAB
  0
TABLE
  2
APPID
  5
8
330
0
100
AcDbSymbolTable
 70
    14
  0
APPID
  5
16
330
8
100
AcDbSymbolTableRecord
100
AcDbRegAppTableRecord
  2
ACAD
 70
     0
  0
APPID
  5
5C5
330
8
100
AcDbSymbolTableRecord
100
AcDbRegAppTableRecord
  2
AcAecLayerStandard
 70
     0
  0
APPID
  5
913
330
8
100
AcDbSymbolTableRecord
100
AcDbRegAppTableRecord
  2
ACAD_DSTYLE_DIMBREAK
 70
     0
  0
APPID
  5
914
330
8
100
AcDbSymbolTableRecord
100
AcDbRegAppTableRecord
  2
ACAD_DSTYLE_DIMJAG
 70
     0
  0
APPID
  5
915
330
8
100
AcDbSymbolTableRecord
100
AcDbRegAppTableRecord
  2
ACAD_DSTYLE_DIMTALN
 70
     0
  0
APPID
  5
E4F
330
8
100
AcDbSymbolTableRecord
100
AcDbRegAppTableRecord
  2
ACAD_MLEADERVER
 70
     0
  0
APPID
  5
E79
330
8
100
AcDbSymbolTableRecord
100
AcDbRegAppTableRecord
  2
ACAD_PSEXT
 70
     0
  0
APPID
  5
E7A
330
8
100
AcDbSymbolTableRecord
100
AcDbRegAppTableRecord
  2
ACAD_NAV_VCDISPLAY
 70
     0
  0
APPID
  5
166E
330
8
100
AcDbSymbolTableRecord
100
AcDbRegAppTableRecord
  2
AcadAnnotative
 70
     0
  0
APPID
  5
166F
330
8
100
AcDbSymbolTableRecord
100
AcDbRegAppTableRecord
  2
GradientColor1ACI
 70
     0
  0
APPID
  5
1670
330
8
100
AcDbSymbolTableRecord
100
AcDbRegAppTableRecord
  2
GradientColor2ACI
 70
     0
  0
APPID
  5
20FE
330
8
100
AcDbSymbolTableRecord
100
AcDbRegAppTableRecord
  2
AcLayerTools
 70
     0
  0
APPID
  5
27AB
330
8
100
AcDbSymbolTableRecord
100
AcDbRegAppTableRecord
  2
ACAD_DSTYLE_DIMRADIAL_EXTENSION
 70
     0
  0
APPID
  5
4377
330
8
100
AcDbSymbolTableRecord
100
AcDbRegAppTableRecord
  2
RAK
 70
     0
  0
ENDTAB
  0
TABLE
  2
DIMSTYLE
  5
9
330
0
100
AcDbSymbolTable
 70
     3
100
AcDbDimStyleTable
  0
DIMSTYLE
105
18
330
9
100
AcDbSymbolTableRecord
100
AcDbDimStyleTableRecord
  2
Standard
 70
     0
178
     0
340
17
  0
DIMSTYLE
105
56
102
{ACAD_REACTORS
330
52E0
330
52BA
330
52BB
330
52BD
330
52CC
330
52CD
330
52CE
330
52E9
330
52EF
330
56D4
330
56E7
330
5700
330
5715
102
}
330
9
100
AcDbSymbolTableRecord
100
AcDbDimStyleTableRecord
  2
tform線あり
 70
     0
  3
<>
  4
[]
 41
9.999389648437498
 42
25.0
 43
0.9999999999999999
 44
0.0
 73
     0
 74
     0
 77
     1
 78
    11
140
24.4326171875
141
0.0
143
1.0
146
0.8
147
10.0
171
     1
172
     1
174
     1
178
     0
179
     2
271
     1
272
     1
276
     2
284
    11
285
    11
286
    11
289
     0
340
39
341
4E
342
4E
  0
DIMSTYLE
105
50D1
330
9
100
AcDbSymbolTableRecord
100
AcDbDimStyleTableRecord
  2
tfrom線あり
 70
     0
  3
<>
  4
[]
 41
3.0
 42
10.0
 43
0.9999999999999999
 44
0.0
 73
     0
 74
     0
 77
     1
 78
    11
140
12.0
141
0.0
143
1.0
147
10.0
171
     1
174
     1
178
     0
179
     2
271
     0
272
     1
276
     2
284
    11
285
    11
286
    11
289
     0
340
39
341
4E
342
4E
  0
ENDTAB
  0
TABLE
  2
BLOCK_RECORD
  5
1
330
0
100
AcDbSymbolTable
 70
    70
  0
BLOCK_RECORD
  5
A
102
{ACAD_XDICTIONARY
360
5725
102
}
330
1
100
AcDbSymbolTableRecord
100
AcDbBlockTableRecord
  2
*MODEL_SPACE
340
20
 70
     0
280
     1
281
     0
  0
BLOCK_RECORD
  5
B
330
1
100
AcDbSymbolTableRecord
100
AcDbBlockTableRecord
  2
*PAPER_SPACE
340
21
 70
     0
280
     1
281
     0
  0
BLOCK_RECORD
  5
4E
330
1
100
AcDbSymbolTableRecord
100
AcDbBlockTableRecord
  2
_DOT
340
0
102
{BLKREFS
331
4FFE
331
4FFF
331
5012
331
5013
331
505D
331
505E
331
5085
331
5086
331
50A9
331
50AA
331
5174
331
5175
331
5181
331
5182
331
518E
331
518F
331
519E
331
519F
331
51AB
331
51AC
331
51B8
331
51B9
331
51CE
331
51CF
331
51DB
331
51DC
331
51E8
331
51E9
331
5206
331
5207
331
5213
331
5214
331
5227
331
5228
331
523D
331
523E
331
52F8
331
52F9
331
5304
331
5305
331
5310
331
5311
331
531C
331
531D
331
5328
331
5329
331
5334
331
5335
331
5340
331
5341
331
534C
331
534D
331
5358
331
5359
331
5364
331
5365
331
5370
331
5371
331
537C
331
537D
331
538A
331
538B
331
53C8
331
53C9
331
5484
331
5485
331
5491
331
5492
331
549E
331
549F
331
54AB
331
54AC
331
54B8
331
54B9
331
54C5
331
54C6
331
54E4
331
54E5
331
54F1
331
54F2
331
54FE
331
54FF
331
551F
331
5520
331
552E
331
552F
331
553B
331
553C
331
554B
331
554C
331
5603
331
5604
331
560F
331
5610
331
561B
331
561C
331
5627
331
5628
331
5633
331
5634
331
563F
331
5640
331
564B
331
564C
331
5657
331
5658
331
5663
331
5664
331
5672
331
5673
331
567E
331
567F
331
568A
331
568B
331
5696
331
5697
331
56DB
331
56DC
331
56EE
331
56EF
331
5707
331
5708
331
571E
331
571F
102
}
 70
     0
280
     1
281
     0
  0
BLOCK_RECORD
  5
3A5
330
1
100
AcDbSymbolTableRecord
100
AcDbBlockTableRecord
  2
名称未設定-1
340
0
102
{BLKREFS
331
3D0
102
}
 70
     1
280
     1
281
     0
  0
BLOCK_RECORD
  5
3A8
330
1
100
AcDbSymbolTableRecord
100
AcDbBlockTableRecord
  2
block 2
340
0
102
{BLKREFS
331
3A7
102
}
 70
     0
280
     1
281
     0
  0
BLOCK_RECORD
  5
3AB
330
1
100
AcDbSymbolTableRecord
100
AcDbBlockTableRecord
  2
block 3
340
0
102
{BLKREFS
331
3AA
102
}
 70
     0
280
     1
281
     0
  0
BLOCK_RECORD
  5
3AE
330
1
100
AcDbSymbolTableRecord
100
AcDbBlockTableRecord
  2
block 4
340
0
102
{BLKREFS
331
3AD
102
}
 70
     0
280
     1
281
     0
  0
BLOCK_RECORD
  5
3BD
330
1
100
AcDbSymbolTableRecord
100
AcDbBlockTableRecord
  2
block 5
340
0
102
{BLKREFS
331
3BC
102
}
 70
     0
280
     1
281
     0
  0
BLOCK_RECORD
  5
11F0
330
1
100
AcDbSymbolTableRecord
100
AcDbBlockTableRecord
  2
BLOCK_2
340
0
102
{BLKREFS
331
1273
331
127B
331
127C
102
}
 70
     0
280
     1
281
     0
  0
BLOCK_RECORD
  5
38B6
330
1
100
AcDbSymbolTableRecord
100
AcDbBlockTableRecord
  2
mobile_latù
340
0
310
2800000020000000200000000100080000000000000400000000000000000000000000000000000000000000000080000080000000808000800000008000800080800000C0C0C000C0DCC000F0CAA6000020400000206000002080000020A0000020C0000020E00000400000004020000040400000406000004080000040A0
310
000040C0000040E00000600000006020000060400000606000006080000060A0000060C0000060E00000800000008020000080400000806000008080000080A0000080C0000080E00000A0000000A0200000A0400000A0600000A0800000A0A00000A0C00000A0E00000C0000000C0200000C0400000C0600000C0800000C0
310
A00000C0C00000C0E00000E0000000E0200000E0400000E0600000E0800000E0A00000E0C00000E0E00040000000400020004000400040006000400080004000A0004000C0004000E00040200000402020004020400040206000402080004020A0004020C0004020E000404000004040200040404000404060004040800040
310
40A0004040C0004040E00040600000406020004060400040606000406080004060A0004060C0004060E00040800000408020004080400040806000408080004080A0004080C0004080E00040A0000040A0200040A0400040A0600040A0800040A0A00040A0C00040A0E00040C0000040C0200040C0400040C0600040C08000
310
40C0A00040C0C00040C0E00040E0000040E0200040E0400040E0600040E0800040E0A00040E0C00040E0E00080000000800020008000400080006000800080008000A0008000C0008000E00080200000802020008020400080206000802080008020A0008020C0008020E00080400000804020008040400080406000804080
310
008040A0008040C0008040E00080600000806020008060400080606000806080008060A0008060C0008060E00080800000808020008080400080806000808080008080A0008080C0008080E00080A0000080A0200080A0400080A0600080A0800080A0A00080A0C00080A0E00080C0000080C0200080C0400080C0600080C0
310
800080C0A00080C0C00080C0E00080E0000080E0200080E0400080E0600080E0800080E0A00080E0C00080E0E000C0000000C0002000C0004000C0006000C0008000C000A000C000C000C000E000C0200000C0202000C0204000C0206000C0208000C020A000C020C000C020E000C0400000C0402000C0404000C0406000C0
310
408000C040A000C040C000C040E000C0600000C0602000C0604000C0606000C0608000C060A000C060C000C060E000C0800000C0802000C0804000C0806000C0808000C080A000C080C000C080E000C0A00000C0A02000C0A04000C0A06000C0A08000C0A0A000C0A0C000C0A0E000C0C00000C0C02000C0C04000C0C06000
310
C0C08000C0C0A000F0FBFF00A4A0A000808080000000FF0000FF000000FFFF00FF000000FF00FF00FFFF0000FFFFFF0049494949494949494949494949494949494949494949494949494949494949494949494949494949494949494949494949494949494949494949494949494949494949494949494949494949494949
310
49494949494949494949494949494949494949494949494949494949494949494949494949494949494949494949494949494949494949494949494949494949494949494949494949494949494949494949FAFAFAFAFAFAFAFAFAFAFAFAFAFAFAFAFAFAFAFAFAFAFAFAFAFAFAFAFAFA4949FAFA4949494949494949494949
310
494949494949494949494949494949FAFA4949FAFA4949494949494949494949494949494949494949494949494949FAFA4949FAFA4949494949494949494949494949494949494949494949494949FAFA4949FAFA4949494949494949494949494949494949494949494949494949FAFA4949FAFA49494949494949494949
310
49494949494949494949494949494949FAFA4949FAFA4949494949494949494949494949494949494949494949494949FAFA4949FAFA4949494949494949494949494949494949494949494949494949FAFA4949FAFA4949494949494949494949494949494949494949494949494949FAFA4949FAFA494949494949494949
310
4949494949494949494949494949494949FAFA4949FAFA4949494949494949494949494949494949494949494949494949FAFA4949FAFA4949494949494949494949494949494949494949494949494949FAFA4949FAFA4949494949494949494949494949494949494949494949494949FAFA4949FAFA4949494949494949
310
494949494949494949494949494949494949FAFA4949FAFA4949494949494949494949494949494949494949494949494949FAFA4949FAFA4949494949494949494949494949494949494949494949494949FAFA4949FAFA4949494949494949494949494949494949494949494949494949FAFA4949FAFA49494949494949
310
49494949494949494949494949494949494949FAFA4949FAFAFAFAFAFAFAFAFAFAFAFAFAFAFAFAFAFAFAFAFAFAFAFAFAFAFAFAFAFA4949FAFAFAFAFAFAFAFAFAFAFAFAFAFAFAFAFAFAFAFAFAFAFAFAFAFAFAFAFAFA4949FAFA4949494949494949494949494949494949494949494949494949FAFA4949FAFAFAFAFAFAFAFA
310
FAFAFAFAFAFAFAFAFAFAFAFAFAFAFAFAFAFAFAFAFAFA494949494949494949494949494949494949494949494949494949494949494949494949494949494949494949494949494949494949494949494949494949494949494949494949494949494949494949494949494949494949494949494949494949494949494949
310
4949494949494949494949494949494949494949494949494949494949494949494949494949494949494949494949494949494949494949
102
{BLKREFS
331
3B99
331
467E
102
}
 70
     4
280
     1
281
     0
  0
BLOCK_RECORD
  5
4FF8
330
1
100
AcDbSymbolTableRecord
100
AcDbBlockTableRecord
  2
*D8
340
0
 70
     0
280
     1
281
     0
  0
BLOCK_RECORD
  5
500B
330
1
100
AcDbSymbolTableRecord
100
AcDbBlockTableRecord
  2
*D9
340
0
 70
     0
280
     1
281
     0
  0
BLOCK_RECORD
  5
5057
330
1
100
AcDbSymbolTableRecord
100
AcDbBlockTableRecord
  2
*D10
340
0
 70
     0
280
     1
281
     0
  0
BLOCK_RECORD
  5
507F
330
1
100
AcDbSymbolTableRecord
100
AcDbBlockTableRecord
  2
*D11
340
0
 70
     0
280
     1
281
     0
  0
BLOCK_RECORD
  5
50A2
330
1
100
AcDbSymbolTableRecord
100
AcDbBlockTableRecord
  2
*D12
340
0
 70
     0
280
     1
281
     0
  0
BLOCK_RECORD
  5
516F
330
1
100
AcDbSymbolTableRecord
100
AcDbBlockTableRecord
  2
*D13
340
0
 70
     0
280
     1
281
     0
  0
BLOCK_RECORD
  5
517C
330
1
100
AcDbSymbolTableRecord
100
AcDbBlockTableRecord
  2
*D14
340
0
 70
     0
280
     1
281
     0
  0
BLOCK_RECORD
  5
5189
330
1
100
AcDbSymbolTableRecord
100
AcDbBlockTableRecord
  2
*D15
340
0
 70
     0
280
     1
281
     0
  0
BLOCK_RECORD
  5
5199
330
1
100
AcDbSymbolTableRecord
100
AcDbBlockTableRecord
  2
*D16
340
0
 70
     0
280
     1
281
     0
  0
BLOCK_RECORD
  5
51A6
330
1
100
AcDbSymbolTableRecord
100
AcDbBlockTableRecord
  2
*D17
340
0
 70
     0
280
     1
281
     0
  0
BLOCK_RECORD
  5
51B3
330
1
100
AcDbSymbolTableRecord
100
AcDbBlockTableRecord
  2
*D18
340
0
 70
     0
280
     1
281
     0
  0
BLOCK_RECORD
  5
51C9
330
1
100
AcDbSymbolTableRecord
100
AcDbBlockTableRecord
  2
*D19
340
0
 70
     0
280
     1
281
     0
  0
BLOCK_RECORD
  5
51D6
330
1
100
AcDbSymbolTableRecord
100
AcDbBlockTableRecord
  2
*D20
340
0
 70
     0
280
     1
281
     0
  0
BLOCK_RECORD
  5
51E3
330
1
100
AcDbSymbolTableRecord
100
AcDbBlockTableRecord
  2
*D21
340
0
 70
     0
280
     1
281
     0
  0
BLOCK_RECORD
  5
5201
330
1
100
AcDbSymbolTableRecord
100
AcDbBlockTableRecord
  2
*D22
340
0
 70
     0
280
     1
281
     0
  0
BLOCK_RECORD
  5
520E
330
1
100
AcDbSymbolTableRecord
100
AcDbBlockTableRecord
  2
*D23
340
0
 70
     0
280
     1
281
     0
  0
BLOCK_RECORD
  5
5222
330
1
100
AcDbSymbolTableRecord
100
AcDbBlockTableRecord
  2
*D24
340
0
 70
     0
280
     1
281
     0
  0
BLOCK_RECORD
  5
5236
330
1
100
AcDbSymbolTableRecord
100
AcDbBlockTableRecord
  2
*D25
340
0
 70
     0
280
     1
281
     0
  0
BLOCK_RECORD
  5
52F2
330
1
100
AcDbSymbolTableRecord
100
AcDbBlockTableRecord
  2
*D26
340
0
 70
     0
280
     1
281
     0
  0
BLOCK_RECORD
  5
52FE
330
1
100
AcDbSymbolTableRecord
100
AcDbBlockTableRecord
  2
*D27
340
0
 70
     0
280
     1
281
     0
  0
BLOCK_RECORD
  5
530A
330
1
100
AcDbSymbolTableRecord
100
AcDbBlockTableRecord
  2
*D28
340
0
 70
     0
280
     1
281
     0
  0
BLOCK_RECORD
  5
5316
330
1
100
AcDbSymbolTableRecord
100
AcDbBlockTableRecord
  2
*D29
340
0
 70
     0
280
     1
281
     0
  0
BLOCK_RECORD
  5
5322
330
1
100
AcDbSymbolTableRecord
100
AcDbBlockTableRecord
  2
*D30
340
0
 70
     0
280
     1
281
     0
  0
BLOCK_RECORD
  5
532E
330
1
100
AcDbSymbolTableRecord
100
AcDbBlockTableRecord
  2
*D31
340
0
 70
     0
280
     1
281
     0
  0
BLOCK_RECORD
  5
533A
330
1
100
AcDbSymbolTableRecord
100
AcDbBlockTableRecord
  2
*D32
340
0
 70
     0
280
     1
281
     0
  0
BLOCK_RECORD
  5
5346
330
1
100
AcDbSymbolTableRecord
100
AcDbBlockTableRecord
  2
*D33
340
0
 70
     0
280
     1
281
     0
  0
BLOCK_RECORD
  5
5352
330
1
100
AcDbSymbolTableRecord
100
AcDbBlockTableRecord
  2
*D34
340
0
 70
     0
280
     1
281
     0
  0
BLOCK_RECORD
  5
535E
330
1
100
AcDbSymbolTableRecord
100
AcDbBlockTableRecord
  2
*D35
340
0
 70
     0
280
     1
281
     0
  0
BLOCK_RECORD
  5
536A
330
1
100
AcDbSymbolTableRecord
100
AcDbBlockTableRecord
  2
*D36
340
0
 70
     0
280
     1
281
     0
  0
BLOCK_RECORD
  5
5376
330
1
100
AcDbSymbolTableRecord
100
AcDbBlockTableRecord
  2
*D37
340
0
 70
     0
280
     1
281
     0
  0
BLOCK_RECORD
  5
5382
330
1
100
AcDbSymbolTableRecord
100
AcDbBlockTableRecord
  2
*D38
340
0
 70
     0
280
     1
281
     0
  0
BLOCK_RECORD
  5
53C2
330
1
100
AcDbSymbolTableRecord
100
AcDbBlockTableRecord
  2
*D39
340
0
 70
     0
280
     1
281
     0
  0
BLOCK_RECORD
  5
547F
330
1
100
AcDbSymbolTableRecord
100
AcDbBlockTableRecord
  2
*D40
340
0
 70
     0
280
     1
281
     0
  0
BLOCK_RECORD
  5
548C
330
1
100
AcDbSymbolTableRecord
100
AcDbBlockTableRecord
  2
*D41
340
0
 70
     0
280
     1
281
     0
  0
BLOCK_RECORD
  5
5499
330
1
100
AcDbSymbolTableRecord
100
AcDbBlockTableRecord
  2
*D42
340
0
 70
     0
280
     1
281
     0
  0
BLOCK_RECORD
  5
54A6
330
1
100
AcDbSymbolTableRecord
100
AcDbBlockTableRecord
  2
*D43
340
0
 70
     0
280
     1
281
     0
  0
BLOCK_RECORD
  5
54B3
330
1
100
AcDbSymbolTableRecord
100
AcDbBlockTableRecord
  2
*D44
340
0
 70
     0
280
     1
281
     0
  0
BLOCK_RECORD
  5
54C0
330
1
100
AcDbSymbolTableRecord
100
AcDbBlockTableRecord
  2
*D45
340
0
 70
     0
280
     1
281
     0
  0
BLOCK_RECORD
  5
54DF
330
1
100
AcDbSymbolTableRecord
100
AcDbBlockTableRecord
  2
*D46
340
0
 70
     0
280
     1
281
     0
  0
BLOCK_RECORD
  5
54EC
330
1
100
AcDbSymbolTableRecord
100
AcDbBlockTableRecord
  2
*D47
340
0
 70
     0
280
     1
281
     0
  0
BLOCK_RECORD
  5
54F9
330
1
100
AcDbSymbolTableRecord
100
AcDbBlockTableRecord
  2
*D48
340
0
 70
     0
280
     1
281
     0
  0
BLOCK_RECORD
  5
5517
330
1
100
AcDbSymbolTableRecord
100
AcDbBlockTableRecord
  2
*D49
340
0
 70
     0
280
     1
281
     0
  0
BLOCK_RECORD
  5
5529
330
1
100
AcDbSymbolTableRecord
100
AcDbBlockTableRecord
  2
*D50
340
0
 70
     0
280
     1
281
     0
  0
BLOCK_RECORD
  5
5536
330
1
100
AcDbSymbolTableRecord
100
AcDbBlockTableRecord
  2
*D51
340
0
 70
     0
280
     1
281
     0
  0
BLOCK_RECORD
  5
5546
330
1
100
AcDbSymbolTableRecord
100
AcDbBlockTableRecord
  2
*D52
340
0
 70
     0
280
     1
281
     0
  0
BLOCK_RECORD
  5
55FD
330
1
100
AcDbSymbolTableRecord
100
AcDbBlockTableRecord
  2
*D53
340
0
 70
     0
280
     1
281
     0
  0
BLOCK_RECORD
  5
5609
330
1
100
AcDbSymbolTableRecord
100
AcDbBlockTableRecord
  2
*D54
340
0
 70
     0
280
     1
281
     0
  0
BLOCK_RECORD
  5
5615
330
1
100
AcDbSymbolTableRecord
100
AcDbBlockTableRecord
  2
*D55
340
0
 70
     0
280
     1
281
     0
  0
BLOCK_RECORD
  5
5621
330
1
100
AcDbSymbolTableRecord
100
AcDbBlockTableRecord
  2
*D56
340
0
 70
     0
280
     1
281
     0
  0
BLOCK_RECORD
  5
562D
330
1
100
AcDbSymbolTableRecord
100
AcDbBlockTableRecord
  2
*D57
340
0
 70
     0
280
     1
281
     0
  0
BLOCK_RECORD
  5
5639
330
1
100
AcDbSymbolTableRecord
100
AcDbBlockTableRecord
  2
*D58
340
0
 70
     0
280
     1
281
     0
  0
BLOCK_RECORD
  5
5645
330
1
100
AcDbSymbolTableRecord
100
AcDbBlockTableRecord
  2
*D59
340
0
 70
     0
280
     1
281
     0
  0
BLOCK_RECORD
  5
5651
330
1
100
AcDbSymbolTableRecord
100
AcDbBlockTableRecord
  2
*D60
340
0
 70
     0
280
     1
281
     0
  0
BLOCK_RECORD
  5
565D
330
1
100
AcDbSymbolTableRecord
100
AcDbBlockTableRecord
  2
*D61
340
0
 70
     0
280
     1
281
     0
  0
BLOCK_RECORD
  5
5669
330
1
100
AcDbSymbolTableRecord
100
AcDbBlockTableRecord
  2
*D62
340
0
 70
     0
280
     1
281
     0
  0
BLOCK_RECORD
  5
5678
330
1
100
AcDbSymbolTableRecord
100
AcDbBlockTableRecord
  2
*D63
340
0
 70
     0
280
     1
281
     0
  0
BLOCK_RECORD
  5
5684
330
1
100
AcDbSymbolTableRecord
100
AcDbBlockTableRecord
  2
*D64
340
0
 70
     0
280
     1
281
     0
  0
BLOCK_RECORD
  5
5690
330
1
100
AcDbSymbolTableRecord
100
AcDbBlockTableRecord
  2
*D65
340
0
 70
     0
280
     1
281
     0
  0
BLOCK_RECORD
  5
56D5
330
1
100
AcDbSymbolTableRecord
100
AcDbBlockTableRecord
  2
*D66
340
0
 70
     0
280
     1
281
     0
  0
BLOCK_RECORD
  5
56E8
330
1
100
AcDbSymbolTableRecord
100
AcDbBlockTableRecord
  2
*D67
340
0
 70
     0
280
     1
281
     0
  0
BLOCK_RECORD
  5
5701
330
1
100
AcDbSymbolTableRecord
100
AcDbBlockTableRecord
  2
*D68
340
0
 70
     0
280
     1
281
     0
  0
BLOCK_RECORD
  5
5718
330
1
100
AcDbSymbolTableRecord
100
AcDbBlockTableRecord
  2
*D69
340
0
 70
     0
280
     1
281
     0
  0
ENDTAB
  0
ENDSEC
  0
SECTION
  2
BLOCKS
  0
BLOCK
  5
D
330
A
100
AcDbEntity
  8
0
390
1D
100
AcDbBlockBegin
  2
*MODEL_SPACE
 70
     0
 10
0.0
 20
0.0
 30
0.0
  3
*MODEL_SPACE
  1
*MODEL_SPACE
  0
ENDBLK
  5
E
330
A
100
AcDbEntity
  8
0
390
1D
100
AcDbBlockEnd
  0
BLOCK
  5
F
330
B
100
AcDbEntity
 67
     1
  8
0
390
1D
100
AcDbBlockBegin
  2
*PAPER_SPACE
 70
     0
 10
0.0
 20
0.0
 30
0.0
  3
*PAPER_SPACE
  1
*PAPER_SPACE
  0
ENDBLK
  5
10
330
B
100
AcDbEntity
 67
     1
  8
0
390
1D
100
AcDbBlockEnd
  0
BLOCK
  5
2C14
330
4E
100
AcDbEntity
  8
0
390
1D
100
AcDbBlockBegin
  2
_DOT
 70
     0
 10
0.0
 20
0.0
 30
0.0
  3
_DOT
  1
_DOT
  0
POLYLINE
  5
2C16
330
4E
100
AcDbEntity
  8
0
  6
ByBlock
 62
     0
370
    -2
390
1D
100
AcDb2dPolyline
 66
     1
 10
0.0
 20
0.0
 30
0.0
 70
     1
 40
0.5
 41
0.5
  0
VERTEX
  5
2C17
330
2C16
100
AcDbEntity
  8
0
  6
ByBlock
 62
     0
370
    -2
390
1D
100
AcDbVertex
100
AcDb2dVertex
 10
-0.25
 20
0.0
 30
0.0
 42
1.0
  0
VERTEX
  5
2C18
330
2C16
100
AcDbEntity
  8
0
  6
ByBlock
 62
     0
370
    -2
390
1D
100
AcDbVertex
100
AcDb2dVertex
 10
0.25
 20
0.0
 30
0.0
 42
1.0
  0
SEQEND
  5
2C19
330
2C16
100
AcDbEntity
  8
0
390
1D
  0
LINE
  5
2C1A
330
4E
100
AcDbEntity
  8
0
  6
ByBlock
 62
     0
370
    -2
390
1D
100
AcDbLine
 10
-0.5
 20
0.0
 30
0.0
 11
-1.0
 21
0.0
 31
0.0
  0
ENDBLK
  5
2C1B
330
4E
100
AcDbEntity
  8
0
390
1D
100
AcDbBlockEnd
  0
BLOCK
  5
3A6
330
3A5
100
AcDbEntity
  8
0
100
AcDbBlockBegin
  2
名称未設定-1
 70
     0
 10
0.0
 20
0.0
 30
0.0
  3
名称未設定-1
  1
名称未設定-1
  0
INSERT
  5
3A7
330
3A5
100
AcDbEntity
  8
レイヤー 1
100
AcDbBlockReference
  2
block 2
 10
0.0
 20
0.0
 30
0.0
  0
ENDBLK
  5
3CC
330
3A5
100
AcDbEntity
  8
0
100
AcDbBlockEnd
  0
BLOCK
  5
3A9
330
3A8
100
AcDbEntity
  8
0
100
AcDbBlockBegin
  2
block 2
 70
     0
 10
0.0
 20
0.0
 30
0.0
  3
block 2
  1
block 2
  0
INSERT
  5
3AA
330
3A8
100
AcDbEntity
  8
レイヤー 1
100
AcDbBlockReference
  2
block 3
 10
0.0
 20
0.0
 30
0.0
  0
ENDBLK
  5
3CB
330
3A8
100
AcDbEntity
  8
0
100
AcDbBlockEnd
  0
BLOCK
  5
3AC
330
3AB
100
AcDbEntity
  8
0
100
AcDbBlockBegin
  2
block 3
 70
     0
 10
0.0
 20
0.0
 30
0.0
  3
block 3
  1
block 3
  0
INSERT
  5
3AD
330
3AB
100
AcDbEntity
  8
レイヤー 1
100
AcDbBlockReference
  2
block 4
 10
0.0
 20
0.0
 30
0.0
  0
ENDBLK
  5
3CA
330
3AB
100
AcDbEntity
  8
0
100
AcDbBlockEnd
  0
BLOCK
  5
3AF
330
3AE
100
AcDbEntity
  8
0
100
AcDbBlockBegin
  2
block 4
 70
     0
 10
0.0
 20
0.0
 30
0.0
  3
block 4
  1
block 4
  0
POLYLINE
  5
3B0
330
3AE
100
AcDbEntity
  8
レイヤー 1
370
     0
100
AcDb2dPolyline
 66
     1
 10
0.0
 20
0.0
 30
0.0
  0
VERTEX
  5
3B1
330
3B0
100
AcDbEntity
  8
レイヤー 1
370
     0
100
AcDbVertex
100
AcDb2dVertex
 10
83.79545727667795
 20
167.6444858234922
 30
0.0
  0
VERTEX
  5
3B2
330
3B0
100
AcDbEntity
  8
レイヤー 1
370
     0
100
AcDbVertex
100
AcDb2dVertex
 10
83.79545727667795
 20
159.7968976406313
 30
0.0
  0
VERTEX
  5
3B3
330
3B0
100
AcDbEntity
  8
レイヤー 1
370
     0
100
AcDbVertex
100
AcDb2dVertex
 10
71.3631329975216
 20
159.7968976406313
 30
0.0
  0
VERTEX
  5
3B4
330
3B0
100
AcDbEntity
  8
レイヤー 1
370
     0
100
AcDbVertex
100
AcDb2dVertex
 10
71.3631329975216
 20
127.8027915271048
 30
0.0
  0
VERTEX
  5
3B5
330
3B0
100
AcDbEntity
  8
レイヤー 1
370
     0
100
AcDbVertex
100
AcDb2dVertex
 10
60.43011526263018
 20
127.8027915271048
 30
0.0
  0
VERTEX
  5
3B6
330
3B0
100
AcDbEntity
  8
レイヤー 1
370
     0
100
AcDbVertex
100
AcDb2dVertex
 10
60.43011526263018
 20
159.7968976406313
 30
0.0
  0
VERTEX
  5
3B7
330
3B0
100
AcDbEntity
  8
レイヤー 1
370
     0
100
AcDbVertex
100
AcDb2dVertex
 10
48.21793273020759
 20
159.7968976406313
 30
0.0
  0
VERTEX
  5
3B8
330
3B0
100
AcDbEntity
  8
レイヤー 1
370
     0
100
AcDbVertex
100
AcDb2dVertex
 10
48.21793273020759
 20
167.6444858234922
 30
0.0
  0
VERTEX
  5
3B9
330
3B0
100
AcDbEntity
  8
レイヤー 1
370
     0
100
AcDbVertex
100
AcDb2dVertex
 10
83.79545727667795
 20
167.6444858234922
 30
0.0
  0
SEQEND
  5
3BA
330
3B0
100
AcDbEntity
  8
レイヤー 1
370
     0
  0
HATCH
  5
3BB
330
3AE
100
AcDbEntity
  8
レイヤー 1
 62
   250
420
  2234388
100
AcDbHatch
 10
0.0
 20
0.0
 30
0.0
210
0.0
220
0.0
230
1.0
  2
SOLID
 70
     1
 71
     0
 91
        1
 92
        1
 93
        8
 72
     1
 10
83.79545727667795
 20
167.6444858234922
 11
83.79545727667795
 21
159.7968976406313
 72
     1
 10
83.79545727667795
 20
159.7968976406313
 11
71.3631329975216
 21
159.7968976406313
 72
     1
 10
71.3631329975216
 20
159.7968976406313
 11
71.3631329975216
 21
127.8027915271048
 72
     1
 10
71.3631329975216
 20
127.8027915271048
 11
60.43011526263018
 21
127.8027915271048
 72
     1
 10
60.43011526263018
 20
127.8027915271048
 11
60.43011526263018
 21
159.7968976406313
 72
     1
 10
60.43011526263018
 20
159.7968976406313
 11
48.21793273020759
 21
159.7968976406313
 72
     1
 10
48.21793273020759
 20
159.7968976406313
 11
48.21793273020759
 21
167.6444858234922
 72
     1
 10
48.21793273020759
 20
167.6444858234922
 11
83.79545727667795
 21
167.6444858234922
 97
        0
 75
     2
 76
     1
 98
        0
  0
INSERT
  5
3BC
330
3AE
100
AcDbEntity
  8
レイヤー 1
100
AcDbBlockReference
  2
block 5
 10
0.0
 20
0.0
 30
0.0
  0
ENDBLK
  5
3C9
330
3AE
100
AcDbEntity
  8
0
100
AcDbBlockEnd
  0
BLOCK
  5
3BE
330
3BD
100
AcDbEntity
  8
0
100
AcDbBlockBegin
  2
block 5
 70
     0
 10
0.0
 20
0.0
 30
0.0
  3
block 5
  1
block 5
  0
SPLINE
  5
3BF
330
3BD
100
AcDbEntity
  8
レイヤー 1
370
     0
100
AcDbSpline
210
0.0
220
0.0
230
1.0
 70
    11
 71
     3
 72
    56
 73
    52
 74
     0
 42
0.000000001
 43
0.0000000001
 40
0.0
 40
0.0
 40
0.0
 40
0.0
 40
1.0
 40
1.0
 40
1.0
 40
2.0
 40
2.0
 40
2.0
 40
3.0
 40
3.0
 40
3.0
 40
4.0
 40
4.0
 40
4.0
 40
5.0
 40
5.0
 40
5.0
 40
6.0
 40
6.0
 40
6.0
 40
7.0
 40
7.0
 40
7.0
 40
8.0
 40
8.0
 40
8.0
 40
9.0
 40
9.0
 40
9.0
 40
10.0
 40
10.0
 40
10.0
 40
11.0
 40
11.0
 40
11.0
 40
12.0
 40
12.0
 40
12.0
 40
13.0
 40
13.0
 40
13.0
 40
14.0
 40
14.0
 40
14.0
 40
15.0
 40
15.0
 40
15.0
 40
16.0
 40
16.0
 40
16.0
 40
17.0
 40
17.0
 40
17.0
 40
17.0
 10
100.4504378777679
 20
166.69157178364
 30
0.0
 10
101.9848844191641
 20
167.1313385124438
 30
0.0
 10
103.9637485713373
 20
166.7649523658846
 30
0.0
 10
103.9637485713373
 20
166.7649523658846
 30
0.0
 10
103.9637485713373
 20
166.7649523658846
 30
0.0
 10
103.0132460999156
 20
163.911205638077
 30
0.0
 10
103.0132460999156
 20
163.911205638077
 30
0.0
 10
103.0132460999156
 20
163.911205638077
 30
0.0
 10
101.0674548862189
 20
164.3601018759394
 30
0.0
 10
99.57090442016032
 20
163.1805004036133
 30
0.0
 10
98.40508333886608
 20
162.258247733807
 30
0.0
 10
97.65301849830304
 20
159.804132345923
 30
0.0
 10
97.3598406791005
 20
158.8699940888517
 30
0.0
 10
97.3598406791005
 20
158.8699940888517
 30
0.0
 10
96.07137411762282
 20
154.9119212747295
 30
0.0
 10
96.07137411762282
 20
154.9119212747295
 30
0.0
 10
96.07137411762282
 20
154.9119212747295
 30
0.0
 10
100.3012651448482
 20
154.9119212747295
 30
0.0
 10
100.3012651448482
 20
154.9119212747295
 30
0.0
 10
100.3012651448482
 20
154.9119212747295
 30
0.0
 10
99.64152892419852
 20
152.4199098115079
 30
0.0
 10
99.64152892419852
 20
152.4199098115079
 30
0.0
 10
99.64152892419852
 20
152.4199098115079
 30
0.0
 10
95.38097652692731
 20
152.4199098115079
 30
0.0
 10
95.38097652692731
 20
152.4199098115079
 30
0.0
 10
95.38097652692731
 20
152.4199098115079
 30
0.0
 10
87.75353009080013
 20
127.8027915271048
 30
0.0
 10
87.75353009080013
 20
127.8027915271048
 30
0.0
 10
87.75353009080013
 20
127.8027915271048
 30
0.0
 10
85.36538832498108
 20
127.8027915271048
 30
0.0
 10
85.36538832498108
 20
127.8027915271048
 30
0.0
 10
85.36538832498108
 20
127.8027915271048
 30
0.0
 10
93.00006946639998
 20
152.4199098115079
 30
0.0
 10
93.00006946639998
 20
152.4199098115079
 30
0.0
 10
93.00006946639998
 20
152.4199098115079
 30
0.0
 10
89.85297266450198
 20
152.4199098115079
 30
0.0
 10
89.85297266450198
 20
152.4199098115079
 30
0.0
 10
89.85297266450198
 20
152.4199098115079
 30
0.0
 10
90.51270888515164
 20
154.9119212747295
 30
0.0
 10
90.51270888515164
 20
154.9119212747295
 30
0.0
 10
90.51270888515164
 20
154.9119212747295
 30
0.0
 10
93.6904670570955
 20
154.9119212747295
 30
0.0
 10
93.6904670570955
 20
154.9119212747295
 30
0.0
 10
93.6904670570955
 20
154.9119212747295
 30
0.0
 10
94.81598049462158
 20
158.3616699146644
 30
0.0
 10
94.81598049462158
 20
158.3616699146644
 30
0.0
 10
95.7237637538445
 20
161.2605474231013
 30
0.0
 10
96.4968436907311
 20
162.8139420021662
 30
0.0
 10
97.15657991138076
 20
163.9844139654337
 30
0.0
 10
97.81183750494507
 20
165.1523021053827
 30
0.0
 10
99.1047826935081
 20
166.3084769129547
 30
0.0
 10
100.4504378777679
 20
166.69157178364
 30
0.0
  0
HATCH
  5
3C0
330
3BD
100
AcDbEntity
  8
レイヤー 1
 62
   250
420
  2234388
100
AcDbHatch
 10
0.0
 20
0.0
 30
0.0
210
0.0
220
0.0
230
1.0
  2
SOLID
 70
     1
 71
     0
 91
        1
 92
        1
 93
        1
 72
     4
 94
        3
 73
     0
 74
     1
 95
       56
 96
       52
 40
0.0
 40
0.0
 40
0.0
 40
0.0
 40
1.0
 40
1.0
 40
1.0
 40
2.0
 40
2.0
 40
2.0
 40
3.0
 40
3.0
 40
3.0
 40
4.0
 40
4.0
 40
4.0
 40
5.0
 40
5.0
 40
5.0
 40
6.0
 40
6.0
 40
6.0
 40
7.0
 40
7.0
 40
7.0
 40
8.0
 40
8.0
 40
8.0
 40
9.0
 40
9.0
 40
9.0
 40
10.0
 40
10.0
 40
10.0
 40
11.0
 40
11.0
 40
11.0
 40
12.0
 40
12.0
 40
12.0
 40
13.0
 40
13.0
 40
13.0
 40
14.0
 40
14.0
 40
14.0
 40
15.0
 40
15.0
 40
15.0
 40
16.0
 40
16.0
 40
16.0
 40
17.0
 40
17.0
 40
17.0
 40
17.0
 10
100.4504378777679
 20
166.69157178364
 10
101.9848844191641
 20
167.1313385124438
 10
103.9637485713373
 20
166.7649523658846
 10
103.9637485713373
 20
166.7649523658846
 10
103.9637485713373
 20
166.7649523658846
 10
103.0132460999156
 20
163.911205638077
 10
103.0132460999156
 20
163.911205638077
 10
103.0132460999156
 20
163.911205638077
 10
101.0674548862189
 20
164.3601018759394
 10
99.57090442016032
 20
163.1805004036133
 10
98.40508333886608
 20
162.258247733807
 10
97.65301849830304
 20
159.804132345923
 10
97.3598406791005
 20
158.8699940888517
 10
97.3598406791005
 20
158.8699940888517
 10
96.07137411762282
 20
154.9119212747295
 10
96.07137411762282
 20
154.9119212747295
 10
96.07137411762282
 20
154.9119212747295
 10
100.3012651448482
 20
154.9119212747295
 10
100.3012651448482
 20
154.9119212747295
 10
100.3012651448482
 20
154.9119212747295
 10
99.64152892419852
 20
152.4199098115079
 10
99.64152892419852
 20
152.4199098115079
 10
99.64152892419852
 20
152.4199098115079
 10
95.38097652692731
 20
152.4199098115079
 10
95.38097652692731
 20
152.4199098115079
 10
95.38097652692731
 20
152.4199098115079
 10
87.75353009080013
 20
127.8027915271048
 10
87.75353009080013
 20
127.8027915271048
 10
87.75353009080013
 20
127.8027915271048
 10
85.36538832498108
 20
127.8027915271048
 10
85.36538832498108
 20
127.8027915271048
 10
85.36538832498108
 20
127.8027915271048
 10
93.00006946639998
 20
152.4199098115079
 10
93.00006946639998
 20
152.4199098115079
 10
93.00006946639998
 20
152.4199098115079
 10
89.85297266450198
 20
152.4199098115079
 10
89.85297266450198
 20
152.4199098115079
 10
89.85297266450198
 20
152.4199098115079
 10
90.51270888515164
 20
154.9119212747295
 10
90.51270888515164
 20
154.9119212747295
 10
90.51270888515164
 20
154.9119212747295
 10
93.6904670570955
 20
154.9119212747295
 10
93.6904670570955
 20
154.9119212747295
 10
93.6904670570955
 20
154.9119212747295
 10
94.81598049462158
 20
158.3616699146644
 10
94.81598049462158
 20
158.3616699146644
 10
95.7237637538445
 20
161.2605474231013
 10
96.4968436907311
 20
162.8139420021662
 10
97.15657991138076
 20
163.9844139654337
 10
97.81183750494507
 20
165.1523021053827
 10
99.1047826935081
 20
166.3084769129547
 10
100.4504378777679
 20
166.69157178364
 97
        0
 75
     2
 76
     1
 98
        0
  0
SPLINE
  5
3C1
330
3BD
100
AcDbEntity
  8
レイヤー 1
370
     0
100
AcDbSpline
210
0.0
220
0.0
230
1.0
 70
    11
 71
     3
 72
    38
 73
    34
 74
     0
 42
0.000000001
 43
0.0000000001
 40
0.0
 40
0.0
 40
0.0
 40
0.0
 40
1.0
 40
1.0
 40
1.0
 40
2.0
 40
2.0
 40
2.0
 40
3.0
 40
3.0
 40
3.0
 40
4.0
 40
4.0
 40
4.0
 40
5.0
 40
5.0
 40
5.0
 40
6.0
 40
6.0
 40
6.0
 40
7.0
 40
7.0
 40
7.0
 40
8.0
 40
8.0
 40
8.0
 40
9.0
 40
9.0
 40
9.0
 40
10.0
 40
10.0
 40
10.0
 40
11.0
 40
11.0
 40
11.0
 40
11.0
 10
126.377554584636
 20
154.8151140277308
 30
0.0
 10
126.377554584636
 20
154.8151140277308
 30
0.0
 10
128.8311532078563
 20
154.8151140277308
 30
0.0
 10
128.8311532078563
 20
154.8151140277308
 30
0.0
 10
128.8311532078563
 20
154.8151140277308
 30
0.0
 10
127.7345785914971
 20
151.3062819612468
 30
0.0
 10
127.7345785914971
 20
151.3062819612468
 30
0.0
 10
128.571392836906
 20
152.2922689395754
 30
0.0
 10
129.8860421413442
 20
153.604506675583
 30
0.0
 10
131.0163787157314
 20
154.2664822097754
 30
0.0
 10
132.7044766171327
 20
155.2500576196734
 30
0.0
 10
133.6642808525008
 20
155.3847609420097
 30
0.0
 10
134.7284715499351
 20
155.3565111403944
 30
0.0
 10
134.7284715499351
 20
155.3565111403944
 30
0.0
 10
133.6877075172549
 20
152.0345756272799
 30
0.0
 10
133.6877075172549
 20
152.0345756272799
 30
0.0
 10
133.011434827367
 20
152.3184516825359
 30
0.0
 10
130.930940291334
 20
151.7768823149844
 30
0.0
 10
129.739280976855
 20
150.9162968950455
 30
0.0
 10
128.66613302525
 20
150.1454562717016
 30
0.0
 10
127.9192358313239
 20
149.4857200510519
 30
0.0
 10
127.0393578639405
 20
147.8282835196966
 30
0.0
 10
126.164647543194
 20
146.1699857139017
 30
0.0
 10
125.4742499524985
 20
143.5262176944419
 30
0.0
 10
124.2822461282437
 20
139.6959580071401
 30
0.0
 10
124.2822461282437
 20
139.6959580071401
 30
0.0
 10
120.5753209406769
 20
127.8027915271048
 30
0.0
 10
120.5753209406769
 20
127.8027915271048
 30
0.0
 10
120.5753209406769
 20
127.8027915271048
 30
0.0
 10
118.1964809388044
 20
127.8027915271048
 30
0.0
 10
118.1964809388044
 20
127.8027915271048
 30
0.0
 10
118.1964809388044
 20
127.8027915271048
 30
0.0
 10
126.377554584636
 20
154.8151140277308
 30
0.0
 10
126.377554584636
 20
154.8151140277308
 30
0.0
  0
HATCH
  5
3C2
330
3BD
100
AcDbEntity
  8
レイヤー 1
 62
   250
420
  2234388
100
AcDbHatch
 10
0.0
 20
0.0
 30
0.0
210
0.0
220
0.0
230
1.0
  2
SOLID
 70
     1
 71
     0
 91
        1
 92
        1
 93
        1
 72
     4
 94
        3
 73
     0
 74
     1
 95
       38
 96
       34
 40
0.0
 40
0.0
 40
0.0
 40
0.0
 40
1.0
 40
1.0
 40
1.0
 40
2.0
 40
2.0
 40
2.0
 40
3.0
 40
3.0
 40
3.0
 40
4.0
 40
4.0
 40
4.0
 40
5.0
 40
5.0
 40
5.0
 40
6.0
 40
6.0
 40
6.0
 40
7.0
 40
7.0
 40
7.0
 40
8.0
 40
8.0
 40
8.0
 40
9.0
 40
9.0
 40
9.0
 40
10.0
 40
10.0
 40
10.0
 40
11.0
 40
11.0
 40
11.0
 40
11.0
 10
126.377554584636
 20
154.8151140277308
 10
126.377554584636
 20
154.8151140277308
 10
128.8311532078563
 20
154.8151140277308
 10
128.8311532078563
 20
154.8151140277308
 10
128.8311532078563
 20
154.8151140277308
 10
127.7345785914971
 20
151.3062819612468
 10
127.7345785914971
 20
151.3062819612468
 10
128.571392836906
 20
152.2922689395754
 10
129.8860421413442
 20
153.604506675583
 10
131.0163787157314
 20
154.2664822097754
 10
132.7044766171327
 20
155.2500576196734
 10
133.6642808525008
 20
155.3847609420097
 10
134.7284715499351
 20
155.3565111403944
 10
134.7284715499351
 20
155.3565111403944
 10
133.6877075172549
 20
152.0345756272799
 10
133.6877075172549
 20
152.0345756272799
 10
133.011434827367
 20
152.3184516825359
 10
130.930940291334
 20
151.7768823149844
 10
129.739280976855
 20
150.9162968950455
 10
128.66613302525
 20
150.1454562717016
 10
127.9192358313239
 20
149.4857200510519
 10
127.0393578639405
 20
147.8282835196966
 10
126.164647543194
 20
146.1699857139017
 10
125.4742499524985
 20
143.5262176944419
 10
124.2822461282437
 20
139.6959580071401
 10
124.2822461282437
 20
139.6959580071401
 10
120.5753209406769
 20
127.8027915271048
 10
120.5753209406769
 20
127.8027915271048
 10
120.5753209406769
 20
127.8027915271048
 10
118.1964809388044
 20
127.8027915271048
 10
118.1964809388044
 20
127.8027915271048
 10
118.1964809388044
 20
127.8027915271048
 10
126.377554584636
 20
154.8151140277308
 10
126.377554584636
 20
154.8151140277308
 97
        0
 75
     2
 76
     1
 98
        0
  0
SPLINE
  5
3C3
330
3BD
100
AcDbEntity
  8
レイヤー 1
370
     0
100
AcDbSpline
210
0.0
220
0.0
230
1.0
 70
    11
 71
     3
 72
   104
 73
   100
 74
     0
 42
0.000000001
 43
0.0000000001
 40
0.0
 40
0.0
 40
0.0
 40
0.0
 40
1.0
 40
1.0
 40
1.0
 40
2.0
 40
2.0
 40
2.0
 40
3.0
 40
3.0
 40
3.0
 40
4.0
 40
4.0
 40
4.0
 40
5.0
 40
5.0
 40
5.0
 40
6.0
 40
6.0
 40
6.0
 40
7.0
 40
7.0
 40
7.0
 40
8.0
 40
8.0
 40
8.0
 40
9.0
 40
9.0
 40
9.0
 40
10.0
 40
10.0
 40
10.0
 40
11.0
 40
11.0
 40
11.0
 40
12.0
 40
12.0
 40
12.0
 40
13.0
 40
13.0
 40
13.0
 40
14.0
 40
14.0
 40
14.0
 40
15.0
 40
15.0
 40
15.0
 40
16.0
 40
16.0
 40
16.0
 40
17.0
 40
17.0
 40
17.0
 40
18.0
 40
18.0
 40
18.0
 40
19.0
 40
19.0
 40
19.0
 40
20.0
 40
20.0
 40
20.0
 40
21.0
 40
21.0
 40
21.0
 40
22.0
 40
22.0
 40
22.0
 40
23.0
 40
23.0
 40
23.0
 40
24.0
 40
24.0
 40
24.0
 40
25.0
 40
25.0
 40
25.0
 40
26.0
 40
26.0
 40
26.0
 40
27.0
 40
27.0
 40
27.0
 40
28.0
 40
28.0
 40
28.0
 40
29.0
 40
29.0
 40
29.0
 40
30.0
 40
30.0
 40
30.0
 40
31.0
 40
31.0
 40
31.0
 40
32.0
 40
32.0
 40
32.0
 40
33.0
 40
33.0
 40
33.0
 40
33.0
 10
139.8926730891197
 20
154.8294111834263
 30
0.0
 10
139.8926730891197
 20
154.8294111834263
 30
0.0
 10
142.0344903652445
 20
154.8294111834263
 30
0.0
 10
142.0344903652445
 20
154.8294111834263
 30
0.0
 10
142.0344903652445
 20
154.8294111834263
 30
0.0
 10
140.9516961399171
 20
151.3157559800812
 30
0.0
 10
140.9516961399171
 20
151.3157559800812
 30
0.0
 10
141.8928968473923
 20
152.7887075264977
 30
0.0
 10
142.7341897198865
 20
153.4484437471474
 30
0.0
 10
143.8552245303272
 20
154.2926649527359
 30
0.0
 10
144.9803934580775
 20
155.1296514530327
 30
0.0
 10
146.3139908001845
 20
155.3044901642492
 30
0.0
 10
147.241066606852
 20
155.3044901642492
 30
0.0
 10
148.3855280820469
 20
155.3044901642492
 30
0.0
 10
149.4969166187653
 20
155.0752189084569
 30
0.0
 10
150.0784491203092
 20
153.8172414621372
 30
0.0
 10
150.5228667310863
 20
152.833838307127
 30
0.0
 10
150.5414702589793
 20
152.7201500811143
 30
0.0
 10
150.4140016419347
 20
150.7765981809602
 30
0.0
 10
151.5818897818837
 20
152.7699317437168
 30
0.0
 10
152.4424752018226
 20
153.6256940267945
 30
0.0
 10
153.9038856707499
 20
154.4507949398263
 30
0.0
 10
155.4455669174378
 20
155.3044901642492
 30
0.0
 10
156.339225275853
 20
155.3659851592288
 30
0.0
 10
157.3748216618963
 20
155.2147453676543
 30
0.0
 10
158.911679771723
 20
154.9877134254046
 30
0.0
 10
159.8859534176746
 20
154.4390816074493
 30
0.0
 10
160.3965169054045
 20
152.7816450760939
 30
0.0
 10
160.9070803931344
 20
151.1219692311958
 30
0.0
 10
160.6328506116007
 20
150.2303779314354
 30
0.0
 10
159.9992971339115
 20
147.597634224801
 30
0.0
 10
159.7105979417943
 20
146.4014962832367
 30
0.0
 10
159.2947746424084
 20
144.9400858143094
 30
0.0
 10
158.7463150793409
 20
143.2092687007094
 30
0.0
 10
158.7463150793409
 20
143.2092687007094
 30
0.0
 10
153.9038856707499
 20
127.8027915271048
 30
0.0
 10
153.9038856707499
 20
127.8027915271048
 30
0.0
 10
153.9038856707499
 20
127.8027915271048
 30
0.0
 10
151.3882752878863
 20
127.8027915271048
 30
0.0
 10
151.3882752878863
 20
127.8027915271048
 30
0.0
 10
151.3882752878863
 20
127.8027915271048
 30
0.0
 10
155.6250565106276
 20
141.2751908193897
 30
0.0
 10
155.6250565106276
 20
141.2751908193897
 30
0.0
 10
156.5094131050963
 20
144.0936252951782
 30
0.0
 10
157.109893644309
 20
146.1506931664571
 30
0.0
 10
157.4220195011804
 20
147.4415712963654
 30
0.0
 10
157.8095929989511
 20
149.0530157726519
 30
0.0
 10
157.9656559273867
 20
149.5826995529385
 30
0.0
 10
157.7816877071116
 20
150.7529992613181
 30
0.0
 10
157.6111553680925
 20
151.8430281919372
 30
0.0
 10
157.0582171779396
 20
152.5547853887321
 30
0.0
 10
156.1170164704645
 20
152.5547853887321
 30
0.0
 10
155.1096698860365
 20
152.5547853887321
 30
0.0
 10
154.2962823053817
 20
152.4412694176073
 30
0.0
 10
153.156643967048
 20
151.2945686288697
 30
0.0
 10
152.0170056287143
 20
150.1476955852443
 30
0.0
 10
151.076149431015
 20
148.7930831468137
 30
0.0
 10
150.3337308641742
 20
147.2290087646991
 30
0.0
 10
149.5957909244188
 20
145.6683794803425
 30
0.0
 10
148.8530278478023
 20
143.6822806228776
 30
0.0
 10
148.0964843801539
 20
141.2751908193897
 30
0.0
 10
148.0964843801539
 20
141.2751908193897
 30
0.0
 10
143.8552245303272
 20
127.8027915271048
 30
0.0
 10
143.8552245303272
 20
127.8027915271048
 30
0.0
 10
143.8552245303272
 20
127.8027915271048
 30
0.0
 10
141.486030802177
 20
127.8027915271048
 30
0.0
 10
141.486030802177
 20
127.8027915271048
 30
0.0
 10
141.486030802177
 20
127.8027915271048
 30
0.0
 10
146.3329388378533
 20
143.2092687007094
 30
0.0
 10
146.3329388378533
 20
143.2092687007094
 30
0.0
 10
146.8483254624444
 20
144.8408669988801
 30
0.0
 10
147.2314203331297
 20
146.1837661049335
 30
0.0
 10
147.4867020769946
 20
147.224185627838
 30
0.0
 10
147.9169947869641
 20
149.0197705792876
 30
0.0
 10
148.0306830129768
 20
150.2400242051577
 30
0.0
 10
147.709255392159
 20
151.3157559800812
 30
0.0
 10
147.3874832615654
 20
152.3916600098926
 30
0.0
 10
146.8245542879144
 20
152.6683013598569
 30
0.0
 10
145.8840425999909
 20
152.6683013598569
 30
0.0
 10
145.0989048209514
 20
152.6683013598569
 30
0.0
 10
144.3282364524954
 20
152.3275811915945
 30
0.0
 10
143.4531816219731
 20
151.6538923250251
 30
0.0
 10
142.34627171234
 20
150.8074318058939
 30
0.0
 10
141.901854101563
 20
150.1097995099067
 30
0.0
 10
141.3578731655808
 20
149.289521733736
 30
0.0
 10
140.6299240093235
 20
148.192602607601
 30
0.0
 10
140.2850697237515
 20
147.455696197173
 30
0.0
 10
139.6652966370942
 20
145.8385673095858
 30
0.0
 10
139.0506911970739
 20
144.2214384219986
 30
0.0
 10
138.463991048893
 20
142.3252566160164
 30
0.0
 10
138.0571250036777
 20
141.0154304484394
 30
0.0
 10
138.0571250036777
 20
141.0154304484394
 30
0.0
 10
133.9009590684727
 20
127.8027915271048
 30
0.0
 10
133.9009590684727
 20
127.8027915271048
 30
0.0
 10
133.9009590684727
 20
127.8027915271048
 30
0.0
 10
131.4180771143097
 20
127.8027915271048
 30
0.0
 10
131.4180771143097
 20
127.8027915271048
 30
0.0
 10
131.4180771143097
 20
127.8027915271048
 30
0.0
 10
139.8926730891197
 20
154.8294111834263
 30
0.0
 10
139.8926730891197
 20
154.8294111834263
 30
0.0
  0
HATCH
  5
3C4
330
3BD
100
AcDbEntity
  8
レイヤー 1
 62
   250
420
  2234388
100
AcDbHatch
 10
0.0
 20
0.0
 30
0.0
210
0.0
220
0.0
230
1.0
  2
SOLID
 70
     1
 71
     0
 91
        1
 92
        1
 93
        1
 72
     4
 94
        3
 73
     0
 74
     1
 95
      104
 96
      100
 40
0.0
 40
0.0
 40
0.0
 40
0.0
 40
1.0
 40
1.0
 40
1.0
 40
2.0
 40
2.0
 40
2.0
 40
3.0
 40
3.0
 40
3.0
 40
4.0
 40
4.0
 40
4.0
 40
5.0
 40
5.0
 40
5.0
 40
6.0
 40
6.0
 40
6.0
 40
7.0
 40
7.0
 40
7.0
 40
8.0
 40
8.0
 40
8.0
 40
9.0
 40
9.0
 40
9.0
 40
10.0
 40
10.0
 40
10.0
 40
11.0
 40
11.0
 40
11.0
 40
12.0
 40
12.0
 40
12.0
 40
13.0
 40
13.0
 40
13.0
 40
14.0
 40
14.0
 40
14.0
 40
15.0
 40
15.0
 40
15.0
 40
16.0
 40
16.0
 40
16.0
 40
17.0
 40
17.0
 40
17.0
 40
18.0
 40
18.0
 40
18.0
 40
19.0
 40
19.0
 40
19.0
 40
20.0
 40
20.0
 40
20.0
 40
21.0
 40
21.0
 40
21.0
 40
22.0
 40
22.0
 40
22.0
 40
23.0
 40
23.0
 40
23.0
 40
24.0
 40
24.0
 40
24.0
 40
25.0
 40
25.0
 40
25.0
 40
26.0
 40
26.0
 40
26.0
 40
27.0
 40
27.0
 40
27.0
 40
28.0
 40
28.0
 40
28.0
 40
29.0
 40
29.0
 40
29.0
 40
30.0
 40
30.0
 40
30.0
 40
31.0
 40
31.0
 40
31.0
 40
32.0
 40
32.0
 40
32.0
 40
33.0
 40
33.0
 40
33.0
 40
33.0
 10
139.8926730891197
 20
154.8294111834263
 10
139.8926730891197
 20
154.8294111834263
 10
142.0344903652445
 20
154.8294111834263
 10
142.0344903652445
 20
154.8294111834263
 10
142.0344903652445
 20
154.8294111834263
 10
140.9516961399171
 20
151.3157559800812
 10
140.9516961399171
 20
151.3157559800812
 10
141.8928968473923
 20
152.7887075264977
 10
142.7341897198865
 20
153.4484437471474
 10
143.8552245303272
 20
154.2926649527359
 10
144.9803934580775
 20
155.1296514530327
 10
146.3139908001845
 20
155.3044901642492
 10
147.241066606852
 20
155.3044901642492
 10
148.3855280820469
 20
155.3044901642492
 10
149.4969166187653
 20
155.0752189084569
 10
150.0784491203092
 20
153.8172414621372
 10
150.5228667310863
 20
152.833838307127
 10
150.5414702589793
 20
152.7201500811143
 10
150.4140016419347
 20
150.7765981809602
 10
151.5818897818837
 20
152.7699317437168
 10
152.4424752018226
 20
153.6256940267945
 10
153.9038856707499
 20
154.4507949398263
 10
155.4455669174378
 20
155.3044901642492
 10
156.339225275853
 20
155.3659851592288
 10
157.3748216618963
 20
155.2147453676543
 10
158.911679771723
 20
154.9877134254046
 10
159.8859534176746
 20
154.4390816074493
 10
160.3965169054045
 20
152.7816450760939
 10
160.9070803931344
 20
151.1219692311958
 10
160.6328506116007
 20
150.2303779314354
 10
159.9992971339115
 20
147.597634224801
 10
159.7105979417943
 20
146.4014962832367
 10
159.2947746424084
 20
144.9400858143094
 10
158.7463150793409
 20
143.2092687007094
 10
158.7463150793409
 20
143.2092687007094
 10
153.9038856707499
 20
127.8027915271048
 10
153.9038856707499
 20
127.8027915271048
 10
153.9038856707499
 20
127.8027915271048
 10
151.3882752878863
 20
127.8027915271048
 10
151.3882752878863
 20
127.8027915271048
 10
151.3882752878863
 20
127.8027915271048
 10
155.6250565106276
 20
141.2751908193897
 10
155.6250565106276
 20
141.2751908193897
 10
156.5094131050963
 20
144.0936252951782
 10
157.109893644309
 20
146.1506931664571
 10
157.4220195011804
 20
147.4415712963654
 10
157.8095929989511
 20
149.0530157726519
 10
157.9656559273867
 20
149.5826995529385
 10
157.7816877071116
 20
150.7529992613181
 10
157.6111553680925
 20
151.8430281919372
 10
157.0582171779396
 20
152.5547853887321
 10
156.1170164704645
 20
152.5547853887321
 10
155.1096698860365
 20
152.5547853887321
 10
154.2962823053817
 20
152.4412694176073
 10
153.156643967048
 20
151.2945686288697
 10
152.0170056287143
 20
150.1476955852443
 10
151.076149431015
 20
148.7930831468137
 10
150.3337308641742
 20
147.2290087646991
 10
149.5957909244188
 20
145.6683794803425
 10
148.8530278478023
 20
143.6822806228776
 10
148.0964843801539
 20
141.2751908193897
 10
148.0964843801539
 20
141.2751908193897
 10
143.8552245303272
 20
127.8027915271048
 10
143.8552245303272
 20
127.8027915271048
 10
143.8552245303272
 20
127.8027915271048
 10
141.486030802177
 20
127.8027915271048
 10
141.486030802177
 20
127.8027915271048
 10
141.486030802177
 20
127.8027915271048
 10
146.3329388378533
 20
143.2092687007094
 10
146.3329388378533
 20
143.2092687007094
 10
146.8483254624444
 20
144.8408669988801
 10
147.2314203331297
 20
146.1837661049335
 10
147.4867020769946
 20
147.224185627838
 10
147.9169947869641
 20
149.0197705792876
 10
148.0306830129768
 20
150.2400242051577
 10
147.709255392159
 20
151.3157559800812
 10
147.3874832615654
 20
152.3916600098926
 10
146.8245542879144
 20
152.6683013598569
 10
145.8840425999909
 20
152.6683013598569
 10
145.0989048209514
 20
152.6683013598569
 10
144.3282364524954
 20
152.3275811915945
 10
143.4531816219731
 20
151.6538923250251
 10
142.34627171234
 20
150.8074318058939
 10
141.901854101563
 20
150.1097995099067
 10
141.3578731655808
 20
149.289521733736
 10
140.6299240093235
 20
148.192602607601
 10
140.2850697237515
 20
147.455696197173
 10
139.6652966370942
 20
145.8385673095858
 10
139.0506911970739
 20
144.2214384219986
 10
138.463991048893
 20
142.3252566160164
 10
138.0571250036777
 20
141.0154304484394
 10
138.0571250036777
 20
141.0154304484394
 10
133.9009590684727
 20
127.8027915271048
 10
133.9009590684727
 20
127.8027915271048
 10
133.9009590684727
 20
127.8027915271048
 10
131.4180771143097
 20
127.8027915271048
 10
131.4180771143097
 20
127.8027915271048
 10
131.4180771143097
 20
127.8027915271048
 10
139.8926730891197
 20
154.8294111834263
 10
139.8926730891197
 20
154.8294111834263
 97
        0
 75
     2
 76
     1
 98
        0
  0
SPLINE
  5
3C5
330
3BD
100
AcDbEntity
  8
レイヤー 1
370
     0
100
AcDbSpline
210
0.0
220
0.0
230
1.0
 70
    11
 71
     3
 72
    29
 73
    25
 74
     0
 42
0.000000001
 43
0.0000000001
 40
0.0
 40
0.0
 40
0.0
 40
0.0
 40
1.0
 40
1.0
 40
1.0
 40
2.0
 40
2.0
 40
2.0
 40
3.0
 40
3.0
 40
3.0
 40
4.0
 40
4.0
 40
4.0
 40
5.0
 40
5.0
 40
5.0
 40
6.0
 40
6.0
 40
6.0
 40
7.0
 40
7.0
 40
7.0
 40
8.0
 40
8.0
 40
8.0
 40
8.0
 10
101.6420971922469
 20
132.8388354296931
 30
0.0
 10
101.630039350094
 20
134.7164137077823
 30
0.0
 10
102.2236296937908
 20
138.0598810818841
 30
0.0
 10
103.7487744712405
 20
142.5378191476827
 30
0.0
 10
105.819967243327
 20
148.5896501242061
 30
0.0
 10
107.0602024361932
 20
150.8074318058939
 30
0.0
 10
108.1522984254671
 20
151.8833358357054
 30
0.0
 10
109.741177511439
 20
153.4532668840085
 30
0.0
 10
111.8740375333931
 20
153.5290590346837
 30
0.0
 10
112.5075910110823
 20
153.4532668840085
 30
0.0
 10
113.4012493694975
 20
153.3490526768302
 30
0.0
 10
114.6683563248758
 20
152.7580461564518
 30
0.0
 10
114.7493161221879
 20
150.7838328862519
 30
0.0
 10
114.8106388622796
 20
149.0909118479895
 30
0.0
 10
114.3186789024427
 20
145.9191825971221
 30
0.0
 10
112.6164561002338
 20
140.9489400617108
 30
0.0
 10
110.6444821435766
 20
135.1746117095912
 30
0.0
 10
109.4669477299053
 20
132.8960240524753
 30
0.0
 10
108.5212683953448
 20
131.9072809959403
 30
0.0
 10
106.7346406980658
 20
130.0538184021569
 30
0.0
 10
104.8222669326213
 20
130.2336525051225
 30
0.0
 10
104.5408024457958
 20
130.2336525051225
 30
0.0
 10
104.1721769856939
 20
130.2336525051225
 30
0.0
 10
101.6465758193322
 20
130.6305277668397
 30
0.0
 10
101.6420971922469
 20
132.8388354296931
 30
0.0
  0
SPLINE
  5
3C6
330
3BD
100
AcDbEntity
  8
レイヤー 1
370
     0
100
AcDbSpline
210
0.0
220
0.0
230
1.0
 70
    11
 71
     3
 72
    32
 73
    28
 74
     0
 42
0.000000001
 43
0.0000000001
 40
0.0
 40
0.0
 40
0.0
 40
0.0
 40
1.0
 40
1.0
 40
1.0
 40
2.0
 40
2.0
 40
2.0
 40
3.0
 40
3.0
 40
3.0
 40
4.0
 40
4.0
 40
4.0
 40
5.0
 40
5.0
 40
5.0
 40
6.0
 40
6.0
 40
6.0
 40
7.0
 40
7.0
 40
7.0
 40
8.0
 40
8.0
 40
8.0
 40
9.0
 40
9.0
 40
9.0
 40
9.0
 10
106.2595617172429
 20
153.4105476718098
 30
0.0
 10
104.8222669326213
 20
151.5474388043041
 30
0.0
 10
103.7177685914188
 20
149.8758773721411
 30
0.0
 10
101.9232171692965
 20
144.6141795664062
 30
0.0
 10
100.2754269116635
 20
139.7999999594306
 30
0.0
 10
99.22777268346732
 20
136.3052927937542
 30
0.0
 10
99.06964269637689
 20
132.039572749846
 30
0.0
 10
98.94665270641765
 20
128.8673267343149
 30
0.0
 10
100.8807305877373
 20
127.8027915271048
 30
0.0
 10
103.7129454545577
 20
127.8027915271048
 30
0.0
 10
104.9352661390825
 20
127.8027915271048
 30
0.0
 10
108.0151835347002
 20
127.8827177950895
 30
0.0
 10
110.2045431598849
 20
130.5926316915021
 30
0.0
 10
111.7417457794874
 20
132.4984597712065
 30
0.0
 10
113.155269389579
 20
134.475256864725
 30
0.0
 10
115.0562743324223
 20
140.9489400617108
 30
0.0
 10
116.6361961642235
 20
146.3680788349845
 30
0.0
 10
117.7282921534974
 20
149.8639917848761
 30
0.0
 10
117.6480213757369
 20
151.8595646611754
 30
0.0
 10
117.6480213757369
 20
151.8595646611754
 30
0.0
 10
117.6480213757369
 20
151.8595646611754
 30
0.0
 10
117.6480213757369
 20
151.8595646611754
 30
0.0
 10
117.13229024137
 20
155.18150017429
 30
0.0
 10
114.7162431837115
 20
155.886194920681
 30
0.0
 10
113.3351034925446
 20
155.886194920681
 30
0.0
 10
111.9829026225447
 20
155.886194920681
 30
0.0
 10
108.3414342923792
 20
156.1251124501957
 30
0.0
 10
106.2595617172429
 20
153.4105476718098
 30
0.0
  0
HATCH
  5
3C7
330
3BD
100
AcDbEntity
  8
レイヤー 1
 62
   250
420
  2234388
100
AcDbHatch
 10
0.0
 20
0.0
 30
0.0
210
0.0
220
0.0
230
1.0
  2
SOLID
 70
     1
 71
     0
 91
        2
 92
        1
 93
        1
 72
     4
 94
        3
 73
     0
 74
     1
 95
       29
 96
       25
 40
0.0
 40
0.0
 40
0.0
 40
0.0
 40
1.0
 40
1.0
 40
1.0
 40
2.0
 40
2.0
 40
2.0
 40
3.0
 40
3.0
 40
3.0
 40
4.0
 40
4.0
 40
4.0
 40
5.0
 40
5.0
 40
5.0
 40
6.0
 40
6.0
 40
6.0
 40
7.0
 40
7.0
 40
7.0
 40
8.0
 40
8.0
 40
8.0
 40
8.0
 10
101.6420971922469
 20
132.8388354296931
 10
101.630039350094
 20
134.7164137077823
 10
102.2236296937908
 20
138.0598810818841
 10
103.7487744712405
 20
142.5378191476827
 10
105.819967243327
 20
148.5896501242061
 10
107.0602024361932
 20
150.8074318058939
 10
108.1522984254671
 20
151.8833358357054
 10
109.741177511439
 20
153.4532668840085
 10
111.8740375333931
 20
153.5290590346837
 10
112.5075910110823
 20
153.4532668840085
 10
113.4012493694975
 20
153.3490526768302
 10
114.6683563248758
 20
152.7580461564518
 10
114.7493161221879
 20
150.7838328862519
 10
114.8106388622796
 20
149.0909118479895
 10
114.3186789024427
 20
145.9191825971221
 10
112.6164561002338
 20
140.9489400617108
 10
110.6444821435766
 20
135.1746117095912
 10
109.4669477299053
 20
132.8960240524753
 10
108.5212683953448
 20
131.9072809959403
 10
106.7346406980658
 20
130.0538184021569
 10
104.8222669326213
 20
130.2336525051225
 10
104.5408024457958
 20
130.2336525051225
 10
104.1721769856939
 20
130.2336525051225
 10
101.6465758193322
 20
130.6305277668397
 10
101.6420971922469
 20
132.8388354296931
 97
        0
 92
        1
 93
        1
 72
     4
 94
        3
 73
     0
 74
     1
 95
       32
 96
       28
 40
0.0
 40
0.0
 40
0.0
 40
0.0
 40
1.0
 40
1.0
 40
1.0
 40
2.0
 40
2.0
 40
2.0
 40
3.0
 40
3.0
 40
3.0
 40
4.0
 40
4.0
 40
4.0
 40
5.0
 40
5.0
 40
5.0
 40
6.0
 40
6.0
 40
6.0
 40
7.0
 40
7.0
 40
7.0
 40
8.0
 40
8.0
 40
8.0
 40
9.0
 40
9.0
 40
9.0
 40
9.0
 10
106.2595617172429
 20
153.4105476718098
 10
104.8222669326213
 20
151.5474388043041
 10
103.7177685914188
 20
149.8758773721411
 10
101.9232171692965
 20
144.6141795664062
 10
100.2754269116635
 20
139.7999999594306
 10
99.22777268346732
 20
136.3052927937542
 10
99.06964269637689
 20
132.039572749846
 10
98.94665270641765
 20
128.8673267343149
 10
100.8807305877373
 20
127.8027915271048
 10
103.7129454545577
 20
127.8027915271048
 10
104.9352661390825
 20
127.8027915271048
 10
108.0151835347002
 20
127.8827177950895
 10
110.2045431598849
 20
130.5926316915021
 10
111.7417457794874
 20
132.4984597712065
 10
113.155269389579
 20
134.475256864725
 10
115.0562743324223
 20
140.9489400617108
 10
116.6361961642235
 20
146.3680788349845
 10
117.7282921534974
 20
149.8639917848761
 10
117.6480213757369
 20
151.8595646611754
 10
117.6480213757369
 20
151.8595646611754
 10
117.6480213757369
 20
151.8595646611754
 10
117.6480213757369
 20
151.8595646611754
 10
117.13229024137
 20
155.18150017429
 10
114.7162431837115
 20
155.886194920681
 10
113.3351034925446
 20
155.886194920681
 10
111.9829026225447
 20
155.886194920681
 10
108.3414342923792
 20
156.1251124501957
 10
106.2595617172429
 20
153.4105476718098
 97
        0
 75
     2
 76
     1
 98
        0
  0
ENDBLK
  5
3C8
330
3BD
100
AcDbEntity
  8
0
100
AcDbBlockEnd
  0
BLOCK
  5
11F1
330
11F0
100
AcDbEntity
  8
0
100
AcDbBlockBegin
  2
BLOCK_2
 70
     0
 10
0.0
 20
0.0
 30
0.0
  3
BLOCK_2
  1
BLOCK_2
  0
ENDBLK
  5
11F2
330
11F0
100
AcDbEntity
  8
0
100
AcDbBlockEnd
  0
BLOCK
  5
38B7
330
38B6
100
AcDbEntity
  8
0
100
AcDbBlockBegin
  2
mobile_latù
 70
     0
 10
0.0
 20
0.0
 30
0.0
  3
mobile_latù
  1
mobile_latù
  0
ENDBLK
  5
38B8
330
38B6
100
AcDbEntity
  8
0
100
AcDbBlockEnd
  0
BLOCK
  5
4FF9
330
4FF8
100
AcDbEntity
  8
0
100
AcDbBlockBegin
  2
*D8
 70
     1
 10
0.0
 20
0.0
 30
0.0
  3
*D8
  1
*D26
  0
LINE
  5
4FFB
330
4FF8
100
AcDbEntity
  8
Dim
 62
     0
370
    -2
100
AcDbLine
 10
1218.775732351491
 20
1537.191964660655
 30
0.0
 11
1289.192180018747
 21
1537.191964660655
 31
0.0
  0
LINE
  5
4FFC
330
4FF8
100
AcDbEntity
  8
Dim
 62
     0
370
    -2
100
AcDbLine
 10
1198.775732351491
 20
1439.191964660655
 30
0.0
 11
1289.192180018747
 21
1439.191964660655
 31
0.0
  0
LINE
  5
4FFD
330
4FF8
100
AcDbEntity
  8
Dim
 62
     0
370
    -2
100
AcDbLine
 10
1289.192180018747
 20
1527.192575012218
 30
0.0
 11
1289.192180018747
 21
1449.191354309093
 31
0.0
  0
INSERT
  5
4FFE
330
4FF8
100
AcDbEntity
  8
Dim
 62
     0
370
    -2
100
AcDbBlockReference
  2
_DOT
 10
1289.192180018747
 20
1537.191964660655
 30
0.0
 41
9.999389648437498
 42
9.999389648437498
 43
9.999389648437498
 50
90.0
  0
INSERT
  5
4FFF
330
4FF8
100
AcDbEntity
  8
Dim
 62
     0
370
    -2
100
AcDbBlockReference
  2
_DOT
 10
1289.192180018747
 20
1439.191964660655
 30
0.0
 41
9.999389648437498
 42
9.999389648437498
 43
9.999389648437498
 50
270.0
  0
MTEXT
  5
5000
330
4FF8
100
AcDbEntity
  8
Dim
 62
     0
100
AcDbMText
 10
1266.975871424997
 20
1488.191964660655
 30
0.0
 40
24.4326171875
 41
0.0
 46
0.0
 71
     5
 72
     1
  1
\A1;98
  7
ＭＳ ゴシック
 11
0.0
 21
1.0
 31
0.0
 73
     1
 44
1.0
  0
POINT
  5
5001
330
4FF8
100
AcDbEntity
  8
Defpoints
 62
     0
100
AcDbPoint
 10
1193.775732351491
 20
1537.191964660655
 30
0.0
  0
POINT
  5
5002
330
4FF8
100
AcDbEntity
  8
Defpoints
 62
     0
100
AcDbPoint
 10
1173.775732351491
 20
1439.191964660655
 30
0.0
  0
POINT
  5
5003
330
4FF8
100
AcDbEntity
  8
Defpoints
 62
     0
100
AcDbPoint
 10
1289.192180018747
 20
1439.191964660655
 30
0.0
  0
ENDBLK
  5
4FFA
330
4FF8
100
AcDbEntity
  8
0
100
AcDbBlockEnd
  0
BLOCK
  5
500C
330
500B
100
AcDbEntity
  8
0
100
AcDbBlockBegin
  2
*D9
 70
     1
 10
0.0
 20
0.0
 30
0.0
  3
*D9
  1
*D27
  0
LINE
  5
500E
330
500B
100
AcDbEntity
  8
Dim
 62
     0
370
    -2
100
AcDbLine
 10
1193.775732351491
 20
1562.191964660655
 30
0.0
 11
1193.775732351491
 21
1672.42118731208
 31
0.0
  0
LINE
  5
500F
330
500B
100
AcDbEntity
  8
Dim
 62
     0
370
    -2
100
AcDbLine
 10
1173.775732351491
 20
1562.191964660655
 30
0.0
 11
1173.775732351491
 21
1672.42118731208
 31
0.0
  0
LINE
  5
5010
330
500B
100
AcDbEntity
  8
Dim
 62
     0
370
    -2
100
AcDbLine
 10
1173.775732351491
 20
1672.42118731208
 30
0.0
 11
1100.211489668977
 21
1672.42118731208
 31
0.0
  0
LINE
  5
5011
330
500B
100
AcDbEntity
  8
Dim
 62
     0
370
    -2
100
AcDbLine
 10
1183.776342703053
 20
1672.42118731208
 30
0.0
 11
1183.775121999928
 21
1672.42118731208
 31
0.0
  0
INSERT
  5
5012
330
500B
100
AcDbEntity
  8
Dim
 62
     0
370
    -2
100
AcDbBlockReference
  2
_DOT
 10
1193.775732351491
 20
1672.42118731208
 30
0.0
 41
9.999389648437498
 42
9.999389648437498
 43
9.999389648437498
  0
INSERT
  5
5013
330
500B
100
AcDbEntity
  8
Dim
 62
     0
370
    -2
100
AcDbBlockReference
  2
_DOT
 10
1173.775732351491
 20
1672.42118731208
 30
0.0
 41
9.999389648437498
 42
9.999389648437498
 43
9.999389648437498
 50
180.0
  0
MTEXT
  5
5014
330
500B
100
AcDbEntity
  8
Dim
 62
     0
100
AcDbMText
 10
1124.724464278352
 20
1694.63749590583
 30
0.0
 40
24.4326171875
 41
0.0
 46
0.0
 71
     5
 72
     1
  1
\A1;20
  7
ＭＳ ゴシック
 73
     1
 44
1.0
  0
POINT
  5
5015
330
500B
100
AcDbEntity
  8
Defpoints
 62
     0
100
AcDbPoint
 10
1193.775732351491
 20
1537.191964660655
 30
0.0
  0
POINT
  5
5016
330
500B
100
AcDbEntity
  8
Defpoints
 62
     0
100
AcDbPoint
 10
1173.775732351491
 20
1537.191964660655
 30
0.0
  0
POINT
  5
508B
330
500B
100
AcDbEntity
  8
Defpoints
 62
     0
100
AcDbPoint
 10
1173.775732351491
 20
1672.42118731208
 30
0.0
  0
ENDBLK
  5
500D
330
500B
100
AcDbEntity
  8
0
100
AcDbBlockEnd
  0
BLOCK
  5
5058
330
5057
100
AcDbEntity
  8
0
100
AcDbBlockBegin
  2
*D10
 70
     1
 10
0.0
 20
0.0
 30
0.0
  3
*D10
  1
*D31
  0
LINE
  5
505A
330
5057
100
AcDbEntity
  8
Dim
 62
     0
370
    -2
100
AcDbLine
 10
1474.040036263704
 20
1559.191964660655
 30
0.0
 11
1474.040036263704
 21
1672.42118731208
 31
0.0
  0
LINE
  5
505B
330
5057
100
AcDbEntity
  8
Dim
 62
     0
370
    -2
100
AcDbLine
 10
1524.040036263704
 20
1559.191964660655
 30
0.0
 11
1524.040036263704
 21
1672.42118731208
 31
0.0
  0
LINE
  5
505C
330
5057
100
AcDbEntity
  8
Dim
 62
     0
370
    -2
100
AcDbLine
 10
1484.039425912142
 20
1672.42118731208
 30
0.0
 11
1514.040646615267
 21
1672.42118731208
 31
0.0
  0
INSERT
  5
505D
330
5057
100
AcDbEntity
  8
Dim
 62
     0
370
    -2
100
AcDbBlockReference
  2
_DOT
 10
1474.040036263704
 20
1672.42118731208
 30
0.0
 41
9.999389648437498
 42
9.999389648437498
 43
9.999389648437498
 50
180.0
  0
INSERT
  5
505E
330
5057
100
AcDbEntity
  8
Dim
 62
     0
370
    -2
100
AcDbBlockReference
  2
_DOT
 10
1524.040036263704
 20
1672.42118731208
 30
0.0
 41
9.999389648437498
 42
9.999389648437498
 43
9.999389648437498
  0
MTEXT
  5
505F
330
5057
100
AcDbEntity
  8
Dim
 62
     0
100
AcDbMText
 10
1499.040036263704
 20
1694.63749590583
 30
0.0
 40
24.4326171875
 41
0.0
 46
0.0
 71
     5
 72
     1
  1
\A1;50
  7
ＭＳ ゴシック
 73
     1
 44
1.0
  0
POINT
  5
5060
330
5057
100
AcDbEntity
  8
Defpoints
 62
     0
100
AcDbPoint
 10
1474.040036263704
 20
1534.191964660655
 30
0.0
  0
POINT
  5
5061
330
5057
100
AcDbEntity
  8
Defpoints
 62
     0
100
AcDbPoint
 10
1524.040036263704
 20
1534.191964660655
 30
0.0
  0
POINT
  5
5062
330
5057
100
AcDbEntity
  8
Defpoints
 62
     0
100
AcDbPoint
 10
1524.040036263704
 20
1672.42118731208
 30
0.0
  0
ENDBLK
  5
5059
330
5057
100
AcDbEntity
  8
0
100
AcDbBlockEnd
  0
BLOCK
  5
5080
330
507F
100
AcDbEntity
  8
0
100
AcDbBlockBegin
  2
*D11
 70
     1
 10
0.0
 20
0.0
 30
0.0
  3
*D11
  1
*D33
  0
LINE
  5
5082
330
507F
100
AcDbEntity
  8
Dim
 62
     0
370
    -2
100
AcDbLine
 10
1193.775732351491
 20
1431.317205371051
 30
0.0
 11
1193.775732351491
 21
1310.597093863823
 31
0.0
  0
LINE
  5
5083
330
507F
100
AcDbEntity
  8
Dim
 62
     0
370
    -2
100
AcDbLine
 10
253.7757323514907
 20
1431.317205371051
 30
0.0
 11
253.7757323514907
 21
1310.597093863823
 31
0.0
  0
LINE
  5
5084
330
507F
100
AcDbEntity
  8
Dim
 62
     0
370
    -2
100
AcDbLine
 10
1183.776342703053
 20
1310.597093863823
 30
0.0
 11
263.7751219999282
 21
1310.597093863823
 31
0.0
  0
INSERT
  5
5085
330
507F
100
AcDbEntity
  8
Dim
 62
     0
370
    -2
100
AcDbBlockReference
  2
_DOT
 10
1193.775732351491
 20
1310.597093863823
 30
0.0
 41
9.999389648437498
 42
9.999389648437498
 43
9.999389648437498
  0
INSERT
  5
5086
330
507F
100
AcDbEntity
  8
Dim
 62
     0
370
    -2
100
AcDbBlockReference
  2
_DOT
 10
253.7757323514907
 20
1310.597093863823
 30
0.0
 41
9.999389648437498
 42
9.999389648437498
 43
9.999389648437498
 50
180.0
  0
MTEXT
  5
5087
330
507F
100
AcDbEntity
  8
Dim
 62
     0
100
AcDbMText
 10
723.7757323514907
 20
1332.813402457573
 30
0.0
 40
24.4326171875
 41
0.0
 46
0.0
 71
     5
 72
     1
  1
\A1;940
  7
ＭＳ ゴシック
 73
     1
 44
1.0
  0
POINT
  5
5088
330
507F
100
AcDbEntity
  8
Defpoints
 62
     0
100
AcDbPoint
 10
1193.775732351491
 20
1456.317205371051
 30
0.0
  0
POINT
  5
5089
330
507F
100
AcDbEntity
  8
Defpoints
 62
     0
100
AcDbPoint
 10
253.7757323514907
 20
1456.317205371051
 30
0.0
  0
POINT
  5
508A
330
507F
100
AcDbEntity
  8
Defpoints
 62
     0
100
AcDbPoint
 10
253.7757323514907
 20
1310.597093863823
 30
0.0
  0
ENDBLK
  5
5081
330
507F
100
AcDbEntity
  8
0
100
AcDbBlockEnd
  0
BLOCK
  5
50A3
330
50A2
100
AcDbEntity
  8
0
100
AcDbBlockBegin
  2
*D12
 70
     1
 10
0.0
 20
0.0
 30
0.0
  3
*D12
  1
*D34
  0
LINE
  5
50A5
330
50A2
100
AcDbEntity
  8
Dim
 62
     0
370
    -2
100
AcDbLine
 10
1474.040036263704
 20
1424.191964660655
 30
0.0
 11
1474.040036263704
 21
1310.597093863823
 31
0.0
  0
LINE
  5
50A6
330
50A2
100
AcDbEntity
  8
Dim
 62
     0
370
    -2
100
AcDbLine
 10
1494.040036263704
 20
1424.191964660655
 30
0.0
 11
1494.040036263704
 21
1310.597093863823
 31
0.0
  0
LINE
  5
50A7
330
50A2
100
AcDbEntity
  8
Dim
 62
     0
370
    -2
100
AcDbLine
 10
1494.040036263704
 20
1310.597093863823
 30
0.0
 11
1563.064764779329
 21
1310.597093863823
 31
0.0
  0
LINE
  5
50A8
330
50A2
100
AcDbEntity
  8
Dim
 62
     0
370
    -2
100
AcDbLine
 10
1484.039425912142
 20
1310.597093863823
 30
0.0
 11
1484.040646615267
 21
1310.597093863823
 31
0.0
  0
INSERT
  5
50A9
330
50A2
100
AcDbEntity
  8
Dim
 62
     0
370
    -2
100
AcDbBlockReference
  2
_DOT
 10
1474.040036263704
 20
1310.597093863823
 30
0.0
 41
9.999389648437498
 42
9.999389648437498
 43
9.999389648437498
 50
180.0
  0
INSERT
  5
50AA
330
50A2
100
AcDbEntity
  8
Dim
 62
     0
370
    -2
100
AcDbBlockReference
  2
_DOT
 10
1494.040036263704
 20
1310.597093863823
 30
0.0
 41
9.999389648437498
 42
9.999389648437498
 43
9.999389648437498
  0
MTEXT
  5
50AB
330
50A2
100
AcDbEntity
  8
Dim
 62
     0
100
AcDbMText
 10
1538.551790169954
 20
1332.813402457573
 30
0.0
 40
24.4326171875
 41
0.0
 46
0.0
 71
     5
 72
     1
  1
\A1;20
  7
ＭＳ ゴシック
 73
     1
 44
1.0
  0
POINT
  5
50AC
330
50A2
100
AcDbEntity
  8
Defpoints
 62
     0
100
AcDbPoint
 10
1474.040036263704
 20
1449.191964660655
 30
0.0
  0
POINT
  5
50AD
330
50A2
100
AcDbEntity
  8
Defpoints
 62
     0
100
AcDbPoint
 10
1494.040036263704
 20
1449.191964660655
 30
0.0
  0
POINT
  5
50AE
330
50A2
100
AcDbEntity
  8
Defpoints
 62
     0
100
AcDbPoint
 10
1494.040036263704
 20
1310.597093863823
 30
0.0
  0
ENDBLK
  5
50A4
330
50A2
100
AcDbEntity
  8
0
100
AcDbBlockEnd
  0
BLOCK
  5
5170
330
516F
100
AcDbEntity
  8
0
100
AcDbBlockBegin
  2
*D13
 70
     1
 10
0.0
 20
0.0
 30
0.0
  3
*D13
  1

  0
LINE
  5
5171
330
516F
100
AcDbEntity
  8
Dim
 62
     0
 48
0.5
370
    -2
100
AcDbLine
 10
102.2289795867755
 20
926.8211984696657
 30
0.0
 11
102.2289795867755
 21
971.4884215310385
 31
0.0
  0
LINE
  5
5172
330
516F
100
AcDbEntity
  8
Dim
 62
     0
 48
0.5
370
    -2
100
AcDbLine
 10
702.0157977513581
 20
926.8211984696657
 30
0.0
 11
702.0157977513581
 21
971.4884215310385
 31
0.0
  0
LINE
  5
5173
330
516F
100
AcDbEntity
  8
Dim
 62
     0
 48
0.5
370
    -2
100
AcDbLine
 10
105.2289795867755
 20
971.4884215310385
 30
0.0
 11
699.0157977513581
 21
971.4884215310385
 31
0.0
  0
INSERT
  5
5174
330
516F
100
AcDbEntity
  8
Dim
 62
     0
370
    -2
100
AcDbBlockReference
  2
_DOT
 10
102.2289795867755
 20
971.4884215310385
 30
0.0
 41
3.0
 42
3.0
 43
3.0
 50
180.0
  0
INSERT
  5
5175
330
516F
100
AcDbEntity
  8
Dim
 62
     0
370
    -2
100
AcDbBlockReference
  2
_DOT
 10
702.0157977513581
 20
971.4884215310385
 30
0.0
 41
3.0
 42
3.0
 43
3.0
  0
MTEXT
  5
5176
330
516F
100
AcDbEntity
  8
Dim
 62
     0
100
AcDbMText
 10
409.8967296798719
 20
987.4884215310385
 30
0.0
 40
12.0
 41
0.0
 46
0.0
 71
     5
 72
     1
  1
\A1;600
  7
ＭＳ ゴシック
 73
     1
 44
1.0
  0
POINT
  5
5177
330
516F
100
AcDbEntity
  8
Defpoints
 62
     0
100
AcDbPoint
 10
102.2289795867755
 20
916.8211984696657
 30
0.0
  0
POINT
  5
5178
330
516F
100
AcDbEntity
  8
Defpoints
 62
     0
100
AcDbPoint
 10
702.0157977513581
 20
916.8211984696657
 30
0.0
  0
POINT
  5
5179
330
516F
100
AcDbEntity
  8
Defpoints
 62
     0
100
AcDbPoint
 10
702.0157977513581
 20
971.4884215310385
 30
0.0
  0
ENDBLK
  5
517A
330
516F
100
AcDbEntity
  8
0
100
AcDbBlockEnd
  0
BLOCK
  5
517D
330
517C
100
AcDbEntity
  8
0
100
AcDbBlockBegin
  2
*D14
 70
     1
 10
0.0
 20
0.0
 30
0.0
  3
*D14
  1

  0
LINE
  5
517E
330
517C
100
AcDbEntity
  8
Dim
 62
     0
 48
0.5
370
    -2
100
AcDbLine
 10
711.4265832319511
 20
917.8088133332142
 30
0.0
 11
767.6068743999153
 21
917.8088133332142
 31
0.0
  0
LINE
  5
517F
330
517C
100
AcDbEntity
  8
Dim
 62
     0
 48
0.5
370
    -2
100
AcDbLine
 10
711.4265832319511
 20
547.8088133332142
 30
0.0
 11
767.6068743999153
 21
547.8088133332142
 31
0.0
  0
LINE
  5
5180
330
517C
100
AcDbEntity
  8
Dim
 62
     0
 48
0.5
370
    -2
100
AcDbLine
 10
767.6068743999153
 20
914.8088133332142
 30
0.0
 11
767.6068743999153
 21
550.8088133332142
 31
0.0
  0
INSERT
  5
5181
330
517C
100
AcDbEntity
  8
Dim
 62
     0
370
    -2
100
AcDbBlockReference
  2
_DOT
 10
767.6068743999153
 20
917.8088133332142
 30
0.0
 41
3.0
 42
3.0
 43
3.0
 50
90.0
  0
INSERT
  5
5182
330
517C
100
AcDbEntity
  8
Dim
 62
     0
370
    -2
100
AcDbBlockReference
  2
_DOT
 10
767.6068743999153
 20
547.8088133332142
 30
0.0
 41
3.0
 42
3.0
 43
3.0
 50
270.0
  0
MTEXT
  5
5183
330
517C
100
AcDbEntity
  8
Dim
 62
     0
100
AcDbMText
 10
751.6068743999153
 20
741.0412123961466
 30
0.0
 40
12.0
 41
0.0
 46
0.0
 71
     5
 72
     1
  1
\A1;370
  7
ＭＳ ゴシック
 11
0.0
 21
1.0
 31
0.0
 73
     1
 44
1.0
  0
POINT
  5
5184
330
517C
100
AcDbEntity
  8
Defpoints
 62
     0
100
AcDbPoint
 10
701.4265832319511
 20
917.8088133332142
 30
0.0
  0
POINT
  5
5185
330
517C
100
AcDbEntity
  8
Defpoints
 62
     0
100
AcDbPoint
 10
701.4265832319511
 20
547.8088133332142
 30
0.0
  0
POINT
  5
5186
330
517C
100
AcDbEntity
  8
Defpoints
 62
     0
100
AcDbPoint
 10
767.6068743999153
 20
547.8088133332142
 30
0.0
  0
ENDBLK
  5
5187
330
517C
100
AcDbEntity
  8
0
100
AcDbBlockEnd
  0
BLOCK
  5
518A
330
5189
100
AcDbEntity
  8
0
100
AcDbBlockBegin
  2
*D15
 70
     1
 10
0.0
 20
0.0
 30
0.0
  3
*D15
  1

  0
LINE
  5
518B
330
5189
100
AcDbEntity
  8
Dim
 62
     0
370
    -2
100
AcDbLine
 10
171.1080163086981
 20
99.65977515971946
 30
0.0
 11
171.1080163086981
 21
50.06245888920859
 31
0.0
  0
LINE
  5
518C
330
5189
100
AcDbEntity
  8
Dim
 62
     0
370
    -2
100
AcDbLine
 10
634.2354716764703
 20
100.2594328471631
 30
0.0
 11
634.2354716764703
 21
50.06245888920859
 31
0.0
  0
LINE
  5
518D
330
5189
100
AcDbEntity
  8
Dim
 62
     0
370
    -2
100
AcDbLine
 10
174.1080163086981
 20
50.06245888920859
 30
0.0
 11
631.2354716764703
 21
50.06245888920859
 31
0.0
  0
INSERT
  5
518E
330
5189
100
AcDbEntity
  8
Dim
 62
     0
370
    -2
100
AcDbBlockReference
  2
_DOT
 10
171.1080163086981
 20
50.06245888920859
 30
0.0
 41
3.0
 42
3.0
 43
3.0
 50
180.0
  0
INSERT
  5
518F
330
5189
100
AcDbEntity
  8
Dim
 62
     0
370
    -2
100
AcDbBlockReference
  2
_DOT
 10
634.2354716764703
 20
50.06245888920859
 30
0.0
 41
3.0
 42
3.0
 43
3.0
  0
MTEXT
  5
5190
330
5189
100
AcDbEntity
  8
Dim
 62
     0
100
AcDbMText
 10
402.6717439925842
 20
66.06245888920859
 30
0.0
 40
12.0
 41
0.0
 46
0.0
 71
     5
 72
     1
  1
\A1;460
  7
ＭＳ ゴシック
 73
     1
 44
1.0
  0
POINT
  5
5191
330
5189
100
AcDbEntity
  8
Defpoints
 62
     0
100
AcDbPoint
 10
171.1080163086981
 20
109.6597751597195
 30
0.0
  0
POINT
  5
5192
330
5189
100
AcDbEntity
  8
Defpoints
 62
     0
100
AcDbPoint
 10
634.2354716764703
 20
110.2594328471631
 30
0.0
  0
POINT
  5
5193
330
5189
100
AcDbEntity
  8
Defpoints
 62
     0
100
AcDbPoint
 10
634.2354716764703
 20
50.06245888920859
 30
0.0
  0
ENDBLK
  5
5194
330
5189
100
AcDbEntity
  8
0
100
AcDbBlockEnd
  0
BLOCK
  5
519A
330
5199
100
AcDbEntity
  8
0
100
AcDbBlockBegin
  2
*D16
 70
     1
 10
0.0
 20
0.0
 30
0.0
  3
*D16
  1

  0
LINE
  5
519B
330
5199
100
AcDbEntity
  8
Dim
 62
     0
 48
0.5
370
    -2
100
AcDbLine
 10
108.6597421610286
 20
544.293425379251
 30
0.0
 11
108.6597421610286
 21
485.7800598009374
 31
0.0
  0
LINE
  5
519C
330
5199
100
AcDbEntity
  8
Dim
 62
     0
 48
0.5
370
    -2
100
AcDbLine
 10
695.5840280497005
 20
540.894011316751
 30
0.0
 11
695.5840280497005
 21
485.7800598009374
 31
0.0
  0
LINE
  5
519D
330
5199
100
AcDbEntity
  8
Dim
 62
     0
 48
0.5
370
    -2
100
AcDbLine
 10
111.6597421610286
 20
485.7800598009374
 30
0.0
 11
692.5840280497005
 21
485.7800598009374
 31
0.0
  0
INSERT
  5
519E
330
5199
100
AcDbEntity
  8
Dim
 62
     0
370
    -2
100
AcDbBlockReference
  2
_DOT
 10
108.6597421610286
 20
485.7800598009374
 30
0.0
 41
3.0
 42
3.0
 43
3.0
 50
180.0
  0
INSERT
  5
519F
330
5199
100
AcDbEntity
  8
Dim
 62
     0
370
    -2
100
AcDbBlockReference
  2
_DOT
 10
695.5840280497005
 20
485.7800598009374
 30
0.0
 41
3.0
 42
3.0
 43
3.0
  0
MTEXT
  5
51A0
330
5199
100
AcDbEntity
  8
Dim
 62
     0
100
AcDbMText
 10
402.1218851053645
 20
501.7800598009374
 30
0.0
 40
12.0
 41
0.0
 46
0.0
 71
     5
 72
     1
  1
\A1;585
  7
ＭＳ ゴシック
 73
     1
 44
1.0
  0
POINT
  5
51A1
330
5199
100
AcDbEntity
  8
Defpoints
 62
     0
100
AcDbPoint
 10
108.6597421610286
 20
554.293425379251
 30
0.0
  0
POINT
  5
51A2
330
5199
100
AcDbEntity
  8
Defpoints
 62
     0
100
AcDbPoint
 10
695.5840280497005
 20
550.894011316751
 30
0.0
  0
POINT
  5
51A3
330
5199
100
AcDbEntity
  8
Defpoints
 62
     0
100
AcDbPoint
 10
695.5840280497005
 20
485.7800598009374
 30
0.0
  0
ENDBLK
  5
51A4
330
5199
100
AcDbEntity
  8
0
100
AcDbBlockEnd
  0
BLOCK
  5
51A7
330
51A6
100
AcDbEntity
  8
0
100
AcDbBlockBegin
  2
*D17
 70
     1
 10
0.0
 20
0.0
 30
0.0
  3
*D17
  1

  0
LINE
  5
51A8
330
51A6
100
AcDbEntity
  8
Dim
 62
     0
370
    -2
100
AcDbLine
 10
124.2289640728968
 20
176.3944313125618
 30
0.0
 11
124.2289640728968
 21
1.499999999999943
 31
0.0
  0
LINE
  5
51A9
330
51A6
100
AcDbEntity
  8
Dim
 62
     0
370
    -2
100
AcDbLine
 10
680.015810864822
 20
176.3944313125618
 30
0.0
 11
680.015810864822
 21
1.499999999999943
 31
0.0
  0
LINE
  5
51AA
330
51A6
100
AcDbEntity
  8
Dim
 62
     0
370
    -2
100
AcDbLine
 10
127.2289640728968
 20
1.499999999999943
 30
0.0
 11
677.015810864822
 21
1.499999999999943
 31
0.0
  0
INSERT
  5
51AB
330
51A6
100
AcDbEntity
  8
Dim
 62
     0
370
    -2
100
AcDbBlockReference
  2
_DOT
 10
124.2289640728968
 20
1.499999999999943
 30
0.0
 41
3.0
 42
3.0
 43
3.0
 50
180.0
  0
INSERT
  5
51AC
330
51A6
100
AcDbEntity
  8
Dim
 62
     0
370
    -2
100
AcDbBlockReference
  2
_DOT
 10
680.015810864822
 20
1.499999999999943
 30
0.0
 41
3.0
 42
3.0
 43
3.0
  0
MTEXT
  5
51AD
330
51A6
100
AcDbEntity
  8
Dim
 62
     0
100
AcDbMText
 10
402.1223874688594
 20
17.49999999999994
 30
0.0
 40
12.0
 41
0.0
 46
0.0
 71
     5
 72
     1
  1
\A1;555
  7
ＭＳ ゴシック
 73
     1
 44
1.0
  0
POINT
  5
51AE
330
51A6
100
AcDbEntity
  8
Defpoints
 62
     0
100
AcDbPoint
 10
124.2289640728968
 20
186.3944313125618
 30
0.0
  0
POINT
  5
51AF
330
51A6
100
AcDbEntity
  8
Defpoints
 62
     0
100
AcDbPoint
 10
680.015810864822
 20
186.3944313125618
 30
0.0
  0
POINT
  5
51B0
330
51A6
100
AcDbEntity
  8
Defpoints
 62
     0
100
AcDbPoint
 10
680.015810864822
 20
1.499999999999943
 30
0.0
  0
ENDBLK
  5
51B1
330
51A6
100
AcDbEntity
  8
0
100
AcDbBlockEnd
  0
BLOCK
  5
51B4
330
51B3
100
AcDbEntity
  8
0
100
AcDbBlockBegin
  2
*D18
 70
     1
 10
0.0
 20
0.0
 30
0.0
  3
*D18
  1

  0
LINE
  5
51B5
330
51B3
100
AcDbEntity
  8
Dim
 62
     0
370
    -2
100
AcDbLine
 10
1255.728088438003
 20
95.29816429379093
 30
0.0
 11
1255.728088438003
 21
50.06245888920859
 31
0.0
  0
LINE
  5
51B6
330
51B3
100
AcDbEntity
  8
Dim
 62
     0
370
    -2
100
AcDbLine
 10
1023.699348990421
 20
95.29816429379093
 30
0.0
 11
1023.699348990421
 21
50.06245888920859
 31
0.0
  0
LINE
  5
51B7
330
51B3
100
AcDbEntity
  8
Dim
 62
     0
370
    -2
100
AcDbLine
 10
1252.728088438003
 20
50.06245888920859
 30
0.0
 11
1026.699348990421
 21
50.06245888920859
 31
0.0
  0
INSERT
  5
51B8
330
51B3
100
AcDbEntity
  8
Dim
 62
     0
370
    -2
100
AcDbBlockReference
  2
_DOT
 10
1255.728088438003
 20
50.06245888920859
 30
0.0
 41
3.0
 42
3.0
 43
3.0
  0
INSERT
  5
51B9
330
51B3
100
AcDbEntity
  8
Dim
 62
     0
370
    -2
100
AcDbBlockReference
  2
_DOT
 10
1023.699348990421
 20
50.06245888920859
 30
0.0
 41
3.0
 42
3.0
 43
3.0
 50
180.0
  0
MTEXT
  5
51BA
330
51B3
100
AcDbEntity
  8
Dim
 62
     0
100
AcDbMText
 10
1139.713718714212
 20
66.06245888920859
 30
0.0
 40
12.0
 41
0.0
 46
0.0
 71
     5
 72
     1
  1
\A1;230
  7
ＭＳ ゴシック
 73
     1
 44
1.0
  0
POINT
  5
51BB
330
51B3
100
AcDbEntity
  8
Defpoints
 62
     0
100
AcDbPoint
 10
1255.728088438003
 20
105.2981642937909
 30
0.0
  0
POINT
  5
51BC
330
51B3
100
AcDbEntity
  8
Defpoints
 62
     0
100
AcDbPoint
 10
1023.699348990421
 20
105.2981642937909
 30
0.0
  0
POINT
  5
51BD
330
51B3
100
AcDbEntity
  8
Defpoints
 62
     0
100
AcDbPoint
 10
1023.699348990421
 20
50.06245888920859
 30
0.0
  0
ENDBLK
  5
51BE
330
51B3
100
AcDbEntity
  8
0
100
AcDbBlockEnd
  0
BLOCK
  5
51CA
330
51C9
100
AcDbEntity
  8
0
100
AcDbBlockBegin
  2
*D19
 70
     1
 10
0.0
 20
0.0
 30
0.0
  3
*D19
  1

  0
LINE
  5
51CB
330
51C9
100
AcDbEntity
  8
Dim
 62
     0
 48
0.5
370
    -2
100
AcDbLine
 10
649.5620901631901
 20
109.723471400628
 30
0.0
 11
751.1546283416811
 21
109.7234714006281
 31
0.0
  0
LINE
  5
51CC
330
51C9
100
AcDbEntity
  8
Dim
 62
     0
 48
0.5
370
    -2
100
AcDbLine
 10
711.6716538672158
 20
279.723559893442
 30
0.0
 11
751.154628341681
 21
279.723559893442
 31
0.0
  0
LINE
  5
51CD
330
51C9
100
AcDbEntity
  8
Dim
 62
     0
 48
0.5
370
    -2
100
AcDbLine
 10
751.1546283416811
 20
112.7234714006281
 30
0.0
 11
751.154628341681
 21
276.723559893442
 31
0.0
  0
INSERT
  5
51CE
330
51C9
100
AcDbEntity
  8
Dim
 62
     0
370
    -2
100
AcDbBlockReference
  2
_DOT
 10
751.1546283416811
 20
109.7234714006281
 30
0.0
 41
3.0
 42
3.0
 43
3.0
 50
270.0000000000001
  0
INSERT
  5
51CF
330
51C9
100
AcDbEntity
  8
Dim
 62
     0
370
    -2
100
AcDbBlockReference
  2
_DOT
 10
751.154628341681
 20
279.723559893442
 30
0.0
 41
3.0
 42
3.0
 43
3.0
 50
90.00000000000004
  0
MTEXT
  5
51D0
330
51C9
100
AcDbEntity
  8
Dim
 62
     0
100
AcDbMText
 10
735.154628341681
 20
194.723515647035
 30
0.0
 40
12.0
 41
0.0
 46
0.0
 71
     5
 72
     1
  1
\A1;170
  7
ＭＳ ゴシック
 11
-6.687457561318955E-16
 21
1.0
 31
0.0
 73
     1
 44
1.0
  0
POINT
  5
51D1
330
51C9
100
AcDbEntity
  8
Defpoints
 62
     0
100
AcDbPoint
 10
639.5620901631901
 20
109.723471400628
 30
0.0
  0
POINT
  5
51D2
330
51C9
100
AcDbEntity
  8
Defpoints
 62
     0
100
AcDbPoint
 10
701.6716538672158
 20
279.723559893442
 30
0.0
  0
POINT
  5
51D3
330
51C9
100
AcDbEntity
  8
Defpoints
 62
     0
100
AcDbPoint
 10
751.154628341681
 20
279.723559893442
 30
0.0
  0
ENDBLK
  5
51D4
330
51C9
100
AcDbEntity
  8
0
100
AcDbBlockEnd
  0
BLOCK
  5
51D7
330
51D6
100
AcDbEntity
  8
0
100
AcDbBlockBegin
  2
*D20
 70
     1
 10
0.0
 20
0.0
 30
0.0
  3
*D20
  1

  0
LINE
  5
51D8
330
51D6
100
AcDbEntity
  8
Dim
 62
     0
 48
0.5
370
    -2
100
AcDbLine
 10
1008.910719260931
 20
109.7235504169693
 30
0.0
 11
902.9321409725858
 21
109.7235504169692
 31
0.0
  0
LINE
  5
51D9
330
51D6
100
AcDbEntity
  8
Dim
 62
     0
 48
0.5
370
    -2
100
AcDbLine
 10
944.3512150905717
 20
194.7235523904964
 30
0.0
 11
902.9321409725858
 21
194.7235523904963
 31
0.0
  0
LINE
  5
51DA
330
51D6
100
AcDbEntity
  8
Dim
 62
     0
 48
0.5
370
    -2
100
AcDbLine
 10
902.9321409725858
 20
112.7235504169692
 30
0.0
 11
902.9321409725858
 21
191.7235523904963
 31
0.0
  0
INSERT
  5
51DB
330
51D6
100
AcDbEntity
  8
Dim
 62
     0
370
    -2
100
AcDbBlockReference
  2
_DOT
 10
902.9321409725858
 20
109.7235504169692
 30
0.0
 41
3.0
 42
3.0
 43
3.0
 50
270.0
  0
INSERT
  5
51DC
330
51D6
100
AcDbEntity
  8
Dim
 62
     0
370
    -2
100
AcDbBlockReference
  2
_DOT
 10
902.9321409725858
 20
194.7235523904963
 30
0.0
 41
3.0
 42
3.0
 43
3.0
 50
90.0
  0
MTEXT
  5
51DD
330
51D6
100
AcDbEntity
  8
Dim
 62
     0
100
AcDbMText
 10
886.9321409725858
 20
152.2235514037328
 30
0.0
 40
12.0
 41
0.0
 46
0.0
 71
     5
 72
     1
  1
\A1;85
  7
ＭＳ ゴシック
 11
0.0
 21
1.0
 31
0.0
 73
     1
 44
1.0
  0
POINT
  5
51DE
330
51D6
100
AcDbEntity
  8
Defpoints
 62
     0
100
AcDbPoint
 10
1018.910719260931
 20
109.7235504169693
 30
0.0
  0
POINT
  5
51DF
330
51D6
100
AcDbEntity
  8
Defpoints
 62
     0
100
AcDbPoint
 10
954.3512150905717
 20
194.7235523904964
 30
0.0
  0
POINT
  5
51E0
330
51D6
100
AcDbEntity
  8
Defpoints
 62
     0
100
AcDbPoint
 10
902.9321409725858
 20
194.7235523904963
 30
0.0
  0
ENDBLK
  5
51E1
330
51D6
100
AcDbEntity
  8
0
100
AcDbBlockEnd
  0
BLOCK
  5
51E4
330
51E3
100
AcDbEntity
  8
0
100
AcDbBlockBegin
  2
*D21
 70
     1
 10
0.0
 20
0.0
 30
0.0
  3
*D21
  1

  0
LINE
  5
51E5
330
51E3
100
AcDbEntity
  8
Dim
 62
     0
 48
0.5
370
    -2
100
AcDbLine
 10
944.3512150905717
 20
194.7235523904964
 30
0.0
 11
902.9321409725858
 21
194.7235523904963
 31
0.0
  0
LINE
  5
51E6
330
51E3
100
AcDbEntity
  8
Dim
 62
     0
 48
0.5
370
    -2
100
AcDbLine
 10
937.495338541507
 20
279.2875781176298
 30
0.0
 11
902.9321409725858
 21
279.2875781176298
 31
0.0
  0
LINE
  5
51E7
330
51E3
100
AcDbEntity
  8
Dim
 62
     0
 48
0.5
370
    -2
100
AcDbLine
 10
902.9321409725858
 20
197.7235523904963
 30
0.0
 11
902.9321409725858
 21
276.2875781176298
 31
0.0
  0
INSERT
  5
51E8
330
51E3
100
AcDbEntity
  8
Dim
 62
     0
370
    -2
100
AcDbBlockReference
  2
_DOT
 10
902.9321409725858
 20
194.7235523904963
 30
0.0
 41
3.0
 42
3.0
 43
3.0
 50
270.0
  0
INSERT
  5
51E9
330
51E3
100
AcDbEntity
  8
Dim
 62
     0
370
    -2
100
AcDbBlockReference
  2
_DOT
 10
902.9321409725858
 20
279.2875781176298
 30
0.0
 41
3.0
 42
3.0
 43
3.0
 50
90.0
  0
MTEXT
  5
51EA
330
51E3
100
AcDbEntity
  8
Dim
 62
     0
100
AcDbMText
 10
886.9321409725858
 20
237.0055652540631
 30
0.0
 40
12.0
 41
0.0
 46
0.0
 71
     5
 72
     1
  1
\A1;85
  7
ＭＳ ゴシック
 11
0.0
 21
1.0
 31
0.0
 73
     1
 44
1.0
  0
POINT
  5
51EB
330
51E3
100
AcDbEntity
  8
Defpoints
 62
     0
100
AcDbPoint
 10
954.3512150905717
 20
194.7235523904964
 30
0.0
  0
POINT
  5
51EC
330
51E3
100
AcDbEntity
  8
Defpoints
 62
     0
100
AcDbPoint
 10
947.495338541507
 20
279.2875781176298
 30
0.0
  0
POINT
  5
51ED
330
51E3
100
AcDbEntity
  8
Defpoints
 62
     0
100
AcDbPoint
 10
902.9321409725858
 20
279.2875781176298
 30
0.0
  0
ENDBLK
  5
51EE
330
51E3
100
AcDbEntity
  8
0
100
AcDbBlockEnd
  0
BLOCK
  5
5202
330
5201
100
AcDbEntity
  8
0
100
AcDbBlockBegin
  2
*D22
 70
     1
 10
0.0
 20
0.0
 30
0.0
  3
*D22
  1

  0
LINE
  5
5203
330
5201
100
AcDbEntity
  8
Dim
 62
     0
370
    -2
100
AcDbLine
 10
1521.230194922983
 20
899.2570681993079
 30
0.0
 11
1564.716988166899
 21
899.2570681993079
 31
0.0
  0
LINE
  5
5204
330
5201
100
AcDbEntity
  8
Dim
 62
     0
370
    -2
100
AcDbLine
 10
1521.230194922985
 20
568.8951543095457
 30
0.0
 11
1564.716988166899
 21
568.8951543095457
 31
0.0
  0
LINE
  5
5205
330
5201
100
AcDbEntity
  8
Dim
 62
     0
370
    -2
100
AcDbLine
 10
1564.716988166899
 20
896.2570681993079
 30
0.0
 11
1564.716988166899
 21
571.8951543095457
 31
0.0
  0
INSERT
  5
5206
330
5201
100
AcDbEntity
  8
Dim
 62
     0
370
    -2
100
AcDbBlockReference
  2
_DOT
 10
1564.716988166899
 20
899.2570681993079
 30
0.0
 41
3.0
 42
3.0
 43
3.0
 50
90.0
  0
INSERT
  5
5207
330
5201
100
AcDbEntity
  8
Dim
 62
     0
370
    -2
100
AcDbBlockReference
  2
_DOT
 10
1564.716988166899
 20
568.8951543095457
 30
0.0
 41
3.0
 42
3.0
 43
3.0
 50
270.0
  0
MTEXT
  5
5208
330
5201
100
AcDbEntity
  8
Dim
 62
     0
100
AcDbMText
 10
1548.716988166899
 20
734.0761112544268
 30
0.0
 40
12.0
 41
0.0
 46
0.0
 71
     5
 72
     1
  1
\A1;330
  7
ＭＳ ゴシック
 11
0.0
 21
1.0
 31
0.0
 73
     1
 44
1.0
  0
POINT
  5
5209
330
5201
100
AcDbEntity
  8
Defpoints
 62
     0
100
AcDbPoint
 10
1511.230194922983
 20
899.2570681993079
 30
0.0
  0
POINT
  5
520A
330
5201
100
AcDbEntity
  8
Defpoints
 62
     0
100
AcDbPoint
 10
1511.230194922985
 20
568.8951543095457
 30
0.0
  0
POINT
  5
520B
330
5201
100
AcDbEntity
  8
Defpoints
 62
     0
100
AcDbPoint
 10
1564.716988166899
 20
568.8951543095457
 30
0.0
  0
ENDBLK
  5
520C
330
5201
100
AcDbEntity
  8
0
100
AcDbBlockEnd
  0
BLOCK
  5
520F
330
520E
100
AcDbEntity
  8
0
100
AcDbBlockBegin
  2
*D23
 70
     1
 10
0.0
 20
0.0
 30
0.0
  3
*D23
  1

  0
LINE
  5
5210
330
520E
100
AcDbEntity
  8
Dim
 62
     0
370
    -2
100
AcDbLine
 10
938.2873916942367
 20
554.4321453105332
 30
0.0
 11
938.2873916942367
 21
489.8442542054495
 31
0.0
  0
LINE
  5
5211
330
520E
100
AcDbEntity
  8
Dim
 62
     0
370
    -2
100
AcDbLine
 10
1473.074297168228
 20
554.4321453105332
 30
0.0
 11
1473.074297168228
 21
489.8442542054495
 31
0.0
  0
LINE
  5
5212
330
520E
100
AcDbEntity
  8
Dim
 62
     0
370
    -2
100
AcDbLine
 10
941.2873916942367
 20
489.8442542054495
 30
0.0
 11
1470.074297168228
 21
489.8442542054495
 31
0.0
  0
INSERT
  5
5213
330
520E
100
AcDbEntity
  8
Dim
 62
     0
370
    -2
100
AcDbBlockReference
  2
_DOT
 10
938.2873916942367
 20
489.8442542054495
 30
0.0
 41
3.0
 42
3.0
 43
3.0
 50
180.0
  0
INSERT
  5
5214
330
520E
100
AcDbEntity
  8
Dim
 62
     0
370
    -2
100
AcDbBlockReference
  2
_DOT
 10
1473.074297168228
 20
489.8442542054495
 30
0.0
 41
3.0
 42
3.0
 43
3.0
  0
MTEXT
  5
5215
330
520E
100
AcDbEntity
  8
Dim
 62
     0
100
AcDbMText
 10
1205.680844431232
 20
505.8442542054495
 30
0.0
 40
12.0
 41
0.0
 46
0.0
 71
     5
 72
     1
  1
\A1;535
  7
ＭＳ ゴシック
 73
     1
 44
1.0
  0
POINT
  5
5216
330
520E
100
AcDbEntity
  8
Defpoints
 62
     0
100
AcDbPoint
 10
938.2873916942367
 20
564.4321453105332
 30
0.0
  0
POINT
  5
5217
330
520E
100
AcDbEntity
  8
Defpoints
 62
     0
100
AcDbPoint
 10
1473.074297168228
 20
564.4321453105332
 30
0.0
  0
POINT
  5
5218
330
520E
100
AcDbEntity
  8
Defpoints
 62
     0
100
AcDbPoint
 10
1473.074297168228
 20
489.8442542054495
 30
0.0
  0
ENDBLK
  5
5219
330
520E
100
AcDbEntity
  8
0
100
AcDbBlockEnd
  0
BLOCK
  5
5223
330
5222
100
AcDbEntity
  8
0
100
AcDbBlockBegin
  2
*D24
 70
     1
 10
0.0
 20
0.0
 30
0.0
  3
*D24
  1

  0
LINE
  5
5224
330
5222
100
AcDbEntity
  8
Dim
 62
     0
370
    -2
100
AcDbLine
 10
103.4338035218311
 20
911.1259520050892
 30
0.0
 11
22.00000000000002
 21
911.1259520050892
 31
0.0
  0
LINE
  5
5225
330
5222
100
AcDbEntity
  8
Dim
 62
     0
370
    -2
100
AcDbLine
 10
103.4338035218311
 20
556.1259520050892
 30
0.0
 11
22.0
 21
556.1259520050892
 31
0.0
  0
LINE
  5
5226
330
5222
100
AcDbEntity
  8
Dim
 62
     0
370
    -2
100
AcDbLine
 10
22.00000000000002
 20
908.1259520050892
 30
0.0
 11
22.0
 21
559.1259520050892
 31
0.0
  0
INSERT
  5
5227
330
5222
100
AcDbEntity
  8
Dim
 62
     0
370
    -2
100
AcDbBlockReference
  2
_DOT
 10
22.00000000000002
 20
911.1259520050892
 30
0.0
 41
3.0
 42
3.0
 43
3.0
 50
90.0
  0
INSERT
  5
5228
330
5222
100
AcDbEntity
  8
Dim
 62
     0
370
    -2
100
AcDbBlockReference
  2
_DOT
 10
22.0
 20
556.1259520050892
 30
0.0
 41
3.0
 42
3.0
 43
3.0
 50
270.0
  0
MTEXT
  5
5229
330
5222
100
AcDbEntity
  8
Dim
 62
     0
100
AcDbMText
 10
6.000000000000011
 20
733.6259520050892
 30
0.0
 40
12.0
 41
0.0
 46
0.0
 71
     5
 72
     1
  1
\A1;355
  7
ＭＳ ゴシック
 11
6.004586499381128E-17
 21
1.0
 31
0.0
 73
     1
 44
1.0
  0
POINT
  5
522A
330
5222
100
AcDbEntity
  8
Defpoints
 62
     0
100
AcDbPoint
 10
113.4338035218311
 20
911.1259520050892
 30
0.0
  0
POINT
  5
522B
330
5222
100
AcDbEntity
  8
Defpoints
 62
     0
100
AcDbPoint
 10
113.4338035218311
 20
556.1259520050892
 30
0.0
  0
POINT
  5
522C
330
5222
100
AcDbEntity
  8
Defpoints
 62
     0
100
AcDbPoint
 10
22.0
 20
556.1259520050892
 30
0.0
  0
ENDBLK
  5
522D
330
5222
100
AcDbEntity
  8
0
100
AcDbBlockEnd
  0
BLOCK
  5
5237
330
5236
100
AcDbEntity
  8
0
100
AcDbBlockBegin
  2
*D25
 70
     1
 10
0.0
 20
0.0
 30
0.0
  3
*D25
  1

  0
LINE
  5
5238
330
5236
100
AcDbEntity
  8
Dim
 62
     0
370
    -2
100
AcDbLine
 10
1149.713125840555
 20
160.7582475197631
 30
0.0
 11
1139.713717041148
 21
160.7582475197631
 31
0.0
  0
LINE
  5
5239
330
5236
100
AcDbEntity
  8
Dim
 62
     0
370
    -2
100
AcDbLine
 10
1149.713717041148
 20
279.7235490876427
 30
0.0
 11
1139.713717041148
 21
279.7235490876427
 31
0.0
  0
LINE
  5
523A
330
5236
100
AcDbEntity
  8
Dim
 62
     0
370
    -2
100
AcDbLine
 10
1139.713717041148
 20
160.7582475197631
 30
0.0
 11
1139.713717041148
 21
363.6715490876428
 31
0.0
  0
LINE
  5
523B
330
5236
100
AcDbEntity
  8
Dim
 62
     0
370
    -2
100
AcDbLine
 10
1139.713717041148
 20
160.7582475197631
 30
0.0
 11
1139.713717041148
 21
157.7582475197631
 31
0.0
  0
LINE
  5
523C
330
5236
100
AcDbEntity
  8
Dim
 62
     0
370
    -2
100
AcDbLine
 10
1139.713717041148
 20
276.7235490876427
 30
0.0
 11
1139.713717041148
 21
273.7235490876427
 31
0.0
  0
INSERT
  5
523D
330
5236
100
AcDbEntity
  8
Dim
 62
     0
370
    -2
100
AcDbBlockReference
  2
_DOT
 10
1139.713717041148
 20
160.7582475197631
 30
0.0
 41
3.0
 42
3.0
 43
3.0
 50
270.0
  0
INSERT
  5
523E
330
5236
100
AcDbEntity
  8
Dim
 62
     0
370
    -2
100
AcDbBlockReference
  2
_DOT
 10
1139.713717041148
 20
279.7235490876427
 30
0.0
 41
3.0
 42
3.0
 43
3.0
 50
90.0
  0
MTEXT
  5
523F
330
5236
100
AcDbEntity
  8
Dim
 62
     0
100
AcDbMText
 10
1122.651717041148
 20
324.6975490876429
 30
0.0
 40
12.0
 41
0.0
 46
0.0
 71
     5
 72
     1
  1
\A1;? (深さ)
  7
ＭＳ ゴシック
 11
0.0
 21
1.0
 31
0.0
 73
     1
 44
1.0
  0
POINT
  5
5240
330
5236
100
AcDbEntity
  8
Defpoints
 62
     0
100
AcDbPoint
 10
1139.713125840555
 20
160.7582475197631
 30
0.0
  0
POINT
  5
5241
330
5236
100
AcDbEntity
  8
Defpoints
 62
     0
100
AcDbPoint
 10
1139.713717041148
 20
279.7235490876427
 30
0.0
  0
POINT
  5
5242
330
5236
100
AcDbEntity
  8
Defpoints
 62
     0
100
AcDbPoint
 10
1139.713717041148
 20
279.7235490876427
 30
0.0
  0
ENDBLK
  5
5243
330
5236
100
AcDbEntity
  8
0
100
AcDbBlockEnd
  0
BLOCK
  5
52F3
330
52F2
100
AcDbEntity
  8
0
100
AcDbBlockBegin
  2
*D26
 70
     1
 10
0.0
 20
0.0
 30
0.0
  3
*D26
  1

  0
LINE
  5
52F5
330
52F2
100
AcDbEntity
  8
Dim
 62
     0
 48
0.5
370
    -2
100
AcDbLine
 10
323.6576171767037
 20
2224.134723649522
 30
0.0
 11
323.6576171767037
 21
2279.621486462223
 31
0.0
  0
LINE
  5
52F6
330
52F2
100
AcDbEntity
  8
Dim
 62
     0
 48
0.5
370
    -2
100
AcDbLine
 10
923.4444353412864
 20
2224.134723649522
 30
0.0
 11
923.4444353412864
 21
2279.621486462223
 31
0.0
  0
LINE
  5
52F7
330
52F2
100
AcDbEntity
  8
Dim
 62
     0
 48
0.5
370
    -2
100
AcDbLine
 10
333.6570068251412
 20
2279.621486462223
 30
0.0
 11
913.4450456928489
 21
2279.621486462223
 31
0.0
  0
INSERT
  5
52F8
330
52F2
100
AcDbEntity
  8
Dim
 62
     0
370
    -2
100
AcDbBlockReference
  2
_DOT
 10
323.6576171767037
 20
2279.621486462223
 30
0.0
 41
9.999389648437498
 42
9.999389648437498
 43
9.999389648437498
 50
180.0
  0
INSERT
  5
52F9
330
52F2
100
AcDbEntity
  8
Dim
 62
     0
370
    -2
100
AcDbBlockReference
  2
_DOT
 10
923.4444353412864
 20
2279.621486462223
 30
0.0
 41
9.999389648437498
 42
9.999389648437498
 43
9.999389648437498
  0
MTEXT
  5
52FA
330
52F2
100
AcDbEntity
  8
Dim
 62
     0
100
AcDbMText
 10
631.3253672698002
 20
2301.837795055973
 30
0.0
 40
24.4326171875
 41
0.0
 46
0.0
 71
     5
 72
     1
  1
\A1;600
  7
ＭＳ ゴシック
 73
     1
 44
1.0
  0
POINT
  5
52FB
330
52F2
100
AcDbEntity
  8
Defpoints
 62
     0
100
AcDbPoint
 10
323.6576171767037
 20
2199.134723649522
 30
0.0
  0
POINT
  5
52FC
330
52F2
100
AcDbEntity
  8
Defpoints
 62
     0
100
AcDbPoint
 10
923.4444353412864
 20
2199.134723649522
 30
0.0
  0
POINT
  5
52FD
330
52F2
100
AcDbEntity
  8
Defpoints
 62
     0
100
AcDbPoint
 10
923.4444353412864
 20
2279.621486462223
 30
0.0
  0
ENDBLK
  5
52F4
330
52F2
100
AcDbEntity
  8
0
100
AcDbBlockEnd
  0
BLOCK
  5
52FF
330
52FE
100
AcDbEntity
  8
0
100
AcDbBlockBegin
  2
*D27
 70
     1
 10
0.0
 20
0.0
 30
0.0
  3
*D27
  1

  0
LINE
  5
5301
330
52FE
100
AcDbEntity
  8
Dim
 62
     0
 48
0.5
370
    -2
100
AcDbLine
 10
947.8552208218794
 20
2200.12233851307
 30
0.0
 11
1019.227942069547
 21
2200.12233851307
 31
0.0
  0
LINE
  5
5302
330
52FE
100
AcDbEntity
  8
Dim
 62
     0
 48
0.5
370
    -2
100
AcDbLine
 10
947.8552208218794
 20
1830.12233851307
 30
0.0
 11
1019.227942069547
 21
1830.12233851307
 31
0.0
  0
LINE
  5
5303
330
52FE
100
AcDbEntity
  8
Dim
 62
     0
 48
0.5
370
    -2
100
AcDbLine
 10
1019.227942069547
 20
2190.122948864633
 30
0.0
 11
1019.227942069547
 21
1840.121728161507
 31
0.0
  0
INSERT
  5
5304
330
52FE
100
AcDbEntity
  8
Dim
 62
     0
370
    -2
100
AcDbBlockReference
  2
_DOT
 10
1019.227942069547
 20
2200.12233851307
 30
0.0
 41
9.999389648437498
 42
9.999389648437498
 43
9.999389648437498
 50
90.0
  0
INSERT
  5
5305
330
52FE
100
AcDbEntity
  8
Dim
 62
     0
370
    -2
100
AcDbBlockReference
  2
_DOT
 10
1019.227942069547
 20
1830.12233851307
 30
0.0
 41
9.999389648437498
 42
9.999389648437498
 43
9.999389648437498
 50
270.0
  0
MTEXT
  5
5306
330
52FE
100
AcDbEntity
  8
Dim
 62
     0
100
AcDbMText
 10
997.011633475797
 20
2023.354737576002
 30
0.0
 40
24.4326171875
 41
0.0
 46
0.0
 71
     5
 72
     1
  1
\A1;370
  7
ＭＳ ゴシック
 11
0.0
 21
1.0
 31
0.0
 73
     1
 44
1.0
  0
POINT
  5
5307
330
52FE
100
AcDbEntity
  8
Defpoints
 62
     0
100
AcDbPoint
 10
922.8552208218794
 20
2200.12233851307
 30
0.0
  0
POINT
  5
5308
330
52FE
100
AcDbEntity
  8
Defpoints
 62
     0
100
AcDbPoint
 10
922.8552208218794
 20
1830.12233851307
 30
0.0
  0
POINT
  5
5309
330
52FE
100
AcDbEntity
  8
Defpoints
 62
     0
100
AcDbPoint
 10
1019.227942069547
 20
1830.12233851307
 30
0.0
  0
ENDBLK
  5
5300
330
52FE
100
AcDbEntity
  8
0
100
AcDbBlockEnd
  0
BLOCK
  5
530B
330
530A
100
AcDbEntity
  8
0
100
AcDbBlockBegin
  2
*D28
 70
     1
 10
0.0
 20
0.0
 30
0.0
  3
*D28
  1

  0
LINE
  5
530D
330
530A
100
AcDbEntity
  8
Dim
 62
     0
370
    -2
100
AcDbLine
 10
362.4147788986265
 20
952.8826528575612
 30
0.0
 11
362.4147788986265
 21
898.3799749709356
 31
0.0
  0
LINE
  5
530E
330
530A
100
AcDbEntity
  8
Dim
 62
     0
370
    -2
100
AcDbLine
 10
825.5422342663987
 20
953.4823105450048
 30
0.0
 11
825.5422342663987
 21
898.3799749709356
 31
0.0
  0
LINE
  5
530F
330
530A
100
AcDbEntity
  8
Dim
 62
     0
370
    -2
100
AcDbLine
 10
372.414168547064
 20
898.3799749709356
 30
0.0
 11
815.5428446179612
 21
898.3799749709356
 31
0.0
  0
INSERT
  5
5310
330
530A
100
AcDbEntity
  8
Dim
 62
     0
370
    -2
100
AcDbBlockReference
  2
_DOT
 10
362.4147788986265
 20
898.3799749709356
 30
0.0
 41
9.999389648437498
 42
9.999389648437498
 43
9.999389648437498
 50
180.0
  0
INSERT
  5
5311
330
530A
100
AcDbEntity
  8
Dim
 62
     0
370
    -2
100
AcDbBlockReference
  2
_DOT
 10
825.5422342663987
 20
898.3799749709356
 30
0.0
 41
9.999389648437498
 42
9.999389648437498
 43
9.999389648437498
  0
MTEXT
  5
5312
330
530A
100
AcDbEntity
  8
Dim
 62
     0
100
AcDbMText
 10
593.9785065825126
 20
920.5962835646856
 30
0.0
 40
24.4326171875
 41
0.0
 46
0.0
 71
     5
 72
     1
  1
\A1;463.1
  7
ＭＳ ゴシック
 73
     1
 44
1.0
  0
POINT
  5
5313
330
530A
100
AcDbEntity
  8
Defpoints
 62
     0
100
AcDbPoint
 10
362.4147788986265
 20
977.8826528575612
 30
0.0
  0
POINT
  5
5314
330
530A
100
AcDbEntity
  8
Defpoints
 62
     0
100
AcDbPoint
 10
825.5422342663987
 20
978.4823105450048
 30
0.0
  0
POINT
  5
5315
330
530A
100
AcDbEntity
  8
Defpoints
 62
     0
100
AcDbPoint
 10
825.5422342663987
 20
898.3799749709356
 30
0.0
  0
ENDBLK
  5
530C
330
530A
100
AcDbEntity
  8
0
100
AcDbBlockEnd
  0
BLOCK
  5
5317
330
5316
100
AcDbEntity
  8
0
100
AcDbBlockBegin
  2
*D29
 70
     1
 10
0.0
 20
0.0
 30
0.0
  3
*D29
  1

  0
LINE
  5
5319
330
5316
100
AcDbEntity
  8
Dim
 62
     0
 48
0.5
370
    -2
100
AcDbLine
 10
330.0883797509568
 20
1811.606950559107
 30
0.0
 11
330.0883797509568
 21
1703.578550718609
 31
0.0
  0
LINE
  5
531A
330
5316
100
AcDbEntity
  8
Dim
 62
     0
 48
0.5
370
    -2
100
AcDbLine
 10
917.0126656396287
 20
1808.207536496607
 30
0.0
 11
917.0126656396287
 21
1703.578550718609
 31
0.0
  0
LINE
  5
531B
330
5316
100
AcDbEntity
  8
Dim
 62
     0
 48
0.5
370
    -2
100
AcDbLine
 10
340.0877693993943
 20
1703.578550718609
 30
0.0
 11
907.0132759911912
 21
1703.578550718609
 31
0.0
  0
INSERT
  5
531C
330
5316
100
AcDbEntity
  8
Dim
 62
     0
370
    -2
100
AcDbBlockReference
  2
_DOT
 10
330.0883797509568
 20
1703.578550718609
 30
0.0
 41
9.999389648437498
 42
9.999389648437498
 43
9.999389648437498
 50
180.0
  0
INSERT
  5
531D
330
5316
100
AcDbEntity
  8
Dim
 62
     0
370
    -2
100
AcDbBlockReference
  2
_DOT
 10
917.0126656396287
 20
1703.578550718609
 30
0.0
 41
9.999389648437498
 42
9.999389648437498
 43
9.999389648437498
  0
MTEXT
  5
531E
330
5316
100
AcDbEntity
  8
Dim
 62
     0
100
AcDbMText
 10
623.5505226952928
 20
1725.794859312359
 30
0.0
 40
24.4326171875
 41
0.0
 46
0.0
 71
     5
 72
     1
  1
\A1;585
  7
ＭＳ ゴシック
 73
     1
 44
1.0
  0
POINT
  5
531F
330
5316
100
AcDbEntity
  8
Defpoints
 62
     0
100
AcDbPoint
 10
330.0883797509568
 20
1836.606950559107
 30
0.0
  0
POINT
  5
5320
330
5316
100
AcDbEntity
  8
Defpoints
 62
     0
100
AcDbPoint
 10
917.0126656396287
 20
1833.207536496607
 30
0.0
  0
POINT
  5
5321
330
5316
100
AcDbEntity
  8
Defpoints
 62
     0
100
AcDbPoint
 10
917.0126656396287
 20
1703.578550718609
 30
0.0
  0
ENDBLK
  5
5318
330
5316
100
AcDbEntity
  8
0
100
AcDbBlockEnd
  0
BLOCK
  5
5323
330
5322
100
AcDbEntity
  8
0
100
AcDbBlockBegin
  2
*D30
 70
     1
 10
0.0
 20
0.0
 30
0.0
  3
*D30
  1

  0
LINE
  5
5325
330
5322
100
AcDbEntity
  8
Dim
 62
     0
370
    -2
100
AcDbLine
 10
315.5357266628253
 20
1029.617309010403
 30
0.0
 11
315.5357266628253
 21
826.3932712057556
 31
0.0
  0
LINE
  5
5326
330
5322
100
AcDbEntity
  8
Dim
 62
     0
370
    -2
100
AcDbLine
 10
871.3225734547505
 20
1029.617309010403
 30
0.0
 11
871.3225734547505
 21
826.3932712057556
 31
0.0
  0
LINE
  5
5327
330
5322
100
AcDbEntity
  8
Dim
 62
     0
370
    -2
100
AcDbLine
 10
325.5351163112628
 20
826.3932712057556
 30
0.0
 11
861.323183806313
 21
826.3932712057556
 31
0.0
  0
INSERT
  5
5328
330
5322
100
AcDbEntity
  8
Dim
 62
     0
370
    -2
100
AcDbBlockReference
  2
_DOT
 10
315.5357266628253
 20
826.3932712057556
 30
0.0
 41
9.999389648437498
 42
9.999389648437498
 43
9.999389648437498
 50
180.0
  0
INSERT
  5
5329
330
5322
100
AcDbEntity
  8
Dim
 62
     0
370
    -2
100
AcDbBlockReference
  2
_DOT
 10
871.3225734547505
 20
826.3932712057556
 30
0.0
 41
9.999389648437498
 42
9.999389648437498
 43
9.999389648437498
  0
MTEXT
  5
532A
330
5322
100
AcDbEntity
  8
Dim
 62
     0
100
AcDbMText
 10
593.4291500587879
 20
848.6095797995056
 30
0.0
 40
24.4326171875
 41
0.0
 46
0.0
 71
     5
 72
     1
  1
\A1;555
  7
ＭＳ ゴシック
 73
     1
 44
1.0
  0
POINT
  5
532B
330
5322
100
AcDbEntity
  8
Defpoints
 62
     0
100
AcDbPoint
 10
315.5357266628253
 20
1054.617309010403
 30
0.0
  0
POINT
  5
532C
330
5322
100
AcDbEntity
  8
Defpoints
 62
     0
100
AcDbPoint
 10
871.3225734547505
 20
1054.617309010403
 30
0.0
  0
POINT
  5
532D
330
5322
100
AcDbEntity
  8
Defpoints
 62
     0
100
AcDbPoint
 10
871.3225734547505
 20
826.3932712057556
 30
0.0
  0
ENDBLK
  5
5324
330
5322
100
AcDbEntity
  8
0
100
AcDbBlockEnd
  0
BLOCK
  5
532F
330
532E
100
AcDbEntity
  8
0
100
AcDbBlockBegin
  2
*D31
 70
     1
 10
0.0
 20
0.0
 30
0.0
  3
*D31
  1

  0
LINE
  5
5331
330
532E
100
AcDbEntity
  8
Dim
 62
     0
370
    -2
100
AcDbLine
 10
1661.25959922937
 20
948.5210419916327
 30
0.0
 11
1661.25959922937
 21
889.2388062388493
 31
0.0
  0
LINE
  5
5332
330
532E
100
AcDbEntity
  8
Dim
 62
     0
370
    -2
100
AcDbLine
 10
1424.230859781788
 20
948.5210419916327
 30
0.0
 11
1424.230859781788
 21
889.2388062388493
 31
0.0
  0
LINE
  5
5333
330
532E
100
AcDbEntity
  8
Dim
 62
     0
370
    -2
100
AcDbLine
 10
1651.260209580932
 20
889.2388062388493
 30
0.0
 11
1434.230249430226
 21
889.2388062388493
 31
0.0
  0
INSERT
  5
5334
330
532E
100
AcDbEntity
  8
Dim
 62
     0
370
    -2
100
AcDbBlockReference
  2
_DOT
 10
1661.25959922937
 20
889.2388062388493
 30
0.0
 41
9.999389648437498
 42
9.999389648437498
 43
9.999389648437498
  0
INSERT
  5
5335
330
532E
100
AcDbEntity
  8
Dim
 62
     0
370
    -2
100
AcDbBlockReference
  2
_DOT
 10
1424.230859781788
 20
889.2388062388493
 30
0.0
 41
9.999389648437498
 42
9.999389648437498
 43
9.999389648437498
 50
180.0
  0
MTEXT
  5
5336
330
532E
100
AcDbEntity
  8
Dim
 62
     0
100
AcDbMText
 10
1542.745229505579
 20
911.4551148325993
 30
0.0
 40
24.4326171875
 41
0.0
 46
0.0
 71
     5
 72
     1
  1
\A1;237
  7
ＭＳ ゴシック
 73
     1
 44
1.0
  0
POINT
  5
5337
330
532E
100
AcDbEntity
  8
Defpoints
 62
     0
100
AcDbPoint
 10
1661.25959922937
 20
973.5210419916327
 30
0.0
  0
POINT
  5
5338
330
532E
100
AcDbEntity
  8
Defpoints
 62
     0
100
AcDbPoint
 10
1424.230859781788
 20
973.5210419916327
 30
0.0
  0
POINT
  5
5339
330
532E
100
AcDbEntity
  8
Defpoints
 62
     0
100
AcDbPoint
 10
1424.230859781788
 20
889.2388062388493
 30
0.0
  0
ENDBLK
  5
5330
330
532E
100
AcDbEntity
  8
0
100
AcDbBlockEnd
  0
BLOCK
  5
533B
330
533A
100
AcDbEntity
  8
0
100
AcDbBlockBegin
  2
*D32
 70
     1
 10
0.0
 20
0.0
 30
0.0
  3
*D32
  1

  0
LINE
  5
533D
330
533A
100
AcDbEntity
  8
Dim
 62
     0
 48
0.5
370
    -2
100
AcDbLine
 10
885.9907277531183
 20
880.7062118205372
 30
0.0
 11
1019.227942069547
 21
880.7062118205372
 31
0.0
  0
LINE
  5
533E
330
533A
100
AcDbEntity
  8
Dim
 62
     0
 48
0.5
370
    -2
100
AcDbLine
 10
948.1002914571441
 20
1050.706300313351
 30
0.0
 11
1019.227942069547
 21
1050.706300313351
 31
0.0
  0
LINE
  5
533F
330
533A
100
AcDbEntity
  8
Dim
 62
     0
 48
0.5
370
    -2
100
AcDbLine
 10
1019.227942069547
 20
890.7056014689747
 30
0.0
 11
1019.227942069547
 21
1040.706910664913
 31
0.0
  0
INSERT
  5
5340
330
533A
100
AcDbEntity
  8
Dim
 62
     0
370
    -2
100
AcDbBlockReference
  2
_DOT
 10
1019.227942069547
 20
880.7062118205372
 30
0.0
 41
9.999389648437498
 42
9.999389648437498
 43
9.999389648437498
 50
270.0000000000001
  0
INSERT
  5
5341
330
533A
100
AcDbEntity
  8
Dim
 62
     0
370
    -2
100
AcDbBlockReference
  2
_DOT
 10
1019.227942069547
 20
1050.706300313351
 30
0.0
 41
9.999389648437498
 42
9.999389648437498
 43
9.999389648437498
 50
90.00000000000004
  0
MTEXT
  5
5342
330
533A
100
AcDbEntity
  8
Dim
 62
     0
100
AcDbMText
 10
997.011633475797
 20
965.7062560669441
 30
0.0
 40
24.4326171875
 41
0.0
 46
0.0
 71
     5
 72
     1
  1
\A1;170
  7
ＭＳ ゴシック
 11
-6.687457561318962E-16
 21
1.0
 31
0.0
 73
     1
 44
1.0
  0
POINT
  5
5343
330
533A
100
AcDbEntity
  8
Defpoints
 62
     0
100
AcDbPoint
 10
860.9907277531183
 20
880.7062118205372
 30
0.0
  0
POINT
  5
5344
330
533A
100
AcDbEntity
  8
Defpoints
 62
     0
100
AcDbPoint
 10
923.1002914571441
 20
1050.706300313351
 30
0.0
  0
POINT
  5
5345
330
533A
100
AcDbEntity
  8
Defpoints
 62
     0
100
AcDbPoint
 10
1019.227942069547
 20
1050.706300313351
 30
0.0
  0
ENDBLK
  5
533C
330
533A
100
AcDbEntity
  8
0
100
AcDbBlockEnd
  0
BLOCK
  5
5347
330
5346
100
AcDbEntity
  8
0
100
AcDbBlockBegin
  2
*D33
 70
     1
 10
0.0
 20
0.0
 30
0.0
  3
*D33
  1

  0
LINE
  5
5349
330
5346
100
AcDbEntity
  8
Dim
 62
     0
 48
0.5
370
    -2
100
AcDbLine
 10
1394.442230052298
 20
880.7062908368785
 30
0.0
 11
1262.577365566619
 21
880.7062908368785
 31
0.0
  0
LINE
  5
534A
330
5346
100
AcDbEntity
  8
Dim
 62
     0
 48
0.5
370
    -2
100
AcDbLine
 10
1329.882725881939
 20
965.7062928104053
 30
0.0
 11
1262.577365566619
 21
965.7062928104053
 31
0.0
  0
LINE
  5
534B
330
5346
100
AcDbEntity
  8
Dim
 62
     0
 48
0.5
370
    -2
100
AcDbLine
 10
1262.577365566619
 20
890.705680485316
 30
0.0
 11
1262.577365566619
 21
955.7069031619678
 31
0.0
  0
INSERT
  5
534C
330
5346
100
AcDbEntity
  8
Dim
 62
     0
370
    -2
100
AcDbBlockReference
  2
_DOT
 10
1262.577365566619
 20
880.7062908368785
 30
0.0
 41
9.999389648437498
 42
9.999389648437498
 43
9.999389648437498
 50
270.0
  0
INSERT
  5
534D
330
5346
100
AcDbEntity
  8
Dim
 62
     0
370
    -2
100
AcDbBlockReference
  2
_DOT
 10
1262.577365566619
 20
965.7062928104053
 30
0.0
 41
9.999389648437498
 42
9.999389648437498
 43
9.999389648437498
 50
90.0
  0
MTEXT
  5
534E
330
5346
100
AcDbEntity
  8
Dim
 62
     0
100
AcDbMText
 10
1240.361056972869
 20
923.2062918236419
 30
0.0
 40
24.4326171875
 41
0.0
 46
0.0
 71
     5
 72
     1
  1
\A1;85
  7
ＭＳ ゴシック
 11
0.0
 21
1.0
 31
0.0
 73
     1
 44
1.0
  0
POINT
  5
534F
330
5346
100
AcDbEntity
  8
Defpoints
 62
     0
100
AcDbPoint
 10
1419.442230052298
 20
880.7062908368785
 30
0.0
  0
POINT
  5
5350
330
5346
100
AcDbEntity
  8
Defpoints
 62
     0
100
AcDbPoint
 10
1354.882725881939
 20
965.7062928104053
 30
0.0
  0
POINT
  5
5351
330
5346
100
AcDbEntity
  8
Defpoints
 62
     0
100
AcDbPoint
 10
1262.577365566619
 20
965.7062928104053
 30
0.0
  0
ENDBLK
  5
5348
330
5346
100
AcDbEntity
  8
0
100
AcDbBlockEnd
  0
BLOCK
  5
5353
330
5352
100
AcDbEntity
  8
0
100
AcDbBlockBegin
  2
*D34
 70
     1
 10
0.0
 20
0.0
 30
0.0
  3
*D34
  1

  0
LINE
  5
5355
330
5352
100
AcDbEntity
  8
Dim
 62
     0
 48
0.5
370
    -2
100
AcDbLine
 10
1329.882725881939
 20
965.7062928104053
 30
0.0
 11
1262.577365566619
 21
965.7062928104053
 31
0.0
  0
LINE
  5
5356
330
5352
100
AcDbEntity
  8
Dim
 62
     0
 48
0.5
370
    -2
100
AcDbLine
 10
1323.026849332874
 20
1050.270318537539
 30
0.0
 11
1262.577365566619
 21
1050.270318537539
 31
0.0
  0
LINE
  5
5357
330
5352
100
AcDbEntity
  8
Dim
 62
     0
 48
0.5
370
    -2
100
AcDbLine
 10
1262.577365566619
 20
975.7056824588428
 30
0.0
 11
1262.577365566619
 21
1040.270928889101
 31
0.0
  0
INSERT
  5
5358
330
5352
100
AcDbEntity
  8
Dim
 62
     0
370
    -2
100
AcDbBlockReference
  2
_DOT
 10
1262.577365566619
 20
965.7062928104053
 30
0.0
 41
9.999389648437498
 42
9.999389648437498
 43
9.999389648437498
 50
270.0
  0
INSERT
  5
5359
330
5352
100
AcDbEntity
  8
Dim
 62
     0
370
    -2
100
AcDbBlockReference
  2
_DOT
 10
1262.577365566619
 20
1050.270318537539
 30
0.0
 41
9.999389648437498
 42
9.999389648437498
 43
9.999389648437498
 50
90.0
  0
MTEXT
  5
535A
330
5352
100
AcDbEntity
  8
Dim
 62
     0
100
AcDbMText
 10
1240.361056972869
 20
1007.988305673972
 30
0.0
 40
24.4326171875
 41
0.0
 46
0.0
 71
     5
 72
     1
  1
\A1;85
  7
ＭＳ ゴシック
 11
0.0
 21
1.0
 31
0.0
 73
     1
 44
1.0
  0
POINT
  5
535B
330
5352
100
AcDbEntity
  8
Defpoints
 62
     0
100
AcDbPoint
 10
1354.882725881939
 20
965.7062928104053
 30
0.0
  0
POINT
  5
535C
330
5352
100
AcDbEntity
  8
Defpoints
 62
     0
100
AcDbPoint
 10
1348.026849332874
 20
1050.270318537539
 30
0.0
  0
POINT
  5
535D
330
5352
100
AcDbEntity
  8
Defpoints
 62
     0
100
AcDbPoint
 10
1262.577365566619
 20
1050.270318537539
 30
0.0
  0
ENDBLK
  5
5354
330
5352
100
AcDbEntity
  8
0
100
AcDbBlockEnd
  0
BLOCK
  5
535F
330
535E
100
AcDbEntity
  8
0
100
AcDbBlockBegin
  2
*D35
 70
     1
 10
0.0
 20
0.0
 30
0.0
  3
*D35
  1

  0
LINE
  5
5361
330
535E
100
AcDbEntity
  8
Dim
 62
     0
370
    -2
100
AcDbLine
 10
1849.584727297084
 20
2181.570593379164
 30
0.0
 11
1912.462265471846
 21
2181.570593379164
 31
0.0
  0
LINE
  5
5362
330
535E
100
AcDbEntity
  8
Dim
 62
     0
370
    -2
100
AcDbLine
 10
1849.584727297085
 20
1851.208679489402
 30
0.0
 11
1912.462265471846
 21
1851.208679489402
 31
0.0
  0
LINE
  5
5363
330
535E
100
AcDbEntity
  8
Dim
 62
     0
370
    -2
100
AcDbLine
 10
1912.462265471846
 20
2171.571203730727
 30
0.0
 11
1912.462265471846
 21
1861.208069137839
 31
0.0
  0
INSERT
  5
5364
330
535E
100
AcDbEntity
  8
Dim
 62
     0
370
    -2
100
AcDbBlockReference
  2
_DOT
 10
1912.462265471846
 20
2181.570593379164
 30
0.0
 41
9.999389648437498
 42
9.999389648437498
 43
9.999389648437498
 50
90.0
  0
INSERT
  5
5365
330
535E
100
AcDbEntity
  8
Dim
 62
     0
370
    -2
100
AcDbBlockReference
  2
_DOT
 10
1912.462265471846
 20
1851.208679489402
 30
0.0
 41
9.999389648437498
 42
9.999389648437498
 43
9.999389648437498
 50
270.0
  0
MTEXT
  5
5366
330
535E
100
AcDbEntity
  8
Dim
 62
     0
100
AcDbMText
 10
1890.245956878096
 20
2016.389636434283
 30
0.0
 40
24.4326171875
 41
0.0
 46
0.0
 71
     5
 72
     1
  1
\A1;330
  7
ＭＳ ゴシック
 11
0.0
 21
1.0
 31
0.0
 73
     1
 44
1.0
  0
POINT
  5
5367
330
535E
100
AcDbEntity
  8
Defpoints
 62
     0
100
AcDbPoint
 10
1824.584727297084
 20
2181.570593379164
 30
0.0
  0
POINT
  5
5368
330
535E
100
AcDbEntity
  8
Defpoints
 62
     0
100
AcDbPoint
 10
1824.584727297085
 20
1851.208679489402
 30
0.0
  0
POINT
  5
5369
330
535E
100
AcDbEntity
  8
Defpoints
 62
     0
100
AcDbPoint
 10
1912.462265471846
 20
1851.208679489402
 30
0.0
  0
ENDBLK
  5
5360
330
535E
100
AcDbEntity
  8
0
100
AcDbBlockEnd
  0
BLOCK
  5
536B
330
536A
100
AcDbEntity
  8
0
100
AcDbBlockBegin
  2
*D36
 70
     1
 10
0.0
 20
0.0
 30
0.0
  3
*D36
  1

  0
LINE
  5
536D
330
536A
100
AcDbEntity
  8
Dim
 62
     0
370
    -2
100
AcDbLine
 10
1221.129981622295
 20
1821.745670490389
 30
0.0
 11
1221.129981622295
 21
1759.067108171834
 31
0.0
  0
LINE
  5
536E
330
536A
100
AcDbEntity
  8
Dim
 62
     0
370
    -2
100
AcDbLine
 10
1755.916887096286
 20
1821.745670490389
 30
0.0
 11
1755.916887096286
 21
1759.067108171834
 31
0.0
  0
LINE
  5
536F
330
536A
100
AcDbEntity
  8
Dim
 62
     0
370
    -2
100
AcDbLine
 10
1231.129371270732
 20
1759.067108171834
 30
0.0
 11
1745.917497447848
 21
1759.067108171834
 31
0.0
  0
INSERT
  5
5370
330
536A
100
AcDbEntity
  8
Dim
 62
     0
370
    -2
100
AcDbBlockReference
  2
_DOT
 10
1221.129981622295
 20
1759.067108171834
 30
0.0
 41
9.999389648437498
 42
9.999389648437498
 43
9.999389648437498
 50
180.0
  0
INSERT
  5
5371
330
536A
100
AcDbEntity
  8
Dim
 62
     0
370
    -2
100
AcDbBlockReference
  2
_DOT
 10
1755.916887096286
 20
1759.067108171834
 30
0.0
 41
9.999389648437498
 42
9.999389648437498
 43
9.999389648437498
  0
MTEXT
  5
5372
330
536A
100
AcDbEntity
  8
Dim
 62
     0
100
AcDbMText
 10
1488.52343435929
 20
1781.283416765584
 30
0.0
 40
24.4326171875
 41
0.0
 46
0.0
 71
     5
 72
     1
  1
\A1;535
  7
ＭＳ ゴシック
 73
     1
 44
1.0
  0
POINT
  5
5373
330
536A
100
AcDbEntity
  8
Defpoints
 62
     0
100
AcDbPoint
 10
1221.129981622295
 20
1846.745670490389
 30
0.0
  0
POINT
  5
5374
330
536A
100
AcDbEntity
  8
Defpoints
 62
     0
100
AcDbPoint
 10
1755.916887096286
 20
1846.745670490389
 30
0.0
  0
POINT
  5
5375
330
536A
100
AcDbEntity
  8
Defpoints
 62
     0
100
AcDbPoint
 10
1755.916887096286
 20
1759.067108171834
 30
0.0
  0
ENDBLK
  5
536C
330
536A
100
AcDbEntity
  8
0
100
AcDbBlockEnd
  0
BLOCK
  5
5377
330
5376
100
AcDbEntity
  8
0
100
AcDbBlockBegin
  2
*D37
 70
     1
 10
0.0
 20
0.0
 30
0.0
  3
*D37
  1

  0
LINE
  5
5379
330
5376
100
AcDbEntity
  8
Dim
 62
     0
370
    -2
100
AcDbLine
 10
309.8624411117594
 20
2193.439477184945
 30
0.0
 11
243.4286375899282
 21
2193.439477184945
 31
0.0
  0
LINE
  5
537A
330
5376
100
AcDbEntity
  8
Dim
 62
     0
370
    -2
100
AcDbLine
 10
309.8624411117594
 20
1838.439477184945
 30
0.0
 11
243.4286375899282
 21
1838.439477184945
 31
0.0
  0
LINE
  5
537B
330
5376
100
AcDbEntity
  8
Dim
 62
     0
370
    -2
100
AcDbLine
 10
243.4286375899282
 20
2183.440087536508
 30
0.0
 11
243.4286375899282
 21
1848.438866833382
 31
0.0
  0
INSERT
  5
537C
330
5376
100
AcDbEntity
  8
Dim
 62
     0
370
    -2
100
AcDbBlockReference
  2
_DOT
 10
243.4286375899282
 20
2193.439477184945
 30
0.0
 41
9.999389648437498
 42
9.999389648437498
 43
9.999389648437498
 50
90.0
  0
INSERT
  5
537D
330
5376
100
AcDbEntity
  8
Dim
 62
     0
370
    -2
100
AcDbBlockReference
  2
_DOT
 10
243.4286375899282
 20
1838.439477184945
 30
0.0
 41
9.999389648437498
 42
9.999389648437498
 43
9.999389648437498
 50
270.0
  0
MTEXT
  5
537E
330
5376
100
AcDbEntity
  8
Dim
 62
     0
100
AcDbMText
 10
221.2123289961782
 20
2015.939477184945
 30
0.0
 40
24.4326171875
 41
0.0
 46
0.0
 71
     5
 72
     1
  1
\A1;355
  7
ＭＳ ゴシック
 11
8.006115332508165E-17
 21
1.0
 31
0.0
 73
     1
 44
1.0
  0
POINT
  5
537F
330
5376
100
AcDbEntity
  8
Defpoints
 62
     0
100
AcDbPoint
 10
334.8624411117594
 20
2193.439477184945
 30
0.0
  0
POINT
  5
5380
330
5376
100
AcDbEntity
  8
Defpoints
 62
     0
100
AcDbPoint
 10
334.8624411117594
 20
1838.439477184945
 30
0.0
  0
POINT
  5
5381
330
5376
100
AcDbEntity
  8
Defpoints
 62
     0
100
AcDbPoint
 10
243.4286375899282
 20
1838.439477184945
 30
0.0
  0
ENDBLK
  5
5378
330
5376
100
AcDbEntity
  8
0
100
AcDbBlockEnd
  0
BLOCK
  5
5383
330
5382
100
AcDbEntity
  8
0
100
AcDbBlockBegin
  2
*D38
 70
     1
 10
0.0
 20
0.0
 30
0.0
  3
*D38
  1

  0
LINE
  5
5385
330
5382
100
AcDbEntity
  8
Dim
 62
     0
370
    -2
100
AcDbLine
 10
1565.244636631922
 20
931.7409879396723
 30
0.0
 11
1540.245227832515
 21
931.7409879396723
 31
0.0
  0
LINE
  5
5386
330
5382
100
AcDbEntity
  8
Dim
 62
     0
370
    -2
100
AcDbLine
 10
1565.245227832515
 20
1050.706289507552
 30
0.0
 11
1540.245227832515
 21
1050.706289507552
 31
0.0
  0
LINE
  5
5387
330
5382
100
AcDbEntity
  8
Dim
 62
     0
370
    -2
100
AcDbLine
 10
1540.245227832515
 20
931.7409879396723
 30
0.0
 11
1540.245227832515
 21
1238.962189898177
 31
0.0
  0
LINE
  5
5388
330
5382
100
AcDbEntity
  8
Dim
 62
     0
370
    -2
100
AcDbLine
 10
1540.245227832515
 20
941.7403775881098
 30
0.0
 11
1540.245227832515
 21
1040.706899859114
 31
0.0
  0
LINE
  5
5389
330
5382
100
AcDbEntity
  8
Dim
 62
     0
370
    -2
100
AcDbLine
 10
1540.245227832515
 20
1040.706899859114
 30
0.0
 11
1540.245227832515
 21
1030.707510210677
 31
0.0
  0
INSERT
  5
538A
330
5382
100
AcDbEntity
  8
Dim
 62
     0
370
    -2
100
AcDbBlockReference
  2
_DOT
 10
1540.245227832515
 20
931.7409879396723
 30
0.0
 41
9.999389648437498
 42
9.999389648437498
 43
9.999389648437498
 50
270.0
  0
INSERT
  5
538B
330
5382
100
AcDbEntity
  8
Dim
 62
     0
370
    -2
100
AcDbBlockReference
  2
_DOT
 10
1540.245227832515
 20
1050.706289507552
 30
0.0
 41
9.999389648437498
 42
9.999389648437498
 43
9.999389648437498
 50
90.0
  0
MTEXT
  5
538C
330
5382
100
AcDbEntity
  8
Dim
 62
     0
100
AcDbMText
 10
1515.866632617671
 20
1154.833629351302
 30
0.0
 40
24.4326171875
 41
0.0
 46
0.0
 71
     5
 72
     1
  1
\A1;120 (深さ)
  7
ＭＳ ゴシック
 11
0.0
 21
1.0
 31
0.0
 73
     1
 44
1.0
  0
POINT
  5
538D
330
5382
100
AcDbEntity
  8
Defpoints
 62
     0
100
AcDbPoint
 10
1540.244636631922
 20
931.7409879396723
 30
0.0
  0
POINT
  5
538E
330
5382
100
AcDbEntity
  8
Defpoints
 62
     0
100
AcDbPoint
 10
1540.245227832515
 20
1050.706289507552
 30
0.0
  0
POINT
  5
538F
330
5382
100
AcDbEntity
  8
Defpoints
 62
     0
100
AcDbPoint
 10
1540.245227832515
 20
1050.706289507552
 30
0.0
  0
ENDBLK
  5
5384
330
5382
100
AcDbEntity
  8
0
100
AcDbBlockEnd
  0
BLOCK
  5
53C3
330
53C2
100
AcDbEntity
  8
0
100
AcDbBlockBegin
  2
*D39
 70
     1
 10
0.0
 20
0.0
 30
0.0
  3
*D39
  1

  0
LINE
  5
53C5
330
53C2
100
AcDbEntity
  8
Dim
 62
     0
370
    -2
100
AcDbLine
 10
1251.641924068338
 20
2211.033602378177
 30
0.0
 11
1251.641924068338
 21
2273.712164696733
 31
0.0
  0
LINE
  5
53C6
330
53C2
100
AcDbEntity
  8
Dim
 62
     0
370
    -2
100
AcDbLine
 10
1786.428829542329
 20
2211.033602378177
 30
0.0
 11
1786.428829542329
 21
2273.712164696733
 31
0.0
  0
LINE
  5
53C7
330
53C2
100
AcDbEntity
  8
Dim
 62
     0
370
    -2
100
AcDbLine
 10
1261.641313716775
 20
2273.712164696733
 30
0.0
 11
1776.429439893891
 21
2273.712164696733
 31
0.0
  0
INSERT
  5
53C8
330
53C2
100
AcDbEntity
  8
Dim
 62
     0
370
    -2
100
AcDbBlockReference
  2
_DOT
 10
1251.641924068338
 20
2273.712164696733
 30
0.0
 41
9.999389648437498
 42
9.999389648437498
 43
9.999389648437498
 50
180.0
  0
INSERT
  5
53C9
330
53C2
100
AcDbEntity
  8
Dim
 62
     0
370
    -2
100
AcDbBlockReference
  2
_DOT
 10
1786.428829542329
 20
2273.712164696733
 30
0.0
 41
9.999389648437498
 42
9.999389648437498
 43
9.999389648437498
  0
MTEXT
  5
53CA
330
53C2
100
AcDbEntity
  8
Dim
 62
     0
100
AcDbMText
 10
1519.035376805333
 20
2295.928473290483
 30
0.0
 40
24.4326171875
 41
0.0
 46
0.0
 71
     5
 72
     1
  1
\A1;535
  7
ＭＳ ゴシック
 73
     1
 44
1.0
  0
POINT
  5
53CB
330
53C2
100
AcDbEntity
  8
Defpoints
 62
     0
100
AcDbPoint
 10
1251.641924068338
 20
2186.033602378177
 30
0.0
  0
POINT
  5
53CC
330
53C2
100
AcDbEntity
  8
Defpoints
 62
     0
100
AcDbPoint
 10
1786.428829542329
 20
2186.033602378177
 30
0.0
  0
POINT
  5
53CD
330
53C2
100
AcDbEntity
  8
Defpoints
 62
     0
100
AcDbPoint
 10
1786.428829542329
 20
2273.712164696733
 30
0.0
  0
ENDBLK
  5
53C4
330
53C2
100
AcDbEntity
  8
0
100
AcDbBlockEnd
  0
BLOCK
  5
5480
330
547F
100
AcDbEntity
  8
0
100
AcDbBlockBegin
  2
*D40
 70
     1
 10
0.0
 20
0.0
 30
0.0
  3
*D40
  1

  0
LINE
  5
5481
330
547F
100
AcDbEntity
  8
Dim
 62
     0
 48
0.5
370
    -2
100
AcDbLine
 10
176.1419433117792
 20
1700.192027524619
 30
0.0
 11
176.1419433117792
 21
1743.167850694239
 31
0.0
  0
LINE
  5
5482
330
547F
100
AcDbEntity
  8
Dim
 62
     0
 48
0.5
370
    -2
100
AcDbLine
 10
675.92876147636
 20
1700.192027524619
 30
0.0
 11
675.92876147636
 21
1743.167850694239
 31
0.0
  0
LINE
  5
5483
330
547F
100
AcDbEntity
  8
Dim
 62
     0
 48
0.5
370
    -2
100
AcDbLine
 10
186.1413329602167
 20
1743.167850694239
 30
0.0
 11
665.9293718279225
 21
1743.167850694239
 31
0.0
  0
INSERT
  5
5484
330
547F
100
AcDbEntity
  8
Dim
 62
     0
370
    -2
100
AcDbBlockReference
  2
_DOT
 10
176.1419433117792
 20
1743.167850694239
 30
0.0
 41
9.999389648437498
 42
9.999389648437498
 43
9.999389648437498
 50
180.0
  0
INSERT
  5
5485
330
547F
100
AcDbEntity
  8
Dim
 62
     0
370
    -2
100
AcDbBlockReference
  2
_DOT
 10
675.92876147636
 20
1743.167850694239
 30
0.0
 41
9.999389648437498
 42
9.999389648437498
 43
9.999389648437498
  0
MTEXT
  5
5486
330
547F
100
AcDbEntity
  8
Dim
 62
     0
100
AcDbMText
 10
433.8096912755939
 20
1765.384159287989
 30
0.0
 40
24.4326171875
 41
0.0
 46
0.0
 71
     5
 72
     1
  1
\A1;500
  7
ＭＳ ゴシック
 73
     1
 44
1.0
  0
POINT
  5
5487
330
547F
100
AcDbEntity
  8
Defpoints
 62
     0
100
AcDbPoint
 10
176.1419433117792
 20
1675.192027524619
 30
0.0
  0
POINT
  5
5488
330
547F
100
AcDbEntity
  8
Defpoints
 62
     0
100
AcDbPoint
 10
675.92876147636
 20
1675.192027524619
 30
0.0
  0
POINT
  5
5489
330
547F
100
AcDbEntity
  8
Defpoints
 62
     0
100
AcDbPoint
 10
675.92876147636
 20
1743.167850694239
 30
0.0
  0
ENDBLK
  5
548A
330
547F
100
AcDbEntity
  8
0
100
AcDbBlockEnd
  0
BLOCK
  5
548D
330
548C
100
AcDbEntity
  8
0
100
AcDbBlockBegin
  2
*D41
 70
     1
 10
0.0
 20
0.0
 30
0.0
  3
*D41
  1

  0
LINE
  5
548E
330
548C
100
AcDbEntity
  8
Dim
 62
     0
 48
0.5
370
    -2
100
AcDbLine
 10
1275.80625715341
 20
249.871870399406
 30
0.0
 11
1109.159023814011
 21
249.871870399406
 31
0.0
  0
LINE
  5
548F
330
548C
100
AcDbEntity
  8
Dim
 62
     0
 48
0.5
370
    -2
100
AcDbLine
 10
1200.995182409297
 20
334.8718723729331
 30
0.0
 11
1109.159023814011
 21
334.8718723729331
 31
0.0
  0
LINE
  5
5490
330
548C
100
AcDbEntity
  8
Dim
 62
     0
 48
0.5
370
    -2
100
AcDbLine
 10
1109.159023814011
 20
259.8712600478435
 30
0.0
 11
1109.159023814011
 21
324.8724827244956
 31
0.0
  0
INSERT
  5
5491
330
548C
100
AcDbEntity
  8
Dim
 62
     0
370
    -2
100
AcDbBlockReference
  2
_DOT
 10
1109.159023814011
 20
249.871870399406
 30
0.0
 41
9.999389648437498
 42
9.999389648437498
 43
9.999389648437498
 50
270.0
  0
INSERT
  5
5492
330
548C
100
AcDbEntity
  8
Dim
 62
     0
370
    -2
100
AcDbBlockReference
  2
_DOT
 10
1109.159023814011
 20
334.8718723729331
 30
0.0
 41
9.999389648437498
 42
9.999389648437498
 43
9.999389648437498
 50
90.0
  0
MTEXT
  5
5493
330
548C
100
AcDbEntity
  8
Dim
 62
     0
100
AcDbMText
 10
1086.942715220261
 20
292.3718713861696
 30
0.0
 40
24.4326171875
 41
0.0
 46
0.0
 71
     5
 72
     1
  1
\A1;85
  7
ＭＳ ゴシック
 11
0.0
 21
1.0
 31
0.0
 73
     1
 44
1.0
  0
POINT
  5
5494
330
548C
100
AcDbEntity
  8
Defpoints
 62
     0
100
AcDbPoint
 10
1300.80625715341
 20
249.871870399406
 30
0.0
  0
POINT
  5
5495
330
548C
100
AcDbEntity
  8
Defpoints
 62
     0
100
AcDbPoint
 10
1225.995182409297
 20
334.8718723729331
 30
0.0
  0
POINT
  5
5496
330
548C
100
AcDbEntity
  8
Defpoints
 62
     0
100
AcDbPoint
 10
1109.159023814011
 20
334.8718723729331
 30
0.0
  0
ENDBLK
  5
5497
330
548C
100
AcDbEntity
  8
0
100
AcDbBlockEnd
  0
BLOCK
  5
549A
330
5499
100
AcDbEntity
  8
0
100
AcDbBlockBegin
  2
*D42
 70
     1
 10
0.0
 20
0.0
 30
0.0
  3
*D42
  1

  0
LINE
  5
549B
330
5499
100
AcDbEntity
  8
Dim
 62
     0
 48
0.5
370
    -2
100
AcDbLine
 10
1200.995182409297
 20
334.8718723729331
 30
0.0
 11
1109.159023814011
 21
334.8718723729331
 31
0.0
  0
LINE
  5
549C
330
5499
100
AcDbEntity
  8
Dim
 62
     0
 48
0.5
370
    -2
100
AcDbLine
 10
1200.995182409297
 20
419.4358981000661
 30
0.0
 11
1109.159023814011
 21
419.4358981000661
 31
0.0
  0
LINE
  5
549D
330
5499
100
AcDbEntity
  8
Dim
 62
     0
 48
0.5
370
    -2
100
AcDbLine
 10
1109.159023814011
 20
344.8712620213706
 30
0.0
 11
1109.159023814011
 21
409.4365084516286
 31
0.0
  0
INSERT
  5
549E
330
5499
100
AcDbEntity
  8
Dim
 62
     0
370
    -2
100
AcDbBlockReference
  2
_DOT
 10
1109.159023814011
 20
334.8718723729331
 30
0.0
 41
9.999389648437498
 42
9.999389648437498
 43
9.999389648437498
 50
270.0
  0
INSERT
  5
549F
330
5499
100
AcDbEntity
  8
Dim
 62
     0
370
    -2
100
AcDbBlockReference
  2
_DOT
 10
1109.159023814011
 20
419.4358981000661
 30
0.0
 41
9.999389648437498
 42
9.999389648437498
 43
9.999389648437498
 50
90.0
  0
MTEXT
  5
54A0
330
5499
100
AcDbEntity
  8
Dim
 62
     0
100
AcDbMText
 10
1086.942715220261
 20
377.1538852364996
 30
0.0
 40
24.4326171875
 41
0.0
 46
0.0
 71
     5
 72
     1
  1
\A1;85
  7
ＭＳ ゴシック
 11
0.0
 21
1.0
 31
0.0
 73
     1
 44
1.0
  0
POINT
  5
54A1
330
5499
100
AcDbEntity
  8
Defpoints
 62
     0
100
AcDbPoint
 10
1225.995182409297
 20
334.8718723729331
 30
0.0
  0
POINT
  5
54A2
330
5499
100
AcDbEntity
  8
Defpoints
 62
     0
100
AcDbPoint
 10
1225.995182409297
 20
419.4358981000661
 30
0.0
  0
POINT
  5
54A3
330
5499
100
AcDbEntity
  8
Defpoints
 62
     0
100
AcDbPoint
 10
1109.159023814011
 20
419.4358981000661
 30
0.0
  0
ENDBLK
  5
54A4
330
5499
100
AcDbEntity
  8
0
100
AcDbBlockEnd
  0
BLOCK
  5
54A7
330
54A6
100
AcDbEntity
  8
0
100
AcDbBlockBegin
  2
*D43
 70
     1
 10
0.0
 20
0.0
 30
0.0
  3
*D43
  1

  0
LINE
  5
54A8
330
54A6
100
AcDbEntity
  8
Dim
 62
     0
 48
0.5
370
    -2
100
AcDbLine
 10
643.7086465141472
 20
249.8717913830648
 30
0.0
 11
770.0380640026276
 21
249.8717913830648
 31
0.0
  0
LINE
  5
54A9
330
54A6
100
AcDbEntity
  8
Dim
 62
     0
 48
0.5
370
    -2
100
AcDbLine
 10
702.6533124249133
 20
419.8718798758781
 30
0.0
 11
770.0380640026275
 21
419.8718798758781
 31
0.0
  0
LINE
  5
54AA
330
54A6
100
AcDbEntity
  8
Dim
 62
     0
 48
0.5
370
    -2
100
AcDbLine
 10
770.0380640026276
 20
259.8711810315023
 30
0.0
 11
770.0380640026275
 21
409.8724902274406
 31
0.0
  0
INSERT
  5
54AB
330
54A6
100
AcDbEntity
  8
Dim
 62
     0
370
    -2
100
AcDbBlockReference
  2
_DOT
 10
770.0380640026276
 20
249.8717913830648
 30
0.0
 41
9.999389648437498
 42
9.999389648437498
 43
9.999389648437498
 50
270.0000000000001
  0
INSERT
  5
54AC
330
54A6
100
AcDbEntity
  8
Dim
 62
     0
370
    -2
100
AcDbBlockReference
  2
_DOT
 10
770.0380640026275
 20
419.8718798758781
 30
0.0
 41
9.999389648437498
 42
9.999389648437498
 43
9.999389648437498
 50
90.00000000000004
  0
MTEXT
  5
54AD
330
54A6
100
AcDbEntity
  8
Dim
 62
     0
100
AcDbMText
 10
747.8217554088776
 20
334.8718356294711
 30
0.0
 40
24.4326171875
 41
0.0
 46
0.0
 71
     5
 72
     1
  1
\A1;170
  7
ＭＳ ゴシック
 11
-6.687457561318980E-16
 21
1.0
 31
0.0
 73
     1
 44
1.0
  0
POINT
  5
54AE
330
54A6
100
AcDbEntity
  8
Defpoints
 62
     0
100
AcDbPoint
 10
618.7086465141472
 20
249.8717913830648
 30
0.0
  0
POINT
  5
54AF
330
54A6
100
AcDbEntity
  8
Defpoints
 62
     0
100
AcDbPoint
 10
677.6533124249133
 20
419.8718798758781
 30
0.0
  0
POINT
  5
54B0
330
54A6
100
AcDbEntity
  8
Defpoints
 62
     0
100
AcDbPoint
 10
770.0380640026275
 20
419.8718798758781
 30
0.0
  0
ENDBLK
  5
54B1
330
54A6
100
AcDbEntity
  8
0
100
AcDbBlockEnd
  0
BLOCK
  5
54B4
330
54B3
100
AcDbEntity
  8
0
100
AcDbBlockBegin
  2
*D44
 70
     1
 10
0.0
 20
0.0
 30
0.0
  3
*D44
  1

  0
LINE
  5
54B5
330
54B3
100
AcDbEntity
  8
Dim
 62
     0
370
    -2
100
AcDbLine
 10
1529.539557730014
 20
223.2931027035083
 30
0.0
 11
1529.539557730014
 21
170.3729531554338
 31
0.0
  0
LINE
  5
54B6
330
54B3
100
AcDbEntity
  8
Dim
 62
     0
370
    -2
100
AcDbLine
 10
1297.510818282431
 20
223.2931027035083
 30
0.0
 11
1297.510818282431
 21
170.3729531554338
 31
0.0
  0
LINE
  5
54B7
330
54B3
100
AcDbEntity
  8
Dim
 62
     0
370
    -2
100
AcDbLine
 10
1519.540168081576
 20
170.3729531554338
 30
0.0
 11
1307.510207930869
 21
170.3729531554338
 31
0.0
  0
INSERT
  5
54B8
330
54B3
100
AcDbEntity
  8
Dim
 62
     0
370
    -2
100
AcDbBlockReference
  2
_DOT
 10
1529.539557730014
 20
170.3729531554338
 30
0.0
 41
9.999389648437498
 42
9.999389648437498
 43
9.999389648437498
  0
INSERT
  5
54B9
330
54B3
100
AcDbEntity
  8
Dim
 62
     0
370
    -2
100
AcDbBlockReference
  2
_DOT
 10
1297.510818282431
 20
170.3729531554338
 30
0.0
 41
9.999389648437498
 42
9.999389648437498
 43
9.999389648437498
 50
180.0
  0
MTEXT
  5
54BA
330
54B3
100
AcDbEntity
  8
Dim
 62
     0
100
AcDbMText
 10
1413.525188006222
 20
192.5892617491838
 30
0.0
 40
24.4326171875
 41
0.0
 46
0.0
 71
     5
 72
     1
  1
\A1;230
  7
ＭＳ ゴシック
 73
     1
 44
1.0
  0
POINT
  5
54BB
330
54B3
100
AcDbEntity
  8
Defpoints
 62
     0
100
AcDbPoint
 10
1529.539557730014
 20
248.2931027035083
 30
0.0
  0
POINT
  5
54BC
330
54B3
100
AcDbEntity
  8
Defpoints
 62
     0
100
AcDbPoint
 10
1297.510818282431
 20
248.2931027035083
 30
0.0
  0
POINT
  5
54BD
330
54B3
100
AcDbEntity
  8
Defpoints
 62
     0
100
AcDbPoint
 10
1297.510818282431
 20
170.3729531554338
 30
0.0
  0
ENDBLK
  5
54BE
330
54B3
100
AcDbEntity
  8
0
100
AcDbBlockEnd
  0
BLOCK
  5
54C1
330
54C0
100
AcDbEntity
  8
0
100
AcDbBlockBegin
  2
*D45
 70
     1
 10
0.0
 20
0.0
 30
0.0
  3
*D45
  1

  0
LINE
  5
54C2
330
54C0
100
AcDbEntity
  8
Dim
 62
     0
370
    -2
100
AcDbLine
 10
245.0209800810264
 20
226.8176305822157
 30
0.0
 11
245.0209800810264
 21
170.3729531554338
 31
0.0
  0
LINE
  5
54C3
330
54C0
100
AcDbEntity
  8
Dim
 62
     0
370
    -2
100
AcDbLine
 10
607.0500867703579
 20
226.8176305822157
 30
0.0
 11
607.0500867703579
 21
170.3729531554338
 31
0.0
  0
LINE
  5
54C4
330
54C0
100
AcDbEntity
  8
Dim
 62
     0
370
    -2
100
AcDbLine
 10
255.0203697294639
 20
170.3729531554338
 30
0.0
 11
597.0506971219204
 21
170.3729531554338
 31
0.0
  0
INSERT
  5
54C5
330
54C0
100
AcDbEntity
  8
Dim
 62
     0
370
    -2
100
AcDbBlockReference
  2
_DOT
 10
245.0209800810264
 20
170.3729531554338
 30
0.0
 41
9.999389648437498
 42
9.999389648437498
 43
9.999389648437498
 50
180.0
  0
INSERT
  5
54C6
330
54C0
100
AcDbEntity
  8
Dim
 62
     0
370
    -2
100
AcDbBlockReference
  2
_DOT
 10
607.0500867703579
 20
170.3729531554338
 30
0.0
 41
9.999389648437498
 42
9.999389648437498
 43
9.999389648437498
  0
MTEXT
  5
54C7
330
54C0
100
AcDbEntity
  8
Dim
 62
     0
100
AcDbMText
 10
426.0355334256922
 20
192.5892617491838
 30
0.0
 40
24.4326171875
 41
0.0
 46
0.0
 71
     5
 72
     1
  1
\A1;360
  7
ＭＳ ゴシック
 73
     1
 44
1.0
  0
POINT
  5
54C8
330
54C0
100
AcDbEntity
  8
Defpoints
 62
     0
100
AcDbPoint
 10
245.0209800810264
 20
251.8176305822157
 30
0.0
  0
POINT
  5
54C9
330
54C0
100
AcDbEntity
  8
Defpoints
 62
     0
100
AcDbPoint
 10
607.0500867703579
 20
251.8176305822157
 30
0.0
  0
POINT
  5
54CA
330
54C0
100
AcDbEntity
  8
Defpoints
 62
     0
100
AcDbPoint
 10
607.0500867703579
 20
170.3729531554338
 30
0.0
  0
ENDBLK
  5
54CB
330
54C0
100
AcDbEntity
  8
0
100
AcDbBlockEnd
  0
BLOCK
  5
54E0
330
54DF
100
AcDbEntity
  8
0
100
AcDbBlockBegin
  2
*D46
 70
     1
 10
0.0
 20
0.0
 30
0.0
  3
*D46
  1

  0
LINE
  5
54E1
330
54DF
100
AcDbEntity
  8
Dim
 62
     0
 48
0.5
370
    -2
100
AcDbLine
 10
695.1391373591721
 20
1657.309549248924
 30
0.0
 11
757.2435007115407
 21
1657.309549248924
 31
0.0
  0
LINE
  5
54E2
330
54DF
100
AcDbEntity
  8
Dim
 62
     0
 48
0.5
370
    -2
100
AcDbLine
 10
695.1391373591721
 20
1287.309549248923
 30
0.0
 11
757.2435007115407
 21
1287.309549248923
 31
0.0
  0
LINE
  5
54E3
330
54DF
100
AcDbEntity
  8
Dim
 62
     0
 48
0.5
370
    -2
100
AcDbLine
 10
757.2435007115407
 20
1647.310159600487
 30
0.0
 11
757.2435007115407
 21
1297.308938897361
 31
0.0
  0
INSERT
  5
54E4
330
54DF
100
AcDbEntity
  8
Dim
 62
     0
370
    -2
100
AcDbBlockReference
  2
_DOT
 10
757.2435007115407
 20
1657.309549248924
 30
0.0
 41
9.999389648437498
 42
9.999389648437498
 43
9.999389648437498
 50
90.0
  0
INSERT
  5
54E5
330
54DF
100
AcDbEntity
  8
Dim
 62
     0
370
    -2
100
AcDbBlockReference
  2
_DOT
 10
757.2435007115407
 20
1287.309549248923
 30
0.0
 41
9.999389648437498
 42
9.999389648437498
 43
9.999389648437498
 50
270.0
  0
MTEXT
  5
54E6
330
54DF
100
AcDbEntity
  8
Dim
 62
     0
100
AcDbMText
 10
735.0271921177907
 20
1480.541948311856
 30
0.0
 40
24.4326171875
 41
0.0
 46
0.0
 71
     5
 72
     1
  1
\A1;370
  7
ＭＳ ゴシック
 11
0.0
 21
1.0
 31
0.0
 73
     1
 44
1.0
  0
POINT
  5
54E7
330
54DF
100
AcDbEntity
  8
Defpoints
 62
     0
100
AcDbPoint
 10
670.1391373591721
 20
1657.309549248924
 30
0.0
  0
POINT
  5
54E8
330
54DF
100
AcDbEntity
  8
Defpoints
 62
     0
100
AcDbPoint
 10
670.1391373591721
 20
1287.309549248923
 30
0.0
  0
POINT
  5
54E9
330
54DF
100
AcDbEntity
  8
Defpoints
 62
     0
100
AcDbPoint
 10
757.2435007115407
 20
1287.309549248923
 30
0.0
  0
ENDBLK
  5
54EA
330
54DF
100
AcDbEntity
  8
0
100
AcDbBlockEnd
  0
BLOCK
  5
54ED
330
54EC
100
AcDbEntity
  8
0
100
AcDbBlockBegin
  2
*D47
 70
     1
 10
0.0
 20
0.0
 30
0.0
  3
*D47
  1

  0
LINE
  5
54EE
330
54EC
100
AcDbEntity
  8
Dim
 62
     0
370
    -2
100
AcDbLine
 10
186.855508515144
 20
1650.640357619192
 30
0.0
 11
99.95431967555746
 21
1650.640357619192
 31
0.0
  0
LINE
  5
54EF
330
54EC
100
AcDbEntity
  8
Dim
 62
     0
370
    -2
100
AcDbLine
 10
186.855508515144
 20
1295.640357619192
 30
0.0
 11
99.95431967555743
 21
1295.640357619192
 31
0.0
  0
LINE
  5
54F0
330
54EC
100
AcDbEntity
  8
Dim
 62
     0
370
    -2
100
AcDbLine
 10
99.95431967555746
 20
1640.640967970754
 30
0.0
 11
99.95431967555743
 21
1305.639747267629
 31
0.0
  0
INSERT
  5
54F1
330
54EC
100
AcDbEntity
  8
Dim
 62
     0
370
    -2
100
AcDbBlockReference
  2
_DOT
 10
99.95431967555746
 20
1650.640357619192
 30
0.0
 41
9.999389648437498
 42
9.999389648437498
 43
9.999389648437498
 50
90.0
  0
INSERT
  5
54F2
330
54EC
100
AcDbEntity
  8
Dim
 62
     0
370
    -2
100
AcDbBlockReference
  2
_DOT
 10
99.95431967555743
 20
1295.640357619192
 30
0.0
 41
9.999389648437498
 42
9.999389648437498
 43
9.999389648437498
 50
270.0
  0
MTEXT
  5
54F3
330
54EC
100
AcDbEntity
  8
Dim
 62
     0
100
AcDbMText
 10
77.73801108180744
 20
1473.140357619192
 30
0.0
 40
24.4326171875
 41
0.0
 46
0.0
 71
     5
 72
     1
  1
\A1;355
  7
ＭＳ ゴシック
 11
8.006115332508172E-17
 21
1.0
 31
0.0
 73
     1
 44
1.0
  0
POINT
  5
54F4
330
54EC
100
AcDbEntity
  8
Defpoints
 62
     0
100
AcDbPoint
 10
211.855508515144
 20
1650.640357619192
 30
0.0
  0
POINT
  5
54F5
330
54EC
100
AcDbEntity
  8
Defpoints
 62
     0
100
AcDbPoint
 10
211.855508515144
 20
1295.640357619192
 30
0.0
  0
POINT
  5
54F6
330
54EC
100
AcDbEntity
  8
Defpoints
 62
     0
100
AcDbPoint
 10
99.95431967555743
 20
1295.640357619192
 30
0.0
  0
ENDBLK
  5
54F7
330
54EC
100
AcDbEntity
  8
0
100
AcDbBlockEnd
  0
BLOCK
  5
54FA
330
54F9
100
AcDbEntity
  8
0
100
AcDbBlockBegin
  2
*D48
 70
     1
 10
0.0
 20
0.0
 30
0.0
  3
*D48
  1

  0
LINE
  5
54FB
330
54F9
100
AcDbEntity
  8
Dim
 62
     0
370
    -2
100
AcDbLine
 10
182.9937264411695
 20
1285.838111525442
 30
0.0
 11
182.9937264411695
 21
1200.293836002234
 31
0.0
  0
LINE
  5
54FC
330
54F9
100
AcDbEntity
  8
Dim
 62
     0
370
    -2
100
AcDbLine
 10
667.9937264411694
 20
1285.838111525442
 30
0.0
 11
667.9937264411694
 21
1200.293836002234
 31
0.0
  0
LINE
  5
54FD
330
54F9
100
AcDbEntity
  8
Dim
 62
     0
370
    -2
100
AcDbLine
 10
192.993116089607
 20
1200.293836002234
 30
0.0
 11
657.9943367927319
 21
1200.293836002234
 31
0.0
  0
INSERT
  5
54FE
330
54F9
100
AcDbEntity
  8
Dim
 62
     0
370
    -2
100
AcDbBlockReference
  2
_DOT
 10
182.9937264411695
 20
1200.293836002234
 30
0.0
 41
9.999389648437498
 42
9.999389648437498
 43
9.999389648437498
 50
180.0
  0
INSERT
  5
54FF
330
54F9
100
AcDbEntity
  8
Dim
 62
     0
370
    -2
100
AcDbBlockReference
  2
_DOT
 10
667.9937264411694
 20
1200.293836002234
 30
0.0
 41
9.999389648437498
 42
9.999389648437498
 43
9.999389648437498
  0
MTEXT
  5
5500
330
54F9
100
AcDbEntity
  8
Dim
 62
     0
100
AcDbMText
 10
425.4937264411694
 20
1222.510144595984
 30
0.0
 40
24.4326171875
 41
0.0
 46
0.0
 71
     5
 72
     1
  1
\A1;485
  7
ＭＳ ゴシック
 73
     1
 44
1.0
  0
POINT
  5
5501
330
54F9
100
AcDbEntity
  8
Defpoints
 62
     0
100
AcDbPoint
 10
182.9937264411695
 20
1310.838111525442
 30
0.0
  0
POINT
  5
5502
330
54F9
100
AcDbEntity
  8
Defpoints
 62
     0
100
AcDbPoint
 10
667.9937264411694
 20
1310.838111525442
 30
0.0
  0
POINT
  5
5503
330
54F9
100
AcDbEntity
  8
Defpoints
 62
     0
100
AcDbPoint
 10
667.9937264411694
 20
1200.293836002234
 30
0.0
  0
ENDBLK
  5
5504
330
54F9
100
AcDbEntity
  8
0
100
AcDbBlockEnd
  0
BLOCK
  5
5518
330
5517
100
AcDbEntity
  8
0
100
AcDbBlockBegin
  2
*D49
 70
     1
 10
0.0
 20
0.0
 30
0.0
  3
*D49
  1

  0
LINE
  5
5519
330
5517
100
AcDbEntity
  8
Dim
 62
     0
370
    -2
100
AcDbLine
 10
1438.524595132565
 20
300.9065675021997
 30
0.0
 11
1413.525186333158
 21
300.9065675021997
 31
0.0
  0
LINE
  5
551A
330
5517
100
AcDbEntity
  8
Dim
 62
     0
370
    -2
100
AcDbLine
 10
1438.525186333158
 20
419.8718690700802
 30
0.0
 11
1413.525186333158
 21
419.8718690700802
 31
0.0
  0
LINE
  5
551B
330
5517
100
AcDbEntity
  8
Dim
 62
     0
370
    -2
100
AcDbLine
 10
1413.525186333158
 20
300.9065675021997
 30
0.0
 11
1413.525186333158
 21
607.2685197461025
 31
0.0
  0
LINE
  5
551C
330
5517
100
AcDbEntity
  8
Dim
 62
     0
370
    -2
100
AcDbLine
 10
1413.525186333158
 20
300.9065675021997
 30
0.0
 11
1413.525186333158
 21
419.8718690700802
 31
0.0
  0
LINE
  5
551D
330
5517
100
AcDbEntity
  8
Dim
 62
     0
370
    -2
100
AcDbLine
 10
1413.525186333158
 20
290.9071778537622
 30
0.0
 11
1413.525186333158
 21
280.9077882053247
 31
0.0
  0
LINE
  5
551E
330
5517
100
AcDbEntity
  8
Dim
 62
     0
370
    -2
100
AcDbLine
 10
1413.525186333158
 20
429.8712587185177
 30
0.0
 11
1413.525186333158
 21
439.8706483669552
 31
0.0
  0
INSERT
  5
551F
330
5517
100
AcDbEntity
  8
Dim
 62
     0
370
    -2
100
AcDbBlockReference
  2
_DOT
 10
1413.525186333158
 20
300.9065675021997
 30
0.0
 41
9.999389648437498
 42
9.999389648437498
 43
9.999389648437498
 50
90.0
  0
INSERT
  5
5520
330
5517
100
AcDbEntity
  8
Dim
 62
     0
370
    -2
100
AcDbBlockReference
  2
_DOT
 10
1413.525186333158
 20
419.8718690700802
 30
0.0
 41
9.999389648437498
 42
9.999389648437498
 43
9.999389648437498
 50
270.0
  0
MTEXT
  5
5521
330
5517
100
AcDbEntity
  8
Dim
 62
     0
100
AcDbMText
 10
1389.146591118314
 20
531.0805597851651
 30
0.0
 40
24.4326171875
 41
0.0
 46
0.0
 71
     5
 72
     1
  1
\A1;120(深さ)
  7
ＭＳ ゴシック
 11
0.0
 21
1.0
 31
0.0
 73
     1
 44
1.0
  0
POINT
  5
5522
330
5517
100
AcDbEntity
  8
Defpoints
 62
     0
100
AcDbPoint
 10
1413.524595132565
 20
300.9065675021997
 30
0.0
  0
POINT
  5
5523
330
5517
100
AcDbEntity
  8
Defpoints
 62
     0
100
AcDbPoint
 10
1413.525186333158
 20
419.8718690700802
 30
0.0
  0
POINT
  5
5524
330
5517
100
AcDbEntity
  8
Defpoints
 62
     0
100
AcDbPoint
 10
1413.525186333158
 20
419.8718690700802
 30
0.0
  0
ENDBLK
  5
5525
330
5517
100
AcDbEntity
  8
0
100
AcDbBlockEnd
  0
BLOCK
  5
552A
330
5529
100
AcDbEntity
  8
0
100
AcDbBlockBegin
  2
*D50
 70
     1
 10
0.0
 20
0.0
 30
0.0
  3
*D50
  1

  0
LINE
  5
552B
330
5529
100
AcDbEntity
  8
Dim
 62
     0
370
    -2
100
AcDbLine
 10
1604.502232979292
 20
1634.809547072317
 30
0.0
 11
1674.57192348029
 21
1634.809547072317
 31
0.0
  0
LINE
  5
552C
330
5529
100
AcDbEntity
  8
Dim
 62
     0
370
    -2
100
AcDbLine
 10
1604.502232979292
 20
1309.809547072317
 30
0.0
 11
1674.57192348029
 21
1309.809547072317
 31
0.0
  0
LINE
  5
552D
330
5529
100
AcDbEntity
  8
Dim
 62
     0
370
    -2
100
AcDbLine
 10
1674.57192348029
 20
1624.810157423879
 30
0.0
 11
1674.57192348029
 21
1319.808936720754
 31
0.0
  0
INSERT
  5
552E
330
5529
100
AcDbEntity
  8
Dim
 62
     0
370
    -2
100
AcDbBlockReference
  2
_DOT
 10
1674.57192348029
 20
1634.809547072317
 30
0.0
 41
9.999389648437498
 42
9.999389648437498
 43
9.999389648437498
 50
90.0
  0
INSERT
  5
552F
330
5529
100
AcDbEntity
  8
Dim
 62
     0
370
    -2
100
AcDbBlockReference
  2
_DOT
 10
1674.57192348029
 20
1309.809547072317
 30
0.0
 41
9.999389648437498
 42
9.999389648437498
 43
9.999389648437498
 50
270.0
  0
MTEXT
  5
5530
330
5529
100
AcDbEntity
  8
Dim
 62
     0
100
AcDbMText
 10
1652.35561488654
 20
1472.309547072317
 30
0.0
 40
24.4326171875
 41
0.0
 46
0.0
 71
     5
 72
     1
  1
\A1;325
  7
ＭＳ ゴシック
 11
0.0
 21
1.0
 31
0.0
 73
     1
 44
1.0
  0
POINT
  5
5531
330
5529
100
AcDbEntity
  8
Defpoints
 62
     0
100
AcDbPoint
 10
1579.502232979292
 20
1634.809547072317
 30
0.0
  0
POINT
  5
5532
330
5529
100
AcDbEntity
  8
Defpoints
 62
     0
100
AcDbPoint
 10
1579.502232979292
 20
1309.809547072317
 30
0.0
  0
POINT
  5
5533
330
5529
100
AcDbEntity
  8
Defpoints
 62
     0
100
AcDbPoint
 10
1674.57192348029
 20
1309.809547072317
 30
0.0
  0
ENDBLK
  5
5534
330
5529
100
AcDbEntity
  8
0
100
AcDbBlockEnd
  0
BLOCK
  5
5537
330
5536
100
AcDbEntity
  8
0
100
AcDbBlockBegin
  2
*D51
 70
     1
 10
0.0
 20
0.0
 30
0.0
  3
*D51
  1

  0
LINE
  5
5538
330
5536
100
AcDbEntity
  8
Dim
 62
     0
370
    -2
100
AcDbLine
 10
1144.502232979292
 20
1283.393373447804
 30
0.0
 11
1144.502232979292
 21
1151.602466389817
 31
0.0
  0
LINE
  5
5539
330
5536
100
AcDbEntity
  8
Dim
 62
     0
370
    -2
100
AcDbLine
 10
1579.502232979292
 20
1283.393373447804
 30
0.0
 11
1579.502232979292
 21
1151.602466389817
 31
0.0
  0
LINE
  5
553A
330
5536
100
AcDbEntity
  8
Dim
 62
     0
370
    -2
100
AcDbLine
 10
1154.50162262773
 20
1151.602466389817
 30
0.0
 11
1569.502843330855
 21
1151.602466389817
 31
0.0
  0
INSERT
  5
553B
330
5536
100
AcDbEntity
  8
Dim
 62
     0
370
    -2
100
AcDbBlockReference
  2
_DOT
 10
1144.502232979292
 20
1151.602466389817
 30
0.0
 41
9.999389648437498
 42
9.999389648437498
 43
9.999389648437498
 50
180.0
  0
INSERT
  5
553C
330
5536
100
AcDbEntity
  8
Dim
 62
     0
370
    -2
100
AcDbBlockReference
  2
_DOT
 10
1579.502232979292
 20
1151.602466389817
 30
0.0
 41
9.999389648437498
 42
9.999389648437498
 43
9.999389648437498
  0
MTEXT
  5
553D
330
5536
100
AcDbEntity
  8
Dim
 62
     0
100
AcDbMText
 10
1362.002232979292
 20
1173.818774983567
 30
0.0
 40
24.4326171875
 41
0.0
 46
0.0
 71
     5
 72
     1
  1
\A1;435
  7
ＭＳ ゴシック
 73
     1
 44
1.0
  0
POINT
  5
553E
330
5536
100
AcDbEntity
  8
Defpoints
 62
     0
100
AcDbPoint
 10
1144.502232979292
 20
1308.393373447804
 30
0.0
  0
POINT
  5
553F
330
5536
100
AcDbEntity
  8
Defpoints
 62
     0
100
AcDbPoint
 10
1579.502232979292
 20
1308.393373447804
 30
0.0
  0
POINT
  5
5540
330
5536
100
AcDbEntity
  8
Defpoints
 62
     0
100
AcDbPoint
 10
1579.502232979292
 20
1151.602466389817
 30
0.0
  0
ENDBLK
  5
5541
330
5536
100
AcDbEntity
  8
0
100
AcDbBlockEnd
  0
BLOCK
  5
5547
330
5546
100
AcDbEntity
  8
0
100
AcDbBlockBegin
  2
*D52
 70
     1
 10
0.0
 20
0.0
 30
0.0
  3
*D52
  1

  0
LINE
  5
5548
330
5546
100
AcDbEntity
  8
Dim
 62
     0
370
    -2
100
AcDbLine
 10
1312.00223297929
 20
1447.309547072317
 30
0.0
 11
1312.00223297929
 21
1223.303117850282
 31
0.0
  0
LINE
  5
5549
330
5546
100
AcDbEntity
  8
Dim
 62
     0
370
    -2
100
AcDbLine
 10
1412.00223297929
 20
1447.309547072317
 30
0.0
 11
1412.00223297929
 21
1223.303117850282
 31
0.0
  0
LINE
  5
554A
330
5546
100
AcDbEntity
  8
Dim
 62
     0
370
    -2
100
AcDbLine
 10
1322.001622627728
 20
1223.303117850282
 30
0.0
 11
1402.002843330853
 21
1223.303117850282
 31
0.0
  0
INSERT
  5
554B
330
5546
100
AcDbEntity
  8
Dim
 62
     0
370
    -2
100
AcDbBlockReference
  2
_DOT
 10
1312.00223297929
 20
1223.303117850282
 30
0.0
 41
9.999389648437498
 42
9.999389648437498
 43
9.999389648437498
 50
180.0
  0
INSERT
  5
554C
330
5546
100
AcDbEntity
  8
Dim
 62
     0
370
    -2
100
AcDbBlockReference
  2
_DOT
 10
1412.00223297929
 20
1223.303117850282
 30
0.0
 41
9.999389648437498
 42
9.999389648437498
 43
9.999389648437498
  0
MTEXT
  5
554D
330
5546
100
AcDbEntity
  8
Dim
 62
     0
100
AcDbMText
 10
1362.00223297929
 20
1245.519426444032
 30
0.0
 40
24.4326171875
 41
0.0
 46
0.0
 71
     5
 72
     1
  1
\A1;%%c100
  7
ＭＳ ゴシック
 73
     1
 44
1.0
  0
POINT
  5
554E
330
5546
100
AcDbEntity
  8
Defpoints
 62
     0
100
AcDbPoint
 10
1312.00223297929
 20
1472.309547072317
 30
0.0
  0
POINT
  5
554F
330
5546
100
AcDbEntity
  8
Defpoints
 62
     0
100
AcDbPoint
 10
1412.00223297929
 20
1472.309547072317
 30
0.0
  0
POINT
  5
5550
330
5546
100
AcDbEntity
  8
Defpoints
 62
     0
100
AcDbPoint
 10
1412.00223297929
 20
1223.303117850282
 30
0.0
  0
ENDBLK
  5
5551
330
5546
100
AcDbEntity
  8
0
100
AcDbBlockEnd
  0
BLOCK
  5
55FE
330
55FD
100
AcDbEntity
  8
0
100
AcDbBlockBegin
  2
*D53
 70
     1
 10
0.0
 20
0.0
 30
0.0
  3
*D53
  1

  0
LINE
  5
5600
330
55FD
100
AcDbEntity
  8
Dim
 62
     0
 48
0.5
370
    -2
100
AcDbLine
 10
2565.403834003308
 20
2261.410723384257
 30
0.0
 11
2565.403834003308
 21
2304.386546553877
 31
0.0
  0
LINE
  5
5601
330
55FD
100
AcDbEntity
  8
Dim
 62
     0
 48
0.5
370
    -2
100
AcDbLine
 10
3065.190652167888
 20
2261.410723384257
 30
0.0
 11
3065.190652167888
 21
2304.386546553877
 31
0.0
  0
LINE
  5
5602
330
55FD
100
AcDbEntity
  8
Dim
 62
     0
 48
0.5
370
    -2
100
AcDbLine
 10
2575.403223651745
 20
2304.386546553877
 30
0.0
 11
3055.191262519451
 21
2304.386546553877
 31
0.0
  0
INSERT
  5
5603
330
55FD
100
AcDbEntity
  8
Dim
 62
     0
370
    -2
100
AcDbBlockReference
  2
_DOT
 10
2565.403834003308
 20
2304.386546553877
 30
0.0
 41
9.999389648437498
 42
9.999389648437498
 43
9.999389648437498
 50
180.0
  0
INSERT
  5
5604
330
55FD
100
AcDbEntity
  8
Dim
 62
     0
370
    -2
100
AcDbBlockReference
  2
_DOT
 10
3065.190652167888
 20
2304.386546553877
 30
0.0
 41
9.999389648437498
 42
9.999389648437498
 43
9.999389648437498
  0
MTEXT
  5
5605
330
55FD
100
AcDbEntity
  8
Dim
 62
     0
100
AcDbMText
 10
2823.071581967122
 20
2326.602855147627
 30
0.0
 40
24.4326171875
 41
0.0
 46
0.0
 71
     5
 72
     1
  1
\A1;500
  7
ＭＳ ゴシック
 73
     1
 44
1.0
  0
POINT
  5
5606
330
55FD
100
AcDbEntity
  8
Defpoints
 62
     0
100
AcDbPoint
 10
2565.403834003308
 20
2236.410723384257
 30
0.0
  0
POINT
  5
5607
330
55FD
100
AcDbEntity
  8
Defpoints
 62
     0
100
AcDbPoint
 10
3065.190652167888
 20
2236.410723384257
 30
0.0
  0
POINT
  5
5608
330
55FD
100
AcDbEntity
  8
Defpoints
 62
     0
100
AcDbPoint
 10
3065.190652167888
 20
2304.386546553877
 30
0.0
  0
ENDBLK
  5
55FF
330
55FD
100
AcDbEntity
  8
0
100
AcDbBlockEnd
  0
BLOCK
  5
560A
330
5609
100
AcDbEntity
  8
0
100
AcDbBlockBegin
  2
*D54
 70
     1
 10
0.0
 20
0.0
 30
0.0
  3
*D54
  1

  0
LINE
  5
560C
330
5609
100
AcDbEntity
  8
Dim
 62
     0
 48
0.5
370
    -2
100
AcDbLine
 10
3665.068147844939
 20
811.0905662590443
 30
0.0
 11
3498.42091450554
 21
811.0905662590443
 31
0.0
  0
LINE
  5
560D
330
5609
100
AcDbEntity
  8
Dim
 62
     0
 48
0.5
370
    -2
100
AcDbLine
 10
3590.257073100825
 20
896.0905682325714
 30
0.0
 11
3498.42091450554
 21
896.0905682325714
 31
0.0
  0
LINE
  5
560E
330
5609
100
AcDbEntity
  8
Dim
 62
     0
 48
0.5
370
    -2
100
AcDbLine
 10
3498.42091450554
 20
821.0899559074818
 30
0.0
 11
3498.42091450554
 21
886.0911785841339
 31
0.0
  0
INSERT
  5
560F
330
5609
100
AcDbEntity
  8
Dim
 62
     0
370
    -2
100
AcDbBlockReference
  2
_DOT
 10
3498.42091450554
 20
811.0905662590443
 30
0.0
 41
9.999389648437498
 42
9.999389648437498
 43
9.999389648437498
 50
270.0
  0
INSERT
  5
5610
330
5609
100
AcDbEntity
  8
Dim
 62
     0
370
    -2
100
AcDbBlockReference
  2
_DOT
 10
3498.42091450554
 20
896.0905682325714
 30
0.0
 41
9.999389648437498
 42
9.999389648437498
 43
9.999389648437498
 50
90.0
  0
MTEXT
  5
5611
330
5609
100
AcDbEntity
  8
Dim
 62
     0
100
AcDbMText
 10
3476.20460591179
 20
853.5905672458078
 30
0.0
 40
24.4326171875
 41
0.0
 46
0.0
 71
     5
 72
     1
  1
\A1;85
  7
ＭＳ ゴシック
 11
0.0
 21
1.0
 31
0.0
 73
     1
 44
1.0
  0
POINT
  5
5612
330
5609
100
AcDbEntity
  8
Defpoints
 62
     0
100
AcDbPoint
 10
3690.068147844939
 20
811.0905662590443
 30
0.0
  0
POINT
  5
5613
330
5609
100
AcDbEntity
  8
Defpoints
 62
     0
100
AcDbPoint
 10
3615.257073100825
 20
896.0905682325714
 30
0.0
  0
POINT
  5
5614
330
5609
100
AcDbEntity
  8
Defpoints
 62
     0
100
AcDbPoint
 10
3498.42091450554
 20
896.0905682325714
 30
0.0
  0
ENDBLK
  5
560B
330
5609
100
AcDbEntity
  8
0
100
AcDbBlockEnd
  0
BLOCK
  5
5616
330
5615
100
AcDbEntity
  8
0
100
AcDbBlockBegin
  2
*D55
 70
     1
 10
0.0
 20
0.0
 30
0.0
  3
*D55
  1

  0
LINE
  5
5618
330
5615
100
AcDbEntity
  8
Dim
 62
     0
 48
0.5
370
    -2
100
AcDbLine
 10
3590.257073100825
 20
896.0905682325714
 30
0.0
 11
3498.42091450554
 21
896.0905682325714
 31
0.0
  0
LINE
  5
5619
330
5615
100
AcDbEntity
  8
Dim
 62
     0
 48
0.5
370
    -2
100
AcDbLine
 10
3590.257073100825
 20
980.6545939597044
 30
0.0
 11
3498.42091450554
 21
980.6545939597044
 31
0.0
  0
LINE
  5
561A
330
5615
100
AcDbEntity
  8
Dim
 62
     0
 48
0.5
370
    -2
100
AcDbLine
 10
3498.42091450554
 20
906.0899578810089
 30
0.0
 11
3498.42091450554
 21
970.6552043112669
 31
0.0
  0
INSERT
  5
561B
330
5615
100
AcDbEntity
  8
Dim
 62
     0
370
    -2
100
AcDbBlockReference
  2
_DOT
 10
3498.42091450554
 20
896.0905682325714
 30
0.0
 41
9.999389648437498
 42
9.999389648437498
 43
9.999389648437498
 50
270.0
  0
INSERT
  5
561C
330
5615
100
AcDbEntity
  8
Dim
 62
     0
370
    -2
100
AcDbBlockReference
  2
_DOT
 10
3498.42091450554
 20
980.6545939597044
 30
0.0
 41
9.999389648437498
 42
9.999389648437498
 43
9.999389648437498
 50
90.0
  0
MTEXT
  5
561D
330
5615
100
AcDbEntity
  8
Dim
 62
     0
100
AcDbMText
 10
3476.20460591179
 20
938.3725810961379
 30
0.0
 40
24.4326171875
 41
0.0
 46
0.0
 71
     5
 72
     1
  1
\A1;85
  7
ＭＳ ゴシック
 11
0.0
 21
1.0
 31
0.0
 73
     1
 44
1.0
  0
POINT
  5
561E
330
5615
100
AcDbEntity
  8
Defpoints
 62
     0
100
AcDbPoint
 10
3615.257073100825
 20
896.0905682325714
 30
0.0
  0
POINT
  5
561F
330
5615
100
AcDbEntity
  8
Defpoints
 62
     0
100
AcDbPoint
 10
3615.257073100825
 20
980.6545939597044
 30
0.0
  0
POINT
  5
5620
330
5615
100
AcDbEntity
  8
Defpoints
 62
     0
100
AcDbPoint
 10
3498.42091450554
 20
980.6545939597044
 30
0.0
  0
ENDBLK
  5
5617
330
5615
100
AcDbEntity
  8
0
100
AcDbBlockEnd
  0
BLOCK
  5
5622
330
5621
100
AcDbEntity
  8
0
100
AcDbBlockBegin
  2
*D56
 70
     1
 10
0.0
 20
0.0
 30
0.0
  3
*D56
  1

  0
LINE
  5
5624
330
5621
100
AcDbEntity
  8
Dim
 62
     0
 48
0.5
370
    -2
100
AcDbLine
 10
3032.970537205676
 20
811.090487242703
 30
0.0
 11
3159.299954694156
 21
811.090487242703
 31
0.0
  0
LINE
  5
5625
330
5621
100
AcDbEntity
  8
Dim
 62
     0
 48
0.5
370
    -2
100
AcDbLine
 10
3091.915203116442
 20
981.0905757355164
 30
0.0
 11
3159.299954694156
 21
981.0905757355164
 31
0.0
  0
LINE
  5
5626
330
5621
100
AcDbEntity
  8
Dim
 62
     0
 48
0.5
370
    -2
100
AcDbLine
 10
3159.299954694156
 20
821.0898768911405
 30
0.0
 11
3159.299954694156
 21
971.0911860870789
 31
0.0
  0
INSERT
  5
5627
330
5621
100
AcDbEntity
  8
Dim
 62
     0
370
    -2
100
AcDbBlockReference
  2
_DOT
 10
3159.299954694156
 20
811.090487242703
 30
0.0
 41
9.999389648437498
 42
9.999389648437498
 43
9.999389648437498
 50
270.0
  0
INSERT
  5
5628
330
5621
100
AcDbEntity
  8
Dim
 62
     0
370
    -2
100
AcDbBlockReference
  2
_DOT
 10
3159.299954694156
 20
981.0905757355164
 30
0.0
 41
9.999389648437498
 42
9.999389648437498
 43
9.999389648437498
 50
90.0
  0
MTEXT
  5
5629
330
5621
100
AcDbEntity
  8
Dim
 62
     0
100
AcDbMText
 10
3137.083646100406
 20
896.0905314891094
 30
0.0
 40
24.4326171875
 41
0.0
 46
0.0
 71
     5
 72
     1
  1
\A1;170
  7
ＭＳ ゴシック
 11
0.0
 21
1.0
 31
0.0
 73
     1
 44
1.0
  0
POINT
  5
562A
330
5621
100
AcDbEntity
  8
Defpoints
 62
     0
100
AcDbPoint
 10
3007.970537205676
 20
811.090487242703
 30
0.0
  0
POINT
  5
562B
330
5621
100
AcDbEntity
  8
Defpoints
 62
     0
100
AcDbPoint
 10
3066.915203116442
 20
981.0905757355164
 30
0.0
  0
POINT
  5
562C
330
5621
100
AcDbEntity
  8
Defpoints
 62
     0
100
AcDbPoint
 10
3159.299954694156
 20
981.0905757355164
 30
0.0
  0
ENDBLK
  5
5623
330
5621
100
AcDbEntity
  8
0
100
AcDbBlockEnd
  0
BLOCK
  5
562E
330
562D
100
AcDbEntity
  8
0
100
AcDbBlockBegin
  2
*D57
 70
     1
 10
0.0
 20
0.0
 30
0.0
  3
*D57
  1

  0
LINE
  5
5630
330
562D
100
AcDbEntity
  8
Dim
 62
     0
370
    -2
100
AcDbLine
 10
3918.801448421543
 20
784.5117985631466
 30
0.0
 11
3918.801448421543
 21
731.5916490150721
 31
0.0
  0
LINE
  5
5631
330
562D
100
AcDbEntity
  8
Dim
 62
     0
370
    -2
100
AcDbLine
 10
3686.77270897396
 20
784.5117985631466
 30
0.0
 11
3686.77270897396
 21
731.5916490150721
 31
0.0
  0
LINE
  5
5632
330
562D
100
AcDbEntity
  8
Dim
 62
     0
370
    -2
100
AcDbLine
 10
3908.802058773105
 20
731.5916490150721
 30
0.0
 11
3696.772098622397
 21
731.5916490150721
 31
0.0
  0
INSERT
  5
5633
330
562D
100
AcDbEntity
  8
Dim
 62
     0
370
    -2
100
AcDbBlockReference
  2
_DOT
 10
3918.801448421543
 20
731.5916490150721
 30
0.0
 41
9.999389648437498
 42
9.999389648437498
 43
9.999389648437498
  0
INSERT
  5
5634
330
562D
100
AcDbEntity
  8
Dim
 62
     0
370
    -2
100
AcDbBlockReference
  2
_DOT
 10
3686.77270897396
 20
731.5916490150721
 30
0.0
 41
9.999389648437498
 42
9.999389648437498
 43
9.999389648437498
 50
180.0
  0
MTEXT
  5
5635
330
562D
100
AcDbEntity
  8
Dim
 62
     0
100
AcDbMText
 10
3802.787078697751
 20
753.8079576088221
 30
0.0
 40
24.4326171875
 41
0.0
 46
0.0
 71
     5
 72
     1
  1
\A1;230
  7
ＭＳ ゴシック
 73
     1
 44
1.0
  0
POINT
  5
5636
330
562D
100
AcDbEntity
  8
Defpoints
 62
     0
100
AcDbPoint
 10
3918.801448421543
 20
809.5117985631466
 30
0.0
  0
POINT
  5
5637
330
562D
100
AcDbEntity
  8
Defpoints
 62
     0
100
AcDbPoint
 10
3686.77270897396
 20
809.5117985631466
 30
0.0
  0
POINT
  5
5638
330
562D
100
AcDbEntity
  8
Defpoints
 62
     0
100
AcDbPoint
 10
3686.77270897396
 20
731.5916490150721
 30
0.0
  0
ENDBLK
  5
562F
330
562D
100
AcDbEntity
  8
0
100
AcDbBlockEnd
  0
BLOCK
  5
563A
330
5639
100
AcDbEntity
  8
0
100
AcDbBlockBegin
  2
*D58
 70
     1
 10
0.0
 20
0.0
 30
0.0
  3
*D58
  1

  0
LINE
  5
563C
330
5639
100
AcDbEntity
  8
Dim
 62
     0
370
    -2
100
AcDbLine
 10
2634.282870772555
 20
788.0363264418539
 30
0.0
 11
2634.282870772555
 21
731.5916490150721
 31
0.0
  0
LINE
  5
563D
330
5639
100
AcDbEntity
  8
Dim
 62
     0
370
    -2
100
AcDbLine
 10
2996.311977461886
 20
788.0363264418539
 30
0.0
 11
2996.311977461886
 21
731.5916490150721
 31
0.0
  0
LINE
  5
563E
330
5639
100
AcDbEntity
  8
Dim
 62
     0
370
    -2
100
AcDbLine
 10
2644.282260420992
 20
731.5916490150721
 30
0.0
 11
2986.312587813449
 21
731.5916490150721
 31
0.0
  0
INSERT
  5
563F
330
5639
100
AcDbEntity
  8
Dim
 62
     0
370
    -2
100
AcDbBlockReference
  2
_DOT
 10
2634.282870772555
 20
731.5916490150721
 30
0.0
 41
9.999389648437498
 42
9.999389648437498
 43
9.999389648437498
 50
180.0
  0
INSERT
  5
5640
330
5639
100
AcDbEntity
  8
Dim
 62
     0
370
    -2
100
AcDbBlockReference
  2
_DOT
 10
2996.311977461886
 20
731.5916490150721
 30
0.0
 41
9.999389648437498
 42
9.999389648437498
 43
9.999389648437498
  0
MTEXT
  5
5641
330
5639
100
AcDbEntity
  8
Dim
 62
     0
100
AcDbMText
 10
2815.297424117221
 20
753.8079576088221
 30
0.0
 40
24.4326171875
 41
0.0
 46
0.0
 71
     5
 72
     1
  1
\A1;360
  7
ＭＳ ゴシック
 73
     1
 44
1.0
  0
POINT
  5
5642
330
5639
100
AcDbEntity
  8
Defpoints
 62
     0
100
AcDbPoint
 10
2634.282870772555
 20
813.0363264418539
 30
0.0
  0
POINT
  5
5643
330
5639
100
AcDbEntity
  8
Defpoints
 62
     0
100
AcDbPoint
 10
2996.311977461886
 20
813.0363264418539
 30
0.0
  0
POINT
  5
5644
330
5639
100
AcDbEntity
  8
Defpoints
 62
     0
100
AcDbPoint
 10
2996.311977461886
 20
731.5916490150721
 30
0.0
  0
ENDBLK
  5
563B
330
5639
100
AcDbEntity
  8
0
100
AcDbBlockEnd
  0
BLOCK
  5
5646
330
5645
100
AcDbEntity
  8
0
100
AcDbBlockBegin
  2
*D59
 70
     1
 10
0.0
 20
0.0
 30
0.0
  3
*D59
  1

  0
LINE
  5
5648
330
5645
100
AcDbEntity
  8
Dim
 62
     0
 48
0.5
370
    -2
100
AcDbLine
 10
3084.401028050701
 20
2218.528245108562
 30
0.0
 11
3146.50539140307
 21
2218.528245108562
 31
0.0
  0
LINE
  5
5649
330
5645
100
AcDbEntity
  8
Dim
 62
     0
 48
0.5
370
    -2
100
AcDbLine
 10
3084.401028050701
 20
1848.528245108562
 30
0.0
 11
3146.50539140307
 21
1848.528245108562
 31
0.0
  0
LINE
  5
564A
330
5645
100
AcDbEntity
  8
Dim
 62
     0
 48
0.5
370
    -2
100
AcDbLine
 10
3146.50539140307
 20
2208.528855460125
 30
0.0
 11
3146.50539140307
 21
1858.527634756999
 31
0.0
  0
INSERT
  5
564B
330
5645
100
AcDbEntity
  8
Dim
 62
     0
370
    -2
100
AcDbBlockReference
  2
_DOT
 10
3146.50539140307
 20
2218.528245108562
 30
0.0
 41
9.999389648437498
 42
9.999389648437498
 43
9.999389648437498
 50
90.0
  0
INSERT
  5
564C
330
5645
100
AcDbEntity
  8
Dim
 62
     0
370
    -2
100
AcDbBlockReference
  2
_DOT
 10
3146.50539140307
 20
1848.528245108562
 30
0.0
 41
9.999389648437498
 42
9.999389648437498
 43
9.999389648437498
 50
270.0
  0
MTEXT
  5
564D
330
5645
100
AcDbEntity
  8
Dim
 62
     0
100
AcDbMText
 10
3124.28908280932
 20
2041.760644171494
 30
0.0
 40
24.4326171875
 41
0.0
 46
0.0
 71
     5
 72
     1
  1
\A1;370
  7
ＭＳ ゴシック
 11
0.0
 21
1.0
 31
0.0
 73
     1
 44
1.0
  0
POINT
  5
564E
330
5645
100
AcDbEntity
  8
Defpoints
 62
     0
100
AcDbPoint
 10
3059.401028050701
 20
2218.528245108562
 30
0.0
  0
POINT
  5
564F
330
5645
100
AcDbEntity
  8
Defpoints
 62
     0
100
AcDbPoint
 10
3059.401028050701
 20
1848.528245108562
 30
0.0
  0
POINT
  5
5650
330
5645
100
AcDbEntity
  8
Defpoints
 62
     0
100
AcDbPoint
 10
3146.50539140307
 20
1848.528245108562
 30
0.0
  0
ENDBLK
  5
5647
330
5645
100
AcDbEntity
  8
0
100
AcDbBlockEnd
  0
BLOCK
  5
5652
330
5651
100
AcDbEntity
  8
0
100
AcDbBlockBegin
  2
*D60
 70
     1
 10
0.0
 20
0.0
 30
0.0
  3
*D60
  1

  0
LINE
  5
5654
330
5651
100
AcDbEntity
  8
Dim
 62
     0
370
    -2
100
AcDbLine
 10
2576.117399206672
 20
2211.85905347883
 30
0.0
 11
2489.216210367086
 21
2211.85905347883
 31
0.0
  0
LINE
  5
5655
330
5651
100
AcDbEntity
  8
Dim
 62
     0
370
    -2
100
AcDbLine
 10
2576.117399206672
 20
1856.85905347883
 30
0.0
 11
2489.216210367086
 21
1856.85905347883
 31
0.0
  0
LINE
  5
5656
330
5651
100
AcDbEntity
  8
Dim
 62
     0
370
    -2
100
AcDbLine
 10
2489.216210367086
 20
2201.859663830392
 30
0.0
 11
2489.216210367086
 21
1866.858443127268
 31
0.0
  0
INSERT
  5
5657
330
5651
100
AcDbEntity
  8
Dim
 62
     0
370
    -2
100
AcDbBlockReference
  2
_DOT
 10
2489.216210367086
 20
2211.85905347883
 30
0.0
 41
9.999389648437498
 42
9.999389648437498
 43
9.999389648437498
 50
90.0
  0
INSERT
  5
5658
330
5651
100
AcDbEntity
  8
Dim
 62
     0
370
    -2
100
AcDbBlockReference
  2
_DOT
 10
2489.216210367086
 20
1856.85905347883
 30
0.0
 41
9.999389648437498
 42
9.999389648437498
 43
9.999389648437498
 50
270.0
  0
MTEXT
  5
5659
330
5651
100
AcDbEntity
  8
Dim
 62
     0
100
AcDbMText
 10
2466.999901773336
 20
2034.35905347883
 30
0.0
 40
24.4326171875
 41
0.0
 46
0.0
 71
     5
 72
     1
  1
\A1;355
  7
ＭＳ ゴシック
 11
0.0
 21
1.0
 31
0.0
 73
     1
 44
1.0
  0
POINT
  5
565A
330
5651
100
AcDbEntity
  8
Defpoints
 62
     0
100
AcDbPoint
 10
2601.117399206672
 20
2211.85905347883
 30
0.0
  0
POINT
  5
565B
330
5651
100
AcDbEntity
  8
Defpoints
 62
     0
100
AcDbPoint
 10
2601.117399206672
 20
1856.85905347883
 30
0.0
  0
POINT
  5
565C
330
5651
100
AcDbEntity
  8
Defpoints
 62
     0
100
AcDbPoint
 10
2489.216210367086
 20
1856.85905347883
 30
0.0
  0
ENDBLK
  5
5653
330
5651
100
AcDbEntity
  8
0
100
AcDbBlockEnd
  0
BLOCK
  5
565E
330
565D
100
AcDbEntity
  8
0
100
AcDbBlockBegin
  2
*D61
 70
     1
 10
0.0
 20
0.0
 30
0.0
  3
*D61
  1

  0
LINE
  5
5660
330
565D
100
AcDbEntity
  8
Dim
 62
     0
370
    -2
100
AcDbLine
 10
2572.255617132698
 20
1847.05680738508
 30
0.0
 11
2572.255617132698
 21
1761.512531861872
 31
0.0
  0
LINE
  5
5661
330
565D
100
AcDbEntity
  8
Dim
 62
     0
370
    -2
100
AcDbLine
 10
3057.255617132698
 20
1847.05680738508
 30
0.0
 11
3057.255617132698
 21
1761.512531861872
 31
0.0
  0
LINE
  5
5662
330
565D
100
AcDbEntity
  8
Dim
 62
     0
370
    -2
100
AcDbLine
 10
2582.255006781136
 20
1761.512531861872
 30
0.0
 11
3047.25622748426
 21
1761.512531861872
 31
0.0
  0
INSERT
  5
5663
330
565D
100
AcDbEntity
  8
Dim
 62
     0
370
    -2
100
AcDbBlockReference
  2
_DOT
 10
2572.255617132698
 20
1761.512531861872
 30
0.0
 41
9.999389648437498
 42
9.999389648437498
 43
9.999389648437498
 50
180.0
  0
INSERT
  5
5664
330
565D
100
AcDbEntity
  8
Dim
 62
     0
370
    -2
100
AcDbBlockReference
  2
_DOT
 10
3057.255617132698
 20
1761.512531861872
 30
0.0
 41
9.999389648437498
 42
9.999389648437498
 43
9.999389648437498
  0
MTEXT
  5
5665
330
565D
100
AcDbEntity
  8
Dim
 62
     0
100
AcDbMText
 10
2814.755617132698
 20
1783.728840455622
 30
0.0
 40
24.4326171875
 41
0.0
 46
0.0
 71
     5
 72
     1
  1
\A1;485
  7
ＭＳ ゴシック
 73
     1
 44
1.0
  0
POINT
  5
5666
330
565D
100
AcDbEntity
  8
Defpoints
 62
     0
100
AcDbPoint
 10
2572.255617132698
 20
1872.05680738508
 30
0.0
  0
POINT
  5
5667
330
565D
100
AcDbEntity
  8
Defpoints
 62
     0
100
AcDbPoint
 10
3057.255617132698
 20
1872.05680738508
 30
0.0
  0
POINT
  5
5668
330
565D
100
AcDbEntity
  8
Defpoints
 62
     0
100
AcDbPoint
 10
3057.255617132698
 20
1761.512531861872
 30
0.0
  0
ENDBLK
  5
565F
330
565D
100
AcDbEntity
  8
0
100
AcDbBlockEnd
  0
BLOCK
  5
566A
330
5669
100
AcDbEntity
  8
0
100
AcDbBlockBegin
  2
*D62
 70
     1
 10
0.0
 20
0.0
 30
0.0
  3
*D62
  1

  0
LINE
  5
566C
330
5669
100
AcDbEntity
  8
Dim
 62
     0
370
    -2
100
AcDbLine
 10
3827.786485824094
 20
862.1252633618379
 30
0.0
 11
3802.787077024686
 21
862.1252633618379
 31
0.0
  0
LINE
  5
566D
330
5669
100
AcDbEntity
  8
Dim
 62
     0
370
    -2
100
AcDbLine
 10
3827.787077024686
 20
981.0905649297184
 30
0.0
 11
3802.787077024686
 21
981.0905649297184
 31
0.0
  0
LINE
  5
566E
330
5669
100
AcDbEntity
  8
Dim
 62
     0
370
    -2
100
AcDbLine
 10
3802.787077024686
 20
862.1252633618379
 30
0.0
 11
3802.787077024686
 21
1168.487215605741
 31
0.0
  0
LINE
  5
566F
330
5669
100
AcDbEntity
  8
Dim
 62
     0
370
    -2
100
AcDbLine
 10
3802.787077024686
 20
862.1252633618379
 30
0.0
 11
3802.787077024686
 21
981.0905649297184
 31
0.0
  0
LINE
  5
5670
330
5669
100
AcDbEntity
  8
Dim
 62
     0
370
    -2
100
AcDbLine
 10
3802.787077024686
 20
852.1258737134004
 30
0.0
 11
3802.787077024686
 21
842.1264840649629
 31
0.0
  0
LINE
  5
5671
330
5669
100
AcDbEntity
  8
Dim
 62
     0
370
    -2
100
AcDbLine
 10
3802.787077024686
 20
991.0899545781559
 30
0.0
 11
3802.787077024686
 21
1001.089344226593
 31
0.0
  0
INSERT
  5
5672
330
5669
100
AcDbEntity
  8
Dim
 62
     0
370
    -2
100
AcDbBlockReference
  2
_DOT
 10
3802.787077024686
 20
862.1252633618379
 30
0.0
 41
9.999389648437498
 42
9.999389648437498
 43
9.999389648437498
 50
90.0
  0
INSERT
  5
5673
330
5669
100
AcDbEntity
  8
Dim
 62
     0
370
    -2
100
AcDbBlockReference
  2
_DOT
 10
3802.787077024686
 20
981.0905649297184
 30
0.0
 41
9.999389648437498
 42
9.999389648437498
 43
9.999389648437498
 50
270.0
  0
MTEXT
  5
5674
330
5669
100
AcDbEntity
  8
Dim
 62
     0
100
AcDbMText
 10
3778.408481809843
 20
1092.299255644803
 30
0.0
 40
24.4326171875
 41
0.0
 46
0.0
 71
     5
 72
     1
  1
\A1;120(深さ)
  7
ＭＳ ゴシック
 11
0.0
 21
1.0
 31
0.0
 73
     1
 44
1.0
  0
POINT
  5
5675
330
5669
100
AcDbEntity
  8
Defpoints
 62
     0
100
AcDbPoint
 10
3802.786485824094
 20
862.1252633618379
 30
0.0
  0
POINT
  5
5676
330
5669
100
AcDbEntity
  8
Defpoints
 62
     0
100
AcDbPoint
 10
3802.787077024686
 20
981.0905649297184
 30
0.0
  0
POINT
  5
5677
330
5669
100
AcDbEntity
  8
Defpoints
 62
     0
100
AcDbPoint
 10
3802.787077024686
 20
981.0905649297184
 30
0.0
  0
ENDBLK
  5
566B
330
5669
100
AcDbEntity
  8
0
100
AcDbBlockEnd
  0
BLOCK
  5
5679
330
5678
100
AcDbEntity
  8
0
100
AcDbBlockBegin
  2
*D63
 70
     1
 10
0.0
 20
0.0
 30
0.0
  3
*D63
  1

  0
LINE
  5
567B
330
5678
100
AcDbEntity
  8
Dim
 62
     0
370
    -2
100
AcDbLine
 10
3993.76412367082
 20
2196.028242931955
 30
0.0
 11
4063.833814171819
 21
2196.028242931955
 31
0.0
  0
LINE
  5
567C
330
5678
100
AcDbEntity
  8
Dim
 62
     0
370
    -2
100
AcDbLine
 10
3993.76412367082
 20
1871.028242931955
 30
0.0
 11
4063.833814171819
 21
1871.028242931955
 31
0.0
  0
LINE
  5
567D
330
5678
100
AcDbEntity
  8
Dim
 62
     0
370
    -2
100
AcDbLine
 10
4063.833814171819
 20
2186.028853283517
 30
0.0
 11
4063.833814171819
 21
1881.027632580393
 31
0.0
  0
INSERT
  5
567E
330
5678
100
AcDbEntity
  8
Dim
 62
     0
370
    -2
100
AcDbBlockReference
  2
_DOT
 10
4063.833814171819
 20
2196.028242931955
 30
0.0
 41
9.999389648437498
 42
9.999389648437498
 43
9.999389648437498
 50
90.0
  0
INSERT
  5
567F
330
5678
100
AcDbEntity
  8
Dim
 62
     0
370
    -2
100
AcDbBlockReference
  2
_DOT
 10
4063.833814171819
 20
1871.028242931955
 30
0.0
 41
9.999389648437498
 42
9.999389648437498
 43
9.999389648437498
 50
270.0
  0
MTEXT
  5
5680
330
5678
100
AcDbEntity
  8
Dim
 62
     0
100
AcDbMText
 10
4041.617505578069
 20
2033.528242931955
 30
0.0
 40
24.4326171875
 41
0.0
 46
0.0
 71
     5
 72
     1
  1
\A1;325
  7
ＭＳ ゴシック
 11
0.0
 21
1.0
 31
0.0
 73
     1
 44
1.0
  0
POINT
  5
5681
330
5678
100
AcDbEntity
  8
Defpoints
 62
     0
100
AcDbPoint
 10
3968.76412367082
 20
2196.028242931955
 30
0.0
  0
POINT
  5
5682
330
5678
100
AcDbEntity
  8
Defpoints
 62
     0
100
AcDbPoint
 10
3968.76412367082
 20
1871.028242931955
 30
0.0
  0
POINT
  5
5683
330
5678
100
AcDbEntity
  8
Defpoints
 62
     0
100
AcDbPoint
 10
4063.833814171819
 20
1871.028242931955
 30
0.0
  0
ENDBLK
  5
567A
330
5678
100
AcDbEntity
  8
0
100
AcDbBlockEnd
  0
BLOCK
  5
5685
330
5684
100
AcDbEntity
  8
0
100
AcDbBlockBegin
  2
*D64
 70
     1
 10
0.0
 20
0.0
 30
0.0
  3
*D64
  1

  0
LINE
  5
5687
330
5684
100
AcDbEntity
  8
Dim
 62
     0
370
    -2
100
AcDbLine
 10
3533.76412367082
 20
1844.612069307442
 30
0.0
 11
3533.76412367082
 21
1712.821162249455
 31
0.0
  0
LINE
  5
5688
330
5684
100
AcDbEntity
  8
Dim
 62
     0
370
    -2
100
AcDbLine
 10
3968.76412367082
 20
1844.612069307442
 30
0.0
 11
3968.76412367082
 21
1712.821162249455
 31
0.0
  0
LINE
  5
5689
330
5684
100
AcDbEntity
  8
Dim
 62
     0
370
    -2
100
AcDbLine
 10
3543.763513319258
 20
1712.821162249455
 30
0.0
 11
3958.764734022383
 21
1712.821162249455
 31
0.0
  0
INSERT
  5
568A
330
5684
100
AcDbEntity
  8
Dim
 62
     0
370
    -2
100
AcDbBlockReference
  2
_DOT
 10
3533.76412367082
 20
1712.821162249455
 30
0.0
 41
9.999389648437498
 42
9.999389648437498
 43
9.999389648437498
 50
180.0
  0
INSERT
  5
568B
330
5684
100
AcDbEntity
  8
Dim
 62
     0
370
    -2
100
AcDbBlockReference
  2
_DOT
 10
3968.76412367082
 20
1712.821162249455
 30
0.0
 41
9.999389648437498
 42
9.999389648437498
 43
9.999389648437498
  0
MTEXT
  5
568C
330
5684
100
AcDbEntity
  8
Dim
 62
     0
100
AcDbMText
 10
3751.26412367082
 20
1735.037470843205
 30
0.0
 40
24.4326171875
 41
0.0
 46
0.0
 71
     5
 72
     1
  1
\A1;435
  7
ＭＳ ゴシック
 73
     1
 44
1.0
  0
POINT
  5
568D
330
5684
100
AcDbEntity
  8
Defpoints
 62
     0
100
AcDbPoint
 10
3533.76412367082
 20
1869.612069307442
 30
0.0
  0
POINT
  5
568E
330
5684
100
AcDbEntity
  8
Defpoints
 62
     0
100
AcDbPoint
 10
3968.76412367082
 20
1869.612069307442
 30
0.0
  0
POINT
  5
568F
330
5684
100
AcDbEntity
  8
Defpoints
 62
     0
100
AcDbPoint
 10
3968.76412367082
 20
1712.821162249455
 30
0.0
  0
ENDBLK
  5
5686
330
5684
100
AcDbEntity
  8
0
100
AcDbBlockEnd
  0
BLOCK
  5
5691
330
5690
100
AcDbEntity
  8
0
100
AcDbBlockBegin
  2
*D65
 70
     1
 10
0.0
 20
0.0
 30
0.0
  3
*D65
  1

  0
LINE
  5
5693
330
5690
100
AcDbEntity
  8
Dim
 62
     0
370
    -2
100
AcDbLine
 10
3701.264123670819
 20
2008.528242931955
 30
0.0
 11
3701.264123670819
 21
1784.52181370992
 31
0.0
  0
LINE
  5
5694
330
5690
100
AcDbEntity
  8
Dim
 62
     0
370
    -2
100
AcDbLine
 10
3801.264123670819
 20
2008.528242931955
 30
0.0
 11
3801.264123670819
 21
1784.52181370992
 31
0.0
  0
LINE
  5
5695
330
5690
100
AcDbEntity
  8
Dim
 62
     0
370
    -2
100
AcDbLine
 10
3711.263513319256
 20
1784.52181370992
 30
0.0
 11
3791.264734022381
 21
1784.52181370992
 31
0.0
  0
INSERT
  5
5696
330
5690
100
AcDbEntity
  8
Dim
 62
     0
370
    -2
100
AcDbBlockReference
  2
_DOT
 10
3701.264123670819
 20
1784.52181370992
 30
0.0
 41
9.999389648437498
 42
9.999389648437498
 43
9.999389648437498
 50
180.0
  0
INSERT
  5
5697
330
5690
100
AcDbEntity
  8
Dim
 62
     0
370
    -2
100
AcDbBlockReference
  2
_DOT
 10
3801.264123670819
 20
1784.52181370992
 30
0.0
 41
9.999389648437498
 42
9.999389648437498
 43
9.999389648437498
  0
MTEXT
  5
5698
330
5690
100
AcDbEntity
  8
Dim
 62
     0
100
AcDbMText
 10
3751.264123670819
 20
1806.73812230367
 30
0.0
 40
24.4326171875
 41
0.0
 46
0.0
 71
     5
 72
     1
  1
\A1;%%c100
  7
ＭＳ ゴシック
 73
     1
 44
1.0
  0
POINT
  5
5699
330
5690
100
AcDbEntity
  8
Defpoints
 62
     0
100
AcDbPoint
 10
3701.264123670819
 20
2033.528242931955
 30
0.0
  0
POINT
  5
569A
330
5690
100
AcDbEntity
  8
Defpoints
 62
     0
100
AcDbPoint
 10
3801.264123670819
 20
2033.528242931955
 30
0.0
  0
POINT
  5
569B
330
5690
100
AcDbEntity
  8
Defpoints
 62
     0
100
AcDbPoint
 10
3801.264123670819
 20
1784.52181370992
 30
0.0
  0
ENDBLK
  5
5692
330
5690
100
AcDbEntity
  8
0
100
AcDbBlockEnd
  0
BLOCK
  5
56D6
330
56D5
100
AcDbEntity
  8
0
100
AcDbBlockBegin
  2
*D66
 70
     1
 10
0.0
 20
0.0
 30
0.0
  3
*D66
  1

  0
LINE
  5
56D8
330
56D5
100
AcDbEntity
  8
Dim
 62
     0
370
    -2
100
AcDbLine
 10
1422.707782497268
 20
850.5241565735258
 30
0.0
 11
1422.707782497268
 21
781.791731721496
 31
0.0
  0
LINE
  5
56D9
330
56D5
100
AcDbEntity
  8
Dim
 62
     0
370
    -2
100
AcDbLine
 10
1657.707782497268
 20
850.5241565735258
 30
0.0
 11
1657.707782497268
 21
781.791731721496
 31
0.0
  0
LINE
  5
56DA
330
56D5
100
AcDbEntity
  8
Dim
 62
     0
370
    -2
100
AcDbLine
 10
1432.707172145705
 20
781.791731721496
 30
0.0
 11
1647.70839284883
 21
781.791731721496
 31
0.0
  0
INSERT
  5
56DB
330
56D5
100
AcDbEntity
  8
Dim
 62
     0
370
    -2
100
AcDbBlockReference
  2
_DOT
 10
1422.707782497268
 20
781.791731721496
 30
0.0
 41
9.999389648437498
 42
9.999389648437498
 43
9.999389648437498
 50
180.0
  0
INSERT
  5
56DC
330
56D5
100
AcDbEntity
  8
Dim
 62
     0
370
    -2
100
AcDbBlockReference
  2
_DOT
 10
1657.707782497268
 20
781.791731721496
 30
0.0
 41
9.999389648437498
 42
9.999389648437498
 43
9.999389648437498
  0
MTEXT
  5
56DD
330
56D5
100
AcDbEntity
  8
Dim
 62
     0
100
AcDbMText
 10
1540.207782497268
 20
804.008040315246
 30
0.0
 40
24.4326171875
 41
0.0
 46
0.0
 71
     5
 72
     1
  1
\A1;230
  7
ＭＳ ゴシック
 73
     1
 44
1.0
  0
POINT
  5
56DE
330
56D5
100
AcDbEntity
  8
Defpoints
 62
     0
100
AcDbPoint
 10
1422.707782497268
 20
875.5241565735258
 30
0.0
  0
POINT
  5
56DF
330
56D5
100
AcDbEntity
  8
Defpoints
 62
     0
100
AcDbPoint
 10
1657.707782497268
 20
875.5241565735258
 30
0.0
  0
POINT
  5
56E0
330
56D5
100
AcDbEntity
  8
Defpoints
 62
     0
100
AcDbPoint
 10
1657.707782497268
 20
781.791731721496
 30
0.0
  0
ENDBLK
  5
56D7
330
56D5
100
AcDbEntity
  8
0
100
AcDbBlockEnd
  0
BLOCK
  5
56E9
330
56E8
100
AcDbEntity
  8
0
100
AcDbBlockBegin
  2
*D67
 70
     1
 10
0.0
 20
0.0
 30
0.0
  3
*D67
  1

  0
LINE
  5
56EB
330
56E8
100
AcDbEntity
  8
Dim
 62
     0
370
    -2
100
AcDbLine
 10
391.0510250587877
 20
858.168318190066
 30
0.0
 11
391.0510250587877
 21
797.4261376242753
 31
0.0
  0
LINE
  5
56EC
330
56E8
100
AcDbEntity
  8
Dim
 62
     0
370
    -2
100
AcDbLine
 10
856.0510250587877
 20
858.168318190066
 30
0.0
 11
856.0510250587877
 21
797.4261376242753
 31
0.0
  0
LINE
  5
56ED
330
56E8
100
AcDbEntity
  8
Dim
 62
     0
370
    -2
100
AcDbLine
 10
401.0504147072252
 20
797.4261376242753
 30
0.0
 11
846.0516354103502
 21
797.4261376242753
 31
0.0
  0
INSERT
  5
56EE
330
56E8
100
AcDbEntity
  8
Dim
 62
     0
370
    -2
100
AcDbBlockReference
  2
_DOT
 10
391.0510250587877
 20
797.4261376242753
 30
0.0
 41
9.999389648437498
 42
9.999389648437498
 43
9.999389648437498
 50
180.0
  0
INSERT
  5
56EF
330
56E8
100
AcDbEntity
  8
Dim
 62
     0
370
    -2
100
AcDbBlockReference
  2
_DOT
 10
856.0510250587877
 20
797.4261376242753
 30
0.0
 41
9.999389648437498
 42
9.999389648437498
 43
9.999389648437498
  0
MTEXT
  5
56F0
330
56E8
100
AcDbEntity
  8
Dim
 62
     0
100
AcDbMText
 10
623.5510250587877
 20
819.6424462180253
 30
0.0
 40
24.4326171875
 41
0.0
 46
0.0
 71
     5
 72
     1
  1
\A1;460
  7
ＭＳ ゴシック
 73
     1
 44
1.0
  0
POINT
  5
56F1
330
56E8
100
AcDbEntity
  8
Defpoints
 62
     0
100
AcDbPoint
 10
391.0510250587877
 20
883.168318190066
 30
0.0
  0
POINT
  5
56F2
330
56E8
100
AcDbEntity
  8
Defpoints
 62
     0
100
AcDbPoint
 10
856.0510250587877
 20
883.168318190066
 30
0.0
  0
POINT
  5
56F3
330
56E8
100
AcDbEntity
  8
Defpoints
 62
     0
100
AcDbPoint
 10
856.0510250587877
 20
797.4261376242753
 30
0.0
  0
ENDBLK
  5
56EA
330
56E8
100
AcDbEntity
  8
0
100
AcDbBlockEnd
  0
BLOCK
  5
5702
330
5701
100
AcDbEntity
  8
0
100
AcDbBlockBegin
  2
*D68
 70
     1
 10
0.0
 20
0.0
 30
0.0
  3
*D68
  1

  0
LINE
  5
5704
330
5701
100
AcDbEntity
  8
Dim
 62
     0
370
    -2
100
AcDbLine
 10
1251.641924068338
 20
1819.211074647963
 30
0.0
 11
1251.641924068338
 21
1703.578550718609
 31
0.0
  0
LINE
  5
5705
330
5701
100
AcDbEntity
  8
Dim
 62
     0
370
    -2
100
AcDbLine
 10
1786.428829542329
 20
1819.211074647963
 30
0.0
 11
1786.428829542329
 21
1703.578550718609
 31
0.0
  0
LINE
  5
5706
330
5701
100
AcDbEntity
  8
Dim
 62
     0
370
    -2
100
AcDbLine
 10
1261.641313716776
 20
1703.578550718609
 30
0.0
 11
1776.429439893891
 21
1703.578550718609
 31
0.0
  0
INSERT
  5
5707
330
5701
100
AcDbEntity
  8
Dim
 62
     0
370
    -2
100
AcDbBlockReference
  2
_DOT
 10
1251.641924068338
 20
1703.578550718609
 30
0.0
 41
9.999389648437498
 42
9.999389648437498
 43
9.999389648437498
 50
180.0
  0
INSERT
  5
5708
330
5701
100
AcDbEntity
  8
Dim
 62
     0
370
    -2
100
AcDbBlockReference
  2
_DOT
 10
1786.428829542329
 20
1703.578550718609
 30
0.0
 41
9.999389648437498
 42
9.999389648437498
 43
9.999389648437498
  0
MTEXT
  5
5709
330
5701
100
AcDbEntity
  8
Dim
 62
     0
100
AcDbMText
 10
1519.035376805333
 20
1725.794859312359
 30
0.0
 40
24.4326171875
 41
0.0
 46
0.0
 71
     5
 72
     1
  1
\A1;535
  7
ＭＳ ゴシック
 73
     1
 44
1.0
  0
POINT
  5
570A
330
5701
100
AcDbEntity
  8
Defpoints
 62
     0
100
AcDbPoint
 10
1251.641924068338
 20
1844.211074647963
 30
0.0
  0
POINT
  5
570B
330
5701
100
AcDbEntity
  8
Defpoints
 62
     0
100
AcDbPoint
 10
1786.428829542329
 20
1844.211074647963
 30
0.0
  0
POINT
  5
570C
330
5701
100
AcDbEntity
  8
Defpoints
 62
     0
100
AcDbPoint
 10
1786.428829542329
 20
1703.578550718609
 30
0.0
  0
ENDBLK
  5
5703
330
5701
100
AcDbEntity
  8
0
100
AcDbBlockEnd
  0
BLOCK
  5
5719
330
5718
100
AcDbEntity
  8
0
100
AcDbBlockBegin
  2
*D69
 70
     1
 10
0.0
 20
0.0
 30
0.0
  3
*D69
  1

  0
LINE
  5
571B
330
5718
100
AcDbEntity
  8
Dim
 62
     0
370
    -2
100
AcDbLine
 10
1469.035376805334
 20
1990.12233851307
 30
0.0
 11
1469.035376805334
 21
1766.115909291035
 31
0.0
  0
LINE
  5
571C
330
5718
100
AcDbEntity
  8
Dim
 62
     0
370
    -2
100
AcDbLine
 10
1569.035376805334
 20
1990.12233851307
 30
0.0
 11
1569.035376805334
 21
1766.115909291035
 31
0.0
  0
LINE
  5
571D
330
5718
100
AcDbEntity
  8
Dim
 62
     0
370
    -2
100
AcDbLine
 10
1479.034766453771
 20
1766.115909291035
 30
0.0
 11
1559.035987156896
 21
1766.115909291035
 31
0.0
  0
INSERT
  5
571E
330
5718
100
AcDbEntity
  8
Dim
 62
     0
370
    -2
100
AcDbBlockReference
  2
_DOT
 10
1469.035376805334
 20
1766.115909291035
 30
0.0
 41
9.999389648437498
 42
9.999389648437498
 43
9.999389648437498
 50
180.0
  0
INSERT
  5
571F
330
5718
100
AcDbEntity
  8
Dim
 62
     0
370
    -2
100
AcDbBlockReference
  2
_DOT
 10
1569.035376805334
 20
1766.115909291035
 30
0.0
 41
9.999389648437498
 42
9.999389648437498
 43
9.999389648437498
  0
MTEXT
  5
5720
330
5718
100
AcDbEntity
  8
Dim
 62
     0
100
AcDbMText
 10
1519.035376805334
 20
1788.332217884785
 30
0.0
 40
24.4326171875
 41
0.0
 46
0.0
 71
     5
 72
     1
  1
\A1;%%c100
  7
ＭＳ ゴシック
 73
     1
 44
1.0
  0
POINT
  5
5721
330
5718
100
AcDbEntity
  8
Defpoints
 62
     0
100
AcDbPoint
 10
1469.035376805334
 20
2015.12233851307
 30
0.0
  0
POINT
  5
5722
330
5718
100
AcDbEntity
  8
Defpoints
 62
     0
100
AcDbPoint
 10
1569.035376805334
 20
2015.12233851307
 30
0.0
  0
POINT
  5
5723
330
5718
100
AcDbEntity
  8
Defpoints
 62
     0
100
AcDbPoint
 10
1569.035376805334
 20
1766.115909291035
 30
0.0
  0
ENDBLK
  5
571A
330
5718
100
AcDbEntity
  8
0
100
AcDbBlockEnd
  0
ENDSEC
  0
SECTION
  2
ENTITIES
  0
MTEXT
  5
177
330
A
100
AcDbEntity
  8
template
390
1D
100
AcDbMText
 10
82.00000000048226
 20
348.023957835319
 30
0.0
 40
16.28841145833333
 41
0.0
 46
0.0
 71
     1
 72
     1
  1
品名
  7
ＭＳ ゴシック
 73
     1
 44
0.7828267384257843
  0
MTEXT
  5
178
330
A
100
AcDbEntity
  8
template
390
1D
100
AcDbMText
 10
82.00000000048226
 20
263.0239578353188
 30
0.0
 40
16.28841145833333
 41
0.0
 46
0.0
 71
     1
 72
     1
  1
仕様
  7
ＭＳ ゴシック
 73
     1
 44
0.7828267384257843
  0
LINE
  5
179
330
A
100
AcDbEntity
  8
template
390
1D
100
AcDbLine
 10
2025.0
 20
271.4388797103189
 30
0.0
 11
75.00000000000023
 21
271.4388797103189
 31
0.0
  0
LWPOLYLINE
  5
17A
330
A
100
AcDbEntity
  8
template
390
1D
100
AcDbPolyline
 90
        5
 70
   128
 43
0.0
 10
2025.0
 20
2901.438879710319
 10
75.00000000000023
 20
2901.438879710319
 10
75.00000000000023
 20
101.4388797103188
 10
2025.0
 20
101.4388797103188
 10
2025.0
 20
2901.438879710319
  0
LINE
  5
17B
330
A
100
AcDbEntity
  8
template
390
1D
100
AcDbLine
 10
2025.0
 20
356.4388797103188
 30
0.0
 11
75.00000000000023
 21
356.4388797103188
 31
0.0
  0
LINE
  5
17C
330
A
100
AcDbEntity
  8
template
390
1D
100
AcDbLine
 10
2025.000000000482
 20
186.4388797103189
 30
0.0
 11
1272.000000000482
 21
186.4388797103189
 31
0.0
  0
MTEXT
  5
17E
330
A
100
AcDbEntity
  8
template
390
1D
100
AcDbMText
 10
1301.871406252743
 20
156.5284852370108
 30
0.0
 40
24.4326171875
 41
0.0
 46
0.0
 71
     1
 72
     1
  1
大洋金物株式会社 ティーフォルム事業部
  7
ＭＳ ゴシック
 73
     1
 44
0.7828267384257843
  0
MTEXT
  5
180
330
A
100
AcDbEntity
  8
template
390
1D
100
AcDbMText
 10
1834.000000000742
 20
234.4414968978188
 30
0.0
 40
24.4326171875
 41
0.0
 46
0.0
 71
     1
 72
     1
  1
1:10
  7
ＭＳ ゴシック
 73
     1
 44
0.7828267384257843
  0
MTEXT
  5
181
330
A
100
AcDbEntity
  8
template
390
1D
100
AcDbMText
 10
1781.000000000742
 20
263.0239578353188
 30
0.0
 40
16.28841145833333
 41
0.0
 46
0.0
 71
     1
 72
     1
  1
縮尺
  7
ＭＳ ゴシック
 73
     1
 44
0.7828267384257843
  0
LINE
  5
182
330
A
100
AcDbEntity
  8
template
390
1D
100
AcDbLine
 10
1774.000000000742
 20
186.4388797103189
 30
0.0
 11
1774.000000000742
 21
271.4388797103189
 31
0.0
  0
MTEXT
  5
183
330
A
100
AcDbEntity
  8
template
390
1D
100
AcDbMText
 10
1530.000000000742
 20
263.0239578353188
 30
0.0
 40
16.28841145833333
 41
0.0
 46
0.0
 71
     1
 72
     1
  1
容量
  7
ＭＳ ゴシック
 73
     1
 44
0.7828267384257843
  0
LINE
  5
184
330
A
100
AcDbEntity
  8
template
390
1D
100
AcDbLine
 10
1523.000000000742
 20
186.4388797103189
 30
0.0
 11
1523.000000000742
 21
271.4388797103189
 31
0.0
  0
MTEXT
  5
185
330
A
100
AcDbEntity
  8
template
390
1D
100
AcDbMText
 10
1279.000000000742
 20
348.023957835319
 30
0.0
 40
16.28841145833333
 41
0.0
 46
0.0
 71
     1
 72
     1
  1
品番
  7
ＭＳ ゴシック
 73
     1
 44
0.7828267384257843
  0
MTEXT
  5
186
330
A
100
AcDbEntity
  8
template
390
1D
100
AcDbMText
 10
1279.000000000742
 20
263.0239578353188
 30
0.0
 40
16.28841145833333
 41
0.0
 46
0.0
 71
     1
 72
     1
  1
重量
  7
ＭＳ ゴシック
 73
     1
 44
0.7828267384257843
  0
MTEXT
  5
187
330
A
100
AcDbEntity
  8
template
390
1D
100
AcDbMText
 10
1332.000000000742
 20
319.4414968978188
 30
0.0
 40
24.4326171875
 41
0.0
 46
24.4326171875
 71
     1
 72
     1
  1
{ADF70-0619}
  7
ＭＳ ゴシック
 73
     1
 44
0.7828267384257843
1001
ACAD
1000
ACAD_MTEXT_DEFINED_HEIGHT_BEGIN
1070
    46
1040
24.4326171875
1000
ACAD_MTEXT_DEFINED_HEIGHT_END
  0
LINE
  5
188
330
A
100
AcDbEntity
  8
template
390
1D
100
AcDbLine
 10
1272.000000000742
 20
101.4388797103188
 30
0.0
 11
1272.000000000742
 21
356.4388797103188
 31
0.0
  0
MTEXT
  5
189
330
A
100
AcDbEntity
  8
template
390
1D
100
AcDbMText
 10
135.0000000004822
 20
319.4414968978188
 30
0.0
 40
24.4326171875
 41
0.0
 46
27.5355595703125
 71
     1
 72
     1
  1
{洗面器 -CATALANO, Verso-}
  7
ＭＳ ゴシック
 73
     1
 44
0.7828267384257843
1001
ACAD
1000
ACAD_MTEXT_DEFINED_HEIGHT_BEGIN
1070
    46
1040
27.5355595703125
1000
ACAD_MTEXT_DEFINED_HEIGHT_END
  0
MTEXT
  5
18A
330
A
100
AcDbEntity
  8
template
 62
     1
390
1D
100
AcDbMText
 10
135.0000000004822
 20
234.4414968978188
 30
0.0
 40
24.4326171875
 41
0.0
 46
68.39652178464814
 71
     1
 72
     1
  1
{{\C256;カウンター置き、半埋め込み/オーバーフロー付き\P陶器、\H0.982293x;背面釉薬あり/\H1.01803x;ホワイト}}
  7
ＭＳ ゴシック
 73
     1
 44
0.9822934569727008
1001
ACAD
1000
ACAD_MTEXT_DEFINED_HEIGHT_BEGIN
1070
    46
1040
68.39652178464814
1000
ACAD_MTEXT_DEFINED_HEIGHT_END
  0
INSERT
  5
3D0
330
A
100
AcDbEntity
  8
template
100
AcDbBlockReference
  2
名称未設定-1
 10
1873.559250554905
 20
30.23897196054438
 30
0.0
 41
0.7619999999999999
 42
0.7619999999999999
 43
0.7619999999999999
  0
MTEXT
  5
BDB
102
{ACAD_XDICTIONARY
360
BDC
102
}
330
A
100
AcDbEntity
  8
template
  6
Continuous
100
AcDbMText
 10
78.95663872901252
 20
86.10730750352229
 30
0.0
 40
23.0
 41
0.0
 46
23.0
 71
     1
 72
     1
  1
{20170731N}
  7
ＭＳ ゴシック
 73
     1
 44
1.0
1001
ACAD
1000
ACAD_MTEXT_DEFINED_HEIGHT_BEGIN
1070
    46
1040
23.0
1000
ACAD_MTEXT_DEFINED_HEIGHT_END
  0
LWPOLYLINE
  5
BEE
330
A
100
AcDbEntity
  8
PRINT BORDER
100
AcDbPolyline
 90
        4
 70
     1
 43
0.0
 10
0.0
 20
0.0
 10
0.0
 20
2970.0
 10
2100.0
 20
2970.0
 10
2100.0
 20
0.0
  0
INSERT
  5
1273
330
A
100
AcDbEntity
  8
0
 62
     7
100
AcDbBlockReference
  2
BLOCK_2
 10
591.2037060744204
 20
943.564364962162
 30
0.0
  0
INSERT
  5
127B
330
A
100
AcDbEntity
  8
0
 62
     7
100
AcDbBlockReference
  2
BLOCK_2
 10
1291.863324028138
 20
1038.76992320659
 30
0.0
  0
INSERT
  5
127C
330
A
100
AcDbEntity
  8
0
 62
     7
100
AcDbBlockReference
  2
BLOCK_2
 10
652.1648429406905
 20
1595.641631888467
 30
0.0
  0
CIRCLE
  5
142C
330
A
100
AcDbEntity
  8
Dim
  6
Continuous
100
AcDbCircle
 10
1366.841726484681
 20
1758.85027442579
 30
0.0
 40
0.0
  0
INSERT
  5
3B99
330
A
100
AcDbEntity
  8
retino
100
AcDbBlockReference
  2
mobile_latù
 10
-92101.31485198285
 20
1730.415535296608
 30
0.0
  0
INSERT
  5
467E
330
A
100
AcDbEntity
  8
retino
100
AcDbBlockReference
  2
mobile_latù
 10
-100894.893236163
 20
1696.039721945452
 30
0.0
  0
LWPOLYLINE
  5
5247
330
A
100
AcDbEntity
  8
MODEL
100
AcDbPolyline
 90
      244
 70
     0
 43
0.0
 10
917.0209969384568
 20
2015.122094372445
 10
917.0209969384568
 20
2016.822289684945
 10
917.0209664208787
 20
2018.521996716195
 10
917.0209664208787
 20
2020.221703747445
 10
917.0209359033006
 20
2021.921899059945
 10
917.0208748681443
 20
2023.621606091195
 10
917.0208443505662
 20
2025.321313122445
 10
917.02078331541
 20
2027.021020153695
 10
917.0207222802537
 20
2028.721215466195
 10
917.0206307275193
 20
2030.420922497445
 10
917.020539174785
 20
2032.120629528695
 10
917.0204476220506
 20
2033.820336559945
 10
917.0203255517381
 20
2035.520531872445
 10
917.0202339990037
 20
2037.220238903695
 10
917.0200814111131
 20
2038.919945934945
 10
917.0199593408006
 20
2040.620141247445
 10
917.01980675291
 20
2042.319848278695
 10
917.0196541650193
 20
2044.019555309945
 10
917.0194710595506
 20
2045.719262341195
 10
917.0192879540818
 20
2047.419457653695
 10
917.019074331035
 20
2049.119164684945
 10
917.0188607079881
 20
2050.818871716195
 10
917.0186470849412
 20
2052.518578747445
 10
917.0184029443162
 20
2054.218774059945
 10
917.0181588036912
 20
2055.918481091195
 10
917.0179146630662
 20
2057.618188122445
 10
917.0176400048631
 20
2059.318383434945
 10
917.0173348290818
 20
2061.018090466195
 10
917.0170296533006
 20
2062.717797497445
 10
917.0167244775193
 20
2064.417504528695
 10
917.01638878416
 20
2066.117699841195
 10
917.0160530908006
 20
2067.817406872445
 10
917.0156868798631
 20
2069.517113903695
 10
917.0152901513475
 20
2071.216820934945
 10
917.0148934228318
 20
2072.917016247445
 10
917.0144966943162
 20
2074.616723278695
 10
917.0140694482225
 20
2076.316430309945
 10
917.0136116845506
 20
2078.016625622445
 10
917.0131539208787
 20
2079.716332653695
 10
917.0126656396287
 20
2081.416039684945
 10
917.0121468408006
 20
2083.115746716195
 10
917.0116280419725
 20
2084.815942028695
 10
917.0111092431443
 20
2086.515649059945
 10
917.01052940916
 20
2088.215356091195
 10
917.0099495751756
 20
2089.915063122445
 10
917.0093392236131
 20
2091.615258434945
 10
917.0086983544725
 20
2093.314965466195
 10
917.0080574853318
 20
2095.014672497445
 10
917.007355581035
 20
2096.714867809945
 10
917.0066536767381
 20
2098.414574841195
 10
917.0059212548631
 20
2100.114281872445
 10
917.0051888329881
 20
2101.813988903695
 10
917.0043953759568
 20
2103.514184216195
 10
917.0035714013475
 20
2105.213891247445
 10
917.0027474267381
 20
2106.913598278695
 10
917.0018624169725
 20
2108.613305309945
 10
917.0009468896287
 20
2110.313500622445
 10
917.0000008447068
 20
2112.013207653695
 10
916.9990242822068
 20
2113.712914684945
 10
916.9980172021287
 20
2115.413109997445
 10
916.9969490868943
 20
2117.112817028695
 10
916.99588097166
 20
2118.812524059945
 10
916.9947213036912
 20
2120.512231091195
 10
916.9935616357225
 20
2122.212426403695
 10
916.9923409325975
 20
2123.912133434945
 10
916.9910591943162
 20
2125.611840466195
 10
916.9897469384568
 20
2127.311547497445
 10
916.9883431298631
 20
2129.011742809945
 10
916.9869088036912
 20
2130.711449841195
 10
916.9854134423631
 20
2132.411156872445
 10
916.9838570458787
 20
2134.111352184945
 10
916.9822396142381
 20
2135.811059216195
 10
916.9805306298631
 20
2137.510766247445
 10
916.9787300927537
 20
2139.210473278695
 10
916.9768685204881
 20
2140.910668591195
 10
916.9749153954881
 20
2142.610375622445
 10
916.9728402001756
 20
2144.310082653695
 10
916.9706734521287
 20
2146.009789684945
 10
916.9684151513475
 20
2147.709984997445
 10
916.9659737450975
 20
2149.409692028695
 10
916.963410268535
 20
2151.109399059945
 10
916.9606942040818
 20
2152.809594372445
 10
916.95779503416
 20
2154.509301403695
 10
916.9546822411912
 20
2156.209008434945
 10
916.9513253075975
 20
2157.908715466195
 10
916.9476937158006
 20
2159.608910778695
 10
916.9437264306443
 20
2161.308617809945
 10
916.9393624169725
 20
2163.008324841195
 10
916.9344796044725
 20
2164.708031872445
 10
916.9289559228318
 20
2166.408227184945
 10
916.9224556786912
 20
2168.107934216195
 10
916.9144905908006
 20
2169.807641247445
 10
916.9011849267381
 20
2171.507348278695
 10
916.8656319482225
 20
2173.207055309945
 10
916.7757576806443
 20
2174.904320934945
 10
916.5925911767381
 20
2176.593774059945
 10
916.2818306786912
 20
2178.264184216195
 10
915.8234566552537
 20
2179.900902966195
 10
915.21414269041
 20
2181.486840466195
 10
914.4611214501756
 20
2183.010277966195
 10
913.5764778954881
 20
2184.461449841195
 10
912.5729073388475
 20
2185.832543591195
 10
911.4613961083787
 20
2187.118188122445
 10
910.2508248193162
 20
2188.310570934945
 10
908.9483040673631
 20
2189.402367809945
 10
907.5597542626756
 20
2190.381859997445
 10
906.0912484033006
 20
2191.236840466195
 10
904.5505074365037
 20
2191.953149059945
 10
902.9484871728318
 20
2192.519555309945
 10
901.2999276025193
 20
2192.931664684945
 10
899.6215523583787
 20
2193.197777966195
 10
897.9283150536912
 20
2193.344750622445
 10
896.2297982079881
 20
2193.409692028695
 10
894.5301216943162
 20
2193.431664684945
 10
892.8303231103318
 20
2193.439477184945
 10
891.1304940087693
 20
2193.444848278695
 10
889.4306343896287
 20
2193.449242809945
 10
887.7308052880662
 20
2193.453149059945
 10
886.0309761865037
 20
2193.457055309945
 10
884.3311470849412
 20
2193.460473278695
 10
882.6312874658006
 20
2193.463402966195
 10
880.9314583642381
 20
2193.466332653695
 10
879.2316292626756
 20
2193.469262341195
 10
877.5318001611131
 20
2193.471703747445
 10
875.8319405419725
 20
2193.474145153695
 10
874.13211144041
 20
2193.476586559945
 10
872.4322823388475
 20
2193.478539684945
 10
870.7324227197068
 20
2193.480981091195
 10
869.0325936181443
 20
2193.482934216195
 10
867.3327645165818
 20
2193.484887341195
 10
865.6329048974412
 20
2193.486352184945
 10
863.9330757958787
 20
2193.488305309945
 10
862.2332466943162
 20
2193.489770153695
 10
860.5333870751756
 20
2193.491723278695
 10
858.8335579736131
 20
2193.493188122445
 10
857.1337288720506
 20
2193.494652966195
 10
855.43386925291
 20
2193.496117809945
 10
853.7340401513475
 20
2193.497582653695
 10
852.034211049785
 20
2193.498559216195
 10
850.3343514306443
 20
2193.500024059945
 10
848.6345223290818
 20
2193.501488903695
 10
846.9346932275193
 20
2193.502465466195
 10
845.2348336083787
 20
2193.503930309945
 10
843.5350045068162
 20
2193.504906872445
 10
841.8351754052537
 20
2193.505883434945
 10
840.1353157861131
 20
2193.506859997445
 10
838.4354866845506
 20
2193.508324841195
 10
836.7356575829881
 20
2193.509301403695
 10
835.0357979638475
 20
2193.510277966195
 10
833.335968862285
 20
2193.511254528695
 10
831.6361092431443
 20
2193.511742809945
 10
829.9362801415818
 20
2193.512719372445
 10
828.2364510400193
 20
2193.513695934945
 10
826.5365914208787
 20
2193.514672497445
 10
774.8367623193162
 20
2193.515649059945
 10
773.1369332177537
 20
2193.516137341195
 10
771.4370735986131
 20
2193.517113903695
 10
769.7372444970506
 20
2193.518090466195
 10
768.0374153954881
 20
2193.518578747445
 10
766.3375557763475
 20
2193.519555309945
 10
764.637726674785
 20
2193.520043591195
 10
762.9378975732225
 20
2193.520531872445
 10
761.2380379540818
 20
2193.521508434945
 10
759.5382088525193
 20
2193.521996716195
 10
757.8383492333787
 20
2193.522973278695
 10
756.1385201318162
 20
2193.523461559945
 10
754.4386910302537
 20
2193.523949841195
 10
752.7388314111131
 20
2193.524438122445
 10
751.0390023095506
 20
2193.525414684945
 10
749.3391732079881
 20
2193.525902966195
 10
747.6393135888475
 20
2193.526391247445
 10
745.939484487285
 20
2193.526879528695
 10
744.2396553857225
 20
2193.527367809945
 10
742.5397957665818
 20
2193.527856091195
 10
740.8399666650193
 20
2193.528344372445
 10
739.1401375634568
 20
2193.528832653695
 10
737.4402779443162
 20
2193.529320934945
 10
735.7404488427537
 20
2193.529809216195
 10
734.0405892236131
 20
2193.530297497445
 10
732.3407601220506
 20
2193.530785778695
 10
730.6409310204881
 20
2193.531274059945
 10
728.9410714013475
 20
2193.531762341195
 10
727.241242299785
 20
2193.531762341195
 10
725.5414131982225
 20
2193.532250622445
 10
723.8415535790818
 20
2193.532738903695
 10
722.1417244775193
 20
2193.533227184945
 10
720.4418953759568
 20
2193.533715466195
 10
718.7420357568162
 20
2193.533715466195
 10
717.0422066552537
 20
2193.534203747445
 10
715.3423622949022
 20
2193.534692028695
 10
713.6425179345506
 20
2193.534692028695
 10
711.9426888329881
 20
2193.535180309945
 10
710.2428444726365
 20
2193.535668591195
 10
708.543000112285
 20
2193.535668591195
 10
706.8431557519334
 20
2193.536156872445
 10
705.1433266503709
 20
2193.536156872445
 10
703.4434822900193
 20
2193.536645153695
 10
701.7436379296678
 20
2193.537133434945
 10
700.0438088281053
 20
2193.537133434945
 10
698.3439644677537
 20
2193.537621716195
 10
696.6441201074022
 20
2193.537621716195
 10
694.9442757470506
 20
2193.538109997445
 10
693.2444466454881
 20
2193.538109997445
 10
691.5446022851365
 20
2193.538109997445
 10
689.844757924785
 20
2193.538598278695
 10
688.1449288232225
 20
2193.538598278695
 10
686.4450844628709
 20
2193.539086559945
 10
684.7452401025193
 20
2193.539086559945
 10
683.0453957421678
 20
2193.539574841195
 10
681.3455666406053
 20
2193.539574841195
 10
679.6457222802537
 20
2193.539574841195
 10
677.9458779199022
 20
2193.540063122445
 10
676.2460335595506
 20
2193.540063122445
 10
674.5462044579881
 20
2193.540063122445
 10
672.8463600976365
 20
2193.540551403695
 10
671.146515737285
 20
2193.540551403695
 10
669.4466866357225
 20
2193.540551403695
 10
667.7468422753709
 20
2193.540551403695
 10
666.0469979150193
 20
2193.541039684945
 10
664.3471535546678
 20
2193.541039684945
 10
662.6473244531053
 20
2193.541039684945
 10
660.9474800927537
 20
2193.541039684945
 10
659.2476357324022
 20
2193.541527966195
 10
657.5477913720506
 20
2193.541527966195
 10
655.8479622704881
 20
2193.541527966195
 10
654.1481179101365
 20
2193.541527966195
 10
652.448273549785
 20
2193.541527966195
 10
650.7484444482225
 20
2193.541527966195
 10
649.0486000878709
 20
2193.542016247445
 10
647.3487557275193
 20
2193.542016247445
 10
645.6489113671678
 20
2193.542016247445
 10
643.9490822656053
 20
2193.542016247445
 10
642.2492379052537
 20
2193.542016247445
 10
640.5493935449022
 20
2193.542016247445
 10
638.8495644433397
 20
2193.542016247445
 10
637.1497200829881
 20
2193.542016247445
 10
635.4498757226365
 20
2193.542016247445
 10
633.750031362285
 20
2193.542016247445
 10
632.0502022607225
 20
2193.542504528695
 10
630.3503579003709
 20
2193.542504528695
 10
628.6505135400193
 20
2193.542504528695
 10
626.9506691796678
 20
2193.542504528695
 10
625.2508400781053
 20
2193.542504528695
 10
623.5509957177537
 20
2193.542504528695
  0
LWPOLYLINE
  5
5248
330
A
100
AcDbEntity
  8
MODEL
100
AcDbPolyline
 90
      244
 70
     0
 43
0.0
 10
917.0209969384568
 20
2015.122094372445
 10
917.0209969384568
 20
2013.422387341195
 10
917.0209664208787
 20
2011.722680309945
 10
917.0209664208787
 20
2010.022973278695
 10
917.0209359033006
 20
2008.322777966195
 10
917.0208748681443
 20
2006.623070934945
 10
917.0208443505662
 20
2004.923363903695
 10
917.02078331541
 20
2003.223656872445
 10
917.0207222802537
 20
2001.523461559945
 10
917.0206307275193
 20
1999.823754528695
 10
917.020539174785
 20
1998.124047497445
 10
917.0204476220506
 20
1996.424340466195
 10
917.0203255517381
 20
1994.724145153695
 10
917.0202339990037
 20
1993.024438122445
 10
917.0200814111131
 20
1991.324731091195
 10
917.0199593408006
 20
1989.624535778695
 10
917.01980675291
 20
1987.924828747445
 10
917.0196541650193
 20
1986.225121716195
 10
917.0194710595506
 20
1984.525414684945
 10
917.0192879540818
 20
1982.825219372445
 10
917.019074331035
 20
1981.125512341195
 10
917.0188607079881
 20
1979.425805309945
 10
917.0186470849412
 20
1977.726098278695
 10
917.0184029443162
 20
1976.025902966195
 10
917.0181588036912
 20
1974.326195934945
 10
917.0179146630662
 20
1972.626488903695
 10
917.0176400048631
 20
1970.926293591195
 10
917.0173348290818
 20
1969.226586559945
 10
917.0170296533006
 20
1967.526879528695
 10
917.0167244775193
 20
1965.827172497445
 10
917.01638878416
 20
1964.126977184945
 10
917.0160530908006
 20
1962.427270153695
 10
917.0156868798631
 20
1960.727563122445
 10
917.0152901513475
 20
1959.027856091195
 10
917.0148934228318
 20
1957.327660778695
 10
917.0144966943162
 20
1955.627953747445
 10
917.0140694482225
 20
1953.928246716195
 10
917.0136116845506
 20
1952.228051403695
 10
917.0131539208787
 20
1950.528344372445
 10
917.0126656396287
 20
1948.828637341195
 10
917.0121468408006
 20
1947.128930309945
 10
917.0116280419725
 20
1945.428734997445
 10
917.0111092431443
 20
1943.729027966195
 10
917.01052940916
 20
1942.029320934945
 10
917.0099495751756
 20
1940.329613903695
 10
917.0093392236131
 20
1938.629418591195
 10
917.0086983544725
 20
1936.929711559945
 10
917.0080574853318
 20
1935.230004528695
 10
917.007355581035
 20
1933.529809216195
 10
917.0066536767381
 20
1931.830102184945
 10
917.0059212548631
 20
1930.130395153695
 10
917.0051888329881
 20
1928.430688122445
 10
917.0043953759568
 20
1926.730492809945
 10
917.0035714013475
 20
1925.030785778695
 10
917.0027474267381
 20
1923.331078747445
 10
917.0018624169725
 20
1921.631371716195
 10
917.0009468896287
 20
1919.931176403695
 10
917.0000008447068
 20
1918.231469372445
 10
916.9990242822068
 20
1916.531762341195
 10
916.9980172021287
 20
1914.831567028695
 10
916.9969490868943
 20
1913.131859997445
 10
916.99588097166
 20
1911.432152966195
 10
916.9947213036912
 20
1909.732445934945
 10
916.9935616357225
 20
1908.032250622445
 10
916.9923409325975
 20
1906.332543591195
 10
916.9910591943162
 20
1904.632836559945
 10
916.9897469384568
 20
1902.933129528695
 10
916.9883431298631
 20
1901.232934216195
 10
916.9869088036912
 20
1899.533227184945
 10
916.9854134423631
 20
1897.833520153695
 10
916.9838570458787
 20
1896.133324841195
 10
916.9822396142381
 20
1894.433617809945
 10
916.9805306298631
 20
1892.733910778695
 10
916.9787300927537
 20
1891.034203747445
 10
916.9768685204881
 20
1889.334008434945
 10
916.9749153954881
 20
1887.634301403695
 10
916.9728402001756
 20
1885.934594372445
 10
916.9706734521287
 20
1884.234887341195
 10
916.9684151513475
 20
1882.534692028695
 10
916.9659737450975
 20
1880.834984997445
 10
916.963410268535
 20
1879.135277966195
 10
916.9606942040818
 20
1877.435082653695
 10
916.95779503416
 20
1875.735375622445
 10
916.9546822411912
 20
1874.035668591195
 10
916.9513253075975
 20
1872.335961559945
 10
916.9476937158006
 20
1870.635766247445
 10
916.9437264306443
 20
1868.936059216195
 10
916.9393624169725
 20
1867.236352184945
 10
916.9344796044725
 20
1865.536645153695
 10
916.9289559228318
 20
1863.836449841195
 10
916.9224556786912
 20
1862.136742809945
 10
916.9144905908006
 20
1860.437035778695
 10
916.9011849267381
 20
1858.737328747445
 10
916.8656319482225
 20
1857.037621716195
 10
916.7757576806443
 20
1855.340356091195
 10
916.5925911767381
 20
1853.650902966195
 10
916.2818306786912
 20
1851.980492809945
 10
915.8234566552537
 20
1850.343774059945
 10
915.21414269041
 20
1848.757836559945
 10
914.4611214501756
 20
1847.234399059945
 10
913.5764778954881
 20
1845.783227184945
 10
912.5729073388475
 20
1844.412133434945
 10
911.4613961083787
 20
1843.126488903695
 10
910.2508248193162
 20
1841.934106091195
 10
908.9483040673631
 20
1840.842309216195
 10
907.5597542626756
 20
1839.862817028695
 10
906.0912484033006
 20
1839.007836559945
 10
904.5505074365037
 20
1838.291527966195
 10
902.9484871728318
 20
1837.725121716195
 10
901.2999276025193
 20
1837.313012341195
 10
899.6215523583787
 20
1837.046899059945
 10
897.9283150536912
 20
1836.899926403695
 10
896.2297982079881
 20
1836.834984997445
 10
894.5301216943162
 20
1836.813012341195
 10
892.8303231103318
 20
1836.805199841195
 10
891.1304940087693
 20
1836.799828747445
 10
889.4306343896287
 20
1836.795434216195
 10
887.7308052880662
 20
1836.791527966195
 10
886.0309761865037
 20
1836.787621716195
 10
884.3311470849412
 20
1836.784203747445
 10
882.6312874658006
 20
1836.781274059945
 10
880.9314583642381
 20
1836.778344372445
 10
879.2316292626756
 20
1836.775414684945
 10
877.5318001611131
 20
1836.772973278695
 10
875.8319405419725
 20
1836.770531872445
 10
874.13211144041
 20
1836.768090466195
 10
872.4322823388475
 20
1836.766137341195
 10
870.7324227197068
 20
1836.763695934945
 10
869.0325936181443
 20
1836.761742809945
 10
867.3327645165818
 20
1836.759789684945
 10
865.6329048974412
 20
1836.758324841195
 10
863.9330757958787
 20
1836.756371716195
 10
862.2332466943162
 20
1836.754906872445
 10
860.5333870751756
 20
1836.752953747445
 10
858.8335579736131
 20
1836.751488903695
 10
857.1337288720506
 20
1836.750024059945
 10
855.43386925291
 20
1836.748559216195
 10
853.7340401513475
 20
1836.747094372445
 10
852.034211049785
 20
1836.746117809945
 10
850.3343514306443
 20
1836.744652966195
 10
848.6345223290818
 20
1836.743188122445
 10
846.9346932275193
 20
1836.742211559945
 10
845.2348336083787
 20
1836.740746716195
 10
843.5350045068162
 20
1836.739770153695
 10
841.8351754052537
 20
1836.738793591195
 10
840.1353157861131
 20
1836.737817028695
 10
838.4354866845506
 20
1836.736352184945
 10
836.7356575829881
 20
1836.735375622445
 10
835.0357979638475
 20
1836.734399059945
 10
833.335968862285
 20
1836.733422497445
 10
831.6361092431443
 20
1836.732934216195
 10
829.9362801415818
 20
1836.731957653695
 10
828.2364510400193
 20
1836.730981091195
 10
826.5365914208787
 20
1836.730004528695
 10
774.8367623193162
 20
1836.729027966195
 10
773.1369332177537
 20
1836.728539684945
 10
771.4370735986131
 20
1836.727563122445
 10
769.7372444970506
 20
1836.726586559945
 10
768.0374153954881
 20
1836.726098278695
 10
766.3375557763475
 20
1836.725121716195
 10
764.637726674785
 20
1836.724633434945
 10
762.9378975732225
 20
1836.724145153695
 10
761.2380379540818
 20
1836.723168591195
 10
759.5382088525193
 20
1836.722680309945
 10
757.8383492333787
 20
1836.721703747445
 10
756.1385201318162
 20
1836.721215466195
 10
754.4386910302537
 20
1836.720727184945
 10
752.7388314111131
 20
1836.720238903695
 10
751.0390023095506
 20
1836.719262341195
 10
749.3391732079881
 20
1836.718774059945
 10
747.6393135888475
 20
1836.718285778695
 10
745.939484487285
 20
1836.717797497445
 10
744.2396553857225
 20
1836.717309216195
 10
742.5397957665818
 20
1836.716820934945
 10
740.8399666650193
 20
1836.716332653695
 10
739.1401375634568
 20
1836.715844372445
 10
737.4402779443162
 20
1836.715356091195
 10
735.7404488427537
 20
1836.714867809945
 10
734.0405892236131
 20
1836.714379528695
 10
732.3407601220506
 20
1836.713891247445
 10
730.6409310204881
 20
1836.713402966195
 10
728.9410714013475
 20
1836.712914684945
 10
727.241242299785
 20
1836.712914684945
 10
725.5414131982225
 20
1836.712426403695
 10
723.8415535790818
 20
1836.711938122445
 10
722.1417244775193
 20
1836.711449841195
 10
720.4418953759568
 20
1836.710961559945
 10
718.7420357568162
 20
1836.710961559945
 10
717.0422066552537
 20
1836.710473278695
 10
715.3423622949022
 20
1836.709984997445
 10
713.6425179345506
 20
1836.709984997445
 10
711.9426888329881
 20
1836.709496716195
 10
710.2428444726365
 20
1836.709008434945
 10
708.543000112285
 20
1836.709008434945
 10
706.8431557519334
 20
1836.708520153695
 10
705.1433266503709
 20
1836.708520153695
 10
703.4434822900193
 20
1836.708031872445
 10
701.7436379296678
 20
1836.707543591195
 10
700.0438088281053
 20
1836.707543591195
 10
698.3439644677537
 20
1836.707055309945
 10
696.6441201074022
 20
1836.707055309945
 10
694.9442757470506
 20
1836.706567028695
 10
693.2444466454881
 20
1836.706567028695
 10
691.5446022851365
 20
1836.706567028695
 10
689.844757924785
 20
1836.706078747445
 10
688.1449288232225
 20
1836.706078747445
 10
686.4450844628709
 20
1836.705590466195
 10
684.7452401025193
 20
1836.705590466195
 10
683.0453957421678
 20
1836.705102184945
 10
681.3455666406053
 20
1836.705102184945
 10
679.6457222802537
 20
1836.705102184945
 10
677.9458779199022
 20
1836.704613903695
 10
676.2460335595506
 20
1836.704613903695
 10
674.5462044579881
 20
1836.704613903695
 10
672.8463600976365
 20
1836.704125622445
 10
671.146515737285
 20
1836.704125622445
 10
669.4466866357225
 20
1836.704125622445
 10
667.7468422753709
 20
1836.704125622445
 10
666.0469979150193
 20
1836.703637341195
 10
664.3471535546678
 20
1836.703637341195
 10
662.6473244531053
 20
1836.703637341195
 10
660.9474800927537
 20
1836.703637341195
 10
659.2476357324022
 20
1836.703149059945
 10
657.5477913720506
 20
1836.703149059945
 10
655.8479622704881
 20
1836.703149059945
 10
654.1481179101365
 20
1836.703149059945
 10
652.448273549785
 20
1836.703149059945
 10
650.7484444482225
 20
1836.703149059945
 10
649.0486000878709
 20
1836.702660778695
 10
647.3487557275193
 20
1836.702660778695
 10
645.6489113671678
 20
1836.702660778695
 10
643.9490822656053
 20
1836.702660778695
 10
642.2492379052537
 20
1836.702660778695
 10
640.5493935449022
 20
1836.702660778695
 10
638.8495644433397
 20
1836.702660778695
 10
637.1497200829881
 20
1836.702660778695
 10
635.4498757226365
 20
1836.702660778695
 10
633.750031362285
 20
1836.702660778695
 10
632.0502022607225
 20
1836.702172497445
 10
630.3503579003709
 20
1836.702172497445
 10
628.6505135400193
 20
1836.702172497445
 10
626.9506691796678
 20
1836.702172497445
 10
625.2508400781053
 20
1836.702172497445
 10
623.5509957177537
 20
1836.702172497445
  0
LWPOLYLINE
  5
5249
330
A
100
AcDbEntity
  8
MODEL
100
AcDbPolyline
 90
      244
 70
     0
 43
0.0
 10
330.0809944970506
 20
2015.122094372445
 10
330.0810021264451
 20
2013.422387341195
 10
330.0810097558396
 20
2011.722680309945
 10
330.0810326440232
 20
2010.022973278695
 10
330.0810631616014
 20
2008.322777966195
 10
330.081101308574
 20
2006.623070934945
 10
330.0811547143357
 20
2004.923363903695
 10
330.081215749492
 20
2003.223656872445
 10
330.0812767846482
 20
2001.523461559945
 10
330.0813607079881
 20
1999.823754528695
 10
330.0814446313279
 20
1998.124047497445
 10
330.0815438134568
 20
1996.424340466195
 10
330.0816506249803
 20
1994.724145153695
 10
330.0817726952928
 20
1993.024438122445
 10
330.0819023949998
 20
1991.324731091195
 10
330.0820397241014
 20
1989.624535778695
 10
330.082192311992
 20
1987.924828747445
 10
330.0823525292771
 20
1986.225121716195
 10
330.0825280053514
 20
1984.525414684945
 10
330.0827111108201
 20
1982.825219372445
 10
330.0829094750779
 20
1981.125512341195
 10
330.0831154687303
 20
1979.425805309945
 10
330.0833367211717
 20
1977.726098278695
 10
330.0835732324021
 20
1976.025902966195
 10
330.0838250024217
 20
1974.326195934945
 10
330.0840844018357
 20
1972.626488903695
 10
330.0843590600389
 20
1970.926293591195
 10
330.084648977031
 20
1969.226586559945
 10
330.0849541528123
 20
1967.526879528695
 10
330.0852669579881
 20
1965.827172497445
 10
330.0856026513475
 20
1964.126977184945
 10
330.0859459741014
 20
1962.427270153695
 10
330.0863121850389
 20
1960.727563122445
 10
330.0866936547654
 20
1959.027856091195
 10
330.087090383281
 20
1957.327660778695
 10
330.0875023705857
 20
1955.627953747445
 10
330.0879296166795
 20
1953.928246716195
 10
330.0883797509568
 20
1952.228051403695
 10
330.0888451440232
 20
1950.528344372445
 10
330.0893257958787
 20
1948.828637341195
 10
330.0898293359178
 20
1947.128930309945
 10
330.0903557641404
 20
1945.428734997445
 10
330.0908974511521
 20
1943.729027966195
 10
330.0914620263475
 20
1942.029320934945
 10
330.0920494897264
 20
1940.329613903695
 10
330.0926522118943
 20
1938.629418591195
 10
330.0932854516404
 20
1936.929711559945
 10
330.0939415795701
 20
1935.230004528695
 10
330.0946205956834
 20
1933.529809216195
 10
330.0953224999803
 20
1931.830102184945
 10
330.0960549218553
 20
1930.130395153695
 10
330.0968102319139
 20
1928.430688122445
 10
330.0975960595506
 20
1926.730492809945
 10
330.0984124047654
 20
1925.030785778695
 10
330.0992592675584
 20
1923.331078747445
 10
330.1001366479295
 20
1921.631371716195
 10
330.1010445458787
 20
1919.931176403695
 10
330.101982961406
 20
1918.231469372445
 10
330.102959523906
 20
1916.531762341195
 10
330.1039742333787
 20
1914.831567028695
 10
330.105027089824
 20
1913.131859997445
 10
330.106118093242
 20
1911.432152966195
 10
330.1072548730271
 20
1909.732445934945
 10
330.1084374291795
 20
1908.032250622445
 10
330.1096581323045
 20
1906.332543591195
 10
330.1109322411912
 20
1904.632836559945
 10
330.1122597558396
 20
1902.933129528695
 10
330.1136406762498
 20
1901.232934216195
 10
330.1150750024217
 20
1899.533227184945
 10
330.1165703637498
 20
1897.833520153695
 10
330.1181343896287
 20
1896.133324841195
 10
330.1197670800584
 20
1894.433617809945
 10
330.1214684350389
 20
1892.733910778695
 10
330.1232537133592
 20
1891.034203747445
 10
330.1251229150193
 20
1889.334008434945
 10
330.1270760400193
 20
1887.634301403695
 10
330.1291359765428
 20
1885.934594372445
 10
330.1313027245896
 20
1884.234887341195
 10
330.133591542949
 20
1882.534692028695
 10
330.1360100610154
 20
1880.834984997445
 10
330.1385659081834
 20
1879.135277966195
 10
330.141289602031
 20
1877.435082653695
 10
330.1441887719529
 20
1875.735375622445
 10
330.1473015649217
 20
1874.035668591195
 10
330.1506584985154
 20
1872.335961559945
 10
330.1542977197068
 20
1870.635766247445
 10
330.1582650048631
 20
1868.936059216195
 10
330.162629018535
 20
1867.236352184945
 10
330.1674965722459
 20
1865.536645153695
 10
330.1730431420701
 20
1863.836449841195
 10
330.1795281274217
 20
1862.136742809945
 10
330.1875008447068
 20
1860.437035778695
 10
330.2007988793748
 20
1858.737328747445
 10
330.2363518578904
 20
1857.037621716195
 10
330.3262261254685
 20
1855.340356091195
 10
330.5094002587693
 20
1853.650902966195
 10
330.8201683862107
 20
1851.980492809945
 10
331.2785424096482
 20
1850.343774059945
 10
331.8878487450975
 20
1848.757836559945
 10
332.6408776147264
 20
1847.234399059945
 10
333.5255059106248
 20
1845.783227184945
 10
334.5290917260545
 20
1844.412133434945
 10
335.6406029565232
 20
1843.126488903695
 10
336.8511513574021
 20
1841.934106091195
 10
338.1536873681443
 20
1840.842309216195
 10
339.5422448022264
 20
1839.862817028695
 10
341.0107506616014
 20
1839.007836559945
 10
342.5514916283982
 20
1838.291527966195
 10
344.153496633281
 20
1837.725121716195
 10
345.8020638329881
 20
1837.313012341195
 10
347.4804314477342
 20
1837.046899059945
 10
349.1736840112107
 20
1836.899926403695
 10
350.8722084863084
 20
1836.834984997445
 10
352.5718697411912
 20
1836.813012341195
 10
354.2716797692674
 20
1836.805199841195
 10
355.9715126855271
 20
1836.799828747445
 10
357.6713456017869
 20
1836.795434216195
 10
359.3711823327439
 20
1836.791527966195
 10
361.0710152490037
 20
1836.787621716195
 10
362.7708519799607
 20
1836.784203747445
 10
364.470692525615
 20
1836.781274059945
 10
366.1705292565721
 20
1836.778344372445
 10
367.8703659875291
 20
1836.775414684945
 10
369.5702027184861
 20
1836.772973278695
 10
371.2700432641404
 20
1836.770531872445
 10
372.9698799950975
 20
1836.768090466195
 10
374.6697205407518
 20
1836.766137341195
 10
376.3695572717088
 20
1836.763695934945
 10
378.0693978173631
 20
1836.761742809945
 10
379.7692383630174
 20
1836.759789684945
 10
381.469077001323
 20
1836.758324841195
 10
383.1689156396287
 20
1836.756371716195
 10
384.8687542779344
 20
1836.754906872445
 10
386.5685948235887
 20
1836.752953747445
 10
388.2684334618943
 20
1836.751488903695
 10
389.9682721002
 20
1836.750024059945
 10
391.6681126458543
 20
1836.748559216195
 10
393.36795128416
 20
1836.747094372445
 10
395.0677918298143
 20
1836.746117809945
 10
396.7676304681199
 20
1836.744652966195
 10
398.4674710137742
 20
1836.743188122445
 10
400.1673106057542
 20
1836.742211559945
 10
401.8671501977342
 20
1836.740746716195
 10
403.5669897897142
 20
1836.739770153695
 10
405.2668293816941
 20
1836.738793591195
 10
406.9666689736741
 20
1836.737817028695
 10
408.6665090424913
 20
1836.736352184945
 10
410.3663487536805
 20
1836.735375622445
 10
412.0661885840791
 20
1836.734399059945
 10
413.7660284144776
 20
1836.733422497445
 10
415.4658683640855
 20
1836.732934216195
 10
417.1657079560655
 20
1836.731957653695
 10
418.8655480248826
 20
1836.730981091195
 10
420.5653876168626
 20
1836.730004528695
 10
422.2652281625169
 20
1836.729027966195
 10
423.9650677544969
 20
1836.728539684945
 10
425.6649073464768
 20
1836.727563122445
 10
427.3647478921311
 20
1836.726586559945
 10
429.0645874841111
 20
1836.726098278695
 10
430.7644280297654
 20
1836.725121716195
 10
482.4642666680711
 20
1836.724633434945
 10
484.1641072137254
 20
1836.724145153695
 10
485.8639477593797
 20
1836.723168591195
 10
487.563788305034
 20
1836.722680309945
 10
489.2636269433396
 20
1836.721703747445
 10
490.9634674889939
 20
1836.721215466195
 10
492.6633080346482
 20
1836.720727184945
 10
494.3631485803025
 20
1836.720238903695
 10
496.0629891259568
 20
1836.719262341195
 10
497.7628258569139
 20
1836.718774059945
 10
499.4626664025682
 20
1836.718285778695
 10
501.1625069482225
 20
1836.717797497445
 10
502.8623474938768
 20
1836.717309216195
 10
504.562188039531
 20
1836.716820934945
 10
506.2620285851853
 20
1836.716332653695
 10
507.9618691308396
 20
1836.715844372445
 10
509.6617058617967
 20
1836.715356091195
 10
511.361546407451
 20
1836.714867809945
 10
513.0613869531053
 20
1836.714379528695
 10
514.7612274987596
 20
1836.713891247445
 10
516.4610680444139
 20
1836.713402966195
 10
518.1609085900682
 20
1836.712914684945
 10
519.8607491357225
 20
1836.712914684945
 10
521.5605896813768
 20
1836.712426403695
 10
523.2604264123338
 20
1836.711938122445
 10
524.9602669579881
 20
1836.711449841195
 10
526.6601113183397
 20
1836.710961559945
 10
528.3599480492967
 20
1836.710961559945
 10
530.0597847802537
 20
1836.710473278695
 10
531.7596291406053
 20
1836.709984997445
 10
533.4594658715623
 20
1836.709984997445
 10
535.1593102319139
 20
1836.709496716195
 10
536.8591469628709
 20
1836.709008434945
 10
538.5589913232225
 20
1836.709008434945
 10
540.2588280541795
 20
1836.708520153695
 10
541.9586724145311
 20
1836.708520153695
 10
543.6585091454881
 20
1836.708031872445
 10
545.3583458764451
 20
1836.707543591195
 10
547.0581902367967
 20
1836.707543591195
 10
548.7580269677537
 20
1836.707055309945
 10
550.4578713281053
 20
1836.707055309945
 10
552.1577080590623
 20
1836.706567028695
 10
553.8575524194139
 20
1836.706567028695
 10
555.5573891503709
 20
1836.706567028695
 10
557.2572335107225
 20
1836.706078747445
 10
558.9570702416795
 20
1836.706078747445
 10
560.6569069726365
 20
1836.705590466195
 10
562.3567513329881
 20
1836.705590466195
 10
564.0565880639451
 20
1836.705102184945
 10
565.7564324242967
 20
1836.705102184945
 10
567.4562691552537
 20
1836.705102184945
 10
569.1561135156053
 20
1836.704613903695
 10
570.8559502465623
 20
1836.704613903695
 10
572.5557946069139
 20
1836.704613903695
 10
574.2556313378709
 20
1836.704125622445
 10
575.9554680688279
 20
1836.704125622445
 10
577.6553124291795
 20
1836.704125622445
 10
579.3551491601365
 20
1836.704125622445
 10
581.0549935204881
 20
1836.703637341195
 10
582.7548302514451
 20
1836.703637341195
 10
584.4546746117967
 20
1836.703637341195
 10
586.1545113427537
 20
1836.703637341195
 10
587.8543557031053
 20
1836.703149059945
 10
589.5541924340623
 20
1836.703149059945
 10
591.2540291650193
 20
1836.703149059945
 10
592.9538735253709
 20
1836.703149059945
 10
594.6537178857225
 20
1836.703149059945
 10
596.353546987285
 20
1836.703149059945
 10
598.0533913476365
 20
1836.702660778695
 10
599.7532357079881
 20
1836.702660778695
 10
601.4530800683397
 20
1836.702660778695
 10
603.1529091699022
 20
1836.702660778695
 10
604.8527535302537
 20
1836.702660778695
 10
606.5525978906053
 20
1836.702660778695
 10
608.2524269921678
 20
1836.702660778695
 10
609.9522713525193
 20
1836.702660778695
 10
611.6521157128709
 20
1836.702660778695
 10
613.3519600732225
 20
1836.702660778695
 10
615.051789174785
 20
1836.702172497445
 10
616.7516335351365
 20
1836.702172497445
 10
618.4514778954881
 20
1836.702172497445
 10
620.1513222558397
 20
1836.702172497445
 10
621.8511513574022
 20
1836.702172497445
 10
623.5509957177537
 20
1836.702172497445
  0
LWPOLYLINE
  5
524A
330
A
100
AcDbEntity
  8
MODEL
100
AcDbPolyline
 90
      244
 70
     0
 43
0.0
 10
330.0809944970506
 20
2015.122094372445
 10
330.0810021264451
 20
2016.822289684945
 10
330.0810097558396
 20
2018.521996716195
 10
330.0810326440232
 20
2020.221703747445
 10
330.0810631616014
 20
2021.921899059945
 10
330.081101308574
 20
2023.621606091195
 10
330.0811547143357
 20
2025.321313122445
 10
330.081215749492
 20
2027.021020153695
 10
330.0812767846482
 20
2028.721215466195
 10
330.0813607079881
 20
2030.420922497445
 10
330.0814446313279
 20
2032.120629528695
 10
330.0815438134568
 20
2033.820336559945
 10
330.0816506249803
 20
2035.520531872445
 10
330.0817726952928
 20
2037.220238903695
 10
330.0819023949998
 20
2038.919945934945
 10
330.0820397241014
 20
2040.620141247445
 10
330.082192311992
 20
2042.319848278695
 10
330.0823525292771
 20
2044.019555309945
 10
330.0825280053514
 20
2045.719262341195
 10
330.0827111108201
 20
2047.419457653695
 10
330.0829094750779
 20
2049.119164684945
 10
330.0831154687303
 20
2050.818871716195
 10
330.0833367211717
 20
2052.518578747445
 10
330.0835732324021
 20
2054.218774059945
 10
330.0838250024217
 20
2055.918481091195
 10
330.0840844018357
 20
2057.618188122445
 10
330.0843590600389
 20
2059.318383434945
 10
330.084648977031
 20
2061.018090466195
 10
330.0849541528123
 20
2062.717797497445
 10
330.0852669579881
 20
2064.417504528695
 10
330.0856026513475
 20
2066.117699841195
 10
330.0859459741014
 20
2067.817406872445
 10
330.0863121850389
 20
2069.517113903695
 10
330.0866936547654
 20
2071.216820934945
 10
330.087090383281
 20
2072.917016247445
 10
330.0875023705857
 20
2074.616723278695
 10
330.0879296166795
 20
2076.316430309945
 10
330.0883797509568
 20
2078.016625622445
 10
330.0888451440232
 20
2079.716332653695
 10
330.0893257958787
 20
2081.416039684945
 10
330.0898293359178
 20
2083.115746716195
 10
330.0903557641404
 20
2084.815942028695
 10
330.0908974511521
 20
2086.515649059945
 10
330.0914620263475
 20
2088.215356091195
 10
330.0920494897264
 20
2089.915063122445
 10
330.0926522118943
 20
2091.615258434945
 10
330.0932854516404
 20
2093.314965466195
 10
330.0939415795701
 20
2095.014672497445
 10
330.0946205956834
 20
2096.714867809945
 10
330.0953224999803
 20
2098.414574841195
 10
330.0960549218553
 20
2100.114281872445
 10
330.0968102319139
 20
2101.813988903695
 10
330.0975960595506
 20
2103.514184216195
 10
330.0984124047654
 20
2105.213891247445
 10
330.0992592675584
 20
2106.913598278695
 10
330.1001366479295
 20
2108.613305309945
 10
330.1010445458787
 20
2110.313500622445
 10
330.101982961406
 20
2112.013207653695
 10
330.102959523906
 20
2113.712914684945
 10
330.1039742333787
 20
2115.413109997445
 10
330.105027089824
 20
2117.112817028695
 10
330.106118093242
 20
2118.812524059945
 10
330.1072548730271
 20
2120.512231091195
 10
330.1084374291795
 20
2122.212426403695
 10
330.1096581323045
 20
2123.912133434945
 10
330.1109322411912
 20
2125.611840466195
 10
330.1122597558396
 20
2127.311547497445
 10
330.1136406762498
 20
2129.011742809945
 10
330.1150750024217
 20
2130.711449841195
 10
330.1165703637498
 20
2132.411156872445
 10
330.1181343896287
 20
2134.111352184945
 10
330.1197670800584
 20
2135.811059216195
 10
330.1214684350389
 20
2137.510766247445
 10
330.1232537133592
 20
2139.210473278695
 10
330.1251229150193
 20
2140.910668591195
 10
330.1270760400193
 20
2142.610375622445
 10
330.1291359765428
 20
2144.310082653695
 10
330.1313027245896
 20
2146.009789684945
 10
330.133591542949
 20
2147.709984997445
 10
330.1360100610154
 20
2149.409692028695
 10
330.1385659081834
 20
2151.109399059945
 10
330.141289602031
 20
2152.809594372445
 10
330.1441887719529
 20
2154.509301403695
 10
330.1473015649217
 20
2156.209008434945
 10
330.1506584985154
 20
2157.908715466195
 10
330.1542977197068
 20
2159.608910778695
 10
330.1582650048631
 20
2161.308617809945
 10
330.162629018535
 20
2163.008324841195
 10
330.1674965722459
 20
2164.708031872445
 10
330.1730431420701
 20
2166.408227184945
 10
330.1795281274217
 20
2168.107934216195
 10
330.1875008447068
 20
2169.807641247445
 10
330.2007988793748
 20
2171.507348278695
 10
330.2363518578904
 20
2173.207055309945
 10
330.3262261254685
 20
2174.904320934945
 10
330.5094002587693
 20
2176.593774059945
 10
330.8201683862107
 20
2178.264184216195
 10
331.2785424096482
 20
2179.900902966195
 10
331.8878487450975
 20
2181.486840466195
 10
332.6408776147264
 20
2183.010277966195
 10
333.5255059106248
 20
2184.461449841195
 10
334.5290917260545
 20
2185.832543591195
 10
335.6406029565232
 20
2187.118188122445
 10
336.8511513574021
 20
2188.310570934945
 10
338.1536873681443
 20
2189.402367809945
 10
339.5422448022264
 20
2190.381859997445
 10
341.0107506616014
 20
2191.236840466195
 10
342.5514916283982
 20
2191.953149059945
 10
344.153496633281
 20
2192.519555309945
 10
345.8020638329881
 20
2192.931664684945
 10
347.4804314477342
 20
2193.197777966195
 10
349.1736840112107
 20
2193.344750622445
 10
350.8722084863084
 20
2193.409692028695
 10
352.5718697411912
 20
2193.431664684945
 10
354.2716797692674
 20
2193.439477184945
 10
355.9715126855271
 20
2193.444848278695
 10
357.6713456017869
 20
2193.449242809945
 10
359.3711823327439
 20
2193.453149059945
 10
361.0710152490037
 20
2193.457055309945
 10
362.7708519799607
 20
2193.460473278695
 10
364.470692525615
 20
2193.463402966195
 10
366.1705292565721
 20
2193.466332653695
 10
367.8703659875291
 20
2193.469262341195
 10
369.5702027184861
 20
2193.471703747445
 10
371.2700432641404
 20
2193.474145153695
 10
372.9698799950975
 20
2193.476586559945
 10
374.6697205407518
 20
2193.478539684945
 10
376.3695572717088
 20
2193.480981091195
 10
378.0693978173631
 20
2193.482934216195
 10
379.7692383630174
 20
2193.484887341195
 10
381.469077001323
 20
2193.486352184945
 10
383.1689156396287
 20
2193.488305309945
 10
384.8687542779344
 20
2193.489770153695
 10
386.5685948235887
 20
2193.491723278695
 10
388.2684334618943
 20
2193.493188122445
 10
389.9682721002
 20
2193.494652966195
 10
391.6681126458543
 20
2193.496117809945
 10
393.36795128416
 20
2193.497582653695
 10
395.0677918298143
 20
2193.498559216195
 10
396.7676304681199
 20
2193.500024059945
 10
398.4674710137742
 20
2193.501488903695
 10
400.1673106057542
 20
2193.502465466195
 10
401.8671501977342
 20
2193.503930309945
 10
403.5669897897142
 20
2193.504906872445
 10
405.2668293816941
 20
2193.505883434945
 10
406.9666689736741
 20
2193.506859997445
 10
408.6665090424913
 20
2193.508324841195
 10
410.3663487536805
 20
2193.509301403695
 10
412.0661885840791
 20
2193.510277966195
 10
413.7660284144776
 20
2193.511254528695
 10
415.4658683640855
 20
2193.511742809945
 10
417.1657079560655
 20
2193.512719372445
 10
418.8655480248826
 20
2193.513695934945
 10
420.5653876168626
 20
2193.514672497445
 10
422.2652281625169
 20
2193.515649059945
 10
423.9650677544969
 20
2193.516137341195
 10
425.6649073464768
 20
2193.517113903695
 10
427.3647478921311
 20
2193.518090466195
 10
429.0645874841111
 20
2193.518578747445
 10
430.7644280297654
 20
2193.519555309945
 10
482.4642666680711
 20
2193.520043591195
 10
484.1641072137254
 20
2193.520531872445
 10
485.8639477593797
 20
2193.521508434945
 10
487.563788305034
 20
2193.521996716195
 10
489.2636269433396
 20
2193.522973278695
 10
490.9634674889939
 20
2193.523461559945
 10
492.6633080346482
 20
2193.523949841195
 10
494.3631485803025
 20
2193.524438122445
 10
496.0629891259568
 20
2193.525414684945
 10
497.7628258569139
 20
2193.525902966195
 10
499.4626664025682
 20
2193.526391247445
 10
501.1625069482225
 20
2193.526879528695
 10
502.8623474938768
 20
2193.527367809945
 10
504.562188039531
 20
2193.527856091195
 10
506.2620285851853
 20
2193.528344372445
 10
507.9618691308396
 20
2193.528832653695
 10
509.6617058617967
 20
2193.529320934945
 10
511.361546407451
 20
2193.529809216195
 10
513.0613869531053
 20
2193.530297497445
 10
514.7612274987596
 20
2193.530785778695
 10
516.4610680444139
 20
2193.531274059945
 10
518.1609085900682
 20
2193.531762341195
 10
519.8607491357225
 20
2193.531762341195
 10
521.5605896813768
 20
2193.532250622445
 10
523.2604264123338
 20
2193.532738903695
 10
524.9602669579881
 20
2193.533227184945
 10
526.6601113183397
 20
2193.533715466195
 10
528.3599480492967
 20
2193.533715466195
 10
530.0597847802537
 20
2193.534203747445
 10
531.7596291406053
 20
2193.534692028695
 10
533.4594658715623
 20
2193.534692028695
 10
535.1593102319139
 20
2193.535180309945
 10
536.8591469628709
 20
2193.535668591195
 10
538.5589913232225
 20
2193.535668591195
 10
540.2588280541795
 20
2193.536156872445
 10
541.9586724145311
 20
2193.536156872445
 10
543.6585091454881
 20
2193.536645153695
 10
545.3583458764451
 20
2193.537133434945
 10
547.0581902367967
 20
2193.537133434945
 10
548.7580269677537
 20
2193.537621716195
 10
550.4578713281053
 20
2193.537621716195
 10
552.1577080590623
 20
2193.538109997445
 10
553.8575524194139
 20
2193.538109997445
 10
555.5573891503709
 20
2193.538109997445
 10
557.2572335107225
 20
2193.538598278695
 10
558.9570702416795
 20
2193.538598278695
 10
560.6569069726365
 20
2193.539086559945
 10
562.3567513329881
 20
2193.539086559945
 10
564.0565880639451
 20
2193.539574841195
 10
565.7564324242967
 20
2193.539574841195
 10
567.4562691552537
 20
2193.539574841195
 10
569.1561135156053
 20
2193.540063122445
 10
570.8559502465623
 20
2193.540063122445
 10
572.5557946069139
 20
2193.540063122445
 10
574.2556313378709
 20
2193.540551403695
 10
575.9554680688279
 20
2193.540551403695
 10
577.6553124291795
 20
2193.540551403695
 10
579.3551491601365
 20
2193.540551403695
 10
581.0549935204881
 20
2193.541039684945
 10
582.7548302514451
 20
2193.541039684945
 10
584.4546746117967
 20
2193.541039684945
 10
586.1545113427537
 20
2193.541039684945
 10
587.8543557031053
 20
2193.541527966195
 10
589.5541924340623
 20
2193.541527966195
 10
591.2540291650193
 20
2193.541527966195
 10
592.9538735253709
 20
2193.541527966195
 10
594.6537178857225
 20
2193.541527966195
 10
596.353546987285
 20
2193.541527966195
 10
598.0533913476365
 20
2193.542016247445
 10
599.7532357079881
 20
2193.542016247445
 10
601.4530800683397
 20
2193.542016247445
 10
603.1529091699022
 20
2193.542016247445
 10
604.8527535302537
 20
2193.542016247445
 10
606.5525978906053
 20
2193.542016247445
 10
608.2524269921678
 20
2193.542016247445
 10
609.9522713525193
 20
2193.542016247445
 10
611.6521157128709
 20
2193.542016247445
 10
613.3519600732225
 20
2193.542016247445
 10
615.051789174785
 20
2193.542504528695
 10
616.7516335351365
 20
2193.542504528695
 10
618.4514778954881
 20
2193.542504528695
 10
620.1513222558397
 20
2193.542504528695
 10
621.8511513574022
 20
2193.542504528695
 10
623.5509957177537
 20
2193.542504528695
  0
ARC
  5
524B
330
A
100
AcDbEntity
  8
MODEL
100
AcDbCircle
 10
623.5509935411474
 20
2015.122336336464
 30
0.0
 40
37.50000217660602
100
AcDbArc
 50
0.0000033258296058
 51
89.99999667437953
  0
ARC
  5
524C
330
A
100
AcDbEntity
  8
MODEL
100
AcDbCircle
 10
623.5509978943601
 20
2015.122336336464
 30
0.0
 40
37.50000217660602
100
AcDbArc
 50
90.00000332562045
 51
179.9999966741704
  0
ARC
  5
524D
330
A
100
AcDbEntity
  8
MODEL
100
AcDbCircle
 10
623.5509935411474
 20
2015.122340689677
 30
0.0
 40
37.50000217660602
100
AcDbArc
 50
270.0000033256205
 51
359.99999667417
  0
ARC
  5
524E
330
A
100
AcDbEntity
  8
MODEL
100
AcDbCircle
 10
623.5509978943601
 20
2015.122340689677
 30
0.0
 40
37.50000217660602
100
AcDbArc
 50
180.00000332583
 51
269.9999966743795
  0
CIRCLE
  5
524F
330
A
100
AcDbEntity
  8
MODEL
100
AcDbCircle
 10
623.5509957177537
 20
2015.12233851307
 30
0.0
 40
22.62051405883003
  0
ARC
  5
5250
330
A
100
AcDbEntity
  8
MODEL
100
AcDbCircle
 10
917.4470162491116
 20
2194.018938878412
 30
0.0
 40
5.997419092174935
100
AcDbArc
 50
359.9928021180028
 51
90.00719788178426
  0
LINE
  5
5251
330
A
100
AcDbEntity
  8
MODEL
100
AcDbLine
 10
917.4462628129031
 20
2200.016357923261
 30
0.0
 11
329.6557896577606
 21
2200.016357923265
 31
0.0
  0
ARC
  5
5252
330
A
100
AcDbEntity
  8
MODEL
100
AcDbCircle
 10
329.6550362215539
 20
2194.018938878412
 30
0.0
 40
5.997419092176029
100
AcDbArc
 50
89.9928021182157
 51
180.0071978819971
  0
LINE
  5
5253
330
A
100
AcDbEntity
  8
MODEL
100
AcDbLine
 10
323.6576171767037
 20
2194.018185442204
 30
0.0
 11
323.6576171767037
 21
1836.227712287061
 31
0.0
  0
ARC
  5
5254
330
A
100
AcDbEntity
  8
MODEL
100
AcDbCircle
 10
329.6550362215539
 20
1836.226958850855
 30
0.0
 40
5.99741909217647
100
AcDbArc
 50
179.992802118005
 51
270.0071978817843
  0
LINE
  5
5255
330
A
100
AcDbEntity
  8
MODEL
100
AcDbLine
 10
329.6557896577606
 20
1830.229539806005
 30
0.0
 11
917.4462628129031
 21
1830.229539806005
 31
0.0
  0
ARC
  5
5256
330
A
100
AcDbEntity
  8
MODEL
100
AcDbCircle
 10
917.4470162491116
 20
1836.226958850852
 30
0.0
 40
5.997419092174267
100
AcDbArc
 50
269.9928021180071
 51
0.0071978817864668
  0
LINE
  5
5257
330
A
100
AcDbEntity
  8
MODEL
100
AcDbLine
 10
923.4444352939599
 20
1836.227712287061
 30
0.0
 11
923.4444352939599
 21
2194.018185442204
 31
0.0
  0
LINE
  5
5258
330
A
100
AcDbEntity
  8
MODEL
100
AcDbLine
 10
328.0500724620788
 20
1050.706272947339
 30
0.0
 11
623.5510262353318
 21
1050.706297307785
 31
0.0
  0
LINE
  5
5259
330
A
100
AcDbEntity
  8
MODEL
100
AcDbLine
 10
920.4689443399079
 20
1050.706279088926
 30
0.0
 11
623.5510262353318
 21
1050.706297307785
 31
0.0
  0
LINE
  5
525A
330
A
100
AcDbEntity
  8
MODEL
100
AcDbLine
 10
601.5510250587877
 20
883.7063032725571
 30
0.0
 11
645.5510250587877
 21
883.7063071191594
 31
0.0
  0
LINE
  5
525B
330
A
100
AcDbEntity
  8
HIDDEN
100
AcDbLine
 10
623.551207243293
 20
931.7410062479194
 30
0.0
 11
661.0512039649375
 21
931.7410111654503
 31
0.0
  0
LINE
  5
525C
330
A
100
AcDbEntity
  8
HIDDEN
100
AcDbLine
 10
623.551207243293
 20
931.7410062479194
 30
0.0
 11
586.0512039649393
 21
931.7410046087423
 31
0.0
  0
LINE
  5
525D
330
A
100
AcDbEntity
  8
HIDDEN
100
AcDbLine
 10
600.930690997614
 20
919.2556347442053
 30
0.0
 11
646.1717191152738
 21
919.2556386993012
 31
0.0
  0
ARC
  5
525E
330
A
100
AcDbEntity
  8
MODEL
100
AcDbCircle
 10
1654.538870027731
 20
883.7062919406903
 30
0.0
 40
3.000000000000005
100
AcDbArc
 50
269.9999974956876
 51
339.9999974955687
  0
LINE
  5
525F
330
A
100
AcDbEntity
  8
MODEL
100
AcDbLine
 10
1606.430248643834
 20
880.7062908368803
 30
0.0
 11
1471.174190023138
 21
880.7062967491106
 31
0.0
  0
LINE
  5
5260
330
A
100
AcDbEntity
  8
MODEL
100
AcDbLine
 10
1606.430248643834
 20
880.7062908368803
 30
0.0
 11
1624.156788972905
 21
880.7062908368803
 31
0.0
  0
LINE
  5
5261
330
A
100
AcDbEntity
  8
MODEL
100
AcDbLine
 10
1627.138604806937
 20
880.7062932650056
 30
0.0
 11
1624.156791402047
 21
880.7062932660224
 31
0.0
  0
LINE
  5
5262
330
A
100
AcDbEntity
  8
MODEL
100
AcDbLine
 10
1651.479407146188
 20
880.706292201035
 30
0.0
 11
1627.138604806937
 21
880.7062932650056
 31
0.0
  0
LINE
  5
5263
330
A
100
AcDbEntity
  8
MODEL
100
AcDbLine
 10
1651.479407146188
 20
880.706292201035
 30
0.0
 11
1654.538869896597
 21
880.7062919406903
 31
0.0
  0
LINE
  5
5264
330
A
100
AcDbEntity
  8
MODEL
100
AcDbLine
 10
1540.245227832515
 20
1050.706289507552
 30
0.0
 11
1720.600173906706
 21
1050.706282813689
 31
0.0
  0
LINE
  5
5265
102
{ACAD_REACTORS
330
52F1
102
}
330
A
100
AcDbEntity
  8
MODEL
100
AcDbLine
 10
1540.245227832515
 20
1050.706289507552
 30
0.0
 11
1359.89028413773
 21
1050.70629858082
 31
0.0
  0
LINE
  5
5266
330
A
100
AcDbEntity
  8
MODEL
100
AcDbLine
 10
1676.148526715734
 20
934.3069150269303
 30
0.0
 11
1657.357947845238
 21
882.6802313874882
 31
0.0
  0
LINE
  5
5267
330
A
100
AcDbEntity
  8
MODEL
100
AcDbLine
 10
1376.757502708441
 20
965.7062970545423
 30
0.0
 11
1707.393415719017
 21
965.7061119238192
 31
0.0
  0
LINE
  5
5268
330
A
100
AcDbEntity
  8
HIDDEN
100
AcDbLine
 10
1518.245231264213
 20
883.7063012007015
 30
0.0
 11
1562.245231264213
 21
883.7062992774004
 31
0.0
  0
LINE
  5
5269
102
{ACAD_REACTORS
330
52F1
102
}
330
A
100
AcDbEntity
  8
HIDDEN
100
AcDbLine
 10
1577.744638271099
 20
931.7409879396703
 30
0.0
 11
1540.244636631922
 21
931.7409879396723
 31
0.0
  0
LINE
  5
526A
330
A
100
AcDbEntity
  8
HIDDEN
100
AcDbLine
 10
1517.624123666516
 20
919.2556194022793
 30
0.0
 11
1562.865151784176
 21
919.2556174247303
 31
0.0
  0
LINE
  5
526B
330
A
100
AcDbEntity
  8
HIDDEN
100
AcDbLine
 10
1502.744634992745
 20
931.7409879396703
 30
0.0
 11
1540.244636631922
 21
931.7409879396723
 31
0.0
  0
LWPOLYLINE
  5
526C
330
A
100
AcDbEntity
  8
MODEL
100
AcDbPolyline
 90
       29
 70
     0
 43
0.0
 10
623.5509957177537
 20
2172.981957653695
 10
624.8945931298631
 20
2172.937524059945
 10
626.221238027324
 20
2172.805199841195
 10
627.5143135888475
 20
2172.585473278695
 10
628.75759972166
 20
2172.282738903695
 10
629.9353798730272
 20
2171.899438122445
 10
631.0328377587693
 20
2171.440942028695
 10
632.0362557275193
 20
2170.913109997445
 10
632.9329384667772
 20
2170.322289684945
 10
633.7116860253709
 20
2169.675805309945
 10
634.3625649316209
 20
2168.981957653695
 10
634.8775948388475
 20
2168.249047497445
 10
635.2500923974412
 20
2167.486840466195
 10
635.4755104882615
 20
2166.704613903695
 10
635.5509499413865
 20
2165.911645153695
 10
635.4755257470506
 20
2165.119164684945
 10
635.2501229150193
 20
2164.335473278695
 10
634.8775338036912
 20
2163.571801403695
 10
634.3626259667772
 20
2162.836938122445
 10
633.7116555077928
 20
2162.140649059945
 10
632.9329689843553
 20
2161.491723278695
 10
632.0362404687303
 20
2160.897973278695
 10
631.0328835351365
 20
2160.366723278695
 10
629.9353951318162
 20
2159.905785778695
 10
628.7575692040818
 20
2159.520043591195
 10
627.5142830712693
 20
2159.214867809945
 10
626.2212838036912
 20
2158.993676403695
 10
624.8945931298631
 20
2158.859887341195
 10
623.5509957177537
 20
2158.815453747445
  0
LWPOLYLINE
  5
526D
330
A
100
AcDbEntity
  8
MODEL
100
AcDbPolyline
 90
       29
 70
     0
 43
0.0
 10
623.5509957177537
 20
2172.981957653695
 10
622.2073983056443
 20
2172.937524059945
 10
620.8807534081834
 20
2172.805199841195
 10
619.58767784666
 20
2172.585473278695
 10
618.3443917138475
 20
2172.282738903695
 10
617.1666115624803
 20
2171.899438122445
 10
616.0691536767381
 20
2171.440942028695
 10
615.0657357079881
 20
2170.913109997445
 10
614.1690529687303
 20
2170.322289684945
 10
613.3903054101365
 20
2169.675805309945
 10
612.7394265038865
 20
2168.981957653695
 10
612.22439659666
 20
2168.249047497445
 10
611.8518990380662
 20
2167.486840466195
 10
611.6264809472459
 20
2166.704613903695
 10
611.5510414941209
 20
2165.911645153695
 10
611.6264656884568
 20
2165.119164684945
 10
611.8518685204881
 20
2164.335473278695
 10
612.2244576318162
 20
2163.571801403695
 10
612.7393654687303
 20
2162.836938122445
 10
613.3903359277147
 20
2162.140649059945
 10
614.1690224511522
 20
2161.491723278695
 10
615.0657509667772
 20
2160.897973278695
 10
616.0691079003709
 20
2160.366723278695
 10
617.1665963036912
 20
2159.905785778695
 10
618.3444222314256
 20
2159.520043591195
 10
619.5877083642381
 20
2159.214867809945
 10
620.8807076318162
 20
2158.993676403695
 10
622.2073983056443
 20
2158.859887341195
 10
623.5509957177537
 20
2158.815453747445
  0
ELLIPSE
  5
526E
330
A
100
AcDbEntity
  8
MODEL
100
AcDbEllipse
 10
623.5509957177537
 20
2173.986179340087
 30
0.0
 11
12.0
 21
1.010325982802203E-15
 31
0.0
210
0.0
220
0.0
230
1.0
 40
0.5900149050102764
 41
3.748656064910713
 42
5.676121895858656
  0
LINE
  5
526F
330
A
100
AcDbEntity
  8
MODEL
100
AcDbLine
 10
1376.757502708437
 20
965.7062054127473
 30
0.0
 11
1368.904418559343
 21
965.7062060992844
 31
0.0
  0
LINE
  5
5270
330
A
100
AcDbEntity
  8
MODEL
100
AcDbLine
 10
1466.50514224617
 20
880.7062118205372
 30
0.0
 11
1431.196789115455
 21
880.7062118205372
 31
0.0
  0
LINE
  5
5271
330
A
100
AcDbEntity
  8
MODEL
100
AcDbLine
 10
439.6393138119738
 20
880.7062868804157
 30
0.0
 11
457.3658549158963
 21
880.7062876552675
 31
0.0
  0
LINE
  5
5272
330
A
100
AcDbEntity
  8
MODEL
100
AcDbLine
 10
547.938137611477
 20
880.7062955733488
 30
0.0
 11
457.3658549158963
 21
880.7062876552679
 31
0.0
  0
LINE
  5
5273
330
A
100
AcDbEntity
  8
MODEL
100
AcDbLine
 10
550.8967034027928
 20
880.7062957016558
 30
0.0
 11
547.938137611477
 21
880.7062955733488
 31
0.0
  0
ARC
  5
5274
330
A
100
AcDbEntity
  8
MODEL
100
AcDbCircle
 10
550.8967031405236
 20
883.7062957016553
 30
0.0
 40
2.999999999999982
100
AcDbArc
 50
270.0000050091459
 51
353.0000050089259
  0
LINE
  5
5275
330
A
100
AcDbEntity
  8
MODEL
100
AcDbLine
 10
434.8107935577545
 20
880.7062839290027
 30
0.0
 11
408.43535733519
 21
880.7062816231885
 31
0.0
  0
LINE
  5
5276
330
A
100
AcDbEntity
  8
MODEL
100
AcDbLine
 10
399.5024411894783
 20
880.7062812327183
 30
0.0
 11
408.43535733519
 21
880.7062816231885
 31
0.0
  0
LINE
  5
5277
330
A
100
AcDbEntity
  8
MODEL
100
AcDbLine
 10
553.874341627411
 20
883.3406879317533
 30
0.0
 11
558.1048572727277
 21
917.7955024090953
 31
0.0
  0
LINE
  5
5278
330
A
100
AcDbEntity
  8
MODEL
100
AcDbLine
 10
331.8410841989544
 20
965.7062796937632
 30
0.0
 11
891.9884129104075
 21
965.7062753402204
 31
0.0
  0
LWPOLYLINE
  5
5279
330
A
100
AcDbEntity
  8
MODEL
100
AcDbPolyline
 90
        5
 70
     0
 43
0.0
 10
558.1048582447756
 20
917.7954565782912
 10
558.2727125538577
 20
918.7056128282912
 10
558.5479582203616
 20
919.5864722032912
 10
558.9242323292483
 20
920.4224097032912
 10
559.4944532765139
 20
921.3428198595412
  0
ARC
  5
527A
330
A
100
AcDbEntity
  8
HIDDEN
100
AcDbCircle
 10
580.1982587588873
 20
917.0708414490293
 30
0.0
 40
15.0
100
AcDbArc
 50
50.00000500899398
 51
86.49993861344794
  0
ARC
  5
527B
330
A
100
AcDbEntity
  8
MODEL
100
AcDbCircle
 10
579.4604485981081
 20
912.1066249127273
 30
0.0
 40
8.0
100
AcDbArc
 50
4.16744828856856
 51
86.4999303939895
  0
ARC
  5
527C
330
A
100
AcDbEntity
  8
MODEL
100
AcDbCircle
 10
394.2573829928433
 20
883.7062851503704
 30
0.0
 40
3.000000000000019
100
AcDbArc
 50
200.0000050089796
 51
270.0000050088332
  0
LINE
  5
527D
330
A
100
AcDbEntity
  8
MODEL
100
AcDbLine
 10
394.2573832551125
 20
880.7062851503708
 30
0.0
 11
399.5025848468149
 21
880.7062856089208
 31
0.0
  0
LINE
  5
527E
330
A
100
AcDbEntity
  8
MODEL
100
AcDbLine
 10
434.8109364341517
 20
880.7062886956753
 30
0.0
 11
439.5025848468149
 21
880.7062891058324
 31
0.0
  0
LINE
  5
527F
330
A
100
AcDbEntity
  8
MODEL
100
AcDbLine
 10
601.5510250587877
 20
883.706303272558
 30
0.0
 11
592.340385851011
 21
883.7063024673382
 31
0.0
  0
ARC
  5
5280
330
A
100
AcDbEntity
  8
MODEL
100
AcDbCircle
 10
592.3403406511998
 20
886.7062541363186
 30
0.0
 40
2.999951669320778
100
AcDbArc
 50
184.1665900308386
 51
270.00086326647
  0
ARC
  5
5281
330
A
100
AcDbEntity
  8
MODEL
100
AcDbCircle
 10
326.6576016628251
 20
1047.70627924061
 30
0.0
 40
2.999999999999994
100
AcDbArc
 50
90.00000500914584
 51
182.0000050089743
  0
LINE
  5
5282
330
A
100
AcDbEntity
  8
MODEL
100
AcDbLine
 10
326.6576014005577
 20
1050.70627924061
 30
0.0
 11
328.0429086645408
 21
1050.706279361717
 31
0.0
  0
LINE
  5
5283
330
A
100
AcDbEntity
  8
MODEL
100
AcDbLine
 10
323.6594291909214
 20
1047.601580488394
 30
0.0
 11
326.3507726140024
 21
970.5317817302732
 31
0.0
  0
ARC
  5
5284
330
A
100
AcDbEntity
  8
MODEL
100
AcDbCircle
 10
331.3477267338412
 20
970.7062796506332
 30
0.0
 40
5.0
100
AcDbArc
 50
182.0000050091812
 51
270.0000050089374
  0
LINE
  5
5285
330
A
100
AcDbEntity
  8
HIDDEN
100
AcDbLine
 10
589.840071899639
 20
928.5615089387272
 30
0.0
 11
599.8831881184151
 21
920.1343353198673
 31
0.0
  0
LINE
  5
5286
330
A
100
AcDbEntity
  8
HIDDEN
100
AcDbLine
 10
600.9543685711569
 20
917.8885593034673
 30
0.0
 11
601.5510250587877
 21
883.706303272558
 31
0.0
  0
ARC
  5
5287
330
A
100
AcDbEntity
  8
HIDDEN
100
AcDbCircle
 10
597.954824240699
 20
917.8362012259142
 30
0.0
 40
3.000001259778346
100
AcDbArc
 50
1.000015973819497
 51
49.99999404418306
  0
ARC
  5
5288
330
A
100
AcDbEntity
  8
MODEL
100
AcDbCircle
 10
337.2102028461604
 20
1065.706280163148
 30
0.0
 40
100.0
100
AcDbArc
 50
270.0000050089374
 51
271.500005008976
  0
LINE
  5
5289
330
A
100
AcDbEntity
  8
MODEL
100
AcDbLine
 10
587.439296001442
 20
912.6879975250073
 30
0.0
 11
589.3483178124925
 21
886.4882877377333
 31
0.0
  0
LINE
  5
528A
330
A
100
AcDbEntity
  8
MODEL
100
AcDbLine
 10
331.3477271709553
 20
965.7062796506332
 30
0.0
 11
331.8410841835457
 21
965.7062796937632
 31
0.0
  0
ARC
  5
528B
330
A
100
AcDbEntity
  8
MODEL
100
AcDbCircle
 10
1702.938033636223
 20
950.7061121185702
 30
0.0
 40
15.0
100
AcDbArc
 50
89.99999749547919
 51
149.9999974953908
  0
ARC
  5
528C
330
A
100
AcDbEntity
  8
MODEL
100
AcDbCircle
 10
1425.952400010569
 20
883.7061242259965
 30
0.0
 40
2.999999999999992
100
AcDbArc
 50
199.9999974955431
 51
269.999997495375
  0
LINE
  5
528D
330
A
100
AcDbEntity
  8
MODEL
100
AcDbLine
 10
1425.952399879436
 20
880.7061242259983
 30
0.0
 11
1431.19760147114
 21
880.706123996722
 31
0.0
  0
LINE
  5
528E
330
A
100
AcDbEntity
  8
MODEL
100
AcDbLine
 10
1466.505953058475
 20
880.7061224533459
 30
0.0
 11
1471.197601471139
 21
880.7061222482675
 31
0.0
  0
ARC
  5
528F
330
A
100
AcDbEntity
  8
MODEL
100
AcDbCircle
 10
1358.352640186555
 20
1047.706127180877
 30
0.0
 40
2.999999999999995
100
AcDbArc
 50
89.99999749568764
 51
181.9999974955205
  0
ARC
  5
5290
330
A
100
AcDbEntity
  8
MODEL
100
AcDbCircle
 10
1722.139458303817
 20
1047.70611127925
 30
0.0
 40
3.000000000000024
100
AcDbArc
 50
357.9999974955131
 51
89.99999749537496
  0
LINE
  5
5291
330
A
100
AcDbEntity
  8
MODEL
100
AcDbLine
 10
1722.139458434946
 20
1050.70611127925
 30
0.0
 11
1720.70415116605
 21
1050.706111341989
 31
0.0
  0
LINE
  5
5292
330
A
100
AcDbEntity
  8
MODEL
100
AcDbLine
 10
1359.787947586585
 20
1050.706127118138
 30
0.0
 11
1358.35264031769
 21
1050.706127180877
 31
0.0
  0
LINE
  5
5293
330
A
100
AcDbEntity
  8
MODEL
100
AcDbLine
 10
1355.354467700922
 20
1047.601428821824
 30
0.0
 11
1358.045801017518
 21
970.5316297107784
 31
0.0
  0
LINE
  5
5294
330
A
100
AcDbEntity
  8
MODEL
100
AcDbLine
 10
1725.137630780292
 20
1047.601412658088
 30
0.0
 11
1722.446290726041
 21
970.5316137823263
 31
0.0
  0
ARC
  5
5295
330
A
100
AcDbEntity
  8
MODEL
100
AcDbCircle
 10
1717.449336598571
 20
970.7061114842613
 30
0.0
 40
5.0
100
AcDbArc
 50
269.9999974954792
 51
357.9999974953046
  0
ARC
  5
5296
330
A
100
AcDbEntity
  8
MODEL
100
AcDbCircle
 10
1363.042755160241
 20
970.7061269758663
 30
0.0
 40
5.0
100
AcDbArc
 50
181.999997495729
 51
269.9999974954792
  0
LINE
  5
5297
330
A
100
AcDbEntity
  8
MODEL
100
AcDbLine
 10
1717.449336380014
 20
965.7061114842613
 30
0.0
 11
1702.938034291894
 21
965.7061121185702
 31
0.0
  0
LINE
  5
5298
330
A
100
AcDbEntity
  8
MODEL
100
AcDbLine
 10
1368.905239359165
 20
965.7061267196093
 30
0.0
 11
1363.042754941684
 21
965.7061269758663
 31
0.0
  0
ARC
  5
5299
330
A
100
AcDbEntity
  8
MODEL
100
AcDbCircle
 10
1387.152964807546
 20
958.1475012813103
 30
0.0
 40
7.999096144193829
100
AcDbArc
 50
19.99790951802132
 51
70.90126976090689
  0
LINE
  5
529A
330
A
100
AcDbEntity
  8
MODEL
100
AcDbLine
 10
1423.133322103362
 20
882.6800639192475
 30
0.0
 11
1394.669756241933
 21
960.8830790367422
 31
0.0
  0
LINE
  5
529F
330
A
100
AcDbEntity
  8
MODEL
100
AcDbLine
 10
807.4631006746122
 20
880.7062868804157
 30
0.0
 11
789.7365595706897
 21
880.7062876552675
 31
0.0
  0
LINE
  5
52A0
330
A
100
AcDbEntity
  8
MODEL
100
AcDbLine
 10
699.164276875109
 20
880.7062955733488
 30
0.0
 11
789.7365595706897
 21
880.7062876552679
 31
0.0
  0
LINE
  5
52A1
330
A
100
AcDbEntity
  8
MODEL
100
AcDbLine
 10
696.2057110837932
 20
880.7062957016558
 30
0.0
 11
699.164276875109
 21
880.7062955733488
 31
0.0
  0
ARC
  5
52A2
330
A
100
AcDbEntity
  8
MODEL
100
AcDbCircle
 10
696.2057113460623
 20
883.7062957016553
 30
0.0
 40
2.999999999999982
100
AcDbArc
 50
186.9999949910741
 51
269.9999949909584
  0
LINE
  5
52A3
330
A
100
AcDbEntity
  8
MODEL
100
AcDbLine
 10
812.2916209288314
 20
880.7062839290027
 30
0.0
 11
838.667057151396
 21
880.7062816231885
 31
0.0
  0
LINE
  5
52A4
330
A
100
AcDbEntity
  8
MODEL
100
AcDbLine
 10
847.5999732971077
 20
880.7062812327183
 30
0.0
 11
838.667057151396
 21
880.7062816231885
 31
0.0
  0
LINE
  5
52A5
330
A
100
AcDbEntity
  8
MODEL
100
AcDbLine
 10
693.228072859175
 20
883.3406879317533
 30
0.0
 11
688.9975572138583
 21
917.7955024090953
 31
0.0
  0
LINE
  5
52A6
330
A
100
AcDbEntity
  8
MODEL
100
AcDbLine
 10
915.2613302876316
 20
965.7062796937632
 30
0.0
 11
889.0263553022278
 21
965.7062747861232
 31
0.0
  0
LWPOLYLINE
  5
52A7
330
A
100
AcDbEntity
  8
MODEL
100
AcDbPolyline
 90
        5
 70
     0
 43
0.0
 10
688.9975562418103
 20
917.7954565782912
 10
688.8297019327283
 20
918.7056128282912
 10
688.5544562662244
 20
919.5864722032912
 10
688.1781821573377
 20
920.4224097032912
 10
687.6079612100721
 20
921.3428198595412
  0
ARC
  5
52A8
330
A
100
AcDbEntity
  8
HIDDEN
100
AcDbCircle
 10
666.9041557276987
 20
917.0708414490293
 30
0.0
 40
15.0
100
AcDbArc
 50
93.50006138665647
 51
129.9999949910815
  0
ARC
  5
52A9
330
A
100
AcDbEntity
  8
MODEL
100
AcDbCircle
 10
667.6419658884779
 20
912.1066249127273
 30
0.0
 40
8.0
100
AcDbArc
 50
93.50006960601048
 51
175.8325517114331
  0
ARC
  5
52AA
330
A
100
AcDbEntity
  8
MODEL
100
AcDbCircle
 10
852.8450314937427
 20
883.7062851503704
 30
0.0
 40
3.000000000000019
100
AcDbArc
 50
269.9999949911668
 51
339.9999949909974
  0
LINE
  5
52AB
330
A
100
AcDbEntity
  8
MODEL
100
AcDbLine
 10
852.8450312314735
 20
880.7062851503708
 30
0.0
 11
847.5998296397711
 21
880.7062856089208
 31
0.0
  0
LINE
  5
52AC
330
A
100
AcDbEntity
  8
MODEL
100
AcDbLine
 10
812.2914780524343
 20
880.7062886956753
 30
0.0
 11
807.5998296397711
 21
880.7062891058324
 31
0.0
  0
LINE
  5
52AD
330
A
100
AcDbEntity
  8
MODEL
100
AcDbLine
 10
645.5513894277983
 20
883.706303272558
 30
0.0
 11
654.762028635575
 21
883.7063024673382
 31
0.0
  0
ARC
  5
52AE
330
A
100
AcDbEntity
  8
MODEL
100
AcDbCircle
 10
654.7620738353862
 20
886.7062541363186
 30
0.0
 40
2.999951669320778
100
AcDbArc
 50
269.99913673353
 51
355.8334099691613
  0
ARC
  5
52AF
330
A
100
AcDbEntity
  8
MODEL
100
AcDbCircle
 10
920.4448128237609
 20
1047.70627924061
 30
0.0
 40
2.999999999999994
100
AcDbArc
 50
357.9999949910257
 51
89.99999499095838
  0
LINE
  5
52B0
330
A
100
AcDbEntity
  8
MODEL
100
AcDbLine
 10
920.4448130860283
 20
1050.70627924061
 30
0.0
 11
919.0595058220451
 21
1050.706279361717
 31
0.0
  0
LINE
  5
52B1
330
A
100
AcDbEntity
  8
MODEL
100
AcDbLine
 10
923.4429852956646
 20
1047.601580488394
 30
0.0
 11
920.7516418725836
 21
970.5317817302732
 31
0.0
  0
ARC
  5
52B2
330
A
100
AcDbEntity
  8
MODEL
100
AcDbCircle
 10
915.7546877527448
 20
970.7062796506332
 30
0.0
 40
5.0
100
AcDbArc
 50
269.9999949911668
 51
357.9999949908188
  0
LINE
  5
52B3
330
A
100
AcDbEntity
  8
HIDDEN
100
AcDbLine
 10
657.2623425869469
 20
928.5615089387272
 30
0.0
 11
647.2192263681709
 21
920.1343353198673
 31
0.0
  0
LINE
  5
52B4
330
A
100
AcDbEntity
  8
HIDDEN
100
AcDbLine
 10
646.1480459154291
 20
917.8885593034673
 30
0.0
 11
645.5513894277983
 21
883.706303272558
 31
0.0
  0
ARC
  5
52B5
330
A
100
AcDbEntity
  8
HIDDEN
100
AcDbCircle
 10
649.1475902458869
 20
917.8362012259142
 30
0.0
 40
3.000001259778346
100
AcDbArc
 50
130.0000059558862
 51
178.9999840261805
  0
LINE
  5
52B6
330
A
100
AcDbEntity
  8
MODEL
100
AcDbLine
 10
659.663118485144
 20
912.6879975250073
 30
0.0
 11
657.7540966740935
 21
886.4882877377333
 31
0.0
  0
LINE
  5
52B7
330
A
100
AcDbEntity
  8
MODEL
100
AcDbLine
 10
915.7546873156307
 20
965.7062796506332
 30
0.0
 11
915.2613303030403
 21
965.7062796937632
 31
0.0
  0
DIMENSION
  5
52BA
330
A
100
AcDbEntity
  8
Dim
 48
0.5
100
AcDbDimension
  2
*D26
 10
923.4444353412864
 20
2279.621486462223
 30
0.0
 11
631.3253672698002
 21
2279.621486462223
 31
0.0
 70
   161
  1
<>
 71
     5
 42
599.7868181645827
 73
     0
 74
     0
 75
     0
  3
tform線あり
100
AcDbAlignedDimension
 13
323.6576171767037
 23
2199.134723649522
 33
0.0
 14
923.4444353412864
 24
2199.134723649522
 34
0.0
1001
ACAD
1000
DSTYLE
1002
{
1070
   271
1070
     0
1002
}
  0
DIMENSION
  5
52BB
330
A
100
AcDbEntity
  8
Dim
 48
0.5
100
AcDbDimension
  2
*D27
 10
1019.227942069547
 20
1830.12233851307
 30
0.0
 11
1019.227942069547
 21
2023.354737576002
 31
0.0
 70
   161
  1
<>
 71
     5
 42
370.0000000000002
 73
     0
 74
     0
 75
     0
  3
tform線あり
100
AcDbAlignedDimension
 13
922.8552208218794
 23
2200.12233851307
 33
0.0
 14
922.8552208218794
 24
1830.12233851307
 34
0.0
1001
ACAD
1000
DSTYLE
1002
{
1070
   271
1070
     0
1002
}
  0
DIMENSION
  5
52BD
102
{ACAD_XDICTIONARY
360
52BE
102
}
330
A
100
AcDbEntity
  8
Dim
 48
0.5
100
AcDbDimension
  2
*D29
 10
917.0126656396287
 20
1703.578550718609
 30
0.0
 11
623.5505226952928
 21
1703.578550718609
 31
0.0
 70
   160
  1
585
 71
     5
 42
586.9242858886719
 73
     0
 74
     0
 75
     0
 52
-90.0
  3
tform線あり
100
AcDbAlignedDimension
 13
330.0883797509568
 23
1836.606950559107
 33
0.0
 14
917.0126656396287
 24
1833.207536496607
 34
0.0
100
AcDbRotatedDimension
1001
AcadAnnotative
1000
AnnotativeData
1002
{
1070
     1
1070
     0
1002
}
  0
ARC
  5
52C3
330
A
100
AcDbEntity
  8
MODEL
100
AcDbCircle
 10
355.4571883765866
 20
958.1470740550812
 30
0.0
 40
8.0
100
AcDbArc
 50
20.00000500895785
 51
70.89145333383934
  0
LINE
  5
52C4
330
A
100
AcDbEntity
  8
MODEL
100
AcDbLine
 10
391.4383052201874
 20
882.6802244739422
 30
0.0
 11
362.9747291036706
 21
960.8832358588902
 31
0.0
  0
LWPOLYLINE
  5
52C5
330
A
100
AcDbEntity
  8
MODEL
100
AcDbPolyline
 90
        4
 70
     0
 43
0.0
 10
667.1535699087553
 20
920.0915991564303
 10
675.4097420889311
 20
920.5967261095553
 10
683.6659142691069
 20
921.1016089220553
 10
687.607978913758
 20
921.3427912835083
  0
LWPOLYLINE
  5
52C6
330
A
100
AcDbEntity
  8
MODEL
100
AcDbPolyline
 90
        4
 70
     0
 43
0.0
 10
579.9488445778306
 20
920.0915991564303
 10
571.6926723976549
 20
920.5967261095553
 10
563.4365002174791
 20
921.1016089220553
 10
559.494435572828
 20
921.3427912835083
  0
ARC
  5
52C7
330
A
100
AcDbEntity
  8
MODEL
100
AcDbCircle
 10
891.6452261099994
 20
958.1470740550812
 30
0.0
 40
8.0
100
AcDbArc
 50
109.1085466661607
 51
159.9999949910146
  0
LINE
  5
52C8
330
A
100
AcDbEntity
  8
MODEL
100
AcDbLine
 10
855.6641092663986
 20
882.6802244739422
 30
0.0
 11
884.1276853829154
 21
960.8832358588902
 31
0.0
  0
SPLINE
  5
52C9
330
A
100
AcDbEntity
  8
HIDDEN
100
AcDbSpline
210
0.0
220
0.0
230
1.0
 70
  1064
 71
     3
 72
    41
 73
    37
 74
    35
 42
0.000000001
 43
0.0000000001
 44
0.0
 40
0.0
 40
0.0
 40
0.0
 40
0.0
 40
1.262357363085559
 40
2.758292828231699
 40
4.050695107215242
 40
6.977347015064884
 40
17.7238579418251
 40
23.29115556603662
 40
51.05530101392905
 40
65.37644082453339
 40
82.23955775790867
 40
103.8473803849208
 40
119.9642703029781
 40
139.9831998232921
 40
166.2097920115475
 40
201.9361322174636
 40
234.0601223928376
 40
263.5981270121748
 40
281.2718436596904
 40
293.7645171417896
 40
299.0550391715253
 40
302.3830017442704
 40
305.806321738963
 40
309.4760516616794
 40
313.8267172118645
 40
318.7657843183795
 40
323.0168232894491
 40
323.6844973806294
 40
324.6431898654769
 40
325.4757228435088
 40
326.2412174995824
 40
326.9123347381404
 40
331.5497040378208
 40
337.0987611028707
 40
339.2070065523928
 40
360.428683015124
 40
360.428683015124
 40
360.428683015124
 40
360.428683015124
 10
918.6960643386751
 20
1050.689733960724
 30
0.0
 10
918.2794855893706
 20
1050.61221162576
 30
0.0
 10
917.3692471654495
 20
1050.442822745233
 30
0.0
 10
916.2179575193501
 20
1049.639719723269
 30
0.0
 10
915.1252092374182
 20
1048.072379608743
 30
0.0
 10
912.1681976092913
 20
1044.060651819291
 30
0.0
 10
908.4158052374045
 20
1038.855252182793
 30
0.0
 10
899.7728865436533
 20
1026.974933014918
 30
0.0
 10
890.4420423233
 20
1014.119578370821
 30
0.0
 10
878.8105433538353
 20
998.2819475724173
 30
0.0
 10
868.2256120852878
 20
984.225641737824
 30
0.0
 10
856.7300029107934
 20
970.0958348551931
 30
0.0
 10
842.7396733364754
 20
956.7510327171785
 30
0.0
 10
824.3413463445444
 20
946.4060771686176
 30
0.0
 10
797.3328051854938
 20
940.7790478175369
 30
0.0
 10
766.102965957069
 20
938.2808580243193
 30
0.0
 10
733.6996898764487
 20
936.1821262508098
 30
0.0
 10
707.3042744258462
 20
934.5771304447773
 30
0.0
 10
687.4424829732545
 20
933.343559505488
 30
0.0
 10
675.6402693524349
 20
932.6556455748456
 30
0.0
 10
668.6242492645904
 20
932.176281997282
 30
0.0
 10
664.6033399540675
 20
932.0220461808256
 30
0.0
 10
661.2138547880866
 20
931.1081055274961
 30
0.0
 10
657.8504223787312
 20
929.2266660908122
 30
0.0
 10
654.6488423578476
 20
926.307146555104
 30
0.0
 10
651.1476145911358
 20
923.4632908032079
 30
0.0
 10
648.663565985109
 20
921.3083921308469
 30
0.0
 10
647.1346877025666
 20
920.0850840617902
 30
0.0
 10
646.5743301051331
 20
919.4717407728674
 30
0.0
 10
646.226592292535
 20
918.6765450220291
 30
0.0
 10
646.134931529021
 20
917.9199577824827
 30
0.0
 10
646.141634972879
 20
915.8957776468542
 30
0.0
 10
646.0353176288171
 20
912.2769712092324
 30
0.0
 10
645.9798889118375
 20
908.1794373066671
 30
0.0
 10
645.8078825161707
 20
898.5545605766436
 30
0.0
 10
645.6733763560801
 20
890.7791135369937
 30
0.0
 10
645.5510250587877
 20
883.7063071191594
 30
0.0
 11
918.6960643386751
 21
1050.689733960724
 31
0.0
 11
917.4727767508916
 21
1050.37810342674
 31
0.0
 11
916.2347581600493
 21
1049.538381517647
 31
0.0
 11
915.435163917406
 21
1048.523023109077
 31
0.0
 11
913.7149102407866
 21
1046.155319859555
 31
0.0
 11
907.3982445913725
 21
1037.46122806268
 31
0.0
 11
904.1255552309963
 21
1032.957417766161
 31
0.0
 11
887.7821709829741
 21
1010.513230015805
 31
0.0
 11
879.2911660391264
 21
998.9807593126802
 31
0.0
 11
869.1023766714507
 21
985.5437475939302
 31
0.0
 11
855.1814095693999
 21
969.0178686876802
 31
0.0
 11
843.3059689718657
 21
958.1216284533052
 31
0.0
 11
825.8740975576811
 21
948.2784888048682
 31
0.0
 11
800.4353539663725
 21
941.8984839220552
 31
0.0
 11
764.8927991110259
 21
938.2793432970552
 31
0.0
 11
732.8395592886382
 21
936.1484839220552
 31
0.0
 11
703.35763713898
 21
934.3291479845552
 31
0.0
 11
685.7169244009428
 21
933.2495581408052
 31
0.0
 11
673.2475517857424
 21
932.4869066387203
 31
0.0
 11
667.9669015127593
 21
932.1638647814302
 31
0.0
 11
664.6493836636969
 21
931.9004066125592
 31
0.0
 11
661.3457873105967
 21
931.0029820074553
 31
0.0
 11
658.129247259882
 21
929.2364068440872
 31
0.0
 11
654.770724641889
 21
926.4707936111863
 31
0.0
 11
650.9871794532041
 21
923.2960228024763
 31
0.0
 11
647.7306944330498
 21
920.5635079082692
 31
0.0
 11
647.2192263681668
 21
920.1343353198642
 31
0.0
 11
646.5927241138729
 21
919.4086727220492
 31
0.0
 11
646.2589454368958
 21
918.6459781866643
 31
0.0
 11
646.1480459154286
 21
917.8885593034723
 31
0.0
 11
646.1363332459528
 21
917.2175442803443
 31
0.0
 11
646.0553995867854
 21
912.5808812815453
 31
0.0
 11
645.9585547025017
 21
907.0326693732303
 31
0.0
 11
645.9217605617669
 21
904.9247450229183
 31
0.0
 11
645.5510250587877
 21
883.7063071191594
 31
0.0
  0
SPLINE
  5
52CA
330
A
100
AcDbEntity
  8
HIDDEN
100
AcDbSpline
210
0.0
220
0.0
230
1.0
 70
  1064
 71
     3
 72
    41
 73
    37
 74
    35
 42
0.000000001
 43
0.0000000001
 44
0.0
 40
0.0
 40
0.0
 40
0.0
 40
0.0
 40
1.262357363085449
 40
2.758292828231636
 40
4.050695107215144
 40
6.977347015064819
 40
17.723857941825
 40
23.29115556603656
 40
51.055301013929
 40
65.3764408245333
 40
82.23955775790859
 40
103.8473803849208
 40
119.964270302978
 40
139.983199823292
 40
166.2097920115474
 40
201.9361322174634
 40
234.0601223928375
 40
263.5981270121747
 40
281.2718436596904
 40
293.7645171417895
 40
299.0550391715252
 40
302.3830017442703
 40
305.8063217389629
 40
309.4760516616794
 40
313.8267172118645
 40
318.7657843183795
 40
323.0168232894491
 40
323.6844973806294
 40
324.6431898654768
 40
325.4757228435087
 40
326.2412174995824
 40
326.9123347381404
 40
331.5497040378207
 40
337.0987611028706
 40
339.2070065523928
 40
360.428683015124
 40
360.428683015124
 40
360.428683015124
 40
360.428683015124
 10
328.4063501479109
 20
1050.689733960724
 30
0.0
 10
328.8229288972153
 20
1050.61221162576
 30
0.0
 10
329.7331673211365
 20
1050.442822745234
 30
0.0
 10
330.8844569672361
 20
1049.639719723269
 30
0.0
 10
331.9772052491672
 20
1048.072379608743
 30
0.0
 10
334.9342168772956
 20
1044.060651819291
 30
0.0
 10
338.6866092491811
 20
1038.855252182794
 30
0.0
 10
347.329527942933
 20
1026.974933014917
 30
0.0
 10
356.6603721632856
 20
1014.119578370821
 30
0.0
 10
368.2918711327507
 20
998.2819475724173
 30
0.0
 10
378.8768024012982
 20
984.2256417378242
 30
0.0
 10
390.3724115757929
 20
970.0958348551928
 30
0.0
 10
404.3627411501103
 20
956.7510327171789
 30
0.0
 10
422.7610681420417
 20
946.4060771686173
 30
0.0
 10
449.7696093010919
 20
940.779047817537
 30
0.0
 10
480.9994485295169
 20
938.2808580243188
 30
0.0
 10
513.4027246101375
 20
936.1821262508099
 30
0.0
 10
539.7981400607396
 20
934.5771304447774
 30
0.0
 10
559.6599315133317
 20
933.343559505488
 30
0.0
 10
571.4621451341509
 20
932.6556455748456
 30
0.0
 10
578.4781652219958
 20
932.176281997282
 30
0.0
 10
582.4990745325184
 20
932.0220461808256
 30
0.0
 10
585.8885596984995
 20
931.1081055274961
 30
0.0
 10
589.2519921078547
 20
929.2266660908122
 30
0.0
 10
592.4535721287384
 20
926.307146555104
 30
0.0
 10
595.9547998954497
 20
923.4632908032079
 30
0.0
 10
598.4388485014777
 20
921.3083921308469
 30
0.0
 10
599.9677267840192
 20
920.0850840617902
 30
0.0
 10
600.528084381453
 20
919.4717407728674
 30
0.0
 10
600.8758221940507
 20
918.6765450220291
 30
0.0
 10
600.967482957565
 20
917.9199577824827
 30
0.0
 10
600.9607795137066
 20
915.8957776468542
 30
0.0
 10
601.0670968577692
 20
912.2769712092324
 30
0.0
 10
601.1225255747484
 20
908.1794373066671
 30
0.0
 10
601.2945319704155
 20
898.5545605766436
 30
0.0
 10
601.4290381305063
 20
890.7791135369937
 30
0.0
 10
601.5513894277983
 20
883.7063071191594
 30
0.0
 11
328.4063501479109
 21
1050.689733960724
 31
0.0
 11
329.6296377356943
 21
1050.37810342674
 31
0.0
 11
330.8676563265367
 21
1049.538381517647
 31
0.0
 11
331.6672505691799
 21
1048.523023109077
 31
0.0
 11
333.3875042457994
 21
1046.155319859555
 31
0.0
 11
339.7041698952134
 21
1037.46122806268
 31
0.0
 11
342.9768592555897
 21
1032.957417766161
 31
0.0
 11
359.3202435036119
 21
1010.513230015805
 31
0.0
 11
367.8112484474595
 21
998.9807593126802
 31
0.0
 11
378.0000378151353
 21
985.5437475939302
 31
0.0
 11
391.9210049171861
 21
969.0178686876802
 31
0.0
 11
403.7964455147203
 21
958.1216284533052
 31
0.0
 11
421.2283169289048
 21
948.2784888048682
 31
0.0
 11
446.6670605202134
 21
941.8984839220552
 31
0.0
 11
482.2096153755601
 21
938.2793432970552
 31
0.0
 11
514.2628551979478
 21
936.1484839220552
 31
0.0
 11
543.744777347606
 21
934.3291479845552
 31
0.0
 11
561.3854900856431
 21
933.2495581408052
 31
0.0
 11
573.8548627008436
 21
932.4869066387203
 31
0.0
 11
579.1355129738267
 21
932.1638647814302
 31
0.0
 11
582.4530308228891
 21
931.9004066125592
 31
0.0
 11
585.7566271759893
 21
931.0029820074553
 31
0.0
 11
588.9731672267039
 21
929.2364068440872
 31
0.0
 11
592.3316898446969
 21
926.4707936111863
 31
0.0
 11
596.1152350333819
 21
923.2960228024763
 31
0.0
 11
599.3717200535361
 21
920.5635079082692
 31
0.0
 11
599.8831881184192
 21
920.1343353198642
 31
0.0
 11
600.5096903727131
 21
919.4086727220492
 31
0.0
 11
600.8434690496902
 21
918.6459781866643
 31
0.0
 11
600.9543685711574
 21
917.8885593034723
 31
0.0
 11
600.9660812406332
 21
917.2175442803443
 31
0.0
 11
601.0470148998006
 21
912.5808812815453
 31
0.0
 11
601.1438597840843
 21
907.0326693732303
 31
0.0
 11
601.1806539248191
 21
904.9247450229183
 31
0.0
 11
601.5513894277983
 21
883.7063071191594
 31
0.0
  0
LINE
  5
52CB
330
A
100
AcDbEntity
  8
MODEL
100
AcDbLine
 10
1689.947652907293
 20
958.2061126863982
 30
0.0
 11
1676.146963242822
 21
934.3026194210333
 31
0.0
  0
DIMENSION
  5
52CC
330
A
100
AcDbEntity
  8
Dim
 48
0.5
100
AcDbDimension
  2
*D32
 10
1019.227942069547
 20
1050.706300313351
 30
0.0
 11
997.011633475797
 21
965.7062560669441
 31
0.0
 70
    32
 71
     5
 42
170.0000884928138
 73
     0
 74
     0
 75
     0
 52
-90.00000000000001
  3
tform線あり
100
AcDbAlignedDimension
 13
860.9907277531183
 23
880.7062118205372
 33
0.0
 14
923.1002914571441
 24
1050.706300313351
 34
0.0
 50
90.00000000000001
100
AcDbRotatedDimension
  0
DIMENSION
  5
52CD
330
A
100
AcDbEntity
  8
Dim
 48
0.5
100
AcDbDimension
  2
*D33
 10
1262.577365566619
 20
965.7062928104053
 30
0.0
 11
1240.361056972869
 21
923.2062918236419
 31
0.0
 70
    32
 71
     5
 42
85.0000019735269
 73
     0
 74
     0
 75
     0
 52
-90.00000000000001
  3
tform線あり
100
AcDbAlignedDimension
 13
1419.442230052298
 23
880.7062908368785
 33
0.0
 14
1354.882725881939
 24
965.7062928104053
 34
0.0
 50
90.00000000000001
100
AcDbRotatedDimension
1001
ACAD
1000
DSTYLE
1002
{
1070
   271
1070
     0
1002
}
  0
DIMENSION
  5
52CE
330
A
100
AcDbEntity
  8
Dim
 48
0.5
100
AcDbDimension
  2
*D34
 10
1262.577365566619
 20
1050.270318537539
 30
0.0
 11
1262.577365566619
 21
1007.988305673972
 31
0.0
 70
   160
 71
     5
 42
84.56402572713364
 73
     0
 74
     0
 75
     0
 52
-90.00000000000001
  3
tform線あり
100
AcDbAlignedDimension
 13
1354.882725881939
 23
965.7062928104053
 33
0.0
 14
1348.026849332874
 24
1050.270318537539
 34
0.0
 50
90.00000000000001
100
AcDbRotatedDimension
1001
ACAD
1000
DSTYLE
1002
{
1070
   271
1070
     0
1002
}
  0
SPLINE
  5
52CF
330
A
100
AcDbEntity
  8
HIDDEN
100
AcDbSpline
210
0.0
220
0.0
230
1.0
 70
  1064
 71
     3
 72
    30
 73
    26
 74
    24
 42
0.000000001
 43
0.0000000001
 44
0.0
 40
0.0
 40
0.0
 40
0.0
 40
0.0
 40
3.28036962800977
 40
5.147775058313105
 40
7.538297135730362
 40
13.50969565814749
 40
21.8684437177189
 40
80.38493391372415
 40
105.3595705202239
 40
118.455794098551
 40
138.4819806420115
 40
153.4999611082454
 40
164.7863009700646
 40
180.3515728937
 40
190.2136361196924
 40
195.6836491208603
 40
198.772294504502
 40
205.0314383930512
 40
210.8278680764862
 40
214.0642530996713
 40
215.3373191061578
 40
216.6103851126435
 40
217.9823205799304
 40
232.7952772243717
 40
250.7976812908526
 40
250.7976812908526
 40
250.7976812908526
 40
250.7976812908526
 10
1722.139458434946
 20
1050.70611127925
 30
0.0
 10
1720.986191535517
 20
1050.735287939665
 30
0.0
 10
1719.176408110574
 20
1050.781073903384
 30
0.0
 10
1717.278199704267
 20
1048.960273924072
 30
0.0
 10
1715.431500084604
 20
1046.122418673823
 30
0.0
 10
1712.050835991534
 20
1041.666019679258
 30
0.0
 10
1697.8931394733
 20
1021.964069629426
 30
0.0
 10
1679.903644796701
 20
997.1782211716837
 30
0.0
 10
1660.02562501046
 20
971.8096372960849
 30
0.0
 10
1647.104926076059
 20
957.4126501051751
 30
0.0
 10
1635.203715493087
 20
946.3776143238987
 30
0.0
 10
1620.97168537367
 20
939.8165026808305
 30
0.0
 10
1607.308117582035
 20
936.8799439454699
 30
0.0
 10
1595.233734413141
 20
934.7872127164158
 30
0.0
 10
1585.135185523205
 20
933.0257044780557
 30
0.0
 10
1579.004122197597
 20
931.9599451501406
 30
0.0
 10
1574.694400165702
 20
929.4403881729153
 30
0.0
 10
1570.976093030195
 20
926.0129990896985
 30
0.0
 10
1567.084721761072
 20
922.7030015131456
 30
0.0
 10
1564.350866693387
 20
920.6539801510921
 30
0.0
 10
1563.025611870738
 20
919.1819464463821
 30
0.0
 10
1562.79780348349
 20
917.8497129101296
 30
0.0
 10
1562.898050434351
 20
912.0573014583051
 30
0.0
 10
1562.462692948867
 20
900.6328437331056
 30
0.0
 10
1562.322267968469
 20
889.7025978961142
 30
0.0
 10
1562.245231264213
 20
883.7062992774004
 30
0.0
 11
1722.139458434946
 21
1050.70611127925
 31
0.0
 11
1718.88818917683
 21
1050.270137532793
 31
0.0
 11
1717.468301597999
 21
1049.057239225181
 31
0.0
 11
1716.063156450795
 21
1047.123289143636
 31
0.0
 11
1712.553018394874
 21
1042.292499234946
 31
0.0
 11
1707.639688316749
 21
1035.530261686118
 31
0.0
 11
1672.926309410499
 21
988.4222904947123
 31
0.0
 11
1657.309121910499
 21
968.9329106119003
 31
0.0
 11
1648.517618004249
 21
959.2261845376813
 31
0.0
 11
1633.279336754249
 21
946.2322270181503
 31
0.0
 11
1619.661172691749
 21
939.9009281900253
 31
0.0
 11
1608.692422691749
 21
937.2423588540873
 31
0.0
 11
1593.377481285499
 21
934.4620243814313
 31
0.0
 11
1583.661660972999
 21
932.7699467447123
 31
0.0
 11
1578.358307716729
 21
931.4299891065173
 31
0.0
 11
1575.662783679099
 21
929.9220499603812
 31
0.0
 11
1570.83341519009
 21
925.9403314601693
 31
0.0
 11
1566.393092278301
 21
922.2144584733313
 31
0.0
 11
1563.913877424564
 21
920.1341503886223
 31
0.0
 11
1563.134484469087
 21
919.1275503300963
 31
0.0
 11
1562.842697069993
 21
917.8883743254063
 31
0.0
 11
1562.818720779934
 21
916.5166483819633
 31
0.0
 11
1562.559845815638
 21
901.7059539923353
 31
0.0
 11
1562.245231264213
 21
883.7062992774004
 31
0.0
  0
SPLINE
  5
52D0
330
A
100
AcDbEntity
  8
HIDDEN
100
AcDbSpline
210
0.0
220
0.0
230
1.0
 70
  1064
 71
     3
 72
    30
 73
    26
 74
    24
 42
0.000000001
 43
0.0000000001
 44
0.0
 40
0.0
 40
0.0
 40
0.0
 40
0.0
 40
3.28036962800977
 40
5.147775058312414
 40
7.538297135730206
 40
13.50969565814679
 40
21.86844371771821
 40
80.38493391372347
 40
105.3595705202232
 40
118.4557940985503
 40
138.4819806420108
 40
153.4999611082447
 40
164.786300970064
 40
180.3515728936993
 40
190.2136361196917
 40
195.6836491208605
 40
198.7722945045014
 40
205.0314383930514
 40
210.8278680764857
 40
214.0642530996706
 40
215.3373191061573
 40
216.6103851126432
 40
217.98232057993
 40
232.7952772243714
 40
250.7976812908522
 40
250.7976812908522
 40
250.7976812908522
 40
250.7976812908522
 10
1358.349814828899
 20
1050.70611127925
 30
0.0
 10
1359.503081728328
 20
1050.735287939665
 30
0.0
 10
1361.312865153271
 20
1050.781073903384
 30
0.0
 10
1363.211073559577
 20
1048.960273924071
 30
0.0
 10
1365.057773179242
 20
1046.122418673825
 30
0.0
 10
1368.43843727231
 20
1041.666019679257
 30
0.0
 10
1382.596133790548
 20
1021.964069629426
 30
0.0
 10
1400.585628467143
 20
997.1782211716836
 30
0.0
 10
1420.463648253384
 20
971.8096372960849
 30
0.0
 10
1433.384347187784
 20
957.4126501051751
 30
0.0
 10
1445.285557770757
 20
946.3776143238987
 30
0.0
 10
1459.517587890174
 20
939.8165026808305
 30
0.0
 10
1473.181155681808
 20
936.8799439454699
 30
0.0
 10
1485.255538850703
 20
934.7872127164159
 30
0.0
 10
1495.354087740639
 20
933.0257044780553
 30
0.0
 10
1501.485151066247
 20
931.9599451501412
 30
0.0
 10
1505.794873098142
 20
929.4403881729146
 30
0.0
 10
1509.51318023365
 20
926.0129990896986
 30
0.0
 10
1513.404551502772
 20
922.7030015131462
 30
0.0
 10
1516.138406570457
 20
920.6539801510917
 30
0.0
 10
1517.463661393105
 20
919.1819464463822
 30
0.0
 10
1517.691469780356
 20
917.8497129101294
 30
0.0
 10
1517.591222829487
 20
912.0573014583059
 30
0.0
 10
1518.026580314982
 20
900.6328437331053
 30
0.0
 10
1518.167005295377
 20
889.702597896114
 30
0.0
 10
1518.244041999631
 20
883.7062992774004
 30
0.0
 11
1358.349814828899
 21
1050.70611127925
 31
0.0
 11
1361.601084087015
 21
1050.270137532793
 31
0.0
 11
1363.020971665845
 21
1049.057239225181
 31
0.0
 11
1364.42611681305
 21
1047.123289143636
 31
0.0
 11
1367.93625486897
 21
1042.292499234946
 31
0.0
 11
1372.849584947095
 21
1035.530261686118
 31
0.0
 11
1407.562963853345
 21
988.4222904947123
 31
0.0
 11
1423.180151353345
 21
968.9329106119003
 31
0.0
 11
1431.971655259595
 21
959.2261845376813
 31
0.0
 11
1447.209936509595
 21
946.2322270181503
 31
0.0
 11
1460.828100572095
 21
939.9009281900253
 31
0.0
 11
1471.796850572095
 21
937.2423588540873
 31
0.0
 11
1487.111791978345
 21
934.4620243814313
 31
0.0
 11
1496.827612290845
 21
932.7699467447123
 31
0.0
 11
1502.130965547116
 21
931.4299891065173
 31
0.0
 11
1504.826489584745
 21
929.9220499603812
 31
0.0
 11
1509.655858073755
 21
925.9403314601693
 31
0.0
 11
1514.096180985543
 21
922.2144584733313
 31
0.0
 11
1516.57539583928
 21
920.1341503886223
 31
0.0
 11
1517.354788794757
 21
919.1275503300963
 31
0.0
 11
1517.646576193852
 21
917.8883743254063
 31
0.0
 11
1517.67055248391
 21
916.5166483819633
 31
0.0
 11
1517.929427448207
 21
901.7059539923353
 31
0.0
 11
1518.244041999631
 21
883.7062992774004
 31
0.0
  0
CIRCLE
  5
52D1
330
A
100
AcDbEntity
  8
HIDDEN
100
AcDbCircle
 10
1519.035376805334
 20
2015.12233851307
 30
0.0
 40
22.62051405883003
  0
ARC
  5
52D2
330
A
100
AcDbEntity
  8
HIDDEN
100
AcDbCircle
 10
1812.931397336692
 20
2194.018938878412
 30
0.0
 40
5.997419092174935
100
AcDbArc
 50
359.9928021180028
 51
90.00719788178426
  0
LINE
  5
52D3
330
A
100
AcDbEntity
  8
HIDDEN
100
AcDbLine
 10
1812.930643900484
 20
2200.016357923261
 30
0.0
 11
1225.140170745341
 21
2200.016357923265
 31
0.0
  0
ARC
  5
52D4
330
A
100
AcDbEntity
  8
HIDDEN
100
AcDbCircle
 10
1225.139417309134
 20
2194.018938878412
 30
0.0
 40
5.997419092176029
100
AcDbArc
 50
89.9928021182157
 51
180.0071978819971
  0
LINE
  5
52D5
330
A
100
AcDbEntity
  8
HIDDEN
100
AcDbLine
 10
1219.141998264284
 20
2194.018185442204
 30
0.0
 11
1219.141998264284
 21
1836.227712287061
 31
0.0
  0
ARC
  5
52D6
330
A
100
AcDbEntity
  8
HIDDEN
100
AcDbCircle
 10
1225.139417309134
 20
1836.226958850855
 30
0.0
 40
5.99741909217647
100
AcDbArc
 50
179.992802118005
 51
270.0071978817843
  0
LINE
  5
52D7
330
A
100
AcDbEntity
  8
HIDDEN
100
AcDbLine
 10
1225.140170745341
 20
1830.229539806005
 30
0.0
 11
1812.930643900484
 21
1830.229539806005
 31
0.0
  0
ARC
  5
52D8
330
A
100
AcDbEntity
  8
HIDDEN
100
AcDbCircle
 10
1812.931397336692
 20
1836.226958850852
 30
0.0
 40
5.997419092174267
100
AcDbArc
 50
269.9928021180071
 51
0.0071978817864668
  0
LINE
  5
52D9
330
A
100
AcDbEntity
  8
HIDDEN
100
AcDbLine
 10
1818.92881638154
 20
1836.227712287061
 30
0.0
 11
1818.92881638154
 21
2194.018185442204
 31
0.0
  0
ELLIPSE
  5
52DA
330
A
100
AcDbEntity
  8
HIDDEN
 48
0.5
100
AcDbEllipse
 10
1519.035376805334
 20
2173.986179340087
 30
0.0
 11
12.0
 21
1.010325982802203E-15
 31
0.0
210
0.0
220
0.0
230
1.0
 40
0.5900149050102764
 41
3.748656064910713
 42
5.676121895858656
  0
LINE
  5
52DB
102
{ACAD_REACTORS
330
5727
102
}
330
A
100
AcDbEntity
  8
MODEL
 48
0.5
100
AcDbLine
 10
1786.428829542331
 20
2181.570593379164
 30
0.0
 11
1251.641924068338
 21
2181.570593379163
 31
0.0
  0
LINE
  5
52DD
102
{ACAD_REACTORS
330
5727
102
}
330
A
100
AcDbEntity
  8
MODEL
 48
0.5
100
AcDbLine
 10
1786.428829542331
 20
1848.674083646976
 30
0.0
 11
1786.428829542331
 21
2181.570593379164
 31
0.0
  0
LINE
  5
52DF
102
{ACAD_REACTORS
330
5727
102
}
330
A
100
AcDbEntity
  8
MODEL
 48
0.5
100
AcDbLine
 10
1251.641924068338
 20
1848.674083646977
 30
0.0
 11
1251.641924068338
 21
2181.570593379163
 31
0.0
  0
DIMENSION
  5
52E0
330
A
100
AcDbEntity
  8
Dim
100
AcDbDimension
  2
*D35
 10
1912.462265471846
 20
1851.208679489402
 30
0.0
 11
1912.462265471846
 21
2016.389636434283
 31
0.0
 70
   160
 71
     5
 42
330.3619138897623
 73
     0
 74
     0
 75
     0
  3
tform線あり
100
AcDbAlignedDimension
 13
1824.584727297084
 23
2181.570593379164
 33
0.0
 14
1824.584727297085
 24
1851.208679489402
 34
0.0
 50
90.0
100
AcDbRotatedDimension
1001
ACAD
1000
DSTYLE
1002
{
1070
   271
1070
     0
1002
}
  0
LINE
  5
52E8
102
{ACAD_REACTORS
330
5727
102
}
330
A
100
AcDbEntity
  8
MODEL
 48
0.5
100
AcDbLine
 10
1786.428829542331
 20
1848.674083646976
 30
0.0
 11
1251.641924068338
 21
1848.674083646977
 31
0.0
  0
DIMENSION
  5
52E9
330
A
100
AcDbEntity
  8
Dim
100
AcDbDimension
  2
*D37
 10
243.4286375899282
 20
1838.439477184945
 30
0.0
 11
221.2123289961782
 21
2015.939477184945
 31
0.0
 70
    32
 71
     5
 42
355.0000000000002
 73
     0
 74
     0
 75
     0
  3
tform線あり
100
AcDbAlignedDimension
 13
334.8624411117594
 23
2193.439477184945
 33
0.0
 14
334.8624411117594
 24
1838.439477184945
 34
0.0
 50
90.0
100
AcDbRotatedDimension
  0
SPLINE
  5
52EA
330
A
100
AcDbEntity
  8
HIDDEN
100
AcDbSpline
210
0.0
220
0.0
230
1.0
 70
     8
 71
     3
 72
    43
 73
    39
 74
     0
 42
0.000000001
 43
0.0000000001
 40
0.0
 40
0.0
 40
0.0
 40
0.0
 40
1.699844360351562
 40
8.49920654296875
 40
18.69824219918829
 40
240.382086596523
 40
270.9791849208983
 40
277.7674300575108
 40
282.8496720970501
 40
294.5855617261839
 40
301.3468253339849
 40
304.7445326719547
 40
309.8439703728263
 40
372.7380656498508
 40
393.1360164596788
 40
413.5344545963367
 40
432.2326969855592
 40
450.9309392191068
 40
459.4299626585793
 40
481.5276189146693
 40
508.7253729990495
 40
537.6223465990312
 40
571.6194214716928
 40
592.0173800119309
 40
609.0159401000632
 40
617.5150138216817
 40
622.6135813320061
 40
629.3788015617556
 40
634.464198285019
 40
639.5515742125901
 40
647.1418465483171
 40
651.3831727078943
 40
655.6322360757158
 40
659.881846081094
 40
666.6812077497063
 40
864.567269585979
 40
891.7647184260254
 40
925.7615139498056
 40
925.7615139498056
 40
925.7615139498056
 40
925.7615139498056
 10
1519.035376805334
 20
2193.542504528695
 30
0.0
 10
1519.60199110712
 20
2193.542504368543
 30
0.0
 10
1522.435057529793
 20
2193.542503567782
 30
0.0
 10
1528.667879618828
 20
2193.542528231141
 30
0.0
 10
1608.224472907655
 20
2193.541156486797
 30
0.0
 10
1695.948194908356
 20
2193.331534148193
 30
0.0
 10
1782.007930707312
 20
2193.536089030442
 30
0.0
 10
1796.280599304559
 20
2193.360646973196
 30
0.0
 10
1803.790767408262
 20
2190.697294617598
 30
0.0
 10
1809.782568795234
 20
2184.795282929526
 30
0.0
 10
1812.108344392839
 20
2177.7275475448
 30
0.0
 10
1812.411276308186
 20
2172.63930193853
 30
0.0
 10
1812.384754318143
 20
2148.84678500464
 30
0.0
 10
1812.493272077348
 20
2119.378775229835
 30
0.0
 10
1812.495047635261
 20
2084.815850718058
 30
0.0
 10
1812.501675289274
 20
2064.984219192662
 30
0.0
 10
1812.503991209614
 20
2045.719267002022
 30
0.0
 10
1812.505147636639
 20
2030.420759209063
 30
0.0
 10
1812.505468547515
 20
2013.989119513979
 30
0.0
 10
1812.505048884114
 20
1994.724305893608
 30
0.0
 10
1812.502450792806
 20
1968.660188572291
 30
0.0
 10
1812.494050995766
 20
1938.629543392341
 30
0.0
 10
1812.485056549829
 20
1910.865714904208
 30
0.0
 10
1812.4542774127
 20
1887.067458732259
 30
0.0
 10
1812.45268000918
 20
1871.769860490889
 30
0.0
 10
1812.386071223765
 20
1861.569556499494
 30
0.0
 10
1812.419184168337
 20
1854.785321618247
 30
0.0
 10
1811.237450162595
 20
1849.136560218648
 30
0.0
 10
1808.206583896775
 20
1844.285874326599
 30
0.0
 10
1803.982442423837
 20
1840.077155986072
 30
0.0
 10
1798.757676316625
 20
1837.494920470847
 30
0.0
 10
1793.412354311344
 20
1836.808335192373
 30
0.0
 10
1789.164081823266
 20
1836.813138634116
 30
0.0
 10
1784.065252327145
 20
1836.789869184892
 30
0.0
 10
1714.418570419507
 20
1836.687671487763
 30
0.0
 10
1637.125912894215
 20
1836.712991456607
 30
0.0
 10
1550.765715185054
 20
1836.702504423324
 30
0.0
 10
1530.367640856462
 20
1836.701897560516
 30
0.0
 10
1519.035376803711
 20
1836.702132902894
 30
0.0
  0
SPLINE
  5
52EB
330
A
100
AcDbEntity
  8
HIDDEN
100
AcDbSpline
210
0.0
220
0.0
230
1.0
 70
     8
 71
     3
 72
    43
 73
    39
 74
     0
 42
0.000000001
 43
0.0000000001
 40
0.0
 40
0.0
 40
0.0
 40
0.0
 40
1.699844360351562
 40
8.49920654296875
 40
18.69824219918829
 40
240.382086596523
 40
270.9791849208983
 40
277.7674300575108
 40
282.8496720970501
 40
294.5855617261839
 40
301.3468253339849
 40
304.7445326719547
 40
309.8439703728263
 40
372.7380656498508
 40
393.1360164596788
 40
413.5344545963367
 40
432.2326969855592
 40
450.9309392191068
 40
459.4299626585793
 40
481.5276189146693
 40
508.7253729990495
 40
537.6223465990312
 40
571.6194214716928
 40
592.0173800119309
 40
609.0159401000632
 40
617.5150138216817
 40
622.6135813320061
 40
629.3788015617556
 40
634.464198285019
 40
639.5515742125901
 40
647.1418465483171
 40
651.3831727078943
 40
655.6322360757158
 40
659.881846081094
 40
666.6812077497063
 40
864.567269585979
 40
891.7647184260254
 40
925.7615139498056
 40
925.7615139498056
 40
925.7615139498056
 40
925.7615139498056
 10
1519.035376805334
 20
2193.542504528695
 30
0.0
 10
1518.468762503548
 20
2193.542504368543
 30
0.0
 10
1515.635696080876
 20
2193.542503567782
 30
0.0
 10
1509.402873991841
 20
2193.542528231141
 30
0.0
 10
1429.846280703013
 20
2193.541156486797
 30
0.0
 10
1342.122558702312
 20
2193.331534148193
 30
0.0
 10
1256.062822903356
 20
2193.536089030442
 30
0.0
 10
1241.790154306109
 20
2193.360646973196
 30
0.0
 10
1234.279986202407
 20
2190.697294617598
 30
0.0
 10
1228.288184815435
 20
2184.795282929526
 30
0.0
 10
1225.96240921783
 20
2177.7275475448
 30
0.0
 10
1225.659477302482
 20
2172.63930193853
 30
0.0
 10
1225.685999292525
 20
2148.84678500464
 30
0.0
 10
1225.577481533321
 20
2119.378775229835
 30
0.0
 10
1225.575705975408
 20
2084.815850718058
 30
0.0
 10
1225.569078321394
 20
2064.984219192662
 30
0.0
 10
1225.566762401055
 20
2045.719267002022
 30
0.0
 10
1225.565605974029
 20
2030.420759209063
 30
0.0
 10
1225.565285063153
 20
2013.989119513979
 30
0.0
 10
1225.565704726554
 20
1994.724305893608
 30
0.0
 10
1225.568302817863
 20
1968.660188572291
 30
0.0
 10
1225.576702614902
 20
1938.629543392341
 30
0.0
 10
1225.585697060839
 20
1910.865714904208
 30
0.0
 10
1225.616476197968
 20
1887.067458732259
 30
0.0
 10
1225.618073601488
 20
1871.769860490889
 30
0.0
 10
1225.684682386904
 20
1861.569556499494
 30
0.0
 10
1225.651569442331
 20
1854.785321618247
 30
0.0
 10
1226.833303448073
 20
1849.136560218648
 30
0.0
 10
1229.864169713893
 20
1844.285874326599
 30
0.0
 10
1234.088311186831
 20
1840.077155986072
 30
0.0
 10
1239.313077294044
 20
1837.494920470847
 30
0.0
 10
1244.658399299324
 20
1836.808335192373
 30
0.0
 10
1248.906671787402
 20
1836.813138634116
 30
0.0
 10
1254.005501283523
 20
1836.789869184892
 30
0.0
 10
1323.652183191162
 20
1836.687671487763
 30
0.0
 10
1400.944840716453
 20
1836.712991456607
 30
0.0
 10
1487.305038425615
 20
1836.702504423324
 30
0.0
 10
1507.703112754206
 20
1836.701897560516
 30
0.0
 10
1519.035376806958
 20
1836.702132902894
 30
0.0
  0
SPLINE
  5
52EC
330
A
100
AcDbEntity
  8
HIDDEN
 48
0.5
100
AcDbSpline
210
0.0
220
0.0
230
1.0
 70
  1064
 71
     3
 72
    16
 73
    12
 74
    10
 42
0.000000001
 43
0.0000000001
 44
0.0
 40
0.0
 40
0.0
 40
0.0
 40
0.0
 40
3.983362679930519
 40
8.80839560452159
 40
10.89436268250259
 40
13.57468641561979
 40
15.95452398553865
 40
18.04814692983764
 40
21.50576853189982
 40
26.3270504827892
 40
30.3101508338916
 40
30.3101508338916
 40
30.3101508338916
 40
30.3101508338916
 10
1519.035376805334
 20
2158.815453747445
 30
0.0
 10
1520.363240354929
 20
2158.890681358459
 30
0.0
 10
1523.299540258673
 20
2159.057031904826
 30
0.0
 10
1526.808411616399
 20
2160.313472291951
 30
0.0
 10
1529.413595689919
 20
2162.184410987089
 30
0.0
 10
1530.915320847265
 20
2164.143356317325
 30
0.0
 10
1531.189380165052
 20
2166.657384891929
 30
0.0
 10
1529.986914610567
 20
2169.110341898068
 30
0.0
 10
1527.241792753355
 20
2171.359748883245
 30
0.0
 10
1523.299870233352
 20
2172.737451023249
 30
0.0
 10
1520.363699645037
 20
2172.905797671938
 30
0.0
 10
1519.035376805334
 20
2172.981957653695
 30
0.0
 11
1519.035376805334
 21
2158.815453747445
 31
0.0
 11
1522.99866415885
 21
2159.214867809945
 31
0.0
 11
1527.520621556311
 21
2160.897973278695
 31
0.0
 11
1529.196036595373
 21
2162.140649059945
 31
0.0
 11
1530.7345040026
 21
2164.335473278695
 31
0.0
 11
1530.959891575842
 21
2166.704613903695
 31
0.0
 11
1530.104460972815
 21
2168.61550257557
 31
0.0
 11
1527.5206368151
 21
2170.913109997445
 31
0.0
 11
1522.998694676428
 21
2172.585473278695
 31
0.0
 11
1519.035376805334
 21
2172.981957653695
 31
0.0
  0
SPLINE
  5
52ED
330
A
100
AcDbEntity
  8
HIDDEN
 48
0.5
100
AcDbSpline
210
0.0
220
0.0
230
1.0
 70
  1064
 71
     3
 72
    16
 73
    12
 74
    10
 42
0.000000001
 43
0.0000000001
 44
0.0
 40
0.0
 40
0.0
 40
0.0
 40
0.0
 40
3.983362679929388
 40
8.808395604520458
 40
10.89436268250237
 40
13.57468641561892
 40
15.95452398553789
 40
18.04814692983733
 40
21.50576853189952
 40
26.32705048278783
 40
30.31015083389023
 40
30.31015083389023
 40
30.31015083389023
 40
30.31015083389023
 10
1519.035376805334
 20
2158.815453747445
 30
0.0
 10
1517.707513255739
 20
2158.890681358458
 30
0.0
 10
1514.771213351996
 20
2159.057031904825
 30
0.0
 10
1511.262341994271
 20
2160.313472291953
 30
0.0
 10
1508.657157920748
 20
2162.184410987087
 30
0.0
 10
1507.155432763405
 20
2164.143356317325
 30
0.0
 10
1506.881373445615
 20
2166.657384891929
 30
0.0
 10
1508.083839000103
 20
2169.110341898069
 30
0.0
 10
1510.828960857314
 20
2171.359748883246
 30
0.0
 10
1514.770883377317
 20
2172.737451023249
 30
0.0
 10
1517.707053965631
 20
2172.905797671939
 30
0.0
 10
1519.035376805334
 20
2172.981957653695
 30
0.0
 11
1519.035376805334
 21
2158.815453747445
 31
0.0
 11
1515.072089451819
 21
2159.214867809945
 31
0.0
 11
1510.550132054358
 21
2160.897973278695
 31
0.0
 11
1508.874717015295
 21
2162.140649059945
 31
0.0
 11
1507.336249608069
 21
2164.335473278695
 31
0.0
 11
1507.110862034826
 21
2166.704613903695
 31
0.0
 11
1507.966292637854
 21
2168.61550257557
 31
0.0
 11
1510.550116795569
 21
2170.913109997445
 31
0.0
 11
1515.07205893424
 21
2172.585473278695
 31
0.0
 11
1519.035376805334
 21
2172.981957653695
 31
0.0
  0
DIMENSION
  5
52EF
102
{ACAD_REACTORS
330
52F1
102
}
102
{ACAD_XDICTIONARY
360
52F0
102
}
330
A
100
AcDbEntity
  8
Dim
100
AcDbDimension
  2
*D38
 10
1540.245227832515
 20
1050.706289507552
 30
0.0
 11
1540.245227832515
 21
1154.833629351302
 31
0.0
 70
   160
  1
120 (深さ)
 71
     5
 42
118.9653015678796
 73
     0
 74
     1
 75
     1
  3
tform線あり
100
AcDbAlignedDimension
 13
1540.244636631922
 23
931.7409879396723
 33
0.0
 14
1540.245227832515
 24
1050.706289507552
 34
0.0
 50
90.0
100
AcDbRotatedDimension
  0
DIMENSION
  5
56D4
330
A
100
AcDbEntity
  8
Dim
100
AcDbDimension
  2
*D66
 10
1657.707782497268
 20
781.791731721496
 30
0.0
 11
1540.207782497268
 21
804.008040315246
 31
0.0
 70
    32
  1
230
 71
     5
 42
235.0
 73
     0
 74
     0
 75
     0
  3
tform線あり
100
AcDbAlignedDimension
 13
1422.707782497268
 23
875.5241565735258
 33
0.0
 14
1657.707782497268
 24
875.5241565735258
 34
0.0
100
AcDbRotatedDimension
1001
ACAD
1000
DSTYLE
1002
{
1070
   144
1040
1.0
1002
}
  0
DIMENSION
  5
56E7
330
A
100
AcDbEntity
  8
Dim
100
AcDbDimension
  2
*D67
 10
856.0510250587877
 20
797.4261376242753
 30
0.0
 11
623.5510250587877
 21
819.6424462180253
 31
0.0
 70
    32
  1
460
 71
     5
 42
465.0
 73
     0
 74
     0
 75
     0
  3
tform線あり
100
AcDbAlignedDimension
 13
391.0510250587877
 23
883.168318190066
 33
0.0
 14
856.0510250587877
 24
883.168318190066
 34
0.0
100
AcDbRotatedDimension
1001
ACAD
1000
DSTYLE
1002
{
1070
   144
1040
1.0
1002
}
  0
MTEXT
  5
56F6
330
A
100
AcDbEntity
  8
template
390
1D
100
AcDbMText
 10
1583.000000000742
 20
234.4414968978188
 30
0.0
 40
24.4326171875
 41
0.0
 46
24.4326171875
 71
     1
 72
     1
  1
{7L}
  7
ＭＳ ゴシック
 73
     1
 44
0.7828267384257843
1001
ACAD
1000
ACAD_MTEXT_DEFINED_HEIGHT_BEGIN
1070
    46
1040
24.4326171875
1000
ACAD_MTEXT_DEFINED_HEIGHT_END
  0
MTEXT
  5
56F7
330
A
100
AcDbEntity
  8
template
390
1D
100
AcDbMText
 10
1332.000000000742
 20
234.4414968978188
 30
0.0
 40
24.4326171875
 41
0.0
 46
28.390701171875
 71
     1
 72
     1
  1
{11kg}
  7
ＭＳ ゴシック
 73
     1
 44
0.7828267384257843
1001
ACAD
1000
ACAD_MTEXT_DEFINED_HEIGHT_BEGIN
1070
    46
1040
28.390701171875
1000
ACAD_MTEXT_DEFINED_HEIGHT_END
  0
LINE
  5
56F8
330
A
100
AcDbEntity
  8
Dim
100
AcDbLine
 10
308.0697690719776
 20
965.6720113857027
 30
0.0
 11
195.2561270201077
 21
965.6720113857027
 31
0.0
  0
LINE
  5
56F9
330
A
100
AcDbEntity
  8
Dim
100
AcDbLine
 10
195.2561270201077
 20
965.6720113857027
 30
0.0
 11
195.2561270201077
 21
676.0072380926653
 31
0.0
  0
LINE
  5
56FA
330
A
100
AcDbEntity
  8
Dim
100
AcDbLine
 10
377.0414502829171
 20
880.6713001327246
 30
0.0
 11
285.8026428928515
 21
880.6713001327246
 31
0.0
  0
LINE
  5
56FB
330
A
100
AcDbEntity
  8
Dim
100
AcDbLine
 10
285.8026428928515
 20
880.6713001327246
 30
0.0
 11
285.8026428928515
 21
745.9456188926653
 31
0.0
  0
MTEXT
  5
56FC
330
A
100
AcDbEntity
  8
template
 62
     1
390
1D
100
AcDbMText
 10
153.3446519010749
 20
658.4571740753786
 30
0.0
 40
24.4326171875
 41
0.0
 46
26.1673330078125
 71
     1
 72
     1
  1
{{\C256;半埋め込み}}
  7
ＭＳ ゴシック
 73
     1
 44
0.9822934569727008
1001
ACAD
1000
ACAD_MTEXT_DEFINED_HEIGHT_BEGIN
1070
    46
1040
26.1673330078125
1000
ACAD_MTEXT_DEFINED_HEIGHT_END
  0
MTEXT
  5
56FD
330
A
100
AcDbEntity
  8
template
 62
     1
390
1D
100
AcDbMText
 10
239.9150407382845
 20
726.420330317239
 30
0.0
 40
24.4326171875
 41
0.0
 46
26.28949609375
 71
     1
 72
     1
  1
{{\C256;カウンター置き}}
  7
ＭＳ ゴシック
 73
     1
 44
0.9822934569727008
1001
ACAD
1000
ACAD_MTEXT_DEFINED_HEIGHT_BEGIN
1070
    46
1040
26.28949609375
1000
ACAD_MTEXT_DEFINED_HEIGHT_END
  0
MTEXT
  5
56FE
330
A
100
AcDbEntity
  8
template
 62
     7
390
1D
100
AcDbMText
 10
1179.596217258463
 20
1472.886709450282
 30
0.0
 40
24.4326171875
 41
0.0
 46
118.0863033880313
 71
     1
 72
     1
  1
{\fメイリオ|b0|i0|c0|p0;※\fＭＳ ゴシック|b0|i0|c0|p0;別売品のブラケットでアンダーカウンター設置する\P  ことができます。\P  アンダーカウンター用ブラケット:ADF75-0650}
  7
ＭＳ ゴシック
 73
     1
 44
1.043768984567712
1001
ACAD
1000
ACAD_MTEXT_DEFINED_HEIGHT_BEGIN
1070
    46
1040
118.0863033880313
1000
ACAD_MTEXT_DEFINED_HEIGHT_END
  0
MTEXT
  5
56FF
330
A
100
AcDbEntity
  8
notes
 62
     7
390
1D
100
AcDbMText
 10
1182.596217258463
 20
1607.677456696317
 30
0.0
 40
24.4326171875
 41
769.2624060380768
 46
113.5195576982409
 71
     1
 72
     1
  1
{\fメイリオ|b0|i0|c0|p0;※\fＭＳ ゴシック|b0|i0|c0|p0;陶器製品には寸法公差があります。\P  洗面器の収め方をご確認の上、必ず現物を合わせて\P  カウンターに切込を行ってください。}
  7
ＭＳ ゴシック
 73
     1
 44
1.043768984567712
1001
ACAD
1000
ACAD_MTEXT_DEFINED_HEIGHT_BEGIN
1070
    46
1040
113.5195576982409
1000
ACAD_MTEXT_DEFINED_HEIGHT_END
  0
DIMENSION
  5
5700
330
A
100
AcDbEntity
  8
Dim
100
AcDbDimension
  2
*D68
 10
1786.428829542329
 20
1703.578550718609
 30
0.0
 11
1519.035376805333
 21
1725.794859312359
 31
0.0
 70
    32
 71
     5
 42
534.7869054739908
 73
     0
 74
     0
 75
     0
  3
tform線あり
100
AcDbAlignedDimension
 13
1251.641924068338
 23
1844.211074647963
 33
0.0
 14
1786.428829542329
 24
1844.211074647963
 34
0.0
100
AcDbRotatedDimension
1001
ACAD
1000
DSTYLE
1002
{
1070
   271
1070
     0
1002
}
  0
MTEXT
  5
570E
330
A
100
AcDbEntity
  8
template
 62
     1
390
1D
100
AcDbMText
 10
1376.870396626938
 20
2474.929820821704
 30
0.0
 40
24.4326171875
 41
0.0
 46
27.413396484375
 71
     1
 72
     1
  1
{{\C256;カウンター切込寸法}}
  7
ＭＳ ゴシック
 73
     1
 44
0.9822934569727008
1001
ACAD
1000
ACAD_MTEXT_DEFINED_HEIGHT_BEGIN
1070
    46
1040
27.413396484375
1000
ACAD_MTEXT_DEFINED_HEIGHT_END
  0
MTEXT
  5
570F
330
A
100
AcDbEntity
  8
template
 62
     1
390
1D
100
AcDbMText
 10
1274.14020187345
 20
2359.991793380819
 30
0.0
 40
24.4326171875
 41
0.0
 46
26.1673330078125
 71
     1
 72
     1
  1
{{\C256;半埋め込み}}
  7
ＭＳ ゴシック
 73
     1
 44
0.9822934569727008
1001
ACAD
1000
ACAD_MTEXT_DEFINED_HEIGHT_BEGIN
1070
    46
1040
26.1673330078125
1000
ACAD_MTEXT_DEFINED_HEIGHT_END
  0
MTEXT
  5
5710
330
A
100
AcDbEntity
  8
template
 62
     1
390
1D
100
AcDbMText
 10
1389.363691957171
 20
2307.981661734308
 30
0.0
 40
24.4326171875
 41
0.0
 46
26.28949609375
 71
     1
 72
     1
  1
{{\C256;カウンター置き}}
  7
ＭＳ ゴシック
 73
     1
 44
0.9822934569727008
1001
ACAD
1000
ACAD_MTEXT_DEFINED_HEIGHT_BEGIN
1070
    46
1040
26.28949609375
1000
ACAD_MTEXT_DEFINED_HEIGHT_END
  0
LINE
  5
5711
330
A
100
AcDbEntity
  8
Dim
100
AcDbLine
 10
1349.032075510659
 20
2319.38246157108
 30
0.0
 11
1349.032075510659
 21
2185.733085323347
 31
0.0
  0
LINE
  5
5712
330
A
100
AcDbEntity
  8
Dim
100
AcDbLine
 10
1494.623100031588
 20
2269.035839357125
 30
0.0
 11
1494.623100031588
 21
2064.797620045499
 31
0.0
  0
HATCH
  5
5713
330
A
100
AcDbEntity
  8
Dim
100
AcDbHatch
 10
0.0
 20
0.0
 30
0.0
210
0.0
220
0.0
230
1.0
  2
ANSI31
 70
     0
 71
     1
 91
        1
 92
        1
 93
        1
 72
     2
 10
1519.035376805334
 20
2015.12233851307
 40
50.0
 50
0.0
 51
360.0
 73
     1
 97
        1
330
5714
 75
     0
 76
     1
 52
90.0
 41
3.0
 77
     0
 78
     1
 53
135.0
 43
-10.63184977306355
 44
29.17552261196545
 45
-6.735192090801865
 46
-6.735192090801863
 79
     0
 98
        1
 10
-10.63184977306355
 20
29.17552261196545
1001
ACAD
1010
0.0
1020
0.0
1030
0.0
  0
CIRCLE
  5
5714
102
{ACAD_REACTORS
330
5713
102
}
330
A
100
AcDbEntity
  8
MODEL
100
AcDbCircle
 10
1519.035376805334
 20
2015.12233851307
 30
0.0
 40
50.0
  0
DIMENSION
  5
5715
102
{ACAD_XDICTIONARY
360
5716
102
}
330
A
100
AcDbEntity
  8
Dim
100
AcDbDimension
  2
*D69
 10
1569.035376805334
 20
1766.115909291035
 30
0.0
 11
1519.035376805334
 21
1788.332217884785
 31
0.0
 70
    32
 71
     5
 42
100.0
 73
     0
 74
     0
 75
     0
  3
tform線あり
100
AcDbAlignedDimension
 13
1469.035376805334
 23
2015.12233851307
 33
0.0
 14
1569.035376805334
 24
2015.12233851307
 34
0.0
100
AcDbRotatedDimension
1001
ACAD
1000
DSTYLE
1002
{
1070
     3
1000
%%c<>
1070
   144
1040
1.0
1002
}
  0
HATCH
  5
5727
330
A
100
AcDbEntity
  8
Dim
100
AcDbHatch
 10
0.0
 20
0.0
 30
0.0
210
0.0
220
0.0
230
1.0
  2
ANSI31
 70
     0
 71
     1
 91
        1
 92
        1
 93
        4
 72
     1
 10
1786.428829542331
 20
1848.674083646976
 11
1786.428829542331
 21
2181.570593379164
 72
     1
 10
1786.428829542331
 20
2181.570593379164
 11
1251.641924068338
 21
2181.570593379163
 72
     1
 10
1251.641924068338
 20
2181.570593379163
 11
1251.641924068338
 21
1848.674083646977
 72
     1
 10
1251.641924068338
 20
1848.674083646977
 11
1786.428829542331
 21
1848.674083646976
 97
        4
330
52DD
330
52DB
330
52E8
330
52DF
 75
     0
 76
     1
 52
0.0
 41
6.0
 77
     0
 78
     1
 53
45.0
 43
0.0
 44
0.0
 45
-13.47038418160373
 46
13.47038418160373
 79
     0
 98
        1
 10
0.0
 20
0.0
1001
ACAD
1010
0.0
1020
0.0
1030
0.0
  0
VIEWPORT
  5
349
330
B
100
AcDbEntity
 67
     1
  8
0
100
AcDbViewport
 10
202.5
 20
128.5
 30
0.0
 40
486.0
 41
308.4
 68
     1
 69
     1
 12
202.5
 22
128.5
 13
0.0
 23
0.0
 14
0.5
 24
0.5
 15
0.0
 25
0.0
 16
0.0
 26
0.0
 36
1.0
 17
0.0
 27
0.0
 37
0.0
 42
50.0
 43
0.0
 44
0.0
 45
308.4
 50
0.0
 51
0.0
 72
   100
 90
   557152
  1

281
     0
 71
     1
 74
     0
110
0.0
120
0.0
130
0.0
111
1.0
121
0.0
131
0.0
112
0.0
122
1.0
132
0.0
 79
     0
146
0.0
170
     0
 61
     5
348
26C
292
     1
282
     1
141
0.0
142
0.0
 63
   256
  0
VIEWPORT
  5
34A
330
B
100
AcDbEntity
 67
     1
  8
0
100
AcDbViewport
 10
202.5
 20
128.5
 30
0.0
 40
324.0
 41
205.6
 68
     2
 69
     2
 12
986.6781359294573
 22
1427.077061889956
 13
0.0
 23
0.0
 14
0.5
 24
0.5
 15
0.0
 25
0.0
 16
0.0
 26
0.0
 36
1.0
 17
0.0
 27
0.0
 37
0.0
 42
50.0
 43
0.0
 44
0.0
 45
2890.021615685494
 50
0.0
 51
0.0
 72
   100
 90
   557152
  1

281
     0
 71
     1
 74
     0
110
0.0
120
0.0
130
0.0
111
1.0
121
0.0
131
0.0
112
0.0
122
1.0
132
0.0
 79
     0
146
0.0
170
     0
 61
     5
348
26C
292
     1
282
     1
141
0.0
142
0.0
 63
   256
  0
ENDSEC
  0
SECTION
  2
OBJECTS
  0
DICTIONARY
  5
19
330
0
100
AcDbDictionary
281
     1
  3
ACAD_COLOR
350
38F
  3
ACAD_DETAILVIEWSTYLE
350
8CF
  3
ACAD_FIELDLIST
350
BA6
  3
ACAD_GROUP
350
1A
  3
ACAD_IMAGE_VARS
350
27B
  3
ACAD_LAYOUT
350
1E
  3
ACAD_MATERIAL
350
263
  3
ACAD_MLEADERSTYLE
350
336
  3
ACAD_MLINESTYLE
350
1B
  3
ACAD_PLOTSETTINGS
350
22
  3
ACAD_PLOTSTYLENAME
350
1F
  3
ACAD_SCALELIST
350
241
  3
ACAD_SECTIONVIEWSTYLE
350
8D0
  3
ACAD_TABLESTYLE
350
278
  3
ACAD_VISUALSTYLE
350
267
  3
ACDB_RECOMPOSE_DATA
350
574F
  3
AcDbVariableDictionary
350
330
  3
APPDATA
350
27A
  3
CENTERLINE
350
573F
  3
DimOffsetDictionary
350
C08
  0
SUN
  5
8C2
330
15
100
AcDbSun
 90
        1
290
     0
 63
     7
421
 16777215
 40
1.0
291
     1
 91
  2455826
 92
 54000000
292
     0
 70
     2
 71
   256
280
     1
  0
DICTIONARY
  5
2E1
330
2
100
AcDbDictionary
280
     1
281
     1
  3
ACAD_LAYERSTATES
360
2E2
  3
ACLYDICTIONARY
360
50B8
  0
DICTIONARY
  5
5725
330
A
100
AcDbDictionary
280
     1
281
     1
  3
ACAD_SORTENTS
360
5726
  0
DICTIONARY
  5
BDC
330
BDB
100
AcDbDictionary
280
     1
281
     1
  3
ACAD_FIELD
360
BE4
  0
DICTIONARY
  5
52BE
330
52BD
100
AcDbDictionary
280
     1
281
     1
  3
AcDbContextDataManager
360
52BF
  0
DICTIONARY
  5
52F0
330
52EF
100
AcDbDictionary
280
     1
281
     1
  3
ACAD_DIMASSOC
360
52F1
  0
DICTIONARY
  5
5716
330
5715
100
AcDbDictionary
280
     1
281
     1
  3
ACAD_DIMASSOC
360
5717
  0
DICTIONARY
  5
38F
102
{ACAD_REACTORS
330
19
102
}
330
19
100
AcDbDictionary
281
     1
  0
DICTIONARY
  5
8CF
102
{ACAD_REACTORS
330
19
102
}
330
19
100
AcDbDictionary
281
     1
  0
FIELDLIST
  5
BA6
102
{ACAD_REACTORS
330
19
102
}
330
19
100
AcDbIdSet
 90
        2
330
BDF
330
BDE
100
AcDbFieldList
  0
DICTIONARY
  5
1A
102
{ACAD_REACTORS
330
19
102
}
330
19
100
AcDbDictionary
281
     1
  0
RASTERVARIABLES
  5
27B
102
{ACAD_REACTORS
330
19
102
}
330
19
100
AcDbRasterVariables
 90
        0
 70
     1
 71
     1
 72
     1
  0
DICTIONARY
  5
1E
102
{ACAD_REACTORS
330
19
102
}
330
19
100
AcDbDictionary
281
     1
  3
Layout1
350
21
  3
Model
350
20
  0
DICTIONARY
  5
263
102
{ACAD_REACTORS
330
19
102
}
330
19
100
AcDbDictionary
281
     1
  3
ByBlock
350
50C8
  3
ByLayer
350
264
  3
Global
350
266
  0
DICTIONARY
  5
336
102
{ACAD_REACTORS
330
19
102
}
330
19
100
AcDbDictionary
281
     1
  3
Standard
350
8D1
  0
DICTIONARY
  5
1B
102
{ACAD_REACTORS
330
19
102
}
330
19
100
AcDbDictionary
281
     1
  3
Standard
350
1C
  0
DICTIONARY
  5
22
102
{ACAD_REACTORS
330
19
102
}
330
19
100
AcDbDictionary
281
     1
  0
ACDBDICTIONARYWDFLT
  5
1F
102
{ACAD_REACTORS
330
19
102
}
330
19
100
AcDbDictionary
281
     1
  3
Normal
350
1D
100
AcDbDictionaryWithDefault
340
1D
  0
DICTIONARY
  5
241
102
{ACAD_REACTORS
330
19
102
}
330
19
100
AcDbDictionary
281
     1
  3
A0
350
242
  3
A1
350
243
  3
A2
350
244
  3
A3
350
245
  3
A4
350
246
  3
A5
350
247
  3
A6
350
248
  3
A7
350
249
  3
A8
350
24A
  3
A9
350
24B
  3
B0
350
24C
  3
B1
350
24D
  3
B2
350
24E
  3
B3
350
24F
  3
B4
350
250
  3
B5
350
251
  3
B6
350
252
  3
B7
350
253
  3
B8
350
254
  3
B9
350
255
  3
C0
350
256
  3
C1
350
257
  3
C2
350
258
  3
C3
350
259
  3
C4
350
25A
  3
C5
350
25B
  3
C6
350
25C
  3
C7
350
25D
  3
C8
350
25E
  3
C9
350
25F
  3
D0
350
260
  3
D1
350
261
  3
D2
350
262
  0
DICTIONARY
  5
8D0
102
{ACAD_REACTORS
330
19
102
}
330
19
100
AcDbDictionary
281
     1
  0
DICTIONARY
  5
278
102
{ACAD_REACTORS
330
19
102
}
330
19
100
AcDbDictionary
281
     1
  3
Standard
350
279
  0
DICTIONARY
  5
267
102
{ACAD_REACTORS
330
19
102
}
330
19
100
AcDbDictionary
281
     1
  3
*A1
350
573A
  3
2dWireframe
350
26C
  3
3D Hidden
350
26E
  3
3dWireframe
350
26D
  3
Basic
350
26F
  3
Brighten
350
273
  3
ColorChange
350
277
  3
Conceptual
350
271
  3
Dim
350
272
  3
EdgeColorOff
350
8BC
  3
Facepattern
350
276
  3
Flat
350
268
  3
FlatWithEdges
350
269
  3
Gouraud
350
26A
  3
GouraudWithEdges
350
26B
  3
Hidden
350
8B9
  3
JitterOff
350
8BA
  3
Linepattern
350
275
  3
OverhangOff
350
8BB
  3
Realistic
350
270
  3
Shaded
350
8C1
  3
Shaded with edges
350
8C0
  3
Shades of Gray
350
8BD
  3
Sketchy
350
8BE
  3
Thicken
350
274
  3
Wireframe
350
8B8
  3
X-Ray
350
8BF
  0
XRECORD
  5
574F
102
{ACAD_REACTORS
330
19
102
}
330
19
100
AcDbXrecord
280
     1
 90
        1
330
279
  0
DICTIONARY
  5
330
102
{ACAD_REACTORS
330
19
102
}
330
19
100
AcDbDictionary
281
     1
  3
CANNOSCALE
350
331
  3
CMLEADERSTYLE
350
8DA
  3
CTABLESTYLE
350
335
  3
HPTRANSPARENCY
350
C07
  3
XCLIPFRAME
350
64A
  0
DICTIONARY
  5
27A
102
{ACAD_REACTORS
330
19
102
}
330
19
100
AcDbDictionary
281
     1
  0
DICTIONARY
  5
573F
102
{ACAD_REACTORS
330
19
102
}
330
19
100
AcDbDictionary
281
     1
  3
CLEXTENSION
350
5740
  0
DICTIONARY
  5
C08
102
{ACAD_REACTORS
330
19
102
}
330
19
100
AcDbDictionary
281
     1
  3
DIMRAILANGLE
350
573D
  3
DIMRAILFIRSTOFFSET
350
573B
  3
DIMRAILOFFSET
350
573C
  3
DIMRAILSENABLED
350
573E
  0
DICTIONARY
  5
2E2
102
{ACAD_REACTORS
330
2E1
102
}
330
2E1
100
AcDbDictionary
281
     1
  0
DICTIONARY
  5
50B8
102
{ACAD_REACTORS
330
2E1
102
}
330
2E1
100
AcDbDictionary
281
     1
1001
ACAD
1000
<All
  0
SORTENTSTABLE
  5
5726
102
{ACAD_REACTORS
330
5725
102
}
330
5725
100
AcDbSortentsTable
330
A
331
0
  5
52DE
331
52DB
  5
52DD
331
52DD
  5
52DF
331
52DF
  5
52E2
331
52E0
  5
52E3
331
52E8
  5
52EA
331
52E9
  5
52EB
331
52EA
  5
52EC
331
52EB
  5
52ED
331
52EC
  5
52EE
331
52ED
  5
52EF
331
52EF
  5
5556
331
56D4
  5
56F4
331
56E7
  5
56F5
331
56F6
  5
56F8
331
56F7
  5
56F9
331
56F8
  5
56FA
331
56F9
  5
56FB
331
56FA
  5
56FC
331
56FB
  5
56FD
331
56FC
  5
56FE
331
56FD
  5
56FF
331
56FE
  5
5700
331
56FF
  5
570D
331
5700
  5
570E
331
570E
  5
5710
331
570F
  5
5711
331
5710
  5
5712
331
5711
  5
5713
331
5712
  5
5714
331
5713
  5
5715
331
5714
  5
5724
331
5715
  5
5727
331
5727
  5
52DC
  0
DICTIONARY
  5
BE4
102
{ACAD_REACTORS
330
BDC
102
}
330
BDC
100
AcDbDictionary
280
     1
281
     1
  3
TEXT
360
BDE
  0
DICTIONARY
  5
52BF
102
{ACAD_REACTORS
330
52BE
102
}
330
52BE
100
AcDbDictionary
281
     1
  3
ACDB_ANNOTATIONSCALES
350
52C0
  0
DIMASSOC
  5
52F1
102
{ACAD_REACTORS
330
52F0
102
}
330
52F0
100
AcDbDimAssoc
330
52EF
 90
        3
 70
     0
 71
     1
  1
AcDbOsnapPointRef
 72
     1
331
5269
 73
     0
 91
        0
 40
0.0
 10
0.0
 20
0.0
 30
0.0
 75
     0
  1
AcDbOsnapPointRef
 72
    13
331
5265
 73
     0
 91
        0
 40
0.0
 10
0.0
 20
0.0
 30
0.0
 75
     0
  0
DIMASSOC
  5
5717
102
{ACAD_REACTORS
330
5716
102
}
330
5716
100
AcDbDimAssoc
330
5715
 90
        0
 70
     0
 71
     1
  0
LAYOUT
  5
21
102
{ACAD_REACTORS
330
1E
102
}
330
1E
100
AcDbPlotSettings
  1

  2
none_device
  4
ISO_A3_(420.00_x_297.00_MM)
  6

 40
7.5
 41
20.0
 42
7.5
 43
20.0
 44
420.0
 45
297.0
 46
0.0
 47
0.0
 48
0.0
 49
0.0
140
0.0
141
0.0
142
1.0
143
1.0
 70
     0
 72
     1
 73
     0
 74
     0
  7

 75
     0
 76
     0
 77
     2
 78
   300
147
1.0
148
0.0
149
0.0
100
AcDbLayout
  1
Layout1
 70
     0
 71
     0
 10
0.0
 20
0.0
 11
0.0
 21
0.0
 12
0.0
 22
0.0
 32
0.0
 14
0.0
 24
0.0
 34
0.0
 15
0.0
 25
0.0
 35
0.0
146
0.0
 13
0.0
 23
0.0
 33
0.0
 16
0.0
 26
0.0
 36
0.0
 17
0.0
 27
0.0
 37
0.0
 76
     0
330
B
331
349
  0
LAYOUT
  5
20
102
{ACAD_REACTORS
330
1E
102
}
330
1E
100
AcDbPlotSettings
  1

  2
none_device
  4
ISO_A3_(420.00_x_297.00_MM)
  6

 40
7.5
 41
20.0
 42
7.5
 43
20.0
 44
420.0
 45
297.0
 46
0.0
 47
0.0
 48
0.0
 49
0.0
140
0.0
141
0.0
142
1.0
143
1.0
 70
  1024
 72
     1
 73
     0
 74
     0
  7

 75
     0
 76
     0
 77
     2
 78
   300
147
1.0
148
0.0
149
0.0
100
AcDbLayout
  1
Model
 70
     0
 71
     1
 10
0.0
 20
0.0
 11
2100.0
 21
2970.0
 12
0.0
 22
0.0
 32
0.0
 14
0.0
 24
0.0
 34
0.0
 15
2100.0
 25
2970.0
 35
0.0
146
0.0
 13
0.0
 23
0.0
 33
0.0
 16
0.0
 26
0.0
 36
0.0
 17
0.0
 27
0.0
 37
0.0
 76
     0
330
A
331
15
  0
MATERIAL
  5
50C8
102
{ACAD_REACTORS
330
263
102
}
330
263
100
AcDbMaterial
  1
ByBlock
 72
     1
 94
      127
  0
MATERIAL
  5
264
102
{ACAD_REACTORS
330
263
102
}
330
263
100
AcDbMaterial
  1
ByLayer
 72
     1
 94
      127
  0
MATERIAL
  5
266
102
{ACAD_REACTORS
330
263
102
}
330
263
100
AcDbMaterial
  1
Global
 72
     1
 94
      127
  0
MLEADERSTYLE
  5
8D1
102
{ACAD_REACTORS
330
336
102
}
330
336
100
AcDbMLeaderStyle
170
     2
171
     1
172
     0
 90
        2
 40
0.0
 41
0.0
173
     1
 91
-1056964608
340
11
 92
       -2
290
     1
 42
2.0
291
     1
 43
8.0
  3
Standard
341
0
 44
4.0
300

342
17
174
     1
178
     6
175
     1
176
     0
 93
-1056964608
 45
4.0
292
     0
297
     0
 46
4.0
343
0
 94
-1056964608
 47
1.0
 49
1.0
140
1.0
293
     1
141
0.0
294
     1
177
     0
142
1.0
295
     0
296
     0
143
3.75
1001
ACAD_MLEADERVER
1070
     2
  0
MLINESTYLE
  5
1C
102
{ACAD_REACTORS
330
1B
102
}
330
1B
100
AcDbMlineStyle
  2
Standard
 70
     0
  3

 62
     0
 51
90.0
 52
90.0
 71
     2
 49
0.5
 62
   256
  6
BYLAYER
 49
-0.5
 62
   256
  6
BYLAYER
  0
ACDBPLACEHOLDER
  5
1D
102
{ACAD_REACTORS
330
1F
102
}
330
1F
  0
SCALE
  5
242
102
{ACAD_REACTORS
330
241
102
}
330
241
100
AcDbScale
 70
     0
300
1:1
140
1.0
141
1.0
290
     1
  0
SCALE
  5
243
102
{ACAD_REACTORS
330
241
102
}
330
241
100
AcDbScale
 70
     0
300
1:2
140
1.0
141
2.0
290
     0
  0
SCALE
  5
244
102
{ACAD_REACTORS
330
241
102
}
330
241
100
AcDbScale
 70
     0
300
1:4
140
1.0
141
4.0
290
     0
  0
SCALE
  5
245
102
{ACAD_REACTORS
330
241
102
}
330
241
100
AcDbScale
 70
     0
300
1:5
140
1.0
141
5.0
290
     0
  0
SCALE
  5
246
102
{ACAD_REACTORS
330
241
102
}
330
241
100
AcDbScale
 70
     0
300
1:8
140
1.0
141
8.0
290
     0
  0
SCALE
  5
247
102
{ACAD_REACTORS
330
241
102
}
330
241
100
AcDbScale
 70
     0
300
1:10
140
1.0
141
10.0
290
     0
  0
SCALE
  5
248
102
{ACAD_REACTORS
330
241
102
}
330
241
100
AcDbScale
 70
     0
300
1:16
140
1.0
141
16.0
290
     0
  0
SCALE
  5
249
102
{ACAD_REACTORS
330
241
102
}
330
241
100
AcDbScale
 70
     0
300
1:20
140
1.0
141
20.0
290
     0
  0
SCALE
  5
24A
102
{ACAD_REACTORS
330
241
102
}
330
241
100
AcDbScale
 70
     0
300
1:30
140
1.0
141
30.0
290
     0
  0
SCALE
  5
24B
102
{ACAD_REACTORS
330
241
102
}
330
241
100
AcDbScale
 70
     0
300
1:40
140
1.0
141
40.0
290
     0
  0
SCALE
  5
24C
102
{ACAD_REACTORS
330
241
102
}
330
241
100
AcDbScale
 70
     0
300
1:50
140
1.0
141
50.0
290
     0
  0
SCALE
  5
24D
102
{ACAD_REACTORS
330
241
102
}
330
241
100
AcDbScale
 70
     0
300
1:100
140
1.0
141
100.0
290
     0
  0
SCALE
  5
24E
102
{ACAD_REACTORS
330
241
102
}
330
241
100
AcDbScale
 70
     0
300
2:1
140
2.0
141
1.0
290
     0
  0
SCALE
  5
24F
102
{ACAD_REACTORS
330
241
102
}
330
241
100
AcDbScale
 70
     0
300
4:1
140
4.0
141
1.0
290
     0
  0
SCALE
  5
250
102
{ACAD_REACTORS
330
241
102
}
330
241
100
AcDbScale
 70
     0
300
8:1
140
8.0
141
1.0
290
     0
  0
SCALE
  5
251
102
{ACAD_REACTORS
330
241
102
}
330
241
100
AcDbScale
 70
     0
300
10:1
140
10.0
141
1.0
290
     0
  0
SCALE
  5
252
102
{ACAD_REACTORS
330
241
102
}
330
241
100
AcDbScale
 70
     0
300
100:1
140
100.0
141
1.0
290
     0
  0
SCALE
  5
253
102
{ACAD_REACTORS
330
241
102
}
330
241
100
AcDbScale
 70
     0
300
1/128" = 1'-0"
140
0.0078125
141
12.0
290
     0
  0
SCALE
  5
254
102
{ACAD_REACTORS
330
241
102
}
330
241
100
AcDbScale
 70
     0
300
1/64" = 1'-0"
140
0.015625
141
12.0
290
     0
  0
SCALE
  5
255
102
{ACAD_REACTORS
330
241
102
}
330
241
100
AcDbScale
 70
     0
300
1/32" = 1'-0"
140
0.03125
141
12.0
290
     0
  0
SCALE
  5
256
102
{ACAD_REACTORS
330
241
102
}
330
241
100
AcDbScale
 70
     0
300
1/16" = 1'-0"
140
0.0625
141
12.0
290
     0
  0
SCALE
  5
257
102
{ACAD_REACTORS
330
241
102
}
330
241
100
AcDbScale
 70
     0
300
3/32" = 1'-0"
140
0.09375
141
12.0
290
     0
  0
SCALE
  5
258
102
{ACAD_REACTORS
330
241
102
}
330
241
100
AcDbScale
 70
     0
300
1/8" = 1'-0"
140
0.125
141
12.0
290
     0
  0
SCALE
  5
259
102
{ACAD_REACTORS
330
241
102
}
330
241
100
AcDbScale
 70
     0
300
3/16" = 1'-0"
140
0.1875
141
12.0
290
     0
  0
SCALE
  5
25A
102
{ACAD_REACTORS
330
241
102
}
330
241
100
AcDbScale
 70
     0
300
1/4" = 1'-0"
140
0.25
141
12.0
290
     0
  0
SCALE
  5
25B
102
{ACAD_REACTORS
330
241
102
}
330
241
100
AcDbScale
 70
     0
300
3/8" = 1'-0"
140
0.375
141
12.0
290
     0
  0
SCALE
  5
25C
102
{ACAD_REACTORS
330
241
102
}
330
241
100
AcDbScale
 70
     0
300
1/2" = 1'-0"
140
0.5
141
12.0
290
     0
  0
SCALE
  5
25D
102
{ACAD_REACTORS
330
241
102
}
330
241
100
AcDbScale
 70
     0
300
3/4" = 1'-0"
140
0.75
141
12.0
290
     0
  0
SCALE
  5
25E
102
{ACAD_REACTORS
330
241
102
}
330
241
100
AcDbScale
 70
     0
300
1" = 1'-0"
140
1.0
141
12.0
290
     0
  0
SCALE
  5
25F
102
{ACAD_REACTORS
330
241
102
}
330
241
100
AcDbScale
 70
     0
300
1-1/2" = 1'-0"
140
1.5
141
12.0
290
     0
  0
SCALE
  5
260
102
{ACAD_REACTORS
330
241
102
}
330
241
100
AcDbScale
 70
     0
300
3" = 1'-0"
140
3.0
141
12.0
290
     0
  0
SCALE
  5
261
102
{ACAD_REACTORS
330
241
102
}
330
241
100
AcDbScale
 70
     0
300
6" = 1'-0"
140
6.0
141
12.0
290
     0
  0
SCALE
  5
262
102
{ACAD_REACTORS
330
241
102
}
330
241
100
AcDbScale
 70
     0
300
1'-0" = 1'-0"
140
12.0
141
12.0
290
     0
  0
TABLESTYLE
  5
279
102
{ACAD_REACTORS
330
278
102
}
102
{ACAD_XDICTIONARY
360
574D
102
}
330
278
100
AcDbTableStyle
  3
Standard
 70
     0
 71
     0
 40
0.06
 41
0.06
280
     0
281
     0
  7
Standard
140
4.5
170
     2
 62
     0
 63
   257
283
     0
 90
        4
 91
        0
  1

274
    -2
284
     1
 64
     0
275
    -2
285
     1
 65
     0
276
    -2
286
     1
 66
     0
277
    -2
287
     1
 67
     0
278
    -2
288
     1
 68
     0
279
    -2
289
     1
 69
     0
  7
Standard
140
6.0
170
     5
 62
     0
 63
   257
283
     0
 90
        4
 91
        0
  1

274
    -2
284
     1
 64
     0
275
    -2
285
     1
 65
     0
276
    -2
286
     1
 66
     0
277
    -2
287
     1
 67
     0
278
    -2
288
     1
 68
     0
279
    -2
289
     1
 69
     0
  7
Standard
140
4.5
170
     5
 62
     0
 63
   257
283
     0
 90
        4
 91
        0
  1

274
    -2
284
     1
 64
     0
275
    -2
285
     1
 65
     0
276
    -2
286
     1
 66
     0
277
    -2
287
     1
 67
     0
278
    -2
288
     1
 68
     0
279
    -2
289
     1
 69
     0
  0
VISUALSTYLE
  5
573A
102
{ACAD_REACTORS
330
267
102
}
330
267
100
AcDbVisualStyle
  2
*
 70
    10
 71
     0
 72
     2
 73
     0
 90
        0
 40
-0.6
 41
-30.0
 62
     5
 63
     7
421
 16777215
 74
     1
 91
        4
 64
     7
 65
   257
 75
     1
175
     1
 42
1.0
 92
        8
 66
     7
 43
1.0
 76
     1
 77
     6
 78
     2
 67
     7
 79
     5
170
     0
171
     0
290
     0
174
     0
 93
        1
 44
0.0
173
     0
291
     0
 45
0.0
  0
VISUALSTYLE
  5
26C
102
{ACAD_REACTORS
330
267
102
}
330
267
100
AcDbVisualStyle
  2
2dWireframe
 70
     4
 71
     0
 72
     2
 73
     0
 90
        0
 40
-0.6
 41
-30.0
 62
     5
 63
     7
421
 16777215
 74
     1
 91
        4
 64
     7
 65
   257
 75
     1
175
     1
 42
1.0
 92
        0
 66
   257
 43
1.0
 76
     1
 77
     6
 78
     2
 67
     7
 79
     5
170
     0
171
     0
290
     0
174
     0
 93
        1
 44
0.0
173
     0
291
     0
 45
0.0
  0
VISUALSTYLE
  5
26E
102
{ACAD_REACTORS
330
267
102
}
330
267
100
AcDbVisualStyle
  2
3D Hidden
 70
     6
 71
     1
 72
     2
 73
     2
 90
        0
 40
-0.6
 41
-30.0
 62
     5
 63
     7
421
 16777215
 74
     2
 91
        2
 64
     7
 65
   257
 75
     2
175
     1
 42
40.0
 92
        0
 66
   257
 43
1.0
 76
     1
 77
     6
 78
     2
 67
     7
 79
     3
170
     0
171
     0
290
     0
174
     0
 93
        1
 44
0.0
173
     0
291
     0
 45
0.0
  0
VISUALSTYLE
  5
26D
102
{ACAD_REACTORS
330
267
102
}
330
267
100
AcDbVisualStyle
  2
3dWireframe
 70
     5
 71
     0
 72
     2
 73
     0
 90
        0
 40
-0.6
 41
-30.0
 62
     5
 63
     7
421
 16777215
 74
     1
 91
        4
 64
     7
 65
   257
 75
     1
175
     1
 42
1.0
 92
        0
 66
   257
 43
1.0
 76
     1
 77
     6
 78
     2
 67
     7
 79
     5
170
     0
171
     0
290
     0
174
     0
 93
        1
 44
0.0
173
     0
291
     0
 45
0.0
  0
VISUALSTYLE
  5
26F
102
{ACAD_REACTORS
330
267
102
}
330
267
100
AcDbVisualStyle
  2
Basic
 70
     7
 71
     1
 72
     0
 73
     1
 90
        0
 40
-0.6
 41
-30.0
 62
     5
 63
     7
421
 16777215
 74
     0
 91
        4
 64
     7
 65
   257
 75
     1
175
     1
 42
1.0
 92
        8
 66
     7
 43
1.0
 76
     1
 77
     6
 78
     2
 67
     7
 79
     5
170
     0
171
     0
290
     0
174
     0
 93
        1
 44
0.0
173
     0
291
     1
 45
0.0
  0
VISUALSTYLE
  5
273
102
{ACAD_REACTORS
330
267
102
}
330
267
100
AcDbVisualStyle
  2
Brighten
 70
    12
 71
     2
 72
     2
 73
     0
 90
        0
 40
-0.6
 41
-30.0
 62
     5
 63
     7
421
 16777215
 74
     1
 91
        4
 64
     7
 65
   257
 75
     1
175
     1
 42
1.0
 92
        8
 66
     7
 43
1.0
 76
     1
 77
     6
 78
     2
 67
     7
 79
     5
170
     0
171
     0
290
     0
174
     0
 93
        1
 44
50.0
173
     0
291
     1
 45
0.0
  0
VISUALSTYLE
  5
277
102
{ACAD_REACTORS
330
267
102
}
330
267
100
AcDbVisualStyle
  2
ColorChange
 70
    16
 71
     2
 72
     2
 73
     3
 90
        0
 40
-0.6
 41
-30.0
 62
     5
 63
     8
421
  8421504
 74
     1
 91
        4
 64
     7
 65
   257
 75
     1
175
     1
 42
1.0
 92
        8
 66
     8
424
  8421504
 43
1.0
 76
     1
 77
     6
 78
     2
 67
     7
 79
     5
170
     0
171
     0
290
     0
174
     0
 93
        1
 44
0.0
173
     0
291
     1
 45
0.0
  0
VISUALSTYLE
  5
271
102
{ACAD_REACTORS
330
267
102
}
330
267
100
AcDbVisualStyle
  2
Conceptual
 70
     9
 71
     3
 72
     2
 73
     0
 90
        0
 40
-0.6
 41
-30.0
 62
     5
 63
     7
421
 16777215
 74
     2
 91
        2
 64
     7
 65
   257
 75
     1
175
     1
 42
40.0
 92
        8
 66
     7
 43
1.0
 76
     1
 77
     6
 78
     2
 67
     7
 79
     3
170
     0
171
     0
290
     0
174
     0
 93
        1
 44
0.0
173
     0
291
     0
 45
0.0
  0
VISUALSTYLE
  5
272
102
{ACAD_REACTORS
330
267
102
}
330
267
100
AcDbVisualStyle
  2
Dim
 70
    11
 71
     2
 72
     2
 73
     0
 90
        0
 40
-0.6
 41
-30.0
 62
     5
 63
     7
421
 16777215
 74
     1
 91
        4
 64
     7
 65
   257
 75
     1
175
     1
 42
1.0
 92
        8
 66
     7
 43
1.0
 76
     1
 77
     6
 78
     2
 67
     7
 79
     5
170
     0
171
     0
290
     0
174
     0
 93
        1
 44
-50.0
173
     0
291
     1
 45
0.0
  0
VISUALSTYLE
  5
8BC
102
{ACAD_REACTORS
330
267
102
}
330
267
100
AcDbVisualStyle
  2
EdgeColorOff
 70
    22
 71
     2
 72
     2
 73
     0
 90
        0
 40
0.6
 41
30.0
 62
     5
 63
     7
421
 16777215
 74
     1
 91
        4
 64
     7
 65
   257
 75
     1
175
     1
 42
1.0
 92
        8
 66
     7
 43
1.0
 76
     1
 77
     6
 78
     2
 67
     7
 79
     5
170
     0
171
     0
290
     0
174
     0
 93
        1
 44
0.0
173
     0
291
     1
 45
0.0
  0
VISUALSTYLE
  5
276
102
{ACAD_REACTORS
330
267
102
}
330
267
100
AcDbVisualStyle
  2
Facepattern
 70
    15
 71
     2
 72
     2
 73
     0
 90
        0
 40
-0.6
 41
-30.0
 62
     5
 63
     7
421
 16777215
 74
     1
 91
        4
 64
     7
 65
   257
 75
     1
175
     1
 42
1.0
 92
        8
 66
     7
 43
1.0
 76
     1
 77
     6
 78
     2
 67
     7
 79
     5
170
     0
171
     0
290
     0
174
     0
 93
        1
 44
0.0
173
     0
291
     1
 45
0.0
  0
VISUALSTYLE
  5
268
102
{ACAD_REACTORS
330
267
102
}
330
267
100
AcDbVisualStyle
  2
Flat
 70
     0
 71
     2
 72
     1
 73
     1
 90
        2
 40
-0.6
 41
30.0
 62
     5
 63
     7
421
 16777215
 74
     0
 91
        4
 64
     7
 65
   257
 75
     1
175
     1
 42
1.0
 92
        8
 66
     7
 43
1.0
 76
     1
 77
     6
 78
     2
 67
     7
 79
     5
170
     0
171
     0
290
     0
174
     0
 93
       13
 44
0.0
173
     0
291
     1
 45
0.0
  0
VISUALSTYLE
  5
269
102
{ACAD_REACTORS
330
267
102
}
330
267
100
AcDbVisualStyle
  2
FlatWithEdges
 70
     1
 71
     2
 72
     1
 73
     1
 90
        2
 40
-0.6
 41
30.0
 62
     5
 63
     7
421
 16777215
 74
     1
 91
        4
 64
     7
 65
   257
 75
     1
175
     1
 42
1.0
 92
        0
 66
   257
 43
1.0
 76
     1
 77
     6
 78
     2
 67
     7
 79
     5
170
     0
171
     0
290
     0
174
     0
 93
       13
 44
0.0
173
     0
291
     1
 45
0.0
  0
VISUALSTYLE
  5
26A
102
{ACAD_REACTORS
330
267
102
}
330
267
100
AcDbVisualStyle
  2
Gouraud
 70
     2
 71
     2
 72
     2
 73
     1
 90
        2
 40
-0.6
 41
30.0
 62
     5
 63
     7
421
 16777215
 74
     0
 91
        4
 64
     7
 65
   257
 75
     1
175
     1
 42
1.0
 92
        0
 66
     7
 43
1.0
 76
     1
 77
     6
 78
     2
 67
     7
 79
     5
170
     0
171
     0
290
     0
174
     0
 93
       13
 44
0.0
173
     0
291
     1
 45
0.0
  0
VISUALSTYLE
  5
26B
102
{ACAD_REACTORS
330
267
102
}
330
267
100
AcDbVisualStyle
  2
GouraudWithEdges
 70
     3
 71
     2
 72
     2
 73
     1
 90
        2
 40
-0.6
 41
30.0
 62
     5
 63
     7
421
 16777215
 74
     1
 91
        4
 64
     7
 65
   257
 75
     1
175
     1
 42
1.0
 92
        0
 66
   257
 43
1.0
 76
     1
 77
     6
 78
     2
 67
     7
 79
     5
170
     0
171
     0
290
     0
174
     0
 93
       13
 44
0.0
173
     0
291
     1
 45
0.0
  0
VISUALSTYLE
  5
8B9
102
{ACAD_REACTORS
330
267
102
}
330
267
100
AcDbVisualStyle
  2
Hidden
 70
     6
 71
     1
 72
     2
 73
     2
 90
        0
 40
0.6
 41
30.0
 62
     5
 63
     7
421
 16777215
 74
     2
 91
        2
 64
     7
 65
   257
 75
     2
175
     1
 42
40.0
 92
        0
 66
   257
 43
1.0
 76
     1
 77
     6
 78
     2
 67
     7
 79
     3
170
     0
171
     0
290
     0
174
     0
 93
        1
 44
0.0
173
     0
291
     0
 45
0.0
  0
VISUALSTYLE
  5
8BA
102
{ACAD_REACTORS
330
267
102
}
330
267
100
AcDbVisualStyle
  2
JitterOff
 70
    20
 71
     2
 72
     2
 73
     0
 90
        0
 40
0.6
 41
30.0
 62
     5
 63
     7
421
 16777215
 74
     1
 91
        4
 64
     7
 65
   257
 75
     1
175
     1
 42
1.0
 92
       10
 66
     7
 43
1.0
 76
     1
 77
     6
 78
     2
 67
     7
 79
     5
170
     0
171
     0
290
     0
174
     0
 93
        1
 44
0.0
173
     0
291
     1
 45
0.0
  0
VISUALSTYLE
  5
275
102
{ACAD_REACTORS
330
267
102
}
330
267
100
AcDbVisualStyle
  2
Linepattern
 70
    14
 71
     2
 72
     2
 73
     0
 90
        0
 40
-0.6
 41
-30.0
 62
     5
 63
     7
421
 16777215
 74
     1
 91
        4
 64
     7
 65
   257
 75
     7
175
     7
 42
1.0
 92
        8
 66
     7
 43
1.0
 76
     1
 77
     6
 78
     2
 67
     7
 79
     5
170
     0
171
     0
290
     0
174
     0
 93
        1
 44
0.0
173
     0
291
     1
 45
0.0
  0
VISUALSTYLE
  5
8BB
102
{ACAD_REACTORS
330
267
102
}
330
267
100
AcDbVisualStyle
  2
OverhangOff
 70
    21
 71
     2
 72
     2
 73
     0
 90
        0
 40
0.6
 41
30.0
 62
     5
 63
     7
421
 16777215
 74
     1
 91
        4
 64
     7
 65
   257
 75
     1
175
     1
 42
1.0
 92
        9
 66
     7
 43
1.0
 76
     1
 77
     6
 78
     2
 67
     7
 79
     5
170
     0
171
     0
290
     0
174
     0
 93
        1
 44
0.0
173
     0
291
     1
 45
0.0
  0
VISUALSTYLE
  5
270
102
{ACAD_REACTORS
330
267
102
}
330
267
100
AcDbVisualStyle
  2
Realistic
 70
     8
 71
     2
 72
     2
 73
     0
 90
        0
 40
-0.6
 41
-30.0
 62
     5
 63
     7
421
 16777215
 74
     1
 91
        0
 64
     7
 65
   257
 75
     1
175
     1
 42
1.0
 92
        8
 66
     8
424
  7895160
 43
1.0
 76
     1
 77
     6
 78
     2
 67
     7
 79
     5
170
     0
171
     0
290
     0
174
     0
 93
       13
 44
0.0
173
     0
291
     0
 45
0.0
  0
VISUALSTYLE
  5
8C1
102
{ACAD_REACTORS
330
267
102
}
330
267
100
AcDbVisualStyle
  2
Shaded
 70
    27
 71
     2
 72
     2
 73
     1
 90
        2
 40
0.6
 41
30.0
 62
     5
 63
     7
421
 16777215
 74
     0
 91
        4
 64
     7
 65
   257
 75
     1
175
     1
 42
1.0
 92
        8
 66
   257
 43
1.0
 76
     1
 77
     6
 78
     2
 67
     8
425
  7895160
 79
     3
170
     0
171
     0
290
     0
174
     0
 93
        5
 44
0.0
173
     0
291
     0
 45
0.0
  0
VISUALSTYLE
  5
8C0
102
{ACAD_REACTORS
330
267
102
}
330
267
100
AcDbVisualStyle
  2
Shaded with edges
 70
    26
 71
     2
 72
     2
 73
     1
 90
        2
 40
0.6
 41
30.0
 62
     5
 63
     7
421
 16777215
 74
     1
 91
       10
 64
     7
 65
   257
 75
     2
175
     1
 42
1.0
 92
        8
 66
   257
 43
1.0
 76
     1
 77
     6
 78
     2
 67
     7
 79
     3
170
     0
171
     0
290
     0
174
     0
 93
        5
 44
0.0
173
     0
291
     0
 45
0.0
  0
VISUALSTYLE
  5
8BD
102
{ACAD_REACTORS
330
267
102
}
330
267
100
AcDbVisualStyle
  2
Shades of Gray
 70
    23
 71
     2
 72
     2
 73
     3
 90
        0
 40
0.6
 41
30.0
 62
     5
 63
     7
421
 16777215
 74
     2
 91
        2
 64
     7
 65
     7
 75
     1
175
     1
 42
40.0
 92
        8
 66
     7
 43
1.0
 76
     1
 77
     6
 78
     2
 67
     7
 79
     3
170
     0
171
     0
290
     0
174
     0
 93
        1
 44
0.0
173
     0
291
     0
 45
0.0
  0
VISUALSTYLE
  5
8BE
102
{ACAD_REACTORS
330
267
102
}
330
267
100
AcDbVisualStyle
  2
Sketchy
 70
    24
 71
     1
 72
     2
 73
     2
 90
        0
 40
0.6
 41
30.0
 62
     5
 63
     7
421
 16777215
 74
     2
 91
        2
 64
     7
 65
     7
 75
     1
175
     1
 42
40.0
 92
       11
 66
     7
 43
1.0
 76
     1
 77
     6
 78
     2
 67
     7
 79
     6
170
     0
171
     0
290
     0
174
     0
 93
        1
 44
0.0
173
     0
291
     0
 45
0.0
  0
VISUALSTYLE
  5
274
102
{ACAD_REACTORS
330
267
102
}
330
267
100
AcDbVisualStyle
  2
Thicken
 70
    13
 71
     2
 72
     2
 73
     0
 90
        0
 40
-0.6
 41
-30.0
 62
     5
 63
     7
421
 16777215
 74
     1
 91
        4
 64
     7
 65
   257
 75
     1
175
     1
 42
1.0
 92
       12
 66
     7
 43
1.0
 76
     1
 77
     6
 78
     2
 67
     7
 79
     5
170
     0
171
     0
290
     0
174
     0
 93
        1
 44
0.0
173
     0
291
     1
 45
0.0
  0
VISUALSTYLE
  5
8B8
102
{ACAD_REACTORS
330
267
102
}
330
267
100
AcDbVisualStyle
  2
Wireframe
 70
     5
 71
     0
 72
     2
 73
     0
 90
        0
 40
0.6
 41
30.0
 62
     5
 63
     7
421
 16777215
 74
     1
 91
        4
 64
     7
 65
   257
 75
     1
175
     1
 42
1.0
 92
        0
 66
   257
 43
1.0
 76
     1
 77
     6
 78
     2
 67
     7
 79
     3
170
     0
171
     0
290
     0
174
     0
 93
        1
 44
0.0
173
     0
291
     0
 45
0.0
  0
VISUALSTYLE
  5
8BF
102
{ACAD_REACTORS
330
267
102
}
330
267
100
AcDbVisualStyle
  2
X-Ray
 70
    25
 71
     2
 72
     2
 73
     1
 90
        1
 40
0.5
 41
30.0
 62
     5
 63
     7
421
 16777215
 74
     1
 91
        0
 64
     7
 65
   257
 75
     1
175
     1
 42
1.0
 92
        8
 66
     7
 43
1.0
 76
     1
 77
     6
 78
     2
 67
     7
 79
     3
170
     0
171
     0
290
     0
174
     0
 93
       13
 44
0.0
173
     0
291
     0
 45
0.0
  0
DICTIONARYVAR
  5
331
102
{ACAD_REACTORS
330
330
102
}
330
330
100
DictionaryVariables
280
     0
  1
1:1
  0
DICTIONARYVAR
  5
8DA
102
{ACAD_REACTORS
330
330
102
}
330
330
100
DictionaryVariables
280
     0
  1
Standard
  0
DICTIONARYVAR
  5
335
102
{ACAD_REACTORS
330
330
102
}
330
330
100
DictionaryVariables
280
     0
  1
Standard
  0
DICTIONARYVAR
  5
C07
102
{ACAD_REACTORS
330
330
102
}
330
330
100
DictionaryVariables
280
     0
  1
ByLayer
  0
DICTIONARYVAR
  5
64A
102
{ACAD_REACTORS
330
330
102
}
330
330
100
DictionaryVariables
280
     0
  1
0
  0
DICTIONARYVAR
  5
5740
102
{ACAD_REACTORS
330
573F
102
}
330
573F
100
DictionaryVariables
280
     0
  1
0.250000
  0
DICTIONARYVAR
  5
573D
102
{ACAD_REACTORS
330
C08
102
}
330
C08
100
DictionaryVariables
280
     0
  1
0.261799
  0
DICTIONARYVAR
  5
573B
102
{ACAD_REACTORS
330
C08
102
}
330
C08
100
DictionaryVariables
280
     0
  1
0.400000
  0
DICTIONARYVAR
  5
573C
102
{ACAD_REACTORS
330
C08
102
}
330
C08
100
DictionaryVariables
280
     0
  1
0.250000
  0
DICTIONARYVAR
  5
573E
102
{ACAD_REACTORS
330
C08
102
}
330
C08
100
DictionaryVariables
280
     0
  1
1
  0
FIELD
  5
BDE
102
{ACAD_REACTORS
330
BE4
102
}
330
BE4
100
AcDbField
  1
_text
  2
{%<\_FldIdx 0>%N}
 90
        1
360
BDF
 97
        0
 91
       63
 92
        0
 94
        8
 95
        2
 96
        0
300

 93
        1
  6
ACFD_FIELDTEXT_CHECKSUM
 93
        2
 90
        2
140
4515.0
 94
        0
300

302

304
ACVALUE_END
  7
ACFD_FIELD_VALUE
 93
        6
 90
        4
  1
{20170731N}
 94
        0
300

302

304
ACVALUE_END
301
{20170731N}
 98
       11
  0
DICTIONARY
  5
52C0
102
{ACAD_REACTORS
330
52BF
102
}
330
52BF
100
AcDbDictionary
281
     1
  0
DICTIONARY
  5
574D
330
279
100
AcDbDictionary
280
     1
281
     1
  3
ACAD_ROUNDTRIP_2008_TABLESTYLE_CELLSTYLEMAP
360
574E
  0
FIELD
  5
BDF
330
BDE
100
AcDbField
  1
AcVar
  2
\AcVar Date \f "yyyyMMdd"
 90
        0
 97
        0
 91
       63
 92
        0
 94
        8
 95
        2
 96
        0
300

 93
        1
  6
Variable
 93
        2
 90
        4
  1
Date
 94
        0
300

302

304
ACVALUE_END
  7
ACFD_FIELD_VALUE
 93
        6
 90
        8
 92
       16
310
E107070000001F000B00200023000000
 94
        0
300
yyyyMMdd
302

304
ACVALUE_END
301
20170731
 98
        8
  0
CELLSTYLEMAP
  5
574E
102
{ACAD_REACTORS
330
574D
102
}
330
574D
100
AcDbCellStyleMap
 90
        3
300
CELLSTYLE
  1
TABLEFORMAT_BEGIN
 90
        5
170
     1
 91
        0
 92
    32768
 62
   257
 93
        1
300
CONTENTFORMAT
  1
CONTENTFORMAT_BEGIN
 90
        0
 91
        0
 92
        4
 93
        0
300

 40
0.0
140
1.0
 94
        5
 62
     0
340
17
144
6.0
309
CONTENTFORMAT_END
171
     1
301
MARGIN
  1
CELLMARGIN_BEGIN
 40
0.06
 40
0.06
 40
0.06
 40
0.06
 40
0.18
 40
0.18
309
CELLMARGIN_END
 94
        6
 95
        1
302
GRIDFORMAT
  1
GRIDFORMAT_BEGIN
 90
        0
 91
        1
 62
     0
 92
       -2
340
0
 93
        0
 40
0.045
309
GRIDFORMAT_END
 95
        2
302
GRIDFORMAT
  1
GRIDFORMAT_BEGIN
 90
        0
 91
        1
 62
     0
 92
       -2
340
0
 93
        0
 40
0.045
309
GRIDFORMAT_END
 95
        4
302
GRIDFORMAT
  1
GRIDFORMAT_BEGIN
 90
        0
 91
        1
 62
     0
 92
       -2
340
0
 93
        0
 40
0.045
309
GRIDFORMAT_END
 95
        8
302
GRIDFORMAT
  1
GRIDFORMAT_BEGIN
 90
        0
 91
        1
 62
     0
 92
       -2
340
0
 93
        0
 40
0.045
309
GRIDFORMAT_END
 95
       16
302
GRIDFORMAT
  1
GRIDFORMAT_BEGIN
 90
        0
 91
        1
 62
     0
 92
       -2
340
0
 93
        0
 40
0.045
309
GRIDFORMAT_END
 95
       32
302
GRIDFORMAT
  1
GRIDFORMAT_BEGIN
 90
        0
 91
        1
 62
     0
 92
       -2
340
0
 93
        0
 40
0.045
309
GRIDFORMAT_END
309
TABLEFORMAT_END
  1
CELLSTYLE_BEGIN
 90
        1
 91
        1
300
_TITLE
309
CELLSTYLE_END
300
CELLSTYLE
  1
TABLEFORMAT_BEGIN
 90
        5
170
     1
 91
        0
 92
        0
 62
   257
 93
        1
300
CONTENTFORMAT
  1
CONTENTFORMAT_BEGIN
 90
        0
 91
        0
 92
        4
 93
        0
300

 40
0.0
140
1.0
 94
        5
 62
     0
340
17
144
4.5
309
CONTENTFORMAT_END
171
     1
301
MARGIN
  1
CELLMARGIN_BEGIN
 40
0.06
 40
0.06
 40
0.06
 40
0.06
 40
0.18
 40
0.18
309
CELLMARGIN_END
 94
        6
 95
        1
302
GRIDFORMAT
  1
GRIDFORMAT_BEGIN
 90
        0
 91
        1
 62
     0
 92
       -2
340
0
 93
        0
 40
0.045
309
GRIDFORMAT_END
 95
        2
302
GRIDFORMAT
  1
GRIDFORMAT_BEGIN
 90
        0
 91
        1
 62
     0
 92
       -2
340
0
 93
        0
 40
0.045
309
GRIDFORMAT_END
 95
        4
302
GRIDFORMAT
  1
GRIDFORMAT_BEGIN
 90
        0
 91
        1
 62
     0
 92
       -2
340
0
 93
        0
 40
0.045
309
GRIDFORMAT_END
 95
        8
302
GRIDFORMAT
  1
GRIDFORMAT_BEGIN
 90
        0
 91
        1
 62
     0
 92
       -2
340
0
 93
        0
 40
0.045
309
GRIDFORMAT_END
 95
       16
302
GRIDFORMAT
  1
GRIDFORMAT_BEGIN
 90
        0
 91
        1
 62
     0
 92
       -2
340
0
 93
        0
 40
0.045
309
GRIDFORMAT_END
 95
       32
302
GRIDFORMAT
  1
GRIDFORMAT_BEGIN
 90
        0
 91
        1
 62
     0
 92
       -2
340
0
 93
        0
 40
0.045
309
GRIDFORMAT_END
309
TABLEFORMAT_END
  1
CELLSTYLE_BEGIN
 90
        2
 91
        1
300
_HEADER
309
CELLSTYLE_END
300
CELLSTYLE
  1
TABLEFORMAT_BEGIN
 90
        5
170
     1
 91
        0
 92
        0
 62
   257
 93
        1
300
CONTENTFORMAT
  1
CONTENTFORMAT_BEGIN
 90
        0
 91
        0
 92
        4
 93
        0
300

 40
0.0
140
1.0
 94
        2
 62
     0
340
17
144
4.5
309
CONTENTFORMAT_END
171
     1
301
MARGIN
  1
CELLMARGIN_BEGIN
 40
0.06
 40
0.06
 40
0.06
 40
0.06
 40
0.18
 40
0.18
309
CELLMARGIN_END
 94
        6
 95
        1
302
GRIDFORMAT
  1
GRIDFORMAT_BEGIN
 90
        0
 91
        1
 62
     0
 92
       -2
340
0
 93
        0
 40
0.045
309
GRIDFORMAT_END
 95
        2
302
GRIDFORMAT
  1
GRIDFORMAT_BEGIN
 90
        0
 91
        1
 62
     0
 92
       -2
340
0
 93
        0
 40
0.045
309
GRIDFORMAT_END
 95
        4
302
GRIDFORMAT
  1
GRIDFORMAT_BEGIN
 90
        0
 91
        1
 62
     0
 92
       -2
340
0
 93
        0
 40
0.045
309
GRIDFORMAT_END
 95
        8
302
GRIDFORMAT
  1
GRIDFORMAT_BEGIN
 90
        0
 91
        1
 62
     0
 92
       -2
340
0
 93
        0
 40
0.045
309
GRIDFORMAT_END
 95
       16
302
GRIDFORMAT
  1
GRIDFORMAT_BEGIN
 90
        0
 91
        1
 62
     0
 92
       -2
340
0
 93
        0
 40
0.045
309
GRIDFORMAT_END
 95
       32
302
GRIDFORMAT
  1
GRIDFORMAT_BEGIN
 90
        0
 91
        1
 62
     0
 92
       -2
340
0
 93
        0
 40
0.045
309
GRIDFORMAT_END
309
TABLEFORMAT_END
  1
CELLSTYLE_BEGIN
 90
        3
 91
        2
300
_DATA
309
CELLSTYLE_END
  0
ENDSEC
  0
EOF
