  0
SECTION
  2
HEADER
  9
$ACADVER
  1
AC1021
  9
$ACADMAINTVER
 70
    25
  9
$DWGCODEPAGE
  3
ANSI_932
  9
$LASTSAVEDBY
  1
T-HOWE-PC
  9
$INSBASE
 10
0.0
 20
0.0
 30
0.0
  9
$EXTMIN
 10
0.0
 20
0.0
 30
0.0
  9
$EXTMAX
 10
2100.0
 20
2970.0
 30
17.49760566173007
  9
$LIMMIN
 10
0.0
 20
0.0
  9
$LIMMAX
 10
2100.0
 20
2970.0
  9
$ORTHOMODE
 70
     0
  9
$REGENMODE
 70
     1
  9
$FILLMODE
 70
     1
  9
$QTEXTMODE
 70
     0
  9
$MIRRTEXT
 70
     1
  9
$LTSCALE
 40
3.0
  9
$ATTMODE
 70
     1
  9
$TEXTSIZE
 40
533.0403732820173
  9
$TRACEWID
 40
1.0
  9
$TEXTSTYLE
  7
Standard
  9
$CLAYER
  8
Dim
  9
$CELTYPE
  6
ByLayer
  9
$CECOLOR
 62
   256
  9
$CELTSCALE
 40
1.0
  9
$DISPSILH
 70
     0
  9
$DIMSCALE
 40
1.0
  9
$DIMASZ
 40
9.999389648437498
  9
$DIMEXO
 40
25.0
  9
$DIMDLI
 40
0.9999999999999999
  9
$DIMRND
 40
0.0
  9
$DIMDLE
 40
0.0
  9
$DIMEXE
 40
0.0
  9
$DIMTP
 40
0.0
  9
$DIMTM
 40
0.0
  9
$DIMTXT
 40
24.4326171875
  9
$DIMCEN
 40
0.0
  9
$DIMTSZ
 40
0.0
  9
$DIMTOL
 70
     0
  9
$DIMLIM
 70
     0
  9
$DIMTIH
 70
     0
  9
$DIMTOH
 70
     0
  9
$DIMSE1
 70
     0
  9
$DIMSE2
 70
     0
  9
$DIMTAD
 70
     1
  9
$DIMZIN
 70
    11
  9
$DIMBLK
  1
DOT
  9
$DIMASO
 70
     1
  9
$DIMSHO
 70
     1
  9
$DIMPOST
  1
<>
  9
$DIMAPOST
  1
[]
  9
$DIMALT
 70
     0
  9
$DIMALTD
 70
     1
  9
$DIMALTF
 40
1.0
  9
$DIMLFAC
 40
1.0
  9
$DIMTOFL
 70
     1
  9
$DIMTVP
 40
0.0
  9
$DIMTIX
 70
     1
  9
$DIMSOXD
 70
     0
  9
$DIMSAH
 70
     0
  9
$DIMBLK1
  1

  9
$DIMBLK2
  1

  9
$DIMSTYLE
  2
tform線あり
  9
$DIMCLRD
 70
     0
  9
$DIMCLRE
 70
     0
  9
$DIMCLRT
 70
     0
  9
$DIMTFAC
 40
0.8
  9
$DIMGAP
 40
10.0
  9
$DIMJUST
 70
     0
  9
$DIMSD1
 70
     0
  9
$DIMSD2
 70
     0
  9
$DIMTOLJ
 70
     1
  9
$DIMTZIN
 70
    11
  9
$DIMALTZ
 70
    11
  9
$DIMALTTZ
 70
    11
  9
$DIMUPT
 70
     0
  9
$DIMDEC
 70
     1
  9
$DIMTDEC
 70
     1
  9
$DIMALTU
 70
     2
  9
$DIMALTTD
 70
     2
  9
$DIMTXSTY
  7
ＭＳ ゴシック
  9
$DIMAUNIT
 70
     0
  9
$DIMADEC
 70
     2
  9
$DIMALTRND
 40
0.0
  9
$DIMAZIN
 70
     0
  9
$DIMDSEP
 70
    46
  9
$DIMATFIT
 70
     0
  9
$DIMFRAC
 70
     2
  9
$DIMLDRBLK
  1
DOT
  9
$DIMLUNIT
 70
     2
  9
$DIMLWD
 70
    -2
  9
$DIMLWE
 70
    -2
  9
$DIMTMOVE
 70
     0
  9
$DIMFXL
 40
1.0
  9
$DIMFXLON
 70
     0
  9
$DIMJOGANG
 40
0.7853981633974483
  9
$DIMTFILL
 70
     0
  9
$DIMTFILLCLR
 70
     0
  9
$DIMARCSYM
 70
     0
  9
$DIMLTYPE
  6

  9
$DIMLTEX1
  6

  9
$DIMLTEX2
  6

  9
$LUNITS
 70
     2
  9
$LUPREC
 70
     0
  9
$SKETCHINC
 40
0.1
  9
$FILLETRAD
 40
0.0
  9
$AUNITS
 70
     0
  9
$AUPREC
 70
     0
  9
$MENU
  1
acad
  9
$ELEVATION
 40
0.0
  9
$PELEVATION
 40
0.0
  9
$THICKNESS
 40
0.0
  9
$LIMCHECK
 70
     0
  9
$CHAMFERA
 40
0.0
  9
$CHAMFERB
 40
0.0
  9
$CHAMFERC
 40
0.0
  9
$CHAMFERD
 40
0.0
  9
$SKPOLY
 70
     0
  9
$TDCREATE
 40
2447893.375
  9
$TDUCREATE
 40
0.0
  9
$TDUPDATE
 40
2459485.723346146
  9
$TDUUPDATE
 40
2459485.348346146
  9
$TDINDWG
 40
0.0085661458
  9
$TDUSRTIMER
 40
0.0003820949
  9
$USRTIMER
 70
     1
  9
$ANGBASE
 50
0.0
  9
$ANGDIR
 70
     0
  9
$PDMODE
 70
     1
  9
$PDSIZE
 40
-2.0
  9
$PLINEWID
 40
0.0
  9
$SPLFRAME
 70
     0
  9
$SPLINETYPE
 70
     6
  9
$SPLINESEGS
 70
     8
  9
$HANDSEED
  5
5A0F
  9
$SURFTAB1
 70
     6
  9
$SURFTAB2
 70
     6
  9
$SURFTYPE
 70
     6
  9
$SURFU
 70
     6
  9
$SURFV
 70
     6
  9
$UCSBASE
  2

  9
$UCSNAME
  2

  9
$UCSORG
 10
0.0
 20
0.0
 30
0.0
  9
$UCSXDIR
 10
1.0
 20
0.0
 30
0.0
  9
$UCSYDIR
 10
0.0
 20
1.0
 30
0.0
  9
$UCSORTHOREF
  2

  9
$UCSORTHOVIEW
 70
     0
  9
$UCSORGTOP
 10
0.0
 20
0.0
 30
0.0
  9
$UCSORGBOTTOM
 10
0.0
 20
0.0
 30
0.0
  9
$UCSORGLEFT
 10
0.0
 20
0.0
 30
0.0
  9
$UCSORGRIGHT
 10
0.0
 20
0.0
 30
0.0
  9
$UCSORGFRONT
 10
0.0
 20
0.0
 30
0.0
  9
$UCSORGBACK
 10
0.0
 20
0.0
 30
0.0
  9
$PUCSBASE
  2

  9
$PUCSNAME
  2

  9
$PUCSORG
 10
0.0
 20
0.0
 30
0.0
  9
$PUCSXDIR
 10
1.0
 20
0.0
 30
0.0
  9
$PUCSYDIR
 10
0.0
 20
1.0
 30
0.0
  9
$PUCSORTHOREF
  2

  9
$PUCSORTHOVIEW
 70
     0
  9
$PUCSORGTOP
 10
0.0
 20
0.0
 30
0.0
  9
$PUCSORGBOTTOM
 10
0.0
 20
0.0
 30
0.0
  9
$PUCSORGLEFT
 10
0.0
 20
0.0
 30
0.0
  9
$PUCSORGRIGHT
 10
0.0
 20
0.0
 30
0.0
  9
$PUCSORGFRONT
 10
0.0
 20
0.0
 30
0.0
  9
$PUCSORGBACK
 10
0.0
 20
0.0
 30
0.0
  9
$USERI1
 70
     0
  9
$USERI2
 70
     0
  9
$USERI3
 70
     0
  9
$USERI4
 70
     0
  9
$USERI5
 70
     0
  9
$USERR1
 40
0.0
  9
$USERR2
 40
0.0
  9
$USERR3
 40
0.0
  9
$USERR4
 40
0.0
  9
$USERR5
 40
0.0
  9
$WORLDVIEW
 70
     1
  9
$SHADEDGE
 70
     3
  9
$SHADEDIF
 70
    70
  9
$TILEMODE
 70
     1
  9
$MAXACTVP
 70
    64
  9
$PINSBASE
 10
0.0
 20
0.0
 30
0.0
  9
$PLIMCHECK
 70
     0
  9
$PEXTMIN
 10
0.0
 20
0.0
 30
0.0
  9
$PEXTMAX
 10
0.0
 20
0.0
 30
0.0
  9
$PLIMMIN
 10
-7.5
 20
-20.0
  9
$PLIMMAX
 10
412.5
 20
277.0
  9
$UNITMODE
 70
     0
  9
$VISRETAIN
 70
     0
  9
$PLINEGEN
 70
     1
  9
$PSLTSCALE
 70
     0
  9
$TREEDEPTH
 70
  3020
  9
$CMLSTYLE
  2
Standard
  9
$CMLJUST
 70
     0
  9
$CMLSCALE
 40
1.0
  9
$PROXYGRAPHICS
 70
     0
  9
$MEASUREMENT
 70
     1
  9
$CELWEIGHT
370
    -1
  9
$ENDCAPS
280
     0
  9
$JOINSTYLE
280
     0
  9
$LWDISPLAY
290
     1
  9
$INSUNITS
 70
     4
  9
$HYPERLINKBASE
  1

  9
$STYLESHEET
  1

  9
$XEDIT
290
     1
  9
$CEPSNTYPE
380
     0
  9
$PSTYLEMODE
290
     1
  9
$FINGERPRINTGUID
  2

  9
$VERSIONGUID
  2

  9
$EXTNAMES
290
     1
  9
$PSVPSCALE
 40
0.0
  9
$OLESTARTUP
290
     0
  9
$SORTENTS
280
   127
  9
$INDEXCTL
280
     0
  9
$HIDETEXT
280
     1
  9
$XCLIPFRAME
290
     0
  9
$HALOGAP
280
     0
  9
$OBSCOLOR
 70
   257
  9
$OBSLTYPE
280
     0
  9
$INTERSECTIONDISPLAY
280
     0
  9
$INTERSECTIONCOLOR
 70
   257
  9
$DIMASSOC
280
     2
  9
$PROJECTNAME
  1

  9
$CAMERADISPLAY
290
     0
  9
$LENSLENGTH
 40
50.0
  9
$CAMERAHEIGHT
 40
0.0
  9
$STEPSPERSEC
 40
2.0
  9
$STEPSIZE
 40
6.0
  9
$3DDWFPREC
 40
2.0
  9
$PSOLWIDTH
 40
0.25
  9
$PSOLHEIGHT
 40
4.0
  9
$LOFTANG1
 40
1.570796326794897
  9
$LOFTANG2
 40
1.570796326794897
  9
$LOFTMAG1
 40
0.0
  9
$LOFTMAG2
 40
0.0
  9
$LOFTPARAM
 70
     7
  9
$LOFTNORMALS
280
     1
  9
$LATITUDE
 40
37.795
  9
$LONGITUDE
 40
-122.394
  9
$NORTHDIRECTION
 40
0.0
  9
$TIMEZONE
 70
 -8000
  9
$LIGHTGLYPHDISPLAY
280
     1
  9
$TILEMODELIGHTSYNCH
280
     1
  9
$SOLIDHIST
280
     1
  9
$SHOWHIST
280
     1
  9
$DWFFRAME
280
     2
  9
$DGNFRAME
280
     2
  9
$REALWORLDSCALE
290
     1
  9
$INTERFERECOLOR
 62
   256
  9
$CSHADOW
280
     0
  9
$SHADOWPLANELOCATION
 40
0.0
  0
ENDSEC
  0
SECTION
  2
CLASSES
  0
CLASS
  1
LWPOLYLINE
  2
AcDbPolyline
  3
ObjectDBX Classes
 90
        0
 91
        1
280
     0
281
     1
  0
CLASS
  1
IMAGE
  2
AcDbRasterImage
  3
ISM
 90
      127
 91
        4
280
     0
281
     1
  0
CLASS
  1
OLE2FRAME
  2
AcDbOle2Frame
  3
ObjectDBX Classes
 90
        0
 91
        1
280
     0
281
     1
  0
CLASS
  1
HATCH
  2
AcDbHatch
  3
ObjectDBX Classes
 90
        0
 91
        1
280
     0
281
     1
  0
CLASS
  1
DICTIONARYVAR
  2
AcDbDictionaryVar
  3
ObjectDBX Classes
 90
        0
 91
        3
280
     0
281
     0
  0
CLASS
  1
RASTERVARIABLES
  2
AcDbRasterVariables
  3
ISM
 90
        0
 91
        3
280
     0
281
     0
  0
CLASS
  1
IMAGEDEF
  2
AcDbRasterImageDef
  3
ISM
 90
        0
 91
        3
280
     0
281
     0
  0
CLASS
  1
IMAGEDEF_REACTOR
  2
AcDbRasterImageDefReactor
  3
ISM
 90
        1
 91
        3
280
     0
281
     0
  0
CLASS
  1
IDBUFFER
  2
AcDbIdBuffer
  3
ObjectDBX Classes
 90
        0
 91
        3
280
     0
281
     0
  0
CLASS
  1
SPATIAL_FILTER
  2
AcDbSpatialFilter
  3
ObjectDBX Classes
 90
        0
 91
        3
280
     0
281
     0
  0
CLASS
  1
XRECORD
  2
AcDbXrecord
  3
ObjectDBX Classes
 90
        0
 91
        1
280
     0
281
     0
  0
CLASS
  1
SORTENTSTABLE
  2
AcDbSortentsTable
  3
ObjectDBX Classes
 90
        0
 91
        3
280
     0
281
     0
  0
CLASS
  1
LAYER_INDEX
  2
AcDbLayerIndex
  3
ObjectDBX Classes
 90
        0
 91
        3
280
     0
281
     0
  0
CLASS
  1
SPATIAL_INDEX
  2
AcDbSpatialIndex
  3
AutoCAD 2000
 90
        0
 91
        3
280
     0
281
     0
  0
CLASS
  1
OBJECT_PTR
  2
CAseDLPNTableRecord
  3
ASE-LPNTableRecord
 90
        1
 91
        3
280
     0
281
     0
  0
CLASS
  1
LAYOUT
  2
AcDbLayout
  3
ObjectDBX Classes
 90
        0
 91
        1
280
     0
281
     0
  0
CLASS
  1
PLOTSETTINGS
  2
AcDbPlotSettings
  3
ObjectDBX Classes
 90
        0
 91
        3
280
     0
281
     0
  0
CLASS
  1
ACDBDICTIONARYWDFLT
  2
AcDbDictionaryWithDefault
  3
ObjectDBX Classes
 90
        0
 91
        3
280
     0
281
     0
  0
CLASS
  1
ACDBPLACEHOLDER
  2
AcDbPlaceHolder
  3
ObjectDBX Classes
 90
        0
 91
        1
280
     0
281
     0
  0
CLASS
  1
SCALE
  2
AcDbScale
  3
ObjectDBX Classes
 90
     1153
 91
        3
280
     0
281
     0
  0
CLASS
  1
MATERIAL
  2
AcDbMaterial
  3
ObjectDBX Classes
 90
     1153
 91
        3
280
     0
281
     0
  0
CLASS
  1
VISUALSTYLE
  2
AcDbVisualStyle
  3
ObjectDBX Classes
 90
     4095
 91
        3
280
     0
281
     0
  0
CLASS
  1
TABLESTYLE
  2
AcDbTableStyle
  3
ObjectDBX Classes
 90
     4095
 91
        3
280
     0
281
     0
  0
CLASS
  1
DIMASSOC
  2
AcDbDimAssoc
  3
"AcDbDimAssoc|Product Desc:     AcDim ARX App For Dimension|Company:          Autodesk, Inc.|WEB Address:      www.autodesk.com"
 90
        0
 91
        3
280
     0
281
     0
  0
CLASS
  1
CELLSTYLEMAP
  2
AcDbCellStyleMap
  3
ObjectDBX Classes
 90
     1152
 91
        3
280
     0
281
     0
  0
CLASS
  1
SUN
  2
AcDbSun
  3
SCENEOE
 90
     1153
 91
        3
280
     0
281
     0
  0
CLASS
  1
MLEADERSTYLE
  2
AcDbMLeaderStyle
  3
ACDB_MLEADERSTYLE_CLASS
 90
     4095
 91
        3
280
     0
281
     0
  0
CLASS
  1
FIELD
  2
AcDbField
  3
ObjectDBX Classes
 90
     1152
 91
        3
280
     0
281
     0
  0
CLASS
  1
FIELDLIST
  2
AcDbFieldList
  3
ObjectDBX Classes
 90
     1152
 91
        3
280
     0
281
     0
  0
CLASS
  1
ACDB_ALDIMOBJECTCONTEXTDATA_CLASS
  2
AcDbAlignedDimensionObjectContextData
  3
ObjectDBX Classes
 90
     1153
 91
        3
280
     0
281
     0
  0
ENDSEC
  0
SECTION
  2
TABLES
  0
TABLE
  2
VPORT
  5
7
330
0
100
AcDbSymbolTable
 70
     1
  0
VPORT
  5
15
330
7
100
AcDbSymbolTableRecord
100
AcDbViewportTableRecord
  2
*ACTIVE
 70
     0
 10
0.0
 20
0.0
 11
1.0
 21
1.0
 12
672.9525617540362
 22
1782.612370234519
 13
0.0
 23
0.0
 14
1.0
 24
1.0
 15
0.0
 25
0.0
 16
0.0
 26
0.0
 36
1.0
 17
377.0474382459638
 27
-297.6123702345187
 37
0.0
 40
3029.4
 41
2.27027027027027
 42
50.0
 43
0.0
 44
0.0
 50
0.0
 51
0.0
 71
    16
 72
  2000
 73
     1
 74
     1
 75
     0
 76
     0
 77
     0
 78
     0
281
     0
 65
     1
110
0.0
120
0.0
130
0.0
111
1.0
121
0.0
131
0.0
112
0.0
122
1.0
132
0.0
 79
     0
146
0.0
348
26C
 60
     3
 61
     5
292
     1
282
     1
141
0.0
142
0.0
 63
   256
361
8C2
  0
ENDTAB
  0
TABLE
  2
LTYPE
  5
4
330
0
100
AcDbSymbolTable
 70
     5
  0
LTYPE
  5
11
330
4
100
AcDbSymbolTableRecord
100
AcDbLinetypeTableRecord
  2
ByBlock
 70
     0
  3

 72
    65
 73
     0
 40
0.0
  0
LTYPE
  5
12
330
4
100
AcDbSymbolTableRecord
100
AcDbLinetypeTableRecord
  2
ByLayer
 70
     0
  3

 72
    65
 73
     0
 40
0.0
  0
LTYPE
  5
13
330
4
100
AcDbSymbolTableRecord
100
AcDbLinetypeTableRecord
  2
Continuous
 70
     0
  3
Solid line
 72
    65
 73
     0
 40
0.0
  0
LTYPE
  5
8D4
330
4
100
AcDbSymbolTableRecord
100
AcDbLinetypeTableRecord
  2
HIDDEN
 70
     0
  3
Hidden _ _ _ _ _ _ _ _ _ _ _ _ _ _ _ _ _ _ _ _ 
 72
    65
 73
     2
 40
9.524999999999999
 49
6.35
 74
     0
 49
-3.175
 74
     0
  0
LTYPE
  5
BF2
330
4
100
AcDbSymbolTableRecord
100
AcDbLinetypeTableRecord
  2
BORDER
 70
     0
  3
Border __  __  . __  __  . __  __  . __  __  . 
 72
    65
 73
     6
 40
44.45
 49
12.7
 74
     0
 49
-6.35
 74
     0
 49
12.7
 74
     0
 49
-6.35
 74
     0
 49
0.0
 74
     0
 49
-6.35
 74
     0
  0
LTYPE
  5
50D0
330
4
100
AcDbSymbolTableRecord
100
AcDbLinetypeTableRecord
  2
CENTER2
 70
     0
  3
Center (.5x) ___ _ ___ _ ___ _ ___ _ ___ _ ___
 72
    65
 73
     4
 40
28.575
 49
19.05
 74
     0
 49
-3.175
 74
     0
 49
3.175
 74
     0
 49
-3.175
 74
     0
  0
LTYPE
  5
53E7
330
4
100
AcDbSymbolTableRecord
100
AcDbLinetypeTableRecord
  2
CENTER
 70
     0
  3
 Center _____  _  _____  _  _____  _  _____  _ 
 72
    65
 73
     4
 40
50.8
 49
31.75
 74
     0
 49
-6.35
 74
     0
 49
6.35
 74
     0
 49
-6.35
 74
     0
  0
ENDTAB
  0
TABLE
  2
LAYER
  5
2
102
{ACAD_XDICTIONARY
360
2E1
102
}
330
0
100
AcDbSymbolTable
 70
     9
  0
LAYER
  5
14
330
2
100
AcDbSymbolTableRecord
100
AcDbLayerTableRecord
  2
0
 70
     0
 62
     7
  6
Continuous
370
    -3
390
1D
347
266
  0
LAYER
  5
4A
330
2
100
AcDbSymbolTableRecord
100
AcDbLayerTableRecord
  2
Defpoints
 70
     0
 62
     7
  6
Continuous
290
     0
370
    20
390
1D
347
266
  0
LAYER
  5
4B
330
2
100
AcDbSymbolTableRecord
100
AcDbLayerTableRecord
  2
template
 70
     0
 62
     7
  6
Continuous
370
    20
390
1D
347
266
  0
LAYER
  5
382
330
2
100
AcDbSymbolTableRecord
100
AcDbLayerTableRecord
  2
レイヤー 1
 70
     0
 62
     7
  6
Continuous
370
    -3
390
1D
347
266
  0
LAYER
  5
5C4
330
2
100
AcDbSymbolTableRecord
100
AcDbLayerTableRecord
  2
HIDDEN
 70
     0
 62
   253
  6
HIDDEN
370
    13
390
1D
347
266
1001
AcAecLayerStandard
1000

1000

  0
LAYER
  5
5EB
330
2
100
AcDbSymbolTableRecord
100
AcDbLayerTableRecord
  2
Dim
 70
     0
 62
     3
  6
Continuous
370
    13
390
1D
347
266
1001
AcAecLayerStandard
1000

1000

  0
LAYER
  5
BF1
330
2
100
AcDbSymbolTableRecord
100
AcDbLayerTableRecord
  2
PRINT BORDER
 70
     0
 62
     4
  6
BORDER
290
     0
370
    20
390
1D
347
266
1001
AcAecLayerStandard
1000

1000

  0
LAYER
  5
1BD2
330
2
100
AcDbSymbolTableRecord
100
AcDbLayerTableRecord
  2
retino
 70
     0
 62
   253
  6
Continuous
370
     0
390
1D
347
266
  0
LAYER
  5
50CC
330
2
100
AcDbSymbolTableRecord
100
AcDbLayerTableRecord
  2
MODEL
 70
     0
 62
     7
  6
Continuous
370
    20
390
1D
347
266
  0
ENDTAB
  0
TABLE
  2
STYLE
  5
3
330
0
100
AcDbSymbolTable
 70
     2
  0
STYLE
  5
17
330
3
100
AcDbSymbolTableRecord
100
AcDbTextStyleTableRecord
  2
Standard
 70
     0
 40
0.0
 41
1.0
 50
0.0
 71
     0
 42
533.0403732820173
  3
txt
  4
BIGFONT.SHX
  0
STYLE
  5
39
330
3
100
AcDbSymbolTableRecord
100
AcDbTextStyleTableRecord
  2
ＭＳ ゴシック
 70
     0
 40
0.0
 41
1.0
 50
0.0
 71
     0
 42
533.0403732820173
  3
msgothic.ttc
  4
ＭＳ ゴシック
1001
ACAD
1000
ＭＳ ゴシック
1071
        0
  0
ENDTAB
  0
TABLE
  2
VIEW
  5
5
330
0
100
AcDbSymbolTable
 70
     0
  0
ENDTAB
  0
TABLE
  2
UCS
  5
6
330
0
100
AcDbSymbolTable
 70
     0
  0
ENDTAB
  0
TABLE
  2
APPID
  5
8
330
0
100
AcDbSymbolTable
 70
    15
  0
APPID
  5
16
330
8
100
AcDbSymbolTableRecord
100
AcDbRegAppTableRecord
  2
ACAD
 70
     0
  0
APPID
  5
5C5
330
8
100
AcDbSymbolTableRecord
100
AcDbRegAppTableRecord
  2
AcAecLayerStandard
 70
     0
  0
APPID
  5
913
330
8
100
AcDbSymbolTableRecord
100
AcDbRegAppTableRecord
  2
ACAD_DSTYLE_DIMBREAK
 70
     0
  0
APPID
  5
914
330
8
100
AcDbSymbolTableRecord
100
AcDbRegAppTableRecord
  2
ACAD_DSTYLE_DIMJAG
 70
     0
  0
APPID
  5
915
330
8
100
AcDbSymbolTableRecord
100
AcDbRegAppTableRecord
  2
ACAD_DSTYLE_DIMTALN
 70
     0
  0
APPID
  5
E4F
330
8
100
AcDbSymbolTableRecord
100
AcDbRegAppTableRecord
  2
ACAD_MLEADERVER
 70
     0
  0
APPID
  5
E79
330
8
100
AcDbSymbolTableRecord
100
AcDbRegAppTableRecord
  2
ACAD_PSEXT
 70
     0
  0
APPID
  5
E7A
330
8
100
AcDbSymbolTableRecord
100
AcDbRegAppTableRecord
  2
ACAD_NAV_VCDISPLAY
 70
     0
  0
APPID
  5
166E
330
8
100
AcDbSymbolTableRecord
100
AcDbRegAppTableRecord
  2
AcadAnnotative
 70
     0
  0
APPID
  5
166F
330
8
100
AcDbSymbolTableRecord
100
AcDbRegAppTableRecord
  2
GradientColor1ACI
 70
     0
  0
APPID
  5
1670
330
8
100
AcDbSymbolTableRecord
100
AcDbRegAppTableRecord
  2
GradientColor2ACI
 70
     0
  0
APPID
  5
20FE
330
8
100
AcDbSymbolTableRecord
100
AcDbRegAppTableRecord
  2
AcLayerTools
 70
     0
  0
APPID
  5
27AB
330
8
100
AcDbSymbolTableRecord
100
AcDbRegAppTableRecord
  2
ACAD_DSTYLE_DIMRADIAL_EXTENSION
 70
     0
  0
APPID
  5
4377
330
8
100
AcDbSymbolTableRecord
100
AcDbRegAppTableRecord
  2
RAK
 70
     0
  0
APPID
  5
5A0B
330
8
100
AcDbSymbolTableRecord
100
AcDbRegAppTableRecord
  2
PLOTTRANSPARENCY
 70
     0
  0
ENDTAB
  0
TABLE
  2
DIMSTYLE
  5
9
330
0
100
AcDbSymbolTable
 70
     3
100
AcDbDimStyleTable
  0
DIMSTYLE
105
18
330
9
100
AcDbSymbolTableRecord
100
AcDbDimStyleTableRecord
  2
Standard
 70
     0
178
     0
340
17
  0
DIMSTYLE
105
56
102
{ACAD_REACTORS
330
55CC
330
55CD
330
55CE
330
55CF
330
55D0
330
55FD
330
55FE
330
5601
330
5602
330
560C
330
560D
330
560E
330
5611
330
5614
330
5623
330
5624
330
5627
330
5628
102
}
330
9
100
AcDbSymbolTableRecord
100
AcDbDimStyleTableRecord
  2
tform線あり
 70
     0
  3
<>
  4
[]
 41
9.999389648437498
 42
25.0
 43
0.9999999999999999
 44
0.0
 73
     0
 74
     0
 77
     1
 78
    11
140
24.4326171875
141
0.0
143
1.0
146
0.8
147
10.0
171
     1
172
     1
174
     1
178
     0
179
     2
271
     1
272
     1
276
     2
284
    11
285
    11
286
    11
289
     0
340
39
341
4E
342
4E
  0
DIMSTYLE
105
50D1
330
9
100
AcDbSymbolTableRecord
100
AcDbDimStyleTableRecord
  2
tfrom線あり
 70
     0
  3
<>
  4
[]
 41
3.0
 42
10.0
 43
0.9999999999999999
 44
0.0
 73
     0
 74
     0
 77
     1
 78
    11
140
12.0
141
0.0
143
1.0
147
10.0
171
     1
174
     1
178
     0
179
     2
271
     0
272
     1
276
     2
284
    11
285
    11
286
    11
289
     0
340
39
341
4E
342
4E
  0
ENDTAB
  0
TABLE
  2
BLOCK_RECORD
  5
1
330
0
100
AcDbSymbolTable
 70
    76
  0
BLOCK_RECORD
  5
A
330
1
100
AcDbSymbolTableRecord
100
AcDbBlockTableRecord
  2
*MODEL_SPACE
340
20
 70
     0
280
     1
281
     0
  0
BLOCK_RECORD
  5
B
330
1
100
AcDbSymbolTableRecord
100
AcDbBlockTableRecord
  2
*PAPER_SPACE
340
21
 70
     0
280
     1
281
     0
  0
BLOCK_RECORD
  5
4E
330
1
100
AcDbSymbolTableRecord
100
AcDbBlockTableRecord
  2
_DOT
340
0
102
{BLKREFS
331
4FFE
331
4FFF
331
5012
331
5013
331
505D
331
505E
331
5085
331
5086
331
50A9
331
50AA
331
5174
331
5175
331
5181
331
5182
331
518E
331
518F
331
519E
331
519F
331
51AB
331
51AC
331
51B8
331
51B9
331
51CE
331
51CF
331
51DB
331
51DC
331
51E8
331
51E9
331
5206
331
5207
331
5213
331
5214
331
5227
331
5228
331
523D
331
523E
331
52F8
331
52F9
331
5304
331
5305
331
5310
331
5311
331
531C
331
531D
331
5328
331
5329
331
5334
331
5335
331
5340
331
5341
331
534C
331
534D
331
5358
331
5359
331
5364
331
5365
331
5370
331
5371
331
537C
331
537D
331
538A
331
538B
331
53C8
331
53C9
331
5455
331
5456
331
5462
331
5463
331
546F
331
5470
331
547C
331
547D
331
5489
331
548A
331
54C2
331
54C3
331
54CF
331
54D0
331
54DE
331
54DF
331
54EF
331
54F0
331
5503
331
5504
331
5510
331
5511
331
551F
331
5520
331
552E
331
552F
331
553B
331
553C
331
5556
331
5557
331
5565
331
5566
331
5572
331
5573
331
557F
331
5580
331
5636
331
5637
331
5642
331
5643
331
5650
331
5651
331
565A
331
565B
331
5666
331
5667
331
5672
331
5673
331
567E
331
567F
331
568A
331
568B
331
5698
331
5699
331
56A4
331
56A5
331
56B0
331
56B1
331
56BC
331
56BD
331
56C8
331
56C9
331
56D4
331
56D5
331
56E0
331
56E1
331
56EC
331
56ED
331
56F8
331
56F9
331
5704
331
5705
102
}
 70
     0
280
     1
281
     0
  0
BLOCK_RECORD
  5
3A5
330
1
100
AcDbSymbolTableRecord
100
AcDbBlockTableRecord
  2
名称未設定-1
340
0
102
{BLKREFS
331
3D0
102
}
 70
     1
280
     1
281
     0
  0
BLOCK_RECORD
  5
3A8
330
1
100
AcDbSymbolTableRecord
100
AcDbBlockTableRecord
  2
block 2
340
0
102
{BLKREFS
331
3A7
102
}
 70
     0
280
     1
281
     0
  0
BLOCK_RECORD
  5
3AB
330
1
100
AcDbSymbolTableRecord
100
AcDbBlockTableRecord
  2
block 3
340
0
102
{BLKREFS
331
3AA
102
}
 70
     0
280
     1
281
     0
  0
BLOCK_RECORD
  5
3AE
330
1
100
AcDbSymbolTableRecord
100
AcDbBlockTableRecord
  2
block 4
340
0
102
{BLKREFS
331
3AD
102
}
 70
     0
280
     1
281
     0
  0
BLOCK_RECORD
  5
3BD
330
1
100
AcDbSymbolTableRecord
100
AcDbBlockTableRecord
  2
block 5
340
0
102
{BLKREFS
331
3BC
102
}
 70
     0
280
     1
281
     0
  0
BLOCK_RECORD
  5
11F0
330
1
100
AcDbSymbolTableRecord
100
AcDbBlockTableRecord
  2
BLOCK_2
340
0
102
{BLKREFS
331
1273
331
127B
331
127C
102
}
 70
     0
280
     1
281
     0
  0
BLOCK_RECORD
  5
38B6
330
1
100
AcDbSymbolTableRecord
100
AcDbBlockTableRecord
  2
mobile_latù
340
0
310
2800000020000000200000000100080000000000000400000000000000000000000000000000000000000000000080000080000000808000800000008000800080800000C0C0C000C0DCC000F0CAA6000020400000206000002080000020A0000020C0000020E00000400000004020000040400000406000004080000040A0
310
000040C0000040E00000600000006020000060400000606000006080000060A0000060C0000060E00000800000008020000080400000806000008080000080A0000080C0000080E00000A0000000A0200000A0400000A0600000A0800000A0A00000A0C00000A0E00000C0000000C0200000C0400000C0600000C0800000C0
310
A00000C0C00000C0E00000E0000000E0200000E0400000E0600000E0800000E0A00000E0C00000E0E00040000000400020004000400040006000400080004000A0004000C0004000E00040200000402020004020400040206000402080004020A0004020C0004020E000404000004040200040404000404060004040800040
310
40A0004040C0004040E00040600000406020004060400040606000406080004060A0004060C0004060E00040800000408020004080400040806000408080004080A0004080C0004080E00040A0000040A0200040A0400040A0600040A0800040A0A00040A0C00040A0E00040C0000040C0200040C0400040C0600040C08000
310
40C0A00040C0C00040C0E00040E0000040E0200040E0400040E0600040E0800040E0A00040E0C00040E0E00080000000800020008000400080006000800080008000A0008000C0008000E00080200000802020008020400080206000802080008020A0008020C0008020E00080400000804020008040400080406000804080
310
008040A0008040C0008040E00080600000806020008060400080606000806080008060A0008060C0008060E00080800000808020008080400080806000808080008080A0008080C0008080E00080A0000080A0200080A0400080A0600080A0800080A0A00080A0C00080A0E00080C0000080C0200080C0400080C0600080C0
310
800080C0A00080C0C00080C0E00080E0000080E0200080E0400080E0600080E0800080E0A00080E0C00080E0E000C0000000C0002000C0004000C0006000C0008000C000A000C000C000C000E000C0200000C0202000C0204000C0206000C0208000C020A000C020C000C020E000C0400000C0402000C0404000C0406000C0
310
408000C040A000C040C000C040E000C0600000C0602000C0604000C0606000C0608000C060A000C060C000C060E000C0800000C0802000C0804000C0806000C0808000C080A000C080C000C080E000C0A00000C0A02000C0A04000C0A06000C0A08000C0A0A000C0A0C000C0A0E000C0C00000C0C02000C0C04000C0C06000
310
C0C08000C0C0A000F0FBFF00A4A0A000808080000000FF0000FF000000FFFF00FF000000FF00FF00FFFF0000FFFFFF0049494949494949494949494949494949494949494949494949494949494949494949494949494949494949494949494949494949494949494949494949494949494949494949494949494949494949
310
49494949494949494949494949494949494949494949494949494949494949494949494949494949494949494949494949494949494949494949494949494949494949494949494949494949494949494949FAFAFAFAFAFAFAFAFAFAFAFAFAFAFAFAFAFAFAFAFAFAFAFAFAFAFAFAFAFA4949FAFA4949494949494949494949
310
494949494949494949494949494949FAFA4949FAFA4949494949494949494949494949494949494949494949494949FAFA4949FAFA4949494949494949494949494949494949494949494949494949FAFA4949FAFA4949494949494949494949494949494949494949494949494949FAFA4949FAFA49494949494949494949
310
49494949494949494949494949494949FAFA4949FAFA4949494949494949494949494949494949494949494949494949FAFA4949FAFA4949494949494949494949494949494949494949494949494949FAFA4949FAFA4949494949494949494949494949494949494949494949494949FAFA4949FAFA494949494949494949
310
4949494949494949494949494949494949FAFA4949FAFA4949494949494949494949494949494949494949494949494949FAFA4949FAFA4949494949494949494949494949494949494949494949494949FAFA4949FAFA4949494949494949494949494949494949494949494949494949FAFA4949FAFA4949494949494949
310
494949494949494949494949494949494949FAFA4949FAFA4949494949494949494949494949494949494949494949494949FAFA4949FAFA4949494949494949494949494949494949494949494949494949FAFA4949FAFA4949494949494949494949494949494949494949494949494949FAFA4949FAFA49494949494949
310
49494949494949494949494949494949494949FAFA4949FAFAFAFAFAFAFAFAFAFAFAFAFAFAFAFAFAFAFAFAFAFAFAFAFAFAFAFAFAFA4949FAFAFAFAFAFAFAFAFAFAFAFAFAFAFAFAFAFAFAFAFAFAFAFAFAFAFAFAFAFA4949FAFA4949494949494949494949494949494949494949494949494949FAFA4949FAFAFAFAFAFAFAFA
310
FAFAFAFAFAFAFAFAFAFAFAFAFAFAFAFAFAFAFAFAFAFA494949494949494949494949494949494949494949494949494949494949494949494949494949494949494949494949494949494949494949494949494949494949494949494949494949494949494949494949494949494949494949494949494949494949494949
310
4949494949494949494949494949494949494949494949494949494949494949494949494949494949494949494949494949494949494949
102
{BLKREFS
331
3B99
331
467E
102
}
 70
     4
280
     1
281
     0
  0
BLOCK_RECORD
  5
4FF8
330
1
100
AcDbSymbolTableRecord
100
AcDbBlockTableRecord
  2
*D8
340
0
 70
     0
280
     1
281
     0
  0
BLOCK_RECORD
  5
500B
330
1
100
AcDbSymbolTableRecord
100
AcDbBlockTableRecord
  2
*D9
340
0
 70
     0
280
     1
281
     0
  0
BLOCK_RECORD
  5
5057
330
1
100
AcDbSymbolTableRecord
100
AcDbBlockTableRecord
  2
*D10
340
0
 70
     0
280
     1
281
     0
  0
BLOCK_RECORD
  5
507F
330
1
100
AcDbSymbolTableRecord
100
AcDbBlockTableRecord
  2
*D11
340
0
 70
     0
280
     1
281
     0
  0
BLOCK_RECORD
  5
50A2
330
1
100
AcDbSymbolTableRecord
100
AcDbBlockTableRecord
  2
*D12
340
0
 70
     0
280
     1
281
     0
  0
BLOCK_RECORD
  5
516F
330
1
100
AcDbSymbolTableRecord
100
AcDbBlockTableRecord
  2
*D13
340
0
 70
     0
280
     1
281
     0
  0
BLOCK_RECORD
  5
517C
330
1
100
AcDbSymbolTableRecord
100
AcDbBlockTableRecord
  2
*D14
340
0
 70
     0
280
     1
281
     0
  0
BLOCK_RECORD
  5
5189
330
1
100
AcDbSymbolTableRecord
100
AcDbBlockTableRecord
  2
*D15
340
0
 70
     0
280
     1
281
     0
  0
BLOCK_RECORD
  5
5199
330
1
100
AcDbSymbolTableRecord
100
AcDbBlockTableRecord
  2
*D16
340
0
 70
     0
280
     1
281
     0
  0
BLOCK_RECORD
  5
51A6
330
1
100
AcDbSymbolTableRecord
100
AcDbBlockTableRecord
  2
*D17
340
0
 70
     0
280
     1
281
     0
  0
BLOCK_RECORD
  5
51B3
330
1
100
AcDbSymbolTableRecord
100
AcDbBlockTableRecord
  2
*D18
340
0
 70
     0
280
     1
281
     0
  0
BLOCK_RECORD
  5
51C9
330
1
100
AcDbSymbolTableRecord
100
AcDbBlockTableRecord
  2
*D19
340
0
 70
     0
280
     1
281
     0
  0
BLOCK_RECORD
  5
51D6
330
1
100
AcDbSymbolTableRecord
100
AcDbBlockTableRecord
  2
*D20
340
0
 70
     0
280
     1
281
     0
  0
BLOCK_RECORD
  5
51E3
330
1
100
AcDbSymbolTableRecord
100
AcDbBlockTableRecord
  2
*D21
340
0
 70
     0
280
     1
281
     0
  0
BLOCK_RECORD
  5
5201
330
1
100
AcDbSymbolTableRecord
100
AcDbBlockTableRecord
  2
*D22
340
0
 70
     0
280
     1
281
     0
  0
BLOCK_RECORD
  5
520E
330
1
100
AcDbSymbolTableRecord
100
AcDbBlockTableRecord
  2
*D23
340
0
 70
     0
280
     1
281
     0
  0
BLOCK_RECORD
  5
5222
330
1
100
AcDbSymbolTableRecord
100
AcDbBlockTableRecord
  2
*D24
340
0
 70
     0
280
     1
281
     0
  0
BLOCK_RECORD
  5
5236
330
1
100
AcDbSymbolTableRecord
100
AcDbBlockTableRecord
  2
*D25
340
0
 70
     0
280
     1
281
     0
  0
BLOCK_RECORD
  5
52F2
330
1
100
AcDbSymbolTableRecord
100
AcDbBlockTableRecord
  2
*D26
340
0
 70
     0
280
     1
281
     0
  0
BLOCK_RECORD
  5
52FE
330
1
100
AcDbSymbolTableRecord
100
AcDbBlockTableRecord
  2
*D27
340
0
 70
     0
280
     1
281
     0
  0
BLOCK_RECORD
  5
530A
330
1
100
AcDbSymbolTableRecord
100
AcDbBlockTableRecord
  2
*D28
340
0
 70
     0
280
     1
281
     0
  0
BLOCK_RECORD
  5
5316
330
1
100
AcDbSymbolTableRecord
100
AcDbBlockTableRecord
  2
*D29
340
0
 70
     0
280
     1
281
     0
  0
BLOCK_RECORD
  5
5322
330
1
100
AcDbSymbolTableRecord
100
AcDbBlockTableRecord
  2
*D30
340
0
 70
     0
280
     1
281
     0
  0
BLOCK_RECORD
  5
532E
330
1
100
AcDbSymbolTableRecord
100
AcDbBlockTableRecord
  2
*D31
340
0
 70
     0
280
     1
281
     0
  0
BLOCK_RECORD
  5
533A
330
1
100
AcDbSymbolTableRecord
100
AcDbBlockTableRecord
  2
*D32
340
0
 70
     0
280
     1
281
     0
  0
BLOCK_RECORD
  5
5346
330
1
100
AcDbSymbolTableRecord
100
AcDbBlockTableRecord
  2
*D33
340
0
 70
     0
280
     1
281
     0
  0
BLOCK_RECORD
  5
5352
330
1
100
AcDbSymbolTableRecord
100
AcDbBlockTableRecord
  2
*D34
340
0
 70
     0
280
     1
281
     0
  0
BLOCK_RECORD
  5
535E
330
1
100
AcDbSymbolTableRecord
100
AcDbBlockTableRecord
  2
*D35
340
0
 70
     0
280
     1
281
     0
  0
BLOCK_RECORD
  5
536A
330
1
100
AcDbSymbolTableRecord
100
AcDbBlockTableRecord
  2
*D36
340
0
 70
     0
280
     1
281
     0
  0
BLOCK_RECORD
  5
5376
330
1
100
AcDbSymbolTableRecord
100
AcDbBlockTableRecord
  2
*D37
340
0
 70
     0
280
     1
281
     0
  0
BLOCK_RECORD
  5
5382
330
1
100
AcDbSymbolTableRecord
100
AcDbBlockTableRecord
  2
*D38
340
0
 70
     0
280
     1
281
     0
  0
BLOCK_RECORD
  5
53C2
330
1
100
AcDbSymbolTableRecord
100
AcDbBlockTableRecord
  2
*D39
340
0
 70
     0
280
     1
281
     0
  0
BLOCK_RECORD
  5
5450
330
1
100
AcDbSymbolTableRecord
100
AcDbBlockTableRecord
  2
*D40
340
0
 70
     0
280
     1
281
     0
  0
BLOCK_RECORD
  5
545D
330
1
100
AcDbSymbolTableRecord
100
AcDbBlockTableRecord
  2
*D41
340
0
 70
     0
280
     1
281
     0
  0
BLOCK_RECORD
  5
546A
330
1
100
AcDbSymbolTableRecord
100
AcDbBlockTableRecord
  2
*D42
340
0
 70
     0
280
     1
281
     0
  0
BLOCK_RECORD
  5
5477
330
1
100
AcDbSymbolTableRecord
100
AcDbBlockTableRecord
  2
*D43
340
0
 70
     0
280
     1
281
     0
  0
BLOCK_RECORD
  5
5484
330
1
100
AcDbSymbolTableRecord
100
AcDbBlockTableRecord
  2
*D44
340
0
 70
     0
280
     1
281
     0
  0
BLOCK_RECORD
  5
54BD
330
1
100
AcDbSymbolTableRecord
100
AcDbBlockTableRecord
  2
*D45
340
0
 70
     0
280
     1
281
     0
  0
BLOCK_RECORD
  5
54CA
330
1
100
AcDbSymbolTableRecord
100
AcDbBlockTableRecord
  2
*D46
340
0
 70
     0
280
     1
281
     0
  0
BLOCK_RECORD
  5
54D9
330
1
100
AcDbSymbolTableRecord
100
AcDbBlockTableRecord
  2
*D47
340
0
 70
     0
280
     1
281
     0
  0
BLOCK_RECORD
  5
54E8
330
1
100
AcDbSymbolTableRecord
100
AcDbBlockTableRecord
  2
*D48
340
0
 70
     0
280
     1
281
     0
  0
BLOCK_RECORD
  5
54FE
330
1
100
AcDbSymbolTableRecord
100
AcDbBlockTableRecord
  2
*D49
340
0
 70
     0
280
     1
281
     0
  0
BLOCK_RECORD
  5
550B
330
1
100
AcDbSymbolTableRecord
100
AcDbBlockTableRecord
  2
*D50
340
0
 70
     0
280
     1
281
     0
  0
BLOCK_RECORD
  5
551A
330
1
100
AcDbSymbolTableRecord
100
AcDbBlockTableRecord
  2
*D51
340
0
 70
     0
280
     1
281
     0
  0
BLOCK_RECORD
  5
5529
330
1
100
AcDbSymbolTableRecord
100
AcDbBlockTableRecord
  2
*D52
340
0
 70
     0
280
     1
281
     0
  0
BLOCK_RECORD
  5
5536
330
1
100
AcDbSymbolTableRecord
100
AcDbBlockTableRecord
  2
*D53
340
0
 70
     0
280
     1
281
     0
  0
BLOCK_RECORD
  5
5551
330
1
100
AcDbSymbolTableRecord
100
AcDbBlockTableRecord
  2
*D54
340
0
 70
     0
280
     1
281
     0
  0
BLOCK_RECORD
  5
5560
330
1
100
AcDbSymbolTableRecord
100
AcDbBlockTableRecord
  2
*D55
340
0
 70
     0
280
     1
281
     0
  0
BLOCK_RECORD
  5
556D
330
1
100
AcDbSymbolTableRecord
100
AcDbBlockTableRecord
  2
*D56
340
0
 70
     0
280
     1
281
     0
  0
BLOCK_RECORD
  5
557A
330
1
100
AcDbSymbolTableRecord
100
AcDbBlockTableRecord
  2
*D57
340
0
 70
     0
280
     1
281
     0
  0
BLOCK_RECORD
  5
5630
330
1
100
AcDbSymbolTableRecord
100
AcDbBlockTableRecord
  2
*D58
340
0
 70
     0
280
     1
281
     0
  0
BLOCK_RECORD
  5
563C
330
1
100
AcDbSymbolTableRecord
100
AcDbBlockTableRecord
  2
*D59
340
0
 70
     0
280
     1
281
     0
  0
BLOCK_RECORD
  5
5648
330
1
100
AcDbSymbolTableRecord
100
AcDbBlockTableRecord
  2
*D60
340
0
 70
     0
280
     1
281
     0
  0
BLOCK_RECORD
  5
5654
330
1
100
AcDbSymbolTableRecord
100
AcDbBlockTableRecord
  2
*D61
340
0
 70
     0
280
     1
281
     0
  0
BLOCK_RECORD
  5
5660
330
1
100
AcDbSymbolTableRecord
100
AcDbBlockTableRecord
  2
*D62
340
0
 70
     0
280
     1
281
     0
  0
BLOCK_RECORD
  5
566C
330
1
100
AcDbSymbolTableRecord
100
AcDbBlockTableRecord
  2
*D63
340
0
 70
     0
280
     1
281
     0
  0
BLOCK_RECORD
  5
5678
330
1
100
AcDbSymbolTableRecord
100
AcDbBlockTableRecord
  2
*D64
340
0
 70
     0
280
     1
281
     0
  0
BLOCK_RECORD
  5
5684
330
1
100
AcDbSymbolTableRecord
100
AcDbBlockTableRecord
  2
*D65
340
0
 70
     0
280
     1
281
     0
  0
BLOCK_RECORD
  5
5690
330
1
100
AcDbSymbolTableRecord
100
AcDbBlockTableRecord
  2
*D66
340
0
 70
     0
280
     1
281
     0
  0
BLOCK_RECORD
  5
569E
330
1
100
AcDbSymbolTableRecord
100
AcDbBlockTableRecord
  2
*D67
340
0
 70
     0
280
     1
281
     0
  0
BLOCK_RECORD
  5
56AA
330
1
100
AcDbSymbolTableRecord
100
AcDbBlockTableRecord
  2
*D68
340
0
 70
     0
280
     1
281
     0
  0
BLOCK_RECORD
  5
56B6
330
1
100
AcDbSymbolTableRecord
100
AcDbBlockTableRecord
  2
*D69
340
0
 70
     0
280
     1
281
     0
  0
BLOCK_RECORD
  5
56C2
330
1
100
AcDbSymbolTableRecord
100
AcDbBlockTableRecord
  2
*D70
340
0
 70
     0
280
     1
281
     0
  0
BLOCK_RECORD
  5
56CE
330
1
100
AcDbSymbolTableRecord
100
AcDbBlockTableRecord
  2
*D71
340
0
 70
     0
280
     1
281
     0
  0
BLOCK_RECORD
  5
56DA
330
1
100
AcDbSymbolTableRecord
100
AcDbBlockTableRecord
  2
*D72
340
0
 70
     0
280
     1
281
     0
  0
BLOCK_RECORD
  5
56E6
330
1
100
AcDbSymbolTableRecord
100
AcDbBlockTableRecord
  2
*D73
340
0
 70
     0
280
     1
281
     0
  0
BLOCK_RECORD
  5
56F2
330
1
100
AcDbSymbolTableRecord
100
AcDbBlockTableRecord
  2
*D74
340
0
 70
     0
280
     1
281
     0
  0
BLOCK_RECORD
  5
56FE
330
1
100
AcDbSymbolTableRecord
100
AcDbBlockTableRecord
  2
*D75
340
0
 70
     0
280
     1
281
     0
  0
ENDTAB
  0
ENDSEC
  0
SECTION
  2
BLOCKS
  0
BLOCK
  5
D
330
A
100
AcDbEntity
  8
0
390
1D
100
AcDbBlockBegin
  2
*MODEL_SPACE
 70
     0
 10
0.0
 20
0.0
 30
0.0
  3
*MODEL_SPACE
  1
*MODEL_SPACE
  0
ENDBLK
  5
E
330
A
100
AcDbEntity
  8
0
390
1D
100
AcDbBlockEnd
  0
BLOCK
  5
F
330
B
100
AcDbEntity
 67
     1
  8
0
390
1D
100
AcDbBlockBegin
  2
*PAPER_SPACE
 70
     0
 10
0.0
 20
0.0
 30
0.0
  3
*PAPER_SPACE
  1
*PAPER_SPACE
  0
ENDBLK
  5
10
330
B
100
AcDbEntity
 67
     1
  8
0
390
1D
100
AcDbBlockEnd
  0
BLOCK
  5
2C14
330
4E
100
AcDbEntity
  8
0
390
1D
100
AcDbBlockBegin
  2
_DOT
 70
     0
 10
0.0
 20
0.0
 30
0.0
  3
_DOT
  1
_DOT
  0
POLYLINE
  5
2C16
330
4E
100
AcDbEntity
  8
0
  6
ByBlock
 62
     0
370
    -2
390
1D
100
AcDb2dPolyline
 66
     1
 10
0.0
 20
0.0
 30
0.0
 70
     1
 40
0.5
 41
0.5
  0
VERTEX
  5
2C17
330
2C16
100
AcDbEntity
  8
0
  6
ByBlock
 62
     0
370
    -2
390
1D
100
AcDbVertex
100
AcDb2dVertex
 10
-0.25
 20
0.0
 30
0.0
 42
1.0
  0
VERTEX
  5
2C18
330
2C16
100
AcDbEntity
  8
0
  6
ByBlock
 62
     0
370
    -2
390
1D
100
AcDbVertex
100
AcDb2dVertex
 10
0.25
 20
0.0
 30
0.0
 42
1.0
  0
SEQEND
  5
2C19
330
2C16
100
AcDbEntity
  8
0
390
1D
  0
LINE
  5
2C1A
330
4E
100
AcDbEntity
  8
0
  6
ByBlock
 62
     0
370
    -2
390
1D
100
AcDbLine
 10
-0.5
 20
0.0
 30
0.0
 11
-1.0
 21
0.0
 31
0.0
  0
ENDBLK
  5
2C1B
330
4E
100
AcDbEntity
  8
0
390
1D
100
AcDbBlockEnd
  0
BLOCK
  5
3A6
330
3A5
100
AcDbEntity
  8
0
100
AcDbBlockBegin
  2
名称未設定-1
 70
     0
 10
0.0
 20
0.0
 30
0.0
  3
名称未設定-1
  1
名称未設定-1
  0
INSERT
  5
3A7
330
3A5
100
AcDbEntity
  8
レイヤー 1
100
AcDbBlockReference
  2
block 2
 10
0.0
 20
0.0
 30
0.0
  0
ENDBLK
  5
3CC
330
3A5
100
AcDbEntity
  8
0
100
AcDbBlockEnd
  0
BLOCK
  5
3A9
330
3A8
100
AcDbEntity
  8
0
100
AcDbBlockBegin
  2
block 2
 70
     0
 10
0.0
 20
0.0
 30
0.0
  3
block 2
  1
block 2
  0
INSERT
  5
3AA
330
3A8
100
AcDbEntity
  8
レイヤー 1
100
AcDbBlockReference
  2
block 3
 10
0.0
 20
0.0
 30
0.0
  0
ENDBLK
  5
3CB
330
3A8
100
AcDbEntity
  8
0
100
AcDbBlockEnd
  0
BLOCK
  5
3AC
330
3AB
100
AcDbEntity
  8
0
100
AcDbBlockBegin
  2
block 3
 70
     0
 10
0.0
 20
0.0
 30
0.0
  3
block 3
  1
block 3
  0
INSERT
  5
3AD
330
3AB
100
AcDbEntity
  8
レイヤー 1
100
AcDbBlockReference
  2
block 4
 10
0.0
 20
0.0
 30
0.0
  0
ENDBLK
  5
3CA
330
3AB
100
AcDbEntity
  8
0
100
AcDbBlockEnd
  0
BLOCK
  5
3AF
330
3AE
100
AcDbEntity
  8
0
100
AcDbBlockBegin
  2
block 4
 70
     0
 10
0.0
 20
0.0
 30
0.0
  3
block 4
  1
block 4
  0
POLYLINE
  5
3B0
330
3AE
100
AcDbEntity
  8
レイヤー 1
370
     0
100
AcDb2dPolyline
 66
     1
 10
0.0
 20
0.0
 30
0.0
  0
VERTEX
  5
3B1
330
3B0
100
AcDbEntity
  8
レイヤー 1
370
     0
100
AcDbVertex
100
AcDb2dVertex
 10
83.79545727667795
 20
167.6444858234922
 30
0.0
  0
VERTEX
  5
3B2
330
3B0
100
AcDbEntity
  8
レイヤー 1
370
     0
100
AcDbVertex
100
AcDb2dVertex
 10
83.79545727667795
 20
159.7968976406313
 30
0.0
  0
VERTEX
  5
3B3
330
3B0
100
AcDbEntity
  8
レイヤー 1
370
     0
100
AcDbVertex
100
AcDb2dVertex
 10
71.3631329975216
 20
159.7968976406313
 30
0.0
  0
VERTEX
  5
3B4
330
3B0
100
AcDbEntity
  8
レイヤー 1
370
     0
100
AcDbVertex
100
AcDb2dVertex
 10
71.3631329975216
 20
127.8027915271048
 30
0.0
  0
VERTEX
  5
3B5
330
3B0
100
AcDbEntity
  8
レイヤー 1
370
     0
100
AcDbVertex
100
AcDb2dVertex
 10
60.43011526263018
 20
127.8027915271048
 30
0.0
  0
VERTEX
  5
3B6
330
3B0
100
AcDbEntity
  8
レイヤー 1
370
     0
100
AcDbVertex
100
AcDb2dVertex
 10
60.43011526263018
 20
159.7968976406313
 30
0.0
  0
VERTEX
  5
3B7
330
3B0
100
AcDbEntity
  8
レイヤー 1
370
     0
100
AcDbVertex
100
AcDb2dVertex
 10
48.21793273020759
 20
159.7968976406313
 30
0.0
  0
VERTEX
  5
3B8
330
3B0
100
AcDbEntity
  8
レイヤー 1
370
     0
100
AcDbVertex
100
AcDb2dVertex
 10
48.21793273020759
 20
167.6444858234922
 30
0.0
  0
VERTEX
  5
3B9
330
3B0
100
AcDbEntity
  8
レイヤー 1
370
     0
100
AcDbVertex
100
AcDb2dVertex
 10
83.79545727667795
 20
167.6444858234922
 30
0.0
  0
SEQEND
  5
3BA
330
3B0
100
AcDbEntity
  8
レイヤー 1
370
     0
  0
HATCH
  5
3BB
330
3AE
100
AcDbEntity
  8
レイヤー 1
 62
   250
420
  2234388
100
AcDbHatch
 10
0.0
 20
0.0
 30
0.0
210
0.0
220
0.0
230
1.0
  2
SOLID
 70
     1
 71
     0
 91
        1
 92
        1
 93
        8
 72
     1
 10
83.79545727667795
 20
167.6444858234922
 11
83.79545727667795
 21
159.7968976406313
 72
     1
 10
83.79545727667795
 20
159.7968976406313
 11
71.3631329975216
 21
159.7968976406313
 72
     1
 10
71.3631329975216
 20
159.7968976406313
 11
71.3631329975216
 21
127.8027915271048
 72
     1
 10
71.3631329975216
 20
127.8027915271048
 11
60.43011526263018
 21
127.8027915271048
 72
     1
 10
60.43011526263018
 20
127.8027915271048
 11
60.43011526263018
 21
159.7968976406313
 72
     1
 10
60.43011526263018
 20
159.7968976406313
 11
48.21793273020759
 21
159.7968976406313
 72
     1
 10
48.21793273020759
 20
159.7968976406313
 11
48.21793273020759
 21
167.6444858234922
 72
     1
 10
48.21793273020759
 20
167.6444858234922
 11
83.79545727667795
 21
167.6444858234922
 97
        0
 75
     2
 76
     1
 98
        0
  0
INSERT
  5
3BC
330
3AE
100
AcDbEntity
  8
レイヤー 1
100
AcDbBlockReference
  2
block 5
 10
0.0
 20
0.0
 30
0.0
  0
ENDBLK
  5
3C9
330
3AE
100
AcDbEntity
  8
0
100
AcDbBlockEnd
  0
BLOCK
  5
3BE
330
3BD
100
AcDbEntity
  8
0
100
AcDbBlockBegin
  2
block 5
 70
     0
 10
0.0
 20
0.0
 30
0.0
  3
block 5
  1
block 5
  0
SPLINE
  5
3BF
330
3BD
100
AcDbEntity
  8
レイヤー 1
370
     0
100
AcDbSpline
210
0.0
220
0.0
230
1.0
 70
    11
 71
     3
 72
    56
 73
    52
 74
     0
 42
0.000000001
 43
0.0000000001
 40
0.0
 40
0.0
 40
0.0
 40
0.0
 40
1.0
 40
1.0
 40
1.0
 40
2.0
 40
2.0
 40
2.0
 40
3.0
 40
3.0
 40
3.0
 40
4.0
 40
4.0
 40
4.0
 40
5.0
 40
5.0
 40
5.0
 40
6.0
 40
6.0
 40
6.0
 40
7.0
 40
7.0
 40
7.0
 40
8.0
 40
8.0
 40
8.0
 40
9.0
 40
9.0
 40
9.0
 40
10.0
 40
10.0
 40
10.0
 40
11.0
 40
11.0
 40
11.0
 40
12.0
 40
12.0
 40
12.0
 40
13.0
 40
13.0
 40
13.0
 40
14.0
 40
14.0
 40
14.0
 40
15.0
 40
15.0
 40
15.0
 40
16.0
 40
16.0
 40
16.0
 40
17.0
 40
17.0
 40
17.0
 40
17.0
 10
100.4504378777679
 20
166.69157178364
 30
0.0
 10
101.9848844191641
 20
167.1313385124438
 30
0.0
 10
103.9637485713373
 20
166.7649523658846
 30
0.0
 10
103.9637485713373
 20
166.7649523658846
 30
0.0
 10
103.9637485713373
 20
166.7649523658846
 30
0.0
 10
103.0132460999156
 20
163.911205638077
 30
0.0
 10
103.0132460999156
 20
163.911205638077
 30
0.0
 10
103.0132460999156
 20
163.911205638077
 30
0.0
 10
101.0674548862189
 20
164.3601018759394
 30
0.0
 10
99.57090442016032
 20
163.1805004036133
 30
0.0
 10
98.40508333886608
 20
162.258247733807
 30
0.0
 10
97.65301849830304
 20
159.804132345923
 30
0.0
 10
97.3598406791005
 20
158.8699940888517
 30
0.0
 10
97.3598406791005
 20
158.8699940888517
 30
0.0
 10
96.07137411762282
 20
154.9119212747295
 30
0.0
 10
96.07137411762282
 20
154.9119212747295
 30
0.0
 10
96.07137411762282
 20
154.9119212747295
 30
0.0
 10
100.3012651448482
 20
154.9119212747295
 30
0.0
 10
100.3012651448482
 20
154.9119212747295
 30
0.0
 10
100.3012651448482
 20
154.9119212747295
 30
0.0
 10
99.64152892419852
 20
152.4199098115079
 30
0.0
 10
99.64152892419852
 20
152.4199098115079
 30
0.0
 10
99.64152892419852
 20
152.4199098115079
 30
0.0
 10
95.38097652692731
 20
152.4199098115079
 30
0.0
 10
95.38097652692731
 20
152.4199098115079
 30
0.0
 10
95.38097652692731
 20
152.4199098115079
 30
0.0
 10
87.75353009080013
 20
127.8027915271048
 30
0.0
 10
87.75353009080013
 20
127.8027915271048
 30
0.0
 10
87.75353009080013
 20
127.8027915271048
 30
0.0
 10
85.36538832498108
 20
127.8027915271048
 30
0.0
 10
85.36538832498108
 20
127.8027915271048
 30
0.0
 10
85.36538832498108
 20
127.8027915271048
 30
0.0
 10
93.00006946639998
 20
152.4199098115079
 30
0.0
 10
93.00006946639998
 20
152.4199098115079
 30
0.0
 10
93.00006946639998
 20
152.4199098115079
 30
0.0
 10
89.85297266450198
 20
152.4199098115079
 30
0.0
 10
89.85297266450198
 20
152.4199098115079
 30
0.0
 10
89.85297266450198
 20
152.4199098115079
 30
0.0
 10
90.51270888515164
 20
154.9119212747295
 30
0.0
 10
90.51270888515164
 20
154.9119212747295
 30
0.0
 10
90.51270888515164
 20
154.9119212747295
 30
0.0
 10
93.6904670570955
 20
154.9119212747295
 30
0.0
 10
93.6904670570955
 20
154.9119212747295
 30
0.0
 10
93.6904670570955
 20
154.9119212747295
 30
0.0
 10
94.81598049462158
 20
158.3616699146644
 30
0.0
 10
94.81598049462158
 20
158.3616699146644
 30
0.0
 10
95.7237637538445
 20
161.2605474231013
 30
0.0
 10
96.4968436907311
 20
162.8139420021662
 30
0.0
 10
97.15657991138076
 20
163.9844139654337
 30
0.0
 10
97.81183750494507
 20
165.1523021053827
 30
0.0
 10
99.1047826935081
 20
166.3084769129547
 30
0.0
 10
100.4504378777679
 20
166.69157178364
 30
0.0
  0
HATCH
  5
3C0
330
3BD
100
AcDbEntity
  8
レイヤー 1
 62
   250
420
  2234388
100
AcDbHatch
 10
0.0
 20
0.0
 30
0.0
210
0.0
220
0.0
230
1.0
  2
SOLID
 70
     1
 71
     0
 91
        1
 92
        1
 93
        1
 72
     4
 94
        3
 73
     0
 74
     1
 95
       56
 96
       52
 40
0.0
 40
0.0
 40
0.0
 40
0.0
 40
1.0
 40
1.0
 40
1.0
 40
2.0
 40
2.0
 40
2.0
 40
3.0
 40
3.0
 40
3.0
 40
4.0
 40
4.0
 40
4.0
 40
5.0
 40
5.0
 40
5.0
 40
6.0
 40
6.0
 40
6.0
 40
7.0
 40
7.0
 40
7.0
 40
8.0
 40
8.0
 40
8.0
 40
9.0
 40
9.0
 40
9.0
 40
10.0
 40
10.0
 40
10.0
 40
11.0
 40
11.0
 40
11.0
 40
12.0
 40
12.0
 40
12.0
 40
13.0
 40
13.0
 40
13.0
 40
14.0
 40
14.0
 40
14.0
 40
15.0
 40
15.0
 40
15.0
 40
16.0
 40
16.0
 40
16.0
 40
17.0
 40
17.0
 40
17.0
 40
17.0
 10
100.4504378777679
 20
166.69157178364
 10
101.9848844191641
 20
167.1313385124438
 10
103.9637485713373
 20
166.7649523658846
 10
103.9637485713373
 20
166.7649523658846
 10
103.9637485713373
 20
166.7649523658846
 10
103.0132460999156
 20
163.911205638077
 10
103.0132460999156
 20
163.911205638077
 10
103.0132460999156
 20
163.911205638077
 10
101.0674548862189
 20
164.3601018759394
 10
99.57090442016032
 20
163.1805004036133
 10
98.40508333886608
 20
162.258247733807
 10
97.65301849830304
 20
159.804132345923
 10
97.3598406791005
 20
158.8699940888517
 10
97.3598406791005
 20
158.8699940888517
 10
96.07137411762282
 20
154.9119212747295
 10
96.07137411762282
 20
154.9119212747295
 10
96.07137411762282
 20
154.9119212747295
 10
100.3012651448482
 20
154.9119212747295
 10
100.3012651448482
 20
154.9119212747295
 10
100.3012651448482
 20
154.9119212747295
 10
99.64152892419852
 20
152.4199098115079
 10
99.64152892419852
 20
152.4199098115079
 10
99.64152892419852
 20
152.4199098115079
 10
95.38097652692731
 20
152.4199098115079
 10
95.38097652692731
 20
152.4199098115079
 10
95.38097652692731
 20
152.4199098115079
 10
87.75353009080013
 20
127.8027915271048
 10
87.75353009080013
 20
127.8027915271048
 10
87.75353009080013
 20
127.8027915271048
 10
85.36538832498108
 20
127.8027915271048
 10
85.36538832498108
 20
127.8027915271048
 10
85.36538832498108
 20
127.8027915271048
 10
93.00006946639998
 20
152.4199098115079
 10
93.00006946639998
 20
152.4199098115079
 10
93.00006946639998
 20
152.4199098115079
 10
89.85297266450198
 20
152.4199098115079
 10
89.85297266450198
 20
152.4199098115079
 10
89.85297266450198
 20
152.4199098115079
 10
90.51270888515164
 20
154.9119212747295
 10
90.51270888515164
 20
154.9119212747295
 10
90.51270888515164
 20
154.9119212747295
 10
93.6904670570955
 20
154.9119212747295
 10
93.6904670570955
 20
154.9119212747295
 10
93.6904670570955
 20
154.9119212747295
 10
94.81598049462158
 20
158.3616699146644
 10
94.81598049462158
 20
158.3616699146644
 10
95.7237637538445
 20
161.2605474231013
 10
96.4968436907311
 20
162.8139420021662
 10
97.15657991138076
 20
163.9844139654337
 10
97.81183750494507
 20
165.1523021053827
 10
99.1047826935081
 20
166.3084769129547
 10
100.4504378777679
 20
166.69157178364
 97
        0
 75
     2
 76
     1
 98
        0
  0
SPLINE
  5
3C1
330
3BD
100
AcDbEntity
  8
レイヤー 1
370
     0
100
AcDbSpline
210
0.0
220
0.0
230
1.0
 70
    11
 71
     3
 72
    38
 73
    34
 74
     0
 42
0.000000001
 43
0.0000000001
 40
0.0
 40
0.0
 40
0.0
 40
0.0
 40
1.0
 40
1.0
 40
1.0
 40
2.0
 40
2.0
 40
2.0
 40
3.0
 40
3.0
 40
3.0
 40
4.0
 40
4.0
 40
4.0
 40
5.0
 40
5.0
 40
5.0
 40
6.0
 40
6.0
 40
6.0
 40
7.0
 40
7.0
 40
7.0
 40
8.0
 40
8.0
 40
8.0
 40
9.0
 40
9.0
 40
9.0
 40
10.0
 40
10.0
 40
10.0
 40
11.0
 40
11.0
 40
11.0
 40
11.0
 10
126.377554584636
 20
154.8151140277308
 30
0.0
 10
126.377554584636
 20
154.8151140277308
 30
0.0
 10
128.8311532078563
 20
154.8151140277308
 30
0.0
 10
128.8311532078563
 20
154.8151140277308
 30
0.0
 10
128.8311532078563
 20
154.8151140277308
 30
0.0
 10
127.7345785914971
 20
151.3062819612468
 30
0.0
 10
127.7345785914971
 20
151.3062819612468
 30
0.0
 10
128.571392836906
 20
152.2922689395754
 30
0.0
 10
129.8860421413442
 20
153.604506675583
 30
0.0
 10
131.0163787157314
 20
154.2664822097754
 30
0.0
 10
132.7044766171327
 20
155.2500576196734
 30
0.0
 10
133.6642808525008
 20
155.3847609420097
 30
0.0
 10
134.7284715499351
 20
155.3565111403944
 30
0.0
 10
134.7284715499351
 20
155.3565111403944
 30
0.0
 10
133.6877075172549
 20
152.0345756272799
 30
0.0
 10
133.6877075172549
 20
152.0345756272799
 30
0.0
 10
133.011434827367
 20
152.3184516825359
 30
0.0
 10
130.930940291334
 20
151.7768823149844
 30
0.0
 10
129.739280976855
 20
150.9162968950455
 30
0.0
 10
128.66613302525
 20
150.1454562717016
 30
0.0
 10
127.9192358313239
 20
149.4857200510519
 30
0.0
 10
127.0393578639405
 20
147.8282835196966
 30
0.0
 10
126.164647543194
 20
146.1699857139017
 30
0.0
 10
125.4742499524985
 20
143.5262176944419
 30
0.0
 10
124.2822461282437
 20
139.6959580071401
 30
0.0
 10
124.2822461282437
 20
139.6959580071401
 30
0.0
 10
120.5753209406769
 20
127.8027915271048
 30
0.0
 10
120.5753209406769
 20
127.8027915271048
 30
0.0
 10
120.5753209406769
 20
127.8027915271048
 30
0.0
 10
118.1964809388044
 20
127.8027915271048
 30
0.0
 10
118.1964809388044
 20
127.8027915271048
 30
0.0
 10
118.1964809388044
 20
127.8027915271048
 30
0.0
 10
126.377554584636
 20
154.8151140277308
 30
0.0
 10
126.377554584636
 20
154.8151140277308
 30
0.0
  0
HATCH
  5
3C2
330
3BD
100
AcDbEntity
  8
レイヤー 1
 62
   250
420
  2234388
100
AcDbHatch
 10
0.0
 20
0.0
 30
0.0
210
0.0
220
0.0
230
1.0
  2
SOLID
 70
     1
 71
     0
 91
        1
 92
        1
 93
        1
 72
     4
 94
        3
 73
     0
 74
     1
 95
       38
 96
       34
 40
0.0
 40
0.0
 40
0.0
 40
0.0
 40
1.0
 40
1.0
 40
1.0
 40
2.0
 40
2.0
 40
2.0
 40
3.0
 40
3.0
 40
3.0
 40
4.0
 40
4.0
 40
4.0
 40
5.0
 40
5.0
 40
5.0
 40
6.0
 40
6.0
 40
6.0
 40
7.0
 40
7.0
 40
7.0
 40
8.0
 40
8.0
 40
8.0
 40
9.0
 40
9.0
 40
9.0
 40
10.0
 40
10.0
 40
10.0
 40
11.0
 40
11.0
 40
11.0
 40
11.0
 10
126.377554584636
 20
154.8151140277308
 10
126.377554584636
 20
154.8151140277308
 10
128.8311532078563
 20
154.8151140277308
 10
128.8311532078563
 20
154.8151140277308
 10
128.8311532078563
 20
154.8151140277308
 10
127.7345785914971
 20
151.3062819612468
 10
127.7345785914971
 20
151.3062819612468
 10
128.571392836906
 20
152.2922689395754
 10
129.8860421413442
 20
153.604506675583
 10
131.0163787157314
 20
154.2664822097754
 10
132.7044766171327
 20
155.2500576196734
 10
133.6642808525008
 20
155.3847609420097
 10
134.7284715499351
 20
155.3565111403944
 10
134.7284715499351
 20
155.3565111403944
 10
133.6877075172549
 20
152.0345756272799
 10
133.6877075172549
 20
152.0345756272799
 10
133.011434827367
 20
152.3184516825359
 10
130.930940291334
 20
151.7768823149844
 10
129.739280976855
 20
150.9162968950455
 10
128.66613302525
 20
150.1454562717016
 10
127.9192358313239
 20
149.4857200510519
 10
127.0393578639405
 20
147.8282835196966
 10
126.164647543194
 20
146.1699857139017
 10
125.4742499524985
 20
143.5262176944419
 10
124.2822461282437
 20
139.6959580071401
 10
124.2822461282437
 20
139.6959580071401
 10
120.5753209406769
 20
127.8027915271048
 10
120.5753209406769
 20
127.8027915271048
 10
120.5753209406769
 20
127.8027915271048
 10
118.1964809388044
 20
127.8027915271048
 10
118.1964809388044
 20
127.8027915271048
 10
118.1964809388044
 20
127.8027915271048
 10
126.377554584636
 20
154.8151140277308
 10
126.377554584636
 20
154.8151140277308
 97
        0
 75
     2
 76
     1
 98
        0
  0
SPLINE
  5
3C3
330
3BD
100
AcDbEntity
  8
レイヤー 1
370
     0
100
AcDbSpline
210
0.0
220
0.0
230
1.0
 70
    11
 71
     3
 72
   104
 73
   100
 74
     0
 42
0.000000001
 43
0.0000000001
 40
0.0
 40
0.0
 40
0.0
 40
0.0
 40
1.0
 40
1.0
 40
1.0
 40
2.0
 40
2.0
 40
2.0
 40
3.0
 40
3.0
 40
3.0
 40
4.0
 40
4.0
 40
4.0
 40
5.0
 40
5.0
 40
5.0
 40
6.0
 40
6.0
 40
6.0
 40
7.0
 40
7.0
 40
7.0
 40
8.0
 40
8.0
 40
8.0
 40
9.0
 40
9.0
 40
9.0
 40
10.0
 40
10.0
 40
10.0
 40
11.0
 40
11.0
 40
11.0
 40
12.0
 40
12.0
 40
12.0
 40
13.0
 40
13.0
 40
13.0
 40
14.0
 40
14.0
 40
14.0
 40
15.0
 40
15.0
 40
15.0
 40
16.0
 40
16.0
 40
16.0
 40
17.0
 40
17.0
 40
17.0
 40
18.0
 40
18.0
 40
18.0
 40
19.0
 40
19.0
 40
19.0
 40
20.0
 40
20.0
 40
20.0
 40
21.0
 40
21.0
 40
21.0
 40
22.0
 40
22.0
 40
22.0
 40
23.0
 40
23.0
 40
23.0
 40
24.0
 40
24.0
 40
24.0
 40
25.0
 40
25.0
 40
25.0
 40
26.0
 40
26.0
 40
26.0
 40
27.0
 40
27.0
 40
27.0
 40
28.0
 40
28.0
 40
28.0
 40
29.0
 40
29.0
 40
29.0
 40
30.0
 40
30.0
 40
30.0
 40
31.0
 40
31.0
 40
31.0
 40
32.0
 40
32.0
 40
32.0
 40
33.0
 40
33.0
 40
33.0
 40
33.0
 10
139.8926730891197
 20
154.8294111834263
 30
0.0
 10
139.8926730891197
 20
154.8294111834263
 30
0.0
 10
142.0344903652445
 20
154.8294111834263
 30
0.0
 10
142.0344903652445
 20
154.8294111834263
 30
0.0
 10
142.0344903652445
 20
154.8294111834263
 30
0.0
 10
140.9516961399171
 20
151.3157559800812
 30
0.0
 10
140.9516961399171
 20
151.3157559800812
 30
0.0
 10
141.8928968473923
 20
152.7887075264977
 30
0.0
 10
142.7341897198865
 20
153.4484437471474
 30
0.0
 10
143.8552245303272
 20
154.2926649527359
 30
0.0
 10
144.9803934580775
 20
155.1296514530327
 30
0.0
 10
146.3139908001845
 20
155.3044901642492
 30
0.0
 10
147.241066606852
 20
155.3044901642492
 30
0.0
 10
148.3855280820469
 20
155.3044901642492
 30
0.0
 10
149.4969166187653
 20
155.0752189084569
 30
0.0
 10
150.0784491203092
 20
153.8172414621372
 30
0.0
 10
150.5228667310863
 20
152.833838307127
 30
0.0
 10
150.5414702589793
 20
152.7201500811143
 30
0.0
 10
150.4140016419347
 20
150.7765981809602
 30
0.0
 10
151.5818897818837
 20
152.7699317437168
 30
0.0
 10
152.4424752018226
 20
153.6256940267945
 30
0.0
 10
153.9038856707499
 20
154.4507949398263
 30
0.0
 10
155.4455669174378
 20
155.3044901642492
 30
0.0
 10
156.339225275853
 20
155.3659851592288
 30
0.0
 10
157.3748216618963
 20
155.2147453676543
 30
0.0
 10
158.911679771723
 20
154.9877134254046
 30
0.0
 10
159.8859534176746
 20
154.4390816074493
 30
0.0
 10
160.3965169054045
 20
152.7816450760939
 30
0.0
 10
160.9070803931344
 20
151.1219692311958
 30
0.0
 10
160.6328506116007
 20
150.2303779314354
 30
0.0
 10
159.9992971339115
 20
147.597634224801
 30
0.0
 10
159.7105979417943
 20
146.4014962832367
 30
0.0
 10
159.2947746424084
 20
144.9400858143094
 30
0.0
 10
158.7463150793409
 20
143.2092687007094
 30
0.0
 10
158.7463150793409
 20
143.2092687007094
 30
0.0
 10
153.9038856707499
 20
127.8027915271048
 30
0.0
 10
153.9038856707499
 20
127.8027915271048
 30
0.0
 10
153.9038856707499
 20
127.8027915271048
 30
0.0
 10
151.3882752878863
 20
127.8027915271048
 30
0.0
 10
151.3882752878863
 20
127.8027915271048
 30
0.0
 10
151.3882752878863
 20
127.8027915271048
 30
0.0
 10
155.6250565106276
 20
141.2751908193897
 30
0.0
 10
155.6250565106276
 20
141.2751908193897
 30
0.0
 10
156.5094131050963
 20
144.0936252951782
 30
0.0
 10
157.109893644309
 20
146.1506931664571
 30
0.0
 10
157.4220195011804
 20
147.4415712963654
 30
0.0
 10
157.8095929989511
 20
149.0530157726519
 30
0.0
 10
157.9656559273867
 20
149.5826995529385
 30
0.0
 10
157.7816877071116
 20
150.7529992613181
 30
0.0
 10
157.6111553680925
 20
151.8430281919372
 30
0.0
 10
157.0582171779396
 20
152.5547853887321
 30
0.0
 10
156.1170164704645
 20
152.5547853887321
 30
0.0
 10
155.1096698860365
 20
152.5547853887321
 30
0.0
 10
154.2962823053817
 20
152.4412694176073
 30
0.0
 10
153.156643967048
 20
151.2945686288697
 30
0.0
 10
152.0170056287143
 20
150.1476955852443
 30
0.0
 10
151.076149431015
 20
148.7930831468137
 30
0.0
 10
150.3337308641742
 20
147.2290087646991
 30
0.0
 10
149.5957909244188
 20
145.6683794803425
 30
0.0
 10
148.8530278478023
 20
143.6822806228776
 30
0.0
 10
148.0964843801539
 20
141.2751908193897
 30
0.0
 10
148.0964843801539
 20
141.2751908193897
 30
0.0
 10
143.8552245303272
 20
127.8027915271048
 30
0.0
 10
143.8552245303272
 20
127.8027915271048
 30
0.0
 10
143.8552245303272
 20
127.8027915271048
 30
0.0
 10
141.486030802177
 20
127.8027915271048
 30
0.0
 10
141.486030802177
 20
127.8027915271048
 30
0.0
 10
141.486030802177
 20
127.8027915271048
 30
0.0
 10
146.3329388378533
 20
143.2092687007094
 30
0.0
 10
146.3329388378533
 20
143.2092687007094
 30
0.0
 10
146.8483254624444
 20
144.8408669988801
 30
0.0
 10
147.2314203331297
 20
146.1837661049335
 30
0.0
 10
147.4867020769946
 20
147.224185627838
 30
0.0
 10
147.9169947869641
 20
149.0197705792876
 30
0.0
 10
148.0306830129768
 20
150.2400242051577
 30
0.0
 10
147.709255392159
 20
151.3157559800812
 30
0.0
 10
147.3874832615654
 20
152.3916600098926
 30
0.0
 10
146.8245542879144
 20
152.6683013598569
 30
0.0
 10
145.8840425999909
 20
152.6683013598569
 30
0.0
 10
145.0989048209514
 20
152.6683013598569
 30
0.0
 10
144.3282364524954
 20
152.3275811915945
 30
0.0
 10
143.4531816219731
 20
151.6538923250251
 30
0.0
 10
142.34627171234
 20
150.8074318058939
 30
0.0
 10
141.901854101563
 20
150.1097995099067
 30
0.0
 10
141.3578731655808
 20
149.289521733736
 30
0.0
 10
140.6299240093235
 20
148.192602607601
 30
0.0
 10
140.2850697237515
 20
147.455696197173
 30
0.0
 10
139.6652966370942
 20
145.8385673095858
 30
0.0
 10
139.0506911970739
 20
144.2214384219986
 30
0.0
 10
138.463991048893
 20
142.3252566160164
 30
0.0
 10
138.0571250036777
 20
141.0154304484394
 30
0.0
 10
138.0571250036777
 20
141.0154304484394
 30
0.0
 10
133.9009590684727
 20
127.8027915271048
 30
0.0
 10
133.9009590684727
 20
127.8027915271048
 30
0.0
 10
133.9009590684727
 20
127.8027915271048
 30
0.0
 10
131.4180771143097
 20
127.8027915271048
 30
0.0
 10
131.4180771143097
 20
127.8027915271048
 30
0.0
 10
131.4180771143097
 20
127.8027915271048
 30
0.0
 10
139.8926730891197
 20
154.8294111834263
 30
0.0
 10
139.8926730891197
 20
154.8294111834263
 30
0.0
  0
HATCH
  5
3C4
330
3BD
100
AcDbEntity
  8
レイヤー 1
 62
   250
420
  2234388
100
AcDbHatch
 10
0.0
 20
0.0
 30
0.0
210
0.0
220
0.0
230
1.0
  2
SOLID
 70
     1
 71
     0
 91
        1
 92
        1
 93
        1
 72
     4
 94
        3
 73
     0
 74
     1
 95
      104
 96
      100
 40
0.0
 40
0.0
 40
0.0
 40
0.0
 40
1.0
 40
1.0
 40
1.0
 40
2.0
 40
2.0
 40
2.0
 40
3.0
 40
3.0
 40
3.0
 40
4.0
 40
4.0
 40
4.0
 40
5.0
 40
5.0
 40
5.0
 40
6.0
 40
6.0
 40
6.0
 40
7.0
 40
7.0
 40
7.0
 40
8.0
 40
8.0
 40
8.0
 40
9.0
 40
9.0
 40
9.0
 40
10.0
 40
10.0
 40
10.0
 40
11.0
 40
11.0
 40
11.0
 40
12.0
 40
12.0
 40
12.0
 40
13.0
 40
13.0
 40
13.0
 40
14.0
 40
14.0
 40
14.0
 40
15.0
 40
15.0
 40
15.0
 40
16.0
 40
16.0
 40
16.0
 40
17.0
 40
17.0
 40
17.0
 40
18.0
 40
18.0
 40
18.0
 40
19.0
 40
19.0
 40
19.0
 40
20.0
 40
20.0
 40
20.0
 40
21.0
 40
21.0
 40
21.0
 40
22.0
 40
22.0
 40
22.0
 40
23.0
 40
23.0
 40
23.0
 40
24.0
 40
24.0
 40
24.0
 40
25.0
 40
25.0
 40
25.0
 40
26.0
 40
26.0
 40
26.0
 40
27.0
 40
27.0
 40
27.0
 40
28.0
 40
28.0
 40
28.0
 40
29.0
 40
29.0
 40
29.0
 40
30.0
 40
30.0
 40
30.0
 40
31.0
 40
31.0
 40
31.0
 40
32.0
 40
32.0
 40
32.0
 40
33.0
 40
33.0
 40
33.0
 40
33.0
 10
139.8926730891197
 20
154.8294111834263
 10
139.8926730891197
 20
154.8294111834263
 10
142.0344903652445
 20
154.8294111834263
 10
142.0344903652445
 20
154.8294111834263
 10
142.0344903652445
 20
154.8294111834263
 10
140.9516961399171
 20
151.3157559800812
 10
140.9516961399171
 20
151.3157559800812
 10
141.8928968473923
 20
152.7887075264977
 10
142.7341897198865
 20
153.4484437471474
 10
143.8552245303272
 20
154.2926649527359
 10
144.9803934580775
 20
155.1296514530327
 10
146.3139908001845
 20
155.3044901642492
 10
147.241066606852
 20
155.3044901642492
 10
148.3855280820469
 20
155.3044901642492
 10
149.4969166187653
 20
155.0752189084569
 10
150.0784491203092
 20
153.8172414621372
 10
150.5228667310863
 20
152.833838307127
 10
150.5414702589793
 20
152.7201500811143
 10
150.4140016419347
 20
150.7765981809602
 10
151.5818897818837
 20
152.7699317437168
 10
152.4424752018226
 20
153.6256940267945
 10
153.9038856707499
 20
154.4507949398263
 10
155.4455669174378
 20
155.3044901642492
 10
156.339225275853
 20
155.3659851592288
 10
157.3748216618963
 20
155.2147453676543
 10
158.911679771723
 20
154.9877134254046
 10
159.8859534176746
 20
154.4390816074493
 10
160.3965169054045
 20
152.7816450760939
 10
160.9070803931344
 20
151.1219692311958
 10
160.6328506116007
 20
150.2303779314354
 10
159.9992971339115
 20
147.597634224801
 10
159.7105979417943
 20
146.4014962832367
 10
159.2947746424084
 20
144.9400858143094
 10
158.7463150793409
 20
143.2092687007094
 10
158.7463150793409
 20
143.2092687007094
 10
153.9038856707499
 20
127.8027915271048
 10
153.9038856707499
 20
127.8027915271048
 10
153.9038856707499
 20
127.8027915271048
 10
151.3882752878863
 20
127.8027915271048
 10
151.3882752878863
 20
127.8027915271048
 10
151.3882752878863
 20
127.8027915271048
 10
155.6250565106276
 20
141.2751908193897
 10
155.6250565106276
 20
141.2751908193897
 10
156.5094131050963
 20
144.0936252951782
 10
157.109893644309
 20
146.1506931664571
 10
157.4220195011804
 20
147.4415712963654
 10
157.8095929989511
 20
149.0530157726519
 10
157.9656559273867
 20
149.5826995529385
 10
157.7816877071116
 20
150.7529992613181
 10
157.6111553680925
 20
151.8430281919372
 10
157.0582171779396
 20
152.5547853887321
 10
156.1170164704645
 20
152.5547853887321
 10
155.1096698860365
 20
152.5547853887321
 10
154.2962823053817
 20
152.4412694176073
 10
153.156643967048
 20
151.2945686288697
 10
152.0170056287143
 20
150.1476955852443
 10
151.076149431015
 20
148.7930831468137
 10
150.3337308641742
 20
147.2290087646991
 10
149.5957909244188
 20
145.6683794803425
 10
148.8530278478023
 20
143.6822806228776
 10
148.0964843801539
 20
141.2751908193897
 10
148.0964843801539
 20
141.2751908193897
 10
143.8552245303272
 20
127.8027915271048
 10
143.8552245303272
 20
127.8027915271048
 10
143.8552245303272
 20
127.8027915271048
 10
141.486030802177
 20
127.8027915271048
 10
141.486030802177
 20
127.8027915271048
 10
141.486030802177
 20
127.8027915271048
 10
146.3329388378533
 20
143.2092687007094
 10
146.3329388378533
 20
143.2092687007094
 10
146.8483254624444
 20
144.8408669988801
 10
147.2314203331297
 20
146.1837661049335
 10
147.4867020769946
 20
147.224185627838
 10
147.9169947869641
 20
149.0197705792876
 10
148.0306830129768
 20
150.2400242051577
 10
147.709255392159
 20
151.3157559800812
 10
147.3874832615654
 20
152.3916600098926
 10
146.8245542879144
 20
152.6683013598569
 10
145.8840425999909
 20
152.6683013598569
 10
145.0989048209514
 20
152.6683013598569
 10
144.3282364524954
 20
152.3275811915945
 10
143.4531816219731
 20
151.6538923250251
 10
142.34627171234
 20
150.8074318058939
 10
141.901854101563
 20
150.1097995099067
 10
141.3578731655808
 20
149.289521733736
 10
140.6299240093235
 20
148.192602607601
 10
140.2850697237515
 20
147.455696197173
 10
139.6652966370942
 20
145.8385673095858
 10
139.0506911970739
 20
144.2214384219986
 10
138.463991048893
 20
142.3252566160164
 10
138.0571250036777
 20
141.0154304484394
 10
138.0571250036777
 20
141.0154304484394
 10
133.9009590684727
 20
127.8027915271048
 10
133.9009590684727
 20
127.8027915271048
 10
133.9009590684727
 20
127.8027915271048
 10
131.4180771143097
 20
127.8027915271048
 10
131.4180771143097
 20
127.8027915271048
 10
131.4180771143097
 20
127.8027915271048
 10
139.8926730891197
 20
154.8294111834263
 10
139.8926730891197
 20
154.8294111834263
 97
        0
 75
     2
 76
     1
 98
        0
  0
SPLINE
  5
3C5
330
3BD
100
AcDbEntity
  8
レイヤー 1
370
     0
100
AcDbSpline
210
0.0
220
0.0
230
1.0
 70
    11
 71
     3
 72
    29
 73
    25
 74
     0
 42
0.000000001
 43
0.0000000001
 40
0.0
 40
0.0
 40
0.0
 40
0.0
 40
1.0
 40
1.0
 40
1.0
 40
2.0
 40
2.0
 40
2.0
 40
3.0
 40
3.0
 40
3.0
 40
4.0
 40
4.0
 40
4.0
 40
5.0
 40
5.0
 40
5.0
 40
6.0
 40
6.0
 40
6.0
 40
7.0
 40
7.0
 40
7.0
 40
8.0
 40
8.0
 40
8.0
 40
8.0
 10
101.6420971922469
 20
132.8388354296931
 30
0.0
 10
101.630039350094
 20
134.7164137077823
 30
0.0
 10
102.2236296937908
 20
138.0598810818841
 30
0.0
 10
103.7487744712405
 20
142.5378191476827
 30
0.0
 10
105.819967243327
 20
148.5896501242061
 30
0.0
 10
107.0602024361932
 20
150.8074318058939
 30
0.0
 10
108.1522984254671
 20
151.8833358357054
 30
0.0
 10
109.741177511439
 20
153.4532668840085
 30
0.0
 10
111.8740375333931
 20
153.5290590346837
 30
0.0
 10
112.5075910110823
 20
153.4532668840085
 30
0.0
 10
113.4012493694975
 20
153.3490526768302
 30
0.0
 10
114.6683563248758
 20
152.7580461564518
 30
0.0
 10
114.7493161221879
 20
150.7838328862519
 30
0.0
 10
114.8106388622796
 20
149.0909118479895
 30
0.0
 10
114.3186789024427
 20
145.9191825971221
 30
0.0
 10
112.6164561002338
 20
140.9489400617108
 30
0.0
 10
110.6444821435766
 20
135.1746117095912
 30
0.0
 10
109.4669477299053
 20
132.8960240524753
 30
0.0
 10
108.5212683953448
 20
131.9072809959403
 30
0.0
 10
106.7346406980658
 20
130.0538184021569
 30
0.0
 10
104.8222669326213
 20
130.2336525051225
 30
0.0
 10
104.5408024457958
 20
130.2336525051225
 30
0.0
 10
104.1721769856939
 20
130.2336525051225
 30
0.0
 10
101.6465758193322
 20
130.6305277668397
 30
0.0
 10
101.6420971922469
 20
132.8388354296931
 30
0.0
  0
SPLINE
  5
3C6
330
3BD
100
AcDbEntity
  8
レイヤー 1
370
     0
100
AcDbSpline
210
0.0
220
0.0
230
1.0
 70
    11
 71
     3
 72
    32
 73
    28
 74
     0
 42
0.000000001
 43
0.0000000001
 40
0.0
 40
0.0
 40
0.0
 40
0.0
 40
1.0
 40
1.0
 40
1.0
 40
2.0
 40
2.0
 40
2.0
 40
3.0
 40
3.0
 40
3.0
 40
4.0
 40
4.0
 40
4.0
 40
5.0
 40
5.0
 40
5.0
 40
6.0
 40
6.0
 40
6.0
 40
7.0
 40
7.0
 40
7.0
 40
8.0
 40
8.0
 40
8.0
 40
9.0
 40
9.0
 40
9.0
 40
9.0
 10
106.2595617172429
 20
153.4105476718098
 30
0.0
 10
104.8222669326213
 20
151.5474388043041
 30
0.0
 10
103.7177685914188
 20
149.8758773721411
 30
0.0
 10
101.9232171692965
 20
144.6141795664062
 30
0.0
 10
100.2754269116635
 20
139.7999999594306
 30
0.0
 10
99.22777268346732
 20
136.3052927937542
 30
0.0
 10
99.06964269637689
 20
132.039572749846
 30
0.0
 10
98.94665270641765
 20
128.8673267343149
 30
0.0
 10
100.8807305877373
 20
127.8027915271048
 30
0.0
 10
103.7129454545577
 20
127.8027915271048
 30
0.0
 10
104.9352661390825
 20
127.8027915271048
 30
0.0
 10
108.0151835347002
 20
127.8827177950895
 30
0.0
 10
110.2045431598849
 20
130.5926316915021
 30
0.0
 10
111.7417457794874
 20
132.4984597712065
 30
0.0
 10
113.155269389579
 20
134.475256864725
 30
0.0
 10
115.0562743324223
 20
140.9489400617108
 30
0.0
 10
116.6361961642235
 20
146.3680788349845
 30
0.0
 10
117.7282921534974
 20
149.8639917848761
 30
0.0
 10
117.6480213757369
 20
151.8595646611754
 30
0.0
 10
117.6480213757369
 20
151.8595646611754
 30
0.0
 10
117.6480213757369
 20
151.8595646611754
 30
0.0
 10
117.6480213757369
 20
151.8595646611754
 30
0.0
 10
117.13229024137
 20
155.18150017429
 30
0.0
 10
114.7162431837115
 20
155.886194920681
 30
0.0
 10
113.3351034925446
 20
155.886194920681
 30
0.0
 10
111.9829026225447
 20
155.886194920681
 30
0.0
 10
108.3414342923792
 20
156.1251124501957
 30
0.0
 10
106.2595617172429
 20
153.4105476718098
 30
0.0
  0
HATCH
  5
3C7
330
3BD
100
AcDbEntity
  8
レイヤー 1
 62
   250
420
  2234388
100
AcDbHatch
 10
0.0
 20
0.0
 30
0.0
210
0.0
220
0.0
230
1.0
  2
SOLID
 70
     1
 71
     0
 91
        2
 92
        1
 93
        1
 72
     4
 94
        3
 73
     0
 74
     1
 95
       29
 96
       25
 40
0.0
 40
0.0
 40
0.0
 40
0.0
 40
1.0
 40
1.0
 40
1.0
 40
2.0
 40
2.0
 40
2.0
 40
3.0
 40
3.0
 40
3.0
 40
4.0
 40
4.0
 40
4.0
 40
5.0
 40
5.0
 40
5.0
 40
6.0
 40
6.0
 40
6.0
 40
7.0
 40
7.0
 40
7.0
 40
8.0
 40
8.0
 40
8.0
 40
8.0
 10
101.6420971922469
 20
132.8388354296931
 10
101.630039350094
 20
134.7164137077823
 10
102.2236296937908
 20
138.0598810818841
 10
103.7487744712405
 20
142.5378191476827
 10
105.819967243327
 20
148.5896501242061
 10
107.0602024361932
 20
150.8074318058939
 10
108.1522984254671
 20
151.8833358357054
 10
109.741177511439
 20
153.4532668840085
 10
111.8740375333931
 20
153.5290590346837
 10
112.5075910110823
 20
153.4532668840085
 10
113.4012493694975
 20
153.3490526768302
 10
114.6683563248758
 20
152.7580461564518
 10
114.7493161221879
 20
150.7838328862519
 10
114.8106388622796
 20
149.0909118479895
 10
114.3186789024427
 20
145.9191825971221
 10
112.6164561002338
 20
140.9489400617108
 10
110.6444821435766
 20
135.1746117095912
 10
109.4669477299053
 20
132.8960240524753
 10
108.5212683953448
 20
131.9072809959403
 10
106.7346406980658
 20
130.0538184021569
 10
104.8222669326213
 20
130.2336525051225
 10
104.5408024457958
 20
130.2336525051225
 10
104.1721769856939
 20
130.2336525051225
 10
101.6465758193322
 20
130.6305277668397
 10
101.6420971922469
 20
132.8388354296931
 97
        0
 92
        1
 93
        1
 72
     4
 94
        3
 73
     0
 74
     1
 95
       32
 96
       28
 40
0.0
 40
0.0
 40
0.0
 40
0.0
 40
1.0
 40
1.0
 40
1.0
 40
2.0
 40
2.0
 40
2.0
 40
3.0
 40
3.0
 40
3.0
 40
4.0
 40
4.0
 40
4.0
 40
5.0
 40
5.0
 40
5.0
 40
6.0
 40
6.0
 40
6.0
 40
7.0
 40
7.0
 40
7.0
 40
8.0
 40
8.0
 40
8.0
 40
9.0
 40
9.0
 40
9.0
 40
9.0
 10
106.2595617172429
 20
153.4105476718098
 10
104.8222669326213
 20
151.5474388043041
 10
103.7177685914188
 20
149.8758773721411
 10
101.9232171692965
 20
144.6141795664062
 10
100.2754269116635
 20
139.7999999594306
 10
99.22777268346732
 20
136.3052927937542
 10
99.06964269637689
 20
132.039572749846
 10
98.94665270641765
 20
128.8673267343149
 10
100.8807305877373
 20
127.8027915271048
 10
103.7129454545577
 20
127.8027915271048
 10
104.9352661390825
 20
127.8027915271048
 10
108.0151835347002
 20
127.8827177950895
 10
110.2045431598849
 20
130.5926316915021
 10
111.7417457794874
 20
132.4984597712065
 10
113.155269389579
 20
134.475256864725
 10
115.0562743324223
 20
140.9489400617108
 10
116.6361961642235
 20
146.3680788349845
 10
117.7282921534974
 20
149.8639917848761
 10
117.6480213757369
 20
151.8595646611754
 10
117.6480213757369
 20
151.8595646611754
 10
117.6480213757369
 20
151.8595646611754
 10
117.6480213757369
 20
151.8595646611754
 10
117.13229024137
 20
155.18150017429
 10
114.7162431837115
 20
155.886194920681
 10
113.3351034925446
 20
155.886194920681
 10
111.9829026225447
 20
155.886194920681
 10
108.3414342923792
 20
156.1251124501957
 10
106.2595617172429
 20
153.4105476718098
 97
        0
 75
     2
 76
     1
 98
        0
  0
ENDBLK
  5
3C8
330
3BD
100
AcDbEntity
  8
0
100
AcDbBlockEnd
  0
BLOCK
  5
11F1
330
11F0
100
AcDbEntity
  8
0
100
AcDbBlockBegin
  2
BLOCK_2
 70
     0
 10
0.0
 20
0.0
 30
0.0
  3
BLOCK_2
  1
BLOCK_2
  0
ENDBLK
  5
11F2
330
11F0
100
AcDbEntity
  8
0
100
AcDbBlockEnd
  0
BLOCK
  5
38B7
330
38B6
100
AcDbEntity
  8
0
100
AcDbBlockBegin
  2
mobile_latù
 70
     0
 10
0.0
 20
0.0
 30
0.0
  3
mobile_latù
  1
mobile_latù
  0
ENDBLK
  5
38B8
330
38B6
100
AcDbEntity
  8
0
100
AcDbBlockEnd
  0
BLOCK
  5
4FF9
330
4FF8
100
AcDbEntity
  8
0
100
AcDbBlockBegin
  2
*D8
 70
     1
 10
0.0
 20
0.0
 30
0.0
  3
*D8
  1
*D26
  0
LINE
  5
4FFB
330
4FF8
100
AcDbEntity
  8
Dim
 62
     0
370
    -2
100
AcDbLine
 10
1218.775732351491
 20
1537.191964660655
 30
0.0
 11
1289.192180018747
 21
1537.191964660655
 31
0.0
  0
LINE
  5
4FFC
330
4FF8
100
AcDbEntity
  8
Dim
 62
     0
370
    -2
100
AcDbLine
 10
1198.775732351491
 20
1439.191964660655
 30
0.0
 11
1289.192180018747
 21
1439.191964660655
 31
0.0
  0
LINE
  5
4FFD
330
4FF8
100
AcDbEntity
  8
Dim
 62
     0
370
    -2
100
AcDbLine
 10
1289.192180018747
 20
1527.192575012218
 30
0.0
 11
1289.192180018747
 21
1449.191354309093
 31
0.0
  0
INSERT
  5
4FFE
330
4FF8
100
AcDbEntity
  8
Dim
 62
     0
370
    -2
100
AcDbBlockReference
  2
_DOT
 10
1289.192180018747
 20
1537.191964660655
 30
0.0
 41
9.999389648437498
 42
9.999389648437498
 43
9.999389648437498
 50
90.0
  0
INSERT
  5
4FFF
330
4FF8
100
AcDbEntity
  8
Dim
 62
     0
370
    -2
100
AcDbBlockReference
  2
_DOT
 10
1289.192180018747
 20
1439.191964660655
 30
0.0
 41
9.999389648437498
 42
9.999389648437498
 43
9.999389648437498
 50
270.0
  0
MTEXT
  5
5000
330
4FF8
100
AcDbEntity
  8
Dim
 62
     0
100
AcDbMText
 10
1266.975871424997
 20
1488.191964660655
 30
0.0
 40
24.4326171875
 41
0.0
 46
0.0
 71
     5
 72
     1
  1
\A1;98
  7
ＭＳ ゴシック
 11
0.0
 21
1.0
 31
0.0
 73
     1
 44
1.0
  0
POINT
  5
5001
330
4FF8
100
AcDbEntity
  8
Defpoints
 62
     0
100
AcDbPoint
 10
1193.775732351491
 20
1537.191964660655
 30
0.0
  0
POINT
  5
5002
330
4FF8
100
AcDbEntity
  8
Defpoints
 62
     0
100
AcDbPoint
 10
1173.775732351491
 20
1439.191964660655
 30
0.0
  0
POINT
  5
5003
330
4FF8
100
AcDbEntity
  8
Defpoints
 62
     0
100
AcDbPoint
 10
1289.192180018747
 20
1439.191964660655
 30
0.0
  0
ENDBLK
  5
4FFA
330
4FF8
100
AcDbEntity
  8
0
100
AcDbBlockEnd
  0
BLOCK
  5
500C
330
500B
100
AcDbEntity
  8
0
100
AcDbBlockBegin
  2
*D9
 70
     1
 10
0.0
 20
0.0
 30
0.0
  3
*D9
  1
*D27
  0
LINE
  5
500E
330
500B
100
AcDbEntity
  8
Dim
 62
     0
370
    -2
100
AcDbLine
 10
1193.775732351491
 20
1562.191964660655
 30
0.0
 11
1193.775732351491
 21
1672.42118731208
 31
0.0
  0
LINE
  5
500F
330
500B
100
AcDbEntity
  8
Dim
 62
     0
370
    -2
100
AcDbLine
 10
1173.775732351491
 20
1562.191964660655
 30
0.0
 11
1173.775732351491
 21
1672.42118731208
 31
0.0
  0
LINE
  5
5010
330
500B
100
AcDbEntity
  8
Dim
 62
     0
370
    -2
100
AcDbLine
 10
1173.775732351491
 20
1672.42118731208
 30
0.0
 11
1100.211489668977
 21
1672.42118731208
 31
0.0
  0
LINE
  5
5011
330
500B
100
AcDbEntity
  8
Dim
 62
     0
370
    -2
100
AcDbLine
 10
1183.776342703053
 20
1672.42118731208
 30
0.0
 11
1183.775121999928
 21
1672.42118731208
 31
0.0
  0
INSERT
  5
5012
330
500B
100
AcDbEntity
  8
Dim
 62
     0
370
    -2
100
AcDbBlockReference
  2
_DOT
 10
1193.775732351491
 20
1672.42118731208
 30
0.0
 41
9.999389648437498
 42
9.999389648437498
 43
9.999389648437498
  0
INSERT
  5
5013
330
500B
100
AcDbEntity
  8
Dim
 62
     0
370
    -2
100
AcDbBlockReference
  2
_DOT
 10
1173.775732351491
 20
1672.42118731208
 30
0.0
 41
9.999389648437498
 42
9.999389648437498
 43
9.999389648437498
 50
180.0
  0
MTEXT
  5
5014
330
500B
100
AcDbEntity
  8
Dim
 62
     0
100
AcDbMText
 10
1124.724464278352
 20
1694.63749590583
 30
0.0
 40
24.4326171875
 41
0.0
 46
0.0
 71
     5
 72
     1
  1
\A1;20
  7
ＭＳ ゴシック
 73
     1
 44
1.0
  0
POINT
  5
5015
330
500B
100
AcDbEntity
  8
Defpoints
 62
     0
100
AcDbPoint
 10
1193.775732351491
 20
1537.191964660655
 30
0.0
  0
POINT
  5
5016
330
500B
100
AcDbEntity
  8
Defpoints
 62
     0
100
AcDbPoint
 10
1173.775732351491
 20
1537.191964660655
 30
0.0
  0
POINT
  5
508B
330
500B
100
AcDbEntity
  8
Defpoints
 62
     0
100
AcDbPoint
 10
1173.775732351491
 20
1672.42118731208
 30
0.0
  0
ENDBLK
  5
500D
330
500B
100
AcDbEntity
  8
0
100
AcDbBlockEnd
  0
BLOCK
  5
5058
330
5057
100
AcDbEntity
  8
0
100
AcDbBlockBegin
  2
*D10
 70
     1
 10
0.0
 20
0.0
 30
0.0
  3
*D10
  1
*D31
  0
LINE
  5
505A
330
5057
100
AcDbEntity
  8
Dim
 62
     0
370
    -2
100
AcDbLine
 10
1474.040036263704
 20
1559.191964660655
 30
0.0
 11
1474.040036263704
 21
1672.42118731208
 31
0.0
  0
LINE
  5
505B
330
5057
100
AcDbEntity
  8
Dim
 62
     0
370
    -2
100
AcDbLine
 10
1524.040036263704
 20
1559.191964660655
 30
0.0
 11
1524.040036263704
 21
1672.42118731208
 31
0.0
  0
LINE
  5
505C
330
5057
100
AcDbEntity
  8
Dim
 62
     0
370
    -2
100
AcDbLine
 10
1484.039425912142
 20
1672.42118731208
 30
0.0
 11
1514.040646615267
 21
1672.42118731208
 31
0.0
  0
INSERT
  5
505D
330
5057
100
AcDbEntity
  8
Dim
 62
     0
370
    -2
100
AcDbBlockReference
  2
_DOT
 10
1474.040036263704
 20
1672.42118731208
 30
0.0
 41
9.999389648437498
 42
9.999389648437498
 43
9.999389648437498
 50
180.0
  0
INSERT
  5
505E
330
5057
100
AcDbEntity
  8
Dim
 62
     0
370
    -2
100
AcDbBlockReference
  2
_DOT
 10
1524.040036263704
 20
1672.42118731208
 30
0.0
 41
9.999389648437498
 42
9.999389648437498
 43
9.999389648437498
  0
MTEXT
  5
505F
330
5057
100
AcDbEntity
  8
Dim
 62
     0
100
AcDbMText
 10
1499.040036263704
 20
1694.63749590583
 30
0.0
 40
24.4326171875
 41
0.0
 46
0.0
 71
     5
 72
     1
  1
\A1;50
  7
ＭＳ ゴシック
 73
     1
 44
1.0
  0
POINT
  5
5060
330
5057
100
AcDbEntity
  8
Defpoints
 62
     0
100
AcDbPoint
 10
1474.040036263704
 20
1534.191964660655
 30
0.0
  0
POINT
  5
5061
330
5057
100
AcDbEntity
  8
Defpoints
 62
     0
100
AcDbPoint
 10
1524.040036263704
 20
1534.191964660655
 30
0.0
  0
POINT
  5
5062
330
5057
100
AcDbEntity
  8
Defpoints
 62
     0
100
AcDbPoint
 10
1524.040036263704
 20
1672.42118731208
 30
0.0
  0
ENDBLK
  5
5059
330
5057
100
AcDbEntity
  8
0
100
AcDbBlockEnd
  0
BLOCK
  5
5080
330
507F
100
AcDbEntity
  8
0
100
AcDbBlockBegin
  2
*D11
 70
     1
 10
0.0
 20
0.0
 30
0.0
  3
*D11
  1
*D33
  0
LINE
  5
5082
330
507F
100
AcDbEntity
  8
Dim
 62
     0
370
    -2
100
AcDbLine
 10
1193.775732351491
 20
1431.317205371051
 30
0.0
 11
1193.775732351491
 21
1310.597093863823
 31
0.0
  0
LINE
  5
5083
330
507F
100
AcDbEntity
  8
Dim
 62
     0
370
    -2
100
AcDbLine
 10
253.7757323514907
 20
1431.317205371051
 30
0.0
 11
253.7757323514907
 21
1310.597093863823
 31
0.0
  0
LINE
  5
5084
330
507F
100
AcDbEntity
  8
Dim
 62
     0
370
    -2
100
AcDbLine
 10
1183.776342703053
 20
1310.597093863823
 30
0.0
 11
263.7751219999282
 21
1310.597093863823
 31
0.0
  0
INSERT
  5
5085
330
507F
100
AcDbEntity
  8
Dim
 62
     0
370
    -2
100
AcDbBlockReference
  2
_DOT
 10
1193.775732351491
 20
1310.597093863823
 30
0.0
 41
9.999389648437498
 42
9.999389648437498
 43
9.999389648437498
  0
INSERT
  5
5086
330
507F
100
AcDbEntity
  8
Dim
 62
     0
370
    -2
100
AcDbBlockReference
  2
_DOT
 10
253.7757323514907
 20
1310.597093863823
 30
0.0
 41
9.999389648437498
 42
9.999389648437498
 43
9.999389648437498
 50
180.0
  0
MTEXT
  5
5087
330
507F
100
AcDbEntity
  8
Dim
 62
     0
100
AcDbMText
 10
723.7757323514907
 20
1332.813402457573
 30
0.0
 40
24.4326171875
 41
0.0
 46
0.0
 71
     5
 72
     1
  1
\A1;940
  7
ＭＳ ゴシック
 73
     1
 44
1.0
  0
POINT
  5
5088
330
507F
100
AcDbEntity
  8
Defpoints
 62
     0
100
AcDbPoint
 10
1193.775732351491
 20
1456.317205371051
 30
0.0
  0
POINT
  5
5089
330
507F
100
AcDbEntity
  8
Defpoints
 62
     0
100
AcDbPoint
 10
253.7757323514907
 20
1456.317205371051
 30
0.0
  0
POINT
  5
508A
330
507F
100
AcDbEntity
  8
Defpoints
 62
     0
100
AcDbPoint
 10
253.7757323514907
 20
1310.597093863823
 30
0.0
  0
ENDBLK
  5
5081
330
507F
100
AcDbEntity
  8
0
100
AcDbBlockEnd
  0
BLOCK
  5
50A3
330
50A2
100
AcDbEntity
  8
0
100
AcDbBlockBegin
  2
*D12
 70
     1
 10
0.0
 20
0.0
 30
0.0
  3
*D12
  1
*D34
  0
LINE
  5
50A5
330
50A2
100
AcDbEntity
  8
Dim
 62
     0
370
    -2
100
AcDbLine
 10
1474.040036263704
 20
1424.191964660655
 30
0.0
 11
1474.040036263704
 21
1310.597093863823
 31
0.0
  0
LINE
  5
50A6
330
50A2
100
AcDbEntity
  8
Dim
 62
     0
370
    -2
100
AcDbLine
 10
1494.040036263704
 20
1424.191964660655
 30
0.0
 11
1494.040036263704
 21
1310.597093863823
 31
0.0
  0
LINE
  5
50A7
330
50A2
100
AcDbEntity
  8
Dim
 62
     0
370
    -2
100
AcDbLine
 10
1494.040036263704
 20
1310.597093863823
 30
0.0
 11
1563.064764779329
 21
1310.597093863823
 31
0.0
  0
LINE
  5
50A8
330
50A2
100
AcDbEntity
  8
Dim
 62
     0
370
    -2
100
AcDbLine
 10
1484.039425912142
 20
1310.597093863823
 30
0.0
 11
1484.040646615267
 21
1310.597093863823
 31
0.0
  0
INSERT
  5
50A9
330
50A2
100
AcDbEntity
  8
Dim
 62
     0
370
    -2
100
AcDbBlockReference
  2
_DOT
 10
1474.040036263704
 20
1310.597093863823
 30
0.0
 41
9.999389648437498
 42
9.999389648437498
 43
9.999389648437498
 50
180.0
  0
INSERT
  5
50AA
330
50A2
100
AcDbEntity
  8
Dim
 62
     0
370
    -2
100
AcDbBlockReference
  2
_DOT
 10
1494.040036263704
 20
1310.597093863823
 30
0.0
 41
9.999389648437498
 42
9.999389648437498
 43
9.999389648437498
  0
MTEXT
  5
50AB
330
50A2
100
AcDbEntity
  8
Dim
 62
     0
100
AcDbMText
 10
1538.551790169954
 20
1332.813402457573
 30
0.0
 40
24.4326171875
 41
0.0
 46
0.0
 71
     5
 72
     1
  1
\A1;20
  7
ＭＳ ゴシック
 73
     1
 44
1.0
  0
POINT
  5
50AC
330
50A2
100
AcDbEntity
  8
Defpoints
 62
     0
100
AcDbPoint
 10
1474.040036263704
 20
1449.191964660655
 30
0.0
  0
POINT
  5
50AD
330
50A2
100
AcDbEntity
  8
Defpoints
 62
     0
100
AcDbPoint
 10
1494.040036263704
 20
1449.191964660655
 30
0.0
  0
POINT
  5
50AE
330
50A2
100
AcDbEntity
  8
Defpoints
 62
     0
100
AcDbPoint
 10
1494.040036263704
 20
1310.597093863823
 30
0.0
  0
ENDBLK
  5
50A4
330
50A2
100
AcDbEntity
  8
0
100
AcDbBlockEnd
  0
BLOCK
  5
5170
330
516F
100
AcDbEntity
  8
0
100
AcDbBlockBegin
  2
*D13
 70
     1
 10
0.0
 20
0.0
 30
0.0
  3
*D13
  1

  0
LINE
  5
5171
330
516F
100
AcDbEntity
  8
Dim
 62
     0
 48
0.5
370
    -2
100
AcDbLine
 10
102.2289795867755
 20
926.8211984696657
 30
0.0
 11
102.2289795867755
 21
971.4884215310385
 31
0.0
  0
LINE
  5
5172
330
516F
100
AcDbEntity
  8
Dim
 62
     0
 48
0.5
370
    -2
100
AcDbLine
 10
702.0157977513581
 20
926.8211984696657
 30
0.0
 11
702.0157977513581
 21
971.4884215310385
 31
0.0
  0
LINE
  5
5173
330
516F
100
AcDbEntity
  8
Dim
 62
     0
 48
0.5
370
    -2
100
AcDbLine
 10
105.2289795867755
 20
971.4884215310385
 30
0.0
 11
699.0157977513581
 21
971.4884215310385
 31
0.0
  0
INSERT
  5
5174
330
516F
100
AcDbEntity
  8
Dim
 62
     0
370
    -2
100
AcDbBlockReference
  2
_DOT
 10
102.2289795867755
 20
971.4884215310385
 30
0.0
 41
3.0
 42
3.0
 43
3.0
 50
180.0
  0
INSERT
  5
5175
330
516F
100
AcDbEntity
  8
Dim
 62
     0
370
    -2
100
AcDbBlockReference
  2
_DOT
 10
702.0157977513581
 20
971.4884215310385
 30
0.0
 41
3.0
 42
3.0
 43
3.0
  0
MTEXT
  5
5176
330
516F
100
AcDbEntity
  8
Dim
 62
     0
100
AcDbMText
 10
409.8967296798719
 20
987.4884215310385
 30
0.0
 40
12.0
 41
0.0
 46
0.0
 71
     5
 72
     1
  1
\A1;600
  7
ＭＳ ゴシック
 73
     1
 44
1.0
  0
POINT
  5
5177
330
516F
100
AcDbEntity
  8
Defpoints
 62
     0
100
AcDbPoint
 10
102.2289795867755
 20
916.8211984696657
 30
0.0
  0
POINT
  5
5178
330
516F
100
AcDbEntity
  8
Defpoints
 62
     0
100
AcDbPoint
 10
702.0157977513581
 20
916.8211984696657
 30
0.0
  0
POINT
  5
5179
330
516F
100
AcDbEntity
  8
Defpoints
 62
     0
100
AcDbPoint
 10
702.0157977513581
 20
971.4884215310385
 30
0.0
  0
ENDBLK
  5
517A
330
516F
100
AcDbEntity
  8
0
100
AcDbBlockEnd
  0
BLOCK
  5
517D
330
517C
100
AcDbEntity
  8
0
100
AcDbBlockBegin
  2
*D14
 70
     1
 10
0.0
 20
0.0
 30
0.0
  3
*D14
  1

  0
LINE
  5
517E
330
517C
100
AcDbEntity
  8
Dim
 62
     0
 48
0.5
370
    -2
100
AcDbLine
 10
711.4265832319511
 20
917.8088133332142
 30
0.0
 11
767.6068743999153
 21
917.8088133332142
 31
0.0
  0
LINE
  5
517F
330
517C
100
AcDbEntity
  8
Dim
 62
     0
 48
0.5
370
    -2
100
AcDbLine
 10
711.4265832319511
 20
547.8088133332142
 30
0.0
 11
767.6068743999153
 21
547.8088133332142
 31
0.0
  0
LINE
  5
5180
330
517C
100
AcDbEntity
  8
Dim
 62
     0
 48
0.5
370
    -2
100
AcDbLine
 10
767.6068743999153
 20
914.8088133332142
 30
0.0
 11
767.6068743999153
 21
550.8088133332142
 31
0.0
  0
INSERT
  5
5181
330
517C
100
AcDbEntity
  8
Dim
 62
     0
370
    -2
100
AcDbBlockReference
  2
_DOT
 10
767.6068743999153
 20
917.8088133332142
 30
0.0
 41
3.0
 42
3.0
 43
3.0
 50
90.0
  0
INSERT
  5
5182
330
517C
100
AcDbEntity
  8
Dim
 62
     0
370
    -2
100
AcDbBlockReference
  2
_DOT
 10
767.6068743999153
 20
547.8088133332142
 30
0.0
 41
3.0
 42
3.0
 43
3.0
 50
270.0
  0
MTEXT
  5
5183
330
517C
100
AcDbEntity
  8
Dim
 62
     0
100
AcDbMText
 10
751.6068743999153
 20
741.0412123961466
 30
0.0
 40
12.0
 41
0.0
 46
0.0
 71
     5
 72
     1
  1
\A1;370
  7
ＭＳ ゴシック
 11
0.0
 21
1.0
 31
0.0
 73
     1
 44
1.0
  0
POINT
  5
5184
330
517C
100
AcDbEntity
  8
Defpoints
 62
     0
100
AcDbPoint
 10
701.4265832319511
 20
917.8088133332142
 30
0.0
  0
POINT
  5
5185
330
517C
100
AcDbEntity
  8
Defpoints
 62
     0
100
AcDbPoint
 10
701.4265832319511
 20
547.8088133332142
 30
0.0
  0
POINT
  5
5186
330
517C
100
AcDbEntity
  8
Defpoints
 62
     0
100
AcDbPoint
 10
767.6068743999153
 20
547.8088133332142
 30
0.0
  0
ENDBLK
  5
5187
330
517C
100
AcDbEntity
  8
0
100
AcDbBlockEnd
  0
BLOCK
  5
518A
330
5189
100
AcDbEntity
  8
0
100
AcDbBlockBegin
  2
*D15
 70
     1
 10
0.0
 20
0.0
 30
0.0
  3
*D15
  1

  0
LINE
  5
518B
330
5189
100
AcDbEntity
  8
Dim
 62
     0
370
    -2
100
AcDbLine
 10
171.1080163086981
 20
99.65977515971946
 30
0.0
 11
171.1080163086981
 21
50.06245888920859
 31
0.0
  0
LINE
  5
518C
330
5189
100
AcDbEntity
  8
Dim
 62
     0
370
    -2
100
AcDbLine
 10
634.2354716764703
 20
100.2594328471631
 30
0.0
 11
634.2354716764703
 21
50.06245888920859
 31
0.0
  0
LINE
  5
518D
330
5189
100
AcDbEntity
  8
Dim
 62
     0
370
    -2
100
AcDbLine
 10
174.1080163086981
 20
50.06245888920859
 30
0.0
 11
631.2354716764703
 21
50.06245888920859
 31
0.0
  0
INSERT
  5
518E
330
5189
100
AcDbEntity
  8
Dim
 62
     0
370
    -2
100
AcDbBlockReference
  2
_DOT
 10
171.1080163086981
 20
50.06245888920859
 30
0.0
 41
3.0
 42
3.0
 43
3.0
 50
180.0
  0
INSERT
  5
518F
330
5189
100
AcDbEntity
  8
Dim
 62
     0
370
    -2
100
AcDbBlockReference
  2
_DOT
 10
634.2354716764703
 20
50.06245888920859
 30
0.0
 41
3.0
 42
3.0
 43
3.0
  0
MTEXT
  5
5190
330
5189
100
AcDbEntity
  8
Dim
 62
     0
100
AcDbMText
 10
402.6717439925842
 20
66.06245888920859
 30
0.0
 40
12.0
 41
0.0
 46
0.0
 71
     5
 72
     1
  1
\A1;460
  7
ＭＳ ゴシック
 73
     1
 44
1.0
  0
POINT
  5
5191
330
5189
100
AcDbEntity
  8
Defpoints
 62
     0
100
AcDbPoint
 10
171.1080163086981
 20
109.6597751597195
 30
0.0
  0
POINT
  5
5192
330
5189
100
AcDbEntity
  8
Defpoints
 62
     0
100
AcDbPoint
 10
634.2354716764703
 20
110.2594328471631
 30
0.0
  0
POINT
  5
5193
330
5189
100
AcDbEntity
  8
Defpoints
 62
     0
100
AcDbPoint
 10
634.2354716764703
 20
50.06245888920859
 30
0.0
  0
ENDBLK
  5
5194
330
5189
100
AcDbEntity
  8
0
100
AcDbBlockEnd
  0
BLOCK
  5
519A
330
5199
100
AcDbEntity
  8
0
100
AcDbBlockBegin
  2
*D16
 70
     1
 10
0.0
 20
0.0
 30
0.0
  3
*D16
  1

  0
LINE
  5
519B
330
5199
100
AcDbEntity
  8
Dim
 62
     0
 48
0.5
370
    -2
100
AcDbLine
 10
108.6597421610286
 20
544.293425379251
 30
0.0
 11
108.6597421610286
 21
485.7800598009374
 31
0.0
  0
LINE
  5
519C
330
5199
100
AcDbEntity
  8
Dim
 62
     0
 48
0.5
370
    -2
100
AcDbLine
 10
695.5840280497005
 20
540.894011316751
 30
0.0
 11
695.5840280497005
 21
485.7800598009374
 31
0.0
  0
LINE
  5
519D
330
5199
100
AcDbEntity
  8
Dim
 62
     0
 48
0.5
370
    -2
100
AcDbLine
 10
111.6597421610286
 20
485.7800598009374
 30
0.0
 11
692.5840280497005
 21
485.7800598009374
 31
0.0
  0
INSERT
  5
519E
330
5199
100
AcDbEntity
  8
Dim
 62
     0
370
    -2
100
AcDbBlockReference
  2
_DOT
 10
108.6597421610286
 20
485.7800598009374
 30
0.0
 41
3.0
 42
3.0
 43
3.0
 50
180.0
  0
INSERT
  5
519F
330
5199
100
AcDbEntity
  8
Dim
 62
     0
370
    -2
100
AcDbBlockReference
  2
_DOT
 10
695.5840280497005
 20
485.7800598009374
 30
0.0
 41
3.0
 42
3.0
 43
3.0
  0
MTEXT
  5
51A0
330
5199
100
AcDbEntity
  8
Dim
 62
     0
100
AcDbMText
 10
402.1218851053645
 20
501.7800598009374
 30
0.0
 40
12.0
 41
0.0
 46
0.0
 71
     5
 72
     1
  1
\A1;585
  7
ＭＳ ゴシック
 73
     1
 44
1.0
  0
POINT
  5
51A1
330
5199
100
AcDbEntity
  8
Defpoints
 62
     0
100
AcDbPoint
 10
108.6597421610286
 20
554.293425379251
 30
0.0
  0
POINT
  5
51A2
330
5199
100
AcDbEntity
  8
Defpoints
 62
     0
100
AcDbPoint
 10
695.5840280497005
 20
550.894011316751
 30
0.0
  0
POINT
  5
51A3
330
5199
100
AcDbEntity
  8
Defpoints
 62
     0
100
AcDbPoint
 10
695.5840280497005
 20
485.7800598009374
 30
0.0
  0
ENDBLK
  5
51A4
330
5199
100
AcDbEntity
  8
0
100
AcDbBlockEnd
  0
BLOCK
  5
51A7
330
51A6
100
AcDbEntity
  8
0
100
AcDbBlockBegin
  2
*D17
 70
     1
 10
0.0
 20
0.0
 30
0.0
  3
*D17
  1

  0
LINE
  5
51A8
330
51A6
100
AcDbEntity
  8
Dim
 62
     0
370
    -2
100
AcDbLine
 10
124.2289640728968
 20
176.3944313125618
 30
0.0
 11
124.2289640728968
 21
1.499999999999943
 31
0.0
  0
LINE
  5
51A9
330
51A6
100
AcDbEntity
  8
Dim
 62
     0
370
    -2
100
AcDbLine
 10
680.015810864822
 20
176.3944313125618
 30
0.0
 11
680.015810864822
 21
1.499999999999943
 31
0.0
  0
LINE
  5
51AA
330
51A6
100
AcDbEntity
  8
Dim
 62
     0
370
    -2
100
AcDbLine
 10
127.2289640728968
 20
1.499999999999943
 30
0.0
 11
677.015810864822
 21
1.499999999999943
 31
0.0
  0
INSERT
  5
51AB
330
51A6
100
AcDbEntity
  8
Dim
 62
     0
370
    -2
100
AcDbBlockReference
  2
_DOT
 10
124.2289640728968
 20
1.499999999999943
 30
0.0
 41
3.0
 42
3.0
 43
3.0
 50
180.0
  0
INSERT
  5
51AC
330
51A6
100
AcDbEntity
  8
Dim
 62
     0
370
    -2
100
AcDbBlockReference
  2
_DOT
 10
680.015810864822
 20
1.499999999999943
 30
0.0
 41
3.0
 42
3.0
 43
3.0
  0
MTEXT
  5
51AD
330
51A6
100
AcDbEntity
  8
Dim
 62
     0
100
AcDbMText
 10
402.1223874688594
 20
17.49999999999994
 30
0.0
 40
12.0
 41
0.0
 46
0.0
 71
     5
 72
     1
  1
\A1;555
  7
ＭＳ ゴシック
 73
     1
 44
1.0
  0
POINT
  5
51AE
330
51A6
100
AcDbEntity
  8
Defpoints
 62
     0
100
AcDbPoint
 10
124.2289640728968
 20
186.3944313125618
 30
0.0
  0
POINT
  5
51AF
330
51A6
100
AcDbEntity
  8
Defpoints
 62
     0
100
AcDbPoint
 10
680.015810864822
 20
186.3944313125618
 30
0.0
  0
POINT
  5
51B0
330
51A6
100
AcDbEntity
  8
Defpoints
 62
     0
100
AcDbPoint
 10
680.015810864822
 20
1.499999999999943
 30
0.0
  0
ENDBLK
  5
51B1
330
51A6
100
AcDbEntity
  8
0
100
AcDbBlockEnd
  0
BLOCK
  5
51B4
330
51B3
100
AcDbEntity
  8
0
100
AcDbBlockBegin
  2
*D18
 70
     1
 10
0.0
 20
0.0
 30
0.0
  3
*D18
  1

  0
LINE
  5
51B5
330
51B3
100
AcDbEntity
  8
Dim
 62
     0
370
    -2
100
AcDbLine
 10
1255.728088438003
 20
95.29816429379093
 30
0.0
 11
1255.728088438003
 21
50.06245888920859
 31
0.0
  0
LINE
  5
51B6
330
51B3
100
AcDbEntity
  8
Dim
 62
     0
370
    -2
100
AcDbLine
 10
1023.699348990421
 20
95.29816429379093
 30
0.0
 11
1023.699348990421
 21
50.06245888920859
 31
0.0
  0
LINE
  5
51B7
330
51B3
100
AcDbEntity
  8
Dim
 62
     0
370
    -2
100
AcDbLine
 10
1252.728088438003
 20
50.06245888920859
 30
0.0
 11
1026.699348990421
 21
50.06245888920859
 31
0.0
  0
INSERT
  5
51B8
330
51B3
100
AcDbEntity
  8
Dim
 62
     0
370
    -2
100
AcDbBlockReference
  2
_DOT
 10
1255.728088438003
 20
50.06245888920859
 30
0.0
 41
3.0
 42
3.0
 43
3.0
  0
INSERT
  5
51B9
330
51B3
100
AcDbEntity
  8
Dim
 62
     0
370
    -2
100
AcDbBlockReference
  2
_DOT
 10
1023.699348990421
 20
50.06245888920859
 30
0.0
 41
3.0
 42
3.0
 43
3.0
 50
180.0
  0
MTEXT
  5
51BA
330
51B3
100
AcDbEntity
  8
Dim
 62
     0
100
AcDbMText
 10
1139.713718714212
 20
66.06245888920859
 30
0.0
 40
12.0
 41
0.0
 46
0.0
 71
     5
 72
     1
  1
\A1;230
  7
ＭＳ ゴシック
 73
     1
 44
1.0
  0
POINT
  5
51BB
330
51B3
100
AcDbEntity
  8
Defpoints
 62
     0
100
AcDbPoint
 10
1255.728088438003
 20
105.2981642937909
 30
0.0
  0
POINT
  5
51BC
330
51B3
100
AcDbEntity
  8
Defpoints
 62
     0
100
AcDbPoint
 10
1023.699348990421
 20
105.2981642937909
 30
0.0
  0
POINT
  5
51BD
330
51B3
100
AcDbEntity
  8
Defpoints
 62
     0
100
AcDbPoint
 10
1023.699348990421
 20
50.06245888920859
 30
0.0
  0
ENDBLK
  5
51BE
330
51B3
100
AcDbEntity
  8
0
100
AcDbBlockEnd
  0
BLOCK
  5
51CA
330
51C9
100
AcDbEntity
  8
0
100
AcDbBlockBegin
  2
*D19
 70
     1
 10
0.0
 20
0.0
 30
0.0
  3
*D19
  1

  0
LINE
  5
51CB
330
51C9
100
AcDbEntity
  8
Dim
 62
     0
 48
0.5
370
    -2
100
AcDbLine
 10
649.5620901631901
 20
109.723471400628
 30
0.0
 11
751.1546283416811
 21
109.7234714006281
 31
0.0
  0
LINE
  5
51CC
330
51C9
100
AcDbEntity
  8
Dim
 62
     0
 48
0.5
370
    -2
100
AcDbLine
 10
711.6716538672158
 20
279.723559893442
 30
0.0
 11
751.154628341681
 21
279.723559893442
 31
0.0
  0
LINE
  5
51CD
330
51C9
100
AcDbEntity
  8
Dim
 62
     0
 48
0.5
370
    -2
100
AcDbLine
 10
751.1546283416811
 20
112.7234714006281
 30
0.0
 11
751.154628341681
 21
276.723559893442
 31
0.0
  0
INSERT
  5
51CE
330
51C9
100
AcDbEntity
  8
Dim
 62
     0
370
    -2
100
AcDbBlockReference
  2
_DOT
 10
751.1546283416811
 20
109.7234714006281
 30
0.0
 41
3.0
 42
3.0
 43
3.0
 50
270.0000000000001
  0
INSERT
  5
51CF
330
51C9
100
AcDbEntity
  8
Dim
 62
     0
370
    -2
100
AcDbBlockReference
  2
_DOT
 10
751.154628341681
 20
279.723559893442
 30
0.0
 41
3.0
 42
3.0
 43
3.0
 50
90.00000000000004
  0
MTEXT
  5
51D0
330
51C9
100
AcDbEntity
  8
Dim
 62
     0
100
AcDbMText
 10
735.154628341681
 20
194.723515647035
 30
0.0
 40
12.0
 41
0.0
 46
0.0
 71
     5
 72
     1
  1
\A1;170
  7
ＭＳ ゴシック
 11
-6.687457561318955E-16
 21
1.0
 31
0.0
 73
     1
 44
1.0
  0
POINT
  5
51D1
330
51C9
100
AcDbEntity
  8
Defpoints
 62
     0
100
AcDbPoint
 10
639.5620901631901
 20
109.723471400628
 30
0.0
  0
POINT
  5
51D2
330
51C9
100
AcDbEntity
  8
Defpoints
 62
     0
100
AcDbPoint
 10
701.6716538672158
 20
279.723559893442
 30
0.0
  0
POINT
  5
51D3
330
51C9
100
AcDbEntity
  8
Defpoints
 62
     0
100
AcDbPoint
 10
751.154628341681
 20
279.723559893442
 30
0.0
  0
ENDBLK
  5
51D4
330
51C9
100
AcDbEntity
  8
0
100
AcDbBlockEnd
  0
BLOCK
  5
51D7
330
51D6
100
AcDbEntity
  8
0
100
AcDbBlockBegin
  2
*D20
 70
     1
 10
0.0
 20
0.0
 30
0.0
  3
*D20
  1

  0
LINE
  5
51D8
330
51D6
100
AcDbEntity
  8
Dim
 62
     0
 48
0.5
370
    -2
100
AcDbLine
 10
1008.910719260931
 20
109.7235504169693
 30
0.0
 11
902.9321409725858
 21
109.7235504169692
 31
0.0
  0
LINE
  5
51D9
330
51D6
100
AcDbEntity
  8
Dim
 62
     0
 48
0.5
370
    -2
100
AcDbLine
 10
944.3512150905717
 20
194.7235523904964
 30
0.0
 11
902.9321409725858
 21
194.7235523904963
 31
0.0
  0
LINE
  5
51DA
330
51D6
100
AcDbEntity
  8
Dim
 62
     0
 48
0.5
370
    -2
100
AcDbLine
 10
902.9321409725858
 20
112.7235504169692
 30
0.0
 11
902.9321409725858
 21
191.7235523904963
 31
0.0
  0
INSERT
  5
51DB
330
51D6
100
AcDbEntity
  8
Dim
 62
     0
370
    -2
100
AcDbBlockReference
  2
_DOT
 10
902.9321409725858
 20
109.7235504169692
 30
0.0
 41
3.0
 42
3.0
 43
3.0
 50
270.0
  0
INSERT
  5
51DC
330
51D6
100
AcDbEntity
  8
Dim
 62
     0
370
    -2
100
AcDbBlockReference
  2
_DOT
 10
902.9321409725858
 20
194.7235523904963
 30
0.0
 41
3.0
 42
3.0
 43
3.0
 50
90.0
  0
MTEXT
  5
51DD
330
51D6
100
AcDbEntity
  8
Dim
 62
     0
100
AcDbMText
 10
886.9321409725858
 20
152.2235514037328
 30
0.0
 40
12.0
 41
0.0
 46
0.0
 71
     5
 72
     1
  1
\A1;85
  7
ＭＳ ゴシック
 11
0.0
 21
1.0
 31
0.0
 73
     1
 44
1.0
  0
POINT
  5
51DE
330
51D6
100
AcDbEntity
  8
Defpoints
 62
     0
100
AcDbPoint
 10
1018.910719260931
 20
109.7235504169693
 30
0.0
  0
POINT
  5
51DF
330
51D6
100
AcDbEntity
  8
Defpoints
 62
     0
100
AcDbPoint
 10
954.3512150905717
 20
194.7235523904964
 30
0.0
  0
POINT
  5
51E0
330
51D6
100
AcDbEntity
  8
Defpoints
 62
     0
100
AcDbPoint
 10
902.9321409725858
 20
194.7235523904963
 30
0.0
  0
ENDBLK
  5
51E1
330
51D6
100
AcDbEntity
  8
0
100
AcDbBlockEnd
  0
BLOCK
  5
51E4
330
51E3
100
AcDbEntity
  8
0
100
AcDbBlockBegin
  2
*D21
 70
     1
 10
0.0
 20
0.0
 30
0.0
  3
*D21
  1

  0
LINE
  5
51E5
330
51E3
100
AcDbEntity
  8
Dim
 62
     0
 48
0.5
370
    -2
100
AcDbLine
 10
944.3512150905717
 20
194.7235523904964
 30
0.0
 11
902.9321409725858
 21
194.7235523904963
 31
0.0
  0
LINE
  5
51E6
330
51E3
100
AcDbEntity
  8
Dim
 62
     0
 48
0.5
370
    -2
100
AcDbLine
 10
937.495338541507
 20
279.2875781176298
 30
0.0
 11
902.9321409725858
 21
279.2875781176298
 31
0.0
  0
LINE
  5
51E7
330
51E3
100
AcDbEntity
  8
Dim
 62
     0
 48
0.5
370
    -2
100
AcDbLine
 10
902.9321409725858
 20
197.7235523904963
 30
0.0
 11
902.9321409725858
 21
276.2875781176298
 31
0.0
  0
INSERT
  5
51E8
330
51E3
100
AcDbEntity
  8
Dim
 62
     0
370
    -2
100
AcDbBlockReference
  2
_DOT
 10
902.9321409725858
 20
194.7235523904963
 30
0.0
 41
3.0
 42
3.0
 43
3.0
 50
270.0
  0
INSERT
  5
51E9
330
51E3
100
AcDbEntity
  8
Dim
 62
     0
370
    -2
100
AcDbBlockReference
  2
_DOT
 10
902.9321409725858
 20
279.2875781176298
 30
0.0
 41
3.0
 42
3.0
 43
3.0
 50
90.0
  0
MTEXT
  5
51EA
330
51E3
100
AcDbEntity
  8
Dim
 62
     0
100
AcDbMText
 10
886.9321409725858
 20
237.0055652540631
 30
0.0
 40
12.0
 41
0.0
 46
0.0
 71
     5
 72
     1
  1
\A1;85
  7
ＭＳ ゴシック
 11
0.0
 21
1.0
 31
0.0
 73
     1
 44
1.0
  0
POINT
  5
51EB
330
51E3
100
AcDbEntity
  8
Defpoints
 62
     0
100
AcDbPoint
 10
954.3512150905717
 20
194.7235523904964
 30
0.0
  0
POINT
  5
51EC
330
51E3
100
AcDbEntity
  8
Defpoints
 62
     0
100
AcDbPoint
 10
947.495338541507
 20
279.2875781176298
 30
0.0
  0
POINT
  5
51ED
330
51E3
100
AcDbEntity
  8
Defpoints
 62
     0
100
AcDbPoint
 10
902.9321409725858
 20
279.2875781176298
 30
0.0
  0
ENDBLK
  5
51EE
330
51E3
100
AcDbEntity
  8
0
100
AcDbBlockEnd
  0
BLOCK
  5
5202
330
5201
100
AcDbEntity
  8
0
100
AcDbBlockBegin
  2
*D22
 70
     1
 10
0.0
 20
0.0
 30
0.0
  3
*D22
  1

  0
LINE
  5
5203
330
5201
100
AcDbEntity
  8
Dim
 62
     0
370
    -2
100
AcDbLine
 10
1521.230194922983
 20
899.2570681993079
 30
0.0
 11
1564.716988166899
 21
899.2570681993079
 31
0.0
  0
LINE
  5
5204
330
5201
100
AcDbEntity
  8
Dim
 62
     0
370
    -2
100
AcDbLine
 10
1521.230194922985
 20
568.8951543095457
 30
0.0
 11
1564.716988166899
 21
568.8951543095457
 31
0.0
  0
LINE
  5
5205
330
5201
100
AcDbEntity
  8
Dim
 62
     0
370
    -2
100
AcDbLine
 10
1564.716988166899
 20
896.2570681993079
 30
0.0
 11
1564.716988166899
 21
571.8951543095457
 31
0.0
  0
INSERT
  5
5206
330
5201
100
AcDbEntity
  8
Dim
 62
     0
370
    -2
100
AcDbBlockReference
  2
_DOT
 10
1564.716988166899
 20
899.2570681993079
 30
0.0
 41
3.0
 42
3.0
 43
3.0
 50
90.0
  0
INSERT
  5
5207
330
5201
100
AcDbEntity
  8
Dim
 62
     0
370
    -2
100
AcDbBlockReference
  2
_DOT
 10
1564.716988166899
 20
568.8951543095457
 30
0.0
 41
3.0
 42
3.0
 43
3.0
 50
270.0
  0
MTEXT
  5
5208
330
5201
100
AcDbEntity
  8
Dim
 62
     0
100
AcDbMText
 10
1548.716988166899
 20
734.0761112544268
 30
0.0
 40
12.0
 41
0.0
 46
0.0
 71
     5
 72
     1
  1
\A1;330
  7
ＭＳ ゴシック
 11
0.0
 21
1.0
 31
0.0
 73
     1
 44
1.0
  0
POINT
  5
5209
330
5201
100
AcDbEntity
  8
Defpoints
 62
     0
100
AcDbPoint
 10
1511.230194922983
 20
899.2570681993079
 30
0.0
  0
POINT
  5
520A
330
5201
100
AcDbEntity
  8
Defpoints
 62
     0
100
AcDbPoint
 10
1511.230194922985
 20
568.8951543095457
 30
0.0
  0
POINT
  5
520B
330
5201
100
AcDbEntity
  8
Defpoints
 62
     0
100
AcDbPoint
 10
1564.716988166899
 20
568.8951543095457
 30
0.0
  0
ENDBLK
  5
520C
330
5201
100
AcDbEntity
  8
0
100
AcDbBlockEnd
  0
BLOCK
  5
520F
330
520E
100
AcDbEntity
  8
0
100
AcDbBlockBegin
  2
*D23
 70
     1
 10
0.0
 20
0.0
 30
0.0
  3
*D23
  1

  0
LINE
  5
5210
330
520E
100
AcDbEntity
  8
Dim
 62
     0
370
    -2
100
AcDbLine
 10
938.2873916942367
 20
554.4321453105332
 30
0.0
 11
938.2873916942367
 21
489.8442542054495
 31
0.0
  0
LINE
  5
5211
330
520E
100
AcDbEntity
  8
Dim
 62
     0
370
    -2
100
AcDbLine
 10
1473.074297168228
 20
554.4321453105332
 30
0.0
 11
1473.074297168228
 21
489.8442542054495
 31
0.0
  0
LINE
  5
5212
330
520E
100
AcDbEntity
  8
Dim
 62
     0
370
    -2
100
AcDbLine
 10
941.2873916942367
 20
489.8442542054495
 30
0.0
 11
1470.074297168228
 21
489.8442542054495
 31
0.0
  0
INSERT
  5
5213
330
520E
100
AcDbEntity
  8
Dim
 62
     0
370
    -2
100
AcDbBlockReference
  2
_DOT
 10
938.2873916942367
 20
489.8442542054495
 30
0.0
 41
3.0
 42
3.0
 43
3.0
 50
180.0
  0
INSERT
  5
5214
330
520E
100
AcDbEntity
  8
Dim
 62
     0
370
    -2
100
AcDbBlockReference
  2
_DOT
 10
1473.074297168228
 20
489.8442542054495
 30
0.0
 41
3.0
 42
3.0
 43
3.0
  0
MTEXT
  5
5215
330
520E
100
AcDbEntity
  8
Dim
 62
     0
100
AcDbMText
 10
1205.680844431232
 20
505.8442542054495
 30
0.0
 40
12.0
 41
0.0
 46
0.0
 71
     5
 72
     1
  1
\A1;535
  7
ＭＳ ゴシック
 73
     1
 44
1.0
  0
POINT
  5
5216
330
520E
100
AcDbEntity
  8
Defpoints
 62
     0
100
AcDbPoint
 10
938.2873916942367
 20
564.4321453105332
 30
0.0
  0
POINT
  5
5217
330
520E
100
AcDbEntity
  8
Defpoints
 62
     0
100
AcDbPoint
 10
1473.074297168228
 20
564.4321453105332
 30
0.0
  0
POINT
  5
5218
330
520E
100
AcDbEntity
  8
Defpoints
 62
     0
100
AcDbPoint
 10
1473.074297168228
 20
489.8442542054495
 30
0.0
  0
ENDBLK
  5
5219
330
520E
100
AcDbEntity
  8
0
100
AcDbBlockEnd
  0
BLOCK
  5
5223
330
5222
100
AcDbEntity
  8
0
100
AcDbBlockBegin
  2
*D24
 70
     1
 10
0.0
 20
0.0
 30
0.0
  3
*D24
  1

  0
LINE
  5
5224
330
5222
100
AcDbEntity
  8
Dim
 62
     0
370
    -2
100
AcDbLine
 10
103.4338035218311
 20
911.1259520050892
 30
0.0
 11
22.00000000000002
 21
911.1259520050892
 31
0.0
  0
LINE
  5
5225
330
5222
100
AcDbEntity
  8
Dim
 62
     0
370
    -2
100
AcDbLine
 10
103.4338035218311
 20
556.1259520050892
 30
0.0
 11
22.0
 21
556.1259520050892
 31
0.0
  0
LINE
  5
5226
330
5222
100
AcDbEntity
  8
Dim
 62
     0
370
    -2
100
AcDbLine
 10
22.00000000000002
 20
908.1259520050892
 30
0.0
 11
22.0
 21
559.1259520050892
 31
0.0
  0
INSERT
  5
5227
330
5222
100
AcDbEntity
  8
Dim
 62
     0
370
    -2
100
AcDbBlockReference
  2
_DOT
 10
22.00000000000002
 20
911.1259520050892
 30
0.0
 41
3.0
 42
3.0
 43
3.0
 50
90.0
  0
INSERT
  5
5228
330
5222
100
AcDbEntity
  8
Dim
 62
     0
370
    -2
100
AcDbBlockReference
  2
_DOT
 10
22.0
 20
556.1259520050892
 30
0.0
 41
3.0
 42
3.0
 43
3.0
 50
270.0
  0
MTEXT
  5
5229
330
5222
100
AcDbEntity
  8
Dim
 62
     0
100
AcDbMText
 10
6.000000000000011
 20
733.6259520050892
 30
0.0
 40
12.0
 41
0.0
 46
0.0
 71
     5
 72
     1
  1
\A1;355
  7
ＭＳ ゴシック
 11
6.004586499381128E-17
 21
1.0
 31
0.0
 73
     1
 44
1.0
  0
POINT
  5
522A
330
5222
100
AcDbEntity
  8
Defpoints
 62
     0
100
AcDbPoint
 10
113.4338035218311
 20
911.1259520050892
 30
0.0
  0
POINT
  5
522B
330
5222
100
AcDbEntity
  8
Defpoints
 62
     0
100
AcDbPoint
 10
113.4338035218311
 20
556.1259520050892
 30
0.0
  0
POINT
  5
522C
330
5222
100
AcDbEntity
  8
Defpoints
 62
     0
100
AcDbPoint
 10
22.0
 20
556.1259520050892
 30
0.0
  0
ENDBLK
  5
522D
330
5222
100
AcDbEntity
  8
0
100
AcDbBlockEnd
  0
BLOCK
  5
5237
330
5236
100
AcDbEntity
  8
0
100
AcDbBlockBegin
  2
*D25
 70
     1
 10
0.0
 20
0.0
 30
0.0
  3
*D25
  1

  0
LINE
  5
5238
330
5236
100
AcDbEntity
  8
Dim
 62
     0
370
    -2
100
AcDbLine
 10
1149.713125840555
 20
160.7582475197631
 30
0.0
 11
1139.713717041148
 21
160.7582475197631
 31
0.0
  0
LINE
  5
5239
330
5236
100
AcDbEntity
  8
Dim
 62
     0
370
    -2
100
AcDbLine
 10
1149.713717041148
 20
279.7235490876427
 30
0.0
 11
1139.713717041148
 21
279.7235490876427
 31
0.0
  0
LINE
  5
523A
330
5236
100
AcDbEntity
  8
Dim
 62
     0
370
    -2
100
AcDbLine
 10
1139.713717041148
 20
160.7582475197631
 30
0.0
 11
1139.713717041148
 21
363.6715490876428
 31
0.0
  0
LINE
  5
523B
330
5236
100
AcDbEntity
  8
Dim
 62
     0
370
    -2
100
AcDbLine
 10
1139.713717041148
 20
160.7582475197631
 30
0.0
 11
1139.713717041148
 21
157.7582475197631
 31
0.0
  0
LINE
  5
523C
330
5236
100
AcDbEntity
  8
Dim
 62
     0
370
    -2
100
AcDbLine
 10
1139.713717041148
 20
276.7235490876427
 30
0.0
 11
1139.713717041148
 21
273.7235490876427
 31
0.0
  0
INSERT
  5
523D
330
5236
100
AcDbEntity
  8
Dim
 62
     0
370
    -2
100
AcDbBlockReference
  2
_DOT
 10
1139.713717041148
 20
160.7582475197631
 30
0.0
 41
3.0
 42
3.0
 43
3.0
 50
270.0
  0
INSERT
  5
523E
330
5236
100
AcDbEntity
  8
Dim
 62
     0
370
    -2
100
AcDbBlockReference
  2
_DOT
 10
1139.713717041148
 20
279.7235490876427
 30
0.0
 41
3.0
 42
3.0
 43
3.0
 50
90.0
  0
MTEXT
  5
523F
330
5236
100
AcDbEntity
  8
Dim
 62
     0
100
AcDbMText
 10
1122.651717041148
 20
324.6975490876429
 30
0.0
 40
12.0
 41
0.0
 46
0.0
 71
     5
 72
     1
  1
\A1;? (深さ)
  7
ＭＳ ゴシック
 11
0.0
 21
1.0
 31
0.0
 73
     1
 44
1.0
  0
POINT
  5
5240
330
5236
100
AcDbEntity
  8
Defpoints
 62
     0
100
AcDbPoint
 10
1139.713125840555
 20
160.7582475197631
 30
0.0
  0
POINT
  5
5241
330
5236
100
AcDbEntity
  8
Defpoints
 62
     0
100
AcDbPoint
 10
1139.713717041148
 20
279.7235490876427
 30
0.0
  0
POINT
  5
5242
330
5236
100
AcDbEntity
  8
Defpoints
 62
     0
100
AcDbPoint
 10
1139.713717041148
 20
279.7235490876427
 30
0.0
  0
ENDBLK
  5
5243
330
5236
100
AcDbEntity
  8
0
100
AcDbBlockEnd
  0
BLOCK
  5
52F3
330
52F2
100
AcDbEntity
  8
0
100
AcDbBlockBegin
  2
*D26
 70
     1
 10
0.0
 20
0.0
 30
0.0
  3
*D26
  1

  0
LINE
  5
52F5
330
52F2
100
AcDbEntity
  8
Dim
 62
     0
 48
0.5
370
    -2
100
AcDbLine
 10
293.5357421767039
 20
2224.134723649522
 30
0.0
 11
293.5357421767039
 21
2279.621486462223
 31
0.0
  0
LINE
  5
52F6
330
52F2
100
AcDbEntity
  8
Dim
 62
     0
 48
0.5
370
    -2
100
AcDbLine
 10
893.3225603412866
 20
2224.134723649522
 30
0.0
 11
893.3225603412866
 21
2279.621486462223
 31
0.0
  0
LINE
  5
52F7
330
52F2
100
AcDbEntity
  8
Dim
 62
     0
 48
0.5
370
    -2
100
AcDbLine
 10
303.5351318251414
 20
2279.621486462223
 30
0.0
 11
883.3231706928491
 21
2279.621486462223
 31
0.0
  0
INSERT
  5
52F8
330
52F2
100
AcDbEntity
  8
Dim
 62
     0
370
    -2
100
AcDbBlockReference
  2
_DOT
 10
293.5357421767039
 20
2279.621486462223
 30
0.0
 41
9.999389648437498
 42
9.999389648437498
 43
9.999389648437498
 50
180.0
  0
INSERT
  5
52F9
330
52F2
100
AcDbEntity
  8
Dim
 62
     0
370
    -2
100
AcDbBlockReference
  2
_DOT
 10
893.3225603412866
 20
2279.621486462223
 30
0.0
 41
9.999389648437498
 42
9.999389648437498
 43
9.999389648437498
  0
MTEXT
  5
52FA
330
52F2
100
AcDbEntity
  8
Dim
 62
     0
100
AcDbMText
 10
601.2034922698003
 20
2301.837795055973
 30
0.0
 40
24.4326171875
 41
0.0
 46
0.0
 71
     5
 72
     1
  1
\A1;600
  7
ＭＳ ゴシック
 73
     1
 44
1.0
  0
POINT
  5
52FB
330
52F2
100
AcDbEntity
  8
Defpoints
 62
     0
100
AcDbPoint
 10
293.5357421767039
 20
2199.134723649522
 30
0.0
  0
POINT
  5
52FC
330
52F2
100
AcDbEntity
  8
Defpoints
 62
     0
100
AcDbPoint
 10
893.3225603412866
 20
2199.134723649522
 30
0.0
  0
POINT
  5
52FD
330
52F2
100
AcDbEntity
  8
Defpoints
 62
     0
100
AcDbPoint
 10
893.3225603412866
 20
2279.621486462223
 30
0.0
  0
ENDBLK
  5
52F4
330
52F2
100
AcDbEntity
  8
0
100
AcDbBlockEnd
  0
BLOCK
  5
52FF
330
52FE
100
AcDbEntity
  8
0
100
AcDbBlockBegin
  2
*D27
 70
     1
 10
0.0
 20
0.0
 30
0.0
  3
*D27
  1

  0
LINE
  5
5301
330
52FE
100
AcDbEntity
  8
Dim
 62
     0
 48
0.5
370
    -2
100
AcDbLine
 10
917.7333458218795
 20
2200.12233851307
 30
0.0
 11
989.1060670695468
 21
2200.12233851307
 31
0.0
  0
LINE
  5
5302
330
52FE
100
AcDbEntity
  8
Dim
 62
     0
 48
0.5
370
    -2
100
AcDbLine
 10
917.7333458218795
 20
1830.12233851307
 30
0.0
 11
989.1060670695468
 21
1830.12233851307
 31
0.0
  0
LINE
  5
5303
330
52FE
100
AcDbEntity
  8
Dim
 62
     0
 48
0.5
370
    -2
100
AcDbLine
 10
989.1060670695468
 20
2190.122948864633
 30
0.0
 11
989.1060670695468
 21
1840.121728161508
 31
0.0
  0
INSERT
  5
5304
330
52FE
100
AcDbEntity
  8
Dim
 62
     0
370
    -2
100
AcDbBlockReference
  2
_DOT
 10
989.1060670695468
 20
2200.12233851307
 30
0.0
 41
9.999389648437498
 42
9.999389648437498
 43
9.999389648437498
 50
90.0
  0
INSERT
  5
5305
330
52FE
100
AcDbEntity
  8
Dim
 62
     0
370
    -2
100
AcDbBlockReference
  2
_DOT
 10
989.1060670695468
 20
1830.12233851307
 30
0.0
 41
9.999389648437498
 42
9.999389648437498
 43
9.999389648437498
 50
270.0
  0
MTEXT
  5
5306
330
52FE
100
AcDbEntity
  8
Dim
 62
     0
100
AcDbMText
 10
966.8897584757968
 20
2023.354737576002
 30
0.0
 40
24.4326171875
 41
0.0
 46
0.0
 71
     5
 72
     1
  1
\A1;370
  7
ＭＳ ゴシック
 11
0.0
 21
1.0
 31
0.0
 73
     1
 44
1.0
  0
POINT
  5
5307
330
52FE
100
AcDbEntity
  8
Defpoints
 62
     0
100
AcDbPoint
 10
892.7333458218795
 20
2200.12233851307
 30
0.0
  0
POINT
  5
5308
330
52FE
100
AcDbEntity
  8
Defpoints
 62
     0
100
AcDbPoint
 10
892.7333458218795
 20
1830.12233851307
 30
0.0
  0
POINT
  5
5309
330
52FE
100
AcDbEntity
  8
Defpoints
 62
     0
100
AcDbPoint
 10
989.1060670695468
 20
1830.12233851307
 30
0.0
  0
ENDBLK
  5
5300
330
52FE
100
AcDbEntity
  8
0
100
AcDbBlockEnd
  0
BLOCK
  5
530B
330
530A
100
AcDbEntity
  8
0
100
AcDbBlockBegin
  2
*D28
 70
     1
 10
0.0
 20
0.0
 30
0.0
  3
*D28
  1

  0
LINE
  5
530D
330
530A
100
AcDbEntity
  8
Dim
 62
     0
370
    -2
100
AcDbLine
 10
362.4147788986265
 20
952.8826528575612
 30
0.0
 11
362.4147788986265
 21
898.3799749709356
 31
0.0
  0
LINE
  5
530E
330
530A
100
AcDbEntity
  8
Dim
 62
     0
370
    -2
100
AcDbLine
 10
825.5422342663987
 20
953.4823105450048
 30
0.0
 11
825.5422342663987
 21
898.3799749709356
 31
0.0
  0
LINE
  5
530F
330
530A
100
AcDbEntity
  8
Dim
 62
     0
370
    -2
100
AcDbLine
 10
372.414168547064
 20
898.3799749709356
 30
0.0
 11
815.5428446179612
 21
898.3799749709356
 31
0.0
  0
INSERT
  5
5310
330
530A
100
AcDbEntity
  8
Dim
 62
     0
370
    -2
100
AcDbBlockReference
  2
_DOT
 10
362.4147788986265
 20
898.3799749709356
 30
0.0
 41
9.999389648437498
 42
9.999389648437498
 43
9.999389648437498
 50
180.0
  0
INSERT
  5
5311
330
530A
100
AcDbEntity
  8
Dim
 62
     0
370
    -2
100
AcDbBlockReference
  2
_DOT
 10
825.5422342663987
 20
898.3799749709356
 30
0.0
 41
9.999389648437498
 42
9.999389648437498
 43
9.999389648437498
  0
MTEXT
  5
5312
330
530A
100
AcDbEntity
  8
Dim
 62
     0
100
AcDbMText
 10
593.9785065825126
 20
920.5962835646856
 30
0.0
 40
24.4326171875
 41
0.0
 46
0.0
 71
     5
 72
     1
  1
\A1;460
  7
ＭＳ ゴシック
 73
     1
 44
1.0
  0
POINT
  5
5313
330
530A
100
AcDbEntity
  8
Defpoints
 62
     0
100
AcDbPoint
 10
362.4147788986265
 20
977.8826528575612
 30
0.0
  0
POINT
  5
5314
330
530A
100
AcDbEntity
  8
Defpoints
 62
     0
100
AcDbPoint
 10
825.5422342663987
 20
978.4823105450048
 30
0.0
  0
POINT
  5
5315
330
530A
100
AcDbEntity
  8
Defpoints
 62
     0
100
AcDbPoint
 10
825.5422342663987
 20
898.3799749709356
 30
0.0
  0
ENDBLK
  5
530C
330
530A
100
AcDbEntity
  8
0
100
AcDbBlockEnd
  0
BLOCK
  5
5317
330
5316
100
AcDbEntity
  8
0
100
AcDbBlockBegin
  2
*D29
 70
     1
 10
0.0
 20
0.0
 30
0.0
  3
*D29
  1

  0
LINE
  5
5319
330
5316
100
AcDbEntity
  8
Dim
 62
     0
 48
0.5
370
    -2
100
AcDbLine
 10
299.966504750957
 20
1811.606950559107
 30
0.0
 11
299.966504750957
 21
1768.093584980793
 31
0.0
  0
LINE
  5
531A
330
5316
100
AcDbEntity
  8
Dim
 62
     0
 48
0.5
370
    -2
100
AcDbLine
 10
886.8907906396289
 20
1808.207536496607
 30
0.0
 11
886.8907906396289
 21
1768.093584980793
 31
0.0
  0
LINE
  5
531B
330
5316
100
AcDbEntity
  8
Dim
 62
     0
 48
0.5
370
    -2
100
AcDbLine
 10
309.9658943993945
 20
1768.093584980793
 30
0.0
 11
876.8914009911914
 21
1768.093584980793
 31
0.0
  0
INSERT
  5
531C
330
5316
100
AcDbEntity
  8
Dim
 62
     0
370
    -2
100
AcDbBlockReference
  2
_DOT
 10
299.966504750957
 20
1768.093584980793
 30
0.0
 41
9.999389648437498
 42
9.999389648437498
 43
9.999389648437498
 50
180.0
  0
INSERT
  5
531D
330
5316
100
AcDbEntity
  8
Dim
 62
     0
370
    -2
100
AcDbBlockReference
  2
_DOT
 10
886.8907906396289
 20
1768.093584980793
 30
0.0
 41
9.999389648437498
 42
9.999389648437498
 43
9.999389648437498
  0
MTEXT
  5
531E
330
5316
100
AcDbEntity
  8
Dim
 62
     0
100
AcDbMText
 10
593.428647695293
 20
1790.309893574543
 30
0.0
 40
24.4326171875
 41
0.0
 46
0.0
 71
     5
 72
     1
  1
\A1;585
  7
ＭＳ ゴシック
 73
     1
 44
1.0
  0
POINT
  5
531F
330
5316
100
AcDbEntity
  8
Defpoints
 62
     0
100
AcDbPoint
 10
299.966504750957
 20
1836.606950559107
 30
0.0
  0
POINT
  5
5320
330
5316
100
AcDbEntity
  8
Defpoints
 62
     0
100
AcDbPoint
 10
886.8907906396289
 20
1833.207536496607
 30
0.0
  0
POINT
  5
5321
330
5316
100
AcDbEntity
  8
Defpoints
 62
     0
100
AcDbPoint
 10
886.8907906396289
 20
1768.093584980793
 30
0.0
  0
ENDBLK
  5
5318
330
5316
100
AcDbEntity
  8
0
100
AcDbBlockEnd
  0
BLOCK
  5
5323
330
5322
100
AcDbEntity
  8
0
100
AcDbBlockBegin
  2
*D30
 70
     1
 10
0.0
 20
0.0
 30
0.0
  3
*D30
  1

  0
LINE
  5
5325
330
5322
100
AcDbEntity
  8
Dim
 62
     0
370
    -2
100
AcDbLine
 10
315.5357266628253
 20
1029.617309010403
 30
0.0
 11
315.5357266628253
 21
826.3932712057556
 31
0.0
  0
LINE
  5
5326
330
5322
100
AcDbEntity
  8
Dim
 62
     0
370
    -2
100
AcDbLine
 10
871.3225734547505
 20
1029.617309010403
 30
0.0
 11
871.3225734547505
 21
826.3932712057556
 31
0.0
  0
LINE
  5
5327
330
5322
100
AcDbEntity
  8
Dim
 62
     0
370
    -2
100
AcDbLine
 10
325.5351163112628
 20
826.3932712057556
 30
0.0
 11
861.323183806313
 21
826.3932712057556
 31
0.0
  0
INSERT
  5
5328
330
5322
100
AcDbEntity
  8
Dim
 62
     0
370
    -2
100
AcDbBlockReference
  2
_DOT
 10
315.5357266628253
 20
826.3932712057556
 30
0.0
 41
9.999389648437498
 42
9.999389648437498
 43
9.999389648437498
 50
180.0
  0
INSERT
  5
5329
330
5322
100
AcDbEntity
  8
Dim
 62
     0
370
    -2
100
AcDbBlockReference
  2
_DOT
 10
871.3225734547505
 20
826.3932712057556
 30
0.0
 41
9.999389648437498
 42
9.999389648437498
 43
9.999389648437498
  0
MTEXT
  5
532A
330
5322
100
AcDbEntity
  8
Dim
 62
     0
100
AcDbMText
 10
593.4291500587879
 20
848.6095797995056
 30
0.0
 40
24.4326171875
 41
0.0
 46
0.0
 71
     5
 72
     1
  1
\A1;555
  7
ＭＳ ゴシック
 73
     1
 44
1.0
  0
POINT
  5
532B
330
5322
100
AcDbEntity
  8
Defpoints
 62
     0
100
AcDbPoint
 10
315.5357266628253
 20
1054.617309010403
 30
0.0
  0
POINT
  5
532C
330
5322
100
AcDbEntity
  8
Defpoints
 62
     0
100
AcDbPoint
 10
871.3225734547505
 20
1054.617309010403
 30
0.0
  0
POINT
  5
532D
330
5322
100
AcDbEntity
  8
Defpoints
 62
     0
100
AcDbPoint
 10
871.3225734547505
 20
826.3932712057556
 30
0.0
  0
ENDBLK
  5
5324
330
5322
100
AcDbEntity
  8
0
100
AcDbBlockEnd
  0
BLOCK
  5
532F
330
532E
100
AcDbEntity
  8
0
100
AcDbBlockBegin
  2
*D31
 70
     1
 10
0.0
 20
0.0
 30
0.0
  3
*D31
  1

  0
LINE
  5
5331
330
532E
100
AcDbEntity
  8
Dim
 62
     0
370
    -2
100
AcDbLine
 10
1656.25959922937
 20
948.5210419916327
 30
0.0
 11
1656.25959922937
 21
889.2388062388493
 31
0.0
  0
LINE
  5
5332
330
532E
100
AcDbEntity
  8
Dim
 62
     0
370
    -2
100
AcDbLine
 10
1424.230859781788
 20
948.5210419916327
 30
0.0
 11
1424.230859781788
 21
889.2388062388493
 31
0.0
  0
LINE
  5
5333
330
532E
100
AcDbEntity
  8
Dim
 62
     0
370
    -2
100
AcDbLine
 10
1646.260209580933
 20
889.2388062388493
 30
0.0
 11
1434.230249430226
 21
889.2388062388493
 31
0.0
  0
INSERT
  5
5334
330
532E
100
AcDbEntity
  8
Dim
 62
     0
370
    -2
100
AcDbBlockReference
  2
_DOT
 10
1656.25959922937
 20
889.2388062388493
 30
0.0
 41
9.999389648437498
 42
9.999389648437498
 43
9.999389648437498
  0
INSERT
  5
5335
330
532E
100
AcDbEntity
  8
Dim
 62
     0
370
    -2
100
AcDbBlockReference
  2
_DOT
 10
1424.230859781788
 20
889.2388062388493
 30
0.0
 41
9.999389648437498
 42
9.999389648437498
 43
9.999389648437498
 50
180.0
  0
MTEXT
  5
5336
330
532E
100
AcDbEntity
  8
Dim
 62
     0
100
AcDbMText
 10
1540.245229505579
 20
911.4551148325993
 30
0.0
 40
24.4326171875
 41
0.0
 46
0.0
 71
     5
 72
     1
  1
\A1;230
  7
ＭＳ ゴシック
 73
     1
 44
1.0
  0
POINT
  5
5337
330
532E
100
AcDbEntity
  8
Defpoints
 62
     0
100
AcDbPoint
 10
1656.25959922937
 20
973.5210419916327
 30
0.0
  0
POINT
  5
5338
330
532E
100
AcDbEntity
  8
Defpoints
 62
     0
100
AcDbPoint
 10
1424.230859781788
 20
973.5210419916327
 30
0.0
  0
POINT
  5
5339
330
532E
100
AcDbEntity
  8
Defpoints
 62
     0
100
AcDbPoint
 10
1424.230859781788
 20
889.2388062388493
 30
0.0
  0
ENDBLK
  5
5330
330
532E
100
AcDbEntity
  8
0
100
AcDbBlockEnd
  0
BLOCK
  5
533B
330
533A
100
AcDbEntity
  8
0
100
AcDbBlockBegin
  2
*D32
 70
     1
 10
0.0
 20
0.0
 30
0.0
  3
*D32
  1

  0
LINE
  5
533D
330
533A
100
AcDbEntity
  8
Dim
 62
     0
 48
0.5
370
    -2
100
AcDbLine
 10
855.8688527531185
 20
977.9463490984699
 30
0.0
 11
989.106067069547
 21
977.94634909847
 31
0.0
  0
LINE
  5
533E
330
533A
100
AcDbEntity
  8
Dim
 62
     0
 48
0.5
370
    -2
100
AcDbLine
 10
917.9784164571442
 20
1147.946437591284
 30
0.0
 11
989.1060670695468
 21
1147.946437591284
 31
0.0
  0
LINE
  5
533F
330
533A
100
AcDbEntity
  8
Dim
 62
     0
 48
0.5
370
    -2
100
AcDbLine
 10
989.106067069547
 20
987.9457387469075
 30
0.0
 11
989.1060670695468
 21
1137.947047942846
 31
0.0
  0
INSERT
  5
5340
330
533A
100
AcDbEntity
  8
Dim
 62
     0
370
    -2
100
AcDbBlockReference
  2
_DOT
 10
989.106067069547
 20
977.94634909847
 30
0.0
 41
9.999389648437498
 42
9.999389648437498
 43
9.999389648437498
 50
270.0000000000001
  0
INSERT
  5
5341
330
533A
100
AcDbEntity
  8
Dim
 62
     0
370
    -2
100
AcDbBlockReference
  2
_DOT
 10
989.1060670695468
 20
1147.946437591284
 30
0.0
 41
9.999389648437498
 42
9.999389648437498
 43
9.999389648437498
 50
90.00000000000004
  0
MTEXT
  5
5342
330
533A
100
AcDbEntity
  8
Dim
 62
     0
100
AcDbMText
 10
966.889758475797
 20
1062.946393344877
 30
0.0
 40
24.4326171875
 41
0.0
 46
0.0
 71
     5
 72
     1
  1
\A1;170
  7
ＭＳ ゴシック
 11
-6.687457561318957E-16
 21
1.0
 31
0.0
 73
     1
 44
1.0
  0
POINT
  5
5343
330
533A
100
AcDbEntity
  8
Defpoints
 62
     0
100
AcDbPoint
 10
830.8688527531185
 20
977.9463490984699
 30
0.0
  0
POINT
  5
5344
330
533A
100
AcDbEntity
  8
Defpoints
 62
     0
100
AcDbPoint
 10
892.9784164571442
 20
1147.946437591284
 30
0.0
  0
POINT
  5
5345
330
533A
100
AcDbEntity
  8
Defpoints
 62
     0
100
AcDbPoint
 10
989.1060670695468
 20
1147.946437591284
 30
0.0
  0
ENDBLK
  5
533C
330
533A
100
AcDbEntity
  8
0
100
AcDbBlockEnd
  0
BLOCK
  5
5347
330
5346
100
AcDbEntity
  8
0
100
AcDbBlockBegin
  2
*D33
 70
     1
 10
0.0
 20
0.0
 30
0.0
  3
*D33
  1

  0
LINE
  5
5349
330
5346
100
AcDbEntity
  8
Dim
 62
     0
 48
0.5
370
    -2
100
AcDbLine
 10
1394.442230052298
 20
977.9464281148112
 30
0.0
 11
1262.577365566619
 21
977.946428114811
 31
0.0
  0
LINE
  5
534A
330
5346
100
AcDbEntity
  8
Dim
 62
     0
 48
0.5
370
    -2
100
AcDbLine
 10
1329.882725881939
 20
1062.946430088338
 30
0.0
 11
1262.577365566619
 21
1062.946430088338
 31
0.0
  0
LINE
  5
534B
330
5346
100
AcDbEntity
  8
Dim
 62
     0
 48
0.5
370
    -2
100
AcDbLine
 10
1262.577365566619
 20
987.9458177632486
 30
0.0
 11
1262.577365566619
 21
1052.947040439901
 31
0.0
  0
INSERT
  5
534C
330
5346
100
AcDbEntity
  8
Dim
 62
     0
370
    -2
100
AcDbBlockReference
  2
_DOT
 10
1262.577365566619
 20
977.946428114811
 30
0.0
 41
9.999389648437498
 42
9.999389648437498
 43
9.999389648437498
 50
270.0
  0
INSERT
  5
534D
330
5346
100
AcDbEntity
  8
Dim
 62
     0
370
    -2
100
AcDbBlockReference
  2
_DOT
 10
1262.577365566619
 20
1062.946430088338
 30
0.0
 41
9.999389648437498
 42
9.999389648437498
 43
9.999389648437498
 50
90.0
  0
MTEXT
  5
534E
330
5346
100
AcDbEntity
  8
Dim
 62
     0
100
AcDbMText
 10
1240.361056972869
 20
1020.446429101575
 30
0.0
 40
24.4326171875
 41
0.0
 46
0.0
 71
     5
 72
     1
  1
\A1;85
  7
ＭＳ ゴシック
 11
0.0
 21
1.0
 31
0.0
 73
     1
 44
1.0
  0
POINT
  5
534F
330
5346
100
AcDbEntity
  8
Defpoints
 62
     0
100
AcDbPoint
 10
1419.442230052298
 20
977.9464281148112
 30
0.0
  0
POINT
  5
5350
330
5346
100
AcDbEntity
  8
Defpoints
 62
     0
100
AcDbPoint
 10
1354.882725881939
 20
1062.946430088338
 30
0.0
  0
POINT
  5
5351
330
5346
100
AcDbEntity
  8
Defpoints
 62
     0
100
AcDbPoint
 10
1262.577365566619
 20
1062.946430088338
 30
0.0
  0
ENDBLK
  5
5348
330
5346
100
AcDbEntity
  8
0
100
AcDbBlockEnd
  0
BLOCK
  5
5353
330
5352
100
AcDbEntity
  8
0
100
AcDbBlockBegin
  2
*D34
 70
     1
 10
0.0
 20
0.0
 30
0.0
  3
*D34
  1

  0
LINE
  5
5355
330
5352
100
AcDbEntity
  8
Dim
 62
     0
 48
0.5
370
    -2
100
AcDbLine
 10
1329.882725881939
 20
1062.946430088338
 30
0.0
 11
1262.577365566619
 21
1062.946430088338
 31
0.0
  0
LINE
  5
5356
330
5352
100
AcDbEntity
  8
Dim
 62
     0
 48
0.5
370
    -2
100
AcDbLine
 10
1323.026849332874
 20
1147.510455815472
 30
0.0
 11
1262.577365566619
 21
1147.510455815472
 31
0.0
  0
LINE
  5
5357
330
5352
100
AcDbEntity
  8
Dim
 62
     0
 48
0.5
370
    -2
100
AcDbLine
 10
1262.577365566619
 20
1072.945819736776
 30
0.0
 11
1262.577365566619
 21
1137.511066167034
 31
0.0
  0
INSERT
  5
5358
330
5352
100
AcDbEntity
  8
Dim
 62
     0
370
    -2
100
AcDbBlockReference
  2
_DOT
 10
1262.577365566619
 20
1062.946430088338
 30
0.0
 41
9.999389648437498
 42
9.999389648437498
 43
9.999389648437498
 50
270.0
  0
INSERT
  5
5359
330
5352
100
AcDbEntity
  8
Dim
 62
     0
370
    -2
100
AcDbBlockReference
  2
_DOT
 10
1262.577365566619
 20
1147.510455815472
 30
0.0
 41
9.999389648437498
 42
9.999389648437498
 43
9.999389648437498
 50
90.0
  0
MTEXT
  5
535A
330
5352
100
AcDbEntity
  8
Dim
 62
     0
100
AcDbMText
 10
1240.361056972869
 20
1105.228442951905
 30
0.0
 40
24.4326171875
 41
0.0
 46
0.0
 71
     5
 72
     1
  1
\A1;85
  7
ＭＳ ゴシック
 11
0.0
 21
1.0
 31
0.0
 73
     1
 44
1.0
  0
POINT
  5
535B
330
5352
100
AcDbEntity
  8
Defpoints
 62
     0
100
AcDbPoint
 10
1354.882725881939
 20
1062.946430088338
 30
0.0
  0
POINT
  5
535C
330
5352
100
AcDbEntity
  8
Defpoints
 62
     0
100
AcDbPoint
 10
1348.026849332874
 20
1147.510455815472
 30
0.0
  0
POINT
  5
535D
330
5352
100
AcDbEntity
  8
Defpoints
 62
     0
100
AcDbPoint
 10
1262.577365566619
 20
1147.510455815472
 30
0.0
  0
ENDBLK
  5
5354
330
5352
100
AcDbEntity
  8
0
100
AcDbBlockEnd
  0
BLOCK
  5
535F
330
535E
100
AcDbEntity
  8
0
100
AcDbBlockBegin
  2
*D35
 70
     1
 10
0.0
 20
0.0
 30
0.0
  3
*D35
  1

  0
LINE
  5
5361
330
535E
100
AcDbEntity
  8
Dim
 62
     0
370
    -2
100
AcDbLine
 10
1849.584727297084
 20
2181.570593379164
 30
0.0
 11
1903.400387413692
 21
2181.570593379164
 31
0.0
  0
LINE
  5
5362
330
535E
100
AcDbEntity
  8
Dim
 62
     0
370
    -2
100
AcDbLine
 10
1849.584727297085
 20
1851.208679489402
 30
0.0
 11
1903.400387413692
 21
1851.208679489402
 31
0.0
  0
LINE
  5
5363
330
535E
100
AcDbEntity
  8
Dim
 62
     0
370
    -2
100
AcDbLine
 10
1903.400387413692
 20
2171.571203730727
 30
0.0
 11
1903.400387413692
 21
1861.208069137839
 31
0.0
  0
INSERT
  5
5364
330
535E
100
AcDbEntity
  8
Dim
 62
     0
370
    -2
100
AcDbBlockReference
  2
_DOT
 10
1903.400387413692
 20
2181.570593379164
 30
0.0
 41
9.999389648437498
 42
9.999389648437498
 43
9.999389648437498
 50
90.0
  0
INSERT
  5
5365
330
535E
100
AcDbEntity
  8
Dim
 62
     0
370
    -2
100
AcDbBlockReference
  2
_DOT
 10
1903.400387413692
 20
1851.208679489402
 30
0.0
 41
9.999389648437498
 42
9.999389648437498
 43
9.999389648437498
 50
270.0
  0
MTEXT
  5
5366
330
535E
100
AcDbEntity
  8
Dim
 62
     0
100
AcDbMText
 10
1881.184078819942
 20
2016.389636434283
 30
0.0
 40
24.4326171875
 41
0.0
 46
0.0
 71
     5
 72
     1
  1
\A1;330
  7
ＭＳ ゴシック
 11
0.0
 21
1.0
 31
0.0
 73
     1
 44
1.0
  0
POINT
  5
5367
330
535E
100
AcDbEntity
  8
Defpoints
 62
     0
100
AcDbPoint
 10
1824.584727297084
 20
2181.570593379164
 30
0.0
  0
POINT
  5
5368
330
535E
100
AcDbEntity
  8
Defpoints
 62
     0
100
AcDbPoint
 10
1824.584727297085
 20
1851.208679489402
 30
0.0
  0
POINT
  5
5369
330
535E
100
AcDbEntity
  8
Defpoints
 62
     0
100
AcDbPoint
 10
1903.400387413692
 20
1851.208679489402
 30
0.0
  0
ENDBLK
  5
5360
330
535E
100
AcDbEntity
  8
0
100
AcDbBlockEnd
  0
BLOCK
  5
536B
330
536A
100
AcDbEntity
  8
0
100
AcDbBlockBegin
  2
*D36
 70
     1
 10
0.0
 20
0.0
 30
0.0
  3
*D36
  1

  0
LINE
  5
536D
330
536A
100
AcDbEntity
  8
Dim
 62
     0
370
    -2
100
AcDbLine
 10
1221.129981622295
 20
1821.745670490389
 30
0.0
 11
1221.129981622295
 21
1759.067108171834
 31
0.0
  0
LINE
  5
536E
330
536A
100
AcDbEntity
  8
Dim
 62
     0
370
    -2
100
AcDbLine
 10
1755.916887096286
 20
1821.745670490389
 30
0.0
 11
1755.916887096286
 21
1759.067108171834
 31
0.0
  0
LINE
  5
536F
330
536A
100
AcDbEntity
  8
Dim
 62
     0
370
    -2
100
AcDbLine
 10
1231.129371270732
 20
1759.067108171834
 30
0.0
 11
1745.917497447848
 21
1759.067108171834
 31
0.0
  0
INSERT
  5
5370
330
536A
100
AcDbEntity
  8
Dim
 62
     0
370
    -2
100
AcDbBlockReference
  2
_DOT
 10
1221.129981622295
 20
1759.067108171834
 30
0.0
 41
9.999389648437498
 42
9.999389648437498
 43
9.999389648437498
 50
180.0
  0
INSERT
  5
5371
330
536A
100
AcDbEntity
  8
Dim
 62
     0
370
    -2
100
AcDbBlockReference
  2
_DOT
 10
1755.916887096286
 20
1759.067108171834
 30
0.0
 41
9.999389648437498
 42
9.999389648437498
 43
9.999389648437498
  0
MTEXT
  5
5372
330
536A
100
AcDbEntity
  8
Dim
 62
     0
100
AcDbMText
 10
1488.52343435929
 20
1781.283416765584
 30
0.0
 40
24.4326171875
 41
0.0
 46
0.0
 71
     5
 72
     1
  1
\A1;535
  7
ＭＳ ゴシック
 73
     1
 44
1.0
  0
POINT
  5
5373
330
536A
100
AcDbEntity
  8
Defpoints
 62
     0
100
AcDbPoint
 10
1221.129981622295
 20
1846.745670490389
 30
0.0
  0
POINT
  5
5374
330
536A
100
AcDbEntity
  8
Defpoints
 62
     0
100
AcDbPoint
 10
1755.916887096286
 20
1846.745670490389
 30
0.0
  0
POINT
  5
5375
330
536A
100
AcDbEntity
  8
Defpoints
 62
     0
100
AcDbPoint
 10
1755.916887096286
 20
1759.067108171834
 30
0.0
  0
ENDBLK
  5
536C
330
536A
100
AcDbEntity
  8
0
100
AcDbBlockEnd
  0
BLOCK
  5
5377
330
5376
100
AcDbEntity
  8
0
100
AcDbBlockBegin
  2
*D37
 70
     1
 10
0.0
 20
0.0
 30
0.0
  3
*D37
  1

  0
LINE
  5
5379
330
5376
100
AcDbEntity
  8
Dim
 62
     0
370
    -2
100
AcDbLine
 10
279.7405661117596
 20
2193.439477184945
 30
0.0
 11
213.3067625899285
 21
2193.439477184945
 31
0.0
  0
LINE
  5
537A
330
5376
100
AcDbEntity
  8
Dim
 62
     0
370
    -2
100
AcDbLine
 10
279.7405661117596
 20
1838.439477184945
 30
0.0
 11
213.3067625899284
 21
1838.439477184945
 31
0.0
  0
LINE
  5
537B
330
5376
100
AcDbEntity
  8
Dim
 62
     0
370
    -2
100
AcDbLine
 10
213.3067625899285
 20
2183.440087536508
 30
0.0
 11
213.3067625899284
 21
1848.438866833383
 31
0.0
  0
INSERT
  5
537C
330
5376
100
AcDbEntity
  8
Dim
 62
     0
370
    -2
100
AcDbBlockReference
  2
_DOT
 10
213.3067625899285
 20
2193.439477184945
 30
0.0
 41
9.999389648437498
 42
9.999389648437498
 43
9.999389648437498
 50
90.0
  0
INSERT
  5
537D
330
5376
100
AcDbEntity
  8
Dim
 62
     0
370
    -2
100
AcDbBlockReference
  2
_DOT
 10
213.3067625899284
 20
1838.439477184945
 30
0.0
 41
9.999389648437498
 42
9.999389648437498
 43
9.999389648437498
 50
270.0
  0
MTEXT
  5
537E
330
5376
100
AcDbEntity
  8
Dim
 62
     0
100
AcDbMText
 10
191.0904539961784
 20
2015.939477184945
 30
0.0
 40
24.4326171875
 41
0.0
 46
0.0
 71
     5
 72
     1
  1
\A1;355
  7
ＭＳ ゴシック
 11
8.006115332508172E-17
 21
1.0
 31
0.0
 73
     1
 44
1.0
  0
POINT
  5
537F
330
5376
100
AcDbEntity
  8
Defpoints
 62
     0
100
AcDbPoint
 10
304.7405661117596
 20
2193.439477184945
 30
0.0
  0
POINT
  5
5380
330
5376
100
AcDbEntity
  8
Defpoints
 62
     0
100
AcDbPoint
 10
304.7405661117596
 20
1838.439477184945
 30
0.0
  0
POINT
  5
5381
330
5376
100
AcDbEntity
  8
Defpoints
 62
     0
100
AcDbPoint
 10
213.3067625899284
 20
1838.439477184945
 30
0.0
  0
ENDBLK
  5
5378
330
5376
100
AcDbEntity
  8
0
100
AcDbBlockEnd
  0
BLOCK
  5
5383
330
5382
100
AcDbEntity
  8
0
100
AcDbBlockBegin
  2
*D38
 70
     1
 10
0.0
 20
0.0
 30
0.0
  3
*D38
  1

  0
LINE
  5
5385
330
5382
100
AcDbEntity
  8
Dim
 62
     0
370
    -2
100
AcDbLine
 10
1565.244636631922
 20
1028.981125217605
 30
0.0
 11
1540.245227832515
 21
1028.981125217605
 31
0.0
  0
LINE
  5
5386
330
5382
100
AcDbEntity
  8
Dim
 62
     0
370
    -2
100
AcDbLine
 10
1565.245227832515
 20
1147.946426785485
 30
0.0
 11
1540.245227832515
 21
1147.946426785485
 31
0.0
  0
LINE
  5
5387
330
5382
100
AcDbEntity
  8
Dim
 62
     0
370
    -2
100
AcDbLine
 10
1540.245227832515
 20
1028.981125217605
 30
0.0
 11
1540.245227832515
 21
1305.930314480797
 31
0.0
  0
LINE
  5
5388
330
5382
100
AcDbEntity
  8
Dim
 62
     0
370
    -2
100
AcDbLine
 10
1540.245227832515
 20
1038.980514866043
 30
0.0
 11
1540.245227832515
 21
1137.947037137047
 31
0.0
  0
LINE
  5
5389
330
5382
100
AcDbEntity
  8
Dim
 62
     0
370
    -2
100
AcDbLine
 10
1540.245227832515
 20
1137.947037137047
 30
0.0
 11
1540.245227832515
 21
1127.94764748861
 31
0.0
  0
INSERT
  5
538A
330
5382
100
AcDbEntity
  8
Dim
 62
     0
370
    -2
100
AcDbBlockReference
  2
_DOT
 10
1540.245227832515
 20
1028.981125217605
 30
0.0
 41
9.999389648437498
 42
9.999389648437498
 43
9.999389648437498
 50
270.0
  0
INSERT
  5
538B
330
5382
100
AcDbEntity
  8
Dim
 62
     0
370
    -2
100
AcDbBlockReference
  2
_DOT
 10
1540.245227832515
 20
1147.946426785485
 30
0.0
 41
9.999389648437498
 42
9.999389648437498
 43
9.999389648437498
 50
90.0
  0
MTEXT
  5
538C
330
5382
100
AcDbEntity
  8
Dim
 62
     0
100
AcDbMText
 10
1515.866632617671
 20
1236.937760281578
 30
0.0
 40
24.4326171875
 41
0.0
 46
0.0
 71
     5
 72
     1
  1
\A1;? (深さ)
  7
ＭＳ ゴシック
 11
0.0
 21
1.0
 31
0.0
 73
     1
 44
1.0
  0
POINT
  5
538D
330
5382
100
AcDbEntity
  8
Defpoints
 62
     0
100
AcDbPoint
 10
1540.244636631922
 20
1028.981125217605
 30
0.0
  0
POINT
  5
538E
330
5382
100
AcDbEntity
  8
Defpoints
 62
     0
100
AcDbPoint
 10
1540.245227832515
 20
1147.946426785485
 30
0.0
  0
POINT
  5
538F
330
5382
100
AcDbEntity
  8
Defpoints
 62
     0
100
AcDbPoint
 10
1540.245227832515
 20
1147.946426785485
 30
0.0
  0
ENDBLK
  5
5384
330
5382
100
AcDbEntity
  8
0
100
AcDbBlockEnd
  0
BLOCK
  5
53C3
330
53C2
100
AcDbEntity
  8
0
100
AcDbBlockBegin
  2
*D39
 70
     1
 10
0.0
 20
0.0
 30
0.0
  3
*D39
  1

  0
LINE
  5
53C5
330
53C2
100
AcDbEntity
  8
Dim
 62
     0
370
    -2
100
AcDbLine
 10
1251.641924068338
 20
2211.033602378177
 30
0.0
 11
1251.641924068338
 21
2273.712164696733
 31
0.0
  0
LINE
  5
53C6
330
53C2
100
AcDbEntity
  8
Dim
 62
     0
370
    -2
100
AcDbLine
 10
1786.428829542329
 20
2211.033602378177
 30
0.0
 11
1786.428829542329
 21
2273.712164696733
 31
0.0
  0
LINE
  5
53C7
330
53C2
100
AcDbEntity
  8
Dim
 62
     0
370
    -2
100
AcDbLine
 10
1261.641313716775
 20
2273.712164696733
 30
0.0
 11
1776.429439893891
 21
2273.712164696733
 31
0.0
  0
INSERT
  5
53C8
330
53C2
100
AcDbEntity
  8
Dim
 62
     0
370
    -2
100
AcDbBlockReference
  2
_DOT
 10
1251.641924068338
 20
2273.712164696733
 30
0.0
 41
9.999389648437498
 42
9.999389648437498
 43
9.999389648437498
 50
180.0
  0
INSERT
  5
53C9
330
53C2
100
AcDbEntity
  8
Dim
 62
     0
370
    -2
100
AcDbBlockReference
  2
_DOT
 10
1786.428829542329
 20
2273.712164696733
 30
0.0
 41
9.999389648437498
 42
9.999389648437498
 43
9.999389648437498
  0
MTEXT
  5
53CA
330
53C2
100
AcDbEntity
  8
Dim
 62
     0
100
AcDbMText
 10
1519.035376805333
 20
2295.928473290483
 30
0.0
 40
24.4326171875
 41
0.0
 46
0.0
 71
     5
 72
     1
  1
\A1;535
  7
ＭＳ ゴシック
 73
     1
 44
1.0
  0
POINT
  5
53CB
330
53C2
100
AcDbEntity
  8
Defpoints
 62
     0
100
AcDbPoint
 10
1251.641924068338
 20
2186.033602378177
 30
0.0
  0
POINT
  5
53CC
330
53C2
100
AcDbEntity
  8
Defpoints
 62
     0
100
AcDbPoint
 10
1786.428829542329
 20
2186.033602378177
 30
0.0
  0
POINT
  5
53CD
330
53C2
100
AcDbEntity
  8
Defpoints
 62
     0
100
AcDbPoint
 10
1786.428829542329
 20
2273.712164696733
 30
0.0
  0
ENDBLK
  5
53C4
330
53C2
100
AcDbEntity
  8
0
100
AcDbBlockEnd
  0
BLOCK
  5
5451
330
5450
100
AcDbEntity
  8
0
100
AcDbBlockBegin
  2
*D40
 70
     1
 10
0.0
 20
0.0
 30
0.0
  3
*D40
  1

  0
LINE
  5
5452
330
5450
100
AcDbEntity
  8
Dim
 62
     0
370
    -2
100
AcDbLine
 10
572.2162258409239
 20
796.475600008436
 30
0.0
 11
572.216225840924
 21
845.925759435263
 31
0.0
  0
LINE
  5
5453
330
5450
100
AcDbEntity
  8
Dim
 62
     0
370
    -2
100
AcDbLine
 10
68.09802393868587
 20
796.475600008436
 30
0.0
 11
68.09802393868596
 21
845.9257594352639
 31
0.0
  0
LINE
  5
5454
330
5450
100
AcDbEntity
  8
Dim
 62
     0
370
    -2
100
AcDbLine
 10
569.216225840924
 20
845.925759435263
 30
0.0
 11
71.09802393868596
 21
845.9257594352639
 31
0.0
  0
INSERT
  5
5455
330
5450
100
AcDbEntity
  8
Dim
 62
     0
370
    -2
100
AcDbBlockReference
  2
_DOT
 10
572.216225840924
 20
845.925759435263
 30
0.0
 41
3.0
 42
3.0
 43
3.0
 50
359.9999999999998
  0
INSERT
  5
5456
330
5450
100
AcDbEntity
  8
Dim
 62
     0
370
    -2
100
AcDbBlockReference
  2
_DOT
 10
68.09802393868596
 20
845.9257594352639
 30
0.0
 41
3.0
 42
3.0
 43
3.0
 50
179.9999999999999
  0
MTEXT
  5
5457
330
5450
100
AcDbEntity
  8
Dim
 62
     0
100
AcDbMText
 10
320.1571248898051
 20
861.9257594352634
 30
0.0
 40
12.0
 41
0.0
 46
0.0
 71
     5
 72
     1
  1
\A1;500
  7
ＭＳ ゴシック
 73
     1
 44
1.0
  0
POINT
  5
5458
330
5450
100
AcDbEntity
  8
Defpoints
 62
     0
100
AcDbPoint
 10
572.2162258409239
 20
786.475600008436
 30
0.0
  0
POINT
  5
5459
330
5450
100
AcDbEntity
  8
Defpoints
 62
     0
100
AcDbPoint
 10
68.09802393868586
 20
786.475600008436
 30
0.0
  0
POINT
  5
545A
330
5450
100
AcDbEntity
  8
Defpoints
 62
     0
100
AcDbPoint
 10
68.09802393868596
 20
845.9257594352639
 30
0.0
  0
ENDBLK
  5
545B
330
5450
100
AcDbEntity
  8
0
100
AcDbBlockEnd
  0
BLOCK
  5
545E
330
545D
100
AcDbEntity
  8
0
100
AcDbBlockBegin
  2
*D41
 70
     1
 10
0.0
 20
0.0
 30
0.0
  3
*D41
  1

  0
LINE
  5
545F
330
545D
100
AcDbEntity
  8
Dim
 62
     0
370
    -2
100
AcDbLine
 10
574.8427554159848
 20
786.9397353589679
 30
0.0
 11
627.1174555907758
 21
786.9397353589679
 31
0.0
  0
LINE
  5
5460
330
545D
100
AcDbEntity
  8
Dim
 62
     0
370
    -2
100
AcDbLine
 10
578.2134528095758
 20
532.8215334567346
 30
0.0
 11
627.1174555907756
 21
532.8215334567346
 31
0.0
  0
LINE
  5
5461
330
545D
100
AcDbEntity
  8
Dim
 62
     0
370
    -2
100
AcDbLine
 10
627.1174555907758
 20
783.9397353589679
 30
0.0
 11
627.1174555907756
 21
535.8215334567346
 31
0.0
  0
INSERT
  5
5462
330
545D
100
AcDbEntity
  8
Dim
 62
     0
370
    -2
100
AcDbBlockReference
  2
_DOT
 10
627.1174555907758
 20
786.9397353589679
 30
0.0
 41
3.0
 42
3.0
 43
3.0
 50
89.99999999999996
  0
INSERT
  5
5463
330
545D
100
AcDbEntity
  8
Dim
 62
     0
370
    -2
100
AcDbBlockReference
  2
_DOT
 10
627.1174555907756
 20
532.8215334567346
 30
0.0
 41
3.0
 42
3.0
 43
3.0
 50
270.0
  0
MTEXT
  5
5464
330
545D
100
AcDbEntity
  8
Dim
 62
     0
100
AcDbMText
 10
611.1174555907758
 20
659.8806344078519
 30
0.0
 40
12.0
 41
0.0
 46
0.0
 71
     5
 72
     1
  1
\A1;250
  7
ＭＳ ゴシック
 11
4.473777827428304E-16
 21
1.0
 31
0.0
 73
     1
 44
1.0
  0
POINT
  5
5465
330
545D
100
AcDbEntity
  8
Defpoints
 62
     0
100
AcDbPoint
 10
564.8427554159848
 20
786.9397353589679
 30
0.0
  0
POINT
  5
5466
330
545D
100
AcDbEntity
  8
Defpoints
 62
     0
100
AcDbPoint
 10
568.2134528095758
 20
532.8215334567346
 30
0.0
  0
POINT
  5
5467
330
545D
100
AcDbEntity
  8
Defpoints
 62
     0
100
AcDbPoint
 10
627.1174555907758
 20
532.8215334567346
 30
0.0
  0
ENDBLK
  5
5468
330
545D
100
AcDbEntity
  8
0
100
AcDbBlockEnd
  0
BLOCK
  5
546B
330
546A
100
AcDbEntity
  8
0
100
AcDbBlockBegin
  2
*D42
 70
     1
 10
0.0
 20
0.0
 30
0.0
  3
*D42
  1

  0
LINE
  5
546C
330
546A
100
AcDbEntity
  8
Dim
 62
     0
370
    -2
100
AcDbLine
 10
558.1997821822429
 20
82.22269084883419
 30
0.0
 11
610.2699531067888
 21
82.22269084883418
 31
0.0
  0
LINE
  5
546D
330
546A
100
AcDbEntity
  8
Dim
 62
     0
370
    -2
100
AcDbLine
 10
582.0003707632818
 20
55.53426978561259
 30
0.0
 11
610.2699531067888
 21
55.53426978561259
 31
0.0
  0
LINE
  5
546E
330
546A
100
AcDbEntity
  8
Dim
 62
     0
370
    -2
100
AcDbLine
 10
610.2699531067888
 20
79.22269084883418
 30
0.0
 11
610.2699531067888
 21
58.53426978561259
 31
0.0
  0
INSERT
  5
546F
330
546A
100
AcDbEntity
  8
Dim
 62
     0
370
    -2
100
AcDbBlockReference
  2
_DOT
 10
610.2699531067888
 20
82.22269084883418
 30
0.0
 41
3.0
 42
3.0
 43
3.0
 50
90.0
  0
INSERT
  5
5470
330
546A
100
AcDbEntity
  8
Dim
 62
     0
370
    -2
100
AcDbBlockReference
  2
_DOT
 10
610.2699531067888
 20
55.53426978561259
 30
0.0
 41
3.0
 42
3.0
 43
3.0
 50
270.0
  0
MTEXT
  5
5471
330
546A
100
AcDbEntity
  8
Dim
 62
     0
100
AcDbMText
 10
594.2699531067888
 20
68.8784803172311
 30
0.0
 40
12.0
 41
0.0
 46
0.0
 71
     5
 72
     1
  1
\A1;30
  7
ＭＳ ゴシック
 11
0.0
 21
1.0
 31
0.0
 73
     1
 44
1.0
  0
POINT
  5
5472
330
546A
100
AcDbEntity
  8
Defpoints
 62
     0
100
AcDbPoint
 10
548.1997821822429
 20
82.22269084883419
 30
0.0
  0
POINT
  5
5473
330
546A
100
AcDbEntity
  8
Defpoints
 62
     0
100
AcDbPoint
 10
572.0003707632818
 20
55.53426978561259
 30
0.0
  0
POINT
  5
5474
330
546A
100
AcDbEntity
  8
Defpoints
 62
     0
100
AcDbPoint
 10
610.2699531067888
 20
55.53426978561258
 30
0.0
  0
ENDBLK
  5
5475
330
546A
100
AcDbEntity
  8
0
100
AcDbBlockEnd
  0
BLOCK
  5
5478
330
5477
100
AcDbEntity
  8
0
100
AcDbBlockBegin
  2
*D43
 70
     1
 10
0.0
 20
0.0
 30
0.0
  3
*D43
  1

  0
LINE
  5
5479
330
5477
100
AcDbEntity
  8
Dim
 62
     0
370
    -2
100
AcDbLine
 10
94.9300628533199
 20
135.2210780316382
 30
0.0
 11
36.83157038413176
 21
135.2210780316382
 31
0.0
  0
LINE
  5
547A
330
5477
100
AcDbEntity
  8
Dim
 62
     0
370
    -2
100
AcDbLine
 10
54.25186199553582
 20
55.53423063058881
 30
0.0
 11
36.83157038413174
 21
55.53423063058882
 31
0.0
  0
LINE
  5
547B
330
5477
100
AcDbEntity
  8
Dim
 62
     0
370
    -2
100
AcDbLine
 10
36.83157038413176
 20
132.2210780316382
 30
0.0
 11
36.83157038413174
 21
58.53423063058882
 31
0.0
  0
INSERT
  5
547C
330
5477
100
AcDbEntity
  8
Dim
 62
     0
370
    -2
100
AcDbBlockReference
  2
_DOT
 10
36.83157038413176
 20
135.2210780316382
 30
0.0
 41
3.0
 42
3.0
 43
3.0
 50
89.99999999999999
  0
INSERT
  5
547D
330
5477
100
AcDbEntity
  8
Dim
 62
     0
370
    -2
100
AcDbBlockReference
  2
_DOT
 10
36.83157038413174
 20
55.53423063058882
 30
0.0
 41
3.0
 42
3.0
 43
3.0
 50
270.0
  0
MTEXT
  5
547E
330
5477
100
AcDbEntity
  8
Dim
 62
     0
100
AcDbMText
 10
20.83157038413175
 20
95.3776543311135
 30
0.0
 40
12.0
 41
0.0
 46
0.0
 71
     5
 72
     1
  1
\A1;80
  7
ＭＳ ゴシック
 11
2.675006323882038E-16
 21
1.0
 31
0.0
 73
     1
 44
1.0
  0
POINT
  5
547F
330
5477
100
AcDbEntity
  8
Defpoints
 62
     0
100
AcDbPoint
 10
104.9300628533199
 20
135.2210780316382
 30
0.0
  0
POINT
  5
5480
330
5477
100
AcDbEntity
  8
Defpoints
 62
     0
100
AcDbPoint
 10
64.25186199553582
 20
55.53423063058881
 30
0.0
  0
POINT
  5
5481
330
5477
100
AcDbEntity
  8
Defpoints
 62
     0
100
AcDbPoint
 10
36.83157038413174
 20
55.53423063058882
 30
0.0
  0
ENDBLK
  5
5482
330
5477
100
AcDbEntity
  8
0
100
AcDbBlockEnd
  0
BLOCK
  5
5485
330
5484
100
AcDbEntity
  8
0
100
AcDbBlockBegin
  2
*D44
 70
     1
 10
0.0
 20
0.0
 30
0.0
  3
*D44
  1

  0
LINE
  5
5486
330
5484
100
AcDbEntity
  8
Dim
 62
     0
 48
5.0
370
    -2
100
AcDbLine
 10
170.5904077263269
 20
537.2201831283701
 30
0.0
 11
170.5904077263269
 21
489.1725977364886
 31
0.0
  0
LINE
  5
5487
330
5484
100
AcDbEntity
  8
Dim
 62
     0
 48
5.0
370
    -2
100
AcDbLine
 10
68.0980239386929
 20
522.7576902510764
 30
0.0
 11
68.0980239386929
 21
489.1725977364886
 31
0.0
  0
LINE
  5
5488
330
5484
100
AcDbEntity
  8
Dim
 62
     0
 48
5.0
370
    -2
100
AcDbLine
 10
167.5904077263269
 20
489.1725977364886
 30
0.0
 11
71.0980239386929
 21
489.1725977364886
 31
0.0
  0
INSERT
  5
5489
330
5484
100
AcDbEntity
  8
Dim
 62
     0
370
    -2
100
AcDbBlockReference
  2
_DOT
 10
170.5904077263269
 20
489.1725977364886
 30
0.0
 41
3.0
 42
3.0
 43
3.0
  0
INSERT
  5
548A
330
5484
100
AcDbEntity
  8
Dim
 62
     0
370
    -2
100
AcDbBlockReference
  2
_DOT
 10
68.0980239386929
 20
489.1725977364886
 30
0.0
 41
3.0
 42
3.0
 43
3.0
 50
180.0
  0
MTEXT
  5
548B
330
5484
100
AcDbEntity
  8
Dim
 62
     0
100
AcDbMText
 10
119.3442158325099
 20
505.1725977364886
 30
0.0
 40
12.0
 41
0.0
 46
0.0
 71
     5
 72
     1
  1
\A1;100
  7
ＭＳ ゴシック
 73
     1
 44
1.0
  0
POINT
  5
548C
330
5484
100
AcDbEntity
  8
Defpoints
 62
     0
100
AcDbPoint
 10
170.5904077263269
 20
547.2201831283701
 30
0.0
  0
POINT
  5
548D
330
5484
100
AcDbEntity
  8
Defpoints
 62
     0
100
AcDbPoint
 10
68.0980239386929
 20
532.7576902510764
 30
0.0
  0
POINT
  5
548E
330
5484
100
AcDbEntity
  8
Defpoints
 62
     0
100
AcDbPoint
 10
68.0980239386929
 20
489.1725977364886
 30
0.0
  0
ENDBLK
  5
548F
330
5484
100
AcDbEntity
  8
0
100
AcDbBlockEnd
  0
BLOCK
  5
54BE
330
54BD
100
AcDbEntity
  8
0
100
AcDbBlockBegin
  2
*D45
 70
     1
 10
0.0
 20
0.0
 30
0.0
  3
*D45
  1

  0
LINE
  5
54BF
330
54BD
100
AcDbEntity
  8
Dim
 62
     0
 48
5.0
370
    -2
100
AcDbLine
 10
1110.713930887045
 20
54.5342640820167
 30
0.0
 11
1139.628039470791
 21
54.53426408201668
 31
0.0
  0
LINE
  5
54C0
330
54BD
100
AcDbEntity
  8
Dim
 62
     0
 48
5.0
370
    -2
100
AcDbLine
 10
1110.713930887045
 20
175.5349746875515
 30
0.0
 11
1139.628039470791
 21
175.5349746875515
 31
0.0
  0
LINE
  5
54C1
330
54BD
100
AcDbEntity
  8
Dim
 62
     0
 48
5.0
370
    -2
100
AcDbLine
 10
1139.628039470791
 20
57.53426408201668
 30
0.0
 11
1139.628039470791
 21
172.5349746875515
 31
0.0
  0
INSERT
  5
54C2
330
54BD
100
AcDbEntity
  8
Dim
 62
     0
370
    -2
100
AcDbBlockReference
  2
_DOT
 10
1139.628039470791
 20
54.53426408201668
 30
0.0
 41
3.0
 42
3.0
 43
3.0
 50
270.0
  0
INSERT
  5
54C3
330
54BD
100
AcDbEntity
  8
Dim
 62
     0
370
    -2
100
AcDbBlockReference
  2
_DOT
 10
1139.628039470791
 20
175.5349746875515
 30
0.0
 41
3.0
 42
3.0
 43
3.0
 50
90.0
  0
MTEXT
  5
54C4
330
54BD
100
AcDbEntity
  8
Dim
 62
     0
100
AcDbMText
 10
1123.628039470791
 20
115.034619384784
 30
0.0
 40
12.0
 41
0.0
 46
0.0
 71
     5
 72
     1
  1
\A1;120
  7
ＭＳ ゴシック
 11
0.0
 21
1.0
 31
0.0
 73
     1
 44
1.0
  0
POINT
  5
54C5
330
54BD
100
AcDbEntity
  8
Defpoints
 62
     0
100
AcDbPoint
 10
1100.713930887045
 20
54.5342640820167
 30
0.0
  0
POINT
  5
54C6
330
54BD
100
AcDbEntity
  8
Defpoints
 62
     0
100
AcDbPoint
 10
1100.713930887045
 20
175.5349746875515
 30
0.0
  0
POINT
  5
54C7
330
54BD
100
AcDbEntity
  8
Defpoints
 62
     0
100
AcDbPoint
 10
1139.628039470791
 20
175.5349746875515
 30
0.0
  0
ENDBLK
  5
54C8
330
54BD
100
AcDbEntity
  8
0
100
AcDbBlockEnd
  0
BLOCK
  5
54CB
330
54CA
100
AcDbEntity
  8
0
100
AcDbBlockBegin
  2
*D46
 70
     1
 10
0.0
 20
0.0
 30
0.0
  3
*D46
  1

  0
LINE
  5
54CC
330
54CA
100
AcDbEntity
  8
Dim
 62
     0
 48
5.0
370
    -2
100
AcDbLine
 10
561.9760805459377
 20
537.2201876499655
 30
0.0
 11
561.9760805459377
 21
489.1725977364886
 31
0.0
  0
LINE
  5
54CD
330
54CA
100
AcDbEntity
  8
Dim
 62
     0
 48
5.0
370
    -2
100
AcDbLine
 10
170.5904077263269
 20
537.2201831283701
 30
0.0
 11
170.5904077263269
 21
489.1725977364886
 31
0.0
  0
LINE
  5
54CE
330
54CA
100
AcDbEntity
  8
Dim
 62
     0
 48
5.0
370
    -2
100
AcDbLine
 10
558.9760805459377
 20
489.1725977364886
 30
0.0
 11
173.5904077263269
 21
489.1725977364886
 31
0.0
  0
INSERT
  5
54CF
330
54CA
100
AcDbEntity
  8
Dim
 62
     0
370
    -2
100
AcDbBlockReference
  2
_DOT
 10
561.9760805459377
 20
489.1725977364886
 30
0.0
 41
3.0
 42
3.0
 43
3.0
  0
INSERT
  5
54D0
330
54CA
100
AcDbEntity
  8
Dim
 62
     0
370
    -2
100
AcDbBlockReference
  2
_DOT
 10
170.5904077263269
 20
489.1725977364886
 30
0.0
 41
3.0
 42
3.0
 43
3.0
 50
180.0
  0
MTEXT
  5
54D1
330
54CA
100
AcDbEntity
  8
Dim
 62
     0
100
AcDbMText
 10
366.2832441361323
 20
505.1725977364886
 30
0.0
 40
12.0
 41
0.0
 46
0.0
 71
     5
 72
     1
  1
\A1;390
  7
ＭＳ ゴシック
 73
     1
 44
1.0
  0
POINT
  5
54D2
330
54CA
100
AcDbEntity
  8
Defpoints
 62
     0
100
AcDbPoint
 10
561.9760805459377
 20
547.2201876499655
 30
0.0
  0
POINT
  5
54D3
330
54CA
100
AcDbEntity
  8
Defpoints
 62
     0
100
AcDbPoint
 10
170.5904077263269
 20
547.2201831283701
 30
0.0
  0
POINT
  5
54D4
330
54CA
100
AcDbEntity
  8
Defpoints
 62
     0
100
AcDbPoint
 10
170.5904077263269
 20
489.1725977364886
 30
0.0
  0
ENDBLK
  5
54D5
330
54CA
100
AcDbEntity
  8
0
100
AcDbBlockEnd
  0
BLOCK
  5
54DA
330
54D9
100
AcDbEntity
  8
0
100
AcDbBlockBegin
  2
*D47
 70
     1
 10
0.0
 20
0.0
 30
0.0
  3
*D47
  1

  0
LINE
  5
54DB
330
54D9
100
AcDbEntity
  8
Dim
 62
     0
370
    -2
100
AcDbLine
 10
179.2804769356749
 20
777.0052619455089
 30
0.0
 11
21.99999999999986
 21
777.0052619455089
 31
0.0
  0
LINE
  5
54DC
330
54D9
100
AcDbEntity
  8
Dim
 62
     0
370
    -2
100
AcDbLine
 10
179.2804769356749
 20
542.0052619455091
 30
0.0
 11
21.99999999999977
 21
542.0052619455092
 31
0.0
  0
LINE
  5
54DD
330
54D9
100
AcDbEntity
  8
Dim
 62
     0
370
    -2
100
AcDbLine
 10
21.99999999999986
 20
774.0052619455089
 30
0.0
 11
21.99999999999977
 21
545.0052619455092
 31
0.0
  0
INSERT
  5
54DE
330
54D9
100
AcDbEntity
  8
Dim
 62
     0
370
    -2
100
AcDbBlockReference
  2
_DOT
 10
21.99999999999986
 20
777.0052619455089
 30
0.0
 41
3.0
 42
3.0
 43
3.0
 50
89.99999999999999
  0
INSERT
  5
54DF
330
54D9
100
AcDbEntity
  8
Dim
 62
     0
370
    -2
100
AcDbBlockReference
  2
_DOT
 10
21.99999999999977
 20
542.0052619455092
 30
0.0
 41
3.0
 42
3.0
 43
3.0
 50
270.0
  0
MTEXT
  5
54E0
330
54D9
100
AcDbEntity
  8
Dim
 62
     0
100
AcDbMText
 10
5.999999999999815
 20
659.5052619455091
 30
0.0
 40
12.0
 41
0.0
 46
0.0
 71
     5
 72
     1
  1
\A1;230
  7
ＭＳ ゴシック
 11
3.779482637021815E-16
 21
1.0
 31
0.0
 73
     1
 44
1.0
  0
POINT
  5
54E1
330
54D9
100
AcDbEntity
  8
Defpoints
 62
     0
100
AcDbPoint
 10
189.2804769356749
 20
777.0052619455089
 30
0.0
  0
POINT
  5
54E2
330
54D9
100
AcDbEntity
  8
Defpoints
 62
     0
100
AcDbPoint
 10
189.2804769356749
 20
542.0052619455091
 30
0.0
  0
POINT
  5
54E3
330
54D9
100
AcDbEntity
  8
Defpoints
 62
     0
100
AcDbPoint
 10
21.99999999999977
 20
542.0052619455092
 30
0.0
  0
ENDBLK
  5
54E4
330
54D9
100
AcDbEntity
  8
0
100
AcDbBlockEnd
  0
BLOCK
  5
54E9
330
54E8
100
AcDbEntity
  8
0
100
AcDbBlockBegin
  2
*D48
 70
     1
 10
0.0
 20
0.0
 30
0.0
  3
*D48
  1

  0
LINE
  5
54EA
330
54E8
100
AcDbEntity
  8
Dim
 62
     0
370
    -2
100
AcDbLine
 10
987.2628041446349
 20
80.72578724441064
 30
0.0
 11
977.2628110619087
 21
80.72578724441064
 31
0.0
  0
LINE
  5
54EB
330
54E8
100
AcDbEntity
  8
Dim
 62
     0
370
    -2
100
AcDbLine
 10
987.2628110619087
 20
175.5349746875515
 30
0.0
 11
977.2628110619087
 21
175.5349746875515
 31
0.0
  0
LINE
  5
54EC
330
54E8
100
AcDbEntity
  8
Dim
 62
     0
370
    -2
100
AcDbLine
 10
977.2628110619087
 20
80.72578724441064
 30
0.0
 11
977.2628110619087
 21
280.4631281610109
 31
0.0
  0
LINE
  5
54ED
330
54E8
100
AcDbEntity
  8
Dim
 62
     0
370
    -2
100
AcDbLine
 10
977.2628110619087
 20
80.72578724441064
 30
0.0
 11
977.2628110619087
 21
77.72578724441064
 31
0.0
  0
LINE
  5
54EE
330
54E8
100
AcDbEntity
  8
Dim
 62
     0
370
    -2
100
AcDbLine
 10
977.2628110619087
 20
172.5349746875515
 30
0.0
 11
977.2628110619087
 21
169.5349746875515
 31
0.0
  0
INSERT
  5
54EF
330
54E8
100
AcDbEntity
  8
Dim
 62
     0
370
    -2
100
AcDbBlockReference
  2
_DOT
 10
977.2628110619087
 20
80.72578724441064
 30
0.0
 41
3.0
 42
3.0
 43
3.0
 50
270.0
  0
INSERT
  5
54F0
330
54E8
100
AcDbEntity
  8
Dim
 62
     0
370
    -2
100
AcDbBlockReference
  2
_DOT
 10
977.2628110619087
 20
175.5349746875515
 30
0.0
 41
3.0
 42
3.0
 43
3.0
 50
90.0
  0
MTEXT
  5
54F1
330
54E8
100
AcDbEntity
  8
Dim
 62
     0
100
AcDbMText
 10
960.2008110619087
 20
237.5891281610109
 30
0.0
 40
12.0
 41
0.0
 46
0.0
 71
     5
 72
     1
  1
\A1;95 (深さ)
  7
ＭＳ ゴシック
 11
0.0
 21
1.0
 31
0.0
 73
     1
 44
1.0
  0
POINT
  5
54F2
330
54E8
100
AcDbEntity
  8
Defpoints
 62
     0
100
AcDbPoint
 10
977.2628041446349
 20
80.72578724441064
 30
0.0
  0
POINT
  5
54F3
330
54E8
100
AcDbEntity
  8
Defpoints
 62
     0
100
AcDbPoint
 10
977.2628110619087
 20
175.5349746875515
 30
0.0
  0
POINT
  5
54F4
330
54E8
100
AcDbEntity
  8
Defpoints
 62
     0
100
AcDbPoint
 10
977.2628110619087
 20
175.5349746875515
 30
0.0
  0
ENDBLK
  5
54F5
330
54E8
100
AcDbEntity
  8
0
100
AcDbBlockEnd
  0
BLOCK
  5
54FF
330
54FE
100
AcDbEntity
  8
0
100
AcDbBlockBegin
  2
*D49
 70
     1
 10
0.0
 20
0.0
 30
0.0
  3
*D49
  1

  0
LINE
  5
5500
330
54FE
100
AcDbEntity
  8
Dim
 62
     0
370
    -2
100
AcDbLine
 10
68.09802393868995
 20
790.9406491880338
 30
0.0
 11
68.09802393868995
 21
813.4946554352639
 31
0.0
  0
LINE
  5
5501
330
54FE
100
AcDbEntity
  8
Dim
 62
     0
370
    -2
100
AcDbLine
 10
128.0980239386899
 20
690.922724205876
 30
0.0
 11
128.0980239386899
 21
813.4946554352639
 31
0.0
  0
LINE
  5
5502
330
54FE
100
AcDbEntity
  8
Dim
 62
     0
370
    -2
100
AcDbLine
 10
71.09802393868995
 20
813.4946554352639
 30
0.0
 11
125.0980239386899
 21
813.4946554352639
 31
0.0
  0
INSERT
  5
5503
330
54FE
100
AcDbEntity
  8
Dim
 62
     0
370
    -2
100
AcDbBlockReference
  2
_DOT
 10
68.09802393868995
 20
813.4946554352639
 30
0.0
 41
3.0
 42
3.0
 43
3.0
 50
180.0
  0
INSERT
  5
5504
330
54FE
100
AcDbEntity
  8
Dim
 62
     0
370
    -2
100
AcDbBlockReference
  2
_DOT
 10
128.0980239386899
 20
813.4946554352639
 30
0.0
 41
3.0
 42
3.0
 43
3.0
  0
MTEXT
  5
5505
330
54FE
100
AcDbEntity
  8
Dim
 62
     0
100
AcDbMText
 10
98.09802393868995
 20
829.4946554352639
 30
0.0
 40
12.0
 41
0.0
 46
0.0
 71
     5
 72
     1
  1
\A1;60
  7
ＭＳ ゴシック
 73
     1
 44
1.0
  0
POINT
  5
5506
330
54FE
100
AcDbEntity
  8
Defpoints
 62
     0
100
AcDbPoint
 10
68.09802393868995
 20
780.9406491880338
 30
0.0
  0
POINT
  5
5507
330
54FE
100
AcDbEntity
  8
Defpoints
 62
     0
100
AcDbPoint
 10
128.0980239386899
 20
680.922724205876
 30
0.0
  0
POINT
  5
5508
330
54FE
100
AcDbEntity
  8
Defpoints
 62
     0
100
AcDbPoint
 10
128.0980239386899
 20
813.4946554352639
 30
0.0
  0
ENDBLK
  5
5509
330
54FE
100
AcDbEntity
  8
0
100
AcDbBlockEnd
  0
BLOCK
  5
550C
330
550B
100
AcDbEntity
  8
0
100
AcDbBlockBegin
  2
*D50
 70
     1
 10
0.0
 20
0.0
 30
0.0
  3
*D50
  1

  0
LINE
  5
550D
330
550B
100
AcDbEntity
  8
Dim
 62
     0
 48
5.0
370
    -2
100
AcDbLine
 10
117.8345640967389
 20
161.6020523995367
 30
0.0
 11
117.8345640967389
 21
207.1453632599039
 31
0.0
  0
LINE
  5
550E
330
550B
100
AcDbEntity
  8
Dim
 62
     0
 48
5.0
370
    -2
100
AcDbLine
 10
68.09802393868586
 20
78.76302693222391
 30
0.0
 11
68.09802393868593
 21
207.1453632599039
 31
0.0
  0
LINE
  5
550F
330
550B
100
AcDbEntity
  8
Dim
 62
     0
 48
5.0
370
    -2
100
AcDbLine
 10
114.8345640967389
 20
207.1453632599039
 30
0.0
 11
71.09802393868593
 21
207.1453632599039
 31
0.0
  0
INSERT
  5
5510
330
550B
100
AcDbEntity
  8
Dim
 62
     0
370
    -2
100
AcDbBlockReference
  2
_DOT
 10
117.8345640967389
 20
207.1453632599039
 30
0.0
 41
3.0
 42
3.0
 43
3.0
  0
INSERT
  5
5511
330
550B
100
AcDbEntity
  8
Dim
 62
     0
370
    -2
100
AcDbBlockReference
  2
_DOT
 10
68.09802393868593
 20
207.1453632599039
 30
0.0
 41
3.0
 42
3.0
 43
3.0
 50
180.0
  0
MTEXT
  5
5512
330
550B
100
AcDbEntity
  8
Dim
 62
     0
100
AcDbMText
 10
92.96629401771179
 20
223.1453632599039
 30
0.0
 40
12.0
 41
0.0
 46
0.0
 71
     5
 72
     1
  1
\A1;50
  7
ＭＳ ゴシック
 73
     1
 44
1.0
  0
POINT
  5
5513
330
550B
100
AcDbEntity
  8
Defpoints
 62
     0
100
AcDbPoint
 10
117.8345640967389
 20
151.6020523995367
 30
0.0
  0
POINT
  5
5514
330
550B
100
AcDbEntity
  8
Defpoints
 62
     0
100
AcDbPoint
 10
68.09802393868586
 20
68.76302693222391
 30
0.0
  0
POINT
  5
5515
330
550B
100
AcDbEntity
  8
Defpoints
 62
     0
100
AcDbPoint
 10
68.0980239386859
 20
207.1453632599039
 30
0.0
  0
ENDBLK
  5
5516
330
550B
100
AcDbEntity
  8
0
100
AcDbBlockEnd
  0
BLOCK
  5
551B
330
551A
100
AcDbEntity
  8
0
100
AcDbBlockBegin
  2
*D51
 70
     1
 10
0.0
 20
0.0
 30
0.0
  3
*D51
  1

  0
LINE
  5
551C
330
551A
100
AcDbEntity
  8
Dim
 62
     0
370
    -2
100
AcDbLine
 10
117.8345640967389
 20
161.6020523995367
 30
0.0
 11
117.8345640967389
 21
207.1453632599037
 31
0.0
  0
LINE
  5
551D
330
551A
100
AcDbEntity
  8
Dim
 62
     0
370
    -2
100
AcDbLine
 10
535.391697322958
 20
108.6036652167331
 30
0.0
 11
535.391697322958
 21
207.1453632599037
 31
0.0
  0
LINE
  5
551E
330
551A
100
AcDbEntity
  8
Dim
 62
     0
370
    -2
100
AcDbLine
 10
120.8345640967389
 20
207.1453632599037
 30
0.0
 11
532.391697322958
 21
207.1453632599037
 31
0.0
  0
INSERT
  5
551F
330
551A
100
AcDbEntity
  8
Dim
 62
     0
370
    -2
100
AcDbBlockReference
  2
_DOT
 10
117.8345640967389
 20
207.1453632599037
 30
0.0
 41
3.0
 42
3.0
 43
3.0
 50
180.0
  0
INSERT
  5
5520
330
551A
100
AcDbEntity
  8
Dim
 62
     0
370
    -2
100
AcDbBlockReference
  2
_DOT
 10
535.391697322958
 20
207.1453632599037
 30
0.0
 41
3.0
 42
3.0
 43
3.0
  0
MTEXT
  5
5521
330
551A
100
AcDbEntity
  8
Dim
 62
     0
100
AcDbMText
 10
326.6131307098484
 20
223.1453632599037
 30
0.0
 40
12.0
 41
0.0
 46
0.0
 71
     5
 72
     1
  1
\A1;415
  7
ＭＳ ゴシック
 73
     1
 44
1.0
  0
POINT
  5
5522
330
551A
100
AcDbEntity
  8
Defpoints
 62
     0
100
AcDbPoint
 10
117.8345640967389
 20
151.6020523995367
 30
0.0
  0
POINT
  5
5523
330
551A
100
AcDbEntity
  8
Defpoints
 62
     0
100
AcDbPoint
 10
535.391697322958
 20
98.60366521673313
 30
0.0
  0
POINT
  5
5524
330
551A
100
AcDbEntity
  8
Defpoints
 62
     0
100
AcDbPoint
 10
535.391697322958
 20
207.1453632599037
 30
0.0
  0
ENDBLK
  5
5525
330
551A
100
AcDbEntity
  8
0
100
AcDbBlockEnd
  0
BLOCK
  5
552A
330
5529
100
AcDbEntity
  8
0
100
AcDbBlockBegin
  2
*D52
 70
     1
 10
0.0
 20
0.0
 30
0.0
  3
*D52
  1

  0
LINE
  5
552B
330
5529
100
AcDbEntity
  8
Dim
 62
     0
370
    -2
100
AcDbLine
 10
68.09802402306491
 20
47.56913109535162
 30
0.0
 11
68.09802402306491
 21
1.5
 31
0.0
  0
LINE
  5
552C
330
5529
100
AcDbEntity
  8
Dim
 62
     0
370
    -2
100
AcDbLine
 10
366.4639825970748
 20
48.53425236646029
 30
0.0
 11
366.4639825970748
 21
1.5
 31
0.0
  0
LINE
  5
552D
330
5529
100
AcDbEntity
  8
Dim
 62
     0
370
    -2
100
AcDbLine
 10
71.09802402306491
 20
1.5
 30
0.0
 11
363.4639825970748
 21
1.5
 31
0.0
  0
INSERT
  5
552E
330
5529
100
AcDbEntity
  8
Dim
 62
     0
370
    -2
100
AcDbBlockReference
  2
_DOT
 10
68.09802402306491
 20
1.5
 30
0.0
 41
3.0
 42
3.0
 43
3.0
 50
180.0
  0
INSERT
  5
552F
330
5529
100
AcDbEntity
  8
Dim
 62
     0
370
    -2
100
AcDbBlockReference
  2
_DOT
 10
366.4639825970748
 20
1.5
 30
0.0
 41
3.0
 42
3.0
 43
3.0
  0
MTEXT
  5
5530
330
5529
100
AcDbEntity
  8
Dim
 62
     0
100
AcDbMText
 10
217.2810033100699
 20
17.5
 30
0.0
 40
12.0
 41
0.0
 46
0.0
 71
     5
 72
     1
  1
\A1;300
  7
ＭＳ ゴシック
 73
     1
 44
1.0
  0
POINT
  5
5531
330
5529
100
AcDbEntity
  8
Defpoints
 62
     0
100
AcDbPoint
 10
68.09802402306491
 20
57.56913109535162
 30
0.0
  0
POINT
  5
5532
330
5529
100
AcDbEntity
  8
Defpoints
 62
     0
100
AcDbPoint
 10
366.4639825970748
 20
58.53425236646029
 30
0.0
  0
POINT
  5
5533
330
5529
100
AcDbEntity
  8
Defpoints
 62
     0
100
AcDbPoint
 10
366.4639825970748
 20
1.5
 30
0.0
  0
ENDBLK
  5
5534
330
5529
100
AcDbEntity
  8
0
100
AcDbBlockEnd
  0
BLOCK
  5
5537
330
5536
100
AcDbEntity
  8
0
100
AcDbBlockBegin
  2
*D53
 70
     1
 10
0.0
 20
0.0
 30
0.0
  3
*D53
  1

  0
LINE
  5
5538
330
5536
100
AcDbEntity
  8
Dim
 62
     0
 48
5.0
370
    -2
100
AcDbLine
 10
535.391697322958
 20
194.8929764754528
 30
0.0
 11
535.391697322958
 21
207.1453632599037
 31
0.0
  0
LINE
  5
5539
330
5536
100
AcDbEntity
  8
Dim
 62
     0
 48
5.0
370
    -2
100
AcDbLine
 10
572.2162258409157
 20
104.7182732800002
 30
0.0
 11
572.2162258409157
 21
207.1453632599037
 31
0.0
  0
LINE
  5
553A
330
5536
100
AcDbEntity
  8
Dim
 62
     0
 48
5.0
370
    -2
100
AcDbLine
 10
538.391697322958
 20
207.1453632599037
 30
0.0
 11
569.2162258409157
 21
207.1453632599037
 31
0.0
  0
INSERT
  5
553B
330
5536
100
AcDbEntity
  8
Dim
 62
     0
370
    -2
100
AcDbBlockReference
  2
_DOT
 10
535.391697322958
 20
207.1453632599037
 30
0.0
 41
3.0
 42
3.0
 43
3.0
 50
180.0
  0
INSERT
  5
553C
330
5536
100
AcDbEntity
  8
Dim
 62
     0
370
    -2
100
AcDbBlockReference
  2
_DOT
 10
572.2162258409157
 20
207.1453632599037
 30
0.0
 41
3.0
 42
3.0
 43
3.0
  0
MTEXT
  5
553D
330
5536
100
AcDbEntity
  8
Dim
 62
     0
100
AcDbMText
 10
553.8039615819368
 20
223.1453632599037
 30
0.0
 40
12.0
 41
0.0
 46
0.0
 71
     5
 72
     1
  1
\A1;35
  7
ＭＳ ゴシック
 73
     1
 44
1.0
  0
POINT
  5
553E
330
5536
100
AcDbEntity
  8
Defpoints
 62
     0
100
AcDbPoint
 10
535.391697322958
 20
184.8929764754528
 30
0.0
  0
POINT
  5
553F
330
5536
100
AcDbEntity
  8
Defpoints
 62
     0
100
AcDbPoint
 10
572.2162258409157
 20
94.71827328000018
 30
0.0
  0
POINT
  5
5540
330
5536
100
AcDbEntity
  8
Defpoints
 62
     0
100
AcDbPoint
 10
572.2162258409157
 20
207.1453632599037
 30
0.0
  0
ENDBLK
  5
5541
330
5536
100
AcDbEntity
  8
0
100
AcDbBlockEnd
  0
BLOCK
  5
5552
330
5551
100
AcDbEntity
  8
0
100
AcDbBlockBegin
  2
*D54
 70
     1
 10
0.0
 20
0.0
 30
0.0
  3
*D54
  1

  0
LINE
  5
5553
330
5551
100
AcDbEntity
  8
Dim
 62
     0
370
    -2
100
AcDbLine
 10
715.2459851096298
 20
786.9397353589688
 30
0.0
 11
669.8457308242059
 21
786.9397353589688
 31
0.0
  0
LINE
  5
5554
330
5551
100
AcDbEntity
  8
Dim
 62
     0
370
    -2
100
AcDbLine
 10
715.2459851096298
 20
711.9397353589688
 30
0.0
 11
669.8457308242059
 21
711.9397353589688
 31
0.0
  0
LINE
  5
5555
330
5551
100
AcDbEntity
  8
Dim
 62
     0
370
    -2
100
AcDbLine
 10
669.8457308242059
 20
783.9397353589688
 30
0.0
 11
669.8457308242059
 21
714.9397353589688
 31
0.0
  0
INSERT
  5
5556
330
5551
100
AcDbEntity
  8
Dim
 62
     0
370
    -2
100
AcDbBlockReference
  2
_DOT
 10
669.8457308242059
 20
786.9397353589688
 30
0.0
 41
3.0
 42
3.0
 43
3.0
 50
90.0
  0
INSERT
  5
5557
330
5551
100
AcDbEntity
  8
Dim
 62
     0
370
    -2
100
AcDbBlockReference
  2
_DOT
 10
669.8457308242059
 20
711.9397353589688
 30
0.0
 41
3.0
 42
3.0
 43
3.0
 50
270.0
  0
MTEXT
  5
5558
330
5551
100
AcDbEntity
  8
Dim
 62
     0
100
AcDbMText
 10
653.8457308242059
 20
749.4397353589688
 30
0.0
 40
12.0
 41
0.0
 46
0.0
 71
     5
 72
     1
  1
\A1;75
  7
ＭＳ ゴシック
 11
0.0
 21
1.0
 31
0.0
 73
     1
 44
1.0
  0
POINT
  5
5559
330
5551
100
AcDbEntity
  8
Defpoints
 62
     0
100
AcDbPoint
 10
725.2459851096298
 20
786.9397353589688
 30
0.0
  0
POINT
  5
555A
330
5551
100
AcDbEntity
  8
Defpoints
 62
     0
100
AcDbPoint
 10
725.2459851096298
 20
711.9397353589688
 30
0.0
  0
POINT
  5
555B
330
5551
100
AcDbEntity
  8
Defpoints
 62
     0
100
AcDbPoint
 10
669.8457308242059
 20
711.9397353589688
 30
0.0
  0
ENDBLK
  5
555C
330
5551
100
AcDbEntity
  8
0
100
AcDbBlockEnd
  0
BLOCK
  5
5561
330
5560
100
AcDbEntity
  8
0
100
AcDbBlockBegin
  2
*D55
 70
     1
 10
0.0
 20
0.0
 30
0.0
  3
*D55
  1

  0
LINE
  5
5562
330
5560
100
AcDbEntity
  8
Dim
 62
     0
370
    -2
100
AcDbLine
 10
715.2459851096298
 20
711.9397353589688
 30
0.0
 11
669.8457308242059
 21
711.9397353589688
 31
0.0
  0
LINE
  5
5563
330
5560
100
AcDbEntity
  8
Dim
 62
     0
370
    -2
100
AcDbLine
 10
715.2459851096298
 20
611.9397353589688
 30
0.0
 11
669.8457308242059
 21
611.9397353589688
 31
0.0
  0
LINE
  5
5564
330
5560
100
AcDbEntity
  8
Dim
 62
     0
370
    -2
100
AcDbLine
 10
669.8457308242059
 20
708.9397353589688
 30
0.0
 11
669.8457308242059
 21
614.9397353589688
 31
0.0
  0
INSERT
  5
5565
330
5560
100
AcDbEntity
  8
Dim
 62
     0
370
    -2
100
AcDbBlockReference
  2
_DOT
 10
669.8457308242059
 20
711.9397353589688
 30
0.0
 41
3.0
 42
3.0
 43
3.0
 50
90.0
  0
INSERT
  5
5566
330
5560
100
AcDbEntity
  8
Dim
 62
     0
370
    -2
100
AcDbBlockReference
  2
_DOT
 10
669.8457308242059
 20
611.9397353589688
 30
0.0
 41
3.0
 42
3.0
 43
3.0
 50
270.0
  0
MTEXT
  5
5567
330
5560
100
AcDbEntity
  8
Dim
 62
     0
100
AcDbMText
 10
653.8457308242059
 20
661.9397353589688
 30
0.0
 40
12.0
 41
0.0
 46
0.0
 71
     5
 72
     1
  1
\A1;100
  7
ＭＳ ゴシック
 11
0.0
 21
1.0
 31
0.0
 73
     1
 44
1.0
  0
POINT
  5
5568
330
5560
100
AcDbEntity
  8
Defpoints
 62
     0
100
AcDbPoint
 10
725.2459851096298
 20
711.9397353589688
 30
0.0
  0
POINT
  5
5569
330
5560
100
AcDbEntity
  8
Defpoints
 62
     0
100
AcDbPoint
 10
725.2459851096298
 20
611.9397353589688
 30
0.0
  0
POINT
  5
556A
330
5560
100
AcDbEntity
  8
Defpoints
 62
     0
100
AcDbPoint
 10
669.8457308242059
 20
611.9397353589688
 30
0.0
  0
ENDBLK
  5
556B
330
5560
100
AcDbEntity
  8
0
100
AcDbBlockEnd
  0
BLOCK
  5
556E
330
556D
100
AcDbEntity
  8
0
100
AcDbBlockBegin
  2
*D56
 70
     1
 10
0.0
 20
0.0
 30
0.0
  3
*D56
  1

  0
LINE
  5
556F
330
556D
100
AcDbEntity
  8
Dim
 62
     0
370
    -2
100
AcDbLine
 10
719.2468989386919
 20
790.9406491880309
 30
0.0
 11
719.2468989386919
 21
823.276068036
 31
0.0
  0
LINE
  5
5570
330
556D
100
AcDbEntity
  8
Dim
 62
     0
370
    -2
100
AcDbLine
 10
749.2468989386919
 20
790.9406491880309
 30
0.0
 11
749.2468989386919
 21
823.276068036
 31
0.0
  0
LINE
  5
5571
330
556D
100
AcDbEntity
  8
Dim
 62
     0
370
    -2
100
AcDbLine
 10
722.2468989386919
 20
823.276068036
 30
0.0
 11
746.2468989386919
 21
823.276068036
 31
0.0
  0
INSERT
  5
5572
330
556D
100
AcDbEntity
  8
Dim
 62
     0
370
    -2
100
AcDbBlockReference
  2
_DOT
 10
719.2468989386919
 20
823.276068036
 30
0.0
 41
3.0
 42
3.0
 43
3.0
 50
180.0
  0
INSERT
  5
5573
330
556D
100
AcDbEntity
  8
Dim
 62
     0
370
    -2
100
AcDbBlockReference
  2
_DOT
 10
749.2468989386919
 20
823.276068036
 30
0.0
 41
3.0
 42
3.0
 43
3.0
  0
MTEXT
  5
5574
330
556D
100
AcDbEntity
  8
Dim
 62
     0
100
AcDbMText
 10
734.2468989386919
 20
839.276068036
 30
0.0
 40
12.0
 41
0.0
 46
0.0
 71
     5
 72
     1
  1
\A1;30
  7
ＭＳ ゴシック
 73
     1
 44
1.0
  0
POINT
  5
5575
330
556D
100
AcDbEntity
  8
Defpoints
 62
     0
100
AcDbPoint
 10
719.2468989386919
 20
780.9406491880309
 30
0.0
  0
POINT
  5
5576
330
556D
100
AcDbEntity
  8
Defpoints
 62
     0
100
AcDbPoint
 10
749.2468989386919
 20
780.9406491880309
 30
0.0
  0
POINT
  5
5577
330
556D
100
AcDbEntity
  8
Defpoints
 62
     0
100
AcDbPoint
 10
749.2468989386919
 20
823.276068036
 30
0.0
  0
ENDBLK
  5
5578
330
556D
100
AcDbEntity
  8
0
100
AcDbBlockEnd
  0
BLOCK
  5
557B
330
557A
100
AcDbEntity
  8
0
100
AcDbBlockBegin
  2
*D57
 70
     1
 10
0.0
 20
0.0
 30
0.0
  3
*D57
  1

  0
LINE
  5
557C
330
557A
100
AcDbEntity
  8
Dim
 62
     0
370
    -2
100
AcDbLine
 10
749.2468989386919
 20
790.9406491880309
 30
0.0
 11
749.2468989386919
 21
823.276068036
 31
0.0
  0
LINE
  5
557D
330
557A
100
AcDbEntity
  8
Dim
 62
     0
370
    -2
100
AcDbLine
 10
1048.772512404153
 20
807.8050163015419
 30
0.0
 11
1048.772512404153
 21
823.276068036
 31
0.0
  0
LINE
  5
557E
330
557A
100
AcDbEntity
  8
Dim
 62
     0
370
    -2
100
AcDbLine
 10
752.2468989386919
 20
823.276068036
 30
0.0
 11
1045.772512404153
 21
823.276068036
 31
0.0
  0
INSERT
  5
557F
330
557A
100
AcDbEntity
  8
Dim
 62
     0
370
    -2
100
AcDbBlockReference
  2
_DOT
 10
749.2468989386919
 20
823.276068036
 30
0.0
 41
3.0
 42
3.0
 43
3.0
 50
180.0
  0
INSERT
  5
5580
330
557A
100
AcDbEntity
  8
Dim
 62
     0
370
    -2
100
AcDbBlockReference
  2
_DOT
 10
1048.772512404153
 20
823.276068036
 30
0.0
 41
3.0
 42
3.0
 43
3.0
  0
MTEXT
  5
5581
330
557A
100
AcDbEntity
  8
Dim
 62
     0
100
AcDbMText
 10
899.0097056714224
 20
839.276068036
 30
0.0
 40
12.0
 41
0.0
 46
0.0
 71
     5
 72
     1
  1
\A1;300
  7
ＭＳ ゴシック
 73
     1
 44
1.0
  0
POINT
  5
5582
330
557A
100
AcDbEntity
  8
Defpoints
 62
     0
100
AcDbPoint
 10
749.2468989386919
 20
780.9406491880309
 30
0.0
  0
POINT
  5
5583
330
557A
100
AcDbEntity
  8
Defpoints
 62
     0
100
AcDbPoint
 10
1048.772512404153
 20
797.8050163015419
 30
0.0
  0
POINT
  5
5584
330
557A
100
AcDbEntity
  8
Defpoints
 62
     0
100
AcDbPoint
 10
1048.772512404153
 20
823.276068036
 30
0.0
  0
ENDBLK
  5
5585
330
557A
100
AcDbEntity
  8
0
100
AcDbBlockEnd
  0
BLOCK
  5
5631
330
5630
100
AcDbEntity
  8
0
100
AcDbBlockBegin
  2
*D58
 70
     1
 10
0.0
 20
0.0
 30
0.0
  3
*D58
  1

  0
LINE
  5
5633
330
5630
100
AcDbEntity
  8
Dim
 62
     0
370
    -2
100
AcDbLine
 10
304.3493508363526
 20
2259.651337730503
 30
0.0
 11
304.3493508363525
 21
2362.976577000001
 31
0.0
  0
LINE
  5
5634
330
5630
100
AcDbEntity
  8
Dim
 62
     0
370
    -2
100
AcDbLine
 10
808.4675527385907
 20
2259.651337730503
 30
0.0
 11
808.4675527385905
 21
2362.976577000001
 31
0.0
  0
LINE
  5
5635
330
5630
100
AcDbEntity
  8
Dim
 62
     0
370
    -2
100
AcDbLine
 10
314.34874048479
 20
2362.976577000001
 30
0.0
 11
798.468163090153
 21
2362.976577000001
 31
0.0
  0
INSERT
  5
5636
330
5630
100
AcDbEntity
  8
Dim
 62
     0
370
    -2
100
AcDbBlockReference
  2
_DOT
 10
304.3493508363525
 20
2362.976577000001
 30
0.0
 41
9.999389648437498
 42
9.999389648437498
 43
9.999389648437498
 50
180.0
  0
INSERT
  5
5637
330
5630
100
AcDbEntity
  8
Dim
 62
     0
370
    -2
100
AcDbBlockReference
  2
_DOT
 10
808.4675527385905
 20
2362.976577000001
 30
0.0
 41
9.999389648437498
 42
9.999389648437498
 43
9.999389648437498
  0
MTEXT
  5
5638
330
5630
100
AcDbEntity
  8
Dim
 62
     0
100
AcDbMText
 10
556.4084517874714
 20
2385.192885593751
 30
0.0
 40
24.4326171875
 41
0.0
 46
0.0
 71
     5
 72
     1
  1
\A1;500
  7
ＭＳ ゴシック
 73
     1
 44
1.0
  0
POINT
  5
5639
330
5630
100
AcDbEntity
  8
Defpoints
 62
     0
100
AcDbPoint
 10
304.3493508363526
 20
2234.651337730503
 30
0.0
  0
POINT
  5
563A
330
5630
100
AcDbEntity
  8
Defpoints
 62
     0
100
AcDbPoint
 10
808.4675527385907
 20
2234.651337730503
 30
0.0
  0
POINT
  5
563B
330
5630
100
AcDbEntity
  8
Defpoints
 62
     0
100
AcDbPoint
 10
808.4675527385905
 20
2362.976577000001
 30
0.0
  0
ENDBLK
  5
5632
330
5630
100
AcDbEntity
  8
0
100
AcDbBlockEnd
  0
BLOCK
  5
563D
330
563C
100
AcDbEntity
  8
0
100
AcDbBlockBegin
  2
*D59
 70
     1
 10
0.0
 20
0.0
 30
0.0
  3
*D59
  1

  0
LINE
  5
563F
330
563C
100
AcDbEntity
  8
Dim
 62
     0
370
    -2
100
AcDbLine
 10
286.7228212612918
 20
2235.115473081035
 30
0.0
 11
205.5138713349424
 21
2235.115473081035
 31
0.0
  0
LINE
  5
5640
330
563C
100
AcDbEntity
  8
Dim
 62
     0
370
    -2
100
AcDbLine
 10
283.3521238677008
 20
1980.997271178802
 30
0.0
 11
205.5138713349425
 21
1980.997271178802
 31
0.0
  0
LINE
  5
5641
330
563C
100
AcDbEntity
  8
Dim
 62
     0
370
    -2
100
AcDbLine
 10
205.5138713349424
 20
2225.116083432597
 30
0.0
 11
205.5138713349425
 21
1990.99666082724
 31
0.0
  0
INSERT
  5
5642
330
563C
100
AcDbEntity
  8
Dim
 62
     0
370
    -2
100
AcDbBlockReference
  2
_DOT
 10
205.5138713349424
 20
2235.115473081035
 30
0.0
 41
9.999389648437498
 42
9.999389648437498
 43
9.999389648437498
 50
90.00000000000004
  0
INSERT
  5
5643
330
563C
100
AcDbEntity
  8
Dim
 62
     0
370
    -2
100
AcDbBlockReference
  2
_DOT
 10
205.5138713349425
 20
1980.997271178802
 30
0.0
 41
9.999389648437498
 42
9.999389648437498
 43
9.999389648437498
 50
270.0
  0
MTEXT
  5
5644
330
563C
100
AcDbEntity
  8
Dim
 62
     0
100
AcDbMText
 10
183.2975627411925
 20
2108.056372129919
 30
0.0
 40
24.4326171875
 41
0.0
 46
0.0
 71
     5
 72
     1
  1
\A1;250
  7
ＭＳ ゴシック
 11
-5.592222284285389E-16
 21
1.0
 31
0.0
 73
     1
 44
1.0
  0
POINT
  5
5645
330
563C
100
AcDbEntity
  8
Defpoints
 62
     0
100
AcDbPoint
 10
311.7228212612918
 20
2235.115473081035
 30
0.0
  0
POINT
  5
5646
330
563C
100
AcDbEntity
  8
Defpoints
 62
     0
100
AcDbPoint
 10
308.3521238677008
 20
1980.997271178802
 30
0.0
  0
POINT
  5
5647
330
563C
100
AcDbEntity
  8
Defpoints
 62
     0
100
AcDbPoint
 10
205.5138713349426
 20
1980.997271178802
 30
0.0
  0
ENDBLK
  5
563E
330
563C
100
AcDbEntity
  8
0
100
AcDbBlockEnd
  0
BLOCK
  5
5649
330
5648
100
AcDbEntity
  8
0
100
AcDbBlockBegin
  2
*D60
 70
     1
 10
0.0
 20
0.0
 30
0.0
  3
*D60
  1

  0
LINE
  5
564B
330
5648
100
AcDbEntity
  8
Dim
 62
     0
370
    -2
100
AcDbLine
 10
303.3657944950337
 20
999.9639168986068
 30
0.0
 11
228.994261946738
 21
999.9639168986068
 31
0.0
  0
LINE
  5
564C
330
5648
100
AcDbEntity
  8
Dim
 62
     0
370
    -2
100
AcDbLine
 10
279.5652059139948
 20
973.2754958353848
 30
0.0
 11
228.994261946738
 21
973.2754958353848
 31
0.0
  0
LINE
  5
564D
330
5648
100
AcDbEntity
  8
Dim
 62
     0
370
    -2
100
AcDbLine
 10
228.994261946738
 20
999.9639168986068
 30
0.0
 11
228.994261946738
 21
904.1286042338224
 31
0.0
  0
LINE
  5
564E
330
5648
100
AcDbEntity
  8
Dim
 62
     0
370
    -2
100
AcDbLine
 10
228.994261946738
 20
989.9645272501693
 30
0.0
 11
228.994261946738
 21
983.2748854838223
 31
0.0
  0
LINE
  5
564F
330
5648
100
AcDbEntity
  8
Dim
 62
     0
370
    -2
100
AcDbLine
 10
228.994261946738
 20
983.2748854838223
 30
0.0
 11
228.994261946738
 21
993.2742751322598
 31
0.0
  0
INSERT
  5
5650
330
5648
100
AcDbEntity
  8
Dim
 62
     0
370
    -2
100
AcDbBlockReference
  2
_DOT
 10
228.994261946738
 20
999.9639168986068
 30
0.0
 41
9.999389648437498
 42
9.999389648437498
 43
9.999389648437498
 50
90.0
  0
INSERT
  5
5651
330
5648
100
AcDbEntity
  8
Dim
 62
     0
370
    -2
100
AcDbBlockReference
  2
_DOT
 10
228.994261946738
 20
973.2754958353848
 30
0.0
 41
9.999389648437498
 42
9.999389648437498
 43
9.999389648437498
 50
270.0
  0
MTEXT
  5
5652
330
5648
100
AcDbEntity
  8
Dim
 62
     0
100
AcDbMText
 10
206.777953352988
 20
928.7026603861661
 30
0.0
 40
24.4326171875
 41
0.0
 46
0.0
 71
     5
 72
     1
  1
\A1;30
  7
ＭＳ ゴシック
 11
0.0
 21
1.0
 31
0.0
 73
     1
 44
1.0
  0
POINT
  5
5653
330
5648
100
AcDbEntity
  8
Defpoints
 62
     0
100
AcDbPoint
 10
328.3657944950337
 20
999.9639168986068
 30
0.0
  0
POINT
  5
575E
330
5648
100
AcDbEntity
  8
Defpoints
 62
     0
100
AcDbPoint
 10
304.5652059139948
 20
973.2754958353848
 30
0.0
  0
POINT
  5
575F
330
5648
100
AcDbEntity
  8
Defpoints
 62
     0
100
AcDbPoint
 10
228.994261946738
 20
973.2754958353848
 30
0.0
  0
ENDBLK
  5
564A
330
5648
100
AcDbEntity
  8
0
100
AcDbBlockEnd
  0
BLOCK
  5
5655
330
5654
100
AcDbEntity
  8
0
100
AcDbBlockBegin
  2
*D61
 70
     1
 10
0.0
 20
0.0
 30
0.0
  3
*D61
  1

  0
LINE
  5
5657
330
5654
100
AcDbEntity
  8
Dim
 62
     0
370
    -2
100
AcDbLine
 10
796.6355138239569
 20
1052.962304081411
 30
0.0
 11
895.8733721349424
 21
1052.962304081411
 31
0.0
  0
LINE
  5
5658
330
5654
100
AcDbEntity
  8
Dim
 62
     0
370
    -2
100
AcDbLine
 10
837.3137146817407
 20
973.2754566803608
 30
0.0
 11
895.8733721349424
 21
973.2754566803608
 31
0.0
  0
LINE
  5
5659
330
5654
100
AcDbEntity
  8
Dim
 62
     0
370
    -2
100
AcDbLine
 10
895.8733721349424
 20
1042.962914432974
 30
0.0
 11
895.8733721349424
 21
983.2748463287983
 31
0.0
  0
INSERT
  5
565A
330
5654
100
AcDbEntity
  8
Dim
 62
     0
370
    -2
100
AcDbBlockReference
  2
_DOT
 10
895.8733721349424
 20
1052.962304081411
 30
0.0
 41
9.999389648437498
 42
9.999389648437498
 43
9.999389648437498
 50
90.0
  0
INSERT
  5
565B
330
5654
100
AcDbEntity
  8
Dim
 62
     0
370
    -2
100
AcDbBlockReference
  2
_DOT
 10
895.8733721349424
 20
973.2754566803608
 30
0.0
 41
9.999389648437498
 42
9.999389648437498
 43
9.999389648437498
 50
270.0
  0
MTEXT
  5
565C
330
5654
100
AcDbEntity
  8
Dim
 62
     0
100
AcDbMText
 10
873.6570635411924
 20
1013.118880380886
 30
0.0
 40
24.4326171875
 41
0.0
 46
0.0
 71
     5
 72
     1
  1
\A1;80
  7
ＭＳ ゴシック
 11
0.0
 21
1.0
 31
0.0
 73
     1
 44
1.0
  0
POINT
  5
565D
330
5654
100
AcDbEntity
  8
Defpoints
 62
     0
100
AcDbPoint
 10
771.6355138239569
 20
1052.962304081411
 30
0.0
  0
POINT
  5
565E
330
5654
100
AcDbEntity
  8
Defpoints
 62
     0
100
AcDbPoint
 10
812.3137146817407
 20
973.2754566803608
 30
0.0
  0
POINT
  5
565F
330
5654
100
AcDbEntity
  8
Defpoints
 62
     0
100
AcDbPoint
 10
895.8733721349424
 20
973.2754566803608
 30
0.0
  0
ENDBLK
  5
5656
330
5654
100
AcDbEntity
  8
0
100
AcDbBlockEnd
  0
BLOCK
  5
5661
330
5660
100
AcDbEntity
  8
0
100
AcDbBlockBegin
  2
*D62
 70
     1
 10
0.0
 20
0.0
 30
0.0
  3
*D62
  1

  0
LINE
  5
5663
330
5660
100
AcDbEntity
  8
Dim
 62
     0
 48
5.0
370
    -2
100
AcDbLine
 10
705.9751689509494
 20
1970.395920850437
 30
0.0
 11
705.9751689509494
 21
1879.7883786
 31
0.0
  0
LINE
  5
5664
330
5660
100
AcDbEntity
  8
Dim
 62
     0
 48
5.0
370
    -2
100
AcDbLine
 10
808.4675527385834
 20
1955.933427973144
 30
0.0
 11
808.4675527385834
 21
1879.7883786
 31
0.0
  0
LINE
  5
5665
330
5660
100
AcDbEntity
  8
Dim
 62
     0
 48
5.0
370
    -2
100
AcDbLine
 10
715.9745585993869
 20
1879.7883786
 30
0.0
 11
798.4681630901459
 21
1879.7883786
 31
0.0
  0
INSERT
  5
5666
330
5660
100
AcDbEntity
  8
Dim
 62
     0
370
    -2
100
AcDbBlockReference
  2
_DOT
 10
705.9751689509494
 20
1879.7883786
 30
0.0
 41
9.999389648437498
 42
9.999389648437498
 43
9.999389648437498
 50
180.0
  0
INSERT
  5
5667
330
5660
100
AcDbEntity
  8
Dim
 62
     0
370
    -2
100
AcDbBlockReference
  2
_DOT
 10
808.4675527385834
 20
1879.7883786
 30
0.0
 41
9.999389648437498
 42
9.999389648437498
 43
9.999389648437498
  0
MTEXT
  5
5668
330
5660
100
AcDbEntity
  8
Dim
 62
     0
100
AcDbMText
 10
757.2213608447664
 20
1902.00468719375
 30
0.0
 40
24.4326171875
 41
0.0
 46
0.0
 71
     5
 72
     1
  1
\A1;100
  7
ＭＳ ゴシック
 73
     1
 44
1.0
  0
POINT
  5
5669
330
5660
100
AcDbEntity
  8
Defpoints
 62
     0
100
AcDbPoint
 10
705.9751689509494
 20
1995.395920850437
 30
0.0
  0
POINT
  5
566A
330
5660
100
AcDbEntity
  8
Defpoints
 62
     0
100
AcDbPoint
 10
808.4675527385834
 20
1980.933427973144
 30
0.0
  0
POINT
  5
566B
330
5660
100
AcDbEntity
  8
Defpoints
 62
     0
100
AcDbPoint
 10
808.4675527385834
 20
1879.7883786
 30
0.0
  0
ENDBLK
  5
5662
330
5660
100
AcDbEntity
  8
0
100
AcDbBlockEnd
  0
BLOCK
  5
566D
330
566C
100
AcDbEntity
  8
0
100
AcDbBlockBegin
  2
*D63
 70
     1
 10
0.0
 20
0.0
 30
0.0
  3
*D63
  1

  0
LINE
  5
566F
330
566C
100
AcDbEntity
  8
Dim
 62
     0
 48
5.0
370
    -2
100
AcDbLine
 10
1658.105675858416
 20
972.2754901317888
 30
0.0
 11
1722.891128849452
 21
972.2754901317887
 31
0.0
  0
LINE
  5
5670
330
566C
100
AcDbEntity
  8
Dim
 62
     0
 48
5.0
370
    -2
100
AcDbLine
 10
1658.105675858416
 20
1093.276200737324
 30
0.0
 11
1722.891128849452
 21
1093.276200737324
 31
0.0
  0
LINE
  5
5671
330
566C
100
AcDbEntity
  8
Dim
 62
     0
 48
5.0
370
    -2
100
AcDbLine
 10
1722.891128849452
 20
982.2748797802262
 30
0.0
 11
1722.891128849452
 21
1083.276811088886
 31
0.0
  0
INSERT
  5
5672
330
566C
100
AcDbEntity
  8
Dim
 62
     0
370
    -2
100
AcDbBlockReference
  2
_DOT
 10
1722.891128849452
 20
972.2754901317887
 30
0.0
 41
9.999389648437498
 42
9.999389648437498
 43
9.999389648437498
 50
270.0
  0
INSERT
  5
5673
330
566C
100
AcDbEntity
  8
Dim
 62
     0
370
    -2
100
AcDbBlockReference
  2
_DOT
 10
1722.891128849452
 20
1093.276200737324
 30
0.0
 41
9.999389648437498
 42
9.999389648437498
 43
9.999389648437498
 50
90.0
  0
MTEXT
  5
5674
330
566C
100
AcDbEntity
  8
Dim
 62
     0
100
AcDbMText
 10
1700.674820255702
 20
1032.775845434556
 30
0.0
 40
24.4326171875
 41
0.0
 46
0.0
 71
     5
 72
     1
  1
\A1;120
  7
ＭＳ ゴシック
 11
0.0
 21
1.0
 31
0.0
 73
     1
 44
1.0
  0
POINT
  5
5675
330
566C
100
AcDbEntity
  8
Defpoints
 62
     0
100
AcDbPoint
 10
1633.105675858416
 20
972.2754901317888
 30
0.0
  0
POINT
  5
5676
330
566C
100
AcDbEntity
  8
Defpoints
 62
     0
100
AcDbPoint
 10
1633.105675858416
 20
1093.276200737324
 30
0.0
  0
POINT
  5
5677
330
566C
100
AcDbEntity
  8
Defpoints
 62
     0
100
AcDbPoint
 10
1722.891128849452
 20
1093.276200737324
 30
0.0
  0
ENDBLK
  5
566E
330
566C
100
AcDbEntity
  8
0
100
AcDbBlockEnd
  0
BLOCK
  5
5679
330
5678
100
AcDbEntity
  8
0
100
AcDbBlockBegin
  2
*D64
 70
     1
 10
0.0
 20
0.0
 30
0.0
  3
*D64
  1

  0
LINE
  5
567B
330
5678
100
AcDbEntity
  8
Dim
 62
     0
 48
5.0
370
    -2
100
AcDbLine
 10
314.5894961313388
 20
1970.395925372033
 30
0.0
 11
314.5894961313388
 21
1879.7883786
 31
0.0
  0
LINE
  5
567C
330
5678
100
AcDbEntity
  8
Dim
 62
     0
 48
5.0
370
    -2
100
AcDbLine
 10
705.9751689509494
 20
1970.395920850437
 30
0.0
 11
705.9751689509494
 21
1879.7883786
 31
0.0
  0
LINE
  5
567D
330
5678
100
AcDbEntity
  8
Dim
 62
     0
 48
5.0
370
    -2
100
AcDbLine
 10
324.5888857797763
 20
1879.7883786
 30
0.0
 11
695.9757793025119
 21
1879.7883786
 31
0.0
  0
INSERT
  5
567E
330
5678
100
AcDbEntity
  8
Dim
 62
     0
370
    -2
100
AcDbBlockReference
  2
_DOT
 10
314.5894961313388
 20
1879.7883786
 30
0.0
 41
9.999389648437498
 42
9.999389648437498
 43
9.999389648437498
 50
180.0
  0
INSERT
  5
567F
330
5678
100
AcDbEntity
  8
Dim
 62
     0
370
    -2
100
AcDbBlockReference
  2
_DOT
 10
705.9751689509494
 20
1879.7883786
 30
0.0
 41
9.999389648437498
 42
9.999389648437498
 43
9.999389648437498
  0
MTEXT
  5
5680
330
5678
100
AcDbEntity
  8
Dim
 62
     0
100
AcDbMText
 10
510.2823325411441
 20
1902.00468719375
 30
0.0
 40
24.4326171875
 41
0.0
 46
0.0
 71
     5
 72
     1
  1
\A1;390
  7
ＭＳ ゴシック
 73
     1
 44
1.0
  0
POINT
  5
5681
330
5678
100
AcDbEntity
  8
Defpoints
 62
     0
100
AcDbPoint
 10
314.5894961313388
 20
1995.395925372033
 30
0.0
  0
POINT
  5
5682
330
5678
100
AcDbEntity
  8
Defpoints
 62
     0
100
AcDbPoint
 10
705.9751689509494
 20
1995.395920850437
 30
0.0
  0
POINT
  5
5683
330
5678
100
AcDbEntity
  8
Defpoints
 62
     0
100
AcDbPoint
 10
705.9751689509494
 20
1879.7883786
 30
0.0
  0
ENDBLK
  5
567A
330
5678
100
AcDbEntity
  8
0
100
AcDbBlockEnd
  0
BLOCK
  5
5685
330
5684
100
AcDbEntity
  8
0
100
AcDbBlockBegin
  2
*D65
 70
     1
 10
0.0
 20
0.0
 30
0.0
  3
*D65
  1

  0
LINE
  5
5687
330
5684
100
AcDbEntity
  8
Dim
 62
     0
370
    -2
100
AcDbLine
 10
712.2850997416017
 20
2225.180999667576
 30
0.0
 11
895.8733721349423
 21
2225.180999667576
 31
0.0
  0
LINE
  5
5688
330
5684
100
AcDbEntity
  8
Dim
 62
     0
370
    -2
100
AcDbLine
 10
712.2850997416017
 20
1990.180999667576
 30
0.0
 11
895.8733721349424
 21
1990.180999667576
 31
0.0
  0
LINE
  5
5689
330
5684
100
AcDbEntity
  8
Dim
 62
     0
370
    -2
100
AcDbLine
 10
895.8733721349423
 20
2215.181610019139
 30
0.0
 11
895.8733721349424
 21
2000.180389316014
 31
0.0
  0
INSERT
  5
568A
330
5684
100
AcDbEntity
  8
Dim
 62
     0
370
    -2
100
AcDbBlockReference
  2
_DOT
 10
895.8733721349423
 20
2225.180999667576
 30
0.0
 41
9.999389648437498
 42
9.999389648437498
 43
9.999389648437498
 50
90.00000000000001
  0
INSERT
  5
568B
330
5684
100
AcDbEntity
  8
Dim
 62
     0
370
    -2
100
AcDbBlockReference
  2
_DOT
 10
895.8733721349424
 20
1990.180999667576
 30
0.0
 41
9.999389648437498
 42
9.999389648437498
 43
9.999389648437498
 50
270.0
  0
MTEXT
  5
568C
330
5684
100
AcDbEntity
  8
Dim
 62
     0
100
AcDbMText
 10
873.6570635411924
 20
2107.680999667576
 30
0.0
 40
24.4326171875
 41
0.0
 46
0.0
 71
     5
 72
     1
  1
\A1;230
  7
ＭＳ ゴシック
 11
-4.837737775387916E-16
 21
1.0
 31
0.0
 73
     1
 44
1.0
  0
POINT
  5
568D
330
5684
100
AcDbEntity
  8
Defpoints
 62
     0
100
AcDbPoint
 10
687.2850997416017
 20
2225.180999667576
 30
0.0
  0
POINT
  5
568E
330
5684
100
AcDbEntity
  8
Defpoints
 62
     0
100
AcDbPoint
 10
687.2850997416017
 20
1990.180999667576
 30
0.0
  0
POINT
  5
568F
330
5684
100
AcDbEntity
  8
Defpoints
 62
     0
100
AcDbPoint
 10
895.8733721349424
 20
1990.180999667576
 30
0.0
  0
ENDBLK
  5
5686
330
5684
100
AcDbEntity
  8
0
100
AcDbBlockEnd
  0
BLOCK
  5
5691
330
5690
100
AcDbEntity
  8
0
100
AcDbBlockBegin
  2
*D66
 70
     1
 10
0.0
 20
0.0
 30
0.0
  3
*D66
  1

  0
LINE
  5
5693
330
5690
100
AcDbEntity
  8
Dim
 62
     0
370
    -2
100
AcDbLine
 10
1534.654549116005
 20
998.4670132941828
 30
0.0
 11
1509.654556033279
 21
998.4670132941828
 31
0.0
  0
LINE
  5
5694
330
5690
100
AcDbEntity
  8
Dim
 62
     0
370
    -2
100
AcDbLine
 10
1534.654556033279
 20
1093.276200737324
 30
0.0
 11
1509.654556033279
 21
1093.276200737324
 31
0.0
  0
LINE
  5
5695
330
5690
100
AcDbEntity
  8
Dim
 62
     0
370
    -2
100
AcDbLine
 10
1509.654556033279
 20
998.4670132941828
 30
0.0
 11
1509.654556033279
 21
1267.141289604511
 31
0.0
  0
LINE
  5
5696
330
5690
100
AcDbEntity
  8
Dim
 62
     0
370
    -2
100
AcDbLine
 10
1509.654556033279
 20
1008.46640294262
 30
0.0
 11
1509.654556033279
 21
1083.276811088886
 31
0.0
  0
LINE
  5
5697
330
5690
100
AcDbEntity
  8
Dim
 62
     0
370
    -2
100
AcDbLine
 10
1509.654556033279
 20
1083.276811088886
 30
0.0
 11
1509.654556033279
 21
1073.277421440449
 31
0.0
  0
INSERT
  5
5698
330
5690
100
AcDbEntity
  8
Dim
 62
     0
370
    -2
100
AcDbBlockReference
  2
_DOT
 10
1509.654556033279
 20
998.4670132941828
 30
0.0
 41
9.999389648437498
 42
9.999389648437498
 43
9.999389648437498
 50
270.0
  0
INSERT
  5
5699
330
5690
100
AcDbEntity
  8
Dim
 62
     0
370
    -2
100
AcDbBlockReference
  2
_DOT
 10
1509.654556033279
 20
1093.276200737324
 30
0.0
 41
9.999389648437498
 42
9.999389648437498
 43
9.999389648437498
 50
90.0
  0
MTEXT
  5
569A
330
5690
100
AcDbEntity
  8
Dim
 62
     0
100
AcDbMText
 10
1485.275960818435
 20
1190.208134819355
 30
0.0
 40
24.4326171875
 41
0.0
 46
0.0
 71
     5
 72
     1
  1
\A1;95 (深さ)
  7
ＭＳ ゴシック
 11
0.0
 21
1.0
 31
0.0
 73
     1
 44
1.0
  0
POINT
  5
569B
330
5690
100
AcDbEntity
  8
Defpoints
 62
     0
100
AcDbPoint
 10
1509.654549116005
 20
998.4670132941828
 30
0.0
  0
POINT
  5
569C
330
5690
100
AcDbEntity
  8
Defpoints
 62
     0
100
AcDbPoint
 10
1509.654556033279
 20
1093.276200737324
 30
0.0
  0
POINT
  5
569D
330
5690
100
AcDbEntity
  8
Defpoints
 62
     0
100
AcDbPoint
 10
1509.654556033279
 20
1093.276200737324
 30
0.0
  0
ENDBLK
  5
5692
330
5690
100
AcDbEntity
  8
0
100
AcDbBlockEnd
  0
BLOCK
  5
569F
330
569E
100
AcDbEntity
  8
0
100
AcDbBlockBegin
  2
*D67
 70
     1
 10
0.0
 20
0.0
 30
0.0
  3
*D67
  1

  0
LINE
  5
56A1
330
569E
100
AcDbEntity
  8
Dim
 62
     0
370
    -2
100
AcDbLine
 10
808.4675527385866
 20
2254.116386910101
 30
0.0
 11
808.4675527385866
 21
2291.296786919999
 31
0.0
  0
LINE
  5
56A2
330
569E
100
AcDbEntity
  8
Dim
 62
     0
370
    -2
100
AcDbLine
 10
748.4675527385866
 20
2154.098461927944
 30
0.0
 11
748.4675527385866
 21
2291.296786919999
 31
0.0
  0
LINE
  5
56A3
330
569E
100
AcDbEntity
  8
Dim
 62
     0
370
    -2
100
AcDbLine
 10
798.4681630901491
 20
2291.296786919999
 30
0.0
 11
758.4669423870241
 21
2291.296786919999
 31
0.0
  0
INSERT
  5
56A4
330
569E
100
AcDbEntity
  8
Dim
 62
     0
370
    -2
100
AcDbBlockReference
  2
_DOT
 10
808.4675527385866
 20
2291.296786919999
 30
0.0
 41
9.999389648437498
 42
9.999389648437498
 43
9.999389648437498
  0
INSERT
  5
56A5
330
569E
100
AcDbEntity
  8
Dim
 62
     0
370
    -2
100
AcDbBlockReference
  2
_DOT
 10
748.4675527385866
 20
2291.296786919999
 30
0.0
 41
9.999389648437498
 42
9.999389648437498
 43
9.999389648437498
 50
180.0
  0
MTEXT
  5
56A6
330
569E
100
AcDbEntity
  8
Dim
 62
     0
100
AcDbMText
 10
778.4675527385866
 20
2313.513095513749
 30
0.0
 40
24.4326171875
 41
0.0
 46
0.0
 71
     5
 72
     1
  1
\A1;60
  7
ＭＳ ゴシック
 73
     1
 44
1.0
  0
POINT
  5
56A7
330
569E
100
AcDbEntity
  8
Defpoints
 62
     0
100
AcDbPoint
 10
808.4675527385866
 20
2229.116386910101
 30
0.0
  0
POINT
  5
56A8
330
569E
100
AcDbEntity
  8
Defpoints
 62
     0
100
AcDbPoint
 10
748.4675527385866
 20
2129.098461927944
 30
0.0
  0
POINT
  5
56A9
330
569E
100
AcDbEntity
  8
Defpoints
 62
     0
100
AcDbPoint
 10
748.4675527385866
 20
2291.296786919999
 30
0.0
  0
ENDBLK
  5
56A0
330
569E
100
AcDbEntity
  8
0
100
AcDbBlockEnd
  0
BLOCK
  5
56AB
330
56AA
100
AcDbEntity
  8
0
100
AcDbBlockBegin
  2
*D68
 70
     1
 10
0.0
 20
0.0
 30
0.0
  3
*D68
  1

  0
LINE
  5
56AD
330
56AA
100
AcDbEntity
  8
Dim
 62
     0
 48
5.0
370
    -2
100
AcDbLine
 10
758.7310125805379
 20
1094.343278449309
 30
0.0
 11
758.7310125805379
 21
1144.88194948026
 31
0.0
  0
LINE
  5
56AE
330
56AA
100
AcDbEntity
  8
Dim
 62
     0
 48
5.0
370
    -2
100
AcDbLine
 10
808.4675527385907
 20
1011.504252981996
 30
0.0
 11
808.4675527385907
 21
1144.88194948026
 31
0.0
  0
LINE
  5
56AF
330
56AA
100
AcDbEntity
  8
Dim
 62
     0
 48
5.0
370
    -2
100
AcDbLine
 10
768.7304022289754
 20
1144.88194948026
 30
0.0
 11
798.4681630901532
 21
1144.88194948026
 31
0.0
  0
INSERT
  5
56B0
330
56AA
100
AcDbEntity
  8
Dim
 62
     0
370
    -2
100
AcDbBlockReference
  2
_DOT
 10
758.7310125805379
 20
1144.88194948026
 30
0.0
 41
9.999389648437498
 42
9.999389648437498
 43
9.999389648437498
 50
180.0
  0
INSERT
  5
56B1
330
56AA
100
AcDbEntity
  8
Dim
 62
     0
370
    -2
100
AcDbBlockReference
  2
_DOT
 10
808.4675527385907
 20
1144.88194948026
 30
0.0
 41
9.999389648437498
 42
9.999389648437498
 43
9.999389648437498
  0
MTEXT
  5
56B2
330
56AA
100
AcDbEntity
  8
Dim
 62
     0
100
AcDbMText
 10
783.5992826595643
 20
1167.09825807401
 30
0.0
 40
24.4326171875
 41
0.0
 46
0.0
 71
     5
 72
     1
  1
\A1;50
  7
ＭＳ ゴシック
 73
     1
 44
1.0
  0
POINT
  5
56B3
330
56AA
100
AcDbEntity
  8
Defpoints
 62
     0
100
AcDbPoint
 10
758.7310125805379
 20
1069.343278449309
 30
0.0
  0
POINT
  5
56B4
330
56AA
100
AcDbEntity
  8
Defpoints
 62
     0
100
AcDbPoint
 10
808.4675527385907
 20
986.5042529819958
 30
0.0
  0
POINT
  5
56B5
330
56AA
100
AcDbEntity
  8
Defpoints
 62
     0
100
AcDbPoint
 10
808.4675527385907
 20
1144.88194948026
 30
0.0
  0
ENDBLK
  5
56AC
330
56AA
100
AcDbEntity
  8
0
100
AcDbBlockEnd
  0
BLOCK
  5
56B7
330
56B6
100
AcDbEntity
  8
0
100
AcDbBlockBegin
  2
*D69
 70
     1
 10
0.0
 20
0.0
 30
0.0
  3
*D69
  1

  0
LINE
  5
56B9
330
56B6
100
AcDbEntity
  8
Dim
 62
     0
370
    -2
100
AcDbLine
 10
758.7310125805379
 20
1094.343278449309
 30
0.0
 11
758.7310125805379
 21
1144.88194948026
 31
0.0
  0
LINE
  5
56BA
330
56B6
100
AcDbEntity
  8
Dim
 62
     0
370
    -2
100
AcDbLine
 10
341.1738793543186
 20
1041.344891266506
 30
0.0
 11
341.1738793543186
 21
1144.88194948026
 31
0.0
  0
LINE
  5
56BB
330
56B6
100
AcDbEntity
  8
Dim
 62
     0
370
    -2
100
AcDbLine
 10
748.7316229321004
 20
1144.88194948026
 30
0.0
 11
351.1732690027561
 21
1144.88194948026
 31
0.0
  0
INSERT
  5
56BC
330
56B6
100
AcDbEntity
  8
Dim
 62
     0
370
    -2
100
AcDbBlockReference
  2
_DOT
 10
758.7310125805379
 20
1144.88194948026
 30
0.0
 41
9.999389648437498
 42
9.999389648437498
 43
9.999389648437498
  0
INSERT
  5
56BD
330
56B6
100
AcDbEntity
  8
Dim
 62
     0
370
    -2
100
AcDbBlockReference
  2
_DOT
 10
341.1738793543186
 20
1144.88194948026
 30
0.0
 41
9.999389648437498
 42
9.999389648437498
 43
9.999389648437498
 50
180.0
  0
MTEXT
  5
56BE
330
56B6
100
AcDbEntity
  8
Dim
 62
     0
100
AcDbMText
 10
549.9524459674283
 20
1167.09825807401
 30
0.0
 40
24.4326171875
 41
0.0
 46
0.0
 71
     5
 72
     1
  1
\A1;415
  7
ＭＳ ゴシック
 73
     1
 44
1.0
  0
POINT
  5
56BF
330
56B6
100
AcDbEntity
  8
Defpoints
 62
     0
100
AcDbPoint
 10
758.7310125805379
 20
1069.343278449309
 30
0.0
  0
POINT
  5
56C0
330
56B6
100
AcDbEntity
  8
Defpoints
 62
     0
100
AcDbPoint
 10
341.1738793543186
 20
1016.344891266506
 30
0.0
  0
POINT
  5
56C1
330
56B6
100
AcDbEntity
  8
Defpoints
 62
     0
100
AcDbPoint
 10
341.1738793543186
 20
1144.88194948026
 30
0.0
  0
ENDBLK
  5
56B8
330
56B6
100
AcDbEntity
  8
0
100
AcDbBlockEnd
  0
BLOCK
  5
56C3
330
56C2
100
AcDbEntity
  8
0
100
AcDbBlockBegin
  2
*D70
 70
     1
 10
0.0
 20
0.0
 30
0.0
  3
*D70
  1

  0
LINE
  5
56C5
330
56C2
100
AcDbEntity
  8
Dim
 62
     0
370
    -2
100
AcDbLine
 10
808.4675526542114
 20
950.3103571451238
 30
0.0
 11
808.4675526542114
 21
884.2768781202597
 31
0.0
  0
LINE
  5
56C6
330
56C2
100
AcDbEntity
  8
Dim
 62
     0
370
    -2
100
AcDbLine
 10
510.1015940802017
 20
951.2754784162328
 30
0.0
 11
510.1015940802017
 21
884.2768781202597
 31
0.0
  0
LINE
  5
56C7
330
56C2
100
AcDbEntity
  8
Dim
 62
     0
370
    -2
100
AcDbLine
 10
798.4681630057739
 20
884.2768781202597
 30
0.0
 11
520.1009837286392
 21
884.2768781202597
 31
0.0
  0
INSERT
  5
56C8
330
56C2
100
AcDbEntity
  8
Dim
 62
     0
370
    -2
100
AcDbBlockReference
  2
_DOT
 10
808.4675526542114
 20
884.2768781202597
 30
0.0
 41
9.999389648437498
 42
9.999389648437498
 43
9.999389648437498
  0
INSERT
  5
56C9
330
56C2
100
AcDbEntity
  8
Dim
 62
     0
370
    -2
100
AcDbBlockReference
  2
_DOT
 10
510.1015940802017
 20
884.2768781202597
 30
0.0
 41
9.999389648437498
 42
9.999389648437498
 43
9.999389648437498
 50
180.0
  0
MTEXT
  5
56CA
330
56C2
100
AcDbEntity
  8
Dim
 62
     0
100
AcDbMText
 10
659.2845733672066
 20
906.4931867140097
 30
0.0
 40
24.4326171875
 41
0.0
 46
0.0
 71
     5
 72
     1
  1
\A1;300
  7
ＭＳ ゴシック
 73
     1
 44
1.0
  0
POINT
  5
56CB
330
56C2
100
AcDbEntity
  8
Defpoints
 62
     0
100
AcDbPoint
 10
808.4675526542114
 20
975.3103571451238
 30
0.0
  0
POINT
  5
56CC
330
56C2
100
AcDbEntity
  8
Defpoints
 62
     0
100
AcDbPoint
 10
510.1015940802017
 20
976.2754784162328
 30
0.0
  0
POINT
  5
56CD
330
56C2
100
AcDbEntity
  8
Defpoints
 62
     0
100
AcDbPoint
 10
510.1015940802017
 20
884.2768781202597
 30
0.0
  0
ENDBLK
  5
56C4
330
56C2
100
AcDbEntity
  8
0
100
AcDbBlockEnd
  0
BLOCK
  5
56CF
330
56CE
100
AcDbEntity
  8
0
100
AcDbBlockBegin
  2
*D71
 70
     1
 10
0.0
 20
0.0
 30
0.0
  3
*D71
  1

  0
LINE
  5
56D1
330
56CE
100
AcDbEntity
  8
Dim
 62
     0
 48
5.0
370
    -2
100
AcDbLine
 10
341.1738793543186
 20
1127.634202525225
 30
0.0
 11
341.1738793543186
 21
1144.88194948026
 31
0.0
  0
LINE
  5
56D2
330
56CE
100
AcDbEntity
  8
Dim
 62
     0
 48
5.0
370
    -2
100
AcDbLine
 10
304.3493508363608
 20
1037.459499329773
 30
0.0
 11
304.3493508363608
 21
1144.88194948026
 31
0.0
  0
LINE
  5
56D3
330
56CE
100
AcDbEntity
  8
Dim
 62
     0
 48
5.0
370
    -2
100
AcDbLine
 10
331.1744897058811
 20
1144.88194948026
 30
0.0
 11
314.3487404847983
 21
1144.88194948026
 31
0.0
  0
INSERT
  5
56D4
330
56CE
100
AcDbEntity
  8
Dim
 62
     0
370
    -2
100
AcDbBlockReference
  2
_DOT
 10
341.1738793543186
 20
1144.88194948026
 30
0.0
 41
9.999389648437498
 42
9.999389648437498
 43
9.999389648437498
  0
INSERT
  5
56D5
330
56CE
100
AcDbEntity
  8
Dim
 62
     0
370
    -2
100
AcDbBlockReference
  2
_DOT
 10
304.3493508363608
 20
1144.88194948026
 30
0.0
 41
9.999389648437498
 42
9.999389648437498
 43
9.999389648437498
 50
180.0
  0
MTEXT
  5
56D6
330
56CE
100
AcDbEntity
  8
Dim
 62
     0
100
AcDbMText
 10
322.7616150953397
 20
1167.09825807401
 30
0.0
 40
24.4326171875
 41
0.0
 46
0.0
 71
     5
 72
     1
  1
\A1;35
  7
ＭＳ ゴシック
 73
     1
 44
1.0
  0
POINT
  5
56D7
330
56CE
100
AcDbEntity
  8
Defpoints
 62
     0
100
AcDbPoint
 10
341.1738793543186
 20
1102.634202525225
 30
0.0
  0
POINT
  5
56D8
330
56CE
100
AcDbEntity
  8
Defpoints
 62
     0
100
AcDbPoint
 10
304.3493508363608
 20
1012.459499329773
 30
0.0
  0
POINT
  5
56D9
330
56CE
100
AcDbEntity
  8
Defpoints
 62
     0
100
AcDbPoint
 10
304.3493508363608
 20
1144.88194948026
 30
0.0
  0
ENDBLK
  5
56D0
330
56CE
100
AcDbEntity
  8
0
100
AcDbBlockEnd
  0
BLOCK
  5
56DB
330
56DA
100
AcDbEntity
  8
0
100
AcDbBlockBegin
  2
*D72
 70
     1
 10
0.0
 20
0.0
 30
0.0
  3
*D72
  1

  0
LINE
  5
56DD
330
56DA
100
AcDbEntity
  8
Dim
 62
     0
370
    -2
100
AcDbLine
 10
1693.514759641357
 20
2235.115473081036
 30
0.0
 11
1779.011749322357
 21
2235.115473081036
 31
0.0
  0
LINE
  5
56DE
330
56DA
100
AcDbEntity
  8
Dim
 62
     0
370
    -2
100
AcDbLine
 10
1693.514759641357
 20
2160.115473081036
 30
0.0
 11
1779.011749322357
 21
2160.115473081036
 31
0.0
  0
LINE
  5
56DF
330
56DA
100
AcDbEntity
  8
Dim
 62
     0
370
    -2
100
AcDbLine
 10
1779.011749322357
 20
2225.116083432598
 30
0.0
 11
1779.011749322357
 21
2170.114862729473
 31
0.0
  0
INSERT
  5
56E0
330
56DA
100
AcDbEntity
  8
Dim
 62
     0
370
    -2
100
AcDbBlockReference
  2
_DOT
 10
1779.011749322357
 20
2235.115473081036
 30
0.0
 41
9.999389648437498
 42
9.999389648437498
 43
9.999389648437498
 50
90.0
  0
INSERT
  5
56E1
330
56DA
100
AcDbEntity
  8
Dim
 62
     0
370
    -2
100
AcDbBlockReference
  2
_DOT
 10
1779.011749322357
 20
2160.115473081036
 30
0.0
 41
9.999389648437498
 42
9.999389648437498
 43
9.999389648437498
 50
270.0
  0
MTEXT
  5
56E2
330
56DA
100
AcDbEntity
  8
Dim
 62
     0
100
AcDbMText
 10
1756.795440728607
 20
2197.615473081036
 30
0.0
 40
24.4326171875
 41
0.0
 46
0.0
 71
     5
 72
     1
  1
\A1;75
  7
ＭＳ ゴシック
 11
0.0
 21
1.0
 31
0.0
 73
     1
 44
1.0
  0
POINT
  5
56E3
330
56DA
100
AcDbEntity
  8
Defpoints
 62
     0
100
AcDbPoint
 10
1668.514759641357
 20
2235.115473081036
 30
0.0
  0
POINT
  5
56E4
330
56DA
100
AcDbEntity
  8
Defpoints
 62
     0
100
AcDbPoint
 10
1668.514759641357
 20
2160.115473081036
 30
0.0
  0
POINT
  5
56E5
330
56DA
100
AcDbEntity
  8
Defpoints
 62
     0
100
AcDbPoint
 10
1779.011749322357
 20
2160.115473081036
 30
0.0
  0
ENDBLK
  5
56DC
330
56DA
100
AcDbEntity
  8
0
100
AcDbBlockEnd
  0
BLOCK
  5
56E7
330
56E6
100
AcDbEntity
  8
0
100
AcDbBlockBegin
  2
*D73
 70
     1
 10
0.0
 20
0.0
 30
0.0
  3
*D73
  1

  0
LINE
  5
56E9
330
56E6
100
AcDbEntity
  8
Dim
 62
     0
370
    -2
100
AcDbLine
 10
1693.514759641357
 20
2160.115473081036
 30
0.0
 11
1779.011749322357
 21
2160.115473081036
 31
0.0
  0
LINE
  5
56EA
330
56E6
100
AcDbEntity
  8
Dim
 62
     0
370
    -2
100
AcDbLine
 10
1693.514759641357
 20
2060.115473081036
 30
0.0
 11
1779.011749322357
 21
2060.115473081036
 31
0.0
  0
LINE
  5
56EB
330
56E6
100
AcDbEntity
  8
Dim
 62
     0
370
    -2
100
AcDbLine
 10
1779.011749322357
 20
2150.116083432598
 30
0.0
 11
1779.011749322357
 21
2070.114862729473
 31
0.0
  0
INSERT
  5
56EC
330
56E6
100
AcDbEntity
  8
Dim
 62
     0
370
    -2
100
AcDbBlockReference
  2
_DOT
 10
1779.011749322357
 20
2160.115473081036
 30
0.0
 41
9.999389648437498
 42
9.999389648437498
 43
9.999389648437498
 50
90.0
  0
INSERT
  5
56ED
330
56E6
100
AcDbEntity
  8
Dim
 62
     0
370
    -2
100
AcDbBlockReference
  2
_DOT
 10
1779.011749322357
 20
2060.115473081036
 30
0.0
 41
9.999389648437498
 42
9.999389648437498
 43
9.999389648437498
 50
270.0
  0
MTEXT
  5
56EE
330
56E6
100
AcDbEntity
  8
Dim
 62
     0
100
AcDbMText
 10
1756.795440728607
 20
2110.115473081036
 30
0.0
 40
24.4326171875
 41
0.0
 46
0.0
 71
     5
 72
     1
  1
\A1;100
  7
ＭＳ ゴシック
 11
0.0
 21
1.0
 31
0.0
 73
     1
 44
1.0
  0
POINT
  5
56EF
330
56E6
100
AcDbEntity
  8
Defpoints
 62
     0
100
AcDbPoint
 10
1668.514759641357
 20
2160.115473081036
 30
0.0
  0
POINT
  5
56F0
330
56E6
100
AcDbEntity
  8
Defpoints
 62
     0
100
AcDbPoint
 10
1668.514759641357
 20
2060.115473081036
 30
0.0
  0
POINT
  5
56F1
330
56E6
100
AcDbEntity
  8
Defpoints
 62
     0
100
AcDbPoint
 10
1779.011749322357
 20
2060.115473081036
 30
0.0
  0
ENDBLK
  5
56E8
330
56E6
100
AcDbEntity
  8
0
100
AcDbBlockEnd
  0
BLOCK
  5
56F3
330
56F2
100
AcDbEntity
  8
0
100
AcDbBlockBegin
  2
*D74
 70
     1
 10
0.0
 20
0.0
 30
0.0
  3
*D74
  1

  0
LINE
  5
56F5
330
56F2
100
AcDbEntity
  8
Dim
 62
     0
370
    -2
100
AcDbLine
 10
1674.513845812294
 20
2254.116386910098
 30
0.0
 11
1674.513845812294
 21
2291.296786919999
 31
0.0
  0
LINE
  5
56F6
330
56F2
100
AcDbEntity
  8
Dim
 62
     0
370
    -2
100
AcDbLine
 10
1644.513845812294
 20
2254.116386910098
 30
0.0
 11
1644.513845812294
 21
2291.296786919999
 31
0.0
  0
LINE
  5
56F7
330
56F2
100
AcDbEntity
  8
Dim
 62
     0
370
    -2
100
AcDbLine
 10
1664.514456163857
 20
2291.296786919999
 30
0.0
 11
1654.513235460732
 21
2291.296786919999
 31
0.0
  0
INSERT
  5
56F8
330
56F2
100
AcDbEntity
  8
Dim
 62
     0
370
    -2
100
AcDbBlockReference
  2
_DOT
 10
1674.513845812294
 20
2291.296786919999
 30
0.0
 41
9.999389648437498
 42
9.999389648437498
 43
9.999389648437498
  0
INSERT
  5
56F9
330
56F2
100
AcDbEntity
  8
Dim
 62
     0
370
    -2
100
AcDbBlockReference
  2
_DOT
 10
1644.513845812294
 20
2291.296786919999
 30
0.0
 41
9.999389648437498
 42
9.999389648437498
 43
9.999389648437498
 50
180.0
  0
MTEXT
  5
56FA
330
56F2
100
AcDbEntity
  8
Dim
 62
     0
100
AcDbMText
 10
1659.513845812294
 20
2313.513095513749
 30
0.0
 40
24.4326171875
 41
0.0
 46
0.0
 71
     5
 72
     1
  1
\A1;30
  7
ＭＳ ゴシック
 73
     1
 44
1.0
  0
POINT
  5
56FB
330
56F2
100
AcDbEntity
  8
Defpoints
 62
     0
100
AcDbPoint
 10
1674.513845812294
 20
2229.116386910098
 30
0.0
  0
POINT
  5
56FC
330
56F2
100
AcDbEntity
  8
Defpoints
 62
     0
100
AcDbPoint
 10
1644.513845812294
 20
2229.116386910098
 30
0.0
  0
POINT
  5
56FD
330
56F2
100
AcDbEntity
  8
Defpoints
 62
     0
100
AcDbPoint
 10
1644.513845812294
 20
2291.296786919999
 30
0.0
  0
ENDBLK
  5
56F4
330
56F2
100
AcDbEntity
  8
0
100
AcDbBlockEnd
  0
BLOCK
  5
56FF
330
56FE
100
AcDbEntity
  8
0
100
AcDbBlockBegin
  2
*D75
 70
     1
 10
0.0
 20
0.0
 30
0.0
  3
*D75
  1

  0
LINE
  5
5701
330
56FE
100
AcDbEntity
  8
Dim
 62
     0
370
    -2
100
AcDbLine
 10
1644.513845812294
 20
2254.116386910098
 30
0.0
 11
1644.513845812294
 21
2291.296786919999
 31
0.0
  0
LINE
  5
5702
330
56FE
100
AcDbEntity
  8
Dim
 62
     0
370
    -2
100
AcDbLine
 10
1344.988232346833
 20
2183.34148465594
 30
0.0
 11
1344.988232346833
 21
2291.296786919999
 31
0.0
  0
LINE
  5
5703
330
56FE
100
AcDbEntity
  8
Dim
 62
     0
370
    -2
100
AcDbLine
 10
1634.514456163857
 20
2291.296786919999
 30
0.0
 11
1354.987621995271
 21
2291.296786919999
 31
0.0
  0
INSERT
  5
5704
330
56FE
100
AcDbEntity
  8
Dim
 62
     0
370
    -2
100
AcDbBlockReference
  2
_DOT
 10
1644.513845812294
 20
2291.296786919999
 30
0.0
 41
9.999389648437498
 42
9.999389648437498
 43
9.999389648437498
  0
INSERT
  5
5705
330
56FE
100
AcDbEntity
  8
Dim
 62
     0
370
    -2
100
AcDbBlockReference
  2
_DOT
 10
1344.988232346833
 20
2291.296786919999
 30
0.0
 41
9.999389648437498
 42
9.999389648437498
 43
9.999389648437498
 50
180.0
  0
MTEXT
  5
5706
330
56FE
100
AcDbEntity
  8
Dim
 62
     0
100
AcDbMText
 10
1494.751039079564
 20
2313.513095513749
 30
0.0
 40
24.4326171875
 41
0.0
 46
0.0
 71
     5
 72
     1
  1
\A1;300
  7
ＭＳ ゴシック
 73
     1
 44
1.0
  0
POINT
  5
5707
330
56FE
100
AcDbEntity
  8
Defpoints
 62
     0
100
AcDbPoint
 10
1644.513845812294
 20
2229.116386910098
 30
0.0
  0
POINT
  5
5708
330
56FE
100
AcDbEntity
  8
Defpoints
 62
     0
100
AcDbPoint
 10
1344.988232346833
 20
2158.34148465594
 30
0.0
  0
POINT
  5
5709
330
56FE
100
AcDbEntity
  8
Defpoints
 62
     0
100
AcDbPoint
 10
1344.988232346833
 20
2291.296786919999
 30
0.0
  0
ENDBLK
  5
5700
330
56FE
100
AcDbEntity
  8
0
100
AcDbBlockEnd
  0
ENDSEC
  0
SECTION
  2
ENTITIES
  0
MTEXT
  5
177
330
A
100
AcDbEntity
  8
template
390
1D
100
AcDbMText
 10
82.00000000048226
 20
348.023957835319
 30
0.0
 40
16.28841145833333
 41
0.0
 46
0.0
 71
     1
 72
     1
  1
品名
  7
ＭＳ ゴシック
 73
     1
 44
0.7828267384257843
  0
MTEXT
  5
178
330
A
100
AcDbEntity
  8
template
390
1D
100
AcDbMText
 10
82.00000000048226
 20
263.0239578353188
 30
0.0
 40
16.28841145833333
 41
0.0
 46
0.0
 71
     1
 72
     1
  1
仕様
  7
ＭＳ ゴシック
 73
     1
 44
0.7828267384257843
  0
LINE
  5
179
330
A
100
AcDbEntity
  8
template
390
1D
100
AcDbLine
 10
2025.0
 20
271.4388797103189
 30
0.0
 11
75.00000000000023
 21
271.4388797103189
 31
0.0
  0
LWPOLYLINE
  5
17A
330
A
100
AcDbEntity
  8
template
390
1D
100
AcDbPolyline
 90
        5
 70
   128
 43
0.0
 10
2025.0
 20
2901.438879710319
 10
75.00000000000023
 20
2901.438879710319
 10
75.00000000000023
 20
101.4388797103188
 10
2025.0
 20
101.4388797103188
 10
2025.0
 20
2901.438879710319
  0
LINE
  5
17B
330
A
100
AcDbEntity
  8
template
390
1D
100
AcDbLine
 10
2025.0
 20
356.4388797103188
 30
0.0
 11
75.00000000000023
 21
356.4388797103188
 31
0.0
  0
LINE
  5
17C
330
A
100
AcDbEntity
  8
template
390
1D
100
AcDbLine
 10
2025.000000000482
 20
186.4388797103189
 30
0.0
 11
1272.000000000482
 21
186.4388797103189
 31
0.0
  0
MTEXT
  5
17E
330
A
100
AcDbEntity
  8
template
390
1D
100
AcDbMText
 10
1301.871406252743
 20
156.5284852370108
 30
0.0
 40
24.4326171875
 41
0.0
 46
0.0
 71
     1
 72
     1
  1
大洋金物株式会社 ティーフォルム事業部
  7
ＭＳ ゴシック
 73
     1
 44
0.7828267384257843
  0
MTEXT
  5
180
330
A
100
AcDbEntity
  8
template
390
1D
100
AcDbMText
 10
1834.000000000742
 20
234.4414968978188
 30
0.0
 40
24.4326171875
 41
0.0
 46
0.0
 71
     1
 72
     1
  1
1:10
  7
ＭＳ ゴシック
 73
     1
 44
0.7828267384257843
  0
MTEXT
  5
181
330
A
100
AcDbEntity
  8
template
390
1D
100
AcDbMText
 10
1781.000000000742
 20
263.0239578353188
 30
0.0
 40
16.28841145833333
 41
0.0
 46
0.0
 71
     1
 72
     1
  1
縮尺
  7
ＭＳ ゴシック
 73
     1
 44
0.7828267384257843
  0
LINE
  5
182
330
A
100
AcDbEntity
  8
template
390
1D
100
AcDbLine
 10
1774.000000000742
 20
186.4388797103189
 30
0.0
 11
1774.000000000742
 21
271.4388797103189
 31
0.0
  0
MTEXT
  5
183
330
A
100
AcDbEntity
  8
template
390
1D
100
AcDbMText
 10
1530.000000000742
 20
263.0239578353188
 30
0.0
 40
16.28841145833333
 41
0.0
 46
0.0
 71
     1
 72
     1
  1
容量
  7
ＭＳ ゴシック
 73
     1
 44
0.7828267384257843
  0
LINE
  5
184
330
A
100
AcDbEntity
  8
template
390
1D
100
AcDbLine
 10
1523.000000000742
 20
186.4388797103189
 30
0.0
 11
1523.000000000742
 21
271.4388797103189
 31
0.0
  0
MTEXT
  5
185
330
A
100
AcDbEntity
  8
template
390
1D
100
AcDbMText
 10
1279.000000000742
 20
348.023957835319
 30
0.0
 40
16.28841145833333
 41
0.0
 46
0.0
 71
     1
 72
     1
  1
品番
  7
ＭＳ ゴシック
 73
     1
 44
0.7828267384257843
  0
MTEXT
  5
186
330
A
100
AcDbEntity
  8
template
390
1D
100
AcDbMText
 10
1279.000000000742
 20
263.0239578353188
 30
0.0
 40
16.28841145833333
 41
0.0
 46
0.0
 71
     1
 72
     1
  1
重量
  7
ＭＳ ゴシック
 73
     1
 44
0.7828267384257843
  0
MTEXT
  5
187
330
A
100
AcDbEntity
  8
template
390
1D
100
AcDbMText
 10
1332.000000000742
 20
319.4414968978188
 30
0.0
 40
24.4326171875
 41
0.0
 46
24.4326171875
 71
     1
 72
     1
  1
{ADF70-0621}
  7
ＭＳ ゴシック
 73
     1
 44
0.7828267384257843
1001
ACAD
1000
ACAD_MTEXT_DEFINED_HEIGHT_BEGIN
1070
    46
1040
24.4326171875
1000
ACAD_MTEXT_DEFINED_HEIGHT_END
  0
LINE
  5
188
330
A
100
AcDbEntity
  8
template
390
1D
100
AcDbLine
 10
1272.000000000742
 20
101.4388797103188
 30
0.0
 11
1272.000000000742
 21
356.4388797103188
 31
0.0
  0
MTEXT
  5
189
330
A
100
AcDbEntity
  8
template
390
1D
100
AcDbMText
 10
135.0000000004822
 20
319.4414968978188
 30
0.0
 40
24.4326171875
 41
0.0
 46
27.5355595703125
 71
     1
 72
     1
  1
{手洗器　-CATALANO, New Zero-}
  7
ＭＳ ゴシック
 73
     1
 44
0.7828267384257843
1001
ACAD
1000
ACAD_MTEXT_DEFINED_HEIGHT_BEGIN
1070
    46
1040
27.5355595703125
1000
ACAD_MTEXT_DEFINED_HEIGHT_END
  0
MTEXT
  5
18A
330
A
100
AcDbEntity
  8
template
 62
     1
390
1D
100
AcDbMText
 10
135.0000000004822
 20
234.4414968978188
 30
0.0
 40
24.4326171875
 41
0.0
 46
70.44061599284083
 71
     1
 72
     1
  1
{{\C256;壁掛け、カウンター置き/オーバーフローなし/壁取付ボルト付属\P陶器、\fＭＳ ゴシック|b0|i0|c1|p0;\H0.982293x;背面釉薬あり}}
  7
ＭＳ ゴシック
 73
     1
 44
0.9822934569727008
1001
ACAD
1000
ACAD_MTEXT_DEFINED_HEIGHT_BEGIN
1070
    46
1040
70.44061599284083
1000
ACAD_MTEXT_DEFINED_HEIGHT_END
  0
INSERT
  5
3D0
330
A
100
AcDbEntity
  8
template
100
AcDbBlockReference
  2
名称未設定-1
 10
1873.559250554905
 20
30.23897196054438
 30
0.0
 41
0.7619999999999999
 42
0.7619999999999999
 43
0.7619999999999999
  0
MTEXT
  5
BDB
102
{ACAD_XDICTIONARY
360
BDC
102
}
330
A
100
AcDbEntity
  8
template
  6
Continuous
100
AcDbMText
 10
78.95663872901252
 20
86.10730750352229
 30
0.0
 40
23.0
 41
0.0
 46
23.0
 71
     1
 72
     1
  1
{20170726N}
  7
ＭＳ ゴシック
 73
     1
 44
1.0
1001
ACAD
1000
ACAD_MTEXT_DEFINED_HEIGHT_BEGIN
1070
    46
1040
23.0
1000
ACAD_MTEXT_DEFINED_HEIGHT_END
  0
LWPOLYLINE
  5
BEE
330
A
100
AcDbEntity
  8
PRINT BORDER
100
AcDbPolyline
 90
        4
 70
     1
 43
0.0
 10
0.0
 20
0.0
 10
0.0
 20
2970.0
 10
2100.0
 20
2970.0
 10
2100.0
 20
0.0
  0
INSERT
  5
1273
330
A
100
AcDbEntity
  8
0
 62
     7
100
AcDbBlockReference
  2
BLOCK_2
 10
591.2037060744204
 20
943.564364962162
 30
0.0
  0
INSERT
  5
127B
330
A
100
AcDbEntity
  8
0
 62
     7
100
AcDbBlockReference
  2
BLOCK_2
 10
1291.863324028138
 20
1038.76992320659
 30
0.0
  0
INSERT
  5
127C
330
A
100
AcDbEntity
  8
0
 62
     7
100
AcDbBlockReference
  2
BLOCK_2
 10
652.1648429406905
 20
1595.641631888467
 30
0.0
  0
INSERT
  5
3B99
330
A
100
AcDbEntity
  8
retino
100
AcDbBlockReference
  2
mobile_latù
 10
-92101.31485198285
 20
1730.415535296608
 30
0.0
  0
INSERT
  5
467E
330
A
100
AcDbEntity
  8
retino
100
AcDbBlockReference
  2
mobile_latù
 10
-100894.893236163
 20
1696.039721945452
 30
0.0
  0
CIRCLE
  5
5590
330
A
100
AcDbEntity
  8
MODEL
100
AcDbCircle
 10
510.1015940802017
 20
2108.056372087735
 30
0.0
 40
22.0
  0
LINE
  5
5591
330
A
100
AcDbEntity
  8
MODEL
100
AcDbLine
 10
310.3484370072897
 20
2235.115473081035
 30
0.0
 11
802.4684665676468
 21
2235.115473081036
 31
0.0
  0
ARC
  5
5592
330
A
100
AcDbEntity
  8
MODEL
100
AcDbCircle
 10
310.3490168701819
 20
2229.115807047203
 30
0.0
 40
5.999666061853158
100
AcDbArc
 50
90.00553759087359
 51
179.9944624087964
  0
LINE
  5
5593
330
A
100
AcDbEntity
  8
MODEL
100
AcDbLine
 10
304.3493508363526
 20
2229.116386910098
 30
0.0
 11
304.3493508363526
 21
1986.99635734974
 31
0.0
  0
ARC
  5
5594
330
A
100
AcDbEntity
  8
MODEL
100
AcDbCircle
 10
310.3490168680287
 20
1986.996937210478
 30
0.0
 40
5.999666059697816
100
AcDbArc
 50
180.0055375706123
 51
269.9944624295528
  0
LINE
  5
5595
330
A
100
AcDbEntity
  8
MODEL
100
AcDbLine
 10
310.3484370072906
 20
1980.997271178802
 30
0.0
 11
802.4684665676468
 21
1980.997271178802
 31
0.0
  0
ARC
  5
5596
330
A
100
AcDbEntity
  8
MODEL
100
AcDbCircle
 10
802.4678867069088
 20
1986.996937210478
 30
0.0
 40
5.999666059696018
100
AcDbArc
 50
270.0055375704472
 51
359.9944624296483
  0
LINE
  5
5597
330
A
100
AcDbEntity
  8
MODEL
100
AcDbLine
 10
808.4675527385834
 20
1986.996357349741
 30
0.0
 11
808.4675527385834
 21
2229.116386910098
 31
0.0
  0
ARC
  5
5598
330
A
100
AcDbEntity
  8
MODEL
100
AcDbCircle
 10
802.4678867047537
 20
2229.115807047204
 30
0.0
 40
5.999666061853847
100
AcDbArc
 50
0.0055375909864889
 51
89.99446240870951
  0
LINE
  5
5599
330
A
100
AcDbEntity
  8
MODEL
100
AcDbLine
 10
315.3504063446599
 20
973.2754954419238
 30
0.0
 11
400.4885953414628
 21
973.2754879989059
 31
0.0
  0
ARC
  5
559A
330
A
100
AcDbEntity
  8
MODEL
100
AcDbCircle
 10
709.8214813195368
 20
974.2754627120008
 30
0.0
 40
1.999999999999992
100
AcDbArc
 50
269.9999899823336
 51
329.9999369083894
  0
LINE
  5
559B
330
A
100
AcDbEntity
  8
MODEL
100
AcDbLine
 10
711.553528460463
 20
973.2754608047438
 30
0.0
 11
797.4664861336059
 21
973.2754532940019
 31
0.0
  0
ARC
  5
559C
330
A
100
AcDbEntity
  8
MODEL
100
AcDbCircle
 10
408.9336265383317
 20
972.7754877871229
 30
0.0
 40
0.4999994235173245
100
AcDbArc
 50
130.9340933106355
 51
175.0000447661722
  0
LINE
  5
559D
330
A
100
AcDbEntity
  8
MODEL
100
AcDbLine
 10
438.2867931257861
 20
973.2754846944819
 30
0.0
 11
438.3275922010716
 21
973.2756511501398
 31
0.0
  0
ARC
  5
559E
330
A
100
AcDbEntity
  8
MODEL
100
AcDbCircle
 10
438.351921087582
 20
970.2753485217759
 30
0.0
 40
3.000401298236283
100
AcDbArc
 50
48.58808431019979
 51
90.46458743679523
  0
LINE
  5
559F
330
A
100
AcDbEntity
  8
MODEL
100
AcDbLine
 10
709.8214809698475
 20
972.2754627120019
 30
0.0
 11
440.9980961454557
 21
972.2755097145869
 31
0.0
  0
LINE
  5
55A0
330
A
100
AcDbEntity
  8
MODEL
100
AcDbLine
 10
408.739359895626
 20
973.2754872776009
 30
0.0
 11
438.2867931257861
 21
973.2754846944819
 31
0.0
  0
ARC
  5
55A1
330
A
100
AcDbEntity
  8
MODEL
100
AcDbCircle
 10
440.998051898343
 20
973.2753922044028
 30
0.0
 40
0.999882490794677
100
AcDbArc
 50
228.5826063074667
 51
270.0025354703952
  0
LINE
  5
55A2
330
A
100
AcDbEntity
  8
MODEL
100
AcDbLine
 10
312.1631382219057
 20
1093.276215016795
 30
0.0
 11
510.1015938121845
 21
1093.276197712465
 31
0.0
  0
LINE
  5
55A3
330
A
100
AcDbEntity
  8
MODEL
100
AcDbLine
 10
708.8982762687365
 20
1093.276180333105
 30
0.0
 11
510.1015938121845
 21
1093.276197712465
 31
0.0
  0
ARC
  5
55A4
330
A
100
AcDbEntity
  8
HIDDEN
100
AcDbCircle
 10
312.1628257774637
 20
1090.276215016823
 30
0.0
 40
2.999999999999972
100
AcDbArc
 50
36.00052831004201
 51
89.99999499074994
  0
ARC
  5
55A5
330
A
100
AcDbEntity
  8
HIDDEN
100
AcDbCircle
 10
708.8982843856429
 20
1090.276180333104
 30
0.0
 40
3.000000000000017
100
AcDbArc
 50
89.99999499116682
 51
166.999593761754
  0
SPLINE
  5
55A6
330
A
100
AcDbEntity
  8
HIDDEN
100
AcDbSpline
210
0.0
220
0.0
230
1.0
 70
     8
 71
     7
 72
   106
 73
    98
 74
     0
 42
0.000000001
 43
0.0000000001
 40
0.0188406544744281
 40
0.0188406544744281
 40
0.0188406544744281
 40
0.0188406544744281
 40
0.0188406544744281
 40
0.0188406544744281
 40
0.0188406544744281
 40
0.0188406544744281
 40
0.06010992
 40
0.06010992
 40
0.06010992
 40
0.06010992
 40
0.06010992
 40
0.1048390079389465
 40
0.1048390079389465
 40
0.1048390079389465
 40
0.1048390079389465
 40
0.1048390079389465
 40
0.1113615359999999
 40
0.1113615359999999
 40
0.1113615359999999
 40
0.1113615359999999
 40
0.1113615359999999
 40
0.2503719552334496
 40
0.2503719552334496
 40
0.2503719552334496
 40
0.2503719552334496
 40
0.2503719552334496
 40
0.3163679999999999
 40
0.3163679999999999
 40
0.3163679999999999
 40
0.3163679999999999
 40
0.3163679999999999
 40
0.4055999999999998
 40
0.4055999999999998
 40
0.4055999999999998
 40
0.4055999999999998
 40
0.4055999999999998
 40
0.486562046604875
 40
0.486562046604875
 40
0.486562046604875
 40
0.486562046604875
 40
0.486562046604875
 40
0.5199999999999999
 40
0.5199999999999999
 40
0.5199999999999999
 40
0.5199999999999999
 40
0.5199999999999999
 40
0.5424347441901379
 40
0.5424347441901379
 40
0.5424347441901379
 40
0.5424347441901379
 40
0.5424347441901379
 40
0.616
 40
0.616
 40
0.616
 40
0.616
 40
0.616
 40
0.6267084425057083
 40
0.6267084425057083
 40
0.6267084425057083
 40
0.6267084425057083
 40
0.6267084425057083
 40
0.680512
 40
0.680512
 40
0.680512
 40
0.680512
 40
0.680512
 40
0.728316877575216
 40
0.728316877575216
 40
0.728316877575216
 40
0.728316877575216
 40
0.728316877575216
 40
0.73147648
 40
0.73147648
 40
0.73147648
 40
0.73147648
 40
0.73147648
 40
0.8833704242208528
 40
0.8833704242208528
 40
0.8833704242208528
 40
0.8833704242208528
 40
0.8833704242208528
 40
0.9232
 40
0.9232
 40
0.9232
 40
0.9232
 40
0.9232
 40
0.9308732506959936
 40
0.9308732506959936
 40
0.9308732506959936
 40
0.9308732506959936
 40
0.9308732506959936
 40
0.9847223207057495
 40
0.9847223207057495
 40
0.9847223207057495
 40
0.9847223207057495
 40
0.9847223207057495
 40
0.9862572518870847
 40
0.9862572518870847
 40
0.9862572518870847
 40
0.9862572518870847
 40
0.9862572518870847
 40
0.9862572518870847
 40
0.9862572518870847
 40
0.9862572518870847
 10
549.7940229020815
 20
998.4658558647948
 30
0.0
 10
551.263689667845
 20
998.5944355569329
 30
0.0
 10
552.7345407814428
 20
998.7231195862319
 30
0.0
 10
554.2066680398857
 20
998.8519166491058
 30
0.0
 10
555.6797516657525
 20
998.9807998568488
 30
0.0
 10
557.1531832729447
 20
999.1097175855498
 30
0.0
 10
560.2226842672458
 20
999.3782963588949
 30
0.0
 10
563.2867886946037
 20
999.6464431147899
 30
0.0
 10
564.877974723895
 20
999.7857060813699
 30
0.0
 10
566.4655720951187
 20
999.9246743980948
 30
0.0
 10
568.04858589996
 20
1000.063266887614
 30
0.0
 10
569.856444307632
 20
1000.221581836892
 30
0.0
 10
571.6572027364527
 20
1000.37932947106
 30
0.0
 10
571.8862604087258
 20
1000.399395987469
 30
0.0
 10
572.115202212015
 20
1000.419453293715
 30
0.0
 10
572.3440280378127
 20
1000.439501408847
 30
0.0
 10
577.4470855599275
 20
1000.886617841679
 30
0.0
 10
582.4926419695685
 20
1001.329208921971
 30
0.0
 10
587.2639207185275
 20
1001.7485456897
 30
0.0
 10
592.027681618536
 20
1002.16833152009
 30
0.0
 10
596.8527012764098
 20
1002.595521007325
 30
0.0
 10
604.1285080547968
 20
1003.244398385481
 30
0.0
 10
611.674211800906
 20
1003.931953968305
 30
0.0
 10
614.1329724454117
 20
1004.157834737032
 30
0.0
 10
616.6214189174425
 20
1004.388769484419
 30
0.0
 10
619.1377431689325
 20
1004.625277189686
 30
0.0
 10
625.1137653582555
 20
1005.196127797163
 30
0.0
 10
631.2025846985489
 20
1005.806419606334
 30
0.0
 10
634.7294904226578
 20
1006.172559030714
 30
0.0
 10
638.268862789213
 20
1006.557246159247
 30
0.0
 10
641.8030430047797
 20
1006.965350074272
 30
0.0
 10
648.4985988887265
 20
1007.803409856927
 30
0.0
 10
655.0324880773037
 20
1008.804569061035
 30
0.0
 10
658.089971282956
 20
1009.328301860687
 30
0.0
 10
661.0749842456789
 20
1009.912283078012
 30
0.0
 10
663.9746717494709
 20
1010.575810134013
 30
0.0
 10
667.9154764590198
 20
1011.668927649604
 30
0.0
 10
671.5705204469914
 20
1013.029848351551
 30
0.0
 10
672.6121575880015
 20
1013.452204989115
 30
0.0
 10
673.624615527835
 20
1013.900640246248
 30
0.0
 10
674.6052743690307
 20
1014.376257428244
 30
0.0
 10
676.1864909627398
 20
1015.217032633449
 30
0.0
 10
677.6661539328925
 20
1016.132429616003
 30
0.0
 10
678.2433023328917
 20
1016.511867335772
 30
0.0
 10
678.8029699618264
 20
1016.902734634026
 30
0.0
 10
679.3448523496836
 20
1017.304390207148
 30
0.0
 10
681.5870962663757
 20
1019.06602701546
 30
0.0
 10
683.5037976942767
 20
1020.996464065805
 30
0.0
 10
684.7849921632805
 20
1022.546267640967
 30
0.0
 10
685.9049642991449
 20
1024.131691000306
 30
0.0
 10
686.9082782902115
 20
1025.735198269934
 30
0.0
 10
687.947540816036
 20
1027.595708530707
 30
0.0
 10
688.8885051474208
 20
1029.482135991402
 30
0.0
 10
689.0065452955969
 20
1029.722259310371
 30
0.0
 10
689.1231177327786
 20
1029.962804531699
 30
0.0
 10
689.2382773693898
 20
1030.203774021588
 30
0.0
 10
689.9238472156867
 20
1031.658041993905
 30
0.0
 10
690.5618077694598
 20
1033.127868443338
 30
0.0
 10
691.0669838236718
 20
1034.364801922733
 30
0.0
 10
691.5496985512655
 20
1035.612919724009
 30
0.0
 10
692.0131140399235
 20
1036.871416586042
 30
0.0
 10
692.8566080122619
 20
1039.265675765118
 30
0.0
 10
693.6472399238119
 20
1041.68788322686
 30
0.0
 10
694.0088905526936
 20
1042.832655579886
 30
0.0
 10
694.3612648521807
 20
1043.981400773579
 30
0.0
 10
694.7052197781586
 20
1045.132866166788
 30
0.0
 10
695.0637214301969
 20
1046.362131568663
 30
0.0
 10
695.4142770244798
 20
1047.592250835765
 30
0.0
 10
695.4359797853976
 20
1047.668516555176
 30
0.0
 10
695.457652401521
 20
1047.74478507752
 30
0.0
 10
695.4792950694609
 20
1047.821056171877
 30
0.0
 10
696.5399219314495
 20
1051.564080140756
 30
0.0
 10
697.5293676264046
 20
1055.312229578946
 30
0.0
 10
698.4523794311026
 20
1058.965989441617
 30
0.0
 10
699.3436738341406
 20
1062.600254571892
 30
0.0
 10
700.21769939144
 20
1066.239726472569
 30
0.0
 10
701.3089009724499
 20
1070.849835027215
 30
0.0
 10
702.3905333794455
 20
1075.475346554179
 30
0.0
 10
702.6148872378617
 20
1076.436879098686
 30
0.0
 10
702.8389345879186
 20
1077.39890773458
 30
0.0
 10
703.0627016088329
 20
1078.361278005186
 30
0.0
 10
703.329261521998
 20
1079.509249415917
 30
0.0
 10
703.5954654889856
 20
1080.657246856332
 30
0.0
 10
703.6384569744987
 20
1080.842685682821
 30
0.0
 10
703.6814395319957
 20
1081.0281237164
 30
0.0
 10
703.7244133499835
 20
1081.213560311549
 30
0.0
 10
704.0688988504335
 20
1082.700331301797
 30
0.0
 10
704.4128489818895
 20
1084.186943171681
 30
0.0
 10
704.7135637209785
 20
1085.487854679715
 30
0.0
 10
705.0140453153508
 20
1086.788533868527
 30
0.0
 10
705.3144562520247
 20
1088.089371779409
 30
0.0
 10
705.6234138823929
 20
1089.427454888835
 30
0.0
 10
705.9323668758216
 20
1090.76562131632
 30
0.0
 10
705.9409293016206
 20
1090.802707781181
 30
0.0
 10
705.9494917243564
 20
1090.839794306168
 30
0.0
 10
705.9580541442474
 20
1090.876880889268
 30
0.0
 10
705.9666165614758
 20
1090.913967528422
 30
0.0
 10
705.9751789762008
 20
1090.951054221538
 30
0.0
  0
SPLINE
  5
55A7
330
A
100
AcDbEntity
  8
HIDDEN
100
AcDbSpline
210
0.0
220
0.0
230
1.0
 70
     8
 71
     3
 72
    71
 73
    67
 74
     0
 42
0.000000001
 43
0.0000000001
 40
0.0
 40
0.0
 40
0.0
 40
0.0
 40
1.048046668940176
 40
2.096075707785126
 40
3.144060281900061
 40
4.191954440884858
 40
5.239683469615033
 40
6.287135841807006
 40
7.334158916122064
 40
8.38056044898545
 40
9.426116942577947
 40
10.47058812664696
 40
11.51373512201227
 40
12.55533882857201
 40
13.59521504946048
 40
14.63322380828469
 40
15.66927230132517
 40
16.70331264443656
 40
17.73533635148556
 40
18.76536737437734
 40
19.79345485421523
 40
20.81966605059117
 40
21.8440800811595
 40
22.86678290129935
 40
23.88786354341141
 40
24.90741146708583
 40
25.92551480741071
 40
26.94225930773914
 40
27.95772772417558
 40
28.97199954105866
 40
29.98515117241307
 40
30.99725602366576
 40
32.00838437162741
 40
33.0186035753933
 40
34.02797880309821
 40
35.0365739580755
 40
36.04445228974452
 40
37.05167669634312
 40
38.05831002000865
 40
39.06441797726983
 40
40.07006551686849
 40
41.07531367439282
 40
42.08022371313032
 40
43.08485987658577
 40
44.08929104715487
 40
45.09358778028565
 40
46.09781412668816
 40
47.10202504358338
 40
48.10626849420799
 40
49.11058673266136
 40
50.1150145536843
 40
51.11957726222778
 40
52.12429168788989
 40
53.12916780387846
 40
54.13420897433722
 40
55.13941253690317
 40
56.14477090648879
 40
57.15027301089015
 40
58.15590598920831
 40
59.16165640940221
 40
60.16751012423498
 40
61.17345200413175
 40
62.17946596669475
 40
63.18553507910215
 40
64.19164163022813
 40
65.19776717900764
 40
65.19776717900764
 40
65.19776717900764
 40
65.19776717900764
 10
510.101592595478
 20
998.8753903550098
 30
0.0
 10
510.425552194909
 20
998.8753857020499
 30
0.0
 10
511.0730442881249
 20
998.8747800198589
 30
0.0
 10
512.0440944515358
 20
998.8720483652219
 30
0.0
 10
513.0139960752485
 20
998.8675613023447
 30
0.0
 10
513.9823372781539
 20
998.8613902229717
 30
0.0
 10
514.9485604789147
 20
998.8536370751708
 30
0.0
 10
515.9121462508547
 20
998.8444268233548
 30
0.0
 10
516.872561743221
 20
998.8339069034869
 30
0.0
 10
517.8292712428229
 20
998.8222422007718
 30
0.0
 10
518.7817295261475
 20
998.8096090110898
 30
0.0
 10
519.7293800594198
 20
998.7961879615489
 30
0.0
 10
520.6716531978736
 20
998.7821570214228
 30
0.0
 10
521.6079665178327
 20
998.7676853131838
 30
0.0
 10
522.5377270907697
 20
998.7529285553569
 30
0.0
 10
523.460335505697
 20
998.7380263924649
 30
0.0
 10
524.3751905674799
 20
998.7231012998068
 30
0.0
 10
525.2816936593076
 20
998.7082585666669
 30
0.0
 10
526.1792522056267
 20
998.6935869174308
 30
0.0
 10
527.0672821767216
 20
998.6791595480458
 30
0.0
 10
527.945209938589
 20
998.6650357024969
 30
0.0
 10
528.8124734507796
 20
998.6512626107099
 30
0.0
 10
529.6685226171385
 20
998.6378773860467
 30
0.0
 10
530.5128190878677
 20
998.6249087902459
 30
0.0
 10
531.3448357881857
 20
998.6123787948068
 30
0.0
 10
532.1640563493556
 20
998.6003039169088
 30
0.0
 10
532.9699745677281
 20
998.5886963509718
 30
0.0
 10
533.7620939078906
 20
998.5775648767478
 30
0.0
 10
534.5399272753707
 20
998.5669157801599
 30
0.0
 10
535.3029963205408
 20
998.5567533582569
 30
0.0
 10
536.0508316491387
 20
998.5470800927749
 30
0.0
 10
536.782973319263
 20
998.5378976933907
 30
0.0
 10
537.4989701719387
 20
998.5292083993279
 30
0.0
 10
538.1983786401688
 20
998.5210156854448
 30
0.0
 10
538.880762050052
 20
998.5133239434087
 30
0.0
 10
539.5456918531336
 20
998.5061379804658
 30
0.0
 10
540.1927474324257
 20
998.4994626992277
 30
0.0
 10
540.8215205598967
 20
998.4933052215438
 30
0.0
 10
541.4316001310508
 20
998.4876729054968
 30
0.0
 10
542.0225964400597
 20
998.4825519620258
 30
0.0
 10
542.5941568543926
 20
998.4779340817688
 30
0.0
 10
543.1459152164016
 20
998.4738280803929
 30
0.0
 10
543.6775067074695
 20
998.4702485458449
 30
0.0
 10
544.1885675200319
 20
998.4672168981708
 30
0.0
 10
544.6787319780406
 20
998.4647392222369
 30
0.0
 10
545.1476881526687
 20
998.4627731149458
 30
0.0
 10
545.5951928779386
 20
998.4612597889718
 30
0.0
 10
546.0210025215129
 20
998.4601595610509
 30
0.0
 10
546.4248840987775
 20
998.4594350968919
 30
0.0
 10
546.8066079293567
 20
998.4590564430839
 30
0.0
 10
547.1659797217135
 20
998.4589738017478
 30
0.0
 10
547.5028468133014
 20
998.4591305350718
 30
0.0
 10
547.8170711271737
 20
998.4594772919559
 30
0.0
 10
548.1085218923176
 20
998.4599721813809
 30
0.0
 10
548.3770883154357
 20
998.4605720547838
 30
0.0
 10
548.6226766382747
 20
998.4612353979778
 30
0.0
 10
548.8452048023678
 20
998.4619240375328
 30
0.0
 10
549.0445967570267
 20
998.4626054782698
 30
0.0
 10
549.2207739993164
 20
998.4632564879957
 30
0.0
 10
549.3736494813265
 20
998.4638643916378
 30
0.0
 10
549.5031442139725
 20
998.4644177863568
 30
0.0
 10
549.6091893467819
 20
998.4649030459398
 30
0.0
 10
549.6917402906465
 20
998.4653068165107
 30
0.0
 10
549.7507148262516
 20
998.4656115255648
 30
0.0
 10
549.7862181252776
 20
998.4658150320329
 30
0.0
 10
549.7938748861488
 20
998.4658429175129
 30
0.0
 10
549.7940229020815
 20
998.4658558647948
 30
0.0
  0
SPLINE
  5
55A8
330
A
100
AcDbEntity
  8
HIDDEN
100
AcDbSpline
210
0.0
220
0.0
230
1.0
 70
     8
 71
     3
 72
    71
 73
    67
 74
     0
 42
0.000000001
 43
0.0000000001
 40
0.0
 40
0.0
 40
0.0
 40
0.0
 40
1.048046216112366
 40
2.096075222821359
 40
3.144060514367275
 40
4.19195689612943
 40
5.239690986970914
 40
6.287150681870852
 40
7.334176705963301
 40
8.380563344769893
 40
9.426074121026335
 40
10.47046857712895
 40
11.51352195319428
 40
12.55503425304622
 40
13.59483760471097
 40
14.6328012793612
 40
15.66883385108603
 40
16.70288248067375
 40
17.73492969826942
 40
18.76498834424216
 40
19.79309540333776
 40
20.81930581972611
 40
21.84368725920841
 40
22.86631590923188
 40
23.8872733386395
 40
24.90664411801808
 40
25.92451389997986
 40
26.94096800378966
 40
27.95609045322554
 40
28.96996337217037
 40
29.9826665136287
 40
30.99427713598717
 40
32.00487011012548
 40
33.01451800355844
 40
34.02329122093403
 40
35.03125855951109
 40
36.03848863366671
 40
37.04505246161539
 40
38.05102541056933
 40
39.05648990859569
 40
40.06152549707755
 40
41.06620546392412
 40
42.07060150305713
 40
43.07478772611374
 40
44.07883824237948
 40
45.08282040046434
 40
46.0867917705994
 40
47.09080247608791
 40
48.0948961953283
 40
49.0991100799674
 40
50.10347446084184
 40
51.1080123937904
 40
52.1127390572351
 40
53.11766121708875
 40
54.12277722400393
 40
55.12807804156212
 40
56.13355007811741
 40
57.13917883987779
 40
58.14495021060347
 40
59.15084965870972
 40
60.15686163143633
 40
61.16296955748302
 40
62.16915588476726
 40
63.17540215021207
 40
64.18168906269919
 40
65.1879965796835
 40
65.1879965796835
 40
65.1879965796835
 40
65.1879965796835
 10
510.101592595478
 20
998.8753836327219
 30
0.0
 10
509.7776015021586
 20
998.8753784717978
 30
0.0
 10
509.1301555563036
 20
998.8747579662408
 30
0.0
 10
508.1590893900648
 20
998.8719590212718
 30
0.0
 10
507.1891995132319
 20
998.8673668746087
 30
0.0
 10
506.2208690575635
 20
998.8610564794158
 30
0.0
 10
505.254664856504
 20
998.8531341784958
 30
0.0
 10
504.2911052688578
 20
998.8437337756777
 30
0.0
 10
503.3307235053935
 20
998.8330184160397
 30
0.0
 10
502.3740533732048
 20
998.8211711622218
 30
0.0
 10
501.4216387749398
 20
998.8083786625139
 30
0.0
 10
500.4740392212479
 20
998.7948182752928
 30
0.0
 10
499.5318270202397
 20
998.7806584061248
 30
0.0
 10
498.5955819480796
 20
998.7660573013168
 30
0.0
 10
497.665890294229
 20
998.7511612222129
 30
0.0
 10
496.7433427022256
 20
998.7361028886837
 30
0.0
 10
495.8285315303356
 20
998.7210003466607
 30
0.0
 10
494.9220478542475
 20
998.7059564969568
 30
0.0
 10
494.0244784953029
 20
998.6910593674818
 30
0.0
 10
493.1364034122007
 20
998.6763831623177
 30
0.0
 10
492.2583937336749
 20
998.6619899628367
 30
0.0
 10
491.3910108707637
 20
998.6479313173388
 30
0.0
 10
490.5348062741759
 20
998.6342496794718
 30
0.0
 10
489.6903214670087
 20
998.6209796339158
 30
0.0
 10
488.8580881519947
 20
998.6081488331267
 30
0.0
 10
488.0386281106839
 20
998.5957790200498
 30
0.0
 10
487.2324532697016
 20
998.5838870237328
 30
0.0
 10
486.4400658473014
 20
998.5724856795869
 30
0.0
 10
485.6619585902654
 20
998.5615845868638
 30
0.0
 10
484.8986147124806
 20
998.5511909804379
 30
0.0
 10
484.1505082562358
 20
998.5413106903709
 30
0.0
 10
483.4181044803768
 20
998.5319487753718
 30
0.0
 10
482.7018598596615
 20
998.5231103494159
 30
0.0
 10
482.0022222472398
 20
998.5148021089799
 30
0.0
 10
481.3196322382564
 20
998.5070343248049
 30
0.0
 10
480.6545243359205
 20
998.4998233533468
 30
0.0
 10
480.0073328439316
 20
998.4931903228269
 30
0.0
 10
479.3784818047347
 20
998.4871597649037
 30
0.0
 10
478.7684071625918
 20
998.4817436324997
 30
0.0
 10
478.1774932305407
 20
998.4769145360299
 30
0.0
 10
477.6060878974458
 20
998.4726525871918
 30
0.0
 10
477.0545457281396
 20
998.4689589133147
 30
0.0
 10
476.5232360692389
 20
998.4658468359448
 30
0.0
 10
476.012523519712
 20
998.4633117351077
 30
0.0
 10
475.522734259539
 20
998.4613161616078
 30
0.0
 10
475.0541324344667
 20
998.4597938812437
 30
0.0
 10
474.6069657871985
 20
998.4587014034378
 30
0.0
 10
474.1814894211129
 20
998.4580008597568
 30
0.0
 10
473.7779359383267
 20
998.4576530482277
 30
0.0
 10
473.3965203456828
 20
998.4576182237918
 30
0.0
 10
473.0374364408626
 20
998.4578551319489
 30
0.0
 10
472.7008556300498
 20
998.4583204348328
 30
0.0
 10
472.3869243724039
 20
998.4589676662449
 30
0.0
 10
472.0957622645064
 20
998.4597466602447
 30
0.0
 10
471.827463270929
 20
998.4606047810757
 30
0.0
 10
471.5821003742458
 20
998.4614894803678
 30
0.0
 10
471.3597414054598
 20
998.4623572219718
 30
0.0
 10
471.1604742195559
 20
998.4631847745718
 30
0.0
 10
470.9844016470447
 20
998.4639632290309
 30
0.0
 10
470.8316186546717
 20
998.4646841267847
 30
0.0
 10
470.7022028349447
 20
998.4653353435299
 30
0.0
 10
470.5962237225967
 20
998.4659028926587
 30
0.0
 10
470.5137234710201
 20
998.4663728619778
 30
0.0
 10
470.4547917087975
 20
998.4667256524599
 30
0.0
 10
470.4192916210736
 20
998.4669606326288
 30
0.0
 10
470.4116875371178
 20
998.4669909150168
 30
0.0
 10
470.4115069441095
 20
998.4670068218709
 30
0.0
  0
SPLINE
  5
55A9
330
A
100
AcDbEntity
  8
HIDDEN
100
AcDbSpline
210
0.0
220
0.0
230
1.0
 70
     8
 71
     7
 72
    81
 73
    73
 74
     0
 42
0.000000001
 43
0.0000000001
 40
0.0199793155258904
 40
0.0199793155258904
 40
0.0199793155258904
 40
0.0199793155258904
 40
0.0199793155258904
 40
0.0199793155258904
 40
0.0199793155258904
 40
0.0199793155258904
 40
0.1093017830826387
 40
0.1093017830826387
 40
0.1093017830826387
 40
0.1093017830826387
 40
0.1093017830826387
 40
0.23
 40
0.23
 40
0.23
 40
0.23
 40
0.23
 40
0.2423379135734425
 40
0.2423379135734425
 40
0.2423379135734425
 40
0.2423379135734425
 40
0.2423379135734425
 40
0.368138
 40
0.368138
 40
0.368138
 40
0.368138
 40
0.368138
 40
0.4071
 40
0.4071
 40
0.4071
 40
0.4071
 40
0.4071
 40
0.4162142500961847
 40
0.4162142500961847
 40
0.4162142500961847
 40
0.4162142500961847
 40
0.4162142500961847
 40
0.5224967042339294
 40
0.5224967042339294
 40
0.5224967042339294
 40
0.5224967042339294
 40
0.5224967042339294
 40
0.531609
 40
0.531609
 40
0.531609
 40
0.531609
 40
0.531609
 40
0.6319027343300115
 40
0.6319027343300115
 40
0.6319027343300115
 40
0.6319027343300115
 40
0.6319027343300115
 40
0.6393389300000001
 40
0.6393389300000001
 40
0.6393389300000001
 40
0.6393389300000001
 40
0.6393389300000001
 40
0.7662949164353732
 40
0.7662949164353732
 40
0.7662949164353732
 40
0.7662949164353732
 40
0.7662949164353732
 40
0.927867786
 40
0.927867786
 40
0.927867786
 40
0.927867786
 40
0.927867786
 40
0.9357539352704309
 40
0.9357539352704309
 40
0.9357539352704309
 40
0.9357539352704309
 40
0.9357539352704309
 40
0.9917791929966024
 40
0.9917791929966024
 40
0.9917791929966024
 40
0.9917791929966024
 40
0.9917791929966024
 40
0.9917791929966024
 40
0.9917791929966024
 40
0.9917791929966024
 10
470.4115069441095
 20
998.4670068218709
 30
0.0
 10
467.4138666884455
 20
998.7310011358318
 30
0.0
 10
464.4121459163425
 20
998.9966751079339
 30
0.0
 10
461.4055204578535
 20
999.2641746325328
 30
0.0
 10
458.3989790153637
 20
999.5332133073148
 30
0.0
 10
455.4002142483437
 20
999.8034029038747
 30
0.0
 10
448.3871727814549
 20
1000.440764436858
 30
0.0
 10
441.505685459415
 20
1001.083289214837
 30
0.0
 10
437.6133641355186
 20
1001.454378872896
 30
0.0
 10
433.8004243734827
 20
1001.828496432207
 30
0.0
 10
430.0761244412788
 20
1002.208808835418
 30
0.0
 10
426.0699630842564
 20
1002.641346356543
 30
0.0
 10
422.1675027543897
 20
1003.100798594449
 30
0.0
 10
421.8064709281016
 20
1003.143650789222
 30
0.0
 10
421.4463191652967
 20
1003.186756383284
 30
0.0
 10
421.087039959064
 20
1003.23012732473
 30
0.0
 10
417.0741450853529
 20
1003.718829686086
 30
0.0
 10
413.1683872252979
 20
1004.244027818513
 30
0.0
 10
409.6903613674726
 20
1004.766588794656
 30
0.0
 10
406.271349269482
 20
1005.35423772397
 30
0.0
 10
402.8885824110398
 20
1006.034387314018
 30
0.0
 10
398.4924580556244
 20
1007.113394263635
 30
0.0
 10
394.1590130970358
 20
1008.515803190605
 30
0.0
 10
393.1380729183948
 20
1008.866846551176
 30
0.0
 10
392.1214197412546
 20
1009.238553538005
 30
0.0
 10
391.1097094127908
 20
1009.632015435244
 30
0.0
 10
389.8683962059577
 20
1010.145340562628
 30
0.0
 10
388.6370821877636
 20
1010.693633665862
 30
0.0
 10
388.4040207700887
 20
1010.798841016373
 30
0.0
 10
388.1713402112218
 20
1010.905315246144
 30
0.0
 10
387.9390516854619
 20
1011.013059474056
 30
0.0
 10
385.0031233229888
 20
1012.393325830729
 30
0.0
 10
382.1336744893188
 20
1013.977557314733
 30
0.0
 10
379.5652687000106
 20
1015.61054056966
 30
0.0
 10
377.0901591883876
 20
1017.394566927299
 30
0.0
 10
374.7081190342496
 20
1019.286237228735
 30
0.0
 10
372.2188027589136
 20
1021.422878217727
 30
0.0
 10
369.8248214479527
 20
1023.623343442662
 30
0.0
 10
369.6363667850087
 20
1023.797490082439
 30
0.0
 10
369.4484957318709
 20
1023.972007348012
 30
0.0
 10
369.2612024725304
 20
1024.146882299062
 30
0.0
 10
367.0193455350736
 20
1026.250648735636
 30
0.0
 10
364.858984283368
 20
1028.402440175218
 30
0.0
 10
362.9387282160887
 20
1030.399660672348
 30
0.0
 10
361.0679501592749
 20
1032.413876589233
 30
0.0
 10
359.2368593270949
 20
1034.443084777791
 30
0.0
 10
357.3035781842409
 20
1036.63868645204
 30
0.0
 10
355.3995356555097
 20
1038.85068397112
 30
0.0
 10
355.2682435941088
 20
1039.003447781815
 30
0.0
 10
355.1370860975794
 20
1039.156289185608
 30
0.0
 10
355.0060609093848
 20
1039.309207892228
 30
0.0
 10
352.6404329918287
 20
1042.074254182713
 30
0.0
 10
350.3166265181567
 20
1044.864334120485
 30
0.0
 10
348.147852359878
 20
1047.521329444903
 30
0.0
 10
346.0015494694308
 20
1050.195308227301
 30
0.0
 10
343.8760250524138
 20
1052.881476268616
 30
0.0
 10
339.0899063660108
 20
1059.005053844894
 30
0.0
 10
334.3981373812931
 20
1065.157474016864
 30
0.0
 10
331.7976855904117
 20
1068.606255379666
 30
0.0
 10
329.2211297771937
 20
1072.056189352597
 30
0.0
 10
326.6631839321776
 20
1075.509274988221
 30
0.0
 10
323.9951664048776
 20
1079.137498939161
 30
0.0
 10
321.3378692045299
 20
1082.771455918856
 30
0.0
 10
321.2142286923618
 20
1082.940582461048
 30
0.0
 10
321.0906103235247
 20
1083.109721236686
 30
0.0
 10
320.9670135691917
 20
1083.278872121326
 30
0.0
 10
319.965524156185
 20
1084.649811920495
 30
0.0
 10
318.9653842004918
 20
1086.021527465696
 30
0.0
 10
318.0894978043798
 20
1087.224524470039
 30
0.0
 10
317.2142481323817
 20
1088.42796722791
 30
0.0
 10
316.3393476109559
 20
1089.631759150101
 30
0.0
 10
315.4645830308509
 20
1090.835664222363
 30
0.0
 10
314.5898605010216
 20
1092.039593152857
 30
0.0
  0
ARC
  5
55AA
330
A
100
AcDbEntity
  8
HIDDEN
100
AcDbCircle
 10
469.0996785465677
 20
983.5712707963568
 30
0.0
 40
14.95338909700479
100
AcDbArc
 50
49.99999499114619
 51
84.96709569862753
  0
ARC
  5
55AB
330
A
100
AcDbEntity
  8
HIDDEN
100
AcDbCircle
 10
551.096077641283
 20
983.5833612375989
 30
0.0
 40
14.93934378988475
100
AcDbArc
 50
95.00001976940621
 51
129.9999949910943
  0
LINE
  5
55AC
330
A
100
AcDbEntity
  8
HIDDEN
100
AcDbLine
 10
541.4932535567859
 20
995.0275633711908
 30
0.0
 11
533.3414991420204
 21
988.1874304627369
 31
0.0
  0
LINE
  5
55AD
330
A
100
AcDbEntity
  8
HIDDEN
100
AcDbLine
 10
532.1015940802017
 20
976.2754764929318
 30
0.0
 11
532.2703186892827
 21
985.9416544463368
 31
0.0
  0
ARC
  5
55AE
330
A
100
AcDbEntity
  8
HIDDEN
100
AcDbCircle
 10
535.2698617701744
 20
985.8892969647978
 30
0.0
 40
3.000000000000002
100
AcDbArc
 50
129.9999949911453
 51
178.9999949910535
  0
LINE
  5
55AF
102
{ACAD_REACTORS
330
5613
102
}
330
A
100
AcDbEntity
  8
HIDDEN
100
AcDbLine
 10
488.1015940802017
 20
976.2754803395338
 30
0.0
 11
532.1015940802017
 21
976.2754764929318
 31
0.0
  0
LINE
  5
55B0
330
A
100
AcDbEntity
  8
HIDDEN
100
AcDbLine
 10
533.3414991420204
 20
988.1874304627369
 30
0.0
 11
486.8616911011268
 21
988.1874345261308
 31
0.0
  0
ARC
  5
55B1
330
A
100
AcDbEntity
  8
MODEL
100
AcDbCircle
 10
407.9298149519018
 20
972.7754918037558
 30
0.0
 40
0.4999999999999997
100
AcDbArc
 50
269.9999899823336
 51
354.9999899815993
  0
ARC
  5
55B2
330
A
100
AcDbEntity
  8
MODEL
100
AcDbCircle
 10
402.2206433759707
 20
974.2754928019758
 30
0.0
 40
1.999999999999999
100
AcDbArc
 50
210.0001588844104
 51
269.9999899819168
  0
LINE
  5
55B3
330
A
100
AcDbEntity
  8
MODEL
100
AcDbLine
 10
407.9298148644807
 20
972.2754918037529
 30
0.0
 11
402.2206430262804
 21
972.2754928019758
 31
0.0
  0
LINE
  5
55B4
330
A
100
AcDbEntity
  8
MODEL
100
AcDbLine
 10
677.5678512299419
 20
972.2754683514078
 30
0.0
 11
673.2331759260114
 21
972.2754691093058
 31
0.0
  0
LINE
  5
55B5
330
A
100
AcDbEntity
  8
MODEL
100
AcDbLine
 10
306.3490459644017
 20
973.2754962288468
 30
0.0
 11
315.3504169167927
 21
973.2754954419228
 31
0.0
  0
LINE
  5
55B6
330
A
100
AcDbEntity
  8
MODEL
100
AcDbLine
 10
797.4664861336059
 20
973.2754532939938
 30
0.0
 11
806.4678570860046
 21
973.2754525070688
 31
0.0
  0
ARC
  5
55B7
330
A
100
AcDbEntity
  8
MODEL
100
AcDbCircle
 10
306.349046139243
 20
975.2754962288468
 30
0.0
 40
1.999999999999998
100
AcDbArc
 50
178.9999949910535
 51
269.9999949907499
  0
ARC
  5
55B8
330
A
100
AcDbEntity
  8
MODEL
100
AcDbCircle
 10
806.4678572608454
 20
975.2754525070688
 30
0.0
 40
2.000000000000026
100
AcDbArc
 50
269.9999949911668
 51
0.9999949910570126
  0
LINE
  5
55B9
330
A
100
AcDbEntity
  8
MODEL
100
AcDbLine
 10
309.3565538053435
 20
1093.276215262154
 30
0.0
 11
312.1628260397338
 21
1093.276215016822
 31
0.0
  0
LINE
  5
55BA
330
A
100
AcDbEntity
  8
MODEL
100
AcDbLine
 10
708.8982846479116
 20
1093.276180333104
 30
0.0
 11
803.4603702266468
 21
1093.276172066224
 31
0.0
  0
LINE
  5
55BB
330
A
100
AcDbEntity
  8
MODEL
100
AcDbLine
 10
304.3493507519806
 20
975.3104012165409
 30
0.0
 11
306.3570104621826
 21
1090.328572743695
 31
0.0
  0
LINE
  5
55BC
102
{ACAD_REACTORS
330
5613
102
}
330
A
100
AcDbEntity
  8
MODEL
100
AcDbLine
 10
808.4675526542114
 20
975.3103571451238
 30
0.0
 11
806.4599130544229
 21
1090.328529023307
 31
0.0
  0
ARC
  5
55BD
330
A
100
AcDbEntity
  8
MODEL
100
AcDbCircle
 10
803.4603699643767
 20
1090.276172066224
 30
0.0
 40
3.0
100
AcDbArc
 50
0.9999949912655351
 51
89.99999499116682
  0
ARC
  5
55BE
330
A
100
AcDbEntity
  8
MODEL
100
AcDbCircle
 10
309.3565535430748
 20
1090.276215262153
 30
0.0
 40
3.0
100
AcDbArc
 50
89.99999499116682
 51
178.9999949907929
  0
LINE
  5
55BF
330
A
100
AcDbEntity
  8
HIDDEN
100
AcDbLine
 10
478.7115327823694
 20
995.0262305796189
 30
0.0
 11
486.8616911011268
 21
988.1874345261308
 31
0.0
  0
LINE
  5
55C0
330
A
100
AcDbEntity
  8
HIDDEN
100
AcDbLine
 10
488.1015940802017
 20
976.2754803395338
 30
0.0
 11
487.9328711612097
 21
985.9416583224388
 31
0.0
  0
ARC
  5
55C1
330
A
100
AcDbEntity
  8
HIDDEN
100
AcDbCircle
 10
484.933326821636
 20
985.8893007693638
 30
0.0
 40
3.000001259739101
100
AcDbArc
 50
1.000005955465257
 51
49.99998402658509
  0
SPLINE
  5
55C2
330
A
100
AcDbEntity
  8
HIDDEN
100
AcDbSpline
210
0.0
220
0.0
230
1.0
 70
     8
 71
     3
 72
     8
 73
     4
 74
     0
 42
0.000000001
 43
0.0000000001
 40
78.42922658342725
 40
78.42922658342725
 40
78.42922658342725
 40
78.42922658342725
 40
83.77960957970544
 40
83.77960957970544
 40
83.77960957970544
 40
83.77960957970544
 10
320.7208487604576
 20
1083.61593443561
 30
0.0
 10
320.7388236546385
 20
1083.592391730216
 30
0.0
 10
320.7801135650434
 20
1083.538312952088
 30
0.0
 10
320.7300182108875
 20
1083.60393220097
 30
0.0
  0
SPLINE
  5
55C3
330
A
100
AcDbEntity
  8
MODEL
100
AcDbSpline
210
0.0
220
0.0
230
1.0
 70
     8
 71
     3
 72
     9
 73
     5
 74
     0
 42
0.000000001
 43
0.0000000001
 40
0.0
 40
0.0
 40
0.0
 40
0.0
 40
0.1537508942182914
 40
0.2063659594357283
 40
0.2063659594357283
 40
0.2063659594357283
 40
0.2063659594357283
 10
408.6060316854264
 20
973.1532192206408
 30
0.0
 10
408.64078276082
 20
973.1833577441478
 30
0.0
 10
408.686214405534
 20
973.2246279423379
 30
0.0
 10
408.7288131171945
 20
973.2653134072829
 30
0.0
 10
408.739359895626
 20
973.2754872776009
 30
0.0
  0
CIRCLE
  5
55C4
330
A
100
AcDbEntity
  8
MODEL
100
AcDbCircle
 10
510.1015940802017
 20
2108.056372087735
 30
0.0
 40
35.0
  0
CIRCLE
  5
55C5
330
A
100
AcDbEntity
  8
HIDDEN
100
AcDbCircle
 10
749.6333082949195
 20
2108.056372087735
 30
0.0
 40
17.50000000000182
  0
SPLINE
  5
55C6
330
A
100
AcDbEntity
  8
MODEL
100
AcDbSpline
210
0.0
220
0.0
230
1.0
 70
     8
 71
     3
 72
    51
 73
    47
 74
     0
 42
0.000000001
 43
0.0000000001
 40
0.0
 40
0.0
 40
0.0
 40
0.0
 40
28.4381838352643
 40
40.62597968125363
 40
58.907672561141
 40
68.04852258844639
 40
77.18937539291349
 40
84.23086381966257
 40
91.27235407826556
 40
93.03272669919481
 40
94.79309885956688
 40
96.11337755007217
 40
96.99360242160454
 40
98.53473509933664
 40
99.4167260021825
 40
100.5223878370154
 40
102.0812986583545
 40
104.1193686664176
 40
106.2888696151946
 40
109.1220250021505
 40
112.4568948290564
 40
115.2085955355019
 40
119.3399032378954
 40
121.9992456641671
 40
123.7465285371186
 40
125.521016439645
 40
127.0587867155644
 40
128.3413220714027
 40
130.6055358109433
 40
131.5769633649311
 40
133.2147259761676
 40
133.8943193902401
 40
134.3411853637483
 40
137.0761531049319
 40
139.8190363134899
 40
143.1021209670491
 40
145.2892550397468
 40
151.9202140573486
 40
158.5506764570794
 40
168.4956750114326
 40
178.4399277061218
 40
193.3571385248742
 40
208.2728435135775
 40
230.648588705349
 40
253.0225022849356
 40
308.3675153824091
 40
308.3675153824091
 40
308.3675153824091
 40
308.3675153824091
 10
314.5898503806088
 20
2108.056367560743
 30
0.0
 10
314.5898503806088
 20
2117.536361438322
 30
0.0
 10
314.5884902607786
 20
2131.079164472918
 30
0.0
 10
314.5836247615071
 20
2150.716155523194
 30
0.0
 10
314.5787804012357
 20
2163.92033849218
 30
0.0
 10
314.5728193051978
 20
2176.108732531513
 30
0.0
 10
314.5679651089517
 20
2184.550364808607
 30
0.0
 10
314.5628388679538
 20
2192.29165134681
 30
0.0
 10
314.559032478187
 20
2197.574053905213
 30
0.0
 10
314.5561085004288
 20
2201.093427876094
 30
0.0
 10
314.5546127599728
 20
2202.709318177154
 30
0.0
 10
314.5530040083459
 20
2204.019258048865
 30
0.0
 10
314.5596882656087
 20
2205.228631852807
 30
0.0
 10
314.5834284702205
 20
2206.266814280802
 30
0.0
 10
314.6449004916785
 20
2207.347610436712
 30
0.0
 10
314.7428346961738
 20
2208.413611128223
 30
0.0
 10
314.9481134254597
 20
2209.795147073659
 30
0.0
 10
315.3413638690536
 20
2211.441410823579
 30
0.0
 10
316.0343086365674
 20
2213.382327639135
 30
0.0
 10
317.1463135998488
 20
2215.569633535342
 30
0.0
 10
318.6811224617695
 20
2217.732064616234
 30
0.0
 10
320.7632699047458
 20
2219.964697788222
 30
0.0
 10
322.9946986992645
 20
2221.754214655772
 30
0.0
 10
325.1754134708308
 20
2223.032883282753
 30
0.0
 10
326.8189622136915
 20
2223.783653487177
 30
0.0
 10
328.1982659221308
 20
2224.27573617896
 30
0.0
 10
329.4758550547408
 20
2224.615749758082
 30
0.0
 10
330.9153894918986
 20
2224.896091080357
 30
0.0
 10
332.2308580691088
 20
2225.047275937023
 30
0.0
 10
333.7027912786857
 20
2225.140628270684
 30
0.0
 10
334.7272469441004
 20
2225.173509001728
 30
0.0
 10
335.6097377622928
 20
2225.188170954633
 30
0.0
 10
336.8550631032258
 20
2225.202071011876
 30
0.0
 10
338.8133571834687
 20
2225.203879940876
 30
0.0
 10
341.7315131030255
 20
2225.202898567751
 30
0.0
 10
344.4684389351737
 20
2225.200571681509
 30
0.0
 10
348.5030634844147
 20
2225.19824351371
 30
0.0
 10
353.6521098167786
 20
2225.195635348512
 30
0.0
 10
361.388290040929
 20
2225.19188753387
 30
0.0
 10
370.2284608627947
 20
2225.188804087163
 30
0.0
 10
381.8310987571817
 20
2225.186042457859
 30
0.0
 10
395.090566196769
 20
2225.184624931328
 30
0.0
 10
412.493895513252
 20
2225.18490831827
 30
0.0
 10
432.3826714881789
 20
2225.187553213189
 30
0.0
 10
465.7477517508587
 20
2225.19436639222
 30
0.0
 10
491.6537317828179
 20
2225.199779297714
 30
0.0
 10
510.1015940802017
 20
2225.199779297714
 30
0.0
  0
SPLINE
  5
55C7
330
A
100
AcDbEntity
  8
MODEL
100
AcDbSpline
210
0.0
220
0.0
230
1.0
 70
     8
 71
     3
 72
    51
 73
    47
 74
     0
 42
0.000000001
 43
0.0000000001
 40
0.0
 40
0.0
 40
0.0
 40
0.0
 40
28.4381838352643
 40
40.62597968125363
 40
58.907672561141
 40
68.04852258844637
 40
77.18937539291349
 40
84.23086381966257
 40
91.27235407826554
 40
93.03272669919481
 40
94.79309885956685
 40
96.11337755007213
 40
96.99360242160452
 40
98.53473509933661
 40
99.41672600218249
 40
100.5223878370154
 40
102.0812986583545
 40
104.1193686664176
 40
106.2888696151946
 40
109.1220250021504
 40
112.4568948290564
 40
115.2085955355019
 40
119.3399032378953
 40
121.999245664167
 40
123.7465285371186
 40
125.521016439645
 40
127.0587867155643
 40
128.3413220714027
 40
130.6055358109433
 40
131.5769633649311
 40
133.2147259761676
 40
133.89431939024
 40
134.3411853637483
 40
137.0761531049319
 40
139.8190363134899
 40
143.1021209670491
 40
145.2892550397469
 40
151.9202140573485
 40
158.5506764570793
 40
168.4956750114326
 40
178.4399277061218
 40
193.3571385248743
 40
208.2728435135776
 40
230.648588705349
 40
253.0225022849356
 40
308.3675153824091
 40
308.3675153824091
 40
308.3675153824091
 40
308.3675153824091
 10
314.5898503806088
 20
2108.056367560743
 30
0.0
 10
314.5898503806088
 20
2098.576373683164
 30
0.0
 10
314.5884902607786
 20
2085.033570649004
 30
0.0
 10
314.583624761508
 20
2065.396579600158
 30
0.0
 10
314.5787804012357
 20
2052.192396632512
 30
0.0
 10
314.5728193051978
 20
2040.004002594699
 30
0.0
 10
314.5679651089517
 20
2031.56237031879
 30
0.0
 10
314.5628388679538
 20
2023.821083781752
 30
0.0
 10
314.5590324781879
 20
2018.538681224242
 30
0.0
 10
314.5561085004297
 20
2015.019307253889
 30
0.0
 10
314.5546127599737
 20
2013.403416953071
 30
0.0
 10
314.5530040083468
 20
2012.09347708133
 30
0.0
 10
314.55968826561
 20
2010.884103276983
 30
0.0
 10
314.5834284702205
 20
2009.845920848312
 30
0.0
 10
314.6449004916785
 20
2008.765124691568
 30
0.0
 10
314.7428346961747
 20
2007.699123999251
 30
0.0
 10
314.9481134254597
 20
2006.317588052992
 30
0.0
 10
315.3413638690536
 20
2004.671324302758
 30
0.0
 10
316.0343086365674
 20
2002.730407487899
 30
0.0
 10
317.1463135998488
 20
2000.543101593852
 30
0.0
 10
318.6811224617695
 20
1998.380670516763
 30
0.0
 10
320.7632699047458
 20
1996.148037350807
 30
0.0
 10
322.9946986992645
 20
1994.358520490838
 30
0.0
 10
325.1754134708317
 20
1993.07985187312
 30
0.0
 10
326.8189622136997
 20
1992.329081677037
 30
0.0
 10
328.1982659221317
 20
1991.836998993326
 30
0.0
 10
329.4758550547408
 20
1991.496985422563
 30
0.0
 10
330.9153894919
 20
1991.216644110138
 30
0.0
 10
332.2308580691088
 20
1991.065459262197
 30
0.0
 10
333.7027912786866
 20
1990.972106936231
 30
0.0
 10
334.7272469441004
 20
1990.939226209107
 30
0.0
 10
335.6097377622928
 20
1990.924564258431
 30
0.0
 10
336.8550631032267
 20
1990.910664203654
 30
0.0
 10
338.8133571834687
 20
1990.908855275828
 30
0.0
 10
341.7315131030255
 20
1990.909836649133
 30
0.0
 10
344.4684389351746
 20
1990.912163535408
 30
0.0
 10
348.5030634844147
 20
1990.914491703004
 30
0.0
 10
353.6521098167786
 20
1990.917099867981
 30
0.0
 10
361.3882900409299
 20
1990.92084768236
 30
0.0
 10
370.2284608627961
 20
1990.923931128848
 30
0.0
 10
381.8310987571817
 20
1990.926692757954
 30
0.0
 10
395.0905661967699
 20
1990.928110284376
 30
0.0
 10
412.4938955132529
 20
1990.927826897436
 30
0.0
 10
432.3826714881798
 20
1990.925182002678
 30
0.0
 10
465.7477517508587
 20
1990.918368824076
 30
0.0
 10
491.6537317828188
 20
1990.912955918926
 30
0.0
 10
510.1015940802017
 20
1990.912955918926
 30
0.0
  0
SPLINE
  5
55C8
330
A
100
AcDbEntity
  8
MODEL
100
AcDbSpline
210
0.0
220
0.0
230
1.0
 70
     8
 71
     3
 72
    49
 73
    45
 74
     0
 42
0.000000001
 43
0.0000000001
 40
0.0
 40
0.0
 40
0.0
 40
0.0
 40
28.43818250105744
 40
40.62597500312135
 40
58.90766375593824
 40
77.18935251563919
 40
84.27478412300613
 40
91.36021573198559
 40
93.13157363190895
 40
94.90293153743944
 40
96.23146144684847
 40
97.33870546796761
 40
98.89023389838191
 40
99.77892421235128
 40
100.8943034340766
 40
102.2437850425666
 40
104.3046631032235
 40
106.3012415362323
 40
109.1439517314057
 40
111.5305726101359
 40
114.9405546808083
 40
119.3965692054501
 40
121.6061459650167
 40
125.0675396403573
 40
126.555514333116
 40
127.5468278018107
 40
129.5206526858514
 40
130.9820868312258
 40
132.1751229337935
 40
132.6431915591303
 40
133.105036648101
 40
134.4521467193387
 40
136.6132920054585
 40
141.0421402296871
 40
145.4710074751006
 40
152.1136082387921
 40
158.7559778754943
 40
168.7198108874617
 40
178.6831725974413
 40
193.6288125293512
 40
208.5735664858686
 40
230.9919240227946
 40
253.408876199314
 40
309.0812562382453
 40
309.0812562382453
 40
309.0812562382453
 40
309.0812562382453
 10
705.9751689509494
 20
2108.056367608324
 30
0.0
 10
705.9751689509494
 20
2098.576958154422
 30
0.0
 10
705.9755427763216
 20
2085.034953718001
 30
0.0
 10
705.9768772213938
 20
2065.399008948864
 30
0.0
 10
705.9784432635997
 20
2049.148697996241
 30
0.0
 10
705.9804936244618
 20
2034.598725433445
 30
0.0
 10
705.982105933901
 20
2023.781767454737
 30
0.0
 10
705.9833278384758
 20
2018.466487369211
 30
0.0
 10
705.983622992484
 20
2014.925423043924
 30
0.0
 10
705.9843694113724
 20
2013.298567732102
 30
0.0
 10
705.9829623970868
 20
2011.91462719299
 30
0.0
 10
705.9681135397477
 20
2010.642153350849
 30
0.0
 10
705.9281085076218
 20
2009.554014874382
 30
0.0
 10
705.8481748135086
 20
2008.497498492451
 30
0.0
 10
705.7370836499608
 20
2007.522422399728
 30
0.0
 10
705.5203402438046
 20
2006.233797167111
 30
0.0
 10
705.1416576502597
 20
2004.728318175369
 30
0.0
 10
704.4702048657045
 20
2002.855629086276
 30
0.0
 10
703.5379136784827
 20
2000.969304218226
 30
0.0
 10
702.1539902621298
 20
1998.846621269272
 30
0.0
 10
700.1951557218335
 20
1996.540903414454
 30
0.0
 10
697.9217335216226
 20
1994.625120041531
 30
0.0
 10
695.4148416971798
 20
1993.064342360256
 30
0.0
 10
693.5290672917754
 20
1992.199186577224
 30
0.0
 10
691.900094945202
 20
1991.670963749566
 30
0.0
 10
690.6563702365088
 20
1991.347662286925
 30
0.0
 10
689.3940242225426
 20
1991.113620433851
 30
0.0
 10
688.0376861861369
 20
1990.970454818473
 30
0.0
 10
687.0973345696175
 20
1990.919670349051
 30
0.0
 10
686.4438311871627
 20
1990.899699816736
 30
0.0
 10
685.7337460479966
 20
1990.885427483937
 30
0.0
 10
684.461374704325
 20
1990.879706122045
 30
0.0
 10
681.8130729651307
 20
1990.88329323858
 30
0.0
 10
678.1413688513994
 20
1990.883261801385
 30
0.0
 10
672.9741309245578
 20
1990.885647763322
 30
0.0
 10
667.0696763052756
 20
1990.887517357627
 30
0.0
 10
659.3199957178149
 20
1990.890160428426
 30
0.0
 10
650.4634734183046
 20
1990.892894486371
 30
0.0
 10
638.8391583831908
 20
1990.896236378197
 30
0.0
 10
625.5545447431496
 20
1990.899642208534
 30
0.0
 10
608.1182550875819
 20
1990.90351259731
 30
0.0
 10
588.191527661882
 20
1990.907103691847
 30
0.0
 10
554.6889031091118
 20
1990.911551320698
 30
0.0
 10
528.6590840418717
 20
1990.91295591965
 30
0.0
 10
510.1015940802017
 20
1990.91295591965
 30
0.0
  0
SPLINE
  5
55C9
330
A
100
AcDbEntity
  8
MODEL
100
AcDbSpline
210
0.0
220
0.0
230
1.0
 70
     8
 71
     3
 72
    49
 73
    45
 74
     0
 42
0.000000001
 43
0.0000000001
 40
0.0
 40
0.0
 40
0.0
 40
0.0
 40
28.43818250105744
 40
40.62597500312135
 40
58.90766375593824
 40
77.1893525156392
 40
84.27478412300617
 40
91.36021573198556
 40
93.13157363190895
 40
94.90293153743943
 40
96.23146144684846
 40
97.3387054679676
 40
98.89023389838188
 40
99.77892421235127
 40
100.8943034340766
 40
102.2437850425666
 40
104.3046631032236
 40
106.3012415362323
 40
109.1439517314058
 40
111.530572610136
 40
114.9405546808083
 40
119.3965692054501
 40
121.6061459650167
 40
125.0675396403573
 40
126.555514333116
 40
127.5468278018106
 40
129.5206526858514
 40
130.9820868312257
 40
132.1751229337934
 40
132.6431915591303
 40
133.105036648101
 40
134.4521467193387
 40
136.6132920054585
 40
141.042140229687
 40
145.4710074751006
 40
152.1136082387921
 40
158.7559778754943
 40
168.7198108874617
 40
178.6831725974412
 40
193.6288125293512
 40
208.5735664858686
 40
230.9919240227946
 40
253.408876199314
 40
309.0812562382453
 40
309.0812562382453
 40
309.0812562382453
 40
309.0812562382453
 10
705.9751689509494
 20
2108.056367608324
 30
0.0
 10
705.9751689509494
 20
2117.535777062226
 30
0.0
 10
705.9755427763216
 20
2131.077781498545
 30
0.0
 10
705.9768772213938
 20
2150.713726267326
 30
0.0
 10
705.9784432635997
 20
2166.964037219518
 30
0.0
 10
705.9804936244618
 20
2181.514009781807
 30
0.0
 10
705.982105933901
 20
2192.330967760038
 30
0.0
 10
705.9833278384758
 20
2197.646247845369
 30
0.0
 10
705.983622992484
 20
2201.18731217042
 30
0.0
 10
705.9843694113724
 20
2202.814167482232
 30
0.0
 10
705.9829623970868
 20
2204.198108020925
 30
0.0
 10
705.9681135397477
 20
2205.470581862103
 30
0.0
 10
705.9281085076218
 20
2206.558720337077
 30
0.0
 10
705.8481748135086
 20
2207.615236716969
 30
0.0
 10
705.7370836499608
 20
2208.590312807418
 30
0.0
 10
705.5203402438046
 20
2209.878938036559
 30
0.0
 10
705.1416576502597
 20
2211.384417023852
 30
0.0
 10
704.4702048657045
 20
2213.257106107746
 30
0.0
 10
703.5379136784827
 20
2215.143430971864
 30
0.0
 10
702.1539902621298
 20
2217.266113918737
 30
0.0
 10
700.1951557218335
 20
2219.571831774283
 30
0.0
 10
697.9217335216226
 20
2221.487615150364
 30
0.0
 10
695.4148416971798
 20
2223.048392834191
 30
0.0
 10
693.5290672917754
 20
2223.913548618032
 30
0.0
 10
691.900094945202
 20
2224.441771446064
 30
0.0
 10
690.6563702365088
 20
2224.765072909229
 30
0.0
 10
689.3940242225426
 20
2224.999114763453
 30
0.0
 10
688.0376861861369
 20
2225.142280381665
 30
0.0
 10
687.0973345696175
 20
2225.193064853805
 30
0.0
 10
686.4438311871627
 20
2225.213035387979
 30
0.0
 10
685.7337460479966
 20
2225.22730772266
 30
0.0
 10
684.461374704325
 20
2225.233029086936
 30
0.0
 10
681.8130729651307
 20
2225.229441970412
 30
0.0
 10
678.1413688513994
 20
2225.229473408029
 30
0.0
 10
672.9741309245578
 20
2225.22708744648
 30
0.0
 10
667.0696763052756
 20
2225.225217852665
 30
0.0
 10
659.3199957178149
 20
2225.222574782462
 30
0.0
 10
650.4634734183046
 20
2225.21984072517
 30
0.0
 10
638.8391583831908
 20
2225.216498834145
 30
0.0
 10
625.5545447431496
 20
2225.213093004646
 30
0.0
 10
608.1182550875819
 20
2225.209222616843
 30
0.0
 10
588.191527661882
 20
2225.205631523232
 30
0.0
 10
554.6889031091118
 20
2225.201183895556
 30
0.0
 10
528.6590840418708
 20
2225.19977929699
 30
0.0
 10
510.1015940802017
 20
2225.19977929699
 30
0.0
  0
CIRCLE
  5
55CA
330
A
100
AcDbEntity
  8
HIDDEN
 48
0.5
100
AcDbCircle
 10
758.7310125805379
 20
1052.962304081411
 30
0.0
 40
10.00222264612718
  0
CIRCLE
  5
55CB
330
A
100
AcDbEntity
  8
HIDDEN
 48
0.5
100
AcDbCircle
 10
341.1738793543186
 20
999.9639168986068
 30
0.0
 40
10.0006462556505
  0
DIMENSION
  5
55CC
330
A
100
AcDbEntity
  8
Dim
100
AcDbDimension
  2
*D58
 10
808.4675527385905
 20
2362.976577000001
 30
0.0
 11
556.4084517874714
 21
2385.192885593751
 31
0.0
 70
    32
  1
500
 71
     5
 42
504.1182019022381
 73
     0
 74
     0
 75
     0
 52
-90.00000000000001
  3
tform線あり
100
AcDbAlignedDimension
 13
304.3493508363526
 23
2234.651337730503
 33
-0.0000000000000937
 14
808.4675527385907
 24
2234.651337730503
 34
-0.0000000000000937
 50
0.0000000000001088
100
AcDbRotatedDimension
  0
DIMENSION
  5
55CD
330
A
100
AcDbEntity
  8
Dim
100
AcDbDimension
  2
*D59
 10
205.5138713349425
 20
1980.997271178802
 30
0.0
 11
205.5138713349425
 21
2108.056372129919
 31
0.0
 70
   160
  1
250
 71
     5
 42
254.1182019022328
 73
     0
 74
     0
 75
     0
 52
-90.0
  3
tform線あり
100
AcDbAlignedDimension
 13
311.7228212612918
 23
2235.115473081035
 33
0.0
 14
308.3521238677008
 24
1980.997271178802
 34
0.0
 50
-89.99999999999996
100
AcDbRotatedDimension
  0
DIMENSION
  5
55CE
330
A
100
AcDbEntity
  8
Dim
100
AcDbDimension
  2
*D60
 10
228.994261946738
 20
973.2754958353848
 30
0.0
 11
228.994261946738
 21
928.7026603861661
 31
0.0
 70
   160
  1
30
 71
     5
 42
26.68842106322198
 73
     0
 74
     1
 75
     1
 52
-90.00000000000001
  3
tform線あり
100
AcDbAlignedDimension
 13
328.3657944950337
 23
999.9639168986068
 33
0.0
 14
304.5652059139948
 24
973.2754958353848
 34
0.0
 50
90.00000000000001
100
AcDbRotatedDimension
  0
DIMENSION
  5
55CF
330
A
100
AcDbEntity
  8
Dim
100
AcDbDimension
  2
*D61
 10
895.8733721349424
 20
973.2754566803608
 30
0.0
 11
873.6570635411924
 21
1013.118880380886
 31
0.0
 70
    32
  1
80
 71
     5
 42
79.68684740105029
 73
     0
 74
     0
 75
     0
 52
-90.00000000000001
  3
tform線あり
100
AcDbAlignedDimension
 13
771.6355138239569
 23
1052.962304081411
 33
0.0
 14
812.3137146817407
 24
973.2754566803608
 34
0.0
 50
90.00000000000001
100
AcDbRotatedDimension
  0
DIMENSION
  5
55D0
330
A
100
AcDbEntity
  8
Dim
 48
5.0
100
AcDbDimension
  2
*D62
 10
808.4675527385834
 20
1879.7883786
 30
0.0
 11
757.2213608447664
 21
1902.00468719375
 31
0.0
 70
    32
  1
100
 71
     5
 42
102.492383787634
 73
     0
 74
     0
 75
     0
 52
-270.0
  3
tform線あり
100
AcDbAlignedDimension
 13
705.9751689509494
 23
1995.395920850437
 33
0.0
 14
808.4675527385834
 24
1980.933427973144
 34
0.0
 50
180.0
100
AcDbRotatedDimension
  0
SPLINE
  5
55D1
330
A
100
AcDbEntity
  8
MODEL
100
AcDbSpline
210
0.0
220
0.0
230
1.0
 70
     8
 71
     3
 72
    21
 73
    17
 74
     0
 42
0.000000001
 43
0.0000000001
 40
0.0
 40
0.0
 40
0.0
 40
0.0
 40
0.7098470316291157
 40
1.862975652455888
 40
4.703905130958182
 40
5.868671006611976
 40
7.498605678060988
 40
9.278544225153215
 40
11.95356894816854
 40
13.60065623785615
 40
13.60065623785615
 40
13.60065623785615
 40
13.60378712456582
 40
13.60378712456582
 40
13.60378712456582
 40
20.18309812811534
 40
20.18309812811534
 40
20.18309812811534
 40
20.18309812811534
 10
1626.8717027976
 20
973.2754873326259
 30
0.0
 10
1626.871702807947
 20
973.2754873222798
 30
0.0
 10
1626.84621509491
 20
973.2754872951328
 30
0.0
 10
1626.613876881782
 20
973.2754872271978
 30
0.0
 10
1625.968704041754
 20
973.2754871564318
 30
0.0
 10
1624.889007574091
 20
973.2754870890049
 30
0.0
 10
1623.820775548743
 20
973.2754870410279
 30
0.0
 10
1622.140033018119
 20
973.2754869905468
 30
0.0
 10
1620.203602849746
 20
973.2754869601408
 30
0.0
 10
1618.76133746257
 20
973.2754869541458
 30
0.0
 10
1618.213128976734
 20
973.2754869541458
 30
0.0
 10
1618.212086907696
 20
973.2754869541458
 30
0.0
 10
1618.211044843773
 20
973.2754869541458
 30
0.0
 10
1618.210002779849
 20
973.2754869541458
 30
0.0
 10
1616.020187794694
 20
973.2754869541458
 30
0.0
 10
1613.830372809539
 20
973.2754869541458
 30
0.0
 10
1611.640557824384
 20
973.2754869541458
 30
0.0
  0
LINE
  5
55D2
330
A
100
AcDbEntity
  8
MODEL
100
AcDbLine
 10
1392.43739748589
 20
973.2754873326268
 30
0.0
 11
1407.668543146609
 21
973.2754866668478
 31
0.0
  0
LINE
  5
55D3
330
A
100
AcDbEntity
  8
MODEL
100
AcDbLine
 10
1598.059858175604
 20
972.2754901488948
 30
0.0
 11
1421.46593439327
 21
972.2754901146978
 31
0.0
  0
ARC
  5
55D4
330
A
100
AcDbEntity
  8
MODEL
100
AcDbCircle
 10
1598.059858096698
 20
972.7754901488948
 30
0.0
 40
0.5000000000000001
100
AcDbArc
 50
270.0
 51
359.9997371252621
  0
LINE
  5
55D5
330
A
100
AcDbEntity
  8
MODEL
100
AcDbLine
 10
1421.46593439327
 20
972.2754901146978
 30
0.0
 11
1421.249245730278
 21
972.2754901488948
 31
0.0
  0
ARC
  5
55D6
330
A
100
AcDbEntity
  8
MODEL
100
AcDbCircle
 10
1421.249245730278
 20
972.7754901488948
 30
0.0
 40
0.5000000000000001
100
AcDbArc
 50
180.0002945102198
 51
270.0
  0
ARC
  5
55D7
330
A
100
AcDbEntity
  8
MODEL
100
AcDbCircle
 10
1420.249245730293
 20
972.7754855608798
 30
0.0
 40
0.4999999999999696
100
AcDbArc
 50
0.0002945093860284
 51
58.24278172202313
  0
ARC
  5
55D8
330
A
100
AcDbEntity
  8
MODEL
100
AcDbCircle
 10
1599.059858096682
 20
972.7754855608798
 30
0.0
 40
0.5000000000000121
100
AcDbArc
 50
121.7572182779769
 51
179.9997371260959
  0
LINE
  5
55D9
102
{ACAD_REACTORS
330
5604
102
}
330
A
100
AcDbEntity
  8
MODEL
100
AcDbLine
 10
1509.654556033279
 20
1093.276200737324
 30
0.0
 11
1389.605507022643
 21
1093.276201771681
 31
0.0
  0
LINE
  5
55DA
330
A
100
AcDbEntity
  8
MODEL
100
AcDbLine
 10
1509.654556033279
 20
1093.276200737324
 30
0.0
 11
1629.703602909575
 21
1093.276201771681
 31
0.0
  0
ARC
  5
55DB
330
A
100
AcDbEntity
  8
HIDDEN
100
AcDbCircle
 10
1389.58805162362
 20
1090.2762093895
 30
0.0
 40
2.999999999999992
100
AcDbArc
 50
13.00221790156968
 51
89.99999999958311
  0
ARC
  5
55DC
330
A
100
AcDbEntity
  8
HIDDEN
100
AcDbCircle
 10
1629.721043139236
 20
1090.2762093895
 30
0.0
 40
2.999999999999984
100
AcDbArc
 50
90.0
 51
166.9977820928684
  0
SPLINE
  5
55DD
330
A
100
AcDbEntity
  8
HIDDEN
100
AcDbSpline
210
0.0
220
0.0
230
1.0
 70
     8
 71
     7
 72
    81
 73
    73
 74
     0
 42
0.000000001
 43
0.0000000001
 40
0.0154638269958432
 40
0.0154638269958432
 40
0.0154638269958432
 40
0.0154638269958432
 40
0.0154638269958432
 40
0.0154638269958432
 40
0.0154638269958432
 40
0.0154638269958432
 40
0.0642460647295691
 40
0.0642460647295691
 40
0.0642460647295691
 40
0.0642460647295691
 40
0.0642460647295691
 40
0.072132214
 40
0.072132214
 40
0.072132214
 40
0.072132214
 40
0.072132214
 40
0.2337050835646268
 40
0.2337050835646268
 40
0.2337050835646268
 40
0.2337050835646268
 40
0.2337050835646268
 40
0.3606610699999999
 40
0.3606610699999999
 40
0.3606610699999999
 40
0.3606610699999999
 40
0.3606610699999999
 40
0.3680972656699885
 40
0.3680972656699885
 40
0.3680972656699885
 40
0.3680972656699885
 40
0.3680972656699885
 40
0.4683909999999999
 40
0.4683909999999999
 40
0.4683909999999999
 40
0.4683909999999999
 40
0.4683909999999999
 40
0.4775032957660706
 40
0.4775032957660706
 40
0.4775032957660706
 40
0.4775032957660706
 40
0.4775032957660706
 40
0.5837857499038153
 40
0.5837857499038153
 40
0.5837857499038153
 40
0.5837857499038153
 40
0.5837857499038153
 40
0.5929
 40
0.5929
 40
0.5929
 40
0.5929
 40
0.5929
 40
0.631862
 40
0.631862
 40
0.631862
 40
0.631862
 40
0.631862
 40
0.7576620864265575
 40
0.7576620864265575
 40
0.7576620864265575
 40
0.7576620864265575
 40
0.7576620864265575
 40
0.77
 40
0.77
 40
0.77
 40
0.77
 40
0.77
 40
0.8906982169173613
 40
0.8906982169173613
 40
0.8906982169173613
 40
0.8906982169173613
 40
0.8906982169173613
 40
0.9606754868632058
 40
0.9606754868632058
 40
0.9606754868632058
 40
0.9606754868632058
 40
0.9606754868632058
 40
0.9606754868632058
 40
0.9606754868632058
 40
0.9606754868632058
 10
1626.797959070491
 20
1090.951175704991
 30
0.0
 10
1626.556016194234
 20
1089.903391021646
 30
0.0
 10
1626.314028421999
 20
1088.855609985811
 30
0.0
 10
1626.071966553528
 20
1087.807837927983
 30
0.0
 10
1625.82980010336
 20
1086.760085801703
 30
0.0
 10
1625.587497624822
 20
1085.712373004491
 30
0.0
 10
1625.305829324598
 20
1084.495368939977
 30
0.0
 10
1625.023890513882
 20
1083.278521774468
 30
0.0
 10
1624.984649654673
 20
1083.109184762776
 30
0.0
 10
1624.945403281889
 20
1082.939851183313
 30
0.0
 10
1624.906151257621
 20
1082.770521247439
 30
0.0
 10
1624.062572164642
 20
1079.132011643982
 30
0.0
 10
1623.216255663202
 20
1075.495393449986
 30
0.0
 10
1622.405564183477
 20
1072.031378289772
 30
0.0
 10
1621.589914512906
 20
1068.574720977725
 30
0.0
 10
1620.76741920512
 20
1065.129600758424
 30
0.0
 10
1619.280237274259
 20
1058.999687207804
 30
0.0
 10
1617.741113914939
 20
1052.908601193354
 30
0.0
 10
1617.050925357171
 20
1050.235843852562
 30
0.0
 10
1616.343921195525
 20
1047.569905268632
 30
0.0
 10
1615.615003072203
 20
1044.910403573856
 30
0.0
 10
1614.813173305722
 20
1042.103796726442
 30
0.0
 10
1613.969882862306
 20
1039.31580226116
 30
0.0
 10
1613.92309321129
 20
1039.161595374142
 30
0.0
 10
1613.876173161158
 20
1039.007448732831
 30
0.0
 10
1613.829120947141
 20
1038.853364078764
 30
0.0
 10
1613.145523752623
 20
1036.622027435289
 30
0.0
 10
1612.433431377786
 20
1034.404475674651
 30
0.0
 10
1611.741340506369
 20
1032.356554072612
 30
0.0
 10
1611.014775224909
 20
1030.332061955901
 30
0.0
 10
1610.246818176855
 20
1028.339004295907
 30
0.0
 10
1609.353078333952
 20
1026.207563586322
 30
0.0
 10
1608.380525095729
 20
1024.133647862305
 30
0.0
 10
1608.298963662687
 20
1023.961320738795
 30
0.0
 10
1608.216831725009
 20
1023.789407900178
 30
0.0
 10
1608.134117363644
 20
1023.617916659947
 30
0.0
 10
1607.079124585971
 20
1021.451645649947
 30
0.0
 10
1605.926815891586
 20
1019.355314037791
 30
0.0
 10
1604.763396021821
 20
1017.495391990043
 30
0.0
 10
1603.473936901697
 20
1015.71834217407
 30
0.0
 10
1602.014816665155
 20
1014.056151083146
 30
0.0
 10
1600.240651290739
 20
1012.427384060131
 30
0.0
 10
1598.287605530335
 20
1011.006665802881
 30
0.0
 10
1598.13224901635
 20
1010.895761714077
 30
0.0
 10
1597.975807393805
 20
1010.786171870553
 30
0.0
 10
1597.818298309464
 20
1010.677901593481
 30
0.0
 10
1596.981932287496
 20
1010.113769521769
 30
0.0
 10
1596.116962733465
 20
1009.586455340803
 30
0.0
 10
1595.398732311695
 20
1009.183445277383
 30
0.0
 10
1594.665163315417
 20
1008.804338288813
 30
0.0
 10
1593.918251040348
 20
1008.448071080653
 30
0.0
 10
1590.711392893024
 20
1007.032187935947
 30
0.0
 10
1587.331950883278
 20
1005.971890481545
 30
0.0
 10
1584.711903295049
 20
1005.316534866004
 30
0.0
 10
1582.089953052046
 20
1004.747003664939
 30
0.0
 10
1579.492430519624
 20
1004.236097186556
 30
0.0
 10
1576.690277380118
 20
1003.717388217788
 30
0.0
 10
1573.95671282133
 20
1003.230485245309
 30
0.0
 10
1573.713119920014
 20
1003.187239356375
 30
0.0
 10
1573.47009445077
 20
1003.144225008996
 30
0.0
 10
1573.227645123718
 20
1003.101432221636
 30
0.0
 10
1570.6196798808
 20
1002.642299874103
 30
0.0
 10
1568.08036228908
 20
1002.206888731394
 30
0.0
 10
1565.838999729158
 20
1001.822991607274
 30
0.0
 10
1563.660386125403
 20
1001.447035029713
 30
0.0
 10
1561.538339210258
 20
1001.076985432752
 30
0.0
 10
1558.256564524722
 20
1000.498381668011
 30
0.0
 10
1555.052486199877
 20
999.9250821256358
 30
0.0
 10
1553.884426032781
 20
999.7150728111958
 30
0.0
 10
1552.721367073833
 20
999.5051792855588
 30
0.0
 10
1551.560564930068
 20
999.2952131998679
 30
0.0
 10
1550.39974727002
 20
999.0851739036518
 30
0.0
 10
1549.237668870845
 20
998.8753953097619
 30
0.0
  0
SPLINE
  5
55DE
330
A
100
AcDbEntity
  8
HIDDEN
100
AcDbSpline
210
0.0
220
0.0
230
1.0
 70
     8
 71
     7
 72
   106
 73
    98
 74
     0
 42
0.000000001
 43
0.0000000001
 40
0.013742155100485
 40
0.013742155100485
 40
0.013742155100485
 40
0.013742155100485
 40
0.013742155100485
 40
0.013742155100485
 40
0.013742155100485
 40
0.013742155100485
 40
0.0152776792942505
 40
0.0152776792942505
 40
0.0152776792942505
 40
0.0152776792942505
 40
0.0152776792942505
 40
0.0691267493040064
 40
0.0691267493040064
 40
0.0691267493040064
 40
0.0691267493040064
 40
0.0691267493040064
 40
0.0768
 40
0.0768
 40
0.0768
 40
0.0768
 40
0.0768
 40
0.1166295757791472
 40
0.1166295757791472
 40
0.1166295757791472
 40
0.1166295757791472
 40
0.1166295757791472
 40
0.26852352
 40
0.26852352
 40
0.26852352
 40
0.26852352
 40
0.26852352
 40
0.271683122424784
 40
0.271683122424784
 40
0.271683122424784
 40
0.271683122424784
 40
0.271683122424784
 40
0.319488
 40
0.319488
 40
0.319488
 40
0.319488
 40
0.319488
 40
0.3732915574942917
 40
0.3732915574942917
 40
0.3732915574942917
 40
0.3732915574942917
 40
0.3732915574942917
 40
0.384
 40
0.384
 40
0.384
 40
0.384
 40
0.384
 40
0.4575652558098621
 40
0.4575652558098621
 40
0.4575652558098621
 40
0.4575652558098621
 40
0.4575652558098621
 40
0.4800000000000001
 40
0.4800000000000001
 40
0.4800000000000001
 40
0.4800000000000001
 40
0.4800000000000001
 40
0.513437953395125
 40
0.513437953395125
 40
0.513437953395125
 40
0.513437953395125
 40
0.513437953395125
 40
0.5944000000000002
 40
0.5944000000000002
 40
0.5944000000000002
 40
0.5944000000000002
 40
0.5944000000000002
 40
0.6836320000000001
 40
0.6836320000000001
 40
0.6836320000000001
 40
0.6836320000000001
 40
0.6836320000000001
 40
0.7496280447665504
 40
0.7496280447665504
 40
0.7496280447665504
 40
0.7496280447665504
 40
0.7496280447665504
 40
0.888638464
 40
0.888638464
 40
0.888638464
 40
0.888638464
 40
0.888638464
 40
0.8951609920610535
 40
0.8951609920610535
 40
0.8951609920610535
 40
0.8951609920610535
 40
0.8951609920610535
 40
0.9398900800000001
 40
0.9398900800000001
 40
0.9398900800000001
 40
0.9398900800000001
 40
0.9398900800000001
 40
0.962149788752654
 40
0.962149788752654
 40
0.962149788752654
 40
0.962149788752654
 40
0.962149788752654
 40
0.962149788752654
 40
0.962149788752654
 40
0.962149788752654
 10
1392.511135692328
 20
1090.951175705137
 30
0.0
 10
1392.519702866061
 20
1090.91407375133
 30
0.0
 10
1392.528270101792
 20
1090.87697177739
 30
0.0
 10
1392.536837401093
 20
1090.839869782343
 30
0.0
 10
1392.545404765537
 20
1090.802767765264
 30
0.0
 10
1392.553972196691
 20
1090.765665725245
 30
0.0
 10
1392.862992061715
 20
1089.427436893224
 30
0.0
 10
1393.17210277439
 20
1088.089176028632
 30
0.0
 10
1393.472796543304
 20
1086.787952298175
 30
0.0
 10
1393.773702887111
 20
1085.486687678152
 30
0.0
 10
1394.074829299454
 20
1084.185663669552
 30
0.0
 10
1394.419191670735
 20
1082.699596225437
 30
0.0
 10
1394.764068017996
 20
1081.213829949149
 30
0.0
 10
1394.807090350507
 20
1081.028525141177
 30
0.0
 10
1394.850121318922
 20
1080.84322454167
 30
0.0
 10
1394.893161268387
 20
1080.657927833505
 30
0.0
 10
1395.159666694241
 20
1079.510832566615
 30
0.0
 10
1395.426544270004
 20
1078.363857969307
 30
0.0
 10
1395.650632736336
 20
1077.402161621467
 30
0.0
 10
1395.875106480431
 20
1076.440372392957
 30
0.0
 10
1396.100030848253
 20
1075.478408124625
 30
0.0
 10
1397.185197445708
 20
1070.846812629279
 30
0.0
 10
1398.283640319604
 20
1066.209656134401
 30
0.0
 10
1399.165523911032
 20
1062.531571862775
 30
0.0
 10
1400.061664522138
 20
1058.856201781557
 30
0.0
 10
1400.973455596183
 20
1055.202679548252
 30
0.0
 10
1401.926848802998
 20
1051.498580836269
 30
0.0
 10
1402.919581935718
 20
1047.814947286344
 30
0.0
 10
1402.939827825554
 20
1047.739892515565
 30
0.0
 10
1402.960090338398
 20
1047.664846129548
 30
0.0
 10
1402.980369621137
 20
1047.589808067416
 30
0.0
 10
1403.307747949867
 20
1046.379575159306
 30
0.0
 10
1403.639567498969
 20
1045.171474258365
 30
0.0
 10
1403.955246337463
 20
1044.039918382791
 30
0.0
 10
1404.275988433596
 20
1042.909652681301
 30
0.0
 10
1404.602524536007
 20
1041.78032187924
 30
0.0
 10
1405.31062857691
 20
1039.381498563365
 30
0.0
 10
1406.052661297012
 20
1036.986361822004
 30
0.0
 10
1406.456377347493
 20
1035.719236004276
 30
0.0
 10
1406.872270890357
 20
1034.453910874276
 30
0.0
 10
1407.30186684861
 20
1033.191618628371
 30
0.0
 10
1407.835243844135
 20
1031.684630537151
 30
0.0
 10
1408.392561208572
 20
1030.19069690237
 30
0.0
 10
1408.485741871523
 20
1029.943104946164
 30
0.0
 10
1408.57960414398
 20
1029.695931802257
 30
0.0
 10
1408.674158647728
 20
1029.449209887666
 30
0.0
 10
1409.423816092726
 20
1027.511369604305
 30
0.0
 10
1410.217601521223
 20
1025.605835369999
 30
0.0
 10
1410.947342787424
 20
1023.978834536087
 30
0.0
 10
1411.716818180589
 20
1022.402666700342
 30
0.0
 10
1412.527818172434
 20
1020.894737792784
 30
0.0
 10
1413.640264214807
 20
1019.034947675617
 30
0.0
 10
1414.819393330318
 20
1017.332550247011
 30
0.0
 10
1415.098526344837
 20
1016.943577842059
 30
0.0
 10
1415.381150269254
 20
1016.563707201669
 30
0.0
 10
1415.66715919179
 20
1016.193123018944
 30
0.0
 10
1416.387563984832
 20
1015.293664644516
 30
0.0
 10
1417.127245284361
 20
1014.453197969961
 30
0.0
 10
1417.576341605185
 20
1013.971631542321
 30
0.0
 10
1418.031245323674
 20
1013.511546889466
 30
0.0
 10
1418.491249069396
 20
1013.072744883313
 30
0.0
 10
1420.079930592523
 20
1011.642833091275
 30
0.0
 10
1421.710869178015
 20
1010.449791674277
 30
0.0
 10
1422.875740286274
 20
1009.715346993544
 30
0.0
 10
1424.04096114874
 20
1009.075587511528
 30
0.0
 10
1425.200460670173
 20
1008.512423767818
 30
0.0
 10
1427.628534685004
 20
1007.460095680275
 30
0.0
 10
1430.046552459875
 20
1006.631314695129
 30
0.0
 10
1431.31492705632
 20
1006.242294839263
 30
0.0
 10
1432.591154691244
 20
1005.886730078193
 30
0.0
 10
1433.883417249822
 20
1005.556183675122
 30
0.0
 10
1436.172044942729
 20
1005.013242419766
 30
0.0
 10
1438.547842411869
 20
1004.510753172028
 30
0.0
 10
1439.57577465807
 20
1004.302396950778
 30
0.0
 10
1440.623438616195
 20
1004.097658781437
 30
0.0
 10
1441.691718269014
 20
1003.895204671593
 30
0.0
 10
1445.073329233054
 20
1003.270198726525
 30
0.0
 10
1448.638622977378
 20
1002.649902117257
 30
0.0
 10
1451.128488660185
 20
1002.224327032062
 30
0.0
 10
1453.658501588367
 20
1001.791969109014
 30
0.0
 10
1456.182571692529
 20
1001.355035408895
 30
0.0
 10
1458.791126744784
 20
1000.897586980478
 30
0.0
 10
1461.361217010248
 20
1000.441377263422
 30
0.0
 10
1461.476326413911
 20
1000.420933371432
 30
0.0
 10
1461.591358286582
 20
1000.40049220674
 30
0.0
 10
1461.706312723094
 20
1000.38005386218
 30
0.0
 10
1462.608975651032
 20
1000.219479654545
 30
0.0
 10
1463.506895991287
 20
1000.059087889618
 30
0.0
 10
1464.287053672718
 20
999.9192663920699
 30
0.0
 10
1465.06415744031
 20
999.7795855840309
 30
0.0
 10
1465.838870293408
 20
999.6400026769118
 30
0.0
 10
1466.996627871717
 20
999.4310453249639
 30
0.0
 10
1468.152215278226
 20
999.2221947737999
 30
0.0
 10
1468.536051738206
 20
999.1528061181957
 30
0.0
 10
1468.919818249725
 20
999.0834279575429
 30
0.0
 10
1469.303592755829
 20
999.0140629425589
 30
0.0
 10
1469.687443777583
 20
998.9447170354467
 30
0.0
 10
1470.07142680494
 20
998.8754003706058
 30
0.0
  0
SPLINE
  5
55DF
102
{ACAD_REACTORS
330
5604
102
}
330
A
100
AcDbEntity
  8
HIDDEN
100
AcDbSpline
210
0.0
220
0.0
230
1.0
 70
     8
 71
     3
 72
    71
 73
    67
 74
     0
 42
0.000000001
 43
0.0000000001
 40
0.0
 40
0.0
 40
0.0
 40
0.0
 40
1.048046216112366
 40
2.096075222821359
 40
3.144060514367275
 40
4.19195689612943
 40
5.239690986970914
 40
6.287150681870852
 40
7.334176705963301
 40
8.380563344769893
 40
9.426074121026335
 40
10.47046857712895
 40
11.51352195319428
 40
12.55503425304622
 40
13.59483760471097
 40
14.6328012793612
 40
15.66883385108603
 40
16.70288248067375
 40
17.73492969826942
 40
18.76498834424216
 40
19.79309540333776
 40
20.81930581972611
 40
21.84368725920841
 40
22.86631590923188
 40
23.8872733386395
 40
24.90664411801808
 40
25.92451389997986
 40
26.94096800378966
 40
27.95609045322554
 40
28.96996337217037
 40
29.9826665136287
 40
30.99427713598717
 40
32.00487011012548
 40
33.01451800355844
 40
34.02329122093403
 40
35.03125855951109
 40
36.03848863366671
 40
37.04505246161539
 40
38.05102541056933
 40
39.05648990859569
 40
40.06152549707755
 40
41.06620546392412
 40
42.07060150305713
 40
43.07478772611374
 40
44.07883824237948
 40
45.08282040046434
 40
46.0867917705994
 40
47.09080247608791
 40
48.0948961953283
 40
49.0991100799674
 40
50.10347446084184
 40
51.1080123937904
 40
52.1127390572351
 40
53.11766121708875
 40
54.12277722400393
 40
55.12807804156212
 40
56.13355007811741
 40
57.13917883987779
 40
58.14495021060347
 40
59.15084965870972
 40
60.15686163143633
 40
61.16296955748302
 40
62.16915588476726
 40
63.17540215021207
 40
64.18168906269919
 40
65.1879965796835
 40
65.1879965796835
 40
65.1879965796835
 40
65.1879965796835
 10
1470.071425891356
 20
998.8753953097548
 30
0.0
 10
1470.071454651593
 20
998.8753901063469
 30
0.0
 10
1470.079105698757
 20
998.8747695158888
 30
0.0
 10
1470.11371225029
 20
998.8719704435789
 30
0.0
 10
1470.171311392629
 20
998.8673781697289
 30
0.0
 10
1470.25188879456
 20
998.8610676475578
 30
0.0
 10
1470.35539396048
 20
998.8531452199318
 30
0.0
 10
1470.481793398356
 20
998.8437446907628
 30
0.0
 10
1470.631071476148
 20
998.8330292051828
 30
0.0
 10
1470.803241443864
 20
998.8211818259149
 30
0.0
 10
1470.99833904561
 20
998.8083892013087
 30
0.0
 10
1471.216392448745
 20
998.7948286898318
 30
0.0
 10
1471.457403513543
 20
998.7806686971019
 30
0.0
 10
1471.72135346187
 20
998.7660674695219
 30
0.0
 10
1472.008199510498
 20
998.7511712685009
 30
0.0
 10
1472.317872309925
 20
998.7361128139969
 30
0.0
 10
1472.650273187972
 20
998.7210101520109
 30
0.0
 10
1473.005272321576
 20
998.7059661834357
 30
0.0
 10
1473.382708140479
 20
998.6910689362628
 30
0.0
 10
1473.782387995474
 20
998.6763926146377
 30
0.0
 10
1474.204090615726
 20
998.6619993000209
 30
0.0
 10
1474.647570015438
 20
998.6479405407808
 30
0.0
 10
1475.112558560059
 20
998.6342587906329
 30
0.0
 10
1475.598769818781
 20
998.6209886343347
 30
0.0
 10
1476.105900466783
 20
998.6081577244108
 30
0.0
 10
1476.633631437374
 20
998.5957878038748
 30
0.0
 10
1477.181629435936
 20
998.5838957018418
 30
0.0
 10
1477.749548105443
 20
998.5724942537929
 30
0.0
 10
1478.337029069092
 20
998.5615930590288
 30
0.0
 10
1478.943702216704
 20
998.5511993524999
 30
0.0
 10
1479.569186896259
 20
998.5413189643368
 30
0.0
 10
1480.213092547971
 20
998.5319569532949
 30
0.0
 10
1480.875018683545
 20
998.5231184334118
 30
0.0
 10
1481.554555316309
 20
998.5148101012308
 30
0.0
 10
1482.251284612903
 20
998.5070422275458
 30
0.0
 10
1482.964782037654
 20
998.4998311688689
 30
0.0
 10
1483.694621203531
 20
998.4931980534748
 30
0.0
 10
1484.440362276879
 20
998.4871674130918
 30
0.0
 10
1485.201572297416
 20
998.4817512006848
 30
0.0
 10
1485.977762023204
 20
998.4769220267258
 30
0.0
 10
1486.76842239867
 20
998.4726600029608
 30
0.0
 10
1487.573056786509
 20
998.4689662567548
 30
0.0
 10
1488.391176787764
 20
998.4658541097087
 30
0.0
 10
1489.222282750007
 20
998.4633189419037
 30
0.0
 10
1490.065845445503
 20
998.4613233041748
 30
0.0
 10
1490.92130394493
 20
998.4598009623587
 30
0.0
 10
1491.788097795367
 20
998.4587084259178
 30
0.0
 10
1492.665673390626
 20
998.4580078264407
 30
0.0
 10
1493.553468421617
 20
998.4576599619909
 30
0.0
 10
1494.450916112246
 20
998.4576250875398
 30
0.0
 10
1495.357444475258
 20
998.4578619486058
 30
0.0
 10
1496.272477174096
 20
998.4583272073578
 30
0.0
 10
1497.195434116779
 20
998.4589743976028
 30
0.0
 10
1498.125732807929
 20
998.4597533534179
 30
0.0
 10
1499.062790783092
 20
998.4606114390699
 30
0.0
 10
1500.006028926748
 20
998.4614961061818
 30
0.0
 10
1500.954875768758
 20
998.4623638186308
 30
0.0
 10
1501.908769502382
 20
998.4631913450937
 30
0.0
 10
1502.867153194346
 20
998.4639697764649
 30
0.0
 10
1503.829468734219
 20
998.4646906541898
 30
0.0
 10
1504.795157984132
 20
998.4653418539599
 30
0.0
 10
1505.763655454676
 20
998.4659093891898
 30
0.0
 10
1506.734418691622
 20
998.4663793476939
 30
0.0
 10
1507.70681587904
 20
998.4667321304439
 30
0.0
 10
1508.680546009343
 20
998.4669671059598
 30
0.0
 10
1509.32956016001
 20
998.4669973873538
 30
0.0
 10
1509.654549116005
 20
998.4670132941828
 30
0.0
  0
SPLINE
  5
55E0
330
A
100
AcDbEntity
  8
HIDDEN
100
AcDbSpline
210
0.0
220
0.0
230
1.0
 70
     8
 71
     3
 72
    71
 73
    67
 74
     0
 42
0.000000001
 43
0.0000000001
 40
0.0
 40
0.0
 40
0.0
 40
0.0
 40
1.048046216112367
 40
2.096075222821359
 40
3.144060514367276
 40
4.191956896129431
 40
5.239690986970915
 40
6.287150681870853
 40
7.334176705963304
 40
8.380563344769895
 40
9.426074121026339
 40
10.47046857712895
 40
11.51352195319429
 40
12.55503425304622
 40
13.59483760471097
 40
14.6328012793612
 40
15.66883385108603
 40
16.70288248067375
 40
17.73492969826942
 40
18.76498834424216
 40
19.79309540333776
 40
20.81930581972611
 40
21.84368725920841
 40
22.86631590923188
 40
23.8872733386395
 40
24.90664411801808
 40
25.92451389997986
 40
26.94096800378966
 40
27.95609045322555
 40
28.96996337217038
 40
29.9826665136287
 40
30.99427713598718
 40
32.00487011012549
 40
33.01451800355844
 40
34.02329122093403
 40
35.03125855951109
 40
36.03848863366671
 40
37.04505246161539
 40
38.05102541056933
 40
39.05648990859569
 40
40.06152549707755
 40
41.06620546392412
 40
42.07060150305713
 40
43.07478772611374
 40
44.07883824237949
 40
45.08282040046434
 40
46.08679177059941
 40
47.09080247608792
 40
48.09489619532832
 40
49.09911007996742
 40
50.10347446084186
 40
51.10801239379042
 40
52.11273905723512
 40
53.11766121708877
 40
54.12277722400396
 40
55.12807804156215
 40
56.13355007811744
 40
57.13917883987781
 40
58.1449502106035
 40
59.15084965870975
 40
60.15686163143636
 40
61.16296955748305
 40
62.16915588476729
 40
63.1754021502121
 40
64.18168906269922
 40
65.18799657968353
 40
65.18799657968353
 40
65.18799657968353
 40
65.18799657968353
 10
1549.237668870845
 20
998.8753953097619
 30
0.0
 10
1549.237640138924
 20
998.8753901063469
 30
0.0
 10
1549.229989148369
 20
998.8747695158888
 30
0.0
 10
1549.195382681725
 20
998.8719704435789
 30
0.0
 10
1549.137783624171
 20
998.8673781697289
 30
0.0
 10
1549.057206306895
 20
998.8610676475578
 30
0.0
 10
1548.95370122545
 20
998.8531452199318
 30
0.0
 10
1548.827301871809
 20
998.8437446907628
 30
0.0
 10
1548.678023877982
 20
998.8330292051828
 30
0.0
 10
1548.505853993897
 20
998.8211818259149
 30
0.0
 10
1548.31075647541
 20
998.8083892013087
 30
0.0
 10
1548.092703155117
 20
998.7948286898318
 30
0.0
 10
1547.85169217269
 20
998.7806686971019
 30
0.0
 10
1547.587742306212
 20
998.7660674695219
 30
0.0
 10
1547.300896338862
 20
998.7511712685009
 30
0.0
 10
1546.991223620089
 20
998.7361128139969
 30
0.0
 10
1546.658822822012
 20
998.7210101520109
 30
0.0
 10
1546.303823767658
 20
998.7059661834357
 30
0.0
 10
1545.926388027224
 20
998.6910689362628
 30
0.0
 10
1545.526708249866
 20
998.6763926146377
 30
0.0
 10
1545.105005706375
 20
998.6619993000209
 30
0.0
 10
1544.661526382485
 20
998.6479405407808
 30
0.0
 10
1544.19653791272
 20
998.6342587906329
 30
0.0
 10
1543.710326727828
 20
998.6209886343347
 30
0.0
 10
1543.203196152578
 20
998.6081577244108
 30
0.0
 10
1542.675465253623
 20
998.5957878038748
 30
0.0
 10
1542.127467325544
 20
998.5838957018418
 30
0.0
 10
1541.559548725314
 20
998.5724942537929
 30
0.0
 10
1540.972067829679
 20
998.5615930590288
 30
0.0
 10
1540.365394748811
 20
998.5511993524999
 30
0.0
 10
1539.739910134651
 20
998.5413189643368
 30
0.0
 10
1539.096004546968
 20
998.5319569532949
 30
0.0
 10
1538.43407847401
 20
998.5231184334118
 30
0.0
 10
1537.75454190241
 20
998.5148101012308
 30
0.0
 10
1537.057812665492
 20
998.5070422275458
 30
0.0
 10
1536.34431529889
 20
998.4998311688689
 30
0.0
 10
1535.614476189591
 20
998.4931980534748
 30
0.0
 10
1534.86873517122
 20
998.4871674130918
 30
0.0
 10
1534.107525204016
 20
998.4817512006848
 30
0.0
 10
1533.331335529887
 20
998.4769220267258
 30
0.0
 10
1532.54067520437
 20
998.4726600029608
 30
0.0
 10
1531.736040864751
 20
998.4689662567548
 30
0.0
 10
1530.917920909953
 20
998.4658541097087
 30
0.0
 10
1530.086814992347
 20
998.4633189419037
 30
0.0
 10
1529.243252339671
 20
998.4613233041748
 30
0.0
 10
1528.387793881213
 20
998.4598009623587
 30
0.0
 10
1527.52100006987
 20
998.4587084259178
 30
0.0
 10
1526.643424511806
 20
998.4580078264407
 30
0.0
 10
1525.755629516095
 20
998.4576599619909
 30
0.0
 10
1524.858181858805
 20
998.4576250875398
 30
0.0
 10
1523.951653527188
 20
998.4578619486058
 30
0.0
 10
1523.036620857782
 20
998.4583272073578
 30
0.0
 10
1522.113663942536
 20
998.4589743976028
 30
0.0
 10
1521.183365276839
 20
998.4597533534179
 30
0.0
 10
1520.246307325133
 20
998.4606114390699
 30
0.0
 10
1519.303069202927
 20
998.4614961061818
 30
0.0
 10
1518.354222380358
 20
998.4623638186308
 30
0.0
 10
1517.400328664151
 20
998.4631913450937
 30
0.0
 10
1516.441944987585
 20
998.4639697764649
 30
0.0
 10
1515.47962946107
 20
998.4646906541898
 30
0.0
 10
1514.513940222473
 20
998.4653418539599
 30
0.0
 10
1513.54544276119
 20
998.4659093891898
 30
0.0
 10
1512.57467953146
 20
998.4663793476939
 30
0.0
 10
1511.602282349185
 20
998.4667321304439
 30
0.0
 10
1510.62855222199
 20
998.4669671059598
 30
0.0
 10
1509.979538071994
 20
998.4669973873538
 30
0.0
 10
1509.654549116005
 20
998.4670132941828
 30
0.0
  0
ARC
  5
55E1
330
A
100
AcDbEntity
  8
HIDDEN
100
AcDbCircle
 10
1552.35816862103
 20
981.5892400020388
 30
0.0
 40
17.56555390568731
100
AcDbArc
 50
100.2328394949214
 51
130.0000000000607
  0
ARC
  5
55E2
330
A
100
AcDbEntity
  8
HIDDEN
100
AcDbCircle
 10
1466.95091883085
 20
981.5892479925748
 30
0.0
 40
17.56555248356539
100
AcDbArc
 50
49.99999999994458
 51
79.76716291505417
  0
LINE
  5
55E3
330
A
100
AcDbEntity
  8
HIDDEN
100
AcDbLine
 10
1531.654547381097
 20
976.2754900932708
 30
0.0
 11
1487.654547381097
 21
976.2754900932708
 31
0.0
  0
LINE
  5
55E4
330
A
100
AcDbEntity
  8
HIDDEN
100
AcDbLine
 10
1486.41464336065
 20
988.1874441714679
 30
0.0
 11
1532.894451401544
 21
988.1874441714679
 31
0.0
  0
ARC
  5
55E5
330
A
100
AcDbEntity
  8
MODEL
100
AcDbCircle
 10
1610.468794353625
 20
973.2755093091828
 30
0.0
 40
0.9999999999999998
100
AcDbArc
 50
270.0
 51
339.9999999995533
  0
ARC
  5
55E6
330
A
100
AcDbEntity
  8
MODEL
100
AcDbCircle
 10
1408.840300408569
 20
973.2755093091838
 30
0.0
 40
1.0
100
AcDbArc
 50
200.0000000004344
 51
270.0
  0
LINE
  5
55E7
330
A
100
AcDbEntity
  8
MODEL
100
AcDbLine
 10
1610.468794353625
 20
972.2755093091828
 30
0.0
 11
1600.483299407305
 21
972.2755093091828
 31
0.0
  0
LINE
  5
55E8
330
A
100
AcDbEntity
  8
MODEL
100
AcDbLine
 10
1418.825795354895
 20
972.2755093091838
 30
0.0
 11
1408.840300408569
 21
972.2755093091838
 31
0.0
  0
ARC
  5
55E9
330
A
100
AcDbEntity
  8
MODEL
100
AcDbCircle
 10
1600.483299407305
 20
974.2755093091828
 30
0.0
 40
1.999999999999993
100
AcDbArc
 50
212.5095895033207
 51
269.9999999995831
  0
ARC
  5
55EA
330
A
100
AcDbEntity
  8
MODEL
100
AcDbCircle
 10
1418.825775557734
 20
974.2755589311588
 30
0.0
 40
2.000049622073372
100
AcDbArc
 50
270.0005671328221
 51
327.4896555601939
  0
LINE
  5
55EB
330
A
100
AcDbEntity
  8
MODEL
100
AcDbLine
 10
1634.713952941899
 20
973.2754900932698
 30
0.0
 11
1626.871700036957
 21
973.2754900932698
 31
0.0
  0
LINE
  5
55EC
330
A
100
AcDbEntity
  8
MODEL
100
AcDbLine
 10
1392.437394725237
 20
973.2754900932708
 30
0.0
 11
1384.595141820297
 21
973.2754900932708
 31
0.0
  0
ARC
  5
55ED
330
A
100
AcDbEntity
  8
MODEL
100
AcDbCircle
 10
1384.595141820297
 20
975.2754900932708
 30
0.0
 40
1.999999999999998
100
AcDbArc
 50
179.0000000001285
 51
269.9999999995831
  0
ARC
  5
55EE
330
A
100
AcDbEntity
  8
MODEL
100
AcDbCircle
 10
1634.713952941899
 20
975.2754900932698
 30
0.0
 40
1.999999999999998
100
AcDbArc
 50
270.0
 51
0.9999999998715058
  0
LINE
  5
55EF
330
A
100
AcDbEntity
  8
MODEL
100
AcDbLine
 10
1387.602639170443
 20
1093.2762093895
 30
0.0
 11
1389.588051622959
 21
1093.2762093895
 31
0.0
  0
LINE
  5
55F0
330
A
100
AcDbEntity
  8
MODEL
100
AcDbLine
 10
1629.721043139236
 20
1093.2762093895
 30
0.0
 11
1631.706455591752
 21
1093.2762093895
 31
0.0
  0
LINE
  5
55F1
330
A
100
AcDbEntity
  8
MODEL
100
AcDbLine
 10
1382.595446429978
 20
975.3103949061408
 30
0.0
 11
1384.603096084973
 21
1090.328566608812
 31
0.0
  0
LINE
  5
55F2
330
A
100
AcDbEntity
  8
MODEL
100
AcDbLine
 10
1636.713648332216
 20
975.3103949061478
 30
0.0
 11
1634.705998677221
 21
1090.328566608812
 31
0.0
  0
ARC
  5
55F3
330
A
100
AcDbEntity
  8
MODEL
100
AcDbCircle
 10
1631.706455591752
 20
1090.2762093895
 30
0.0
 40
3.0
100
AcDbArc
 50
1.0000000002884
 51
90.0
  0
ARC
  5
55F4
330
A
100
AcDbEntity
  8
MODEL
100
AcDbCircle
 10
1387.602639170443
 20
1090.2762093895
 30
0.0
 40
3.0
100
AcDbArc
 50
90.0
 51
178.9999999997116
  0
LINE
  5
55F5
330
A
100
AcDbEntity
  8
HIDDEN
100
AcDbLine
 10
1541.067248213176
 20
995.0452349617988
 30
0.0
 11
1532.894451401544
 21
988.1874441714679
 31
0.0
  0
LINE
  5
55F6
330
A
100
AcDbEntity
  8
HIDDEN
100
AcDbLine
 10
1486.41464336065
 20
988.1874441714679
 30
0.0
 11
1478.241838324588
 21
995.0452418629138
 31
0.0
  0
LINE
  5
55F7
330
A
100
AcDbEntity
  8
HIDDEN
100
AcDbLine
 10
1531.654547381097
 20
976.2754900932708
 30
0.0
 11
1531.823271145132
 21
985.9416680614228
 31
0.0
  0
LINE
  5
55F8
330
A
100
AcDbEntity
  8
HIDDEN
100
AcDbLine
 10
1487.485823617061
 20
985.9416680614228
 30
0.0
 11
1487.654547381097
 21
976.2754900932708
 31
0.0
  0
ARC
  5
55F9
330
A
100
AcDbEntity
  8
HIDDEN
100
AcDbCircle
 10
1484.486279282026
 20
985.8893102461008
 30
0.0
 40
3.000001259778218
100
AcDbArc
 50
1.000010964724924
 51
49.99998903541926
  0
ARC
  5
55FA
330
A
100
AcDbEntity
  8
HIDDEN
100
AcDbCircle
 10
1534.822815480168
 20
985.8893102461008
 30
0.0
 40
3.000001259777879
100
AcDbArc
 50
130.0000109650856
 51
178.999989035275
  0
SPLINE
  5
55FB
330
A
100
AcDbEntity
  8
MODEL
100
AcDbSpline
210
0.0
220
0.0
230
1.0
 70
     8
 71
     3
 72
     9
 73
     5
 74
     0
 42
0.000000001
 43
0.0000000001
 40
0.0
 40
0.0
 40
0.0
 40
0.0
 40
0.4845870352257243
 40
1.047974443705769
 40
1.047974443705769
 40
1.047974443705769
 40
1.047974443705769
 10
1407.913612045121
 20
972.8996835643989
 30
0.0
 10
1407.888715866725
 20
972.9610705515588
 30
0.0
 10
1407.818249656877
 20
973.0991881728628
 30
0.0
 10
1407.721340770301
 20
973.2208271902488
 30
0.0
 10
1407.668542869098
 20
973.2754869541458
 30
0.0
  0
SPLINE
  5
55FC
330
A
100
AcDbEntity
  8
MODEL
100
AcDbSpline
210
0.0
220
0.0
230
1.0
 70
     8
 71
     3
 72
     9
 73
     5
 74
     0
 42
0.000000001
 43
0.0000000001
 40
0.0
 40
0.0
 40
0.0
 40
0.0
 40
0.4845878777916589
 40
1.04797376917033
 40
1.04797376917033
 40
1.04797376917033
 40
1.04797376917033
 10
1611.395488574839
 20
972.8996835319048
 30
0.0
 10
1611.420384966782
 20
972.9610709783008
 30
0.0
 10
1611.490851549097
 20
973.0991889617288
 30
0.0
 10
1611.587760134782
 20
973.2208274383008
 30
0.0
 10
1611.640557824378
 20
973.2754869541458
 30
0.0
  0
DIMENSION
  5
55FD
330
A
100
AcDbEntity
  8
Dim
 48
5.0
100
AcDbDimension
  2
*D63
 10
1722.891128849452
 20
1093.276200737324
 30
0.0
 11
1722.891128849452
 21
1032.775845434556
 31
0.0
 70
   160
  1
120
 71
     5
 42
121.0007106055349
 73
     0
 74
     0
 75
     0
  3
tform線あり
100
AcDbAlignedDimension
 13
1633.105675858416
 23
972.2754901317888
 33
0.0
 14
1633.105675858416
 24
1093.276200737324
 34
0.0
 50
-90.00000000000004
100
AcDbRotatedDimension
  0
DIMENSION
  5
55FE
330
A
100
AcDbEntity
  8
Dim
 48
5.0
100
AcDbDimension
  2
*D64
 10
705.9751689509494
 20
1879.7883786
 30
0.0
 11
510.2823325411441
 21
1902.00468719375
 31
0.0
 70
    32
  1
390
 71
     5
 42
391.3856728196106
 73
     0
 74
     0
 75
     0
 52
-270.0
  3
tform線あり
100
AcDbAlignedDimension
 13
314.5894961313388
 23
1995.395925372033
 33
0.0
 14
705.9751689509494
 24
1995.395920850437
 34
0.0
 50
180.0
100
AcDbRotatedDimension
  0
MTEXT
  5
55FF
330
A
100
AcDbEntity
  8
Dim
390
1D
100
AcDbMText
 10
204.6183512981415
 20
1719.441850919345
 30
17.49760566173007
 40
24.0
 41
973.1267649018587
 46
159.4349747416063
 71
     1
 72
     1
  1
＝φ30もしくはφ35の水栓取付用穴あけ加工を承ります。\P  必要な場合、ご注文の際にご指示ください。
  7
ＭＳ ゴシック
 73
     1
 44
1.043768984567712
1001
ACAD
1000
ACAD_MTEXT_DEFINED_HEIGHT_BEGIN
1070
    46
1040
159.4349747416063
1000
ACAD_MTEXT_DEFINED_HEIGHT_END
  0
CIRCLE
  5
5600
330
A
100
AcDbEntity
  8
HIDDEN
  6
HIDDEN
100
AcDbCircle
 10
174.9838117860782
 20
1707.665708817248
 30
0.0
 40
17.50000000000182
  0
DIMENSION
  5
5601
330
A
100
AcDbEntity
  8
Dim
100
AcDbDimension
  2
*D65
 10
895.8733721349424
 20
1990.180999667576
 30
0.0
 11
873.6570635411924
 21
2107.680999667576
 31
0.0
 70
    32
  1
230
 71
     5
 42
235.0
 73
     0
 74
     0
 75
     0
 52
-89.99999999999999
  3
tform線あり
100
AcDbAlignedDimension
 13
687.2850997416017
 23
2225.180999667576
 33
0.0
 14
687.2850997416017
 24
1990.180999667576
 34
0.0
 50
-89.99999999999999
100
AcDbRotatedDimension
  0
DIMENSION
  5
5602
102
{ACAD_REACTORS
330
5604
102
}
102
{ACAD_XDICTIONARY
360
5603
102
}
330
A
100
AcDbEntity
  8
Dim
100
AcDbDimension
  2
*D66
 10
1509.654556033279
 20
1093.276200737324
 30
0.0
 11
1509.654556033279
 21
1190.208134819355
 31
0.0
 70
   160
  1
95 (深さ)
 71
     5
 42
94.8091874431409
 73
     0
 74
     1
 75
     1
  3
tform線あり
100
AcDbAlignedDimension
 13
1509.654549116005
 23
998.4670132941828
 33
0.0
 14
1509.654556033279
 24
1093.276200737324
 34
0.0
 50
-90.00000000000001
100
AcDbRotatedDimension
  0
LINE
  5
5605
330
A
100
AcDbEntity
  8
HIDDEN
  6
CENTER
 48
0.25
100
AcDbLine
 10
742.3500382126385
 20
1052.962304081411
 30
0.0
 11
775.1119869484355
 21
1052.962304081411
 31
0.0
  0
LINE
  5
5606
102
{ACAD_REACTORS
330
5610
102
}
330
A
100
AcDbEntity
  8
HIDDEN
  6
CENTER
 48
0.25
100
AcDbLine
 10
758.7310125805379
 20
1069.343278449309
 30
0.0
 11
758.7310125805379
 21
1036.581329713512
 31
0.0
  0
LINE
  5
5607
102
{ACAD_REACTORS
330
5610
102
}
330
A
100
AcDbEntity
  8
HIDDEN
  6
CENTER
 48
0.25
100
AcDbLine
 10
341.1738793543186
 20
1016.344891266506
 30
0.0
 11
341.1738793543186
 21
983.5829425307078
 31
0.0
  0
LINE
  5
5608
330
A
100
AcDbEntity
  8
HIDDEN
  6
CENTER
 48
0.25
100
AcDbLine
 10
324.7929049864197
 20
999.9639168986068
 30
0.0
 11
357.5548537222166
 21
999.9639168986068
 31
0.0
  0
LINE
  5
5609
330
A
100
AcDbEntity
  8
Dim
100
AcDbLine
 10
753.6747466173638
 20
1061.592404450025
 30
0.0
 11
542.742172079999
 21
1232.97014106
 31
0.0
  0
LINE
  5
560A
330
A
100
AcDbEntity
  8
Dim
100
AcDbLine
 10
542.742172079999
 20
1232.97014106
 30
0.0
 11
348.1200714015777
 21
1007.15859142726
 31
0.0
  0
MTEXT
  5
560B
330
A
100
AcDbEntity
  8
Dim
390
1D
100
AcDbMText
 10
451.8156608413951
 20
1270.858083866495
 30
0.0
 40
24.0
 41
0.0
 46
26.808
 71
     1
 72
     1
  1
{壁取付ボルト位置(2ヶ所)}
  7
ＭＳ ゴシック
 73
     1
 44
0.7828267384257843
1001
ACAD
1000
ACAD_MTEXT_DEFINED_HEIGHT_BEGIN
1070
    46
1040
26.808
1000
ACAD_MTEXT_DEFINED_HEIGHT_END
  0
DIMENSION
  5
560C
330
A
100
AcDbEntity
  8
Dim
100
AcDbDimension
  2
*D67
 10
748.4675527385866
 20
2291.296786919999
 30
0.0
 11
778.4675527385866
 21
2313.513095513749
 31
0.0
 70
    32
 71
     5
 42
60.00000000000001
 73
     0
 74
     0
 75
     0
 52
270.0
  3
tform線あり
100
AcDbAlignedDimension
 13
808.4675527385866
 23
2229.116386910101
 33
0.0
 14
748.4675527385866
 24
2129.098461927944
 34
0.0
 50
-180.0
100
AcDbRotatedDimension
  0
DIMENSION
  5
560D
330
A
100
AcDbEntity
  8
Dim
 48
5.0
100
AcDbDimension
  2
*D68
 10
808.4675527385907
 20
1144.88194948026
 30
0.0
 11
783.5992826595643
 21
1144.88194948026
 31
0.0
 70
   160
  1
50
 71
     5
 42
49.73654015805278
 73
     0
 74
     0
 75
     0
 52
-270.0
  3
tform線あり
100
AcDbAlignedDimension
 13
758.7310125805379
 23
1069.343278449309
 33
0.0
 14
808.4675527385907
 24
986.5042529819958
 34
0.0
 50
180.0
100
AcDbRotatedDimension
  0
DIMENSION
  5
560E
102
{ACAD_REACTORS
330
5610
102
}
102
{ACAD_XDICTIONARY
360
560F
102
}
330
A
100
AcDbEntity
  8
Dim
100
AcDbDimension
  2
*D69
 10
341.1738793543186
 20
1144.88194948026
 30
0.0
 11
549.9524459674283
 21
1167.09825807401
 31
0.0
 70
    32
  1
415
 71
     5
 42
417.5571332262193
 73
     0
 74
     0
 75
     0
 52
270.0
  3
tform線あり
100
AcDbAlignedDimension
 13
758.7310125805379
 23
1069.343278449309
 33
0.0
 14
341.1738793543186
 24
1016.344891266506
 34
0.0
 50
-180.0
100
AcDbRotatedDimension
  0
DIMENSION
  5
5611
102
{ACAD_REACTORS
330
5613
102
}
102
{ACAD_XDICTIONARY
360
5612
102
}
330
A
100
AcDbEntity
  8
Dim
100
AcDbDimension
  2
*D70
 10
510.1015940802017
 20
884.2768781202597
 30
0.0
 11
659.2845733672066
 21
906.4931867140097
 31
0.0
 70
    32
  1
300
 71
     5
 42
298.3659585740097
 73
     0
 74
     0
 75
     0
 52
270.0
  3
tform線あり
100
AcDbAlignedDimension
 13
808.4675526542114
 23
975.3103571451238
 33
0.0
 14
510.1015940802017
 24
976.2754784162328
 34
0.0
 50
-180.0
100
AcDbRotatedDimension
  0
DIMENSION
  5
5614
330
A
100
AcDbEntity
  8
Dim
 48
5.0
100
AcDbDimension
  2
*D71
 10
304.3493508363608
 20
1144.88194948026
 30
0.0
 11
322.7616150953397
 21
1167.09825807401
 31
0.0
 70
    32
  1
35
 71
     5
 42
36.82452851795777
 73
     0
 74
     1
 75
     1
 52
-270.0
  3
tform線あり
100
AcDbAlignedDimension
 13
341.1738793543186
 23
1102.634202525225
 33
0.0
 14
304.3493508363608
 24
1012.459499329773
 34
0.0
 50
180.0
100
AcDbRotatedDimension
  0
CIRCLE
  5
5615
330
A
100
AcDbEntity
  8
HIDDEN
100
AcDbCircle
 10
1376.147887153912
 20
2108.056372087735
 30
0.0
 40
22.0
  0
LINE
  5
5616
330
A
100
AcDbEntity
  8
HIDDEN
100
AcDbLine
 10
1176.394730081
 20
2235.115473081035
 30
0.0
 11
1668.514759641357
 21
2235.115473081036
 31
0.0
  0
ARC
  5
5617
330
A
100
AcDbEntity
  8
HIDDEN
100
AcDbCircle
 10
1176.395309943893
 20
2229.115807047203
 30
0.0
 40
5.999666061853158
100
AcDbArc
 50
90.00553759087359
 51
179.9944624087964
  0
LINE
  5
5618
330
A
100
AcDbEntity
  8
HIDDEN
100
AcDbLine
 10
1170.395643910062
 20
2229.116386910098
 30
0.0
 11
1170.395643910063
 21
1986.99635734974
 31
0.0
  0
ARC
  5
5619
330
A
100
AcDbEntity
  8
HIDDEN
100
AcDbCircle
 10
1176.395309941739
 20
1986.996937210478
 30
0.0
 40
5.999666059697816
100
AcDbArc
 50
180.0055375706123
 51
269.9944624295528
  0
LINE
  5
561A
330
A
100
AcDbEntity
  8
HIDDEN
100
AcDbLine
 10
1176.394730081002
 20
1980.997271178802
 30
0.0
 11
1668.514759641357
 21
1980.997271178802
 31
0.0
  0
ARC
  5
561B
330
A
100
AcDbEntity
  8
HIDDEN
100
AcDbCircle
 10
1668.514179780619
 20
1986.996937210478
 30
0.0
 40
5.999666059696018
100
AcDbArc
 50
270.0055375704472
 51
359.994462429644
  0
LINE
  5
561C
330
A
100
AcDbEntity
  8
HIDDEN
100
AcDbLine
 10
1674.513845812294
 20
1986.996357349741
 30
0.0
 11
1674.513845812294
 21
2229.116386910098
 31
0.0
  0
ARC
  5
561D
330
A
100
AcDbEntity
  8
HIDDEN
100
AcDbCircle
 10
1668.514179778464
 20
2229.115807047204
 30
0.0
 40
5.999666061853847
100
AcDbArc
 50
0.0055375909864889
 51
89.99446240870951
  0
CIRCLE
  5
561E
330
A
100
AcDbEntity
  8
HIDDEN
100
AcDbCircle
 10
1615.67960136863
 20
2108.056372087735
 30
0.0
 40
17.50000000000182
  0
SPLINE
  5
561F
330
A
100
AcDbEntity
  8
HIDDEN
100
AcDbSpline
210
0.0
220
0.0
230
1.0
 70
     8
 71
     3
 72
    51
 73
    47
 74
     0
 42
0.000000001
 43
0.0000000001
 40
0.0
 40
0.0
 40
0.0
 40
0.0
 40
28.4381838352643
 40
40.62597968125363
 40
58.907672561141
 40
68.04852258844639
 40
77.18937539291349
 40
84.23086381966257
 40
91.27235407826556
 40
93.03272669919481
 40
94.79309885956688
 40
96.11337755007217
 40
96.99360242160454
 40
98.53473509933664
 40
99.4167260021825
 40
100.5223878370154
 40
102.0812986583545
 40
104.1193686664176
 40
106.2888696151946
 40
109.1220250021505
 40
112.4568948290564
 40
115.2085955355019
 40
119.3399032378954
 40
121.9992456641671
 40
123.7465285371186
 40
125.521016439645
 40
127.0587867155644
 40
128.3413220714027
 40
130.6055358109433
 40
131.5769633649311
 40
133.2147259761676
 40
133.8943193902401
 40
134.3411853637483
 40
137.0761531049319
 40
139.8190363134899
 40
143.1021209670491
 40
145.2892550397468
 40
151.9202140573486
 40
158.5506764570794
 40
168.4956750114326
 40
178.4399277061218
 40
193.3571385248742
 40
208.2728435135775
 40
230.648588705349
 40
253.0225022849356
 40
308.3675153824091
 40
308.3675153824091
 40
308.3675153824091
 40
308.3675153824091
 10
1180.636143454319
 20
2108.056367560743
 30
0.0
 10
1180.636143454319
 20
2117.536361438322
 30
0.0
 10
1180.634783334488
 20
2131.079164472918
 30
0.0
 10
1180.629917835218
 20
2150.716155523194
 30
0.0
 10
1180.625073474945
 20
2163.92033849218
 30
0.0
 10
1180.619112378907
 20
2176.108732531513
 30
0.0
 10
1180.614258182661
 20
2184.550364808607
 30
0.0
 10
1180.609131941663
 20
2192.29165134681
 30
0.0
 10
1180.605325551898
 20
2197.574053905213
 30
0.0
 10
1180.602401574139
 20
2201.093427876094
 30
0.0
 10
1180.600905833683
 20
2202.709318177154
 30
0.0
 10
1180.599297082056
 20
2204.019258048865
 30
0.0
 10
1180.60598133932
 20
2205.228631852807
 30
0.0
 10
1180.62972154393
 20
2206.266814280802
 30
0.0
 10
1180.691193565388
 20
2207.347610436712
 30
0.0
 10
1180.789127769884
 20
2208.413611128223
 30
0.0
 10
1180.994406499169
 20
2209.795147073659
 30
0.0
 10
1181.387656942763
 20
2211.441410823579
 30
0.0
 10
1182.080601710277
 20
2213.382327639135
 30
0.0
 10
1183.192606673558
 20
2215.569633535342
 30
0.0
 10
1184.727415535479
 20
2217.732064616234
 30
0.0
 10
1186.809562978455
 20
2219.964697788222
 30
0.0
 10
1189.040991772974
 20
2221.754214655772
 30
0.0
 10
1191.221706544541
 20
2223.032883282753
 30
0.0
 10
1192.865255287401
 20
2223.783653487177
 30
0.0
 10
1194.244558995841
 20
2224.27573617896
 30
0.0
 10
1195.52214812845
 20
2224.615749758082
 30
0.0
 10
1196.96168256561
 20
2224.896091080357
 30
0.0
 10
1198.277151142819
 20
2225.047275937023
 30
0.0
 10
1199.749084352396
 20
2225.140628270684
 30
0.0
 10
1200.77354001781
 20
2225.173509001728
 30
0.0
 10
1201.656030836003
 20
2225.188170954633
 30
0.0
 10
1202.901356176936
 20
2225.202071011876
 30
0.0
 10
1204.859650257179
 20
2225.203879940876
 30
0.0
 10
1207.777806176735
 20
2225.202898567751
 30
0.0
 10
1210.514732008884
 20
2225.200571681509
 30
0.0
 10
1214.549356558124
 20
2225.19824351371
 30
0.0
 10
1219.698402890488
 20
2225.195635348512
 30
0.0
 10
1227.43458311464
 20
2225.19188753387
 30
0.0
 10
1236.274753936505
 20
2225.188804087163
 30
0.0
 10
1247.877391830891
 20
2225.186042457859
 30
0.0
 10
1261.13685927048
 20
2225.184624931328
 30
0.0
 10
1278.540188586963
 20
2225.18490831827
 30
0.0
 10
1298.42896456189
 20
2225.187553213189
 30
0.0
 10
1331.794044824568
 20
2225.19436639222
 30
0.0
 10
1357.700024856529
 20
2225.199779297714
 30
0.0
 10
1376.147887153912
 20
2225.199779297714
 30
0.0
  0
SPLINE
  5
5620
330
A
100
AcDbEntity
  8
HIDDEN
100
AcDbSpline
210
0.0
220
0.0
230
1.0
 70
     8
 71
     3
 72
    51
 73
    47
 74
     0
 42
0.000000001
 43
0.0000000001
 40
0.0
 40
0.0
 40
0.0
 40
0.0
 40
28.4381838352643
 40
40.62597968125363
 40
58.907672561141
 40
68.04852258844637
 40
77.18937539291349
 40
84.23086381966257
 40
91.27235407826554
 40
93.03272669919481
 40
94.79309885956685
 40
96.11337755007213
 40
96.99360242160452
 40
98.53473509933661
 40
99.41672600218249
 40
100.5223878370154
 40
102.0812986583545
 40
104.1193686664176
 40
106.2888696151946
 40
109.1220250021504
 40
112.4568948290564
 40
115.2085955355019
 40
119.3399032378953
 40
121.999245664167
 40
123.7465285371186
 40
125.521016439645
 40
127.0587867155643
 40
128.3413220714027
 40
130.6055358109433
 40
131.5769633649311
 40
133.2147259761676
 40
133.89431939024
 40
134.3411853637483
 40
137.0761531049319
 40
139.8190363134899
 40
143.1021209670491
 40
145.2892550397469
 40
151.9202140573485
 40
158.5506764570793
 40
168.4956750114326
 40
178.4399277061218
 40
193.3571385248743
 40
208.2728435135776
 40
230.648588705349
 40
253.0225022849356
 40
308.3675153824091
 40
308.3675153824091
 40
308.3675153824091
 40
308.3675153824091
 10
1180.636143454319
 20
2108.056367560743
 30
0.0
 10
1180.636143454319
 20
2098.576373683164
 30
0.0
 10
1180.634783334489
 20
2085.033570649004
 30
0.0
 10
1180.629917835219
 20
2065.396579600158
 30
0.0
 10
1180.625073474946
 20
2052.192396632512
 30
0.0
 10
1180.619112378908
 20
2040.004002594699
 30
0.0
 10
1180.614258182662
 20
2031.56237031879
 30
0.0
 10
1180.609131941664
 20
2023.821083781752
 30
0.0
 10
1180.605325551899
 20
2018.538681224242
 30
0.0
 10
1180.602401574141
 20
2015.019307253889
 30
0.0
 10
1180.600905833683
 20
2013.403416953071
 30
0.0
 10
1180.599297082057
 20
2012.09347708133
 30
0.0
 10
1180.605981339321
 20
2010.884103276983
 30
0.0
 10
1180.629721543931
 20
2009.845920848312
 30
0.0
 10
1180.691193565389
 20
2008.765124691568
 30
0.0
 10
1180.789127769886
 20
2007.699123999251
 30
0.0
 10
1180.99440649917
 20
2006.317588052992
 30
0.0
 10
1181.387656942764
 20
2004.671324302758
 30
0.0
 10
1182.080601710278
 20
2002.730407487899
 30
0.0
 10
1183.192606673559
 20
2000.543101593852
 30
0.0
 10
1184.72741553548
 20
1998.380670516763
 30
0.0
 10
1186.809562978456
 20
1996.148037350807
 30
0.0
 10
1189.040991772975
 20
1994.358520490838
 30
0.0
 10
1191.221706544541
 20
1993.07985187312
 30
0.0
 10
1192.865255287409
 20
1992.329081677037
 30
0.0
 10
1194.244558995843
 20
1991.836998993326
 30
0.0
 10
1195.522148128451
 20
1991.496985422563
 30
0.0
 10
1196.961682565611
 20
1991.216644110138
 30
0.0
 10
1198.277151142819
 20
1991.065459262197
 30
0.0
 10
1199.749084352398
 20
1990.972106936231
 30
0.0
 10
1200.773540017811
 20
1990.939226209107
 30
0.0
 10
1201.656030836003
 20
1990.924564258431
 30
0.0
 10
1202.901356176937
 20
1990.910664203654
 30
0.0
 10
1204.859650257179
 20
1990.908855275828
 30
0.0
 10
1207.777806176736
 20
1990.909836649133
 30
0.0
 10
1210.514732008886
 20
1990.912163535408
 30
0.0
 10
1214.549356558125
 20
1990.914491703004
 30
0.0
 10
1219.698402890489
 20
1990.917099867981
 30
0.0
 10
1227.434583114641
 20
1990.92084768236
 30
0.0
 10
1236.274753936507
 20
1990.923931128848
 30
0.0
 10
1247.877391830892
 20
1990.926692757954
 30
0.0
 10
1261.136859270481
 20
1990.928110284376
 30
0.0
 10
1278.540188586964
 20
1990.927826897436
 30
0.0
 10
1298.42896456189
 20
1990.925182002678
 30
0.0
 10
1331.794044824569
 20
1990.918368824076
 30
0.0
 10
1357.700024856529
 20
1990.912955918926
 30
0.0
 10
1376.147887153912
 20
1990.912955918926
 30
0.0
  0
SPLINE
  5
5621
330
A
100
AcDbEntity
  8
HIDDEN
100
AcDbSpline
210
0.0
220
0.0
230
1.0
 70
     8
 71
     3
 72
    49
 73
    45
 74
     0
 42
0.000000001
 43
0.0000000001
 40
0.0
 40
0.0
 40
0.0
 40
0.0
 40
28.43818250105744
 40
40.62597500312135
 40
58.90766375593824
 40
77.18935251563919
 40
84.27478412300613
 40
91.36021573198559
 40
93.13157363190895
 40
94.90293153743944
 40
96.23146144684847
 40
97.33870546796761
 40
98.89023389838191
 40
99.77892421235128
 40
100.8943034340766
 40
102.2437850425666
 40
104.3046631032235
 40
106.3012415362323
 40
109.1439517314057
 40
111.5305726101359
 40
114.9405546808083
 40
119.3965692054501
 40
121.6061459650167
 40
125.0675396403573
 40
126.555514333116
 40
127.5468278018107
 40
129.5206526858514
 40
130.9820868312258
 40
132.1751229337935
 40
132.6431915591303
 40
133.105036648101
 40
134.4521467193387
 40
136.6132920054585
 40
141.0421402296871
 40
145.4710074751006
 40
152.1136082387921
 40
158.7559778754943
 40
168.7198108874617
 40
178.6831725974413
 40
193.6288125293512
 40
208.5735664858686
 40
230.9919240227946
 40
253.408876199314
 40
309.0812562382453
 40
309.0812562382453
 40
309.0812562382453
 40
309.0812562382453
 10
1572.02146202466
 20
2108.056367608324
 30
0.0
 10
1572.02146202466
 20
2098.576958154421
 30
0.0
 10
1572.021835850031
 20
2085.034953718
 30
0.0
 10
1572.023170295104
 20
2065.399008948864
 30
0.0
 10
1572.02473633731
 20
2049.14869799624
 30
0.0
 10
1572.026786698172
 20
2034.598725433445
 30
0.0
 10
1572.02839900761
 20
2023.781767454737
 30
0.0
 10
1572.029620912186
 20
2018.466487369211
 30
0.0
 10
1572.029916066193
 20
2014.925423043924
 30
0.0
 10
1572.030662485083
 20
2013.298567732102
 30
0.0
 10
1572.029255470797
 20
2011.91462719299
 30
0.0
 10
1572.014406613458
 20
2010.642153350849
 30
0.0
 10
1571.974401581332
 20
2009.554014874382
 30
0.0
 10
1571.894467887219
 20
2008.497498492451
 30
0.0
 10
1571.78337672367
 20
2007.522422399728
 30
0.0
 10
1571.566633317515
 20
2006.23379716711
 30
0.0
 10
1571.18795072397
 20
2004.728318175369
 30
0.0
 10
1570.516497939415
 20
2002.855629086276
 30
0.0
 10
1569.584206752192
 20
2000.969304218226
 30
0.0
 10
1568.20028333584
 20
1998.846621269272
 30
0.0
 10
1566.241448795544
 20
1996.540903414454
 30
0.0
 10
1563.968026595333
 20
1994.625120041531
 30
0.0
 10
1561.46113477089
 20
1993.064342360256
 30
0.0
 10
1559.575360365486
 20
1992.199186577224
 30
0.0
 10
1557.946388018911
 20
1991.670963749566
 30
0.0
 10
1556.702663310219
 20
1991.347662286925
 30
0.0
 10
1555.440317296253
 20
1991.113620433851
 30
0.0
 10
1554.083979259847
 20
1990.970454818473
 30
0.0
 10
1553.143627643328
 20
1990.919670349051
 30
0.0
 10
1552.490124260873
 20
1990.899699816736
 30
0.0
 10
1551.780039121707
 20
1990.885427483937
 30
0.0
 10
1550.507667778034
 20
1990.879706122045
 30
0.0
 10
1547.859366038841
 20
1990.88329323858
 30
0.0
 10
1544.18766192511
 20
1990.883261801385
 30
0.0
 10
1539.020423998267
 20
1990.885647763322
 30
0.0
 10
1533.115969378986
 20
1990.887517357627
 30
0.0
 10
1525.366288791526
 20
1990.890160428426
 30
0.0
 10
1516.509766492015
 20
1990.892894486371
 30
0.0
 10
1504.885451456901
 20
1990.896236378197
 30
0.0
 10
1491.600837816859
 20
1990.899642208534
 30
0.0
 10
1474.164548161293
 20
1990.90351259731
 30
0.0
 10
1454.237820735593
 20
1990.907103691847
 30
0.0
 10
1420.735196182822
 20
1990.911551320698
 30
0.0
 10
1394.705377115583
 20
1990.91295591965
 30
0.0
 10
1376.147887153912
 20
1990.91295591965
 30
0.0
  0
SPLINE
  5
5622
330
A
100
AcDbEntity
  8
HIDDEN
100
AcDbSpline
210
0.0
220
0.0
230
1.0
 70
     8
 71
     3
 72
    49
 73
    45
 74
     0
 42
0.000000001
 43
0.0000000001
 40
0.0
 40
0.0
 40
0.0
 40
0.0
 40
28.43818250105744
 40
40.62597500312135
 40
58.90766375593824
 40
77.1893525156392
 40
84.27478412300617
 40
91.36021573198556
 40
93.13157363190895
 40
94.90293153743943
 40
96.23146144684846
 40
97.3387054679676
 40
98.89023389838188
 40
99.77892421235127
 40
100.8943034340766
 40
102.2437850425666
 40
104.3046631032236
 40
106.3012415362323
 40
109.1439517314058
 40
111.530572610136
 40
114.9405546808083
 40
119.3965692054501
 40
121.6061459650167
 40
125.0675396403573
 40
126.555514333116
 40
127.5468278018106
 40
129.5206526858514
 40
130.9820868312257
 40
132.1751229337934
 40
132.6431915591303
 40
133.105036648101
 40
134.4521467193387
 40
136.6132920054585
 40
141.042140229687
 40
145.4710074751006
 40
152.1136082387921
 40
158.7559778754943
 40
168.7198108874617
 40
178.6831725974412
 40
193.6288125293512
 40
208.5735664858686
 40
230.9919240227946
 40
253.408876199314
 40
309.0812562382453
 40
309.0812562382453
 40
309.0812562382453
 40
309.0812562382453
 10
1572.02146202466
 20
2108.056367608324
 30
0.0
 10
1572.02146202466
 20
2117.535777062226
 30
0.0
 10
1572.021835850031
 20
2131.077781498544
 30
0.0
 10
1572.023170295104
 20
2150.713726267325
 30
0.0
 10
1572.02473633731
 20
2166.964037219518
 30
0.0
 10
1572.026786698172
 20
2181.514009781807
 30
0.0
 10
1572.02839900761
 20
2192.330967760038
 30
0.0
 10
1572.029620912186
 20
2197.646247845369
 30
0.0
 10
1572.029916066193
 20
2201.18731217042
 30
0.0
 10
1572.030662485083
 20
2202.814167482232
 30
0.0
 10
1572.029255470797
 20
2204.198108020925
 30
0.0
 10
1572.014406613458
 20
2205.470581862103
 30
0.0
 10
1571.974401581332
 20
2206.558720337076
 30
0.0
 10
1571.894467887219
 20
2207.615236716968
 30
0.0
 10
1571.78337672367
 20
2208.590312807418
 30
0.0
 10
1571.566633317515
 20
2209.878938036559
 30
0.0
 10
1571.18795072397
 20
2211.384417023852
 30
0.0
 10
1570.516497939415
 20
2213.257106107745
 30
0.0
 10
1569.584206752192
 20
2215.143430971864
 30
0.0
 10
1568.20028333584
 20
2217.266113918737
 30
0.0
 10
1566.241448795544
 20
2219.571831774282
 30
0.0
 10
1563.968026595333
 20
2221.487615150363
 30
0.0
 10
1561.46113477089
 20
2223.04839283419
 30
0.0
 10
1559.575360365486
 20
2223.913548618032
 30
0.0
 10
1557.946388018911
 20
2224.441771446064
 30
0.0
 10
1556.702663310219
 20
2224.765072909229
 30
0.0
 10
1555.440317296253
 20
2224.999114763453
 30
0.0
 10
1554.083979259847
 20
2225.142280381664
 30
0.0
 10
1553.143627643328
 20
2225.193064853805
 30
0.0
 10
1552.490124260873
 20
2225.213035387979
 30
0.0
 10
1551.780039121707
 20
2225.227307722659
 30
0.0
 10
1550.507667778034
 20
2225.233029086936
 30
0.0
 10
1547.859366038841
 20
2225.229441970412
 30
0.0
 10
1544.18766192511
 20
2225.229473408029
 30
0.0
 10
1539.020423998267
 20
2225.22708744648
 30
0.0
 10
1533.115969378986
 20
2225.225217852665
 30
0.0
 10
1525.366288791526
 20
2225.222574782462
 30
0.0
 10
1516.509766492015
 20
2225.219840725169
 30
0.0
 10
1504.885451456901
 20
2225.216498834145
 30
0.0
 10
1491.600837816859
 20
2225.213093004645
 30
0.0
 10
1474.164548161293
 20
2225.209222616843
 30
0.0
 10
1454.237820735593
 20
2225.205631523232
 30
0.0
 10
1420.735196182821
 20
2225.201183895555
 30
0.0
 10
1394.705377115581
 20
2225.19977929699
 30
0.0
 10
1376.147887153912
 20
2225.19977929699
 30
0.0
  0
DIMENSION
  5
5623
330
A
100
AcDbEntity
  8
Dim
100
AcDbDimension
  2
*D72
 10
1779.011749322357
 20
2160.115473081036
 30
0.0
 11
1756.795440728607
 21
2197.615473081036
 31
0.0
 70
    32
 71
     5
 42
75.0
 73
     0
 74
     0
 75
     0
 52
-89.99999999999999
  3
tform線あり
100
AcDbAlignedDimension
 13
1668.514759641357
 23
2235.115473081036
 33
0.0
 14
1668.514759641357
 24
2160.115473081036
 34
0.0
 50
-89.99999999999999
100
AcDbRotatedDimension
  0
DIMENSION
  5
5624
102
{ACAD_REACTORS
330
5626
102
}
102
{ACAD_XDICTIONARY
360
5625
102
}
330
A
100
AcDbEntity
  8
Dim
100
AcDbDimension
  2
*D73
 10
1779.011749322357
 20
2060.115473081036
 30
0.0
 11
1756.795440728607
 21
2110.115473081036
 31
0.0
 70
    32
 71
     5
 42
100.0
 73
     0
 74
     0
 75
     0
 52
-89.99999999999999
  3
tform線あり
100
AcDbAlignedDimension
 13
1668.514759641357
 23
2160.115473081036
 33
0.0
 14
1668.514759641357
 24
2060.115473081036
 34
0.0
 50
-89.99999999999999
100
AcDbRotatedDimension
  0
DIMENSION
  5
5627
330
A
100
AcDbEntity
  8
Dim
100
AcDbDimension
  2
*D74
 10
1644.513845812294
 20
2291.296786919999
 30
0.0
 11
1659.513845812294
 21
2291.296786919999
 31
0.0
 70
   160
 71
     5
 42
30.0
 73
     0
 74
     0
 75
     0
 52
270.0
  3
tform線あり
100
AcDbAlignedDimension
 13
1674.513845812294
 23
2229.116386910098
 33
0.0
 14
1644.513845812294
 24
2229.116386910098
 34
0.0
 50
-180.0
100
AcDbRotatedDimension
  0
DIMENSION
  5
5628
330
A
100
AcDbEntity
  8
Dim
100
AcDbDimension
  2
*D75
 10
1344.988232346833
 20
2291.296786919999
 30
0.0
 11
1494.751039079564
 21
2313.513095513749
 31
0.0
 70
    32
  1
300
 71
     5
 42
299.525613465461
 73
     0
 74
     0
 75
     0
 52
270.0
  3
tform線あり
100
AcDbAlignedDimension
 13
1644.513845812294
 23
2229.116386910098
 33
0.0
 14
1344.988232346833
 24
2158.34148465594
 34
0.0
 50
-180.0
100
AcDbRotatedDimension
  0
HATCH
  5
5629
330
A
100
AcDbEntity
  8
Dim
100
AcDbHatch
 10
0.0
 20
0.0
 30
0.0
210
0.0
220
0.0
230
1.0
  2
ANSI31
 70
     0
 71
     1
 91
        1
 92
        1
 93
        4
 72
     1
 10
1344.988232346833
 20
2160.115473081036
 11
1344.988232346833
 21
2060.115473081036
 72
     1
 10
1644.513845812294
 20
2060.115473081036
 11
1344.988232346833
 21
2060.115473081036
 72
     1
 10
1644.513845812294
 20
2160.115473081036
 11
1344.988232346833
 21
2160.115473081036
 72
     1
 10
1644.513845812294
 20
2160.115473081036
 11
1644.513845812294
 21
2060.115473081036
 97
        4
330
562A
330
562C
330
562B
330
562D
 75
     0
 76
     1
 52
270.0
 41
4.0
 77
     0
 78
     1
 53
225.0
 43
2598.120505397144
 44
2382.994013427943
 45
-8.980256121069155
 46
8.98025612106915
 79
     0
 98
        1
 10
2598.120505397144
 20
2382.994013427943
1001
ACAD
1010
0.0
1020
0.0
1030
0.0
  0
LINE
  5
562A
102
{ACAD_REACTORS
330
5629
102
}
330
A
100
AcDbEntity
  8
MODEL
100
AcDbLine
 10
1344.988232346833
 20
2160.115473081036
 30
0.0
 11
1344.988232346833
 21
2060.115473081036
 31
0.0
  0
LINE
  5
562B
102
{ACAD_REACTORS
330
5629
102
}
330
A
100
AcDbEntity
  8
MODEL
100
AcDbLine
 10
1644.513845812294
 20
2160.115473081036
 30
0.0
 11
1344.988232346833
 21
2160.115473081036
 31
0.0
  0
LINE
  5
562C
102
{ACAD_REACTORS
330
5629
102
}
330
A
100
AcDbEntity
  8
MODEL
100
AcDbLine
 10
1644.513845812294
 20
2060.115473081036
 30
0.0
 11
1344.988232346833
 21
2060.115473081036
 31
0.0
  0
LINE
  5
562D
102
{ACAD_REACTORS
330
5629
102
}
330
A
100
AcDbEntity
  8
MODEL
100
AcDbLine
 10
1644.513845812294
 20
2160.115473081036
 30
0.0
 11
1644.513845812294
 21
2060.115473081036
 31
0.0
  0
MTEXT
  5
562E
330
A
100
AcDbEntity
  8
Dim
390
1D
100
AcDbMText
 10
1275.531743295577
 20
2465.044235758066
 30
17.49760566173007
 40
24.0
 41
416.9648993209196
 46
13.7066982421875
 71
     1
 72
     1
  1
{カウンター切込寸法}
  7
ＭＳ ゴシック
 73
     1
 44
1.043768984567712
1001
ACAD
1000
ACAD_MTEXT_DEFINED_HEIGHT_BEGIN
1070
    46
1040
13.7066982421875
1000
ACAD_MTEXT_DEFINED_HEIGHT_END
  0
MTEXT
  5
562F
330
A
100
AcDbEntity
  8
Dim
390
1D
100
AcDbMText
 10
1160.043505800001
 20
1719.441850919345
 30
17.49760566173007
 40
24.0
 41
973.8144
 46
117.1618955823293
 71
     1
 72
     1
  1
{※陶器製品には寸法公差があります。\P  洗面器の収め方をご確認の上、必ず現物を合わせて\P  カウンターに切込を行ってください。}
  7
ＭＳ ゴシック
 73
     1
 44
1.043768984567712
1001
ACAD
1000
ACAD_MTEXT_DEFINED_HEIGHT_BEGIN
1070
    46
1040
117.1618955823293
1000
ACAD_MTEXT_DEFINED_HEIGHT_END
  0
MTEXT
  5
5740
330
A
100
AcDbEntity
  8
template
390
1D
100
AcDbMText
 10
1583.000000000742
 20
234.4414968978188
 30
0.0
 40
24.4326171875
 41
0.0
 46
24.4326171875
 71
     1
 72
     1
  1
{6L}
  7
ＭＳ ゴシック
 73
     1
 44
0.7828267384257843
1001
ACAD
1000
ACAD_MTEXT_DEFINED_HEIGHT_BEGIN
1070
    46
1040
24.4326171875
1000
ACAD_MTEXT_DEFINED_HEIGHT_END
  0
MTEXT
  5
5741
330
A
100
AcDbEntity
  8
template
390
1D
100
AcDbMText
 10
1332.000000000742
 20
234.4414968978188
 30
0.0
 40
24.4326171875
 41
0.0
 46
28.390701171875
 71
     1
 72
     1
  1
{9kg}
  7
ＭＳ ゴシック
 73
     1
 44
0.7828267384257843
1001
ACAD
1000
ACAD_MTEXT_DEFINED_HEIGHT_BEGIN
1070
    46
1040
28.390701171875
1000
ACAD_MTEXT_DEFINED_HEIGHT_END
  0
MTEXT
  5
57C8
330
A
100
AcDbEntity
  8
Dim
390
1D
100
AcDbMText
 10
157.6580081999993
 20
717.1231370000003
 30
17.49760566173007
 40
24.0
 41
1518.637143789796
 46
42.256
 71
     1
 72
     1
  1
{\T1.1;※壁掛けの場合、左シンク/右シンクより選択可能です。}
  7
ＭＳ ゴシック
 73
     1
 44
1.043768984567712
1001
ACAD
1000
ACAD_MTEXT_DEFINED_HEIGHT_BEGIN
1070
    46
1040
42.256
1000
ACAD_MTEXT_DEFINED_HEIGHT_END
  0
MTEXT
  5
59F2
330
A
100
AcDbEntity
  8
template
390
1D
100
AcDbMText
 10
1332.000000000742
 20
480.5696896894192
 30
0.0
 40
24.4326171875
 41
0.0
 46
27.29230578166031
 71
     1
 72
     1
  1
{ADF70-0621-006 (マットブラック)}
  7
ＭＳ ゴシック
 73
     1
 44
0.7828267384257843
1001
ACAD
1000
ACAD_MTEXT_DEFINED_HEIGHT_BEGIN
1070
    46
1040
27.29230578166031
1000
ACAD_MTEXT_DEFINED_HEIGHT_END
  0
MTEXT
  5
59F3
330
A
100
AcDbEntity
  8
template
390
1D
100
AcDbMText
 10
1332.000000000742
 20
405.7305295084197
 30
0.0
 40
24.4326171875
 41
0.0
 46
27.29230578166031
 71
     1
 72
     1
  1
{ADF70-0621-007 (セメントグレー)}
  7
ＭＳ ゴシック
 73
     1
 44
0.7828267384257843
1001
ACAD
1000
ACAD_MTEXT_DEFINED_HEIGHT_BEGIN
1070
    46
1040
27.29230578166031
1000
ACAD_MTEXT_DEFINED_HEIGHT_END
  0
MTEXT
  5
59F4
330
A
100
AcDbEntity
  8
template
390
1D
100
AcDbMText
 10
1332.780368014316
 20
517.4956301619461
 30
0.0
 40
24.4326171875
 41
0.0
 46
27.29230578166031
 71
     1
 72
     1
  1
{ADF70-0621-001 (ホワイト)}
  7
ＭＳ ゴシック
 73
     1
 44
0.7828267384257843
1001
ACAD
1000
ACAD_MTEXT_DEFINED_HEIGHT_BEGIN
1070
    46
1040
27.29230578166031
1000
ACAD_MTEXT_DEFINED_HEIGHT_END
  0
MTEXT
  5
59FB
330
A
100
AcDbEntity
  8
template
390
1D
100
AcDbMText
 10
1332.000000000742
 20
442.3123959062253
 30
0.0
 40
24.4326171875
 41
0.0
 46
27.29230578166031
 71
     1
 72
     1
  1
{ADF70-0621-008 (マットホワイト)}
  7
ＭＳ ゴシック
 73
     1
 44
0.7828267384257843
1001
ACAD
1000
ACAD_MTEXT_DEFINED_HEIGHT_BEGIN
1070
    46
1040
27.29230578166031
1000
ACAD_MTEXT_DEFINED_HEIGHT_END
  0
VIEWPORT
  5
349
330
B
100
AcDbEntity
 67
     1
  8
0
100
AcDbViewport
 10
202.5
 20
128.5
 30
0.0
 40
486.0
 41
308.4
 68
     1
 69
     1
 12
202.5
 22
128.5
 13
0.0
 23
0.0
 14
0.5
 24
0.5
 15
0.0
 25
0.0
 16
0.0
 26
0.0
 36
1.0
 17
0.0
 27
0.0
 37
0.0
 42
50.0
 43
0.0
 44
0.0
 45
308.4
 50
0.0
 51
0.0
 72
   100
 90
   557152
  1

281
     0
 71
     1
 74
     0
110
0.0
120
0.0
130
0.0
111
1.0
121
0.0
131
0.0
112
0.0
122
1.0
132
0.0
 79
     0
146
0.0
170
     0
 61
     5
348
26C
292
     1
282
     1
141
0.0
142
0.0
 63
   256
  0
VIEWPORT
  5
34A
330
B
100
AcDbEntity
 67
     1
  8
0
100
AcDbViewport
 10
202.5
 20
128.5
 30
0.0
 40
324.0
 41
205.6
 68
     2
 69
     2
 12
986.6781359294573
 22
1427.077061889956
 13
0.0
 23
0.0
 14
0.5
 24
0.5
 15
0.0
 25
0.0
 16
0.0
 26
0.0
 36
1.0
 17
0.0
 27
0.0
 37
0.0
 42
50.0
 43
0.0
 44
0.0
 45
2890.021615685494
 50
0.0
 51
0.0
 72
   100
 90
   557152
  1

281
     0
 71
     1
 74
     0
110
0.0
120
0.0
130
0.0
111
1.0
121
0.0
131
0.0
112
0.0
122
1.0
132
0.0
 79
     0
146
0.0
170
     0
 61
     5
348
26C
292
     1
282
     1
141
0.0
142
0.0
 63
   256
  0
ENDSEC
  0
SECTION
  2
OBJECTS
  0
DICTIONARY
  5
19
330
0
100
AcDbDictionary
281
     1
  3
ACAD_COLOR
350
38F
  3
ACAD_DETAILVIEWSTYLE
350
8CF
  3
ACAD_FIELDLIST
350
BA6
  3
ACAD_GROUP
350
1A
  3
ACAD_IMAGE_VARS
350
27B
  3
ACAD_LAYOUT
350
1E
  3
ACAD_MATERIAL
350
263
  3
ACAD_MLEADERSTYLE
350
336
  3
ACAD_MLINESTYLE
350
1B
  3
ACAD_PLOTSETTINGS
350
22
  3
ACAD_PLOTSTYLENAME
350
1F
  3
ACAD_SCALELIST
350
241
  3
ACAD_SECTIONVIEWSTYLE
350
8D0
  3
ACAD_TABLESTYLE
350
278
  3
ACAD_VISUALSTYLE
350
267
  3
ACDB_RECOMPOSE_DATA
350
5A0E
  3
AcDbVariableDictionary
350
330
  3
APPDATA
350
27A
  3
DimOffsetDictionary
350
C08
  0
SUN
  5
8C2
330
15
100
AcDbSun
 90
        1
290
     0
 63
     7
421
 16777215
 40
1.0
291
     1
 91
  2455826
 92
 54000000
292
     0
 70
     2
 71
   256
280
     1
  0
DICTIONARY
  5
2E1
330
2
100
AcDbDictionary
280
     1
281
     1
  3
ACAD_LAYERSTATES
360
2E2
  3
ACLYDICTIONARY
360
50B8
  0
DICTIONARY
  5
BDC
330
BDB
100
AcDbDictionary
280
     1
281
     1
  3
ACAD_FIELD
360
BE4
  0
DICTIONARY
  5
5603
330
5602
100
AcDbDictionary
280
     1
281
     1
  3
ACAD_DIMASSOC
360
5604
  0
DICTIONARY
  5
560F
330
560E
100
AcDbDictionary
280
     1
281
     1
  3
ACAD_DIMASSOC
360
5610
  0
DICTIONARY
  5
5612
330
5611
100
AcDbDictionary
280
     1
281
     1
  3
ACAD_DIMASSOC
360
5613
  0
DICTIONARY
  5
5625
330
5624
100
AcDbDictionary
280
     1
281
     1
  3
ACAD_DIMASSOC
360
5626
  0
DICTIONARY
  5
38F
102
{ACAD_REACTORS
330
19
102
}
330
19
100
AcDbDictionary
281
     1
  0
DICTIONARY
  5
8CF
102
{ACAD_REACTORS
330
19
102
}
330
19
100
AcDbDictionary
281
     1
  0
FIELDLIST
  5
BA6
102
{ACAD_REACTORS
330
19
102
}
330
19
100
AcDbIdSet
 90
        2
330
BDF
330
BDE
100
AcDbFieldList
  0
DICTIONARY
  5
1A
102
{ACAD_REACTORS
330
19
102
}
330
19
100
AcDbDictionary
281
     1
  0
RASTERVARIABLES
  5
27B
102
{ACAD_REACTORS
330
19
102
}
330
19
100
AcDbRasterVariables
 90
        0
 70
     1
 71
     1
 72
     1
  0
DICTIONARY
  5
1E
102
{ACAD_REACTORS
330
19
102
}
330
19
100
AcDbDictionary
281
     1
  3
Layout1
350
21
  3
Model
350
20
  0
DICTIONARY
  5
263
102
{ACAD_REACTORS
330
19
102
}
330
19
100
AcDbDictionary
281
     1
  3
ByBlock
350
50C8
  3
ByLayer
350
264
  3
Global
350
266
  0
DICTIONARY
  5
336
102
{ACAD_REACTORS
330
19
102
}
330
19
100
AcDbDictionary
281
     1
  3
Standard
350
8D1
  0
DICTIONARY
  5
1B
102
{ACAD_REACTORS
330
19
102
}
330
19
100
AcDbDictionary
281
     1
  3
Standard
350
1C
  0
DICTIONARY
  5
22
102
{ACAD_REACTORS
330
19
102
}
330
19
100
AcDbDictionary
281
     1
  0
ACDBDICTIONARYWDFLT
  5
1F
102
{ACAD_REACTORS
330
19
102
}
330
19
100
AcDbDictionary
281
     1
  3
Normal
350
1D
100
AcDbDictionaryWithDefault
340
1D
  0
DICTIONARY
  5
241
102
{ACAD_REACTORS
330
19
102
}
330
19
100
AcDbDictionary
281
     1
  3
A0
350
242
  3
A1
350
243
  3
A2
350
244
  3
A3
350
245
  3
A4
350
246
  3
A5
350
247
  3
A6
350
248
  3
A7
350
249
  3
A8
350
24A
  3
A9
350
24B
  3
B0
350
24C
  3
B1
350
24D
  3
B2
350
24E
  3
B3
350
24F
  3
B4
350
250
  3
B5
350
251
  3
B6
350
252
  3
B7
350
253
  3
B8
350
254
  3
B9
350
255
  3
C0
350
256
  3
C1
350
257
  3
C2
350
258
  3
C3
350
259
  3
C4
350
25A
  3
C5
350
25B
  3
C6
350
25C
  3
C7
350
25D
  3
C8
350
25E
  3
C9
350
25F
  3
D0
350
260
  3
D1
350
261
  3
D2
350
262
  0
DICTIONARY
  5
8D0
102
{ACAD_REACTORS
330
19
102
}
330
19
100
AcDbDictionary
281
     1
  0
DICTIONARY
  5
278
102
{ACAD_REACTORS
330
19
102
}
330
19
100
AcDbDictionary
281
     1
  3
Standard
350
279
  0
DICTIONARY
  5
267
102
{ACAD_REACTORS
330
19
102
}
330
19
100
AcDbDictionary
281
     1
  3
2dWireframe
350
26C
  3
3D Hidden
350
26E
  3
3dWireframe
350
26D
  3
Basic
350
26F
  3
Brighten
350
273
  3
ColorChange
350
277
  3
Conceptual
350
271
  3
Dim
350
272
  3
EdgeColorOff
350
8BC
  3
Facepattern
350
276
  3
Flat
350
268
  3
FlatWithEdges
350
269
  3
Gouraud
350
26A
  3
GouraudWithEdges
350
26B
  3
Hidden
350
8B9
  3
JitterOff
350
8BA
  3
Linepattern
350
275
  3
OverhangOff
350
8BB
  3
Realistic
350
270
  3
Shaded
350
8C1
  3
Shaded with edges
350
8C0
  3
Shades of Gray
350
8BD
  3
Sketchy
350
8BE
  3
Thicken
350
274
  3
Wireframe
350
8B8
  3
X-Ray
350
8BF
  0
XRECORD
  5
5A0E
102
{ACAD_REACTORS
330
19
102
}
330
19
100
AcDbXrecord
280
     1
 90
        1
330
279
  0
DICTIONARY
  5
330
102
{ACAD_REACTORS
330
19
102
}
330
19
100
AcDbDictionary
281
     1
  3
CANNOSCALE
350
331
  3
CMLEADERSTYLE
350
8DA
  3
CTABLESTYLE
350
335
  3
HPTRANSPARENCY
350
C07
  3
XCLIPFRAME
350
64A
  0
DICTIONARY
  5
27A
102
{ACAD_REACTORS
330
19
102
}
330
19
100
AcDbDictionary
281
     1
  0
DICTIONARY
  5
C08
102
{ACAD_REACTORS
330
19
102
}
330
19
100
AcDbDictionary
281
     1
  3
DIMRAILANGLE
350
4342
  3
DIMRAILFIRSTOFFSET
350
4340
  3
DIMRAILOFFSET
350
4341
  3
DIMRAILSENABLED
350
4343
  0
DICTIONARY
  5
2E2
102
{ACAD_REACTORS
330
2E1
102
}
330
2E1
100
AcDbDictionary
281
     1
  0
DICTIONARY
  5
50B8
102
{ACAD_REACTORS
330
2E1
102
}
330
2E1
100
AcDbDictionary
281
     1
1001
ACAD
1000
<All
  0
DICTIONARY
  5
BE4
102
{ACAD_REACTORS
330
BDC
102
}
330
BDC
100
AcDbDictionary
280
     1
281
     1
  3
TEXT
360
BDE
  0
DIMASSOC
  5
5604
102
{ACAD_REACTORS
330
5603
102
}
330
5603
100
AcDbDimAssoc
330
5602
 90
        3
 70
     0
 71
     1
  1
AcDbOsnapPointRef
 72
     1
331
55DF
 73
     0
 91
        0
 40
0.0
 10
0.0
 20
0.0
 30
0.0
 75
     0
  1
AcDbOsnapPointRef
 72
    13
331
55D9
 73
     0
 91
        0
 40
0.0
 10
0.0
 20
0.0
 30
0.0
 75
     0
  0
DIMASSOC
  5
5610
102
{ACAD_REACTORS
330
560F
102
}
330
560F
100
AcDbDimAssoc
330
560E
 90
        3
 70
     0
 71
     1
  1
AcDbOsnapPointRef
 72
    13
331
5606
 73
     0
 91
        0
 40
0.0
 10
0.0
 20
0.0
 30
0.0
 75
     0
  1
AcDbOsnapPointRef
 72
    13
331
5607
 73
     0
 91
        0
 40
0.0
 10
0.0
 20
0.0
 30
0.0
 75
     0
  0
DIMASSOC
  5
5613
102
{ACAD_REACTORS
330
5612
102
}
330
5612
100
AcDbDimAssoc
330
5611
 90
        3
 70
     0
 71
     1
  1
AcDbOsnapPointRef
 72
    13
331
55BC
 73
     0
 91
        0
 40
0.0
 10
0.0
 20
0.0
 30
0.0
 75
     0
  1
AcDbOsnapPointRef
 72
     2
331
55AF
 73
     0
 91
        0
 40
0.5
 10
0.0
 20
0.0
 30
0.0
 75
     0
  0
DIMASSOC
  5
5626
102
{ACAD_REACTORS
330
5625
102
}
330
5625
100
AcDbDimAssoc
330
5624
 90
        0
 70
     0
 71
     1
  0
LAYOUT
  5
21
102
{ACAD_REACTORS
330
1E
102
}
330
1E
100
AcDbPlotSettings
  1

  2
none_device
  4
ISO_A3_(420.00_x_297.00_MM)
  6

 40
7.5
 41
20.0
 42
7.5
 43
20.0
 44
420.0
 45
297.0
 46
0.0
 47
0.0
 48
0.0
 49
0.0
140
0.0
141
0.0
142
1.0
143
1.0
 70
     0
 72
     1
 73
     0
 74
     0
  7

 75
     0
 76
     0
 77
     2
 78
   300
147
1.0
148
0.0
149
0.0
100
AcDbLayout
  1
Layout1
 70
     0
 71
     0
 10
0.0
 20
0.0
 11
0.0
 21
0.0
 12
0.0
 22
0.0
 32
0.0
 14
0.0
 24
0.0
 34
0.0
 15
0.0
 25
0.0
 35
0.0
146
0.0
 13
0.0
 23
0.0
 33
0.0
 16
0.0
 26
0.0
 36
0.0
 17
0.0
 27
0.0
 37
0.0
 76
     0
330
B
331
349
  0
LAYOUT
  5
20
102
{ACAD_REACTORS
330
1E
102
}
330
1E
100
AcDbPlotSettings
  1

  2
none_device
  4
ISO_A3_(420.00_x_297.00_MM)
  6

 40
7.5
 41
20.0
 42
7.5
 43
20.0
 44
420.0
 45
297.0
 46
0.0
 47
0.0
 48
0.0
 49
0.0
140
0.0
141
0.0
142
1.0
143
1.0
 70
  1024
 72
     1
 73
     0
 74
     0
  7

 75
     0
 76
     0
 77
     2
 78
   300
147
1.0
148
0.0
149
0.0
100
AcDbLayout
  1
Model
 70
     0
 71
     1
 10
0.0
 20
0.0
 11
2100.0
 21
2970.0
 12
0.0
 22
0.0
 32
0.0
 14
0.0
 24
0.0
 34
0.0
 15
2100.0
 25
2970.0
 35
17.49760566173007
146
0.0
 13
0.0
 23
0.0
 33
0.0
 16
0.0
 26
0.0
 36
0.0
 17
0.0
 27
0.0
 37
0.0
 76
     0
330
A
331
15
  0
MATERIAL
  5
50C8
102
{ACAD_REACTORS
330
263
102
}
330
263
100
AcDbMaterial
  1
ByBlock
 72
     1
 94
      127
  0
MATERIAL
  5
264
102
{ACAD_REACTORS
330
263
102
}
330
263
100
AcDbMaterial
  1
ByLayer
 72
     1
 94
      127
  0
MATERIAL
  5
266
102
{ACAD_REACTORS
330
263
102
}
330
263
100
AcDbMaterial
  1
Global
 72
     1
 94
      127
  0
MLEADERSTYLE
  5
8D1
102
{ACAD_REACTORS
330
336
102
}
330
336
100
AcDbMLeaderStyle
170
     2
171
     1
172
     0
 90
        2
 40
0.0
 41
0.0
173
     1
 91
-1056964608
340
11
 92
       -2
290
     1
 42
2.0
291
     1
 43
8.0
  3
Standard
341
0
 44
4.0
300

342
17
174
     1
178
     6
175
     1
176
     0
 93
-1056964608
 45
4.0
292
     0
297
     0
 46
4.0
343
0
 94
-1056964608
 47
1.0
 49
1.0
140
1.0
293
     1
141
0.0
294
     1
177
     0
142
1.0
295
     0
296
     0
143
3.75
1001
ACAD_MLEADERVER
1070
     2
  0
MLINESTYLE
  5
1C
102
{ACAD_REACTORS
330
1B
102
}
330
1B
100
AcDbMlineStyle
  2
Standard
 70
     0
  3

 62
     0
 51
90.0
 52
90.0
 71
     2
 49
0.5
 62
   256
  6
BYLAYER
 49
-0.5
 62
   256
  6
BYLAYER
  0
ACDBPLACEHOLDER
  5
1D
102
{ACAD_REACTORS
330
1F
102
}
330
1F
  0
SCALE
  5
242
102
{ACAD_REACTORS
330
241
102
}
330
241
100
AcDbScale
 70
     0
300
1:1
140
1.0
141
1.0
290
     1
  0
SCALE
  5
243
102
{ACAD_REACTORS
330
241
102
}
330
241
100
AcDbScale
 70
     0
300
1:2
140
1.0
141
2.0
290
     0
  0
SCALE
  5
244
102
{ACAD_REACTORS
330
241
102
}
330
241
100
AcDbScale
 70
     0
300
1:4
140
1.0
141
4.0
290
     0
  0
SCALE
  5
245
102
{ACAD_REACTORS
330
241
102
}
330
241
100
AcDbScale
 70
     0
300
1:5
140
1.0
141
5.0
290
     0
  0
SCALE
  5
246
102
{ACAD_REACTORS
330
241
102
}
330
241
100
AcDbScale
 70
     0
300
1:8
140
1.0
141
8.0
290
     0
  0
SCALE
  5
247
102
{ACAD_REACTORS
330
241
102
}
330
241
100
AcDbScale
 70
     0
300
1:10
140
1.0
141
10.0
290
     0
  0
SCALE
  5
248
102
{ACAD_REACTORS
330
241
102
}
330
241
100
AcDbScale
 70
     0
300
1:16
140
1.0
141
16.0
290
     0
  0
SCALE
  5
249
102
{ACAD_REACTORS
330
241
102
}
330
241
100
AcDbScale
 70
     0
300
1:20
140
1.0
141
20.0
290
     0
  0
SCALE
  5
24A
102
{ACAD_REACTORS
330
241
102
}
330
241
100
AcDbScale
 70
     0
300
1:30
140
1.0
141
30.0
290
     0
  0
SCALE
  5
24B
102
{ACAD_REACTORS
330
241
102
}
330
241
100
AcDbScale
 70
     0
300
1:40
140
1.0
141
40.0
290
     0
  0
SCALE
  5
24C
102
{ACAD_REACTORS
330
241
102
}
330
241
100
AcDbScale
 70
     0
300
1:50
140
1.0
141
50.0
290
     0
  0
SCALE
  5
24D
102
{ACAD_REACTORS
330
241
102
}
330
241
100
AcDbScale
 70
     0
300
1:100
140
1.0
141
100.0
290
     0
  0
SCALE
  5
24E
102
{ACAD_REACTORS
330
241
102
}
330
241
100
AcDbScale
 70
     0
300
2:1
140
2.0
141
1.0
290
     0
  0
SCALE
  5
24F
102
{ACAD_REACTORS
330
241
102
}
330
241
100
AcDbScale
 70
     0
300
4:1
140
4.0
141
1.0
290
     0
  0
SCALE
  5
250
102
{ACAD_REACTORS
330
241
102
}
330
241
100
AcDbScale
 70
     0
300
8:1
140
8.0
141
1.0
290
     0
  0
SCALE
  5
251
102
{ACAD_REACTORS
330
241
102
}
330
241
100
AcDbScale
 70
     0
300
10:1
140
10.0
141
1.0
290
     0
  0
SCALE
  5
252
102
{ACAD_REACTORS
330
241
102
}
330
241
100
AcDbScale
 70
     0
300
100:1
140
100.0
141
1.0
290
     0
  0
SCALE
  5
253
102
{ACAD_REACTORS
330
241
102
}
330
241
100
AcDbScale
 70
     0
300
1/128" = 1'-0"
140
0.0078125
141
12.0
290
     0
  0
SCALE
  5
254
102
{ACAD_REACTORS
330
241
102
}
330
241
100
AcDbScale
 70
     0
300
1/64" = 1'-0"
140
0.015625
141
12.0
290
     0
  0
SCALE
  5
255
102
{ACAD_REACTORS
330
241
102
}
330
241
100
AcDbScale
 70
     0
300
1/32" = 1'-0"
140
0.03125
141
12.0
290
     0
  0
SCALE
  5
256
102
{ACAD_REACTORS
330
241
102
}
330
241
100
AcDbScale
 70
     0
300
1/16" = 1'-0"
140
0.0625
141
12.0
290
     0
  0
SCALE
  5
257
102
{ACAD_REACTORS
330
241
102
}
330
241
100
AcDbScale
 70
     0
300
3/32" = 1'-0"
140
0.09375
141
12.0
290
     0
  0
SCALE
  5
258
102
{ACAD_REACTORS
330
241
102
}
330
241
100
AcDbScale
 70
     0
300
1/8" = 1'-0"
140
0.125
141
12.0
290
     0
  0
SCALE
  5
259
102
{ACAD_REACTORS
330
241
102
}
330
241
100
AcDbScale
 70
     0
300
3/16" = 1'-0"
140
0.1875
141
12.0
290
     0
  0
SCALE
  5
25A
102
{ACAD_REACTORS
330
241
102
}
330
241
100
AcDbScale
 70
     0
300
1/4" = 1'-0"
140
0.25
141
12.0
290
     0
  0
SCALE
  5
25B
102
{ACAD_REACTORS
330
241
102
}
330
241
100
AcDbScale
 70
     0
300
3/8" = 1'-0"
140
0.375
141
12.0
290
     0
  0
SCALE
  5
25C
102
{ACAD_REACTORS
330
241
102
}
330
241
100
AcDbScale
 70
     0
300
1/2" = 1'-0"
140
0.5
141
12.0
290
     0
  0
SCALE
  5
25D
102
{ACAD_REACTORS
330
241
102
}
330
241
100
AcDbScale
 70
     0
300
3/4" = 1'-0"
140
0.75
141
12.0
290
     0
  0
SCALE
  5
25E
102
{ACAD_REACTORS
330
241
102
}
330
241
100
AcDbScale
 70
     0
300
1" = 1'-0"
140
1.0
141
12.0
290
     0
  0
SCALE
  5
25F
102
{ACAD_REACTORS
330
241
102
}
330
241
100
AcDbScale
 70
     0
300
1-1/2" = 1'-0"
140
1.5
141
12.0
290
     0
  0
SCALE
  5
260
102
{ACAD_REACTORS
330
241
102
}
330
241
100
AcDbScale
 70
     0
300
3" = 1'-0"
140
3.0
141
12.0
290
     0
  0
SCALE
  5
261
102
{ACAD_REACTORS
330
241
102
}
330
241
100
AcDbScale
 70
     0
300
6" = 1'-0"
140
6.0
141
12.0
290
     0
  0
SCALE
  5
262
102
{ACAD_REACTORS
330
241
102
}
330
241
100
AcDbScale
 70
     0
300
1'-0" = 1'-0"
140
12.0
141
12.0
290
     0
  0
TABLESTYLE
  5
279
102
{ACAD_REACTORS
330
278
102
}
102
{ACAD_XDICTIONARY
360
5A0C
102
}
330
278
100
AcDbTableStyle
  3
Standard
 70
     0
 71
     0
 40
0.06
 41
0.06
280
     0
281
     0
  7
Standard
140
4.5
170
     2
 62
     0
 63
   257
283
     0
 90
        4
 91
        0
  1

274
    -2
284
     1
 64
     0
275
    -2
285
     1
 65
     0
276
    -2
286
     1
 66
     0
277
    -2
287
     1
 67
     0
278
    -2
288
     1
 68
     0
279
    -2
289
     1
 69
     0
  7
Standard
140
6.0
170
     5
 62
     0
 63
   257
283
     0
 90
        4
 91
        0
  1

274
    -2
284
     1
 64
     0
275
    -2
285
     1
 65
     0
276
    -2
286
     1
 66
     0
277
    -2
287
     1
 67
     0
278
    -2
288
     1
 68
     0
279
    -2
289
     1
 69
     0
  7
Standard
140
4.5
170
     5
 62
     0
 63
   257
283
     0
 90
        4
 91
        0
  1

274
    -2
284
     1
 64
     0
275
    -2
285
     1
 65
     0
276
    -2
286
     1
 66
     0
277
    -2
287
     1
 67
     0
278
    -2
288
     1
 68
     0
279
    -2
289
     1
 69
     0
  0
VISUALSTYLE
  5
26C
102
{ACAD_REACTORS
330
267
102
}
330
267
100
AcDbVisualStyle
  2
2dWireframe
 70
     4
 71
     0
 72
     2
 73
     0
 90
        0
 40
-0.6
 41
-30.0
 62
     5
 63
     7
421
 16777215
 74
     1
 91
        4
 64
     7
 65
   257
 75
     1
175
     1
 42
1.0
 92
        0
 66
   257
 43
1.0
 76
     1
 77
     6
 78
     2
 67
     7
 79
     5
170
     0
171
     0
290
     0
174
     0
 93
        1
 44
0.0
173
     0
291
     0
 45
0.0
  0
VISUALSTYLE
  5
26E
102
{ACAD_REACTORS
330
267
102
}
330
267
100
AcDbVisualStyle
  2
3D Hidden
 70
     6
 71
     1
 72
     2
 73
     2
 90
        0
 40
-0.6
 41
-30.0
 62
     5
 63
     7
421
 16777215
 74
     2
 91
        2
 64
     7
 65
   257
 75
     2
175
     1
 42
40.0
 92
        0
 66
   257
 43
1.0
 76
     1
 77
     6
 78
     2
 67
     7
 79
     3
170
     0
171
     0
290
     0
174
     0
 93
        1
 44
0.0
173
     0
291
     0
 45
0.0
  0
VISUALSTYLE
  5
26D
102
{ACAD_REACTORS
330
267
102
}
330
267
100
AcDbVisualStyle
  2
3dWireframe
 70
     5
 71
     0
 72
     2
 73
     0
 90
        0
 40
-0.6
 41
-30.0
 62
     5
 63
     7
421
 16777215
 74
     1
 91
        4
 64
     7
 65
   257
 75
     1
175
     1
 42
1.0
 92
        0
 66
   257
 43
1.0
 76
     1
 77
     6
 78
     2
 67
     7
 79
     5
170
     0
171
     0
290
     0
174
     0
 93
        1
 44
0.0
173
     0
291
     0
 45
0.0
  0
VISUALSTYLE
  5
26F
102
{ACAD_REACTORS
330
267
102
}
330
267
100
AcDbVisualStyle
  2
Basic
 70
     7
 71
     1
 72
     0
 73
     1
 90
        0
 40
-0.6
 41
-30.0
 62
     5
 63
     7
421
 16777215
 74
     0
 91
        4
 64
     7
 65
   257
 75
     1
175
     1
 42
1.0
 92
        8
 66
     7
 43
1.0
 76
     1
 77
     6
 78
     2
 67
     7
 79
     5
170
     0
171
     0
290
     0
174
     0
 93
        1
 44
0.0
173
     0
291
     1
 45
0.0
  0
VISUALSTYLE
  5
273
102
{ACAD_REACTORS
330
267
102
}
330
267
100
AcDbVisualStyle
  2
Brighten
 70
    12
 71
     2
 72
     2
 73
     0
 90
        0
 40
-0.6
 41
-30.0
 62
     5
 63
     7
421
 16777215
 74
     1
 91
        4
 64
     7
 65
   257
 75
     1
175
     1
 42
1.0
 92
        8
 66
     7
 43
1.0
 76
     1
 77
     6
 78
     2
 67
     7
 79
     5
170
     0
171
     0
290
     0
174
     0
 93
        1
 44
50.0
173
     0
291
     1
 45
0.0
  0
VISUALSTYLE
  5
277
102
{ACAD_REACTORS
330
267
102
}
330
267
100
AcDbVisualStyle
  2
ColorChange
 70
    16
 71
     2
 72
     2
 73
     3
 90
        0
 40
-0.6
 41
-30.0
 62
     5
 63
     8
421
  8421504
 74
     1
 91
        4
 64
     7
 65
   257
 75
     1
175
     1
 42
1.0
 92
        8
 66
     8
424
  8421504
 43
1.0
 76
     1
 77
     6
 78
     2
 67
     7
 79
     5
170
     0
171
     0
290
     0
174
     0
 93
        1
 44
0.0
173
     0
291
     1
 45
0.0
  0
VISUALSTYLE
  5
271
102
{ACAD_REACTORS
330
267
102
}
330
267
100
AcDbVisualStyle
  2
Conceptual
 70
     9
 71
     3
 72
     2
 73
     0
 90
        0
 40
-0.6
 41
-30.0
 62
     5
 63
     7
421
 16777215
 74
     2
 91
        2
 64
     7
 65
   257
 75
     1
175
     1
 42
40.0
 92
        8
 66
     7
 43
1.0
 76
     1
 77
     6
 78
     2
 67
     7
 79
     3
170
     0
171
     0
290
     0
174
     0
 93
        1
 44
0.0
173
     0
291
     0
 45
0.0
  0
VISUALSTYLE
  5
272
102
{ACAD_REACTORS
330
267
102
}
330
267
100
AcDbVisualStyle
  2
Dim
 70
    11
 71
     2
 72
     2
 73
     0
 90
        0
 40
-0.6
 41
-30.0
 62
     5
 63
     7
421
 16777215
 74
     1
 91
        4
 64
     7
 65
   257
 75
     1
175
     1
 42
1.0
 92
        8
 66
     7
 43
1.0
 76
     1
 77
     6
 78
     2
 67
     7
 79
     5
170
     0
171
     0
290
     0
174
     0
 93
        1
 44
-50.0
173
     0
291
     1
 45
0.0
  0
VISUALSTYLE
  5
8BC
102
{ACAD_REACTORS
330
267
102
}
330
267
100
AcDbVisualStyle
  2
EdgeColorOff
 70
    22
 71
     2
 72
     2
 73
     0
 90
        0
 40
0.6
 41
30.0
 62
     5
 63
     7
421
 16777215
 74
     1
 91
        4
 64
     7
 65
   257
 75
     1
175
     1
 42
1.0
 92
        8
 66
     7
 43
1.0
 76
     1
 77
     6
 78
     2
 67
     7
 79
     5
170
     0
171
     0
290
     0
174
     0
 93
        1
 44
0.0
173
     0
291
     1
 45
0.0
  0
VISUALSTYLE
  5
276
102
{ACAD_REACTORS
330
267
102
}
330
267
100
AcDbVisualStyle
  2
Facepattern
 70
    15
 71
     2
 72
     2
 73
     0
 90
        0
 40
-0.6
 41
-30.0
 62
     5
 63
     7
421
 16777215
 74
     1
 91
        4
 64
     7
 65
   257
 75
     1
175
     1
 42
1.0
 92
        8
 66
     7
 43
1.0
 76
     1
 77
     6
 78
     2
 67
     7
 79
     5
170
     0
171
     0
290
     0
174
     0
 93
        1
 44
0.0
173
     0
291
     1
 45
0.0
  0
VISUALSTYLE
  5
268
102
{ACAD_REACTORS
330
267
102
}
330
267
100
AcDbVisualStyle
  2
Flat
 70
     0
 71
     2
 72
     1
 73
     1
 90
        2
 40
-0.6
 41
30.0
 62
     5
 63
     7
421
 16777215
 74
     0
 91
        4
 64
     7
 65
   257
 75
     1
175
     1
 42
1.0
 92
        8
 66
     7
 43
1.0
 76
     1
 77
     6
 78
     2
 67
     7
 79
     5
170
     0
171
     0
290
     0
174
     0
 93
       13
 44
0.0
173
     0
291
     1
 45
0.0
  0
VISUALSTYLE
  5
269
102
{ACAD_REACTORS
330
267
102
}
330
267
100
AcDbVisualStyle
  2
FlatWithEdges
 70
     1
 71
     2
 72
     1
 73
     1
 90
        2
 40
-0.6
 41
30.0
 62
     5
 63
     7
421
 16777215
 74
     1
 91
        4
 64
     7
 65
   257
 75
     1
175
     1
 42
1.0
 92
        0
 66
   257
 43
1.0
 76
     1
 77
     6
 78
     2
 67
     7
 79
     5
170
     0
171
     0
290
     0
174
     0
 93
       13
 44
0.0
173
     0
291
     1
 45
0.0
  0
VISUALSTYLE
  5
26A
102
{ACAD_REACTORS
330
267
102
}
330
267
100
AcDbVisualStyle
  2
Gouraud
 70
     2
 71
     2
 72
     2
 73
     1
 90
        2
 40
-0.6
 41
30.0
 62
     5
 63
     7
421
 16777215
 74
     0
 91
        4
 64
     7
 65
   257
 75
     1
175
     1
 42
1.0
 92
        0
 66
     7
 43
1.0
 76
     1
 77
     6
 78
     2
 67
     7
 79
     5
170
     0
171
     0
290
     0
174
     0
 93
       13
 44
0.0
173
     0
291
     1
 45
0.0
  0
VISUALSTYLE
  5
26B
102
{ACAD_REACTORS
330
267
102
}
330
267
100
AcDbVisualStyle
  2
GouraudWithEdges
 70
     3
 71
     2
 72
     2
 73
     1
 90
        2
 40
-0.6
 41
30.0
 62
     5
 63
     7
421
 16777215
 74
     1
 91
        4
 64
     7
 65
   257
 75
     1
175
     1
 42
1.0
 92
        0
 66
   257
 43
1.0
 76
     1
 77
     6
 78
     2
 67
     7
 79
     5
170
     0
171
     0
290
     0
174
     0
 93
       13
 44
0.0
173
     0
291
     1
 45
0.0
  0
VISUALSTYLE
  5
8B9
102
{ACAD_REACTORS
330
267
102
}
330
267
100
AcDbVisualStyle
  2
Hidden
 70
     6
 71
     1
 72
     2
 73
     2
 90
        0
 40
0.6
 41
30.0
 62
     5
 63
     7
421
 16777215
 74
     2
 91
        2
 64
     7
 65
   257
 75
     2
175
     1
 42
40.0
 92
        0
 66
   257
 43
1.0
 76
     1
 77
     6
 78
     2
 67
     7
 79
     3
170
     0
171
     0
290
     0
174
     0
 93
        1
 44
0.0
173
     0
291
     0
 45
0.0
  0
VISUALSTYLE
  5
8BA
102
{ACAD_REACTORS
330
267
102
}
330
267
100
AcDbVisualStyle
  2
JitterOff
 70
    20
 71
     2
 72
     2
 73
     0
 90
        0
 40
0.6
 41
30.0
 62
     5
 63
     7
421
 16777215
 74
     1
 91
        4
 64
     7
 65
   257
 75
     1
175
     1
 42
1.0
 92
       10
 66
     7
 43
1.0
 76
     1
 77
     6
 78
     2
 67
     7
 79
     5
170
     0
171
     0
290
     0
174
     0
 93
        1
 44
0.0
173
     0
291
     1
 45
0.0
  0
VISUALSTYLE
  5
275
102
{ACAD_REACTORS
330
267
102
}
330
267
100
AcDbVisualStyle
  2
Linepattern
 70
    14
 71
     2
 72
     2
 73
     0
 90
        0
 40
-0.6
 41
-30.0
 62
     5
 63
     7
421
 16777215
 74
     1
 91
        4
 64
     7
 65
   257
 75
     7
175
     7
 42
1.0
 92
        8
 66
     7
 43
1.0
 76
     1
 77
     6
 78
     2
 67
     7
 79
     5
170
     0
171
     0
290
     0
174
     0
 93
        1
 44
0.0
173
     0
291
     1
 45
0.0
  0
VISUALSTYLE
  5
8BB
102
{ACAD_REACTORS
330
267
102
}
330
267
100
AcDbVisualStyle
  2
OverhangOff
 70
    21
 71
     2
 72
     2
 73
     0
 90
        0
 40
0.6
 41
30.0
 62
     5
 63
     7
421
 16777215
 74
     1
 91
        4
 64
     7
 65
   257
 75
     1
175
     1
 42
1.0
 92
        9
 66
     7
 43
1.0
 76
     1
 77
     6
 78
     2
 67
     7
 79
     5
170
     0
171
     0
290
     0
174
     0
 93
        1
 44
0.0
173
     0
291
     1
 45
0.0
  0
VISUALSTYLE
  5
270
102
{ACAD_REACTORS
330
267
102
}
330
267
100
AcDbVisualStyle
  2
Realistic
 70
     8
 71
     2
 72
     2
 73
     0
 90
        0
 40
-0.6
 41
-30.0
 62
     5
 63
     7
421
 16777215
 74
     1
 91
        0
 64
     7
 65
   257
 75
     1
175
     1
 42
1.0
 92
        8
 66
     8
424
  7895160
 43
1.0
 76
     1
 77
     6
 78
     2
 67
     7
 79
     5
170
     0
171
     0
290
     0
174
     0
 93
       13
 44
0.0
173
     0
291
     0
 45
0.0
  0
VISUALSTYLE
  5
8C1
102
{ACAD_REACTORS
330
267
102
}
330
267
100
AcDbVisualStyle
  2
Shaded
 70
    27
 71
     2
 72
     2
 73
     1
 90
        2
 40
0.6
 41
30.0
 62
     5
 63
     7
421
 16777215
 74
     0
 91
        4
 64
     7
 65
   257
 75
     1
175
     1
 42
1.0
 92
        8
 66
   257
 43
1.0
 76
     1
 77
     6
 78
     2
 67
     8
425
  7895160
 79
     3
170
     0
171
     0
290
     0
174
     0
 93
        5
 44
0.0
173
     0
291
     0
 45
0.0
  0
VISUALSTYLE
  5
8C0
102
{ACAD_REACTORS
330
267
102
}
330
267
100
AcDbVisualStyle
  2
Shaded with edges
 70
    26
 71
     2
 72
     2
 73
     1
 90
        2
 40
0.6
 41
30.0
 62
     5
 63
     7
421
 16777215
 74
     1
 91
       10
 64
     7
 65
   257
 75
     2
175
     1
 42
1.0
 92
        8
 66
   257
 43
1.0
 76
     1
 77
     6
 78
     2
 67
     7
 79
     3
170
     0
171
     0
290
     0
174
     0
 93
        5
 44
0.0
173
     0
291
     0
 45
0.0
  0
VISUALSTYLE
  5
8BD
102
{ACAD_REACTORS
330
267
102
}
330
267
100
AcDbVisualStyle
  2
Shades of Gray
 70
    23
 71
     2
 72
     2
 73
     3
 90
        0
 40
0.6
 41
30.0
 62
     5
 63
     7
421
 16777215
 74
     2
 91
        2
 64
     7
 65
     7
 75
     1
175
     1
 42
40.0
 92
        8
 66
     7
 43
1.0
 76
     1
 77
     6
 78
     2
 67
     7
 79
     3
170
     0
171
     0
290
     0
174
     0
 93
        1
 44
0.0
173
     0
291
     0
 45
0.0
  0
VISUALSTYLE
  5
8BE
102
{ACAD_REACTORS
330
267
102
}
330
267
100
AcDbVisualStyle
  2
Sketchy
 70
    24
 71
     1
 72
     2
 73
     2
 90
        0
 40
0.6
 41
30.0
 62
     5
 63
     7
421
 16777215
 74
     2
 91
        2
 64
     7
 65
     7
 75
     1
175
     1
 42
40.0
 92
       11
 66
     7
 43
1.0
 76
     1
 77
     6
 78
     2
 67
     7
 79
     6
170
     0
171
     0
290
     0
174
     0
 93
        1
 44
0.0
173
     0
291
     0
 45
0.0
  0
VISUALSTYLE
  5
274
102
{ACAD_REACTORS
330
267
102
}
330
267
100
AcDbVisualStyle
  2
Thicken
 70
    13
 71
     2
 72
     2
 73
     0
 90
        0
 40
-0.6
 41
-30.0
 62
     5
 63
     7
421
 16777215
 74
     1
 91
        4
 64
     7
 65
   257
 75
     1
175
     1
 42
1.0
 92
       12
 66
     7
 43
1.0
 76
     1
 77
     6
 78
     2
 67
     7
 79
     5
170
     0
171
     0
290
     0
174
     0
 93
        1
 44
0.0
173
     0
291
     1
 45
0.0
  0
VISUALSTYLE
  5
8B8
102
{ACAD_REACTORS
330
267
102
}
330
267
100
AcDbVisualStyle
  2
Wireframe
 70
     5
 71
     0
 72
     2
 73
     0
 90
        0
 40
0.6
 41
30.0
 62
     5
 63
     7
421
 16777215
 74
     1
 91
        4
 64
     7
 65
   257
 75
     1
175
     1
 42
1.0
 92
        0
 66
   257
 43
1.0
 76
     1
 77
     6
 78
     2
 67
     7
 79
     3
170
     0
171
     0
290
     0
174
     0
 93
        1
 44
0.0
173
     0
291
     0
 45
0.0
  0
VISUALSTYLE
  5
8BF
102
{ACAD_REACTORS
330
267
102
}
330
267
100
AcDbVisualStyle
  2
X-Ray
 70
    25
 71
     2
 72
     2
 73
     1
 90
        1
 40
0.5
 41
30.0
 62
     5
 63
     7
421
 16777215
 74
     1
 91
        0
 64
     7
 65
   257
 75
     1
175
     1
 42
1.0
 92
        8
 66
     7
 43
1.0
 76
     1
 77
     6
 78
     2
 67
     7
 79
     3
170
     0
171
     0
290
     0
174
     0
 93
       13
 44
0.0
173
     0
291
     0
 45
0.0
  0
DICTIONARYVAR
  5
331
102
{ACAD_REACTORS
330
330
102
}
330
330
100
DictionaryVariables
280
     0
  1
1:1
  0
DICTIONARYVAR
  5
8DA
102
{ACAD_REACTORS
330
330
102
}
330
330
100
DictionaryVariables
280
     0
  1
Standard
  0
DICTIONARYVAR
  5
335
102
{ACAD_REACTORS
330
330
102
}
330
330
100
DictionaryVariables
280
     0
  1
Standard
  0
DICTIONARYVAR
  5
C07
102
{ACAD_REACTORS
330
330
102
}
330
330
100
DictionaryVariables
280
     0
  1
ByLayer
  0
DICTIONARYVAR
  5
64A
102
{ACAD_REACTORS
330
330
102
}
330
330
100
DictionaryVariables
280
     0
  1
0
  0
DICTIONARYVAR
  5
4342
102
{ACAD_REACTORS
330
C08
102
}
330
C08
100
DictionaryVariables
280
     0
  1
0.261799
  0
DICTIONARYVAR
  5
4340
102
{ACAD_REACTORS
330
C08
102
}
330
C08
100
DictionaryVariables
280
     0
  1
0.400000
  0
DICTIONARYVAR
  5
4341
102
{ACAD_REACTORS
330
C08
102
}
330
C08
100
DictionaryVariables
280
     0
  1
0.250000
  0
DICTIONARYVAR
  5
4343
102
{ACAD_REACTORS
330
C08
102
}
330
C08
100
DictionaryVariables
280
     0
  1
1
  0
FIELD
  5
BDE
102
{ACAD_REACTORS
330
BE4
102
}
330
BE4
100
AcDbField
  1
_text
  2
{%<\_FldIdx 0>%N}
 90
        1
360
BDF
 97
        0
 91
       63
 92
        0
 94
        8
 95
        2
 96
        0
300

 93
        1
  6
ACFD_FIELDTEXT_CHECKSUM
 93
        2
 90
        2
140
4552.0
 94
        0
300

302

304
ACVALUE_END
  7
ACFD_FIELD_VALUE
 93
        6
 90
        4
  1
{20170726N}
 94
        0
300

302

304
ACVALUE_END
301
{20170726N}
 98
       11
  0
DICTIONARY
  5
5A0C
330
279
100
AcDbDictionary
280
     1
281
     1
  3
ACAD_ROUNDTRIP_2008_TABLESTYLE_CELLSTYLEMAP
360
5A0D
  0
FIELD
  5
BDF
330
BDE
100
AcDbField
  1
AcVar
  2
\AcVar Date \f "yyyyMMdd"
 90
        0
 97
        0
 91
       63
 92
        0
 94
        8
 95
       64
 96
        0
300
Variable not supported
 93
        1
  6
Variable
 93
        2
 90
        4
  1
Date
 94
        0
300

302

304
ACVALUE_END
  7
ACFD_FIELD_VALUE
 93
        6
 90
        8
 92
       16
310
E1070700000019001000170029000000
 94
        0
300
yyyyMMdd
302

304
ACVALUE_END
301
20170726
 98
        8
  0
CELLSTYLEMAP
  5
5A0D
102
{ACAD_REACTORS
330
5A0C
102
}
330
5A0C
100
AcDbCellStyleMap
 90
        3
300
CELLSTYLE
  1
TABLEFORMAT_BEGIN
 90
        5
170
     1
 91
        0
 92
    32768
 62
   257
 93
        1
300
CONTENTFORMAT
  1
CONTENTFORMAT_BEGIN
 90
        0
 91
        0
 92
        4
 93
        0
300

 40
0.0
140
1.0
 94
        5
 62
     0
340
17
144
6.0
309
CONTENTFORMAT_END
171
     1
301
MARGIN
  1
CELLMARGIN_BEGIN
 40
0.06
 40
0.06
 40
0.06
 40
0.06
 40
0.18
 40
0.18
309
CELLMARGIN_END
 94
        6
 95
        1
302
GRIDFORMAT
  1
GRIDFORMAT_BEGIN
 90
        0
 91
        1
 62
     0
 92
       -2
340
0
 93
        0
 40
0.045
309
GRIDFORMAT_END
 95
        2
302
GRIDFORMAT
  1
GRIDFORMAT_BEGIN
 90
        0
 91
        1
 62
     0
 92
       -2
340
0
 93
        0
 40
0.045
309
GRIDFORMAT_END
 95
        4
302
GRIDFORMAT
  1
GRIDFORMAT_BEGIN
 90
        0
 91
        1
 62
     0
 92
       -2
340
0
 93
        0
 40
0.045
309
GRIDFORMAT_END
 95
        8
302
GRIDFORMAT
  1
GRIDFORMAT_BEGIN
 90
        0
 91
        1
 62
     0
 92
       -2
340
0
 93
        0
 40
0.045
309
GRIDFORMAT_END
 95
       16
302
GRIDFORMAT
  1
GRIDFORMAT_BEGIN
 90
        0
 91
        1
 62
     0
 92
       -2
340
0
 93
        0
 40
0.045
309
GRIDFORMAT_END
 95
       32
302
GRIDFORMAT
  1
GRIDFORMAT_BEGIN
 90
        0
 91
        1
 62
     0
 92
       -2
340
0
 93
        0
 40
0.045
309
GRIDFORMAT_END
309
TABLEFORMAT_END
  1
CELLSTYLE_BEGIN
 90
        1
 91
        1
300
_TITLE
309
CELLSTYLE_END
300
CELLSTYLE
  1
TABLEFORMAT_BEGIN
 90
        5
170
     1
 91
        0
 92
        0
 62
   257
 93
        1
300
CONTENTFORMAT
  1
CONTENTFORMAT_BEGIN
 90
        0
 91
        0
 92
        4
 93
        0
300

 40
0.0
140
1.0
 94
        5
 62
     0
340
17
144
4.5
309
CONTENTFORMAT_END
171
     1
301
MARGIN
  1
CELLMARGIN_BEGIN
 40
0.06
 40
0.06
 40
0.06
 40
0.06
 40
0.18
 40
0.18
309
CELLMARGIN_END
 94
        6
 95
        1
302
GRIDFORMAT
  1
GRIDFORMAT_BEGIN
 90
        0
 91
        1
 62
     0
 92
       -2
340
0
 93
        0
 40
0.045
309
GRIDFORMAT_END
 95
        2
302
GRIDFORMAT
  1
GRIDFORMAT_BEGIN
 90
        0
 91
        1
 62
     0
 92
       -2
340
0
 93
        0
 40
0.045
309
GRIDFORMAT_END
 95
        4
302
GRIDFORMAT
  1
GRIDFORMAT_BEGIN
 90
        0
 91
        1
 62
     0
 92
       -2
340
0
 93
        0
 40
0.045
309
GRIDFORMAT_END
 95
        8
302
GRIDFORMAT
  1
GRIDFORMAT_BEGIN
 90
        0
 91
        1
 62
     0
 92
       -2
340
0
 93
        0
 40
0.045
309
GRIDFORMAT_END
 95
       16
302
GRIDFORMAT
  1
GRIDFORMAT_BEGIN
 90
        0
 91
        1
 62
     0
 92
       -2
340
0
 93
        0
 40
0.045
309
GRIDFORMAT_END
 95
       32
302
GRIDFORMAT
  1
GRIDFORMAT_BEGIN
 90
        0
 91
        1
 62
     0
 92
       -2
340
0
 93
        0
 40
0.045
309
GRIDFORMAT_END
309
TABLEFORMAT_END
  1
CELLSTYLE_BEGIN
 90
        2
 91
        1
300
_HEADER
309
CELLSTYLE_END
300
CELLSTYLE
  1
TABLEFORMAT_BEGIN
 90
        5
170
     1
 91
        0
 92
        0
 62
   257
 93
        1
300
CONTENTFORMAT
  1
CONTENTFORMAT_BEGIN
 90
        0
 91
        0
 92
        4
 93
        0
300

 40
0.0
140
1.0
 94
        2
 62
     0
340
17
144
4.5
309
CONTENTFORMAT_END
171
     1
301
MARGIN
  1
CELLMARGIN_BEGIN
 40
0.06
 40
0.06
 40
0.06
 40
0.06
 40
0.18
 40
0.18
309
CELLMARGIN_END
 94
        6
 95
        1
302
GRIDFORMAT
  1
GRIDFORMAT_BEGIN
 90
        0
 91
        1
 62
     0
 92
       -2
340
0
 93
        0
 40
0.045
309
GRIDFORMAT_END
 95
        2
302
GRIDFORMAT
  1
GRIDFORMAT_BEGIN
 90
        0
 91
        1
 62
     0
 92
       -2
340
0
 93
        0
 40
0.045
309
GRIDFORMAT_END
 95
        4
302
GRIDFORMAT
  1
GRIDFORMAT_BEGIN
 90
        0
 91
        1
 62
     0
 92
       -2
340
0
 93
        0
 40
0.045
309
GRIDFORMAT_END
 95
        8
302
GRIDFORMAT
  1
GRIDFORMAT_BEGIN
 90
        0
 91
        1
 62
     0
 92
       -2
340
0
 93
        0
 40
0.045
309
GRIDFORMAT_END
 95
       16
302
GRIDFORMAT
  1
GRIDFORMAT_BEGIN
 90
        0
 91
        1
 62
     0
 92
       -2
340
0
 93
        0
 40
0.045
309
GRIDFORMAT_END
 95
       32
302
GRIDFORMAT
  1
GRIDFORMAT_BEGIN
 90
        0
 91
        1
 62
     0
 92
       -2
340
0
 93
        0
 40
0.045
309
GRIDFORMAT_END
309
TABLEFORMAT_END
  1
CELLSTYLE_BEGIN
 90
        3
 91
        2
300
_DATA
309
CELLSTYLE_END
  0
ENDSEC
  0
EOF
