  0
SECTION
  2
HEADER
  9
$ACADVER
  1
AC1021
  9
$ACADMAINTVER
 70
    25
  9
$DWGCODEPAGE
  3
ANSI_932
  9
$LASTSAVEDBY
  1
howeNelson
  9
$INSBASE
 10
0.0
 20
0.0
 30
0.0
  9
$EXTMIN
 10
0.0
 20
0.0
 30
0.0
  9
$EXTMAX
 10
2100.0
 20
2970.0
 30
17.49760566173007
  9
$LIMMIN
 10
0.0
 20
0.0
  9
$LIMMAX
 10
2100.0
 20
2970.0
  9
$ORTHOMODE
 70
     0
  9
$REGENMODE
 70
     1
  9
$FILLMODE
 70
     1
  9
$QTEXTMODE
 70
     0
  9
$MIRRTEXT
 70
     1
  9
$LTSCALE
 40
3.0
  9
$ATTMODE
 70
     1
  9
$TEXTSIZE
 40
533.0403732820173
  9
$TRACEWID
 40
1.0
  9
$TEXTSTYLE
  7
Standard
  9
$CLAYER
  8
Dim
  9
$CELTYPE
  6
ByLayer
  9
$CECOLOR
 62
   256
  9
$CELTSCALE
 40
1.0
  9
$DISPSILH
 70
     0
  9
$DIMSCALE
 40
1.0
  9
$DIMASZ
 40
9.999389648437498
  9
$DIMEXO
 40
25.0
  9
$DIMDLI
 40
0.9999999999999999
  9
$DIMRND
 40
0.0
  9
$DIMDLE
 40
0.0
  9
$DIMEXE
 40
0.0
  9
$DIMTP
 40
0.0
  9
$DIMTM
 40
0.0
  9
$DIMTXT
 40
24.4326171875
  9
$DIMCEN
 40
0.0
  9
$DIMTSZ
 40
0.0
  9
$DIMTOL
 70
     0
  9
$DIMLIM
 70
     0
  9
$DIMTIH
 70
     0
  9
$DIMTOH
 70
     0
  9
$DIMSE1
 70
     0
  9
$DIMSE2
 70
     0
  9
$DIMTAD
 70
     1
  9
$DIMZIN
 70
    11
  9
$DIMBLK
  1
DOT
  9
$DIMASO
 70
     1
  9
$DIMSHO
 70
     1
  9
$DIMPOST
  1
<>
  9
$DIMAPOST
  1
[]
  9
$DIMALT
 70
     0
  9
$DIMALTD
 70
     1
  9
$DIMALTF
 40
1.0
  9
$DIMLFAC
 40
1.0
  9
$DIMTOFL
 70
     1
  9
$DIMTVP
 40
0.0
  9
$DIMTIX
 70
     1
  9
$DIMSOXD
 70
     0
  9
$DIMSAH
 70
     0
  9
$DIMBLK1
  1

  9
$DIMBLK2
  1

  9
$DIMSTYLE
  2
tform線あり
  9
$DIMCLRD
 70
     0
  9
$DIMCLRE
 70
     0
  9
$DIMCLRT
 70
     0
  9
$DIMTFAC
 40
0.8
  9
$DIMGAP
 40
10.0
  9
$DIMJUST
 70
     0
  9
$DIMSD1
 70
     0
  9
$DIMSD2
 70
     0
  9
$DIMTOLJ
 70
     1
  9
$DIMTZIN
 70
    11
  9
$DIMALTZ
 70
    11
  9
$DIMALTTZ
 70
    11
  9
$DIMUPT
 70
     0
  9
$DIMDEC
 70
     1
  9
$DIMTDEC
 70
     1
  9
$DIMALTU
 70
     2
  9
$DIMALTTD
 70
     2
  9
$DIMTXSTY
  7
ＭＳ ゴシック
  9
$DIMAUNIT
 70
     0
  9
$DIMADEC
 70
     2
  9
$DIMALTRND
 40
0.0
  9
$DIMAZIN
 70
     0
  9
$DIMDSEP
 70
    46
  9
$DIMATFIT
 70
     0
  9
$DIMFRAC
 70
     2
  9
$DIMLDRBLK
  1
DOT
  9
$DIMLUNIT
 70
     2
  9
$DIMLWD
 70
    -2
  9
$DIMLWE
 70
    -2
  9
$DIMTMOVE
 70
     0
  9
$DIMFXL
 40
1.0
  9
$DIMFXLON
 70
     0
  9
$DIMJOGANG
 40
0.7853981633974483
  9
$DIMTFILL
 70
     0
  9
$DIMTFILLCLR
 70
     0
  9
$DIMARCSYM
 70
     0
  9
$DIMLTYPE
  6

  9
$DIMLTEX1
  6

  9
$DIMLTEX2
  6

  9
$LUNITS
 70
     2
  9
$LUPREC
 70
     0
  9
$SKETCHINC
 40
0.1
  9
$FILLETRAD
 40
0.0
  9
$AUNITS
 70
     0
  9
$AUPREC
 70
     0
  9
$MENU
  1
acad
  9
$ELEVATION
 40
0.0
  9
$PELEVATION
 40
0.0
  9
$THICKNESS
 40
0.0
  9
$LIMCHECK
 70
     0
  9
$CHAMFERA
 40
0.0
  9
$CHAMFERB
 40
0.0
  9
$CHAMFERC
 40
0.0
  9
$CHAMFERD
 40
0.0
  9
$SKPOLY
 70
     0
  9
$TDCREATE
 40
2447893.375
  9
$TDUCREATE
 40
0.0
  9
$TDUPDATE
 40
2457960.683107442
  9
$TDUUPDATE
 40
2457960.308107442
  9
$TDINDWG
 40
0.0057119444
  9
$TDUSRTIMER
 40
2457960.308100753
  9
$USRTIMER
 70
     1
  9
$ANGBASE
 50
0.0
  9
$ANGDIR
 70
     0
  9
$PDMODE
 70
     1
  9
$PDSIZE
 40
-2.0
  9
$PLINEWID
 40
0.0
  9
$SPLFRAME
 70
     0
  9
$SPLINETYPE
 70
     6
  9
$SPLINESEGS
 70
     8
  9
$HANDSEED
  5
5870
  9
$SURFTAB1
 70
     6
  9
$SURFTAB2
 70
     6
  9
$SURFTYPE
 70
     6
  9
$SURFU
 70
     6
  9
$SURFV
 70
     6
  9
$UCSBASE
  2

  9
$UCSNAME
  2

  9
$UCSORG
 10
0.0
 20
0.0
 30
0.0
  9
$UCSXDIR
 10
1.0
 20
0.0
 30
0.0
  9
$UCSYDIR
 10
0.0
 20
1.0
 30
0.0
  9
$UCSORTHOREF
  2

  9
$UCSORTHOVIEW
 70
     0
  9
$UCSORGTOP
 10
0.0
 20
0.0
 30
0.0
  9
$UCSORGBOTTOM
 10
0.0
 20
0.0
 30
0.0
  9
$UCSORGLEFT
 10
0.0
 20
0.0
 30
0.0
  9
$UCSORGRIGHT
 10
0.0
 20
0.0
 30
0.0
  9
$UCSORGFRONT
 10
0.0
 20
0.0
 30
0.0
  9
$UCSORGBACK
 10
0.0
 20
0.0
 30
0.0
  9
$PUCSBASE
  2

  9
$PUCSNAME
  2

  9
$PUCSORG
 10
0.0
 20
0.0
 30
0.0
  9
$PUCSXDIR
 10
1.0
 20
0.0
 30
0.0
  9
$PUCSYDIR
 10
0.0
 20
1.0
 30
0.0
  9
$PUCSORTHOREF
  2

  9
$PUCSORTHOVIEW
 70
     0
  9
$PUCSORGTOP
 10
0.0
 20
0.0
 30
0.0
  9
$PUCSORGBOTTOM
 10
0.0
 20
0.0
 30
0.0
  9
$PUCSORGLEFT
 10
0.0
 20
0.0
 30
0.0
  9
$PUCSORGRIGHT
 10
0.0
 20
0.0
 30
0.0
  9
$PUCSORGFRONT
 10
0.0
 20
0.0
 30
0.0
  9
$PUCSORGBACK
 10
0.0
 20
0.0
 30
0.0
  9
$USERI1
 70
     0
  9
$USERI2
 70
     0
  9
$USERI3
 70
     0
  9
$USERI4
 70
     0
  9
$USERI5
 70
     0
  9
$USERR1
 40
0.0
  9
$USERR2
 40
0.0
  9
$USERR3
 40
0.0
  9
$USERR4
 40
0.0
  9
$USERR5
 40
0.0
  9
$WORLDVIEW
 70
     1
  9
$SHADEDGE
 70
     3
  9
$SHADEDIF
 70
    70
  9
$TILEMODE
 70
     1
  9
$MAXACTVP
 70
    64
  9
$PINSBASE
 10
0.0
 20
0.0
 30
0.0
  9
$PLIMCHECK
 70
     0
  9
$PEXTMIN
 10
0.0
 20
0.0
 30
0.0
  9
$PEXTMAX
 10
0.0
 20
0.0
 30
0.0
  9
$PLIMMIN
 10
-7.5
 20
-20.0
  9
$PLIMMAX
 10
412.5
 20
277.0
  9
$UNITMODE
 70
     0
  9
$VISRETAIN
 70
     0
  9
$PLINEGEN
 70
     1
  9
$PSLTSCALE
 70
     0
  9
$TREEDEPTH
 70
  3020
  9
$CMLSTYLE
  2
Standard
  9
$CMLJUST
 70
     0
  9
$CMLSCALE
 40
1.0
  9
$PROXYGRAPHICS
 70
     0
  9
$MEASUREMENT
 70
     1
  9
$CELWEIGHT
370
    -1
  9
$ENDCAPS
280
     0
  9
$JOINSTYLE
280
     0
  9
$LWDISPLAY
290
     1
  9
$INSUNITS
 70
     4
  9
$HYPERLINKBASE
  1

  9
$STYLESHEET
  1

  9
$XEDIT
290
     1
  9
$CEPSNTYPE
380
     0
  9
$PSTYLEMODE
290
     1
  9
$FINGERPRINTGUID
  2

  9
$VERSIONGUID
  2

  9
$EXTNAMES
290
     1
  9
$PSVPSCALE
 40
0.0
  9
$OLESTARTUP
290
     0
  9
$SORTENTS
280
   127
  9
$INDEXCTL
280
     0
  9
$HIDETEXT
280
     1
  9
$XCLIPFRAME
290
     0
  9
$HALOGAP
280
     0
  9
$OBSCOLOR
 70
   257
  9
$OBSLTYPE
280
     0
  9
$INTERSECTIONDISPLAY
280
     0
  9
$INTERSECTIONCOLOR
 70
   257
  9
$DIMASSOC
280
     2
  9
$PROJECTNAME
  1

  9
$CAMERADISPLAY
290
     0
  9
$LENSLENGTH
 40
50.0
  9
$CAMERAHEIGHT
 40
0.0
  9
$STEPSPERSEC
 40
2.0
  9
$STEPSIZE
 40
6.0
  9
$3DDWFPREC
 40
2.0
  9
$PSOLWIDTH
 40
0.25
  9
$PSOLHEIGHT
 40
4.0
  9
$LOFTANG1
 40
1.570796326794897
  9
$LOFTANG2
 40
1.570796326794897
  9
$LOFTMAG1
 40
0.0
  9
$LOFTMAG2
 40
0.0
  9
$LOFTPARAM
 70
     7
  9
$LOFTNORMALS
280
     1
  9
$LATITUDE
 40
37.795
  9
$LONGITUDE
 40
-122.394
  9
$NORTHDIRECTION
 40
0.0
  9
$TIMEZONE
 70
 -8000
  9
$LIGHTGLYPHDISPLAY
280
     1
  9
$TILEMODELIGHTSYNCH
280
     1
  9
$SOLIDHIST
280
     1
  9
$SHOWHIST
280
     1
  9
$DWFFRAME
280
     2
  9
$DGNFRAME
280
     2
  9
$REALWORLDSCALE
290
     1
  9
$INTERFERECOLOR
 62
   256
  9
$CSHADOW
280
     0
  9
$SHADOWPLANELOCATION
 40
0.0
  0
ENDSEC
  0
SECTION
  2
CLASSES
  0
CLASS
  1
LWPOLYLINE
  2
AcDbPolyline
  3
ObjectDBX Classes
 90
        0
 91
        1
280
     0
281
     1
  0
CLASS
  1
IMAGE
  2
AcDbRasterImage
  3
ISM
 90
      127
 91
        6
280
     0
281
     1
  0
CLASS
  1
OLE2FRAME
  2
AcDbOle2Frame
  3
ObjectDBX Classes
 90
        0
 91
        1
280
     0
281
     1
  0
CLASS
  1
HATCH
  2
AcDbHatch
  3
ObjectDBX Classes
 90
        0
 91
        1
280
     0
281
     1
  0
CLASS
  1
DICTIONARYVAR
  2
AcDbDictionaryVar
  3
ObjectDBX Classes
 90
        0
 91
        5
280
     0
281
     0
  0
CLASS
  1
RASTERVARIABLES
  2
AcDbRasterVariables
  3
ISM
 90
        0
 91
        5
280
     0
281
     0
  0
CLASS
  1
IMAGEDEF
  2
AcDbRasterImageDef
  3
ISM
 90
        0
 91
        5
280
     0
281
     0
  0
CLASS
  1
IMAGEDEF_REACTOR
  2
AcDbRasterImageDefReactor
  3
ISM
 90
        1
 91
        5
280
     0
281
     0
  0
CLASS
  1
IDBUFFER
  2
AcDbIdBuffer
  3
ObjectDBX Classes
 90
        0
 91
        5
280
     0
281
     0
  0
CLASS
  1
SPATIAL_FILTER
  2
AcDbSpatialFilter
  3
ObjectDBX Classes
 90
        0
 91
        5
280
     0
281
     0
  0
CLASS
  1
XRECORD
  2
AcDbXrecord
  3
ObjectDBX Classes
 90
        0
 91
        1
280
     0
281
     0
  0
CLASS
  1
SORTENTSTABLE
  2
AcDbSortentsTable
  3
ObjectDBX Classes
 90
        0
 91
        5
280
     0
281
     0
  0
CLASS
  1
LAYER_INDEX
  2
AcDbLayerIndex
  3
ObjectDBX Classes
 90
        0
 91
        5
280
     0
281
     0
  0
CLASS
  1
SPATIAL_INDEX
  2
AcDbSpatialIndex
  3
AutoCAD 2000
 90
        0
 91
        5
280
     0
281
     0
  0
CLASS
  1
OBJECT_PTR
  2
CAseDLPNTableRecord
  3
ASE-LPNTableRecord
 90
        1
 91
        5
280
     0
281
     0
  0
CLASS
  1
LAYOUT
  2
AcDbLayout
  3
ObjectDBX Classes
 90
        0
 91
        1
280
     0
281
     0
  0
CLASS
  1
PLOTSETTINGS
  2
AcDbPlotSettings
  3
ObjectDBX Classes
 90
        0
 91
        5
280
     0
281
     0
  0
CLASS
  1
ACDBDICTIONARYWDFLT
  2
AcDbDictionaryWithDefault
  3
ObjectDBX Classes
 90
        0
 91
        5
280
     0
281
     0
  0
CLASS
  1
ACDBPLACEHOLDER
  2
AcDbPlaceHolder
  3
ObjectDBX Classes
 90
        0
 91
        1
280
     0
281
     0
  0
CLASS
  1
SCALE
  2
AcDbScale
  3
ObjectDBX Classes
 90
     1153
 91
        5
280
     0
281
     0
  0
CLASS
  1
MATERIAL
  2
AcDbMaterial
  3
ObjectDBX Classes
 90
     1153
 91
        5
280
     0
281
     0
  0
CLASS
  1
VISUALSTYLE
  2
AcDbVisualStyle
  3
ObjectDBX Classes
 90
     4095
 91
        5
280
     0
281
     0
  0
CLASS
  1
TABLESTYLE
  2
AcDbTableStyle
  3
ObjectDBX Classes
 90
     4095
 91
        5
280
     0
281
     0
  0
CLASS
  1
DIMASSOC
  2
AcDbDimAssoc
  3
"AcDbDimAssoc|Product Desc:     AcDim ARX App For Dimension|Company:          Autodesk, Inc.|WEB Address:      www.autodesk.com"
 90
        0
 91
        5
280
     0
281
     0
  0
CLASS
  1
CELLSTYLEMAP
  2
AcDbCellStyleMap
  3
ObjectDBX Classes
 90
     1152
 91
        5
280
     0
281
     0
  0
CLASS
  1
SUN
  2
AcDbSun
  3
SCENEOE
 90
     1153
 91
        5
280
     0
281
     0
  0
CLASS
  1
MLEADERSTYLE
  2
AcDbMLeaderStyle
  3
ACDB_MLEADERSTYLE_CLASS
 90
     4095
 91
        5
280
     0
281
     0
  0
CLASS
  1
FIELD
  2
AcDbField
  3
ObjectDBX Classes
 90
     1152
 91
        5
280
     0
281
     0
  0
CLASS
  1
FIELDLIST
  2
AcDbFieldList
  3
ObjectDBX Classes
 90
     1152
 91
        5
280
     0
281
     0
  0
CLASS
  1
ACDB_ALDIMOBJECTCONTEXTDATA_CLASS
  2
AcDbAlignedDimensionObjectContextData
  3
ObjectDBX Classes
 90
     1153
 91
        5
280
     0
281
     0
  0
ENDSEC
  0
SECTION
  2
TABLES
  0
TABLE
  2
VPORT
  5
7
330
0
100
AcDbSymbolTable
 70
     1
  0
VPORT
  5
15
330
7
100
AcDbSymbolTableRecord
100
AcDbViewportTableRecord
  2
*ACTIVE
 70
     0
 10
0.0
 20
0.0
 11
1.0
 21
1.0
 12
672.9525617540362
 22
1782.612370234511
 13
0.0
 23
0.0
 14
1.0
 24
1.0
 15
0.0
 25
0.0
 16
0.0
 26
0.0
 36
1.0
 17
377.0474382459638
 27
-297.6123702345112
 37
0.0
 40
3029.4
 41
2.227272727272727
 42
50.0
 43
0.0
 44
0.0
 50
0.0
 51
0.0
 71
    16
 72
  2000
 73
     1
 74
     1
 75
     0
 76
     0
 77
     0
 78
     0
281
     0
 65
     1
110
0.0
120
0.0
130
0.0
111
1.0
121
0.0
131
0.0
112
0.0
122
1.0
132
0.0
 79
     0
146
0.0
348
26C
 60
     3
 61
     5
292
     1
282
     1
141
0.0
142
0.0
 63
   256
361
8C2
  0
ENDTAB
  0
TABLE
  2
LTYPE
  5
4
330
0
100
AcDbSymbolTable
 70
     5
  0
LTYPE
  5
11
330
4
100
AcDbSymbolTableRecord
100
AcDbLinetypeTableRecord
  2
ByBlock
 70
     0
  3

 72
    65
 73
     0
 40
0.0
  0
LTYPE
  5
12
330
4
100
AcDbSymbolTableRecord
100
AcDbLinetypeTableRecord
  2
ByLayer
 70
     0
  3

 72
    65
 73
     0
 40
0.0
  0
LTYPE
  5
13
330
4
100
AcDbSymbolTableRecord
100
AcDbLinetypeTableRecord
  2
Continuous
 70
     0
  3
Solid line
 72
    65
 73
     0
 40
0.0
  0
LTYPE
  5
8D4
330
4
100
AcDbSymbolTableRecord
100
AcDbLinetypeTableRecord
  2
HIDDEN
 70
     0
  3
Hidden _ _ _ _ _ _ _ _ _ _ _ _ _ _ _ _ _ _ _ _ 
 72
    65
 73
     2
 40
9.524999999999999
 49
6.35
 74
     0
 49
-3.175
 74
     0
  0
LTYPE
  5
BF2
330
4
100
AcDbSymbolTableRecord
100
AcDbLinetypeTableRecord
  2
BORDER
 70
     0
  3
Border __  __  . __  __  . __  __  . __  __  . 
 72
    65
 73
     6
 40
44.45
 49
12.7
 74
     0
 49
-6.35
 74
     0
 49
12.7
 74
     0
 49
-6.35
 74
     0
 49
0.0
 74
     0
 49
-6.35
 74
     0
  0
LTYPE
  5
50D0
330
4
100
AcDbSymbolTableRecord
100
AcDbLinetypeTableRecord
  2
CENTER2
 70
     0
  3
Center (.5x) ___ _ ___ _ ___ _ ___ _ ___ _ ___
 72
    65
 73
     4
 40
28.575
 49
19.05
 74
     0
 49
-3.175
 74
     0
 49
3.175
 74
     0
 49
-3.175
 74
     0
  0
LTYPE
  5
53EA
330
4
100
AcDbSymbolTableRecord
100
AcDbLinetypeTableRecord
  2
CENTER
 70
     0
  3
 Center _____  _  _____  _  _____  _  _____  _ 
 72
    65
 73
     4
 40
50.8
 49
31.75
 74
     0
 49
-6.35
 74
     0
 49
6.35
 74
     0
 49
-6.35
 74
     0
  0
ENDTAB
  0
TABLE
  2
LAYER
  5
2
102
{ACAD_XDICTIONARY
360
2E1
102
}
330
0
100
AcDbSymbolTable
 70
     9
  0
LAYER
  5
14
330
2
100
AcDbSymbolTableRecord
100
AcDbLayerTableRecord
  2
0
 70
     0
 62
     7
  6
Continuous
370
    -3
390
1D
347
266
  0
LAYER
  5
4A
330
2
100
AcDbSymbolTableRecord
100
AcDbLayerTableRecord
  2
Defpoints
 70
     0
 62
     7
  6
Continuous
290
     0
370
    20
390
1D
347
266
  0
LAYER
  5
4B
330
2
100
AcDbSymbolTableRecord
100
AcDbLayerTableRecord
  2
template
 70
     0
 62
     7
  6
Continuous
370
    20
390
1D
347
266
  0
LAYER
  5
382
330
2
100
AcDbSymbolTableRecord
100
AcDbLayerTableRecord
  2
レイヤー 1
 70
     0
 62
     7
  6
Continuous
370
    -3
390
1D
347
266
  0
LAYER
  5
5C4
330
2
100
AcDbSymbolTableRecord
100
AcDbLayerTableRecord
  2
HIDDEN
 70
     0
 62
   253
  6
HIDDEN
370
    13
390
1D
347
266
1001
AcAecLayerStandard
1000

1000

  0
LAYER
  5
5EB
330
2
100
AcDbSymbolTableRecord
100
AcDbLayerTableRecord
  2
Dim
 70
     0
 62
     3
  6
Continuous
370
    13
390
1D
347
266
1001
AcAecLayerStandard
1000

1000

  0
LAYER
  5
BF1
330
2
100
AcDbSymbolTableRecord
100
AcDbLayerTableRecord
  2
PRINT BORDER
 70
     0
 62
     4
  6
BORDER
290
     0
370
    20
390
1D
347
266
1001
AcAecLayerStandard
1000

1000

  0
LAYER
  5
1BD2
330
2
100
AcDbSymbolTableRecord
100
AcDbLayerTableRecord
  2
retino
 70
     0
 62
   253
  6
Continuous
370
     0
390
1D
347
266
  0
LAYER
  5
50CC
330
2
100
AcDbSymbolTableRecord
100
AcDbLayerTableRecord
  2
MODEL
 70
     0
 62
     7
  6
Continuous
370
    20
390
1D
347
266
  0
ENDTAB
  0
TABLE
  2
STYLE
  5
3
330
0
100
AcDbSymbolTable
 70
     2
  0
STYLE
  5
17
330
3
100
AcDbSymbolTableRecord
100
AcDbTextStyleTableRecord
  2
Standard
 70
     0
 40
0.0
 41
1.0
 50
0.0
 71
     0
 42
533.0403732820173
  3
txt
  4
BIGFONT.SHX
  0
STYLE
  5
39
330
3
100
AcDbSymbolTableRecord
100
AcDbTextStyleTableRecord
  2
ＭＳ ゴシック
 70
     0
 40
0.0
 41
1.0
 50
0.0
 71
     0
 42
533.0403732820173
  3
msgothic.ttc
  4
ＭＳ ゴシック
1001
ACAD
1000
ＭＳ ゴシック
1071
        0
  0
ENDTAB
  0
TABLE
  2
VIEW
  5
5
330
0
100
AcDbSymbolTable
 70
     0
  0
ENDTAB
  0
TABLE
  2
UCS
  5
6
330
0
100
AcDbSymbolTable
 70
     0
  0
ENDTAB
  0
TABLE
  2
APPID
  5
8
330
0
100
AcDbSymbolTable
 70
    14
  0
APPID
  5
16
330
8
100
AcDbSymbolTableRecord
100
AcDbRegAppTableRecord
  2
ACAD
 70
     0
  0
APPID
  5
5C5
330
8
100
AcDbSymbolTableRecord
100
AcDbRegAppTableRecord
  2
AcAecLayerStandard
 70
     0
  0
APPID
  5
913
330
8
100
AcDbSymbolTableRecord
100
AcDbRegAppTableRecord
  2
ACAD_DSTYLE_DIMBREAK
 70
     0
  0
APPID
  5
914
330
8
100
AcDbSymbolTableRecord
100
AcDbRegAppTableRecord
  2
ACAD_DSTYLE_DIMJAG
 70
     0
  0
APPID
  5
915
330
8
100
AcDbSymbolTableRecord
100
AcDbRegAppTableRecord
  2
ACAD_DSTYLE_DIMTALN
 70
     0
  0
APPID
  5
E4F
330
8
100
AcDbSymbolTableRecord
100
AcDbRegAppTableRecord
  2
ACAD_MLEADERVER
 70
     0
  0
APPID
  5
E79
330
8
100
AcDbSymbolTableRecord
100
AcDbRegAppTableRecord
  2
ACAD_PSEXT
 70
     0
  0
APPID
  5
E7A
330
8
100
AcDbSymbolTableRecord
100
AcDbRegAppTableRecord
  2
ACAD_NAV_VCDISPLAY
 70
     0
  0
APPID
  5
166E
330
8
100
AcDbSymbolTableRecord
100
AcDbRegAppTableRecord
  2
AcadAnnotative
 70
     0
  0
APPID
  5
166F
330
8
100
AcDbSymbolTableRecord
100
AcDbRegAppTableRecord
  2
GradientColor1ACI
 70
     0
  0
APPID
  5
1670
330
8
100
AcDbSymbolTableRecord
100
AcDbRegAppTableRecord
  2
GradientColor2ACI
 70
     0
  0
APPID
  5
20FE
330
8
100
AcDbSymbolTableRecord
100
AcDbRegAppTableRecord
  2
AcLayerTools
 70
     0
  0
APPID
  5
27AB
330
8
100
AcDbSymbolTableRecord
100
AcDbRegAppTableRecord
  2
ACAD_DSTYLE_DIMRADIAL_EXTENSION
 70
     0
  0
APPID
  5
4377
330
8
100
AcDbSymbolTableRecord
100
AcDbRegAppTableRecord
  2
RAK
 70
     0
  0
ENDTAB
  0
TABLE
  2
DIMSTYLE
  5
9
330
0
100
AcDbSymbolTable
 70
     3
100
AcDbDimStyleTable
  0
DIMSTYLE
105
18
330
9
100
AcDbSymbolTableRecord
100
AcDbDimStyleTableRecord
  2
Standard
 70
     0
178
     0
340
17
  0
DIMSTYLE
105
56
102
{ACAD_REACTORS
330
55F9
330
55FA
330
55FE
330
55FF
330
5600
330
5601
330
5602
330
560C
330
560D
330
560E
330
5611
330
5612
330
5615
330
562A
330
562D
330
5630
330
5631
330
57AB
102
}
330
9
100
AcDbSymbolTableRecord
100
AcDbDimStyleTableRecord
  2
tform線あり
 70
     0
  3
<>
  4
[]
 41
9.999389648437498
 42
25.0
 43
0.9999999999999999
 44
0.0
 73
     0
 74
     0
 77
     1
 78
    11
140
24.4326171875
141
0.0
143
1.0
146
0.8
147
10.0
171
     1
172
     1
174
     1
178
     0
179
     2
271
     1
272
     1
276
     2
284
    11
285
    11
286
    11
289
     0
340
39
341
4E
342
4E
  0
DIMSTYLE
105
50D1
330
9
100
AcDbSymbolTableRecord
100
AcDbDimStyleTableRecord
  2
tfrom線あり
 70
     0
  3
<>
  4
[]
 41
3.0
 42
10.0
 43
0.9999999999999999
 44
0.0
 73
     0
 74
     0
 77
     1
 78
    11
140
12.0
141
0.0
143
1.0
147
10.0
171
     1
174
     1
178
     0
179
     2
271
     0
272
     1
276
     2
284
    11
285
    11
286
    11
289
     0
340
39
341
4E
342
4E
  0
ENDTAB
  0
TABLE
  2
BLOCK_RECORD
  5
1
330
0
100
AcDbSymbolTable
 70
    75
  0
BLOCK_RECORD
  5
A
330
1
100
AcDbSymbolTableRecord
100
AcDbBlockTableRecord
  2
*MODEL_SPACE
340
20
 70
     0
280
     1
281
     0
  0
BLOCK_RECORD
  5
B
330
1
100
AcDbSymbolTableRecord
100
AcDbBlockTableRecord
  2
*PAPER_SPACE
340
21
 70
     0
280
     1
281
     0
  0
BLOCK_RECORD
  5
4E
330
1
100
AcDbSymbolTableRecord
100
AcDbBlockTableRecord
  2
_DOT
340
0
102
{BLKREFS
331
4FFE
331
4FFF
331
5012
331
5013
331
505D
331
505E
331
5085
331
5086
331
50A9
331
50AA
331
5174
331
5175
331
5181
331
5182
331
518E
331
518F
331
519E
331
519F
331
51AB
331
51AC
331
51B8
331
51B9
331
51CE
331
51CF
331
51DB
331
51DC
331
51E8
331
51E9
331
5206
331
5207
331
5213
331
5214
331
5227
331
5228
331
523D
331
523E
331
52F8
331
52F9
331
5304
331
5305
331
5310
331
5311
331
531C
331
531D
331
5328
331
5329
331
5334
331
5335
331
5340
331
5341
331
534C
331
534D
331
5358
331
5359
331
5364
331
5365
331
5370
331
5371
331
537C
331
537D
331
538A
331
538B
331
53C8
331
53C9
331
5487
331
5488
331
5497
331
5498
331
54A4
331
54A5
331
54B1
331
54B2
331
54BE
331
54BF
331
54CB
331
54CC
331
54D8
331
54D9
331
54EE
331
54EF
331
54FB
331
54FC
331
550A
331
550B
331
5517
331
5518
331
5526
331
5527
331
5535
331
5536
331
5556
331
5557
331
5565
331
5566
331
5572
331
5573
331
557F
331
5580
331
563E
331
563F
331
564A
331
564B
331
5656
331
5657
331
5662
331
5663
331
566E
331
566F
331
567A
331
567B
331
5686
331
5687
331
5694
331
5695
331
569E
331
569F
331
56AA
331
56AB
331
56B6
331
56B7
331
56C2
331
56C3
331
56CE
331
56CF
331
56DA
331
56DB
331
56E6
331
56E7
331
56F2
331
56F3
331
56FE
331
56FF
331
57B2
331
57B3
102
}
 70
     0
280
     1
281
     0
  0
BLOCK_RECORD
  5
3A5
330
1
100
AcDbSymbolTableRecord
100
AcDbBlockTableRecord
  2
名称未設定-1
340
0
102
{BLKREFS
331
3D0
102
}
 70
     1
280
     1
281
     0
  0
BLOCK_RECORD
  5
3A8
330
1
100
AcDbSymbolTableRecord
100
AcDbBlockTableRecord
  2
block 2
340
0
102
{BLKREFS
331
3A7
102
}
 70
     0
280
     1
281
     0
  0
BLOCK_RECORD
  5
3AB
330
1
100
AcDbSymbolTableRecord
100
AcDbBlockTableRecord
  2
block 3
340
0
102
{BLKREFS
331
3AA
102
}
 70
     0
280
     1
281
     0
  0
BLOCK_RECORD
  5
3AE
330
1
100
AcDbSymbolTableRecord
100
AcDbBlockTableRecord
  2
block 4
340
0
102
{BLKREFS
331
3AD
102
}
 70
     0
280
     1
281
     0
  0
BLOCK_RECORD
  5
3BD
330
1
100
AcDbSymbolTableRecord
100
AcDbBlockTableRecord
  2
block 5
340
0
102
{BLKREFS
331
3BC
102
}
 70
     0
280
     1
281
     0
  0
BLOCK_RECORD
  5
11F0
330
1
100
AcDbSymbolTableRecord
100
AcDbBlockTableRecord
  2
BLOCK_2
340
0
102
{BLKREFS
331
1273
331
127B
331
127C
102
}
 70
     0
280
     1
281
     0
  0
BLOCK_RECORD
  5
38B6
330
1
100
AcDbSymbolTableRecord
100
AcDbBlockTableRecord
  2
mobile_latù
340
0
310
2800000020000000200000000100080000000000000400000000000000000000000000000000000000000000000080000080000000808000800000008000800080800000C0C0C000C0DCC000F0CAA6000020400000206000002080000020A0000020C0000020E00000400000004020000040400000406000004080000040A0
310
000040C0000040E00000600000006020000060400000606000006080000060A0000060C0000060E00000800000008020000080400000806000008080000080A0000080C0000080E00000A0000000A0200000A0400000A0600000A0800000A0A00000A0C00000A0E00000C0000000C0200000C0400000C0600000C0800000C0
310
A00000C0C00000C0E00000E0000000E0200000E0400000E0600000E0800000E0A00000E0C00000E0E00040000000400020004000400040006000400080004000A0004000C0004000E00040200000402020004020400040206000402080004020A0004020C0004020E000404000004040200040404000404060004040800040
310
40A0004040C0004040E00040600000406020004060400040606000406080004060A0004060C0004060E00040800000408020004080400040806000408080004080A0004080C0004080E00040A0000040A0200040A0400040A0600040A0800040A0A00040A0C00040A0E00040C0000040C0200040C0400040C0600040C08000
310
40C0A00040C0C00040C0E00040E0000040E0200040E0400040E0600040E0800040E0A00040E0C00040E0E00080000000800020008000400080006000800080008000A0008000C0008000E00080200000802020008020400080206000802080008020A0008020C0008020E00080400000804020008040400080406000804080
310
008040A0008040C0008040E00080600000806020008060400080606000806080008060A0008060C0008060E00080800000808020008080400080806000808080008080A0008080C0008080E00080A0000080A0200080A0400080A0600080A0800080A0A00080A0C00080A0E00080C0000080C0200080C0400080C0600080C0
310
800080C0A00080C0C00080C0E00080E0000080E0200080E0400080E0600080E0800080E0A00080E0C00080E0E000C0000000C0002000C0004000C0006000C0008000C000A000C000C000C000E000C0200000C0202000C0204000C0206000C0208000C020A000C020C000C020E000C0400000C0402000C0404000C0406000C0
310
408000C040A000C040C000C040E000C0600000C0602000C0604000C0606000C0608000C060A000C060C000C060E000C0800000C0802000C0804000C0806000C0808000C080A000C080C000C080E000C0A00000C0A02000C0A04000C0A06000C0A08000C0A0A000C0A0C000C0A0E000C0C00000C0C02000C0C04000C0C06000
310
C0C08000C0C0A000F0FBFF00A4A0A000808080000000FF0000FF000000FFFF00FF000000FF00FF00FFFF0000FFFFFF0049494949494949494949494949494949494949494949494949494949494949494949494949494949494949494949494949494949494949494949494949494949494949494949494949494949494949
310
49494949494949494949494949494949494949494949494949494949494949494949494949494949494949494949494949494949494949494949494949494949494949494949494949494949494949494949FAFAFAFAFAFAFAFAFAFAFAFAFAFAFAFAFAFAFAFAFAFAFAFAFAFAFAFAFAFA4949FAFA4949494949494949494949
310
494949494949494949494949494949FAFA4949FAFA4949494949494949494949494949494949494949494949494949FAFA4949FAFA4949494949494949494949494949494949494949494949494949FAFA4949FAFA4949494949494949494949494949494949494949494949494949FAFA4949FAFA49494949494949494949
310
49494949494949494949494949494949FAFA4949FAFA4949494949494949494949494949494949494949494949494949FAFA4949FAFA4949494949494949494949494949494949494949494949494949FAFA4949FAFA4949494949494949494949494949494949494949494949494949FAFA4949FAFA494949494949494949
310
4949494949494949494949494949494949FAFA4949FAFA4949494949494949494949494949494949494949494949494949FAFA4949FAFA4949494949494949494949494949494949494949494949494949FAFA4949FAFA4949494949494949494949494949494949494949494949494949FAFA4949FAFA4949494949494949
310
494949494949494949494949494949494949FAFA4949FAFA4949494949494949494949494949494949494949494949494949FAFA4949FAFA4949494949494949494949494949494949494949494949494949FAFA4949FAFA4949494949494949494949494949494949494949494949494949FAFA4949FAFA49494949494949
310
49494949494949494949494949494949494949FAFA4949FAFAFAFAFAFAFAFAFAFAFAFAFAFAFAFAFAFAFAFAFAFAFAFAFAFAFAFAFAFA4949FAFAFAFAFAFAFAFAFAFAFAFAFAFAFAFAFAFAFAFAFAFAFAFAFAFAFAFAFAFA4949FAFA4949494949494949494949494949494949494949494949494949FAFA4949FAFAFAFAFAFAFAFA
310
FAFAFAFAFAFAFAFAFAFAFAFAFAFAFAFAFAFAFAFAFAFA494949494949494949494949494949494949494949494949494949494949494949494949494949494949494949494949494949494949494949494949494949494949494949494949494949494949494949494949494949494949494949494949494949494949494949
310
4949494949494949494949494949494949494949494949494949494949494949494949494949494949494949494949494949494949494949
102
{BLKREFS
331
3B99
331
467E
102
}
 70
     4
280
     1
281
     0
  0
BLOCK_RECORD
  5
4FF8
330
1
100
AcDbSymbolTableRecord
100
AcDbBlockTableRecord
  2
*D8
340
0
 70
     0
280
     1
281
     0
  0
BLOCK_RECORD
  5
500B
330
1
100
AcDbSymbolTableRecord
100
AcDbBlockTableRecord
  2
*D9
340
0
 70
     0
280
     1
281
     0
  0
BLOCK_RECORD
  5
5057
330
1
100
AcDbSymbolTableRecord
100
AcDbBlockTableRecord
  2
*D10
340
0
 70
     0
280
     1
281
     0
  0
BLOCK_RECORD
  5
507F
330
1
100
AcDbSymbolTableRecord
100
AcDbBlockTableRecord
  2
*D11
340
0
 70
     0
280
     1
281
     0
  0
BLOCK_RECORD
  5
50A2
330
1
100
AcDbSymbolTableRecord
100
AcDbBlockTableRecord
  2
*D12
340
0
 70
     0
280
     1
281
     0
  0
BLOCK_RECORD
  5
516F
330
1
100
AcDbSymbolTableRecord
100
AcDbBlockTableRecord
  2
*D13
340
0
 70
     0
280
     1
281
     0
  0
BLOCK_RECORD
  5
517C
330
1
100
AcDbSymbolTableRecord
100
AcDbBlockTableRecord
  2
*D14
340
0
 70
     0
280
     1
281
     0
  0
BLOCK_RECORD
  5
5189
330
1
100
AcDbSymbolTableRecord
100
AcDbBlockTableRecord
  2
*D15
340
0
 70
     0
280
     1
281
     0
  0
BLOCK_RECORD
  5
5199
330
1
100
AcDbSymbolTableRecord
100
AcDbBlockTableRecord
  2
*D16
340
0
 70
     0
280
     1
281
     0
  0
BLOCK_RECORD
  5
51A6
330
1
100
AcDbSymbolTableRecord
100
AcDbBlockTableRecord
  2
*D17
340
0
 70
     0
280
     1
281
     0
  0
BLOCK_RECORD
  5
51B3
330
1
100
AcDbSymbolTableRecord
100
AcDbBlockTableRecord
  2
*D18
340
0
 70
     0
280
     1
281
     0
  0
BLOCK_RECORD
  5
51C9
330
1
100
AcDbSymbolTableRecord
100
AcDbBlockTableRecord
  2
*D19
340
0
 70
     0
280
     1
281
     0
  0
BLOCK_RECORD
  5
51D6
330
1
100
AcDbSymbolTableRecord
100
AcDbBlockTableRecord
  2
*D20
340
0
 70
     0
280
     1
281
     0
  0
BLOCK_RECORD
  5
51E3
330
1
100
AcDbSymbolTableRecord
100
AcDbBlockTableRecord
  2
*D21
340
0
 70
     0
280
     1
281
     0
  0
BLOCK_RECORD
  5
5201
330
1
100
AcDbSymbolTableRecord
100
AcDbBlockTableRecord
  2
*D22
340
0
 70
     0
280
     1
281
     0
  0
BLOCK_RECORD
  5
520E
330
1
100
AcDbSymbolTableRecord
100
AcDbBlockTableRecord
  2
*D23
340
0
 70
     0
280
     1
281
     0
  0
BLOCK_RECORD
  5
5222
330
1
100
AcDbSymbolTableRecord
100
AcDbBlockTableRecord
  2
*D24
340
0
 70
     0
280
     1
281
     0
  0
BLOCK_RECORD
  5
5236
330
1
100
AcDbSymbolTableRecord
100
AcDbBlockTableRecord
  2
*D25
340
0
 70
     0
280
     1
281
     0
  0
BLOCK_RECORD
  5
52F2
330
1
100
AcDbSymbolTableRecord
100
AcDbBlockTableRecord
  2
*D26
340
0
 70
     0
280
     1
281
     0
  0
BLOCK_RECORD
  5
52FE
330
1
100
AcDbSymbolTableRecord
100
AcDbBlockTableRecord
  2
*D27
340
0
 70
     0
280
     1
281
     0
  0
BLOCK_RECORD
  5
530A
330
1
100
AcDbSymbolTableRecord
100
AcDbBlockTableRecord
  2
*D28
340
0
 70
     0
280
     1
281
     0
  0
BLOCK_RECORD
  5
5316
330
1
100
AcDbSymbolTableRecord
100
AcDbBlockTableRecord
  2
*D29
340
0
 70
     0
280
     1
281
     0
  0
BLOCK_RECORD
  5
5322
330
1
100
AcDbSymbolTableRecord
100
AcDbBlockTableRecord
  2
*D30
340
0
 70
     0
280
     1
281
     0
  0
BLOCK_RECORD
  5
532E
330
1
100
AcDbSymbolTableRecord
100
AcDbBlockTableRecord
  2
*D31
340
0
 70
     0
280
     1
281
     0
  0
BLOCK_RECORD
  5
533A
330
1
100
AcDbSymbolTableRecord
100
AcDbBlockTableRecord
  2
*D32
340
0
 70
     0
280
     1
281
     0
  0
BLOCK_RECORD
  5
5346
330
1
100
AcDbSymbolTableRecord
100
AcDbBlockTableRecord
  2
*D33
340
0
 70
     0
280
     1
281
     0
  0
BLOCK_RECORD
  5
5352
330
1
100
AcDbSymbolTableRecord
100
AcDbBlockTableRecord
  2
*D34
340
0
 70
     0
280
     1
281
     0
  0
BLOCK_RECORD
  5
535E
330
1
100
AcDbSymbolTableRecord
100
AcDbBlockTableRecord
  2
*D35
340
0
 70
     0
280
     1
281
     0
  0
BLOCK_RECORD
  5
536A
330
1
100
AcDbSymbolTableRecord
100
AcDbBlockTableRecord
  2
*D36
340
0
 70
     0
280
     1
281
     0
  0
BLOCK_RECORD
  5
5376
330
1
100
AcDbSymbolTableRecord
100
AcDbBlockTableRecord
  2
*D37
340
0
 70
     0
280
     1
281
     0
  0
BLOCK_RECORD
  5
5382
330
1
100
AcDbSymbolTableRecord
100
AcDbBlockTableRecord
  2
*D38
340
0
 70
     0
280
     1
281
     0
  0
BLOCK_RECORD
  5
53C2
330
1
100
AcDbSymbolTableRecord
100
AcDbBlockTableRecord
  2
*D39
340
0
 70
     0
280
     1
281
     0
  0
BLOCK_RECORD
  5
5482
330
1
100
AcDbSymbolTableRecord
100
AcDbBlockTableRecord
  2
*D40
340
0
 70
     0
280
     1
281
     0
  0
BLOCK_RECORD
  5
5492
330
1
100
AcDbSymbolTableRecord
100
AcDbBlockTableRecord
  2
*D41
340
0
 70
     0
280
     1
281
     0
  0
BLOCK_RECORD
  5
549F
330
1
100
AcDbSymbolTableRecord
100
AcDbBlockTableRecord
  2
*D42
340
0
 70
     0
280
     1
281
     0
  0
BLOCK_RECORD
  5
54AC
330
1
100
AcDbSymbolTableRecord
100
AcDbBlockTableRecord
  2
*D43
340
0
 70
     0
280
     1
281
     0
  0
BLOCK_RECORD
  5
54B9
330
1
100
AcDbSymbolTableRecord
100
AcDbBlockTableRecord
  2
*D44
340
0
 70
     0
280
     1
281
     0
  0
BLOCK_RECORD
  5
54C6
330
1
100
AcDbSymbolTableRecord
100
AcDbBlockTableRecord
  2
*D45
340
0
 70
     0
280
     1
281
     0
  0
BLOCK_RECORD
  5
54D3
330
1
100
AcDbSymbolTableRecord
100
AcDbBlockTableRecord
  2
*D46
340
0
 70
     0
280
     1
281
     0
  0
BLOCK_RECORD
  5
54E9
330
1
100
AcDbSymbolTableRecord
100
AcDbBlockTableRecord
  2
*D47
340
0
 70
     0
280
     1
281
     0
  0
BLOCK_RECORD
  5
54F6
330
1
100
AcDbSymbolTableRecord
100
AcDbBlockTableRecord
  2
*D48
340
0
 70
     0
280
     1
281
     0
  0
BLOCK_RECORD
  5
5505
330
1
100
AcDbSymbolTableRecord
100
AcDbBlockTableRecord
  2
*D49
340
0
 70
     0
280
     1
281
     0
  0
BLOCK_RECORD
  5
5512
330
1
100
AcDbSymbolTableRecord
100
AcDbBlockTableRecord
  2
*D50
340
0
 70
     0
280
     1
281
     0
  0
BLOCK_RECORD
  5
5521
330
1
100
AcDbSymbolTableRecord
100
AcDbBlockTableRecord
  2
*D51
340
0
 70
     0
280
     1
281
     0
  0
BLOCK_RECORD
  5
5530
330
1
100
AcDbSymbolTableRecord
100
AcDbBlockTableRecord
  2
*D52
340
0
 70
     0
280
     1
281
     0
  0
BLOCK_RECORD
  5
5551
330
1
100
AcDbSymbolTableRecord
100
AcDbBlockTableRecord
  2
*D53
340
0
 70
     0
280
     1
281
     0
  0
BLOCK_RECORD
  5
5560
330
1
100
AcDbSymbolTableRecord
100
AcDbBlockTableRecord
  2
*D54
340
0
 70
     0
280
     1
281
     0
  0
BLOCK_RECORD
  5
556D
330
1
100
AcDbSymbolTableRecord
100
AcDbBlockTableRecord
  2
*D55
340
0
 70
     0
280
     1
281
     0
  0
BLOCK_RECORD
  5
557A
330
1
100
AcDbSymbolTableRecord
100
AcDbBlockTableRecord
  2
*D56
340
0
 70
     0
280
     1
281
     0
  0
BLOCK_RECORD
  5
5638
330
1
100
AcDbSymbolTableRecord
100
AcDbBlockTableRecord
  2
*D57
340
0
 70
     0
280
     1
281
     0
  0
BLOCK_RECORD
  5
5644
330
1
100
AcDbSymbolTableRecord
100
AcDbBlockTableRecord
  2
*D58
340
0
 70
     0
280
     1
281
     0
  0
BLOCK_RECORD
  5
5650
330
1
100
AcDbSymbolTableRecord
100
AcDbBlockTableRecord
  2
*D59
340
0
 70
     0
280
     1
281
     0
  0
BLOCK_RECORD
  5
565C
330
1
100
AcDbSymbolTableRecord
100
AcDbBlockTableRecord
  2
*D60
340
0
 70
     0
280
     1
281
     0
  0
BLOCK_RECORD
  5
5668
330
1
100
AcDbSymbolTableRecord
100
AcDbBlockTableRecord
  2
*D61
340
0
 70
     0
280
     1
281
     0
  0
BLOCK_RECORD
  5
5674
330
1
100
AcDbSymbolTableRecord
100
AcDbBlockTableRecord
  2
*D62
340
0
 70
     0
280
     1
281
     0
  0
BLOCK_RECORD
  5
5680
330
1
100
AcDbSymbolTableRecord
100
AcDbBlockTableRecord
  2
*D63
340
0
 70
     0
280
     1
281
     0
  0
BLOCK_RECORD
  5
568C
330
1
100
AcDbSymbolTableRecord
100
AcDbBlockTableRecord
  2
*D64
340
0
 70
     0
280
     1
281
     0
  0
BLOCK_RECORD
  5
5698
330
1
100
AcDbSymbolTableRecord
100
AcDbBlockTableRecord
  2
*D65
340
0
 70
     0
280
     1
281
     0
  0
BLOCK_RECORD
  5
56A4
330
1
100
AcDbSymbolTableRecord
100
AcDbBlockTableRecord
  2
*D66
340
0
 70
     0
280
     1
281
     0
  0
BLOCK_RECORD
  5
56B0
330
1
100
AcDbSymbolTableRecord
100
AcDbBlockTableRecord
  2
*D67
340
0
 70
     0
280
     1
281
     0
  0
BLOCK_RECORD
  5
56BC
330
1
100
AcDbSymbolTableRecord
100
AcDbBlockTableRecord
  2
*D68
340
0
 70
     0
280
     1
281
     0
  0
BLOCK_RECORD
  5
56C8
330
1
100
AcDbSymbolTableRecord
100
AcDbBlockTableRecord
  2
*D69
340
0
 70
     0
280
     1
281
     0
  0
BLOCK_RECORD
  5
56D4
330
1
100
AcDbSymbolTableRecord
100
AcDbBlockTableRecord
  2
*D70
340
0
 70
     0
280
     1
281
     0
  0
BLOCK_RECORD
  5
56E0
330
1
100
AcDbSymbolTableRecord
100
AcDbBlockTableRecord
  2
*D71
340
0
 70
     0
280
     1
281
     0
  0
BLOCK_RECORD
  5
56EC
330
1
100
AcDbSymbolTableRecord
100
AcDbBlockTableRecord
  2
*D72
340
0
 70
     0
280
     1
281
     0
  0
BLOCK_RECORD
  5
56F8
330
1
100
AcDbSymbolTableRecord
100
AcDbBlockTableRecord
  2
*D73
340
0
 70
     0
280
     1
281
     0
  0
BLOCK_RECORD
  5
57AC
330
1
100
AcDbSymbolTableRecord
100
AcDbBlockTableRecord
  2
*D74
340
0
 70
     0
280
     1
281
     0
  0
ENDTAB
  0
ENDSEC
  0
SECTION
  2
BLOCKS
  0
BLOCK
  5
D
330
A
100
AcDbEntity
  8
0
390
1D
100
AcDbBlockBegin
  2
*MODEL_SPACE
 70
     0
 10
0.0
 20
0.0
 30
0.0
  3
*MODEL_SPACE
  1
*MODEL_SPACE
  0
ENDBLK
  5
E
330
A
100
AcDbEntity
  8
0
390
1D
100
AcDbBlockEnd
  0
BLOCK
  5
F
330
B
100
AcDbEntity
 67
     1
  8
0
390
1D
100
AcDbBlockBegin
  2
*PAPER_SPACE
 70
     0
 10
0.0
 20
0.0
 30
0.0
  3
*PAPER_SPACE
  1
*PAPER_SPACE
  0
ENDBLK
  5
10
330
B
100
AcDbEntity
 67
     1
  8
0
390
1D
100
AcDbBlockEnd
  0
BLOCK
  5
2C14
330
4E
100
AcDbEntity
  8
0
390
1D
100
AcDbBlockBegin
  2
_DOT
 70
     0
 10
0.0
 20
0.0
 30
0.0
  3
_DOT
  1
_DOT
  0
POLYLINE
  5
2C16
330
4E
100
AcDbEntity
  8
0
  6
ByBlock
 62
     0
370
    -2
390
1D
100
AcDb2dPolyline
 66
     1
 10
0.0
 20
0.0
 30
0.0
 70
     1
 40
0.5
 41
0.5
  0
VERTEX
  5
2C17
330
2C16
100
AcDbEntity
  8
0
  6
ByBlock
 62
     0
370
    -2
390
1D
100
AcDbVertex
100
AcDb2dVertex
 10
-0.25
 20
0.0
 30
0.0
 42
1.0
  0
VERTEX
  5
2C18
330
2C16
100
AcDbEntity
  8
0
  6
ByBlock
 62
     0
370
    -2
390
1D
100
AcDbVertex
100
AcDb2dVertex
 10
0.25
 20
0.0
 30
0.0
 42
1.0
  0
SEQEND
  5
2C19
330
2C16
100
AcDbEntity
  8
0
390
1D
  0
LINE
  5
2C1A
330
4E
100
AcDbEntity
  8
0
  6
ByBlock
 62
     0
370
    -2
390
1D
100
AcDbLine
 10
-0.5
 20
0.0
 30
0.0
 11
-1.0
 21
0.0
 31
0.0
  0
ENDBLK
  5
2C1B
330
4E
100
AcDbEntity
  8
0
390
1D
100
AcDbBlockEnd
  0
BLOCK
  5
3A6
330
3A5
100
AcDbEntity
  8
0
100
AcDbBlockBegin
  2
名称未設定-1
 70
     0
 10
0.0
 20
0.0
 30
0.0
  3
名称未設定-1
  1
名称未設定-1
  0
INSERT
  5
3A7
330
3A5
100
AcDbEntity
  8
レイヤー 1
100
AcDbBlockReference
  2
block 2
 10
0.0
 20
0.0
 30
0.0
  0
ENDBLK
  5
3CC
330
3A5
100
AcDbEntity
  8
0
100
AcDbBlockEnd
  0
BLOCK
  5
3A9
330
3A8
100
AcDbEntity
  8
0
100
AcDbBlockBegin
  2
block 2
 70
     0
 10
0.0
 20
0.0
 30
0.0
  3
block 2
  1
block 2
  0
INSERT
  5
3AA
330
3A8
100
AcDbEntity
  8
レイヤー 1
100
AcDbBlockReference
  2
block 3
 10
0.0
 20
0.0
 30
0.0
  0
ENDBLK
  5
3CB
330
3A8
100
AcDbEntity
  8
0
100
AcDbBlockEnd
  0
BLOCK
  5
3AC
330
3AB
100
AcDbEntity
  8
0
100
AcDbBlockBegin
  2
block 3
 70
     0
 10
0.0
 20
0.0
 30
0.0
  3
block 3
  1
block 3
  0
INSERT
  5
3AD
330
3AB
100
AcDbEntity
  8
レイヤー 1
100
AcDbBlockReference
  2
block 4
 10
0.0
 20
0.0
 30
0.0
  0
ENDBLK
  5
3CA
330
3AB
100
AcDbEntity
  8
0
100
AcDbBlockEnd
  0
BLOCK
  5
3AF
330
3AE
100
AcDbEntity
  8
0
100
AcDbBlockBegin
  2
block 4
 70
     0
 10
0.0
 20
0.0
 30
0.0
  3
block 4
  1
block 4
  0
POLYLINE
  5
3B0
330
3AE
100
AcDbEntity
  8
レイヤー 1
370
     0
100
AcDb2dPolyline
 66
     1
 10
0.0
 20
0.0
 30
0.0
  0
VERTEX
  5
3B1
330
3B0
100
AcDbEntity
  8
レイヤー 1
370
     0
100
AcDbVertex
100
AcDb2dVertex
 10
83.79545727667795
 20
167.6444858234922
 30
0.0
  0
VERTEX
  5
3B2
330
3B0
100
AcDbEntity
  8
レイヤー 1
370
     0
100
AcDbVertex
100
AcDb2dVertex
 10
83.79545727667795
 20
159.7968976406313
 30
0.0
  0
VERTEX
  5
3B3
330
3B0
100
AcDbEntity
  8
レイヤー 1
370
     0
100
AcDbVertex
100
AcDb2dVertex
 10
71.3631329975216
 20
159.7968976406313
 30
0.0
  0
VERTEX
  5
3B4
330
3B0
100
AcDbEntity
  8
レイヤー 1
370
     0
100
AcDbVertex
100
AcDb2dVertex
 10
71.3631329975216
 20
127.8027915271048
 30
0.0
  0
VERTEX
  5
3B5
330
3B0
100
AcDbEntity
  8
レイヤー 1
370
     0
100
AcDbVertex
100
AcDb2dVertex
 10
60.43011526263018
 20
127.8027915271048
 30
0.0
  0
VERTEX
  5
3B6
330
3B0
100
AcDbEntity
  8
レイヤー 1
370
     0
100
AcDbVertex
100
AcDb2dVertex
 10
60.43011526263018
 20
159.7968976406313
 30
0.0
  0
VERTEX
  5
3B7
330
3B0
100
AcDbEntity
  8
レイヤー 1
370
     0
100
AcDbVertex
100
AcDb2dVertex
 10
48.21793273020759
 20
159.7968976406313
 30
0.0
  0
VERTEX
  5
3B8
330
3B0
100
AcDbEntity
  8
レイヤー 1
370
     0
100
AcDbVertex
100
AcDb2dVertex
 10
48.21793273020759
 20
167.6444858234922
 30
0.0
  0
VERTEX
  5
3B9
330
3B0
100
AcDbEntity
  8
レイヤー 1
370
     0
100
AcDbVertex
100
AcDb2dVertex
 10
83.79545727667795
 20
167.6444858234922
 30
0.0
  0
SEQEND
  5
3BA
330
3B0
100
AcDbEntity
  8
レイヤー 1
370
     0
  0
HATCH
  5
3BB
330
3AE
100
AcDbEntity
  8
レイヤー 1
 62
   250
420
  2234388
100
AcDbHatch
 10
0.0
 20
0.0
 30
0.0
210
0.0
220
0.0
230
1.0
  2
SOLID
 70
     1
 71
     0
 91
        1
 92
        1
 93
        8
 72
     1
 10
83.79545727667795
 20
167.6444858234922
 11
83.79545727667795
 21
159.7968976406313
 72
     1
 10
83.79545727667795
 20
159.7968976406313
 11
71.3631329975216
 21
159.7968976406313
 72
     1
 10
71.3631329975216
 20
159.7968976406313
 11
71.3631329975216
 21
127.8027915271048
 72
     1
 10
71.3631329975216
 20
127.8027915271048
 11
60.43011526263018
 21
127.8027915271048
 72
     1
 10
60.43011526263018
 20
127.8027915271048
 11
60.43011526263018
 21
159.7968976406313
 72
     1
 10
60.43011526263018
 20
159.7968976406313
 11
48.21793273020759
 21
159.7968976406313
 72
     1
 10
48.21793273020759
 20
159.7968976406313
 11
48.21793273020759
 21
167.6444858234922
 72
     1
 10
48.21793273020759
 20
167.6444858234922
 11
83.79545727667795
 21
167.6444858234922
 97
        0
 75
     2
 76
     1
 98
        0
  0
INSERT
  5
3BC
330
3AE
100
AcDbEntity
  8
レイヤー 1
100
AcDbBlockReference
  2
block 5
 10
0.0
 20
0.0
 30
0.0
  0
ENDBLK
  5
3C9
330
3AE
100
AcDbEntity
  8
0
100
AcDbBlockEnd
  0
BLOCK
  5
3BE
330
3BD
100
AcDbEntity
  8
0
100
AcDbBlockBegin
  2
block 5
 70
     0
 10
0.0
 20
0.0
 30
0.0
  3
block 5
  1
block 5
  0
SPLINE
  5
3BF
330
3BD
100
AcDbEntity
  8
レイヤー 1
370
     0
100
AcDbSpline
210
0.0
220
0.0
230
1.0
 70
    11
 71
     3
 72
    56
 73
    52
 74
     0
 42
0.000000001
 43
0.0000000001
 40
0.0
 40
0.0
 40
0.0
 40
0.0
 40
1.0
 40
1.0
 40
1.0
 40
2.0
 40
2.0
 40
2.0
 40
3.0
 40
3.0
 40
3.0
 40
4.0
 40
4.0
 40
4.0
 40
5.0
 40
5.0
 40
5.0
 40
6.0
 40
6.0
 40
6.0
 40
7.0
 40
7.0
 40
7.0
 40
8.0
 40
8.0
 40
8.0
 40
9.0
 40
9.0
 40
9.0
 40
10.0
 40
10.0
 40
10.0
 40
11.0
 40
11.0
 40
11.0
 40
12.0
 40
12.0
 40
12.0
 40
13.0
 40
13.0
 40
13.0
 40
14.0
 40
14.0
 40
14.0
 40
15.0
 40
15.0
 40
15.0
 40
16.0
 40
16.0
 40
16.0
 40
17.0
 40
17.0
 40
17.0
 40
17.0
 10
100.4504378777679
 20
166.69157178364
 30
0.0
 10
101.9848844191641
 20
167.1313385124438
 30
0.0
 10
103.9637485713373
 20
166.7649523658846
 30
0.0
 10
103.9637485713373
 20
166.7649523658846
 30
0.0
 10
103.9637485713373
 20
166.7649523658846
 30
0.0
 10
103.0132460999156
 20
163.911205638077
 30
0.0
 10
103.0132460999156
 20
163.911205638077
 30
0.0
 10
103.0132460999156
 20
163.911205638077
 30
0.0
 10
101.0674548862189
 20
164.3601018759394
 30
0.0
 10
99.57090442016032
 20
163.1805004036133
 30
0.0
 10
98.40508333886608
 20
162.258247733807
 30
0.0
 10
97.65301849830304
 20
159.804132345923
 30
0.0
 10
97.3598406791005
 20
158.8699940888517
 30
0.0
 10
97.3598406791005
 20
158.8699940888517
 30
0.0
 10
96.07137411762282
 20
154.9119212747295
 30
0.0
 10
96.07137411762282
 20
154.9119212747295
 30
0.0
 10
96.07137411762282
 20
154.9119212747295
 30
0.0
 10
100.3012651448482
 20
154.9119212747295
 30
0.0
 10
100.3012651448482
 20
154.9119212747295
 30
0.0
 10
100.3012651448482
 20
154.9119212747295
 30
0.0
 10
99.64152892419852
 20
152.4199098115079
 30
0.0
 10
99.64152892419852
 20
152.4199098115079
 30
0.0
 10
99.64152892419852
 20
152.4199098115079
 30
0.0
 10
95.38097652692731
 20
152.4199098115079
 30
0.0
 10
95.38097652692731
 20
152.4199098115079
 30
0.0
 10
95.38097652692731
 20
152.4199098115079
 30
0.0
 10
87.75353009080013
 20
127.8027915271048
 30
0.0
 10
87.75353009080013
 20
127.8027915271048
 30
0.0
 10
87.75353009080013
 20
127.8027915271048
 30
0.0
 10
85.36538832498108
 20
127.8027915271048
 30
0.0
 10
85.36538832498108
 20
127.8027915271048
 30
0.0
 10
85.36538832498108
 20
127.8027915271048
 30
0.0
 10
93.00006946639998
 20
152.4199098115079
 30
0.0
 10
93.00006946639998
 20
152.4199098115079
 30
0.0
 10
93.00006946639998
 20
152.4199098115079
 30
0.0
 10
89.85297266450198
 20
152.4199098115079
 30
0.0
 10
89.85297266450198
 20
152.4199098115079
 30
0.0
 10
89.85297266450198
 20
152.4199098115079
 30
0.0
 10
90.51270888515164
 20
154.9119212747295
 30
0.0
 10
90.51270888515164
 20
154.9119212747295
 30
0.0
 10
90.51270888515164
 20
154.9119212747295
 30
0.0
 10
93.6904670570955
 20
154.9119212747295
 30
0.0
 10
93.6904670570955
 20
154.9119212747295
 30
0.0
 10
93.6904670570955
 20
154.9119212747295
 30
0.0
 10
94.81598049462158
 20
158.3616699146644
 30
0.0
 10
94.81598049462158
 20
158.3616699146644
 30
0.0
 10
95.7237637538445
 20
161.2605474231013
 30
0.0
 10
96.4968436907311
 20
162.8139420021662
 30
0.0
 10
97.15657991138076
 20
163.9844139654337
 30
0.0
 10
97.81183750494507
 20
165.1523021053827
 30
0.0
 10
99.1047826935081
 20
166.3084769129547
 30
0.0
 10
100.4504378777679
 20
166.69157178364
 30
0.0
  0
HATCH
  5
3C0
330
3BD
100
AcDbEntity
  8
レイヤー 1
 62
   250
420
  2234388
100
AcDbHatch
 10
0.0
 20
0.0
 30
0.0
210
0.0
220
0.0
230
1.0
  2
SOLID
 70
     1
 71
     0
 91
        1
 92
        1
 93
        1
 72
     4
 94
        3
 73
     0
 74
     1
 95
       56
 96
       52
 40
0.0
 40
0.0
 40
0.0
 40
0.0
 40
1.0
 40
1.0
 40
1.0
 40
2.0
 40
2.0
 40
2.0
 40
3.0
 40
3.0
 40
3.0
 40
4.0
 40
4.0
 40
4.0
 40
5.0
 40
5.0
 40
5.0
 40
6.0
 40
6.0
 40
6.0
 40
7.0
 40
7.0
 40
7.0
 40
8.0
 40
8.0
 40
8.0
 40
9.0
 40
9.0
 40
9.0
 40
10.0
 40
10.0
 40
10.0
 40
11.0
 40
11.0
 40
11.0
 40
12.0
 40
12.0
 40
12.0
 40
13.0
 40
13.0
 40
13.0
 40
14.0
 40
14.0
 40
14.0
 40
15.0
 40
15.0
 40
15.0
 40
16.0
 40
16.0
 40
16.0
 40
17.0
 40
17.0
 40
17.0
 40
17.0
 10
100.4504378777679
 20
166.69157178364
 10
101.9848844191641
 20
167.1313385124438
 10
103.9637485713373
 20
166.7649523658846
 10
103.9637485713373
 20
166.7649523658846
 10
103.9637485713373
 20
166.7649523658846
 10
103.0132460999156
 20
163.911205638077
 10
103.0132460999156
 20
163.911205638077
 10
103.0132460999156
 20
163.911205638077
 10
101.0674548862189
 20
164.3601018759394
 10
99.57090442016032
 20
163.1805004036133
 10
98.40508333886608
 20
162.258247733807
 10
97.65301849830304
 20
159.804132345923
 10
97.3598406791005
 20
158.8699940888517
 10
97.3598406791005
 20
158.8699940888517
 10
96.07137411762282
 20
154.9119212747295
 10
96.07137411762282
 20
154.9119212747295
 10
96.07137411762282
 20
154.9119212747295
 10
100.3012651448482
 20
154.9119212747295
 10
100.3012651448482
 20
154.9119212747295
 10
100.3012651448482
 20
154.9119212747295
 10
99.64152892419852
 20
152.4199098115079
 10
99.64152892419852
 20
152.4199098115079
 10
99.64152892419852
 20
152.4199098115079
 10
95.38097652692731
 20
152.4199098115079
 10
95.38097652692731
 20
152.4199098115079
 10
95.38097652692731
 20
152.4199098115079
 10
87.75353009080013
 20
127.8027915271048
 10
87.75353009080013
 20
127.8027915271048
 10
87.75353009080013
 20
127.8027915271048
 10
85.36538832498108
 20
127.8027915271048
 10
85.36538832498108
 20
127.8027915271048
 10
85.36538832498108
 20
127.8027915271048
 10
93.00006946639998
 20
152.4199098115079
 10
93.00006946639998
 20
152.4199098115079
 10
93.00006946639998
 20
152.4199098115079
 10
89.85297266450198
 20
152.4199098115079
 10
89.85297266450198
 20
152.4199098115079
 10
89.85297266450198
 20
152.4199098115079
 10
90.51270888515164
 20
154.9119212747295
 10
90.51270888515164
 20
154.9119212747295
 10
90.51270888515164
 20
154.9119212747295
 10
93.6904670570955
 20
154.9119212747295
 10
93.6904670570955
 20
154.9119212747295
 10
93.6904670570955
 20
154.9119212747295
 10
94.81598049462158
 20
158.3616699146644
 10
94.81598049462158
 20
158.3616699146644
 10
95.7237637538445
 20
161.2605474231013
 10
96.4968436907311
 20
162.8139420021662
 10
97.15657991138076
 20
163.9844139654337
 10
97.81183750494507
 20
165.1523021053827
 10
99.1047826935081
 20
166.3084769129547
 10
100.4504378777679
 20
166.69157178364
 97
        0
 75
     2
 76
     1
 98
        0
  0
SPLINE
  5
3C1
330
3BD
100
AcDbEntity
  8
レイヤー 1
370
     0
100
AcDbSpline
210
0.0
220
0.0
230
1.0
 70
    11
 71
     3
 72
    38
 73
    34
 74
     0
 42
0.000000001
 43
0.0000000001
 40
0.0
 40
0.0
 40
0.0
 40
0.0
 40
1.0
 40
1.0
 40
1.0
 40
2.0
 40
2.0
 40
2.0
 40
3.0
 40
3.0
 40
3.0
 40
4.0
 40
4.0
 40
4.0
 40
5.0
 40
5.0
 40
5.0
 40
6.0
 40
6.0
 40
6.0
 40
7.0
 40
7.0
 40
7.0
 40
8.0
 40
8.0
 40
8.0
 40
9.0
 40
9.0
 40
9.0
 40
10.0
 40
10.0
 40
10.0
 40
11.0
 40
11.0
 40
11.0
 40
11.0
 10
126.377554584636
 20
154.8151140277308
 30
0.0
 10
126.377554584636
 20
154.8151140277308
 30
0.0
 10
128.8311532078563
 20
154.8151140277308
 30
0.0
 10
128.8311532078563
 20
154.8151140277308
 30
0.0
 10
128.8311532078563
 20
154.8151140277308
 30
0.0
 10
127.7345785914971
 20
151.3062819612468
 30
0.0
 10
127.7345785914971
 20
151.3062819612468
 30
0.0
 10
128.571392836906
 20
152.2922689395754
 30
0.0
 10
129.8860421413442
 20
153.604506675583
 30
0.0
 10
131.0163787157314
 20
154.2664822097754
 30
0.0
 10
132.7044766171327
 20
155.2500576196734
 30
0.0
 10
133.6642808525008
 20
155.3847609420097
 30
0.0
 10
134.7284715499351
 20
155.3565111403944
 30
0.0
 10
134.7284715499351
 20
155.3565111403944
 30
0.0
 10
133.6877075172549
 20
152.0345756272799
 30
0.0
 10
133.6877075172549
 20
152.0345756272799
 30
0.0
 10
133.011434827367
 20
152.3184516825359
 30
0.0
 10
130.930940291334
 20
151.7768823149844
 30
0.0
 10
129.739280976855
 20
150.9162968950455
 30
0.0
 10
128.66613302525
 20
150.1454562717016
 30
0.0
 10
127.9192358313239
 20
149.4857200510519
 30
0.0
 10
127.0393578639405
 20
147.8282835196966
 30
0.0
 10
126.164647543194
 20
146.1699857139017
 30
0.0
 10
125.4742499524985
 20
143.5262176944419
 30
0.0
 10
124.2822461282437
 20
139.6959580071401
 30
0.0
 10
124.2822461282437
 20
139.6959580071401
 30
0.0
 10
120.5753209406769
 20
127.8027915271048
 30
0.0
 10
120.5753209406769
 20
127.8027915271048
 30
0.0
 10
120.5753209406769
 20
127.8027915271048
 30
0.0
 10
118.1964809388044
 20
127.8027915271048
 30
0.0
 10
118.1964809388044
 20
127.8027915271048
 30
0.0
 10
118.1964809388044
 20
127.8027915271048
 30
0.0
 10
126.377554584636
 20
154.8151140277308
 30
0.0
 10
126.377554584636
 20
154.8151140277308
 30
0.0
  0
HATCH
  5
3C2
330
3BD
100
AcDbEntity
  8
レイヤー 1
 62
   250
420
  2234388
100
AcDbHatch
 10
0.0
 20
0.0
 30
0.0
210
0.0
220
0.0
230
1.0
  2
SOLID
 70
     1
 71
     0
 91
        1
 92
        1
 93
        1
 72
     4
 94
        3
 73
     0
 74
     1
 95
       38
 96
       34
 40
0.0
 40
0.0
 40
0.0
 40
0.0
 40
1.0
 40
1.0
 40
1.0
 40
2.0
 40
2.0
 40
2.0
 40
3.0
 40
3.0
 40
3.0
 40
4.0
 40
4.0
 40
4.0
 40
5.0
 40
5.0
 40
5.0
 40
6.0
 40
6.0
 40
6.0
 40
7.0
 40
7.0
 40
7.0
 40
8.0
 40
8.0
 40
8.0
 40
9.0
 40
9.0
 40
9.0
 40
10.0
 40
10.0
 40
10.0
 40
11.0
 40
11.0
 40
11.0
 40
11.0
 10
126.377554584636
 20
154.8151140277308
 10
126.377554584636
 20
154.8151140277308
 10
128.8311532078563
 20
154.8151140277308
 10
128.8311532078563
 20
154.8151140277308
 10
128.8311532078563
 20
154.8151140277308
 10
127.7345785914971
 20
151.3062819612468
 10
127.7345785914971
 20
151.3062819612468
 10
128.571392836906
 20
152.2922689395754
 10
129.8860421413442
 20
153.604506675583
 10
131.0163787157314
 20
154.2664822097754
 10
132.7044766171327
 20
155.2500576196734
 10
133.6642808525008
 20
155.3847609420097
 10
134.7284715499351
 20
155.3565111403944
 10
134.7284715499351
 20
155.3565111403944
 10
133.6877075172549
 20
152.0345756272799
 10
133.6877075172549
 20
152.0345756272799
 10
133.011434827367
 20
152.3184516825359
 10
130.930940291334
 20
151.7768823149844
 10
129.739280976855
 20
150.9162968950455
 10
128.66613302525
 20
150.1454562717016
 10
127.9192358313239
 20
149.4857200510519
 10
127.0393578639405
 20
147.8282835196966
 10
126.164647543194
 20
146.1699857139017
 10
125.4742499524985
 20
143.5262176944419
 10
124.2822461282437
 20
139.6959580071401
 10
124.2822461282437
 20
139.6959580071401
 10
120.5753209406769
 20
127.8027915271048
 10
120.5753209406769
 20
127.8027915271048
 10
120.5753209406769
 20
127.8027915271048
 10
118.1964809388044
 20
127.8027915271048
 10
118.1964809388044
 20
127.8027915271048
 10
118.1964809388044
 20
127.8027915271048
 10
126.377554584636
 20
154.8151140277308
 10
126.377554584636
 20
154.8151140277308
 97
        0
 75
     2
 76
     1
 98
        0
  0
SPLINE
  5
3C3
330
3BD
100
AcDbEntity
  8
レイヤー 1
370
     0
100
AcDbSpline
210
0.0
220
0.0
230
1.0
 70
    11
 71
     3
 72
   104
 73
   100
 74
     0
 42
0.000000001
 43
0.0000000001
 40
0.0
 40
0.0
 40
0.0
 40
0.0
 40
1.0
 40
1.0
 40
1.0
 40
2.0
 40
2.0
 40
2.0
 40
3.0
 40
3.0
 40
3.0
 40
4.0
 40
4.0
 40
4.0
 40
5.0
 40
5.0
 40
5.0
 40
6.0
 40
6.0
 40
6.0
 40
7.0
 40
7.0
 40
7.0
 40
8.0
 40
8.0
 40
8.0
 40
9.0
 40
9.0
 40
9.0
 40
10.0
 40
10.0
 40
10.0
 40
11.0
 40
11.0
 40
11.0
 40
12.0
 40
12.0
 40
12.0
 40
13.0
 40
13.0
 40
13.0
 40
14.0
 40
14.0
 40
14.0
 40
15.0
 40
15.0
 40
15.0
 40
16.0
 40
16.0
 40
16.0
 40
17.0
 40
17.0
 40
17.0
 40
18.0
 40
18.0
 40
18.0
 40
19.0
 40
19.0
 40
19.0
 40
20.0
 40
20.0
 40
20.0
 40
21.0
 40
21.0
 40
21.0
 40
22.0
 40
22.0
 40
22.0
 40
23.0
 40
23.0
 40
23.0
 40
24.0
 40
24.0
 40
24.0
 40
25.0
 40
25.0
 40
25.0
 40
26.0
 40
26.0
 40
26.0
 40
27.0
 40
27.0
 40
27.0
 40
28.0
 40
28.0
 40
28.0
 40
29.0
 40
29.0
 40
29.0
 40
30.0
 40
30.0
 40
30.0
 40
31.0
 40
31.0
 40
31.0
 40
32.0
 40
32.0
 40
32.0
 40
33.0
 40
33.0
 40
33.0
 40
33.0
 10
139.8926730891197
 20
154.8294111834263
 30
0.0
 10
139.8926730891197
 20
154.8294111834263
 30
0.0
 10
142.0344903652445
 20
154.8294111834263
 30
0.0
 10
142.0344903652445
 20
154.8294111834263
 30
0.0
 10
142.0344903652445
 20
154.8294111834263
 30
0.0
 10
140.9516961399171
 20
151.3157559800812
 30
0.0
 10
140.9516961399171
 20
151.3157559800812
 30
0.0
 10
141.8928968473923
 20
152.7887075264977
 30
0.0
 10
142.7341897198865
 20
153.4484437471474
 30
0.0
 10
143.8552245303272
 20
154.2926649527359
 30
0.0
 10
144.9803934580775
 20
155.1296514530327
 30
0.0
 10
146.3139908001845
 20
155.3044901642492
 30
0.0
 10
147.241066606852
 20
155.3044901642492
 30
0.0
 10
148.3855280820469
 20
155.3044901642492
 30
0.0
 10
149.4969166187653
 20
155.0752189084569
 30
0.0
 10
150.0784491203092
 20
153.8172414621372
 30
0.0
 10
150.5228667310863
 20
152.833838307127
 30
0.0
 10
150.5414702589793
 20
152.7201500811143
 30
0.0
 10
150.4140016419347
 20
150.7765981809602
 30
0.0
 10
151.5818897818837
 20
152.7699317437168
 30
0.0
 10
152.4424752018226
 20
153.6256940267945
 30
0.0
 10
153.9038856707499
 20
154.4507949398263
 30
0.0
 10
155.4455669174378
 20
155.3044901642492
 30
0.0
 10
156.339225275853
 20
155.3659851592288
 30
0.0
 10
157.3748216618963
 20
155.2147453676543
 30
0.0
 10
158.911679771723
 20
154.9877134254046
 30
0.0
 10
159.8859534176746
 20
154.4390816074493
 30
0.0
 10
160.3965169054045
 20
152.7816450760939
 30
0.0
 10
160.9070803931344
 20
151.1219692311958
 30
0.0
 10
160.6328506116007
 20
150.2303779314354
 30
0.0
 10
159.9992971339115
 20
147.597634224801
 30
0.0
 10
159.7105979417943
 20
146.4014962832367
 30
0.0
 10
159.2947746424084
 20
144.9400858143094
 30
0.0
 10
158.7463150793409
 20
143.2092687007094
 30
0.0
 10
158.7463150793409
 20
143.2092687007094
 30
0.0
 10
153.9038856707499
 20
127.8027915271048
 30
0.0
 10
153.9038856707499
 20
127.8027915271048
 30
0.0
 10
153.9038856707499
 20
127.8027915271048
 30
0.0
 10
151.3882752878863
 20
127.8027915271048
 30
0.0
 10
151.3882752878863
 20
127.8027915271048
 30
0.0
 10
151.3882752878863
 20
127.8027915271048
 30
0.0
 10
155.6250565106276
 20
141.2751908193897
 30
0.0
 10
155.6250565106276
 20
141.2751908193897
 30
0.0
 10
156.5094131050963
 20
144.0936252951782
 30
0.0
 10
157.109893644309
 20
146.1506931664571
 30
0.0
 10
157.4220195011804
 20
147.4415712963654
 30
0.0
 10
157.8095929989511
 20
149.0530157726519
 30
0.0
 10
157.9656559273867
 20
149.5826995529385
 30
0.0
 10
157.7816877071116
 20
150.7529992613181
 30
0.0
 10
157.6111553680925
 20
151.8430281919372
 30
0.0
 10
157.0582171779396
 20
152.5547853887321
 30
0.0
 10
156.1170164704645
 20
152.5547853887321
 30
0.0
 10
155.1096698860365
 20
152.5547853887321
 30
0.0
 10
154.2962823053817
 20
152.4412694176073
 30
0.0
 10
153.156643967048
 20
151.2945686288697
 30
0.0
 10
152.0170056287143
 20
150.1476955852443
 30
0.0
 10
151.076149431015
 20
148.7930831468137
 30
0.0
 10
150.3337308641742
 20
147.2290087646991
 30
0.0
 10
149.5957909244188
 20
145.6683794803425
 30
0.0
 10
148.8530278478023
 20
143.6822806228776
 30
0.0
 10
148.0964843801539
 20
141.2751908193897
 30
0.0
 10
148.0964843801539
 20
141.2751908193897
 30
0.0
 10
143.8552245303272
 20
127.8027915271048
 30
0.0
 10
143.8552245303272
 20
127.8027915271048
 30
0.0
 10
143.8552245303272
 20
127.8027915271048
 30
0.0
 10
141.486030802177
 20
127.8027915271048
 30
0.0
 10
141.486030802177
 20
127.8027915271048
 30
0.0
 10
141.486030802177
 20
127.8027915271048
 30
0.0
 10
146.3329388378533
 20
143.2092687007094
 30
0.0
 10
146.3329388378533
 20
143.2092687007094
 30
0.0
 10
146.8483254624444
 20
144.8408669988801
 30
0.0
 10
147.2314203331297
 20
146.1837661049335
 30
0.0
 10
147.4867020769946
 20
147.224185627838
 30
0.0
 10
147.9169947869641
 20
149.0197705792876
 30
0.0
 10
148.0306830129768
 20
150.2400242051577
 30
0.0
 10
147.709255392159
 20
151.3157559800812
 30
0.0
 10
147.3874832615654
 20
152.3916600098926
 30
0.0
 10
146.8245542879144
 20
152.6683013598569
 30
0.0
 10
145.8840425999909
 20
152.6683013598569
 30
0.0
 10
145.0989048209514
 20
152.6683013598569
 30
0.0
 10
144.3282364524954
 20
152.3275811915945
 30
0.0
 10
143.4531816219731
 20
151.6538923250251
 30
0.0
 10
142.34627171234
 20
150.8074318058939
 30
0.0
 10
141.901854101563
 20
150.1097995099067
 30
0.0
 10
141.3578731655808
 20
149.289521733736
 30
0.0
 10
140.6299240093235
 20
148.192602607601
 30
0.0
 10
140.2850697237515
 20
147.455696197173
 30
0.0
 10
139.6652966370942
 20
145.8385673095858
 30
0.0
 10
139.0506911970739
 20
144.2214384219986
 30
0.0
 10
138.463991048893
 20
142.3252566160164
 30
0.0
 10
138.0571250036777
 20
141.0154304484394
 30
0.0
 10
138.0571250036777
 20
141.0154304484394
 30
0.0
 10
133.9009590684727
 20
127.8027915271048
 30
0.0
 10
133.9009590684727
 20
127.8027915271048
 30
0.0
 10
133.9009590684727
 20
127.8027915271048
 30
0.0
 10
131.4180771143097
 20
127.8027915271048
 30
0.0
 10
131.4180771143097
 20
127.8027915271048
 30
0.0
 10
131.4180771143097
 20
127.8027915271048
 30
0.0
 10
139.8926730891197
 20
154.8294111834263
 30
0.0
 10
139.8926730891197
 20
154.8294111834263
 30
0.0
  0
HATCH
  5
3C4
330
3BD
100
AcDbEntity
  8
レイヤー 1
 62
   250
420
  2234388
100
AcDbHatch
 10
0.0
 20
0.0
 30
0.0
210
0.0
220
0.0
230
1.0
  2
SOLID
 70
     1
 71
     0
 91
        1
 92
        1
 93
        1
 72
     4
 94
        3
 73
     0
 74
     1
 95
      104
 96
      100
 40
0.0
 40
0.0
 40
0.0
 40
0.0
 40
1.0
 40
1.0
 40
1.0
 40
2.0
 40
2.0
 40
2.0
 40
3.0
 40
3.0
 40
3.0
 40
4.0
 40
4.0
 40
4.0
 40
5.0
 40
5.0
 40
5.0
 40
6.0
 40
6.0
 40
6.0
 40
7.0
 40
7.0
 40
7.0
 40
8.0
 40
8.0
 40
8.0
 40
9.0
 40
9.0
 40
9.0
 40
10.0
 40
10.0
 40
10.0
 40
11.0
 40
11.0
 40
11.0
 40
12.0
 40
12.0
 40
12.0
 40
13.0
 40
13.0
 40
13.0
 40
14.0
 40
14.0
 40
14.0
 40
15.0
 40
15.0
 40
15.0
 40
16.0
 40
16.0
 40
16.0
 40
17.0
 40
17.0
 40
17.0
 40
18.0
 40
18.0
 40
18.0
 40
19.0
 40
19.0
 40
19.0
 40
20.0
 40
20.0
 40
20.0
 40
21.0
 40
21.0
 40
21.0
 40
22.0
 40
22.0
 40
22.0
 40
23.0
 40
23.0
 40
23.0
 40
24.0
 40
24.0
 40
24.0
 40
25.0
 40
25.0
 40
25.0
 40
26.0
 40
26.0
 40
26.0
 40
27.0
 40
27.0
 40
27.0
 40
28.0
 40
28.0
 40
28.0
 40
29.0
 40
29.0
 40
29.0
 40
30.0
 40
30.0
 40
30.0
 40
31.0
 40
31.0
 40
31.0
 40
32.0
 40
32.0
 40
32.0
 40
33.0
 40
33.0
 40
33.0
 40
33.0
 10
139.8926730891197
 20
154.8294111834263
 10
139.8926730891197
 20
154.8294111834263
 10
142.0344903652445
 20
154.8294111834263
 10
142.0344903652445
 20
154.8294111834263
 10
142.0344903652445
 20
154.8294111834263
 10
140.9516961399171
 20
151.3157559800812
 10
140.9516961399171
 20
151.3157559800812
 10
141.8928968473923
 20
152.7887075264977
 10
142.7341897198865
 20
153.4484437471474
 10
143.8552245303272
 20
154.2926649527359
 10
144.9803934580775
 20
155.1296514530327
 10
146.3139908001845
 20
155.3044901642492
 10
147.241066606852
 20
155.3044901642492
 10
148.3855280820469
 20
155.3044901642492
 10
149.4969166187653
 20
155.0752189084569
 10
150.0784491203092
 20
153.8172414621372
 10
150.5228667310863
 20
152.833838307127
 10
150.5414702589793
 20
152.7201500811143
 10
150.4140016419347
 20
150.7765981809602
 10
151.5818897818837
 20
152.7699317437168
 10
152.4424752018226
 20
153.6256940267945
 10
153.9038856707499
 20
154.4507949398263
 10
155.4455669174378
 20
155.3044901642492
 10
156.339225275853
 20
155.3659851592288
 10
157.3748216618963
 20
155.2147453676543
 10
158.911679771723
 20
154.9877134254046
 10
159.8859534176746
 20
154.4390816074493
 10
160.3965169054045
 20
152.7816450760939
 10
160.9070803931344
 20
151.1219692311958
 10
160.6328506116007
 20
150.2303779314354
 10
159.9992971339115
 20
147.597634224801
 10
159.7105979417943
 20
146.4014962832367
 10
159.2947746424084
 20
144.9400858143094
 10
158.7463150793409
 20
143.2092687007094
 10
158.7463150793409
 20
143.2092687007094
 10
153.9038856707499
 20
127.8027915271048
 10
153.9038856707499
 20
127.8027915271048
 10
153.9038856707499
 20
127.8027915271048
 10
151.3882752878863
 20
127.8027915271048
 10
151.3882752878863
 20
127.8027915271048
 10
151.3882752878863
 20
127.8027915271048
 10
155.6250565106276
 20
141.2751908193897
 10
155.6250565106276
 20
141.2751908193897
 10
156.5094131050963
 20
144.0936252951782
 10
157.109893644309
 20
146.1506931664571
 10
157.4220195011804
 20
147.4415712963654
 10
157.8095929989511
 20
149.0530157726519
 10
157.9656559273867
 20
149.5826995529385
 10
157.7816877071116
 20
150.7529992613181
 10
157.6111553680925
 20
151.8430281919372
 10
157.0582171779396
 20
152.5547853887321
 10
156.1170164704645
 20
152.5547853887321
 10
155.1096698860365
 20
152.5547853887321
 10
154.2962823053817
 20
152.4412694176073
 10
153.156643967048
 20
151.2945686288697
 10
152.0170056287143
 20
150.1476955852443
 10
151.076149431015
 20
148.7930831468137
 10
150.3337308641742
 20
147.2290087646991
 10
149.5957909244188
 20
145.6683794803425
 10
148.8530278478023
 20
143.6822806228776
 10
148.0964843801539
 20
141.2751908193897
 10
148.0964843801539
 20
141.2751908193897
 10
143.8552245303272
 20
127.8027915271048
 10
143.8552245303272
 20
127.8027915271048
 10
143.8552245303272
 20
127.8027915271048
 10
141.486030802177
 20
127.8027915271048
 10
141.486030802177
 20
127.8027915271048
 10
141.486030802177
 20
127.8027915271048
 10
146.3329388378533
 20
143.2092687007094
 10
146.3329388378533
 20
143.2092687007094
 10
146.8483254624444
 20
144.8408669988801
 10
147.2314203331297
 20
146.1837661049335
 10
147.4867020769946
 20
147.224185627838
 10
147.9169947869641
 20
149.0197705792876
 10
148.0306830129768
 20
150.2400242051577
 10
147.709255392159
 20
151.3157559800812
 10
147.3874832615654
 20
152.3916600098926
 10
146.8245542879144
 20
152.6683013598569
 10
145.8840425999909
 20
152.6683013598569
 10
145.0989048209514
 20
152.6683013598569
 10
144.3282364524954
 20
152.3275811915945
 10
143.4531816219731
 20
151.6538923250251
 10
142.34627171234
 20
150.8074318058939
 10
141.901854101563
 20
150.1097995099067
 10
141.3578731655808
 20
149.289521733736
 10
140.6299240093235
 20
148.192602607601
 10
140.2850697237515
 20
147.455696197173
 10
139.6652966370942
 20
145.8385673095858
 10
139.0506911970739
 20
144.2214384219986
 10
138.463991048893
 20
142.3252566160164
 10
138.0571250036777
 20
141.0154304484394
 10
138.0571250036777
 20
141.0154304484394
 10
133.9009590684727
 20
127.8027915271048
 10
133.9009590684727
 20
127.8027915271048
 10
133.9009590684727
 20
127.8027915271048
 10
131.4180771143097
 20
127.8027915271048
 10
131.4180771143097
 20
127.8027915271048
 10
131.4180771143097
 20
127.8027915271048
 10
139.8926730891197
 20
154.8294111834263
 10
139.8926730891197
 20
154.8294111834263
 97
        0
 75
     2
 76
     1
 98
        0
  0
SPLINE
  5
3C5
330
3BD
100
AcDbEntity
  8
レイヤー 1
370
     0
100
AcDbSpline
210
0.0
220
0.0
230
1.0
 70
    11
 71
     3
 72
    29
 73
    25
 74
     0
 42
0.000000001
 43
0.0000000001
 40
0.0
 40
0.0
 40
0.0
 40
0.0
 40
1.0
 40
1.0
 40
1.0
 40
2.0
 40
2.0
 40
2.0
 40
3.0
 40
3.0
 40
3.0
 40
4.0
 40
4.0
 40
4.0
 40
5.0
 40
5.0
 40
5.0
 40
6.0
 40
6.0
 40
6.0
 40
7.0
 40
7.0
 40
7.0
 40
8.0
 40
8.0
 40
8.0
 40
8.0
 10
101.6420971922469
 20
132.8388354296931
 30
0.0
 10
101.630039350094
 20
134.7164137077823
 30
0.0
 10
102.2236296937908
 20
138.0598810818841
 30
0.0
 10
103.7487744712405
 20
142.5378191476827
 30
0.0
 10
105.819967243327
 20
148.5896501242061
 30
0.0
 10
107.0602024361932
 20
150.8074318058939
 30
0.0
 10
108.1522984254671
 20
151.8833358357054
 30
0.0
 10
109.741177511439
 20
153.4532668840085
 30
0.0
 10
111.8740375333931
 20
153.5290590346837
 30
0.0
 10
112.5075910110823
 20
153.4532668840085
 30
0.0
 10
113.4012493694975
 20
153.3490526768302
 30
0.0
 10
114.6683563248758
 20
152.7580461564518
 30
0.0
 10
114.7493161221879
 20
150.7838328862519
 30
0.0
 10
114.8106388622796
 20
149.0909118479895
 30
0.0
 10
114.3186789024427
 20
145.9191825971221
 30
0.0
 10
112.6164561002338
 20
140.9489400617108
 30
0.0
 10
110.6444821435766
 20
135.1746117095912
 30
0.0
 10
109.4669477299053
 20
132.8960240524753
 30
0.0
 10
108.5212683953448
 20
131.9072809959403
 30
0.0
 10
106.7346406980658
 20
130.0538184021569
 30
0.0
 10
104.8222669326213
 20
130.2336525051225
 30
0.0
 10
104.5408024457958
 20
130.2336525051225
 30
0.0
 10
104.1721769856939
 20
130.2336525051225
 30
0.0
 10
101.6465758193322
 20
130.6305277668397
 30
0.0
 10
101.6420971922469
 20
132.8388354296931
 30
0.0
  0
SPLINE
  5
3C6
330
3BD
100
AcDbEntity
  8
レイヤー 1
370
     0
100
AcDbSpline
210
0.0
220
0.0
230
1.0
 70
    11
 71
     3
 72
    32
 73
    28
 74
     0
 42
0.000000001
 43
0.0000000001
 40
0.0
 40
0.0
 40
0.0
 40
0.0
 40
1.0
 40
1.0
 40
1.0
 40
2.0
 40
2.0
 40
2.0
 40
3.0
 40
3.0
 40
3.0
 40
4.0
 40
4.0
 40
4.0
 40
5.0
 40
5.0
 40
5.0
 40
6.0
 40
6.0
 40
6.0
 40
7.0
 40
7.0
 40
7.0
 40
8.0
 40
8.0
 40
8.0
 40
9.0
 40
9.0
 40
9.0
 40
9.0
 10
106.2595617172429
 20
153.4105476718098
 30
0.0
 10
104.8222669326213
 20
151.5474388043041
 30
0.0
 10
103.7177685914188
 20
149.8758773721411
 30
0.0
 10
101.9232171692965
 20
144.6141795664062
 30
0.0
 10
100.2754269116635
 20
139.7999999594306
 30
0.0
 10
99.22777268346732
 20
136.3052927937542
 30
0.0
 10
99.06964269637689
 20
132.039572749846
 30
0.0
 10
98.94665270641765
 20
128.8673267343149
 30
0.0
 10
100.8807305877373
 20
127.8027915271048
 30
0.0
 10
103.7129454545577
 20
127.8027915271048
 30
0.0
 10
104.9352661390825
 20
127.8027915271048
 30
0.0
 10
108.0151835347002
 20
127.8827177950895
 30
0.0
 10
110.2045431598849
 20
130.5926316915021
 30
0.0
 10
111.7417457794874
 20
132.4984597712065
 30
0.0
 10
113.155269389579
 20
134.475256864725
 30
0.0
 10
115.0562743324223
 20
140.9489400617108
 30
0.0
 10
116.6361961642235
 20
146.3680788349845
 30
0.0
 10
117.7282921534974
 20
149.8639917848761
 30
0.0
 10
117.6480213757369
 20
151.8595646611754
 30
0.0
 10
117.6480213757369
 20
151.8595646611754
 30
0.0
 10
117.6480213757369
 20
151.8595646611754
 30
0.0
 10
117.6480213757369
 20
151.8595646611754
 30
0.0
 10
117.13229024137
 20
155.18150017429
 30
0.0
 10
114.7162431837115
 20
155.886194920681
 30
0.0
 10
113.3351034925446
 20
155.886194920681
 30
0.0
 10
111.9829026225447
 20
155.886194920681
 30
0.0
 10
108.3414342923792
 20
156.1251124501957
 30
0.0
 10
106.2595617172429
 20
153.4105476718098
 30
0.0
  0
HATCH
  5
3C7
330
3BD
100
AcDbEntity
  8
レイヤー 1
 62
   250
420
  2234388
100
AcDbHatch
 10
0.0
 20
0.0
 30
0.0
210
0.0
220
0.0
230
1.0
  2
SOLID
 70
     1
 71
     0
 91
        2
 92
        1
 93
        1
 72
     4
 94
        3
 73
     0
 74
     1
 95
       29
 96
       25
 40
0.0
 40
0.0
 40
0.0
 40
0.0
 40
1.0
 40
1.0
 40
1.0
 40
2.0
 40
2.0
 40
2.0
 40
3.0
 40
3.0
 40
3.0
 40
4.0
 40
4.0
 40
4.0
 40
5.0
 40
5.0
 40
5.0
 40
6.0
 40
6.0
 40
6.0
 40
7.0
 40
7.0
 40
7.0
 40
8.0
 40
8.0
 40
8.0
 40
8.0
 10
101.6420971922469
 20
132.8388354296931
 10
101.630039350094
 20
134.7164137077823
 10
102.2236296937908
 20
138.0598810818841
 10
103.7487744712405
 20
142.5378191476827
 10
105.819967243327
 20
148.5896501242061
 10
107.0602024361932
 20
150.8074318058939
 10
108.1522984254671
 20
151.8833358357054
 10
109.741177511439
 20
153.4532668840085
 10
111.8740375333931
 20
153.5290590346837
 10
112.5075910110823
 20
153.4532668840085
 10
113.4012493694975
 20
153.3490526768302
 10
114.6683563248758
 20
152.7580461564518
 10
114.7493161221879
 20
150.7838328862519
 10
114.8106388622796
 20
149.0909118479895
 10
114.3186789024427
 20
145.9191825971221
 10
112.6164561002338
 20
140.9489400617108
 10
110.6444821435766
 20
135.1746117095912
 10
109.4669477299053
 20
132.8960240524753
 10
108.5212683953448
 20
131.9072809959403
 10
106.7346406980658
 20
130.0538184021569
 10
104.8222669326213
 20
130.2336525051225
 10
104.5408024457958
 20
130.2336525051225
 10
104.1721769856939
 20
130.2336525051225
 10
101.6465758193322
 20
130.6305277668397
 10
101.6420971922469
 20
132.8388354296931
 97
        0
 92
        1
 93
        1
 72
     4
 94
        3
 73
     0
 74
     1
 95
       32
 96
       28
 40
0.0
 40
0.0
 40
0.0
 40
0.0
 40
1.0
 40
1.0
 40
1.0
 40
2.0
 40
2.0
 40
2.0
 40
3.0
 40
3.0
 40
3.0
 40
4.0
 40
4.0
 40
4.0
 40
5.0
 40
5.0
 40
5.0
 40
6.0
 40
6.0
 40
6.0
 40
7.0
 40
7.0
 40
7.0
 40
8.0
 40
8.0
 40
8.0
 40
9.0
 40
9.0
 40
9.0
 40
9.0
 10
106.2595617172429
 20
153.4105476718098
 10
104.8222669326213
 20
151.5474388043041
 10
103.7177685914188
 20
149.8758773721411
 10
101.9232171692965
 20
144.6141795664062
 10
100.2754269116635
 20
139.7999999594306
 10
99.22777268346732
 20
136.3052927937542
 10
99.06964269637689
 20
132.039572749846
 10
98.94665270641765
 20
128.8673267343149
 10
100.8807305877373
 20
127.8027915271048
 10
103.7129454545577
 20
127.8027915271048
 10
104.9352661390825
 20
127.8027915271048
 10
108.0151835347002
 20
127.8827177950895
 10
110.2045431598849
 20
130.5926316915021
 10
111.7417457794874
 20
132.4984597712065
 10
113.155269389579
 20
134.475256864725
 10
115.0562743324223
 20
140.9489400617108
 10
116.6361961642235
 20
146.3680788349845
 10
117.7282921534974
 20
149.8639917848761
 10
117.6480213757369
 20
151.8595646611754
 10
117.6480213757369
 20
151.8595646611754
 10
117.6480213757369
 20
151.8595646611754
 10
117.6480213757369
 20
151.8595646611754
 10
117.13229024137
 20
155.18150017429
 10
114.7162431837115
 20
155.886194920681
 10
113.3351034925446
 20
155.886194920681
 10
111.9829026225447
 20
155.886194920681
 10
108.3414342923792
 20
156.1251124501957
 10
106.2595617172429
 20
153.4105476718098
 97
        0
 75
     2
 76
     1
 98
        0
  0
ENDBLK
  5
3C8
330
3BD
100
AcDbEntity
  8
0
100
AcDbBlockEnd
  0
BLOCK
  5
11F1
330
11F0
100
AcDbEntity
  8
0
100
AcDbBlockBegin
  2
BLOCK_2
 70
     0
 10
0.0
 20
0.0
 30
0.0
  3
BLOCK_2
  1
BLOCK_2
  0
ENDBLK
  5
11F2
330
11F0
100
AcDbEntity
  8
0
100
AcDbBlockEnd
  0
BLOCK
  5
38B7
330
38B6
100
AcDbEntity
  8
0
100
AcDbBlockBegin
  2
mobile_latù
 70
     0
 10
0.0
 20
0.0
 30
0.0
  3
mobile_latù
  1
mobile_latù
  0
ENDBLK
  5
38B8
330
38B6
100
AcDbEntity
  8
0
100
AcDbBlockEnd
  0
BLOCK
  5
4FF9
330
4FF8
100
AcDbEntity
  8
0
100
AcDbBlockBegin
  2
*D8
 70
     1
 10
0.0
 20
0.0
 30
0.0
  3
*D8
  1
*D26
  0
LINE
  5
4FFB
330
4FF8
100
AcDbEntity
  8
Dim
 62
     0
370
    -2
100
AcDbLine
 10
1218.775732351491
 20
1537.191964660655
 30
0.0
 11
1289.192180018747
 21
1537.191964660655
 31
0.0
  0
LINE
  5
4FFC
330
4FF8
100
AcDbEntity
  8
Dim
 62
     0
370
    -2
100
AcDbLine
 10
1198.775732351491
 20
1439.191964660655
 30
0.0
 11
1289.192180018747
 21
1439.191964660655
 31
0.0
  0
LINE
  5
4FFD
330
4FF8
100
AcDbEntity
  8
Dim
 62
     0
370
    -2
100
AcDbLine
 10
1289.192180018747
 20
1527.192575012218
 30
0.0
 11
1289.192180018747
 21
1449.191354309093
 31
0.0
  0
INSERT
  5
4FFE
330
4FF8
100
AcDbEntity
  8
Dim
 62
     0
370
    -2
100
AcDbBlockReference
  2
_DOT
 10
1289.192180018747
 20
1537.191964660655
 30
0.0
 41
9.999389648437498
 42
9.999389648437498
 43
9.999389648437498
 50
90.0
  0
INSERT
  5
4FFF
330
4FF8
100
AcDbEntity
  8
Dim
 62
     0
370
    -2
100
AcDbBlockReference
  2
_DOT
 10
1289.192180018747
 20
1439.191964660655
 30
0.0
 41
9.999389648437498
 42
9.999389648437498
 43
9.999389648437498
 50
270.0
  0
MTEXT
  5
5000
330
4FF8
100
AcDbEntity
  8
Dim
 62
     0
100
AcDbMText
 10
1266.975871424997
 20
1488.191964660655
 30
0.0
 40
24.4326171875
 41
0.0
 46
0.0
 71
     5
 72
     1
  1
\A1;98
  7
ＭＳ ゴシック
 11
0.0
 21
1.0
 31
0.0
 73
     1
 44
1.0
  0
POINT
  5
5001
330
4FF8
100
AcDbEntity
  8
Defpoints
 62
     0
100
AcDbPoint
 10
1193.775732351491
 20
1537.191964660655
 30
0.0
  0
POINT
  5
5002
330
4FF8
100
AcDbEntity
  8
Defpoints
 62
     0
100
AcDbPoint
 10
1173.775732351491
 20
1439.191964660655
 30
0.0
  0
POINT
  5
5003
330
4FF8
100
AcDbEntity
  8
Defpoints
 62
     0
100
AcDbPoint
 10
1289.192180018747
 20
1439.191964660655
 30
0.0
  0
ENDBLK
  5
4FFA
330
4FF8
100
AcDbEntity
  8
0
100
AcDbBlockEnd
  0
BLOCK
  5
500C
330
500B
100
AcDbEntity
  8
0
100
AcDbBlockBegin
  2
*D9
 70
     1
 10
0.0
 20
0.0
 30
0.0
  3
*D9
  1
*D27
  0
LINE
  5
500E
330
500B
100
AcDbEntity
  8
Dim
 62
     0
370
    -2
100
AcDbLine
 10
1193.775732351491
 20
1562.191964660655
 30
0.0
 11
1193.775732351491
 21
1672.42118731208
 31
0.0
  0
LINE
  5
500F
330
500B
100
AcDbEntity
  8
Dim
 62
     0
370
    -2
100
AcDbLine
 10
1173.775732351491
 20
1562.191964660655
 30
0.0
 11
1173.775732351491
 21
1672.42118731208
 31
0.0
  0
LINE
  5
5010
330
500B
100
AcDbEntity
  8
Dim
 62
     0
370
    -2
100
AcDbLine
 10
1173.775732351491
 20
1672.42118731208
 30
0.0
 11
1100.211489668977
 21
1672.42118731208
 31
0.0
  0
LINE
  5
5011
330
500B
100
AcDbEntity
  8
Dim
 62
     0
370
    -2
100
AcDbLine
 10
1183.776342703053
 20
1672.42118731208
 30
0.0
 11
1183.775121999928
 21
1672.42118731208
 31
0.0
  0
INSERT
  5
5012
330
500B
100
AcDbEntity
  8
Dim
 62
     0
370
    -2
100
AcDbBlockReference
  2
_DOT
 10
1193.775732351491
 20
1672.42118731208
 30
0.0
 41
9.999389648437498
 42
9.999389648437498
 43
9.999389648437498
  0
INSERT
  5
5013
330
500B
100
AcDbEntity
  8
Dim
 62
     0
370
    -2
100
AcDbBlockReference
  2
_DOT
 10
1173.775732351491
 20
1672.42118731208
 30
0.0
 41
9.999389648437498
 42
9.999389648437498
 43
9.999389648437498
 50
180.0
  0
MTEXT
  5
5014
330
500B
100
AcDbEntity
  8
Dim
 62
     0
100
AcDbMText
 10
1124.724464278352
 20
1694.63749590583
 30
0.0
 40
24.4326171875
 41
0.0
 46
0.0
 71
     5
 72
     1
  1
\A1;20
  7
ＭＳ ゴシック
 73
     1
 44
1.0
  0
POINT
  5
5015
330
500B
100
AcDbEntity
  8
Defpoints
 62
     0
100
AcDbPoint
 10
1193.775732351491
 20
1537.191964660655
 30
0.0
  0
POINT
  5
5016
330
500B
100
AcDbEntity
  8
Defpoints
 62
     0
100
AcDbPoint
 10
1173.775732351491
 20
1537.191964660655
 30
0.0
  0
POINT
  5
508B
330
500B
100
AcDbEntity
  8
Defpoints
 62
     0
100
AcDbPoint
 10
1173.775732351491
 20
1672.42118731208
 30
0.0
  0
ENDBLK
  5
500D
330
500B
100
AcDbEntity
  8
0
100
AcDbBlockEnd
  0
BLOCK
  5
5058
330
5057
100
AcDbEntity
  8
0
100
AcDbBlockBegin
  2
*D10
 70
     1
 10
0.0
 20
0.0
 30
0.0
  3
*D10
  1
*D31
  0
LINE
  5
505A
330
5057
100
AcDbEntity
  8
Dim
 62
     0
370
    -2
100
AcDbLine
 10
1474.040036263704
 20
1559.191964660655
 30
0.0
 11
1474.040036263704
 21
1672.42118731208
 31
0.0
  0
LINE
  5
505B
330
5057
100
AcDbEntity
  8
Dim
 62
     0
370
    -2
100
AcDbLine
 10
1524.040036263704
 20
1559.191964660655
 30
0.0
 11
1524.040036263704
 21
1672.42118731208
 31
0.0
  0
LINE
  5
505C
330
5057
100
AcDbEntity
  8
Dim
 62
     0
370
    -2
100
AcDbLine
 10
1484.039425912142
 20
1672.42118731208
 30
0.0
 11
1514.040646615267
 21
1672.42118731208
 31
0.0
  0
INSERT
  5
505D
330
5057
100
AcDbEntity
  8
Dim
 62
     0
370
    -2
100
AcDbBlockReference
  2
_DOT
 10
1474.040036263704
 20
1672.42118731208
 30
0.0
 41
9.999389648437498
 42
9.999389648437498
 43
9.999389648437498
 50
180.0
  0
INSERT
  5
505E
330
5057
100
AcDbEntity
  8
Dim
 62
     0
370
    -2
100
AcDbBlockReference
  2
_DOT
 10
1524.040036263704
 20
1672.42118731208
 30
0.0
 41
9.999389648437498
 42
9.999389648437498
 43
9.999389648437498
  0
MTEXT
  5
505F
330
5057
100
AcDbEntity
  8
Dim
 62
     0
100
AcDbMText
 10
1499.040036263704
 20
1694.63749590583
 30
0.0
 40
24.4326171875
 41
0.0
 46
0.0
 71
     5
 72
     1
  1
\A1;50
  7
ＭＳ ゴシック
 73
     1
 44
1.0
  0
POINT
  5
5060
330
5057
100
AcDbEntity
  8
Defpoints
 62
     0
100
AcDbPoint
 10
1474.040036263704
 20
1534.191964660655
 30
0.0
  0
POINT
  5
5061
330
5057
100
AcDbEntity
  8
Defpoints
 62
     0
100
AcDbPoint
 10
1524.040036263704
 20
1534.191964660655
 30
0.0
  0
POINT
  5
5062
330
5057
100
AcDbEntity
  8
Defpoints
 62
     0
100
AcDbPoint
 10
1524.040036263704
 20
1672.42118731208
 30
0.0
  0
ENDBLK
  5
5059
330
5057
100
AcDbEntity
  8
0
100
AcDbBlockEnd
  0
BLOCK
  5
5080
330
507F
100
AcDbEntity
  8
0
100
AcDbBlockBegin
  2
*D11
 70
     1
 10
0.0
 20
0.0
 30
0.0
  3
*D11
  1
*D33
  0
LINE
  5
5082
330
507F
100
AcDbEntity
  8
Dim
 62
     0
370
    -2
100
AcDbLine
 10
1193.775732351491
 20
1431.317205371051
 30
0.0
 11
1193.775732351491
 21
1310.597093863823
 31
0.0
  0
LINE
  5
5083
330
507F
100
AcDbEntity
  8
Dim
 62
     0
370
    -2
100
AcDbLine
 10
253.7757323514907
 20
1431.317205371051
 30
0.0
 11
253.7757323514907
 21
1310.597093863823
 31
0.0
  0
LINE
  5
5084
330
507F
100
AcDbEntity
  8
Dim
 62
     0
370
    -2
100
AcDbLine
 10
1183.776342703053
 20
1310.597093863823
 30
0.0
 11
263.7751219999282
 21
1310.597093863823
 31
0.0
  0
INSERT
  5
5085
330
507F
100
AcDbEntity
  8
Dim
 62
     0
370
    -2
100
AcDbBlockReference
  2
_DOT
 10
1193.775732351491
 20
1310.597093863823
 30
0.0
 41
9.999389648437498
 42
9.999389648437498
 43
9.999389648437498
  0
INSERT
  5
5086
330
507F
100
AcDbEntity
  8
Dim
 62
     0
370
    -2
100
AcDbBlockReference
  2
_DOT
 10
253.7757323514907
 20
1310.597093863823
 30
0.0
 41
9.999389648437498
 42
9.999389648437498
 43
9.999389648437498
 50
180.0
  0
MTEXT
  5
5087
330
507F
100
AcDbEntity
  8
Dim
 62
     0
100
AcDbMText
 10
723.7757323514907
 20
1332.813402457573
 30
0.0
 40
24.4326171875
 41
0.0
 46
0.0
 71
     5
 72
     1
  1
\A1;940
  7
ＭＳ ゴシック
 73
     1
 44
1.0
  0
POINT
  5
5088
330
507F
100
AcDbEntity
  8
Defpoints
 62
     0
100
AcDbPoint
 10
1193.775732351491
 20
1456.317205371051
 30
0.0
  0
POINT
  5
5089
330
507F
100
AcDbEntity
  8
Defpoints
 62
     0
100
AcDbPoint
 10
253.7757323514907
 20
1456.317205371051
 30
0.0
  0
POINT
  5
508A
330
507F
100
AcDbEntity
  8
Defpoints
 62
     0
100
AcDbPoint
 10
253.7757323514907
 20
1310.597093863823
 30
0.0
  0
ENDBLK
  5
5081
330
507F
100
AcDbEntity
  8
0
100
AcDbBlockEnd
  0
BLOCK
  5
50A3
330
50A2
100
AcDbEntity
  8
0
100
AcDbBlockBegin
  2
*D12
 70
     1
 10
0.0
 20
0.0
 30
0.0
  3
*D12
  1
*D34
  0
LINE
  5
50A5
330
50A2
100
AcDbEntity
  8
Dim
 62
     0
370
    -2
100
AcDbLine
 10
1474.040036263704
 20
1424.191964660655
 30
0.0
 11
1474.040036263704
 21
1310.597093863823
 31
0.0
  0
LINE
  5
50A6
330
50A2
100
AcDbEntity
  8
Dim
 62
     0
370
    -2
100
AcDbLine
 10
1494.040036263704
 20
1424.191964660655
 30
0.0
 11
1494.040036263704
 21
1310.597093863823
 31
0.0
  0
LINE
  5
50A7
330
50A2
100
AcDbEntity
  8
Dim
 62
     0
370
    -2
100
AcDbLine
 10
1494.040036263704
 20
1310.597093863823
 30
0.0
 11
1563.064764779329
 21
1310.597093863823
 31
0.0
  0
LINE
  5
50A8
330
50A2
100
AcDbEntity
  8
Dim
 62
     0
370
    -2
100
AcDbLine
 10
1484.039425912142
 20
1310.597093863823
 30
0.0
 11
1484.040646615267
 21
1310.597093863823
 31
0.0
  0
INSERT
  5
50A9
330
50A2
100
AcDbEntity
  8
Dim
 62
     0
370
    -2
100
AcDbBlockReference
  2
_DOT
 10
1474.040036263704
 20
1310.597093863823
 30
0.0
 41
9.999389648437498
 42
9.999389648437498
 43
9.999389648437498
 50
180.0
  0
INSERT
  5
50AA
330
50A2
100
AcDbEntity
  8
Dim
 62
     0
370
    -2
100
AcDbBlockReference
  2
_DOT
 10
1494.040036263704
 20
1310.597093863823
 30
0.0
 41
9.999389648437498
 42
9.999389648437498
 43
9.999389648437498
  0
MTEXT
  5
50AB
330
50A2
100
AcDbEntity
  8
Dim
 62
     0
100
AcDbMText
 10
1538.551790169954
 20
1332.813402457573
 30
0.0
 40
24.4326171875
 41
0.0
 46
0.0
 71
     5
 72
     1
  1
\A1;20
  7
ＭＳ ゴシック
 73
     1
 44
1.0
  0
POINT
  5
50AC
330
50A2
100
AcDbEntity
  8
Defpoints
 62
     0
100
AcDbPoint
 10
1474.040036263704
 20
1449.191964660655
 30
0.0
  0
POINT
  5
50AD
330
50A2
100
AcDbEntity
  8
Defpoints
 62
     0
100
AcDbPoint
 10
1494.040036263704
 20
1449.191964660655
 30
0.0
  0
POINT
  5
50AE
330
50A2
100
AcDbEntity
  8
Defpoints
 62
     0
100
AcDbPoint
 10
1494.040036263704
 20
1310.597093863823
 30
0.0
  0
ENDBLK
  5
50A4
330
50A2
100
AcDbEntity
  8
0
100
AcDbBlockEnd
  0
BLOCK
  5
5170
330
516F
100
AcDbEntity
  8
0
100
AcDbBlockBegin
  2
*D13
 70
     1
 10
0.0
 20
0.0
 30
0.0
  3
*D13
  1

  0
LINE
  5
5171
330
516F
100
AcDbEntity
  8
Dim
 62
     0
 48
0.5
370
    -2
100
AcDbLine
 10
102.2289795867755
 20
926.8211984696657
 30
0.0
 11
102.2289795867755
 21
971.4884215310385
 31
0.0
  0
LINE
  5
5172
330
516F
100
AcDbEntity
  8
Dim
 62
     0
 48
0.5
370
    -2
100
AcDbLine
 10
702.0157977513581
 20
926.8211984696657
 30
0.0
 11
702.0157977513581
 21
971.4884215310385
 31
0.0
  0
LINE
  5
5173
330
516F
100
AcDbEntity
  8
Dim
 62
     0
 48
0.5
370
    -2
100
AcDbLine
 10
105.2289795867755
 20
971.4884215310385
 30
0.0
 11
699.0157977513581
 21
971.4884215310385
 31
0.0
  0
INSERT
  5
5174
330
516F
100
AcDbEntity
  8
Dim
 62
     0
370
    -2
100
AcDbBlockReference
  2
_DOT
 10
102.2289795867755
 20
971.4884215310385
 30
0.0
 41
3.0
 42
3.0
 43
3.0
 50
180.0
  0
INSERT
  5
5175
330
516F
100
AcDbEntity
  8
Dim
 62
     0
370
    -2
100
AcDbBlockReference
  2
_DOT
 10
702.0157977513581
 20
971.4884215310385
 30
0.0
 41
3.0
 42
3.0
 43
3.0
  0
MTEXT
  5
5176
330
516F
100
AcDbEntity
  8
Dim
 62
     0
100
AcDbMText
 10
409.8967296798719
 20
987.4884215310385
 30
0.0
 40
12.0
 41
0.0
 46
0.0
 71
     5
 72
     1
  1
\A1;600
  7
ＭＳ ゴシック
 73
     1
 44
1.0
  0
POINT
  5
5177
330
516F
100
AcDbEntity
  8
Defpoints
 62
     0
100
AcDbPoint
 10
102.2289795867755
 20
916.8211984696657
 30
0.0
  0
POINT
  5
5178
330
516F
100
AcDbEntity
  8
Defpoints
 62
     0
100
AcDbPoint
 10
702.0157977513581
 20
916.8211984696657
 30
0.0
  0
POINT
  5
5179
330
516F
100
AcDbEntity
  8
Defpoints
 62
     0
100
AcDbPoint
 10
702.0157977513581
 20
971.4884215310385
 30
0.0
  0
ENDBLK
  5
517A
330
516F
100
AcDbEntity
  8
0
100
AcDbBlockEnd
  0
BLOCK
  5
517D
330
517C
100
AcDbEntity
  8
0
100
AcDbBlockBegin
  2
*D14
 70
     1
 10
0.0
 20
0.0
 30
0.0
  3
*D14
  1

  0
LINE
  5
517E
330
517C
100
AcDbEntity
  8
Dim
 62
     0
 48
0.5
370
    -2
100
AcDbLine
 10
711.4265832319511
 20
917.8088133332142
 30
0.0
 11
767.6068743999153
 21
917.8088133332142
 31
0.0
  0
LINE
  5
517F
330
517C
100
AcDbEntity
  8
Dim
 62
     0
 48
0.5
370
    -2
100
AcDbLine
 10
711.4265832319511
 20
547.8088133332142
 30
0.0
 11
767.6068743999153
 21
547.8088133332142
 31
0.0
  0
LINE
  5
5180
330
517C
100
AcDbEntity
  8
Dim
 62
     0
 48
0.5
370
    -2
100
AcDbLine
 10
767.6068743999153
 20
914.8088133332142
 30
0.0
 11
767.6068743999153
 21
550.8088133332142
 31
0.0
  0
INSERT
  5
5181
330
517C
100
AcDbEntity
  8
Dim
 62
     0
370
    -2
100
AcDbBlockReference
  2
_DOT
 10
767.6068743999153
 20
917.8088133332142
 30
0.0
 41
3.0
 42
3.0
 43
3.0
 50
90.0
  0
INSERT
  5
5182
330
517C
100
AcDbEntity
  8
Dim
 62
     0
370
    -2
100
AcDbBlockReference
  2
_DOT
 10
767.6068743999153
 20
547.8088133332142
 30
0.0
 41
3.0
 42
3.0
 43
3.0
 50
270.0
  0
MTEXT
  5
5183
330
517C
100
AcDbEntity
  8
Dim
 62
     0
100
AcDbMText
 10
751.6068743999153
 20
741.0412123961466
 30
0.0
 40
12.0
 41
0.0
 46
0.0
 71
     5
 72
     1
  1
\A1;370
  7
ＭＳ ゴシック
 11
0.0
 21
1.0
 31
0.0
 73
     1
 44
1.0
  0
POINT
  5
5184
330
517C
100
AcDbEntity
  8
Defpoints
 62
     0
100
AcDbPoint
 10
701.4265832319511
 20
917.8088133332142
 30
0.0
  0
POINT
  5
5185
330
517C
100
AcDbEntity
  8
Defpoints
 62
     0
100
AcDbPoint
 10
701.4265832319511
 20
547.8088133332142
 30
0.0
  0
POINT
  5
5186
330
517C
100
AcDbEntity
  8
Defpoints
 62
     0
100
AcDbPoint
 10
767.6068743999153
 20
547.8088133332142
 30
0.0
  0
ENDBLK
  5
5187
330
517C
100
AcDbEntity
  8
0
100
AcDbBlockEnd
  0
BLOCK
  5
518A
330
5189
100
AcDbEntity
  8
0
100
AcDbBlockBegin
  2
*D15
 70
     1
 10
0.0
 20
0.0
 30
0.0
  3
*D15
  1

  0
LINE
  5
518B
330
5189
100
AcDbEntity
  8
Dim
 62
     0
370
    -2
100
AcDbLine
 10
171.1080163086981
 20
99.65977515971946
 30
0.0
 11
171.1080163086981
 21
50.06245888920859
 31
0.0
  0
LINE
  5
518C
330
5189
100
AcDbEntity
  8
Dim
 62
     0
370
    -2
100
AcDbLine
 10
634.2354716764703
 20
100.2594328471631
 30
0.0
 11
634.2354716764703
 21
50.06245888920859
 31
0.0
  0
LINE
  5
518D
330
5189
100
AcDbEntity
  8
Dim
 62
     0
370
    -2
100
AcDbLine
 10
174.1080163086981
 20
50.06245888920859
 30
0.0
 11
631.2354716764703
 21
50.06245888920859
 31
0.0
  0
INSERT
  5
518E
330
5189
100
AcDbEntity
  8
Dim
 62
     0
370
    -2
100
AcDbBlockReference
  2
_DOT
 10
171.1080163086981
 20
50.06245888920859
 30
0.0
 41
3.0
 42
3.0
 43
3.0
 50
180.0
  0
INSERT
  5
518F
330
5189
100
AcDbEntity
  8
Dim
 62
     0
370
    -2
100
AcDbBlockReference
  2
_DOT
 10
634.2354716764703
 20
50.06245888920859
 30
0.0
 41
3.0
 42
3.0
 43
3.0
  0
MTEXT
  5
5190
330
5189
100
AcDbEntity
  8
Dim
 62
     0
100
AcDbMText
 10
402.6717439925842
 20
66.06245888920859
 30
0.0
 40
12.0
 41
0.0
 46
0.0
 71
     5
 72
     1
  1
\A1;460
  7
ＭＳ ゴシック
 73
     1
 44
1.0
  0
POINT
  5
5191
330
5189
100
AcDbEntity
  8
Defpoints
 62
     0
100
AcDbPoint
 10
171.1080163086981
 20
109.6597751597195
 30
0.0
  0
POINT
  5
5192
330
5189
100
AcDbEntity
  8
Defpoints
 62
     0
100
AcDbPoint
 10
634.2354716764703
 20
110.2594328471631
 30
0.0
  0
POINT
  5
5193
330
5189
100
AcDbEntity
  8
Defpoints
 62
     0
100
AcDbPoint
 10
634.2354716764703
 20
50.06245888920859
 30
0.0
  0
ENDBLK
  5
5194
330
5189
100
AcDbEntity
  8
0
100
AcDbBlockEnd
  0
BLOCK
  5
519A
330
5199
100
AcDbEntity
  8
0
100
AcDbBlockBegin
  2
*D16
 70
     1
 10
0.0
 20
0.0
 30
0.0
  3
*D16
  1

  0
LINE
  5
519B
330
5199
100
AcDbEntity
  8
Dim
 62
     0
 48
0.5
370
    -2
100
AcDbLine
 10
108.6597421610286
 20
544.293425379251
 30
0.0
 11
108.6597421610286
 21
485.7800598009374
 31
0.0
  0
LINE
  5
519C
330
5199
100
AcDbEntity
  8
Dim
 62
     0
 48
0.5
370
    -2
100
AcDbLine
 10
695.5840280497005
 20
540.894011316751
 30
0.0
 11
695.5840280497005
 21
485.7800598009374
 31
0.0
  0
LINE
  5
519D
330
5199
100
AcDbEntity
  8
Dim
 62
     0
 48
0.5
370
    -2
100
AcDbLine
 10
111.6597421610286
 20
485.7800598009374
 30
0.0
 11
692.5840280497005
 21
485.7800598009374
 31
0.0
  0
INSERT
  5
519E
330
5199
100
AcDbEntity
  8
Dim
 62
     0
370
    -2
100
AcDbBlockReference
  2
_DOT
 10
108.6597421610286
 20
485.7800598009374
 30
0.0
 41
3.0
 42
3.0
 43
3.0
 50
180.0
  0
INSERT
  5
519F
330
5199
100
AcDbEntity
  8
Dim
 62
     0
370
    -2
100
AcDbBlockReference
  2
_DOT
 10
695.5840280497005
 20
485.7800598009374
 30
0.0
 41
3.0
 42
3.0
 43
3.0
  0
MTEXT
  5
51A0
330
5199
100
AcDbEntity
  8
Dim
 62
     0
100
AcDbMText
 10
402.1218851053645
 20
501.7800598009374
 30
0.0
 40
12.0
 41
0.0
 46
0.0
 71
     5
 72
     1
  1
\A1;585
  7
ＭＳ ゴシック
 73
     1
 44
1.0
  0
POINT
  5
51A1
330
5199
100
AcDbEntity
  8
Defpoints
 62
     0
100
AcDbPoint
 10
108.6597421610286
 20
554.293425379251
 30
0.0
  0
POINT
  5
51A2
330
5199
100
AcDbEntity
  8
Defpoints
 62
     0
100
AcDbPoint
 10
695.5840280497005
 20
550.894011316751
 30
0.0
  0
POINT
  5
51A3
330
5199
100
AcDbEntity
  8
Defpoints
 62
     0
100
AcDbPoint
 10
695.5840280497005
 20
485.7800598009374
 30
0.0
  0
ENDBLK
  5
51A4
330
5199
100
AcDbEntity
  8
0
100
AcDbBlockEnd
  0
BLOCK
  5
51A7
330
51A6
100
AcDbEntity
  8
0
100
AcDbBlockBegin
  2
*D17
 70
     1
 10
0.0
 20
0.0
 30
0.0
  3
*D17
  1

  0
LINE
  5
51A8
330
51A6
100
AcDbEntity
  8
Dim
 62
     0
370
    -2
100
AcDbLine
 10
124.2289640728968
 20
176.3944313125618
 30
0.0
 11
124.2289640728968
 21
1.499999999999943
 31
0.0
  0
LINE
  5
51A9
330
51A6
100
AcDbEntity
  8
Dim
 62
     0
370
    -2
100
AcDbLine
 10
680.015810864822
 20
176.3944313125618
 30
0.0
 11
680.015810864822
 21
1.499999999999943
 31
0.0
  0
LINE
  5
51AA
330
51A6
100
AcDbEntity
  8
Dim
 62
     0
370
    -2
100
AcDbLine
 10
127.2289640728968
 20
1.499999999999943
 30
0.0
 11
677.015810864822
 21
1.499999999999943
 31
0.0
  0
INSERT
  5
51AB
330
51A6
100
AcDbEntity
  8
Dim
 62
     0
370
    -2
100
AcDbBlockReference
  2
_DOT
 10
124.2289640728968
 20
1.499999999999943
 30
0.0
 41
3.0
 42
3.0
 43
3.0
 50
180.0
  0
INSERT
  5
51AC
330
51A6
100
AcDbEntity
  8
Dim
 62
     0
370
    -2
100
AcDbBlockReference
  2
_DOT
 10
680.015810864822
 20
1.499999999999943
 30
0.0
 41
3.0
 42
3.0
 43
3.0
  0
MTEXT
  5
51AD
330
51A6
100
AcDbEntity
  8
Dim
 62
     0
100
AcDbMText
 10
402.1223874688594
 20
17.49999999999994
 30
0.0
 40
12.0
 41
0.0
 46
0.0
 71
     5
 72
     1
  1
\A1;555
  7
ＭＳ ゴシック
 73
     1
 44
1.0
  0
POINT
  5
51AE
330
51A6
100
AcDbEntity
  8
Defpoints
 62
     0
100
AcDbPoint
 10
124.2289640728968
 20
186.3944313125618
 30
0.0
  0
POINT
  5
51AF
330
51A6
100
AcDbEntity
  8
Defpoints
 62
     0
100
AcDbPoint
 10
680.015810864822
 20
186.3944313125618
 30
0.0
  0
POINT
  5
51B0
330
51A6
100
AcDbEntity
  8
Defpoints
 62
     0
100
AcDbPoint
 10
680.015810864822
 20
1.499999999999943
 30
0.0
  0
ENDBLK
  5
51B1
330
51A6
100
AcDbEntity
  8
0
100
AcDbBlockEnd
  0
BLOCK
  5
51B4
330
51B3
100
AcDbEntity
  8
0
100
AcDbBlockBegin
  2
*D18
 70
     1
 10
0.0
 20
0.0
 30
0.0
  3
*D18
  1

  0
LINE
  5
51B5
330
51B3
100
AcDbEntity
  8
Dim
 62
     0
370
    -2
100
AcDbLine
 10
1255.728088438003
 20
95.29816429379093
 30
0.0
 11
1255.728088438003
 21
50.06245888920859
 31
0.0
  0
LINE
  5
51B6
330
51B3
100
AcDbEntity
  8
Dim
 62
     0
370
    -2
100
AcDbLine
 10
1023.699348990421
 20
95.29816429379093
 30
0.0
 11
1023.699348990421
 21
50.06245888920859
 31
0.0
  0
LINE
  5
51B7
330
51B3
100
AcDbEntity
  8
Dim
 62
     0
370
    -2
100
AcDbLine
 10
1252.728088438003
 20
50.06245888920859
 30
0.0
 11
1026.699348990421
 21
50.06245888920859
 31
0.0
  0
INSERT
  5
51B8
330
51B3
100
AcDbEntity
  8
Dim
 62
     0
370
    -2
100
AcDbBlockReference
  2
_DOT
 10
1255.728088438003
 20
50.06245888920859
 30
0.0
 41
3.0
 42
3.0
 43
3.0
  0
INSERT
  5
51B9
330
51B3
100
AcDbEntity
  8
Dim
 62
     0
370
    -2
100
AcDbBlockReference
  2
_DOT
 10
1023.699348990421
 20
50.06245888920859
 30
0.0
 41
3.0
 42
3.0
 43
3.0
 50
180.0
  0
MTEXT
  5
51BA
330
51B3
100
AcDbEntity
  8
Dim
 62
     0
100
AcDbMText
 10
1139.713718714212
 20
66.06245888920859
 30
0.0
 40
12.0
 41
0.0
 46
0.0
 71
     5
 72
     1
  1
\A1;230
  7
ＭＳ ゴシック
 73
     1
 44
1.0
  0
POINT
  5
51BB
330
51B3
100
AcDbEntity
  8
Defpoints
 62
     0
100
AcDbPoint
 10
1255.728088438003
 20
105.2981642937909
 30
0.0
  0
POINT
  5
51BC
330
51B3
100
AcDbEntity
  8
Defpoints
 62
     0
100
AcDbPoint
 10
1023.699348990421
 20
105.2981642937909
 30
0.0
  0
POINT
  5
51BD
330
51B3
100
AcDbEntity
  8
Defpoints
 62
     0
100
AcDbPoint
 10
1023.699348990421
 20
50.06245888920859
 30
0.0
  0
ENDBLK
  5
51BE
330
51B3
100
AcDbEntity
  8
0
100
AcDbBlockEnd
  0
BLOCK
  5
51CA
330
51C9
100
AcDbEntity
  8
0
100
AcDbBlockBegin
  2
*D19
 70
     1
 10
0.0
 20
0.0
 30
0.0
  3
*D19
  1

  0
LINE
  5
51CB
330
51C9
100
AcDbEntity
  8
Dim
 62
     0
 48
0.5
370
    -2
100
AcDbLine
 10
649.5620901631901
 20
109.723471400628
 30
0.0
 11
751.1546283416811
 21
109.7234714006281
 31
0.0
  0
LINE
  5
51CC
330
51C9
100
AcDbEntity
  8
Dim
 62
     0
 48
0.5
370
    -2
100
AcDbLine
 10
711.6716538672158
 20
279.723559893442
 30
0.0
 11
751.154628341681
 21
279.723559893442
 31
0.0
  0
LINE
  5
51CD
330
51C9
100
AcDbEntity
  8
Dim
 62
     0
 48
0.5
370
    -2
100
AcDbLine
 10
751.1546283416811
 20
112.7234714006281
 30
0.0
 11
751.154628341681
 21
276.723559893442
 31
0.0
  0
INSERT
  5
51CE
330
51C9
100
AcDbEntity
  8
Dim
 62
     0
370
    -2
100
AcDbBlockReference
  2
_DOT
 10
751.1546283416811
 20
109.7234714006281
 30
0.0
 41
3.0
 42
3.0
 43
3.0
 50
270.0000000000001
  0
INSERT
  5
51CF
330
51C9
100
AcDbEntity
  8
Dim
 62
     0
370
    -2
100
AcDbBlockReference
  2
_DOT
 10
751.154628341681
 20
279.723559893442
 30
0.0
 41
3.0
 42
3.0
 43
3.0
 50
90.00000000000004
  0
MTEXT
  5
51D0
330
51C9
100
AcDbEntity
  8
Dim
 62
     0
100
AcDbMText
 10
735.154628341681
 20
194.723515647035
 30
0.0
 40
12.0
 41
0.0
 46
0.0
 71
     5
 72
     1
  1
\A1;170
  7
ＭＳ ゴシック
 11
-6.687457561318955E-16
 21
1.0
 31
0.0
 73
     1
 44
1.0
  0
POINT
  5
51D1
330
51C9
100
AcDbEntity
  8
Defpoints
 62
     0
100
AcDbPoint
 10
639.5620901631901
 20
109.723471400628
 30
0.0
  0
POINT
  5
51D2
330
51C9
100
AcDbEntity
  8
Defpoints
 62
     0
100
AcDbPoint
 10
701.6716538672158
 20
279.723559893442
 30
0.0
  0
POINT
  5
51D3
330
51C9
100
AcDbEntity
  8
Defpoints
 62
     0
100
AcDbPoint
 10
751.154628341681
 20
279.723559893442
 30
0.0
  0
ENDBLK
  5
51D4
330
51C9
100
AcDbEntity
  8
0
100
AcDbBlockEnd
  0
BLOCK
  5
51D7
330
51D6
100
AcDbEntity
  8
0
100
AcDbBlockBegin
  2
*D20
 70
     1
 10
0.0
 20
0.0
 30
0.0
  3
*D20
  1

  0
LINE
  5
51D8
330
51D6
100
AcDbEntity
  8
Dim
 62
     0
 48
0.5
370
    -2
100
AcDbLine
 10
1008.910719260931
 20
109.7235504169693
 30
0.0
 11
902.9321409725858
 21
109.7235504169692
 31
0.0
  0
LINE
  5
51D9
330
51D6
100
AcDbEntity
  8
Dim
 62
     0
 48
0.5
370
    -2
100
AcDbLine
 10
944.3512150905717
 20
194.7235523904964
 30
0.0
 11
902.9321409725858
 21
194.7235523904963
 31
0.0
  0
LINE
  5
51DA
330
51D6
100
AcDbEntity
  8
Dim
 62
     0
 48
0.5
370
    -2
100
AcDbLine
 10
902.9321409725858
 20
112.7235504169692
 30
0.0
 11
902.9321409725858
 21
191.7235523904963
 31
0.0
  0
INSERT
  5
51DB
330
51D6
100
AcDbEntity
  8
Dim
 62
     0
370
    -2
100
AcDbBlockReference
  2
_DOT
 10
902.9321409725858
 20
109.7235504169692
 30
0.0
 41
3.0
 42
3.0
 43
3.0
 50
270.0
  0
INSERT
  5
51DC
330
51D6
100
AcDbEntity
  8
Dim
 62
     0
370
    -2
100
AcDbBlockReference
  2
_DOT
 10
902.9321409725858
 20
194.7235523904963
 30
0.0
 41
3.0
 42
3.0
 43
3.0
 50
90.0
  0
MTEXT
  5
51DD
330
51D6
100
AcDbEntity
  8
Dim
 62
     0
100
AcDbMText
 10
886.9321409725858
 20
152.2235514037328
 30
0.0
 40
12.0
 41
0.0
 46
0.0
 71
     5
 72
     1
  1
\A1;85
  7
ＭＳ ゴシック
 11
0.0
 21
1.0
 31
0.0
 73
     1
 44
1.0
  0
POINT
  5
51DE
330
51D6
100
AcDbEntity
  8
Defpoints
 62
     0
100
AcDbPoint
 10
1018.910719260931
 20
109.7235504169693
 30
0.0
  0
POINT
  5
51DF
330
51D6
100
AcDbEntity
  8
Defpoints
 62
     0
100
AcDbPoint
 10
954.3512150905717
 20
194.7235523904964
 30
0.0
  0
POINT
  5
51E0
330
51D6
100
AcDbEntity
  8
Defpoints
 62
     0
100
AcDbPoint
 10
902.9321409725858
 20
194.7235523904963
 30
0.0
  0
ENDBLK
  5
51E1
330
51D6
100
AcDbEntity
  8
0
100
AcDbBlockEnd
  0
BLOCK
  5
51E4
330
51E3
100
AcDbEntity
  8
0
100
AcDbBlockBegin
  2
*D21
 70
     1
 10
0.0
 20
0.0
 30
0.0
  3
*D21
  1

  0
LINE
  5
51E5
330
51E3
100
AcDbEntity
  8
Dim
 62
     0
 48
0.5
370
    -2
100
AcDbLine
 10
944.3512150905717
 20
194.7235523904964
 30
0.0
 11
902.9321409725858
 21
194.7235523904963
 31
0.0
  0
LINE
  5
51E6
330
51E3
100
AcDbEntity
  8
Dim
 62
     0
 48
0.5
370
    -2
100
AcDbLine
 10
937.495338541507
 20
279.2875781176298
 30
0.0
 11
902.9321409725858
 21
279.2875781176298
 31
0.0
  0
LINE
  5
51E7
330
51E3
100
AcDbEntity
  8
Dim
 62
     0
 48
0.5
370
    -2
100
AcDbLine
 10
902.9321409725858
 20
197.7235523904963
 30
0.0
 11
902.9321409725858
 21
276.2875781176298
 31
0.0
  0
INSERT
  5
51E8
330
51E3
100
AcDbEntity
  8
Dim
 62
     0
370
    -2
100
AcDbBlockReference
  2
_DOT
 10
902.9321409725858
 20
194.7235523904963
 30
0.0
 41
3.0
 42
3.0
 43
3.0
 50
270.0
  0
INSERT
  5
51E9
330
51E3
100
AcDbEntity
  8
Dim
 62
     0
370
    -2
100
AcDbBlockReference
  2
_DOT
 10
902.9321409725858
 20
279.2875781176298
 30
0.0
 41
3.0
 42
3.0
 43
3.0
 50
90.0
  0
MTEXT
  5
51EA
330
51E3
100
AcDbEntity
  8
Dim
 62
     0
100
AcDbMText
 10
886.9321409725858
 20
237.0055652540631
 30
0.0
 40
12.0
 41
0.0
 46
0.0
 71
     5
 72
     1
  1
\A1;85
  7
ＭＳ ゴシック
 11
0.0
 21
1.0
 31
0.0
 73
     1
 44
1.0
  0
POINT
  5
51EB
330
51E3
100
AcDbEntity
  8
Defpoints
 62
     0
100
AcDbPoint
 10
954.3512150905717
 20
194.7235523904964
 30
0.0
  0
POINT
  5
51EC
330
51E3
100
AcDbEntity
  8
Defpoints
 62
     0
100
AcDbPoint
 10
947.495338541507
 20
279.2875781176298
 30
0.0
  0
POINT
  5
51ED
330
51E3
100
AcDbEntity
  8
Defpoints
 62
     0
100
AcDbPoint
 10
902.9321409725858
 20
279.2875781176298
 30
0.0
  0
ENDBLK
  5
51EE
330
51E3
100
AcDbEntity
  8
0
100
AcDbBlockEnd
  0
BLOCK
  5
5202
330
5201
100
AcDbEntity
  8
0
100
AcDbBlockBegin
  2
*D22
 70
     1
 10
0.0
 20
0.0
 30
0.0
  3
*D22
  1

  0
LINE
  5
5203
330
5201
100
AcDbEntity
  8
Dim
 62
     0
370
    -2
100
AcDbLine
 10
1521.230194922983
 20
899.2570681993079
 30
0.0
 11
1564.716988166899
 21
899.2570681993079
 31
0.0
  0
LINE
  5
5204
330
5201
100
AcDbEntity
  8
Dim
 62
     0
370
    -2
100
AcDbLine
 10
1521.230194922985
 20
568.8951543095457
 30
0.0
 11
1564.716988166899
 21
568.8951543095457
 31
0.0
  0
LINE
  5
5205
330
5201
100
AcDbEntity
  8
Dim
 62
     0
370
    -2
100
AcDbLine
 10
1564.716988166899
 20
896.2570681993079
 30
0.0
 11
1564.716988166899
 21
571.8951543095457
 31
0.0
  0
INSERT
  5
5206
330
5201
100
AcDbEntity
  8
Dim
 62
     0
370
    -2
100
AcDbBlockReference
  2
_DOT
 10
1564.716988166899
 20
899.2570681993079
 30
0.0
 41
3.0
 42
3.0
 43
3.0
 50
90.0
  0
INSERT
  5
5207
330
5201
100
AcDbEntity
  8
Dim
 62
     0
370
    -2
100
AcDbBlockReference
  2
_DOT
 10
1564.716988166899
 20
568.8951543095457
 30
0.0
 41
3.0
 42
3.0
 43
3.0
 50
270.0
  0
MTEXT
  5
5208
330
5201
100
AcDbEntity
  8
Dim
 62
     0
100
AcDbMText
 10
1548.716988166899
 20
734.0761112544268
 30
0.0
 40
12.0
 41
0.0
 46
0.0
 71
     5
 72
     1
  1
\A1;330
  7
ＭＳ ゴシック
 11
0.0
 21
1.0
 31
0.0
 73
     1
 44
1.0
  0
POINT
  5
5209
330
5201
100
AcDbEntity
  8
Defpoints
 62
     0
100
AcDbPoint
 10
1511.230194922983
 20
899.2570681993079
 30
0.0
  0
POINT
  5
520A
330
5201
100
AcDbEntity
  8
Defpoints
 62
     0
100
AcDbPoint
 10
1511.230194922985
 20
568.8951543095457
 30
0.0
  0
POINT
  5
520B
330
5201
100
AcDbEntity
  8
Defpoints
 62
     0
100
AcDbPoint
 10
1564.716988166899
 20
568.8951543095457
 30
0.0
  0
ENDBLK
  5
520C
330
5201
100
AcDbEntity
  8
0
100
AcDbBlockEnd
  0
BLOCK
  5
520F
330
520E
100
AcDbEntity
  8
0
100
AcDbBlockBegin
  2
*D23
 70
     1
 10
0.0
 20
0.0
 30
0.0
  3
*D23
  1

  0
LINE
  5
5210
330
520E
100
AcDbEntity
  8
Dim
 62
     0
370
    -2
100
AcDbLine
 10
938.2873916942367
 20
554.4321453105332
 30
0.0
 11
938.2873916942367
 21
489.8442542054495
 31
0.0
  0
LINE
  5
5211
330
520E
100
AcDbEntity
  8
Dim
 62
     0
370
    -2
100
AcDbLine
 10
1473.074297168228
 20
554.4321453105332
 30
0.0
 11
1473.074297168228
 21
489.8442542054495
 31
0.0
  0
LINE
  5
5212
330
520E
100
AcDbEntity
  8
Dim
 62
     0
370
    -2
100
AcDbLine
 10
941.2873916942367
 20
489.8442542054495
 30
0.0
 11
1470.074297168228
 21
489.8442542054495
 31
0.0
  0
INSERT
  5
5213
330
520E
100
AcDbEntity
  8
Dim
 62
     0
370
    -2
100
AcDbBlockReference
  2
_DOT
 10
938.2873916942367
 20
489.8442542054495
 30
0.0
 41
3.0
 42
3.0
 43
3.0
 50
180.0
  0
INSERT
  5
5214
330
520E
100
AcDbEntity
  8
Dim
 62
     0
370
    -2
100
AcDbBlockReference
  2
_DOT
 10
1473.074297168228
 20
489.8442542054495
 30
0.0
 41
3.0
 42
3.0
 43
3.0
  0
MTEXT
  5
5215
330
520E
100
AcDbEntity
  8
Dim
 62
     0
100
AcDbMText
 10
1205.680844431232
 20
505.8442542054495
 30
0.0
 40
12.0
 41
0.0
 46
0.0
 71
     5
 72
     1
  1
\A1;535
  7
ＭＳ ゴシック
 73
     1
 44
1.0
  0
POINT
  5
5216
330
520E
100
AcDbEntity
  8
Defpoints
 62
     0
100
AcDbPoint
 10
938.2873916942367
 20
564.4321453105332
 30
0.0
  0
POINT
  5
5217
330
520E
100
AcDbEntity
  8
Defpoints
 62
     0
100
AcDbPoint
 10
1473.074297168228
 20
564.4321453105332
 30
0.0
  0
POINT
  5
5218
330
520E
100
AcDbEntity
  8
Defpoints
 62
     0
100
AcDbPoint
 10
1473.074297168228
 20
489.8442542054495
 30
0.0
  0
ENDBLK
  5
5219
330
520E
100
AcDbEntity
  8
0
100
AcDbBlockEnd
  0
BLOCK
  5
5223
330
5222
100
AcDbEntity
  8
0
100
AcDbBlockBegin
  2
*D24
 70
     1
 10
0.0
 20
0.0
 30
0.0
  3
*D24
  1

  0
LINE
  5
5224
330
5222
100
AcDbEntity
  8
Dim
 62
     0
370
    -2
100
AcDbLine
 10
103.4338035218311
 20
911.1259520050892
 30
0.0
 11
22.00000000000002
 21
911.1259520050892
 31
0.0
  0
LINE
  5
5225
330
5222
100
AcDbEntity
  8
Dim
 62
     0
370
    -2
100
AcDbLine
 10
103.4338035218311
 20
556.1259520050892
 30
0.0
 11
22.0
 21
556.1259520050892
 31
0.0
  0
LINE
  5
5226
330
5222
100
AcDbEntity
  8
Dim
 62
     0
370
    -2
100
AcDbLine
 10
22.00000000000002
 20
908.1259520050892
 30
0.0
 11
22.0
 21
559.1259520050892
 31
0.0
  0
INSERT
  5
5227
330
5222
100
AcDbEntity
  8
Dim
 62
     0
370
    -2
100
AcDbBlockReference
  2
_DOT
 10
22.00000000000002
 20
911.1259520050892
 30
0.0
 41
3.0
 42
3.0
 43
3.0
 50
90.0
  0
INSERT
  5
5228
330
5222
100
AcDbEntity
  8
Dim
 62
     0
370
    -2
100
AcDbBlockReference
  2
_DOT
 10
22.0
 20
556.1259520050892
 30
0.0
 41
3.0
 42
3.0
 43
3.0
 50
270.0
  0
MTEXT
  5
5229
330
5222
100
AcDbEntity
  8
Dim
 62
     0
100
AcDbMText
 10
6.000000000000011
 20
733.6259520050892
 30
0.0
 40
12.0
 41
0.0
 46
0.0
 71
     5
 72
     1
  1
\A1;355
  7
ＭＳ ゴシック
 11
6.004586499381128E-17
 21
1.0
 31
0.0
 73
     1
 44
1.0
  0
POINT
  5
522A
330
5222
100
AcDbEntity
  8
Defpoints
 62
     0
100
AcDbPoint
 10
113.4338035218311
 20
911.1259520050892
 30
0.0
  0
POINT
  5
522B
330
5222
100
AcDbEntity
  8
Defpoints
 62
     0
100
AcDbPoint
 10
113.4338035218311
 20
556.1259520050892
 30
0.0
  0
POINT
  5
522C
330
5222
100
AcDbEntity
  8
Defpoints
 62
     0
100
AcDbPoint
 10
22.0
 20
556.1259520050892
 30
0.0
  0
ENDBLK
  5
522D
330
5222
100
AcDbEntity
  8
0
100
AcDbBlockEnd
  0
BLOCK
  5
5237
330
5236
100
AcDbEntity
  8
0
100
AcDbBlockBegin
  2
*D25
 70
     1
 10
0.0
 20
0.0
 30
0.0
  3
*D25
  1

  0
LINE
  5
5238
330
5236
100
AcDbEntity
  8
Dim
 62
     0
370
    -2
100
AcDbLine
 10
1149.713125840555
 20
160.7582475197631
 30
0.0
 11
1139.713717041148
 21
160.7582475197631
 31
0.0
  0
LINE
  5
5239
330
5236
100
AcDbEntity
  8
Dim
 62
     0
370
    -2
100
AcDbLine
 10
1149.713717041148
 20
279.7235490876427
 30
0.0
 11
1139.713717041148
 21
279.7235490876427
 31
0.0
  0
LINE
  5
523A
330
5236
100
AcDbEntity
  8
Dim
 62
     0
370
    -2
100
AcDbLine
 10
1139.713717041148
 20
160.7582475197631
 30
0.0
 11
1139.713717041148
 21
363.6715490876428
 31
0.0
  0
LINE
  5
523B
330
5236
100
AcDbEntity
  8
Dim
 62
     0
370
    -2
100
AcDbLine
 10
1139.713717041148
 20
160.7582475197631
 30
0.0
 11
1139.713717041148
 21
157.7582475197631
 31
0.0
  0
LINE
  5
523C
330
5236
100
AcDbEntity
  8
Dim
 62
     0
370
    -2
100
AcDbLine
 10
1139.713717041148
 20
276.7235490876427
 30
0.0
 11
1139.713717041148
 21
273.7235490876427
 31
0.0
  0
INSERT
  5
523D
330
5236
100
AcDbEntity
  8
Dim
 62
     0
370
    -2
100
AcDbBlockReference
  2
_DOT
 10
1139.713717041148
 20
160.7582475197631
 30
0.0
 41
3.0
 42
3.0
 43
3.0
 50
270.0
  0
INSERT
  5
523E
330
5236
100
AcDbEntity
  8
Dim
 62
     0
370
    -2
100
AcDbBlockReference
  2
_DOT
 10
1139.713717041148
 20
279.7235490876427
 30
0.0
 41
3.0
 42
3.0
 43
3.0
 50
90.0
  0
MTEXT
  5
523F
330
5236
100
AcDbEntity
  8
Dim
 62
     0
100
AcDbMText
 10
1122.651717041148
 20
324.6975490876429
 30
0.0
 40
12.0
 41
0.0
 46
0.0
 71
     5
 72
     1
  1
\A1;? (深さ)
  7
ＭＳ ゴシック
 11
0.0
 21
1.0
 31
0.0
 73
     1
 44
1.0
  0
POINT
  5
5240
330
5236
100
AcDbEntity
  8
Defpoints
 62
     0
100
AcDbPoint
 10
1139.713125840555
 20
160.7582475197631
 30
0.0
  0
POINT
  5
5241
330
5236
100
AcDbEntity
  8
Defpoints
 62
     0
100
AcDbPoint
 10
1139.713717041148
 20
279.7235490876427
 30
0.0
  0
POINT
  5
5242
330
5236
100
AcDbEntity
  8
Defpoints
 62
     0
100
AcDbPoint
 10
1139.713717041148
 20
279.7235490876427
 30
0.0
  0
ENDBLK
  5
5243
330
5236
100
AcDbEntity
  8
0
100
AcDbBlockEnd
  0
BLOCK
  5
52F3
330
52F2
100
AcDbEntity
  8
0
100
AcDbBlockBegin
  2
*D26
 70
     1
 10
0.0
 20
0.0
 30
0.0
  3
*D26
  1

  0
LINE
  5
52F5
330
52F2
100
AcDbEntity
  8
Dim
 62
     0
 48
0.5
370
    -2
100
AcDbLine
 10
293.5357421767039
 20
2224.134723649522
 30
0.0
 11
293.5357421767039
 21
2279.621486462223
 31
0.0
  0
LINE
  5
52F6
330
52F2
100
AcDbEntity
  8
Dim
 62
     0
 48
0.5
370
    -2
100
AcDbLine
 10
893.3225603412866
 20
2224.134723649522
 30
0.0
 11
893.3225603412866
 21
2279.621486462223
 31
0.0
  0
LINE
  5
52F7
330
52F2
100
AcDbEntity
  8
Dim
 62
     0
 48
0.5
370
    -2
100
AcDbLine
 10
303.5351318251414
 20
2279.621486462223
 30
0.0
 11
883.3231706928491
 21
2279.621486462223
 31
0.0
  0
INSERT
  5
52F8
330
52F2
100
AcDbEntity
  8
Dim
 62
     0
370
    -2
100
AcDbBlockReference
  2
_DOT
 10
293.5357421767039
 20
2279.621486462223
 30
0.0
 41
9.999389648437498
 42
9.999389648437498
 43
9.999389648437498
 50
180.0
  0
INSERT
  5
52F9
330
52F2
100
AcDbEntity
  8
Dim
 62
     0
370
    -2
100
AcDbBlockReference
  2
_DOT
 10
893.3225603412866
 20
2279.621486462223
 30
0.0
 41
9.999389648437498
 42
9.999389648437498
 43
9.999389648437498
  0
MTEXT
  5
52FA
330
52F2
100
AcDbEntity
  8
Dim
 62
     0
100
AcDbMText
 10
601.2034922698003
 20
2301.837795055973
 30
0.0
 40
24.4326171875
 41
0.0
 46
0.0
 71
     5
 72
     1
  1
\A1;600
  7
ＭＳ ゴシック
 73
     1
 44
1.0
  0
POINT
  5
52FB
330
52F2
100
AcDbEntity
  8
Defpoints
 62
     0
100
AcDbPoint
 10
293.5357421767039
 20
2199.134723649522
 30
0.0
  0
POINT
  5
52FC
330
52F2
100
AcDbEntity
  8
Defpoints
 62
     0
100
AcDbPoint
 10
893.3225603412866
 20
2199.134723649522
 30
0.0
  0
POINT
  5
52FD
330
52F2
100
AcDbEntity
  8
Defpoints
 62
     0
100
AcDbPoint
 10
893.3225603412866
 20
2279.621486462223
 30
0.0
  0
ENDBLK
  5
52F4
330
52F2
100
AcDbEntity
  8
0
100
AcDbBlockEnd
  0
BLOCK
  5
52FF
330
52FE
100
AcDbEntity
  8
0
100
AcDbBlockBegin
  2
*D27
 70
     1
 10
0.0
 20
0.0
 30
0.0
  3
*D27
  1

  0
LINE
  5
5301
330
52FE
100
AcDbEntity
  8
Dim
 62
     0
 48
0.5
370
    -2
100
AcDbLine
 10
917.7333458218795
 20
2200.12233851307
 30
0.0
 11
989.1060670695468
 21
2200.12233851307
 31
0.0
  0
LINE
  5
5302
330
52FE
100
AcDbEntity
  8
Dim
 62
     0
 48
0.5
370
    -2
100
AcDbLine
 10
917.7333458218795
 20
1830.12233851307
 30
0.0
 11
989.1060670695468
 21
1830.12233851307
 31
0.0
  0
LINE
  5
5303
330
52FE
100
AcDbEntity
  8
Dim
 62
     0
 48
0.5
370
    -2
100
AcDbLine
 10
989.1060670695468
 20
2190.122948864633
 30
0.0
 11
989.1060670695468
 21
1840.121728161508
 31
0.0
  0
INSERT
  5
5304
330
52FE
100
AcDbEntity
  8
Dim
 62
     0
370
    -2
100
AcDbBlockReference
  2
_DOT
 10
989.1060670695468
 20
2200.12233851307
 30
0.0
 41
9.999389648437498
 42
9.999389648437498
 43
9.999389648437498
 50
90.0
  0
INSERT
  5
5305
330
52FE
100
AcDbEntity
  8
Dim
 62
     0
370
    -2
100
AcDbBlockReference
  2
_DOT
 10
989.1060670695468
 20
1830.12233851307
 30
0.0
 41
9.999389648437498
 42
9.999389648437498
 43
9.999389648437498
 50
270.0
  0
MTEXT
  5
5306
330
52FE
100
AcDbEntity
  8
Dim
 62
     0
100
AcDbMText
 10
966.8897584757968
 20
2023.354737576002
 30
0.0
 40
24.4326171875
 41
0.0
 46
0.0
 71
     5
 72
     1
  1
\A1;370
  7
ＭＳ ゴシック
 11
0.0
 21
1.0
 31
0.0
 73
     1
 44
1.0
  0
POINT
  5
5307
330
52FE
100
AcDbEntity
  8
Defpoints
 62
     0
100
AcDbPoint
 10
892.7333458218795
 20
2200.12233851307
 30
0.0
  0
POINT
  5
5308
330
52FE
100
AcDbEntity
  8
Defpoints
 62
     0
100
AcDbPoint
 10
892.7333458218795
 20
1830.12233851307
 30
0.0
  0
POINT
  5
5309
330
52FE
100
AcDbEntity
  8
Defpoints
 62
     0
100
AcDbPoint
 10
989.1060670695468
 20
1830.12233851307
 30
0.0
  0
ENDBLK
  5
5300
330
52FE
100
AcDbEntity
  8
0
100
AcDbBlockEnd
  0
BLOCK
  5
530B
330
530A
100
AcDbEntity
  8
0
100
AcDbBlockBegin
  2
*D28
 70
     1
 10
0.0
 20
0.0
 30
0.0
  3
*D28
  1

  0
LINE
  5
530D
330
530A
100
AcDbEntity
  8
Dim
 62
     0
370
    -2
100
AcDbLine
 10
362.4147788986265
 20
952.8826528575612
 30
0.0
 11
362.4147788986265
 21
898.3799749709356
 31
0.0
  0
LINE
  5
530E
330
530A
100
AcDbEntity
  8
Dim
 62
     0
370
    -2
100
AcDbLine
 10
825.5422342663987
 20
953.4823105450048
 30
0.0
 11
825.5422342663987
 21
898.3799749709356
 31
0.0
  0
LINE
  5
530F
330
530A
100
AcDbEntity
  8
Dim
 62
     0
370
    -2
100
AcDbLine
 10
372.414168547064
 20
898.3799749709356
 30
0.0
 11
815.5428446179612
 21
898.3799749709356
 31
0.0
  0
INSERT
  5
5310
330
530A
100
AcDbEntity
  8
Dim
 62
     0
370
    -2
100
AcDbBlockReference
  2
_DOT
 10
362.4147788986265
 20
898.3799749709356
 30
0.0
 41
9.999389648437498
 42
9.999389648437498
 43
9.999389648437498
 50
180.0
  0
INSERT
  5
5311
330
530A
100
AcDbEntity
  8
Dim
 62
     0
370
    -2
100
AcDbBlockReference
  2
_DOT
 10
825.5422342663987
 20
898.3799749709356
 30
0.0
 41
9.999389648437498
 42
9.999389648437498
 43
9.999389648437498
  0
MTEXT
  5
5312
330
530A
100
AcDbEntity
  8
Dim
 62
     0
100
AcDbMText
 10
593.9785065825126
 20
920.5962835646856
 30
0.0
 40
24.4326171875
 41
0.0
 46
0.0
 71
     5
 72
     1
  1
\A1;460
  7
ＭＳ ゴシック
 73
     1
 44
1.0
  0
POINT
  5
5313
330
530A
100
AcDbEntity
  8
Defpoints
 62
     0
100
AcDbPoint
 10
362.4147788986265
 20
977.8826528575612
 30
0.0
  0
POINT
  5
5314
330
530A
100
AcDbEntity
  8
Defpoints
 62
     0
100
AcDbPoint
 10
825.5422342663987
 20
978.4823105450048
 30
0.0
  0
POINT
  5
5315
330
530A
100
AcDbEntity
  8
Defpoints
 62
     0
100
AcDbPoint
 10
825.5422342663987
 20
898.3799749709356
 30
0.0
  0
ENDBLK
  5
530C
330
530A
100
AcDbEntity
  8
0
100
AcDbBlockEnd
  0
BLOCK
  5
5317
330
5316
100
AcDbEntity
  8
0
100
AcDbBlockBegin
  2
*D29
 70
     1
 10
0.0
 20
0.0
 30
0.0
  3
*D29
  1

  0
LINE
  5
5319
330
5316
100
AcDbEntity
  8
Dim
 62
     0
 48
0.5
370
    -2
100
AcDbLine
 10
299.966504750957
 20
1811.606950559107
 30
0.0
 11
299.966504750957
 21
1768.093584980793
 31
0.0
  0
LINE
  5
531A
330
5316
100
AcDbEntity
  8
Dim
 62
     0
 48
0.5
370
    -2
100
AcDbLine
 10
886.8907906396289
 20
1808.207536496607
 30
0.0
 11
886.8907906396289
 21
1768.093584980793
 31
0.0
  0
LINE
  5
531B
330
5316
100
AcDbEntity
  8
Dim
 62
     0
 48
0.5
370
    -2
100
AcDbLine
 10
309.9658943993945
 20
1768.093584980793
 30
0.0
 11
876.8914009911914
 21
1768.093584980793
 31
0.0
  0
INSERT
  5
531C
330
5316
100
AcDbEntity
  8
Dim
 62
     0
370
    -2
100
AcDbBlockReference
  2
_DOT
 10
299.966504750957
 20
1768.093584980793
 30
0.0
 41
9.999389648437498
 42
9.999389648437498
 43
9.999389648437498
 50
180.0
  0
INSERT
  5
531D
330
5316
100
AcDbEntity
  8
Dim
 62
     0
370
    -2
100
AcDbBlockReference
  2
_DOT
 10
886.8907906396289
 20
1768.093584980793
 30
0.0
 41
9.999389648437498
 42
9.999389648437498
 43
9.999389648437498
  0
MTEXT
  5
531E
330
5316
100
AcDbEntity
  8
Dim
 62
     0
100
AcDbMText
 10
593.428647695293
 20
1790.309893574543
 30
0.0
 40
24.4326171875
 41
0.0
 46
0.0
 71
     5
 72
     1
  1
\A1;585
  7
ＭＳ ゴシック
 73
     1
 44
1.0
  0
POINT
  5
531F
330
5316
100
AcDbEntity
  8
Defpoints
 62
     0
100
AcDbPoint
 10
299.966504750957
 20
1836.606950559107
 30
0.0
  0
POINT
  5
5320
330
5316
100
AcDbEntity
  8
Defpoints
 62
     0
100
AcDbPoint
 10
886.8907906396289
 20
1833.207536496607
 30
0.0
  0
POINT
  5
5321
330
5316
100
AcDbEntity
  8
Defpoints
 62
     0
100
AcDbPoint
 10
886.8907906396289
 20
1768.093584980793
 30
0.0
  0
ENDBLK
  5
5318
330
5316
100
AcDbEntity
  8
0
100
AcDbBlockEnd
  0
BLOCK
  5
5323
330
5322
100
AcDbEntity
  8
0
100
AcDbBlockBegin
  2
*D30
 70
     1
 10
0.0
 20
0.0
 30
0.0
  3
*D30
  1

  0
LINE
  5
5325
330
5322
100
AcDbEntity
  8
Dim
 62
     0
370
    -2
100
AcDbLine
 10
315.5357266628253
 20
1029.617309010403
 30
0.0
 11
315.5357266628253
 21
826.3932712057556
 31
0.0
  0
LINE
  5
5326
330
5322
100
AcDbEntity
  8
Dim
 62
     0
370
    -2
100
AcDbLine
 10
871.3225734547505
 20
1029.617309010403
 30
0.0
 11
871.3225734547505
 21
826.3932712057556
 31
0.0
  0
LINE
  5
5327
330
5322
100
AcDbEntity
  8
Dim
 62
     0
370
    -2
100
AcDbLine
 10
325.5351163112628
 20
826.3932712057556
 30
0.0
 11
861.323183806313
 21
826.3932712057556
 31
0.0
  0
INSERT
  5
5328
330
5322
100
AcDbEntity
  8
Dim
 62
     0
370
    -2
100
AcDbBlockReference
  2
_DOT
 10
315.5357266628253
 20
826.3932712057556
 30
0.0
 41
9.999389648437498
 42
9.999389648437498
 43
9.999389648437498
 50
180.0
  0
INSERT
  5
5329
330
5322
100
AcDbEntity
  8
Dim
 62
     0
370
    -2
100
AcDbBlockReference
  2
_DOT
 10
871.3225734547505
 20
826.3932712057556
 30
0.0
 41
9.999389648437498
 42
9.999389648437498
 43
9.999389648437498
  0
MTEXT
  5
532A
330
5322
100
AcDbEntity
  8
Dim
 62
     0
100
AcDbMText
 10
593.4291500587879
 20
848.6095797995056
 30
0.0
 40
24.4326171875
 41
0.0
 46
0.0
 71
     5
 72
     1
  1
\A1;555
  7
ＭＳ ゴシック
 73
     1
 44
1.0
  0
POINT
  5
532B
330
5322
100
AcDbEntity
  8
Defpoints
 62
     0
100
AcDbPoint
 10
315.5357266628253
 20
1054.617309010403
 30
0.0
  0
POINT
  5
532C
330
5322
100
AcDbEntity
  8
Defpoints
 62
     0
100
AcDbPoint
 10
871.3225734547505
 20
1054.617309010403
 30
0.0
  0
POINT
  5
532D
330
5322
100
AcDbEntity
  8
Defpoints
 62
     0
100
AcDbPoint
 10
871.3225734547505
 20
826.3932712057556
 30
0.0
  0
ENDBLK
  5
5324
330
5322
100
AcDbEntity
  8
0
100
AcDbBlockEnd
  0
BLOCK
  5
532F
330
532E
100
AcDbEntity
  8
0
100
AcDbBlockBegin
  2
*D31
 70
     1
 10
0.0
 20
0.0
 30
0.0
  3
*D31
  1

  0
LINE
  5
5331
330
532E
100
AcDbEntity
  8
Dim
 62
     0
370
    -2
100
AcDbLine
 10
1656.25959922937
 20
948.5210419916327
 30
0.0
 11
1656.25959922937
 21
889.2388062388493
 31
0.0
  0
LINE
  5
5332
330
532E
100
AcDbEntity
  8
Dim
 62
     0
370
    -2
100
AcDbLine
 10
1424.230859781788
 20
948.5210419916327
 30
0.0
 11
1424.230859781788
 21
889.2388062388493
 31
0.0
  0
LINE
  5
5333
330
532E
100
AcDbEntity
  8
Dim
 62
     0
370
    -2
100
AcDbLine
 10
1646.260209580933
 20
889.2388062388493
 30
0.0
 11
1434.230249430226
 21
889.2388062388493
 31
0.0
  0
INSERT
  5
5334
330
532E
100
AcDbEntity
  8
Dim
 62
     0
370
    -2
100
AcDbBlockReference
  2
_DOT
 10
1656.25959922937
 20
889.2388062388493
 30
0.0
 41
9.999389648437498
 42
9.999389648437498
 43
9.999389648437498
  0
INSERT
  5
5335
330
532E
100
AcDbEntity
  8
Dim
 62
     0
370
    -2
100
AcDbBlockReference
  2
_DOT
 10
1424.230859781788
 20
889.2388062388493
 30
0.0
 41
9.999389648437498
 42
9.999389648437498
 43
9.999389648437498
 50
180.0
  0
MTEXT
  5
5336
330
532E
100
AcDbEntity
  8
Dim
 62
     0
100
AcDbMText
 10
1540.245229505579
 20
911.4551148325993
 30
0.0
 40
24.4326171875
 41
0.0
 46
0.0
 71
     5
 72
     1
  1
\A1;230
  7
ＭＳ ゴシック
 73
     1
 44
1.0
  0
POINT
  5
5337
330
532E
100
AcDbEntity
  8
Defpoints
 62
     0
100
AcDbPoint
 10
1656.25959922937
 20
973.5210419916327
 30
0.0
  0
POINT
  5
5338
330
532E
100
AcDbEntity
  8
Defpoints
 62
     0
100
AcDbPoint
 10
1424.230859781788
 20
973.5210419916327
 30
0.0
  0
POINT
  5
5339
330
532E
100
AcDbEntity
  8
Defpoints
 62
     0
100
AcDbPoint
 10
1424.230859781788
 20
889.2388062388493
 30
0.0
  0
ENDBLK
  5
5330
330
532E
100
AcDbEntity
  8
0
100
AcDbBlockEnd
  0
BLOCK
  5
533B
330
533A
100
AcDbEntity
  8
0
100
AcDbBlockBegin
  2
*D32
 70
     1
 10
0.0
 20
0.0
 30
0.0
  3
*D32
  1

  0
LINE
  5
533D
330
533A
100
AcDbEntity
  8
Dim
 62
     0
 48
0.5
370
    -2
100
AcDbLine
 10
855.8688527531185
 20
977.9463490984699
 30
0.0
 11
989.106067069547
 21
977.94634909847
 31
0.0
  0
LINE
  5
533E
330
533A
100
AcDbEntity
  8
Dim
 62
     0
 48
0.5
370
    -2
100
AcDbLine
 10
917.9784164571442
 20
1147.946437591284
 30
0.0
 11
989.1060670695468
 21
1147.946437591284
 31
0.0
  0
LINE
  5
533F
330
533A
100
AcDbEntity
  8
Dim
 62
     0
 48
0.5
370
    -2
100
AcDbLine
 10
989.106067069547
 20
987.9457387469075
 30
0.0
 11
989.1060670695468
 21
1137.947047942846
 31
0.0
  0
INSERT
  5
5340
330
533A
100
AcDbEntity
  8
Dim
 62
     0
370
    -2
100
AcDbBlockReference
  2
_DOT
 10
989.106067069547
 20
977.94634909847
 30
0.0
 41
9.999389648437498
 42
9.999389648437498
 43
9.999389648437498
 50
270.0000000000001
  0
INSERT
  5
5341
330
533A
100
AcDbEntity
  8
Dim
 62
     0
370
    -2
100
AcDbBlockReference
  2
_DOT
 10
989.1060670695468
 20
1147.946437591284
 30
0.0
 41
9.999389648437498
 42
9.999389648437498
 43
9.999389648437498
 50
90.00000000000004
  0
MTEXT
  5
5342
330
533A
100
AcDbEntity
  8
Dim
 62
     0
100
AcDbMText
 10
966.889758475797
 20
1062.946393344877
 30
0.0
 40
24.4326171875
 41
0.0
 46
0.0
 71
     5
 72
     1
  1
\A1;170
  7
ＭＳ ゴシック
 11
-6.687457561318957E-16
 21
1.0
 31
0.0
 73
     1
 44
1.0
  0
POINT
  5
5343
330
533A
100
AcDbEntity
  8
Defpoints
 62
     0
100
AcDbPoint
 10
830.8688527531185
 20
977.9463490984699
 30
0.0
  0
POINT
  5
5344
330
533A
100
AcDbEntity
  8
Defpoints
 62
     0
100
AcDbPoint
 10
892.9784164571442
 20
1147.946437591284
 30
0.0
  0
POINT
  5
5345
330
533A
100
AcDbEntity
  8
Defpoints
 62
     0
100
AcDbPoint
 10
989.1060670695468
 20
1147.946437591284
 30
0.0
  0
ENDBLK
  5
533C
330
533A
100
AcDbEntity
  8
0
100
AcDbBlockEnd
  0
BLOCK
  5
5347
330
5346
100
AcDbEntity
  8
0
100
AcDbBlockBegin
  2
*D33
 70
     1
 10
0.0
 20
0.0
 30
0.0
  3
*D33
  1

  0
LINE
  5
5349
330
5346
100
AcDbEntity
  8
Dim
 62
     0
 48
0.5
370
    -2
100
AcDbLine
 10
1394.442230052298
 20
977.9464281148112
 30
0.0
 11
1262.577365566619
 21
977.946428114811
 31
0.0
  0
LINE
  5
534A
330
5346
100
AcDbEntity
  8
Dim
 62
     0
 48
0.5
370
    -2
100
AcDbLine
 10
1329.882725881939
 20
1062.946430088338
 30
0.0
 11
1262.577365566619
 21
1062.946430088338
 31
0.0
  0
LINE
  5
534B
330
5346
100
AcDbEntity
  8
Dim
 62
     0
 48
0.5
370
    -2
100
AcDbLine
 10
1262.577365566619
 20
987.9458177632486
 30
0.0
 11
1262.577365566619
 21
1052.947040439901
 31
0.0
  0
INSERT
  5
534C
330
5346
100
AcDbEntity
  8
Dim
 62
     0
370
    -2
100
AcDbBlockReference
  2
_DOT
 10
1262.577365566619
 20
977.946428114811
 30
0.0
 41
9.999389648437498
 42
9.999389648437498
 43
9.999389648437498
 50
270.0
  0
INSERT
  5
534D
330
5346
100
AcDbEntity
  8
Dim
 62
     0
370
    -2
100
AcDbBlockReference
  2
_DOT
 10
1262.577365566619
 20
1062.946430088338
 30
0.0
 41
9.999389648437498
 42
9.999389648437498
 43
9.999389648437498
 50
90.0
  0
MTEXT
  5
534E
330
5346
100
AcDbEntity
  8
Dim
 62
     0
100
AcDbMText
 10
1240.361056972869
 20
1020.446429101575
 30
0.0
 40
24.4326171875
 41
0.0
 46
0.0
 71
     5
 72
     1
  1
\A1;85
  7
ＭＳ ゴシック
 11
0.0
 21
1.0
 31
0.0
 73
     1
 44
1.0
  0
POINT
  5
534F
330
5346
100
AcDbEntity
  8
Defpoints
 62
     0
100
AcDbPoint
 10
1419.442230052298
 20
977.9464281148112
 30
0.0
  0
POINT
  5
5350
330
5346
100
AcDbEntity
  8
Defpoints
 62
     0
100
AcDbPoint
 10
1354.882725881939
 20
1062.946430088338
 30
0.0
  0
POINT
  5
5351
330
5346
100
AcDbEntity
  8
Defpoints
 62
     0
100
AcDbPoint
 10
1262.577365566619
 20
1062.946430088338
 30
0.0
  0
ENDBLK
  5
5348
330
5346
100
AcDbEntity
  8
0
100
AcDbBlockEnd
  0
BLOCK
  5
5353
330
5352
100
AcDbEntity
  8
0
100
AcDbBlockBegin
  2
*D34
 70
     1
 10
0.0
 20
0.0
 30
0.0
  3
*D34
  1

  0
LINE
  5
5355
330
5352
100
AcDbEntity
  8
Dim
 62
     0
 48
0.5
370
    -2
100
AcDbLine
 10
1329.882725881939
 20
1062.946430088338
 30
0.0
 11
1262.577365566619
 21
1062.946430088338
 31
0.0
  0
LINE
  5
5356
330
5352
100
AcDbEntity
  8
Dim
 62
     0
 48
0.5
370
    -2
100
AcDbLine
 10
1323.026849332874
 20
1147.510455815472
 30
0.0
 11
1262.577365566619
 21
1147.510455815472
 31
0.0
  0
LINE
  5
5357
330
5352
100
AcDbEntity
  8
Dim
 62
     0
 48
0.5
370
    -2
100
AcDbLine
 10
1262.577365566619
 20
1072.945819736776
 30
0.0
 11
1262.577365566619
 21
1137.511066167034
 31
0.0
  0
INSERT
  5
5358
330
5352
100
AcDbEntity
  8
Dim
 62
     0
370
    -2
100
AcDbBlockReference
  2
_DOT
 10
1262.577365566619
 20
1062.946430088338
 30
0.0
 41
9.999389648437498
 42
9.999389648437498
 43
9.999389648437498
 50
270.0
  0
INSERT
  5
5359
330
5352
100
AcDbEntity
  8
Dim
 62
     0
370
    -2
100
AcDbBlockReference
  2
_DOT
 10
1262.577365566619
 20
1147.510455815472
 30
0.0
 41
9.999389648437498
 42
9.999389648437498
 43
9.999389648437498
 50
90.0
  0
MTEXT
  5
535A
330
5352
100
AcDbEntity
  8
Dim
 62
     0
100
AcDbMText
 10
1240.361056972869
 20
1105.228442951905
 30
0.0
 40
24.4326171875
 41
0.0
 46
0.0
 71
     5
 72
     1
  1
\A1;85
  7
ＭＳ ゴシック
 11
0.0
 21
1.0
 31
0.0
 73
     1
 44
1.0
  0
POINT
  5
535B
330
5352
100
AcDbEntity
  8
Defpoints
 62
     0
100
AcDbPoint
 10
1354.882725881939
 20
1062.946430088338
 30
0.0
  0
POINT
  5
535C
330
5352
100
AcDbEntity
  8
Defpoints
 62
     0
100
AcDbPoint
 10
1348.026849332874
 20
1147.510455815472
 30
0.0
  0
POINT
  5
535D
330
5352
100
AcDbEntity
  8
Defpoints
 62
     0
100
AcDbPoint
 10
1262.577365566619
 20
1147.510455815472
 30
0.0
  0
ENDBLK
  5
5354
330
5352
100
AcDbEntity
  8
0
100
AcDbBlockEnd
  0
BLOCK
  5
535F
330
535E
100
AcDbEntity
  8
0
100
AcDbBlockBegin
  2
*D35
 70
     1
 10
0.0
 20
0.0
 30
0.0
  3
*D35
  1

  0
LINE
  5
5361
330
535E
100
AcDbEntity
  8
Dim
 62
     0
370
    -2
100
AcDbLine
 10
1849.584727297084
 20
2181.570593379164
 30
0.0
 11
1903.400387413692
 21
2181.570593379164
 31
0.0
  0
LINE
  5
5362
330
535E
100
AcDbEntity
  8
Dim
 62
     0
370
    -2
100
AcDbLine
 10
1849.584727297085
 20
1851.208679489402
 30
0.0
 11
1903.400387413692
 21
1851.208679489402
 31
0.0
  0
LINE
  5
5363
330
535E
100
AcDbEntity
  8
Dim
 62
     0
370
    -2
100
AcDbLine
 10
1903.400387413692
 20
2171.571203730727
 30
0.0
 11
1903.400387413692
 21
1861.208069137839
 31
0.0
  0
INSERT
  5
5364
330
535E
100
AcDbEntity
  8
Dim
 62
     0
370
    -2
100
AcDbBlockReference
  2
_DOT
 10
1903.400387413692
 20
2181.570593379164
 30
0.0
 41
9.999389648437498
 42
9.999389648437498
 43
9.999389648437498
 50
90.0
  0
INSERT
  5
5365
330
535E
100
AcDbEntity
  8
Dim
 62
     0
370
    -2
100
AcDbBlockReference
  2
_DOT
 10
1903.400387413692
 20
1851.208679489402
 30
0.0
 41
9.999389648437498
 42
9.999389648437498
 43
9.999389648437498
 50
270.0
  0
MTEXT
  5
5366
330
535E
100
AcDbEntity
  8
Dim
 62
     0
100
AcDbMText
 10
1881.184078819942
 20
2016.389636434283
 30
0.0
 40
24.4326171875
 41
0.0
 46
0.0
 71
     5
 72
     1
  1
\A1;330
  7
ＭＳ ゴシック
 11
0.0
 21
1.0
 31
0.0
 73
     1
 44
1.0
  0
POINT
  5
5367
330
535E
100
AcDbEntity
  8
Defpoints
 62
     0
100
AcDbPoint
 10
1824.584727297084
 20
2181.570593379164
 30
0.0
  0
POINT
  5
5368
330
535E
100
AcDbEntity
  8
Defpoints
 62
     0
100
AcDbPoint
 10
1824.584727297085
 20
1851.208679489402
 30
0.0
  0
POINT
  5
5369
330
535E
100
AcDbEntity
  8
Defpoints
 62
     0
100
AcDbPoint
 10
1903.400387413692
 20
1851.208679489402
 30
0.0
  0
ENDBLK
  5
5360
330
535E
100
AcDbEntity
  8
0
100
AcDbBlockEnd
  0
BLOCK
  5
536B
330
536A
100
AcDbEntity
  8
0
100
AcDbBlockBegin
  2
*D36
 70
     1
 10
0.0
 20
0.0
 30
0.0
  3
*D36
  1

  0
LINE
  5
536D
330
536A
100
AcDbEntity
  8
Dim
 62
     0
370
    -2
100
AcDbLine
 10
1221.129981622295
 20
1821.745670490389
 30
0.0
 11
1221.129981622295
 21
1759.067108171834
 31
0.0
  0
LINE
  5
536E
330
536A
100
AcDbEntity
  8
Dim
 62
     0
370
    -2
100
AcDbLine
 10
1755.916887096286
 20
1821.745670490389
 30
0.0
 11
1755.916887096286
 21
1759.067108171834
 31
0.0
  0
LINE
  5
536F
330
536A
100
AcDbEntity
  8
Dim
 62
     0
370
    -2
100
AcDbLine
 10
1231.129371270732
 20
1759.067108171834
 30
0.0
 11
1745.917497447848
 21
1759.067108171834
 31
0.0
  0
INSERT
  5
5370
330
536A
100
AcDbEntity
  8
Dim
 62
     0
370
    -2
100
AcDbBlockReference
  2
_DOT
 10
1221.129981622295
 20
1759.067108171834
 30
0.0
 41
9.999389648437498
 42
9.999389648437498
 43
9.999389648437498
 50
180.0
  0
INSERT
  5
5371
330
536A
100
AcDbEntity
  8
Dim
 62
     0
370
    -2
100
AcDbBlockReference
  2
_DOT
 10
1755.916887096286
 20
1759.067108171834
 30
0.0
 41
9.999389648437498
 42
9.999389648437498
 43
9.999389648437498
  0
MTEXT
  5
5372
330
536A
100
AcDbEntity
  8
Dim
 62
     0
100
AcDbMText
 10
1488.52343435929
 20
1781.283416765584
 30
0.0
 40
24.4326171875
 41
0.0
 46
0.0
 71
     5
 72
     1
  1
\A1;535
  7
ＭＳ ゴシック
 73
     1
 44
1.0
  0
POINT
  5
5373
330
536A
100
AcDbEntity
  8
Defpoints
 62
     0
100
AcDbPoint
 10
1221.129981622295
 20
1846.745670490389
 30
0.0
  0
POINT
  5
5374
330
536A
100
AcDbEntity
  8
Defpoints
 62
     0
100
AcDbPoint
 10
1755.916887096286
 20
1846.745670490389
 30
0.0
  0
POINT
  5
5375
330
536A
100
AcDbEntity
  8
Defpoints
 62
     0
100
AcDbPoint
 10
1755.916887096286
 20
1759.067108171834
 30
0.0
  0
ENDBLK
  5
536C
330
536A
100
AcDbEntity
  8
0
100
AcDbBlockEnd
  0
BLOCK
  5
5377
330
5376
100
AcDbEntity
  8
0
100
AcDbBlockBegin
  2
*D37
 70
     1
 10
0.0
 20
0.0
 30
0.0
  3
*D37
  1

  0
LINE
  5
5379
330
5376
100
AcDbEntity
  8
Dim
 62
     0
370
    -2
100
AcDbLine
 10
279.7405661117596
 20
2193.439477184945
 30
0.0
 11
213.3067625899285
 21
2193.439477184945
 31
0.0
  0
LINE
  5
537A
330
5376
100
AcDbEntity
  8
Dim
 62
     0
370
    -2
100
AcDbLine
 10
279.7405661117596
 20
1838.439477184945
 30
0.0
 11
213.3067625899284
 21
1838.439477184945
 31
0.0
  0
LINE
  5
537B
330
5376
100
AcDbEntity
  8
Dim
 62
     0
370
    -2
100
AcDbLine
 10
213.3067625899285
 20
2183.440087536508
 30
0.0
 11
213.3067625899284
 21
1848.438866833383
 31
0.0
  0
INSERT
  5
537C
330
5376
100
AcDbEntity
  8
Dim
 62
     0
370
    -2
100
AcDbBlockReference
  2
_DOT
 10
213.3067625899285
 20
2193.439477184945
 30
0.0
 41
9.999389648437498
 42
9.999389648437498
 43
9.999389648437498
 50
90.0
  0
INSERT
  5
537D
330
5376
100
AcDbEntity
  8
Dim
 62
     0
370
    -2
100
AcDbBlockReference
  2
_DOT
 10
213.3067625899284
 20
1838.439477184945
 30
0.0
 41
9.999389648437498
 42
9.999389648437498
 43
9.999389648437498
 50
270.0
  0
MTEXT
  5
537E
330
5376
100
AcDbEntity
  8
Dim
 62
     0
100
AcDbMText
 10
191.0904539961784
 20
2015.939477184945
 30
0.0
 40
24.4326171875
 41
0.0
 46
0.0
 71
     5
 72
     1
  1
\A1;355
  7
ＭＳ ゴシック
 11
8.006115332508172E-17
 21
1.0
 31
0.0
 73
     1
 44
1.0
  0
POINT
  5
537F
330
5376
100
AcDbEntity
  8
Defpoints
 62
     0
100
AcDbPoint
 10
304.7405661117596
 20
2193.439477184945
 30
0.0
  0
POINT
  5
5380
330
5376
100
AcDbEntity
  8
Defpoints
 62
     0
100
AcDbPoint
 10
304.7405661117596
 20
1838.439477184945
 30
0.0
  0
POINT
  5
5381
330
5376
100
AcDbEntity
  8
Defpoints
 62
     0
100
AcDbPoint
 10
213.3067625899284
 20
1838.439477184945
 30
0.0
  0
ENDBLK
  5
5378
330
5376
100
AcDbEntity
  8
0
100
AcDbBlockEnd
  0
BLOCK
  5
5383
330
5382
100
AcDbEntity
  8
0
100
AcDbBlockBegin
  2
*D38
 70
     1
 10
0.0
 20
0.0
 30
0.0
  3
*D38
  1

  0
LINE
  5
5385
330
5382
100
AcDbEntity
  8
Dim
 62
     0
370
    -2
100
AcDbLine
 10
1565.244636631922
 20
1028.981125217605
 30
0.0
 11
1540.245227832515
 21
1028.981125217605
 31
0.0
  0
LINE
  5
5386
330
5382
100
AcDbEntity
  8
Dim
 62
     0
370
    -2
100
AcDbLine
 10
1565.245227832515
 20
1147.946426785485
 30
0.0
 11
1540.245227832515
 21
1147.946426785485
 31
0.0
  0
LINE
  5
5387
330
5382
100
AcDbEntity
  8
Dim
 62
     0
370
    -2
100
AcDbLine
 10
1540.245227832515
 20
1028.981125217605
 30
0.0
 11
1540.245227832515
 21
1305.930314480797
 31
0.0
  0
LINE
  5
5388
330
5382
100
AcDbEntity
  8
Dim
 62
     0
370
    -2
100
AcDbLine
 10
1540.245227832515
 20
1038.980514866043
 30
0.0
 11
1540.245227832515
 21
1137.947037137047
 31
0.0
  0
LINE
  5
5389
330
5382
100
AcDbEntity
  8
Dim
 62
     0
370
    -2
100
AcDbLine
 10
1540.245227832515
 20
1137.947037137047
 30
0.0
 11
1540.245227832515
 21
1127.94764748861
 31
0.0
  0
INSERT
  5
538A
330
5382
100
AcDbEntity
  8
Dim
 62
     0
370
    -2
100
AcDbBlockReference
  2
_DOT
 10
1540.245227832515
 20
1028.981125217605
 30
0.0
 41
9.999389648437498
 42
9.999389648437498
 43
9.999389648437498
 50
270.0
  0
INSERT
  5
538B
330
5382
100
AcDbEntity
  8
Dim
 62
     0
370
    -2
100
AcDbBlockReference
  2
_DOT
 10
1540.245227832515
 20
1147.946426785485
 30
0.0
 41
9.999389648437498
 42
9.999389648437498
 43
9.999389648437498
 50
90.0
  0
MTEXT
  5
538C
330
5382
100
AcDbEntity
  8
Dim
 62
     0
100
AcDbMText
 10
1515.866632617671
 20
1236.937760281578
 30
0.0
 40
24.4326171875
 41
0.0
 46
0.0
 71
     5
 72
     1
  1
\A1;? (深さ)
  7
ＭＳ ゴシック
 11
0.0
 21
1.0
 31
0.0
 73
     1
 44
1.0
  0
POINT
  5
538D
330
5382
100
AcDbEntity
  8
Defpoints
 62
     0
100
AcDbPoint
 10
1540.244636631922
 20
1028.981125217605
 30
0.0
  0
POINT
  5
538E
330
5382
100
AcDbEntity
  8
Defpoints
 62
     0
100
AcDbPoint
 10
1540.245227832515
 20
1147.946426785485
 30
0.0
  0
POINT
  5
538F
330
5382
100
AcDbEntity
  8
Defpoints
 62
     0
100
AcDbPoint
 10
1540.245227832515
 20
1147.946426785485
 30
0.0
  0
ENDBLK
  5
5384
330
5382
100
AcDbEntity
  8
0
100
AcDbBlockEnd
  0
BLOCK
  5
53C3
330
53C2
100
AcDbEntity
  8
0
100
AcDbBlockBegin
  2
*D39
 70
     1
 10
0.0
 20
0.0
 30
0.0
  3
*D39
  1

  0
LINE
  5
53C5
330
53C2
100
AcDbEntity
  8
Dim
 62
     0
370
    -2
100
AcDbLine
 10
1251.641924068338
 20
2211.033602378177
 30
0.0
 11
1251.641924068338
 21
2273.712164696733
 31
0.0
  0
LINE
  5
53C6
330
53C2
100
AcDbEntity
  8
Dim
 62
     0
370
    -2
100
AcDbLine
 10
1786.428829542329
 20
2211.033602378177
 30
0.0
 11
1786.428829542329
 21
2273.712164696733
 31
0.0
  0
LINE
  5
53C7
330
53C2
100
AcDbEntity
  8
Dim
 62
     0
370
    -2
100
AcDbLine
 10
1261.641313716775
 20
2273.712164696733
 30
0.0
 11
1776.429439893891
 21
2273.712164696733
 31
0.0
  0
INSERT
  5
53C8
330
53C2
100
AcDbEntity
  8
Dim
 62
     0
370
    -2
100
AcDbBlockReference
  2
_DOT
 10
1251.641924068338
 20
2273.712164696733
 30
0.0
 41
9.999389648437498
 42
9.999389648437498
 43
9.999389648437498
 50
180.0
  0
INSERT
  5
53C9
330
53C2
100
AcDbEntity
  8
Dim
 62
     0
370
    -2
100
AcDbBlockReference
  2
_DOT
 10
1786.428829542329
 20
2273.712164696733
 30
0.0
 41
9.999389648437498
 42
9.999389648437498
 43
9.999389648437498
  0
MTEXT
  5
53CA
330
53C2
100
AcDbEntity
  8
Dim
 62
     0
100
AcDbMText
 10
1519.035376805333
 20
2295.928473290483
 30
0.0
 40
24.4326171875
 41
0.0
 46
0.0
 71
     5
 72
     1
  1
\A1;535
  7
ＭＳ ゴシック
 73
     1
 44
1.0
  0
POINT
  5
53CB
330
53C2
100
AcDbEntity
  8
Defpoints
 62
     0
100
AcDbPoint
 10
1251.641924068338
 20
2186.033602378177
 30
0.0
  0
POINT
  5
53CC
330
53C2
100
AcDbEntity
  8
Defpoints
 62
     0
100
AcDbPoint
 10
1786.428829542329
 20
2186.033602378177
 30
0.0
  0
POINT
  5
53CD
330
53C2
100
AcDbEntity
  8
Defpoints
 62
     0
100
AcDbPoint
 10
1786.428829542329
 20
2273.712164696733
 30
0.0
  0
ENDBLK
  5
53C4
330
53C2
100
AcDbEntity
  8
0
100
AcDbBlockEnd
  0
BLOCK
  5
5483
330
5482
100
AcDbEntity
  8
0
100
AcDbBlockBegin
  2
*D40
 70
     1
 10
0.0
 20
0.0
 30
0.0
  3
*D40
  1

  0
LINE
  5
5484
330
5482
100
AcDbEntity
  8
Dim
 62
     0
370
    -2
100
AcDbLine
 10
61.83457639771791
 20
738.0448077547036
 30
0.0
 11
61.83457639771791
 21
799.7380934212537
 31
0.0
  0
LINE
  5
5485
330
5482
100
AcDbEntity
  8
Dim
 62
     0
370
    -2
100
AcDbLine
 10
465.8492523359589
 20
739.8206719927165
 30
0.0
 11
465.8492523359589
 21
799.7380934212537
 31
0.0
  0
LINE
  5
5486
330
5482
100
AcDbEntity
  8
Dim
 62
     0
370
    -2
100
AcDbLine
 10
64.83457639771791
 20
799.7380934212537
 30
0.0
 11
462.8492523359589
 21
799.7380934212537
 31
0.0
  0
INSERT
  5
5487
330
5482
100
AcDbEntity
  8
Dim
 62
     0
370
    -2
100
AcDbBlockReference
  2
_DOT
 10
61.83457639771791
 20
799.7380934212537
 30
0.0
 41
3.0
 42
3.0
 43
3.0
 50
180.0
  0
INSERT
  5
5488
330
5482
100
AcDbEntity
  8
Dim
 62
     0
370
    -2
100
AcDbBlockReference
  2
_DOT
 10
465.8492523359589
 20
799.7380934212537
 30
0.0
 41
3.0
 42
3.0
 43
3.0
  0
MTEXT
  5
5489
330
5482
100
AcDbEntity
  8
Dim
 62
     0
100
AcDbMText
 10
263.841914366838
 20
815.7380934212537
 30
0.0
 40
12.0
 41
0.0
 46
0.0
 71
     5
 72
     1
  1
\A1;400
  7
ＭＳ ゴシック
 73
     1
 44
1.0
  0
POINT
  5
548A
330
5482
100
AcDbEntity
  8
Defpoints
 62
     0
100
AcDbPoint
 10
61.83457639771791
 20
728.0448077547036
 30
0.0
  0
POINT
  5
548B
330
5482
100
AcDbEntity
  8
Defpoints
 62
     0
100
AcDbPoint
 10
465.8492523359589
 20
729.8206719927165
 30
0.0
  0
POINT
  5
548C
330
5482
100
AcDbEntity
  8
Defpoints
 62
     0
100
AcDbPoint
 10
465.8492523359589
 20
799.7380934212537
 30
0.0
  0
ENDBLK
  5
548D
330
5482
100
AcDbEntity
  8
0
100
AcDbBlockEnd
  0
BLOCK
  5
5493
330
5492
100
AcDbEntity
  8
0
100
AcDbBlockBegin
  2
*D41
 70
     1
 10
0.0
 20
0.0
 30
0.0
  3
*D41
  1

  0
LINE
  5
5494
330
5492
100
AcDbEntity
  8
Dim
 62
     0
370
    -2
100
AcDbLine
 10
485.3764253406739
 20
728.7192785281555
 30
0.0
 11
531.1779762568498
 21
728.7192785281555
 31
0.0
  0
LINE
  5
5495
330
5492
100
AcDbEntity
  8
Dim
 62
     0
370
    -2
100
AcDbLine
 10
485.3764253406828
 20
494.7046135467226
 30
0.0
 11
531.1779762568499
 21
494.7046135467226
 31
0.0
  0
LINE
  5
5496
330
5492
100
AcDbEntity
  8
Dim
 62
     0
370
    -2
100
AcDbLine
 10
531.1779762568498
 20
725.7192785281555
 30
0.0
 11
531.1779762568499
 21
497.7046135467226
 31
0.0
  0
INSERT
  5
5497
330
5492
100
AcDbEntity
  8
Dim
 62
     0
370
    -2
100
AcDbBlockReference
  2
_DOT
 10
531.1779762568498
 20
728.7192785281555
 30
0.0
 41
3.0
 42
3.0
 43
3.0
 50
90.00000000000001
  0
INSERT
  5
5498
330
5492
100
AcDbEntity
  8
Dim
 62
     0
370
    -2
100
AcDbBlockReference
  2
_DOT
 10
531.1779762568499
 20
494.7046135467226
 30
0.0
 41
3.0
 42
3.0
 43
3.0
 50
270.0
  0
MTEXT
  5
5499
330
5492
100
AcDbEntity
  8
Dim
 62
     0
100
AcDbMText
 10
515.1779762568499
 20
611.7119460374387
 30
0.0
 40
12.0
 41
0.0
 46
0.0
 71
     5
 72
     1
  1
\A1;230
  7
ＭＳ ゴシック
 11
-4.858107406671975E-16
 21
1.0
 31
0.0
 73
     1
 44
1.0
  0
POINT
  5
549A
330
5492
100
AcDbEntity
  8
Defpoints
 62
     0
100
AcDbPoint
 10
475.3764253406739
 20
728.7192785281555
 30
0.0
  0
POINT
  5
549B
330
5492
100
AcDbEntity
  8
Defpoints
 62
     0
100
AcDbPoint
 10
475.3764253406828
 20
494.7046135467226
 30
0.0
  0
POINT
  5
549C
330
5492
100
AcDbEntity
  8
Defpoints
 62
     0
100
AcDbPoint
 10
531.1779762568499
 20
494.7046135467226
 30
0.0
  0
ENDBLK
  5
549D
330
5492
100
AcDbEntity
  8
0
100
AcDbBlockEnd
  0
BLOCK
  5
54A0
330
549F
100
AcDbEntity
  8
0
100
AcDbBlockBegin
  2
*D42
 70
     1
 10
0.0
 20
0.0
 30
0.0
  3
*D42
  1

  0
LINE
  5
54A1
330
549F
100
AcDbEntity
  8
Dim
 62
     0
370
    -2
100
AcDbLine
 10
111.5539948336648
 20
110.9641660498901
 30
0.0
 11
111.5539948336648
 21
148.2633756689364
 31
0.0
  0
LINE
  5
54A2
330
549F
100
AcDbEntity
  8
Dim
 62
     0
370
    -2
100
AcDbLine
 10
61.83457639771791
 20
70.15639328040527
 30
0.0
 11
61.8345763977179
 21
148.2633756689364
 31
0.0
  0
LINE
  5
54A3
330
549F
100
AcDbEntity
  8
Dim
 62
     0
370
    -2
100
AcDbLine
 10
108.5539948336648
 20
148.2633756689364
 30
0.0
 11
64.8345763977179
 21
148.2633756689364
 31
0.0
  0
INSERT
  5
54A4
330
549F
100
AcDbEntity
  8
Dim
 62
     0
370
    -2
100
AcDbBlockReference
  2
_DOT
 10
111.5539948336648
 20
148.2633756689364
 30
0.0
 41
3.0
 42
3.0
 43
3.0
  0
INSERT
  5
54A5
330
549F
100
AcDbEntity
  8
Dim
 62
     0
370
    -2
100
AcDbBlockReference
  2
_DOT
 10
61.8345763977179
 20
148.2633756689364
 30
0.0
 41
3.0
 42
3.0
 43
3.0
 50
180.0
  0
MTEXT
  5
54A6
330
549F
100
AcDbEntity
  8
Dim
 62
     0
100
AcDbMText
 10
86.69428561569134
 20
164.2633756689364
 30
0.0
 40
12.0
 41
0.0
 46
0.0
 71
     5
 72
     1
  1
\A1;50
  7
ＭＳ ゴシック
 73
     1
 44
1.0
  0
POINT
  5
54A7
330
549F
100
AcDbEntity
  8
Defpoints
 62
     0
100
AcDbPoint
 10
111.5539948336648
 20
100.9641660498901
 30
0.0
  0
POINT
  5
54A8
330
549F
100
AcDbEntity
  8
Defpoints
 62
     0
100
AcDbPoint
 10
61.83457639771791
 20
60.15639328040527
 30
0.0
  0
POINT
  5
54A9
330
549F
100
AcDbEntity
  8
Defpoints
 62
     0
100
AcDbPoint
 10
61.8345763977179
 20
148.2633756689364
 30
0.0
  0
ENDBLK
  5
54AA
330
549F
100
AcDbEntity
  8
0
100
AcDbBlockEnd
  0
BLOCK
  5
54AD
330
54AC
100
AcDbEntity
  8
0
100
AcDbBlockBegin
  2
*D43
 70
     1
 10
0.0
 20
0.0
 30
0.0
  3
*D43
  1

  0
LINE
  5
54AE
330
54AC
100
AcDbEntity
  8
Dim
 62
     0
370
    -2
100
AcDbLine
 10
866.2939745952929
 20
122.4999912936835
 30
0.0
 11
889.469808307563
 21
122.4999912936835
 31
0.0
  0
LINE
  5
54AF
330
54AC
100
AcDbEntity
  8
Dim
 62
     0
370
    -2
100
AcDbLine
 10
866.2939745952929
 20
1.499999999999996
 30
0.0
 11
889.469808307563
 21
1.499999999999987
 31
0.0
  0
LINE
  5
54B0
330
54AC
100
AcDbEntity
  8
Dim
 62
     0
370
    -2
100
AcDbLine
 10
889.469808307563
 20
119.4999912936835
 30
0.0
 11
889.469808307563
 21
4.499999999999988
 31
0.0
  0
INSERT
  5
54B1
330
54AC
100
AcDbEntity
  8
Dim
 62
     0
370
    -2
100
AcDbBlockReference
  2
_DOT
 10
889.469808307563
 20
122.4999912936835
 30
0.0
 41
3.0
 42
3.0
 43
3.0
 50
90.0
  0
INSERT
  5
54B2
330
54AC
100
AcDbEntity
  8
Dim
 62
     0
370
    -2
100
AcDbBlockReference
  2
_DOT
 10
889.469808307563
 20
1.499999999999987
 30
0.0
 41
3.0
 42
3.0
 43
3.0
 50
270.0
  0
MTEXT
  5
54B3
330
54AC
100
AcDbEntity
  8
Dim
 62
     0
100
AcDbMText
 10
873.469808307563
 20
61.99999564684173
 30
0.0
 40
12.0
 41
0.0
 46
0.0
 71
     5
 72
     1
  1
\A1;120
  7
ＭＳ ゴシック
 11
0.0
 21
1.0
 31
0.0
 73
     1
 44
1.0
  0
POINT
  5
54B4
330
54AC
100
AcDbEntity
  8
Defpoints
 62
     0
100
AcDbPoint
 10
856.2939745952929
 20
122.4999912936835
 30
0.0
  0
POINT
  5
54B5
330
54AC
100
AcDbEntity
  8
Defpoints
 62
     0
100
AcDbPoint
 10
856.2939745952929
 20
1.5
 30
0.0
  0
POINT
  5
54B6
330
54AC
100
AcDbEntity
  8
Defpoints
 62
     0
100
AcDbPoint
 10
889.469808307563
 20
1.499999999999987
 30
0.0
  0
ENDBLK
  5
54B7
330
54AC
100
AcDbEntity
  8
0
100
AcDbBlockEnd
  0
BLOCK
  5
54BA
330
54B9
100
AcDbEntity
  8
0
100
AcDbBlockBegin
  2
*D44
 70
     1
 10
0.0
 20
0.0
 30
0.0
  3
*D44
  1

  0
LINE
  5
54BB
330
54B9
100
AcDbEntity
  8
Dim
 62
     0
370
    -2
100
AcDbLine
 10
163.7536067265448
 20
492.1771053216793
 30
0.0
 11
163.7536067265449
 21
438.6195574626424
 31
0.0
  0
LINE
  5
54BC
330
54B9
100
AcDbEntity
  8
Dim
 62
     0
370
    -2
100
AcDbLine
 10
61.83427178802094
 20
492.1771053216793
 30
0.0
 11
61.83427178802095
 21
438.6195574626424
 31
0.0
  0
LINE
  5
54BD
330
54B9
100
AcDbEntity
  8
Dim
 62
     0
370
    -2
100
AcDbLine
 10
160.7536067265449
 20
438.6195574626424
 30
0.0
 11
64.83427178802094
 21
438.6195574626424
 31
0.0
  0
INSERT
  5
54BE
330
54B9
100
AcDbEntity
  8
Dim
 62
     0
370
    -2
100
AcDbBlockReference
  2
_DOT
 10
163.7536067265449
 20
438.6195574626424
 30
0.0
 41
3.0
 42
3.0
 43
3.0
  0
INSERT
  5
54BF
330
54B9
100
AcDbEntity
  8
Dim
 62
     0
370
    -2
100
AcDbBlockReference
  2
_DOT
 10
61.83427178802095
 20
438.6195574626424
 30
0.0
 41
3.0
 42
3.0
 43
3.0
 50
180.0
  0
MTEXT
  5
54C0
330
54B9
100
AcDbEntity
  8
Dim
 62
     0
100
AcDbMText
 10
112.7939392572829
 20
454.6195574626424
 30
0.0
 40
12.0
 41
0.0
 46
0.0
 71
     5
 72
     1
  1
\A1;100
  7
ＭＳ ゴシック
 73
     1
 44
1.0
  0
POINT
  5
54C1
330
54B9
100
AcDbEntity
  8
Defpoints
 62
     0
100
AcDbPoint
 10
163.7536067265448
 20
502.1771053216793
 30
0.0
  0
POINT
  5
54C2
330
54B9
100
AcDbEntity
  8
Defpoints
 62
     0
100
AcDbPoint
 10
61.83427178802094
 20
502.1771053216793
 30
0.0
  0
POINT
  5
54C3
330
54B9
100
AcDbEntity
  8
Defpoints
 62
     0
100
AcDbPoint
 10
61.83427178802095
 20
438.6195574626424
 30
0.0
  0
ENDBLK
  5
54C4
330
54B9
100
AcDbEntity
  8
0
100
AcDbBlockEnd
  0
BLOCK
  5
54C7
330
54C6
100
AcDbEntity
  8
0
100
AcDbBlockBegin
  2
*D45
 70
     1
 10
0.0
 20
0.0
 30
0.0
  3
*D45
  1

  0
LINE
  5
54C8
330
54C6
100
AcDbEntity
  8
Dim
 62
     0
370
    -2
100
AcDbLine
 10
51.40628629992693
 20
122.4999709709423
 30
0.0
 11
21.99999999999978
 21
122.4999709709423
 31
0.0
  0
LINE
  5
54C9
330
54C6
100
AcDbEntity
  8
Dim
 62
     0
370
    -2
100
AcDbLine
 10
87.7469282623008
 20
82.1870183471201
 30
0.0
 11
21.99999999999977
 21
82.1870183471201
 31
0.0
  0
LINE
  5
54CA
330
54C6
100
AcDbEntity
  8
Dim
 62
     0
370
    -2
100
AcDbLine
 10
21.99999999999978
 20
119.4999709709423
 30
0.0
 11
21.99999999999977
 21
85.1870183471201
 31
0.0
  0
INSERT
  5
54CB
330
54C6
100
AcDbEntity
  8
Dim
 62
     0
370
    -2
100
AcDbBlockReference
  2
_DOT
 10
21.99999999999978
 20
122.4999709709423
 30
0.0
 41
3.0
 42
3.0
 43
3.0
 50
90.0
  0
INSERT
  5
54CC
330
54C6
100
AcDbEntity
  8
Dim
 62
     0
370
    -2
100
AcDbBlockReference
  2
_DOT
 10
21.99999999999977
 20
82.1870183471201
 30
0.0
 41
3.0
 42
3.0
 43
3.0
 50
270.0
  0
MTEXT
  5
54CD
330
54C6
100
AcDbEntity
  8
Dim
 62
     0
100
AcDbMText
 10
5.999999999999773
 20
102.3434946590312
 30
0.0
 40
12.0
 41
0.0
 46
0.0
 71
     5
 72
     1
  1
\A1;40
  7
ＭＳ ゴシック
 11
8.812834207289226E-17
 21
1.0
 31
0.0
 73
     1
 44
1.0
  0
POINT
  5
54CE
330
54C6
100
AcDbEntity
  8
Defpoints
 62
     0
100
AcDbPoint
 10
61.40628629992693
 20
122.4999709709423
 30
0.0
  0
POINT
  5
54CF
330
54C6
100
AcDbEntity
  8
Defpoints
 62
     0
100
AcDbPoint
 10
97.7469282623008
 20
82.1870183471201
 30
0.0
  0
POINT
  5
54D0
330
54C6
100
AcDbEntity
  8
Defpoints
 62
     0
100
AcDbPoint
 10
21.99999999999977
 20
82.1870183471201
 30
0.0
  0
ENDBLK
  5
54D1
330
54C6
100
AcDbEntity
  8
0
100
AcDbBlockEnd
  0
BLOCK
  5
54D4
330
54D3
100
AcDbEntity
  8
0
100
AcDbBlockBegin
  2
*D46
 70
     1
 10
0.0
 20
0.0
 30
0.0
  3
*D46
  1

  0
LINE
  5
54D5
330
54D3
100
AcDbEntity
  8
Dim
 62
     0
370
    -2
100
AcDbLine
 10
467.9937810434108
 20
122.4999986970274
 30
0.0
 11
496.5436737565808
 21
122.4999986970274
 31
0.0
  0
LINE
  5
54D6
330
54D3
100
AcDbEntity
  8
Dim
 62
     0
370
    -2
100
AcDbLine
 10
449.8610298260608
 20
29.1884293316275
 30
0.0
 11
496.5436737565808
 21
29.1884293316275
 31
0.0
  0
LINE
  5
54D7
330
54D3
100
AcDbEntity
  8
Dim
 62
     0
370
    -2
100
AcDbLine
 10
496.5436737565808
 20
119.4999986970274
 30
0.0
 11
496.5436737565808
 21
32.1884293316275
 31
0.0
  0
INSERT
  5
54D8
330
54D3
100
AcDbEntity
  8
Dim
 62
     0
370
    -2
100
AcDbBlockReference
  2
_DOT
 10
496.5436737565808
 20
122.4999986970274
 30
0.0
 41
3.0
 42
3.0
 43
3.0
 50
90.0
  0
INSERT
  5
54D9
330
54D3
100
AcDbEntity
  8
Dim
 62
     0
370
    -2
100
AcDbBlockReference
  2
_DOT
 10
496.5436737565808
 20
29.1884293316275
 30
0.0
 41
3.0
 42
3.0
 43
3.0
 50
270.0
  0
MTEXT
  5
54DA
330
54D3
100
AcDbEntity
  8
Dim
 62
     0
100
AcDbMText
 10
480.5436737565808
 20
75.84421401432746
 30
0.0
 40
12.0
 41
0.0
 46
0.0
 71
     5
 72
     1
  1
\A1;95
  7
ＭＳ ゴシック
 11
0.0
 21
1.0
 31
0.0
 73
     1
 44
1.0
  0
POINT
  5
54DB
330
54D3
100
AcDbEntity
  8
Defpoints
 62
     0
100
AcDbPoint
 10
457.9937810434108
 20
122.4999986970274
 30
0.0
  0
POINT
  5
54DC
330
54D3
100
AcDbEntity
  8
Defpoints
 62
     0
100
AcDbPoint
 10
439.8610298260608
 20
29.1884293316275
 30
0.0
  0
POINT
  5
54DD
330
54D3
100
AcDbEntity
  8
Defpoints
 62
     0
100
AcDbPoint
 10
496.5436737565808
 20
29.1884293316275
 30
0.0
  0
ENDBLK
  5
54DE
330
54D3
100
AcDbEntity
  8
0
100
AcDbBlockEnd
  0
BLOCK
  5
54EA
330
54E9
100
AcDbEntity
  8
0
100
AcDbBlockBegin
  2
*D47
 70
     1
 10
0.0
 20
0.0
 30
0.0
  3
*D47
  1

  0
LINE
  5
54EB
330
54E9
100
AcDbEntity
  8
Dim
 62
     0
370
    -2
100
AcDbLine
 10
730.5695315333599
 20
27.43383501109196
 30
0.0
 11
730.5695315333599
 21
206.4479912936872
 31
0.0
  0
LINE
  5
54EC
330
54E9
100
AcDbEntity
  8
Dim
 62
     0
370
    -2
100
AcDbLine
 10
730.5695315333599
 20
30.43383501109196
 30
0.0
 11
730.5695315333599
 21
119.4999912936871
 31
0.0
  0
LINE
  5
54ED
330
54E9
100
AcDbEntity
  8
Dim
 62
     0
370
    -2
100
AcDbLine
 10
730.5695315333599
 20
119.4999912936871
 30
0.0
 11
730.5695315333599
 21
116.4999912936871
 31
0.0
  0
INSERT
  5
54EE
330
54E9
100
AcDbEntity
  8
Dim
 62
     0
370
    -2
100
AcDbBlockReference
  2
_DOT
 10
730.5695315333599
 20
27.43383501109196
 30
0.0
 41
3.0
 42
3.0
 43
3.0
 50
270.0
  0
INSERT
  5
54EF
330
54E9
100
AcDbEntity
  8
Dim
 62
     0
370
    -2
100
AcDbBlockReference
  2
_DOT
 10
730.5695315333599
 20
122.4999912936871
 30
0.0
 41
3.0
 42
3.0
 43
3.0
 50
90.0
  0
MTEXT
  5
54F0
330
54E9
100
AcDbEntity
  8
Dim
 62
     0
100
AcDbMText
 10
713.5075315333598
 20
167.4739912936872
 30
0.0
 40
12.0
 41
0.0
 46
0.0
 71
     5
 72
     1
  1
\A1;95(深さ)
  7
ＭＳ ゴシック
 11
0.0
 21
1.0
 31
0.0
 73
     1
 44
1.0
  0
POINT
  5
54F1
330
54E9
100
AcDbEntity
  8
Defpoints
 62
     0
100
AcDbPoint
 10
782.2707937735329
 20
27.43383501109196
 30
0.0
  0
POINT
  5
54F2
330
54E9
100
AcDbEntity
  8
Defpoints
 62
     0
100
AcDbPoint
 10
782.2727337762628
 20
122.4999912936871
 30
0.0
  0
POINT
  5
54F3
330
54E9
100
AcDbEntity
  8
Defpoints
 62
     0
100
AcDbPoint
 10
730.5695315333599
 20
122.4999912936871
 30
0.0
  0
ENDBLK
  5
54F4
330
54E9
100
AcDbEntity
  8
0
100
AcDbBlockEnd
  0
BLOCK
  5
54F7
330
54F6
100
AcDbEntity
  8
0
100
AcDbBlockBegin
  2
*D48
 70
     1
 10
0.0
 20
0.0
 30
0.0
  3
*D48
  1

  0
LINE
  5
54F8
330
54F6
100
AcDbEntity
  8
Dim
 62
     0
370
    -2
100
AcDbLine
 10
175.3728423380678
 20
718.8566611528096
 30
0.0
 11
25.1406018365749
 21
718.8566611528096
 31
0.0
  0
LINE
  5
54F9
330
54F6
100
AcDbEntity
  8
Dim
 62
     0
370
    -2
100
AcDbLine
 10
175.3728423380678
 20
503.8566611528091
 30
0.0
 11
25.14060183657489
 21
503.8566611528091
 31
0.0
  0
LINE
  5
54FA
330
54F6
100
AcDbEntity
  8
Dim
 62
     0
370
    -2
100
AcDbLine
 10
25.1406018365749
 20
715.8566611528096
 30
0.0
 11
25.14060183657489
 21
506.8566611528091
 31
0.0
  0
INSERT
  5
54FB
330
54F6
100
AcDbEntity
  8
Dim
 62
     0
370
    -2
100
AcDbBlockReference
  2
_DOT
 10
25.1406018365749
 20
718.8566611528096
 30
0.0
 41
3.0
 42
3.0
 43
3.0
 50
90.0
  0
INSERT
  5
54FC
330
54F6
100
AcDbEntity
  8
Dim
 62
     0
370
    -2
100
AcDbBlockReference
  2
_DOT
 10
25.14060183657489
 20
503.8566611528091
 30
0.0
 41
3.0
 42
3.0
 43
3.0
 50
270.0
  0
MTEXT
  5
54FD
330
54F6
100
AcDbEntity
  8
Dim
 62
     0
100
AcDbMText
 10
9.140601836574895
 20
611.3566611528094
 30
0.0
 40
12.0
 41
0.0
 46
0.0
 71
     5
 72
     1
  1
\A1;215
  7
ＭＳ ゴシック
 11
6.609699867535802E-17
 21
1.0
 31
0.0
 73
     1
 44
1.0
  0
POINT
  5
54FE
330
54F6
100
AcDbEntity
  8
Defpoints
 62
     0
100
AcDbPoint
 10
185.3728423380678
 20
718.8566611528096
 30
0.0
  0
POINT
  5
54FF
330
54F6
100
AcDbEntity
  8
Defpoints
 62
     0
100
AcDbPoint
 10
185.3728423380678
 20
503.8566611528091
 30
0.0
  0
POINT
  5
5500
330
54F6
100
AcDbEntity
  8
Defpoints
 62
     0
100
AcDbPoint
 10
25.14060183657489
 20
503.8566611528091
 30
0.0
  0
ENDBLK
  5
5501
330
54F6
100
AcDbEntity
  8
0
100
AcDbBlockEnd
  0
BLOCK
  5
5506
330
5505
100
AcDbEntity
  8
0
100
AcDbBlockBegin
  2
*D49
 70
     1
 10
0.0
 20
0.0
 30
0.0
  3
*D49
  1

  0
LINE
  5
5507
330
5505
100
AcDbEntity
  8
Dim
 62
     0
370
    -2
100
AcDbLine
 10
163.7536067265448
 20
492.1771053216793
 30
0.0
 11
163.7536067265448
 21
438.6195574626423
 31
0.0
  0
LINE
  5
5508
330
5505
100
AcDbEntity
  8
Dim
 62
     0
370
    -2
100
AcDbLine
 10
453.7536067265448
 20
492.1771053216793
 30
0.0
 11
453.7536067265448
 21
438.6195574626423
 31
0.0
  0
LINE
  5
5509
330
5505
100
AcDbEntity
  8
Dim
 62
     0
370
    -2
100
AcDbLine
 10
166.7536067265448
 20
438.6195574626423
 30
0.0
 11
450.7536067265448
 21
438.6195574626423
 31
0.0
  0
INSERT
  5
550A
330
5505
100
AcDbEntity
  8
Dim
 62
     0
370
    -2
100
AcDbBlockReference
  2
_DOT
 10
163.7536067265448
 20
438.6195574626423
 30
0.0
 41
3.0
 42
3.0
 43
3.0
 50
180.0
  0
INSERT
  5
550B
330
5505
100
AcDbEntity
  8
Dim
 62
     0
370
    -2
100
AcDbBlockReference
  2
_DOT
 10
453.7536067265448
 20
438.6195574626423
 30
0.0
 41
3.0
 42
3.0
 43
3.0
  0
MTEXT
  5
550C
330
5505
100
AcDbEntity
  8
Dim
 62
     0
100
AcDbMText
 10
308.7536067265448
 20
454.6195574626423
 30
0.0
 40
12.0
 41
0.0
 46
0.0
 71
     5
 72
     1
  1
\A1;290
  7
ＭＳ ゴシック
 73
     1
 44
1.0
  0
POINT
  5
550D
330
5505
100
AcDbEntity
  8
Defpoints
 62
     0
100
AcDbPoint
 10
163.7536067265448
 20
502.1771053216793
 30
0.0
  0
POINT
  5
550E
330
5505
100
AcDbEntity
  8
Defpoints
 62
     0
100
AcDbPoint
 10
453.7536067265448
 20
502.1771053216793
 30
0.0
  0
POINT
  5
550F
330
5505
100
AcDbEntity
  8
Defpoints
 62
     0
100
AcDbPoint
 10
453.7536067265448
 20
438.6195574626423
 30
0.0
  0
ENDBLK
  5
5510
330
5505
100
AcDbEntity
  8
0
100
AcDbBlockEnd
  0
BLOCK
  5
5513
330
5512
100
AcDbEntity
  8
0
100
AcDbBlockBegin
  2
*D50
 70
     1
 10
0.0
 20
0.0
 30
0.0
  3
*D50
  1

  0
LINE
  5
5514
330
5512
100
AcDbEntity
  8
Dim
 62
     0
370
    -2
100
AcDbLine
 10
61.83457639771086
 20
728.8566611528096
 30
0.0
 11
61.83457639771086
 21
752.6835800122066
 31
0.0
  0
LINE
  5
5515
330
5512
100
AcDbEntity
  8
Dim
 62
     0
370
    -2
100
AcDbLine
 10
121.8345763977109
 20
644.4031135802067
 30
0.0
 11
121.8345763977109
 21
752.6835800122066
 31
0.0
  0
LINE
  5
5516
330
5512
100
AcDbEntity
  8
Dim
 62
     0
370
    -2
100
AcDbLine
 10
64.83457639771086
 20
752.6835800122066
 30
0.0
 11
118.8345763977109
 21
752.6835800122066
 31
0.0
  0
INSERT
  5
5517
330
5512
100
AcDbEntity
  8
Dim
 62
     0
370
    -2
100
AcDbBlockReference
  2
_DOT
 10
61.83457639771086
 20
752.6835800122066
 30
0.0
 41
3.0
 42
3.0
 43
3.0
 50
180.0
  0
INSERT
  5
5518
330
5512
100
AcDbEntity
  8
Dim
 62
     0
370
    -2
100
AcDbBlockReference
  2
_DOT
 10
121.8345763977109
 20
752.6835800122066
 30
0.0
 41
3.0
 42
3.0
 43
3.0
  0
MTEXT
  5
5519
330
5512
100
AcDbEntity
  8
Dim
 62
     0
100
AcDbMText
 10
91.83457639771086
 20
768.6835800122066
 30
0.0
 40
12.0
 41
0.0
 46
0.0
 71
     5
 72
     1
  1
\A1;60
  7
ＭＳ ゴシック
 73
     1
 44
1.0
  0
POINT
  5
551A
330
5512
100
AcDbEntity
  8
Defpoints
 62
     0
100
AcDbPoint
 10
61.83457639771086
 20
718.8566611528096
 30
0.0
  0
POINT
  5
551B
330
5512
100
AcDbEntity
  8
Defpoints
 62
     0
100
AcDbPoint
 10
121.8345763977109
 20
634.4031135802067
 30
0.0
  0
POINT
  5
551C
330
5512
100
AcDbEntity
  8
Defpoints
 62
     0
100
AcDbPoint
 10
121.8345763977109
 20
752.6835800122066
 30
0.0
  0
ENDBLK
  5
551D
330
5512
100
AcDbEntity
  8
0
100
AcDbBlockEnd
  0
BLOCK
  5
5522
330
5521
100
AcDbEntity
  8
0
100
AcDbBlockBegin
  2
*D51
 70
     1
 10
0.0
 20
0.0
 30
0.0
  3
*D51
  1

  0
LINE
  5
5523
330
5521
100
AcDbEntity
  8
Dim
 62
     0
370
    -2
100
AcDbLine
 10
111.5539948336648
 20
110.9641660498901
 30
0.0
 11
111.5539948336648
 21
148.2633756689364
 31
0.0
  0
LINE
  5
5524
330
5521
100
AcDbEntity
  8
Dim
 62
     0
370
    -2
100
AcDbLine
 10
426.5539948336648
 20
54.37406217184861
 30
0.0
 11
426.5539948336648
 21
148.2633756689364
 31
0.0
  0
LINE
  5
5525
330
5521
100
AcDbEntity
  8
Dim
 62
     0
370
    -2
100
AcDbLine
 10
114.5539948336648
 20
148.2633756689364
 30
0.0
 11
423.5539948336648
 21
148.2633756689364
 31
0.0
  0
INSERT
  5
5526
330
5521
100
AcDbEntity
  8
Dim
 62
     0
370
    -2
100
AcDbBlockReference
  2
_DOT
 10
111.5539948336648
 20
148.2633756689364
 30
0.0
 41
3.0
 42
3.0
 43
3.0
 50
180.0
  0
INSERT
  5
5527
330
5521
100
AcDbEntity
  8
Dim
 62
     0
370
    -2
100
AcDbBlockReference
  2
_DOT
 10
426.5539948336648
 20
148.2633756689364
 30
0.0
 41
3.0
 42
3.0
 43
3.0
  0
MTEXT
  5
5528
330
5521
100
AcDbEntity
  8
Dim
 62
     0
100
AcDbMText
 10
269.0539948336648
 20
164.2633756689364
 30
0.0
 40
12.0
 41
0.0
 46
0.0
 71
     5
 72
     1
  1
\A1;315
  7
ＭＳ ゴシック
 73
     1
 44
1.0
  0
POINT
  5
5529
330
5521
100
AcDbEntity
  8
Defpoints
 62
     0
100
AcDbPoint
 10
111.5539948336648
 20
100.9641660498901
 30
0.0
  0
POINT
  5
552A
330
5521
100
AcDbEntity
  8
Defpoints
 62
     0
100
AcDbPoint
 10
426.5539948336648
 20
44.37406217184861
 30
0.0
  0
POINT
  5
552B
330
5521
100
AcDbEntity
  8
Defpoints
 62
     0
100
AcDbPoint
 10
426.5539948336648
 20
148.2633756689364
 30
0.0
  0
ENDBLK
  5
552C
330
5521
100
AcDbEntity
  8
0
100
AcDbBlockEnd
  0
BLOCK
  5
5531
330
5530
100
AcDbEntity
  8
0
100
AcDbBlockBegin
  2
*D52
 70
     1
 10
0.0
 20
0.0
 30
0.0
  3
*D52
  1

  0
LINE
  5
5532
330
5530
100
AcDbEntity
  8
Dim
 62
     0
370
    -2
100
AcDbLine
 10
426.5539948336648
 20
54.37406217184861
 30
0.0
 11
426.5539948336648
 21
148.2633756689364
 31
0.0
  0
LINE
  5
5533
330
5530
100
AcDbEntity
  8
Dim
 62
     0
370
    -2
100
AcDbLine
 10
465.7055048784139
 20
21.7609970394609
 30
0.0
 11
465.7055048784139
 21
148.2633756689364
 31
0.0
  0
LINE
  5
5534
330
5530
100
AcDbEntity
  8
Dim
 62
     0
370
    -2
100
AcDbLine
 10
429.5539948336648
 20
148.2633756689364
 30
0.0
 11
462.7055048784139
 21
148.2633756689364
 31
0.0
  0
INSERT
  5
5535
330
5530
100
AcDbEntity
  8
Dim
 62
     0
370
    -2
100
AcDbBlockReference
  2
_DOT
 10
426.5539948336648
 20
148.2633756689364
 30
0.0
 41
3.0
 42
3.0
 43
3.0
 50
180.0
  0
INSERT
  5
5536
330
5530
100
AcDbEntity
  8
Dim
 62
     0
370
    -2
100
AcDbBlockReference
  2
_DOT
 10
465.7055048784139
 20
148.2633756689364
 30
0.0
 41
3.0
 42
3.0
 43
3.0
  0
MTEXT
  5
5537
330
5530
100
AcDbEntity
  8
Dim
 62
     0
100
AcDbMText
 10
446.1297498560393
 20
164.2633756689364
 30
0.0
 40
12.0
 41
0.0
 46
0.0
 71
     5
 72
     1
  1
\A1;35
  7
ＭＳ ゴシック
 73
     1
 44
1.0
  0
POINT
  5
5538
330
5530
100
AcDbEntity
  8
Defpoints
 62
     0
100
AcDbPoint
 10
426.5539948336648
 20
44.37406217184861
 30
0.0
  0
POINT
  5
5539
330
5530
100
AcDbEntity
  8
Defpoints
 62
     0
100
AcDbPoint
 10
465.7055048784139
 20
11.7609970394609
 30
0.0
  0
POINT
  5
553A
330
5530
100
AcDbEntity
  8
Defpoints
 62
     0
100
AcDbPoint
 10
465.7055048784139
 20
148.2633756689364
 30
0.0
  0
ENDBLK
  5
553B
330
5530
100
AcDbEntity
  8
0
100
AcDbBlockEnd
  0
BLOCK
  5
5552
330
5551
100
AcDbEntity
  8
0
100
AcDbBlockBegin
  2
*D53
 70
     1
 10
0.0
 20
0.0
 30
0.0
  3
*D53
  1

  0
LINE
  5
5553
330
5551
100
AcDbEntity
  8
Dim
 62
     0
370
    -2
100
AcDbLine
 10
614.3420563977108
 20
724.7720591244255
 30
0.0
 11
614.3420563977108
 21
758.8360591244256
 31
0.0
  0
LINE
  5
5554
330
5551
100
AcDbEntity
  8
Dim
 62
     0
370
    -2
100
AcDbLine
 10
644.3256719480949
 20
725.7634210798745
 30
0.0
 11
644.3256719480949
 21
758.8360591244256
 31
0.0
  0
LINE
  5
5555
330
5551
100
AcDbEntity
  8
Dim
 62
     0
370
    -2
100
AcDbLine
 10
617.3420563977108
 20
758.8360591244256
 30
0.0
 11
641.3256719480949
 21
758.8360591244256
 31
0.0
  0
INSERT
  5
5556
330
5551
100
AcDbEntity
  8
Dim
 62
     0
370
    -2
100
AcDbBlockReference
  2
_DOT
 10
614.3420563977108
 20
758.8360591244256
 30
0.0
 41
3.0
 42
3.0
 43
3.0
 50
180.0
  0
INSERT
  5
5557
330
5551
100
AcDbEntity
  8
Dim
 62
     0
370
    -2
100
AcDbBlockReference
  2
_DOT
 10
644.3256719480949
 20
758.8360591244256
 30
0.0
 41
3.0
 42
3.0
 43
3.0
  0
MTEXT
  5
5558
330
5551
100
AcDbEntity
  8
Dim
 62
     0
100
AcDbMText
 10
629.3338641729028
 20
774.8360591244256
 30
0.0
 40
12.0
 41
0.0
 46
0.0
 71
     5
 72
     1
  1
\A1;30
  7
ＭＳ ゴシック
 73
     1
 44
1.0
  0
POINT
  5
5559
330
5551
100
AcDbEntity
  8
Defpoints
 62
     0
100
AcDbPoint
 10
614.3420563977108
 20
714.7720591244255
 30
0.0
  0
POINT
  5
555A
330
5551
100
AcDbEntity
  8
Defpoints
 62
     0
100
AcDbPoint
 10
644.3256719480949
 20
715.7634210798745
 30
0.0
  0
POINT
  5
555B
330
5551
100
AcDbEntity
  8
Defpoints
 62
     0
100
AcDbPoint
 10
644.3256719480949
 20
758.8360591244256
 30
0.0
  0
ENDBLK
  5
555C
330
5551
100
AcDbEntity
  8
0
100
AcDbBlockEnd
  0
BLOCK
  5
5561
330
5560
100
AcDbEntity
  8
0
100
AcDbBlockBegin
  2
*D54
 70
     1
 10
0.0
 20
0.0
 30
0.0
  3
*D54
  1

  0
LINE
  5
5562
330
5560
100
AcDbEntity
  8
Dim
 62
     0
370
    -2
100
AcDbLine
 10
644.3256719480949
 20
725.7634210798745
 30
0.0
 11
644.3256719480949
 21
758.8360591244256
 31
0.0
  0
LINE
  5
5563
330
5560
100
AcDbEntity
  8
Dim
 62
     0
370
    -2
100
AcDbLine
 10
894.3256719480949
 20
725.7634210798745
 30
0.0
 11
894.3256719480949
 21
758.8360591244256
 31
0.0
  0
LINE
  5
5564
330
5560
100
AcDbEntity
  8
Dim
 62
     0
370
    -2
100
AcDbLine
 10
647.3256719480949
 20
758.8360591244256
 30
0.0
 11
891.3256719480949
 21
758.8360591244256
 31
0.0
  0
INSERT
  5
5565
330
5560
100
AcDbEntity
  8
Dim
 62
     0
370
    -2
100
AcDbBlockReference
  2
_DOT
 10
644.3256719480949
 20
758.8360591244256
 30
0.0
 41
3.0
 42
3.0
 43
3.0
 50
180.0
  0
INSERT
  5
5566
330
5560
100
AcDbEntity
  8
Dim
 62
     0
370
    -2
100
AcDbBlockReference
  2
_DOT
 10
894.3256719480949
 20
758.8360591244256
 30
0.0
 41
3.0
 42
3.0
 43
3.0
  0
MTEXT
  5
5567
330
5560
100
AcDbEntity
  8
Dim
 62
     0
100
AcDbMText
 10
769.3256719480949
 20
774.8360591244256
 30
0.0
 40
12.0
 41
0.0
 46
0.0
 71
     5
 72
     1
  1
\A1;250
  7
ＭＳ ゴシック
 73
     1
 44
1.0
  0
POINT
  5
5568
330
5560
100
AcDbEntity
  8
Defpoints
 62
     0
100
AcDbPoint
 10
644.3256719480949
 20
715.7634210798745
 30
0.0
  0
POINT
  5
5569
330
5560
100
AcDbEntity
  8
Defpoints
 62
     0
100
AcDbPoint
 10
894.3256719480949
 20
715.7634210798745
 30
0.0
  0
POINT
  5
556A
330
5560
100
AcDbEntity
  8
Defpoints
 62
     0
100
AcDbPoint
 10
894.3256719480949
 20
758.8360591244256
 30
0.0
  0
ENDBLK
  5
556B
330
5560
100
AcDbEntity
  8
0
100
AcDbBlockEnd
  0
BLOCK
  5
556E
330
556D
100
AcDbEntity
  8
0
100
AcDbBlockBegin
  2
*D55
 70
     1
 10
0.0
 20
0.0
 30
0.0
  3
*D55
  1

  0
LINE
  5
556F
330
556D
100
AcDbEntity
  8
Dim
 62
     0
370
    -2
100
AcDbLine
 10
610.341142568655
 20
728.7189739169415
 30
0.0
 11
585.1851645115898
 21
728.7189739169415
 31
0.0
  0
LINE
  5
5570
330
556D
100
AcDbEntity
  8
Dim
 62
     0
370
    -2
100
AcDbLine
 10
610.341142568655
 20
663.7189739169415
 30
0.0
 11
585.1851645115898
 21
663.7189739169415
 31
0.0
  0
LINE
  5
5571
330
556D
100
AcDbEntity
  8
Dim
 62
     0
370
    -2
100
AcDbLine
 10
585.1851645115898
 20
725.7189739169415
 30
0.0
 11
585.1851645115898
 21
666.7189739169415
 31
0.0
  0
INSERT
  5
5572
330
556D
100
AcDbEntity
  8
Dim
 62
     0
370
    -2
100
AcDbBlockReference
  2
_DOT
 10
585.1851645115898
 20
728.7189739169415
 30
0.0
 41
3.0
 42
3.0
 43
3.0
 50
90.0
  0
INSERT
  5
5573
330
556D
100
AcDbEntity
  8
Dim
 62
     0
370
    -2
100
AcDbBlockReference
  2
_DOT
 10
585.1851645115898
 20
663.7189739169415
 30
0.0
 41
3.0
 42
3.0
 43
3.0
 50
270.0
  0
MTEXT
  5
5574
330
556D
100
AcDbEntity
  8
Dim
 62
     0
100
AcDbMText
 10
569.1851645115898
 20
696.2189739169415
 30
0.0
 40
12.0
 41
0.0
 46
0.0
 71
     5
 72
     1
  1
\A1;65
  7
ＭＳ ゴシック
 11
0.0
 21
1.0
 31
0.0
 73
     1
 44
1.0
  0
POINT
  5
5575
330
556D
100
AcDbEntity
  8
Defpoints
 62
     0
100
AcDbPoint
 10
620.341142568655
 20
728.7189739169415
 30
0.0
  0
POINT
  5
5576
330
556D
100
AcDbEntity
  8
Defpoints
 62
     0
100
AcDbPoint
 10
620.341142568655
 20
663.7189739169415
 30
0.0
  0
POINT
  5
5577
330
556D
100
AcDbEntity
  8
Defpoints
 62
     0
100
AcDbPoint
 10
585.1851645115898
 20
663.7189739169415
 30
0.0
  0
ENDBLK
  5
5578
330
556D
100
AcDbEntity
  8
0
100
AcDbBlockEnd
  0
BLOCK
  5
557B
330
557A
100
AcDbEntity
  8
0
100
AcDbBlockBegin
  2
*D56
 70
     1
 10
0.0
 20
0.0
 30
0.0
  3
*D56
  1

  0
LINE
  5
557C
330
557A
100
AcDbEntity
  8
Dim
 62
     0
370
    -2
100
AcDbLine
 10
610.341142568655
 20
663.7189739169415
 30
0.0
 11
585.1851645115898
 21
663.7189739169415
 31
0.0
  0
LINE
  5
557D
330
557A
100
AcDbEntity
  8
Dim
 62
     0
370
    -2
100
AcDbLine
 10
604.0546471042628
 20
563.9167696588387
 30
0.0
 11
585.1851645115898
 21
563.9167696588387
 31
0.0
  0
LINE
  5
557E
330
557A
100
AcDbEntity
  8
Dim
 62
     0
370
    -2
100
AcDbLine
 10
585.1851645115898
 20
660.7189739169415
 30
0.0
 11
585.1851645115898
 21
566.9167696588387
 31
0.0
  0
INSERT
  5
557F
330
557A
100
AcDbEntity
  8
Dim
 62
     0
370
    -2
100
AcDbBlockReference
  2
_DOT
 10
585.1851645115898
 20
663.7189739169415
 30
0.0
 41
3.0
 42
3.0
 43
3.0
 50
90.0
  0
INSERT
  5
5580
330
557A
100
AcDbEntity
  8
Dim
 62
     0
370
    -2
100
AcDbBlockReference
  2
_DOT
 10
585.1851645115898
 20
563.9167696588387
 30
0.0
 41
3.0
 42
3.0
 43
3.0
 50
270.0
  0
MTEXT
  5
5581
330
557A
100
AcDbEntity
  8
Dim
 62
     0
100
AcDbMText
 10
569.1851645115898
 20
613.8178717878901
 30
0.0
 40
12.0
 41
0.0
 46
0.0
 71
     5
 72
     1
  1
\A1;100
  7
ＭＳ ゴシック
 11
0.0
 21
1.0
 31
0.0
 73
     1
 44
1.0
  0
POINT
  5
5582
330
557A
100
AcDbEntity
  8
Defpoints
 62
     0
100
AcDbPoint
 10
620.341142568655
 20
663.7189739169415
 30
0.0
  0
POINT
  5
5583
330
557A
100
AcDbEntity
  8
Defpoints
 62
     0
100
AcDbPoint
 10
614.0546471042628
 20
563.9167696588387
 30
0.0
  0
POINT
  5
5584
330
557A
100
AcDbEntity
  8
Defpoints
 62
     0
100
AcDbPoint
 10
585.1851645115898
 20
563.9167696588387
 30
0.0
  0
ENDBLK
  5
5585
330
557A
100
AcDbEntity
  8
0
100
AcDbBlockEnd
  0
BLOCK
  5
5639
330
5638
100
AcDbEntity
  8
0
100
AcDbBlockBegin
  2
*D57
 70
     1
 10
0.0
 20
0.0
 30
0.0
  3
*D57
  1

  0
LINE
  5
563B
330
5638
100
AcDbEntity
  8
Dim
 62
     0
370
    -2
100
AcDbLine
 10
773.2882040317454
 20
2228.129083521845
 30
0.0
 11
773.2882040317454
 21
2338.504070328
 31
0.0
  0
LINE
  5
563C
330
5638
100
AcDbEntity
  8
Dim
 62
     0
370
    -2
100
AcDbLine
 10
369.273528093504
 20
2229.904947759857
 30
0.0
 11
369.273528093504
 21
2338.504070328
 31
0.0
  0
LINE
  5
563D
330
5638
100
AcDbEntity
  8
Dim
 62
     0
370
    -2
100
AcDbLine
 10
763.2888143833079
 20
2338.504070328
 30
0.0
 11
379.2729177419415
 21
2338.504070328
 31
0.0
  0
INSERT
  5
563E
330
5638
100
AcDbEntity
  8
Dim
 62
     0
370
    -2
100
AcDbBlockReference
  2
_DOT
 10
773.2882040317454
 20
2338.504070328
 30
0.0
 41
9.999389648437498
 42
9.999389648437498
 43
9.999389648437498
  0
INSERT
  5
563F
330
5638
100
AcDbEntity
  8
Dim
 62
     0
370
    -2
100
AcDbBlockReference
  2
_DOT
 10
369.273528093504
 20
2338.504070328
 30
0.0
 41
9.999389648437498
 42
9.999389648437498
 43
9.999389648437498
 50
180.0
  0
MTEXT
  5
5640
330
5638
100
AcDbEntity
  8
Dim
 62
     0
100
AcDbMText
 10
571.2808660626251
 20
2360.72037892175
 30
0.0
 40
24.4326171875
 41
0.0
 46
0.0
 71
     5
 72
     1
  1
\A1;400
  7
ＭＳ ゴシック
 73
     1
 44
1.0
  0
POINT
  5
5641
330
5638
100
AcDbEntity
  8
Defpoints
 62
     0
100
AcDbPoint
 10
773.2882040317454
 20
2203.129083521845
 30
0.0
  0
POINT
  5
5642
330
5638
100
AcDbEntity
  8
Defpoints
 62
     0
100
AcDbPoint
 10
369.273528093504
 20
2204.904947759857
 30
0.0
  0
POINT
  5
5643
330
5638
100
AcDbEntity
  8
Defpoints
 62
     0
100
AcDbPoint
 10
369.273528093504
 20
2338.504070328
 30
0.0
  0
ENDBLK
  5
563A
330
5638
100
AcDbEntity
  8
0
100
AcDbBlockEnd
  0
BLOCK
  5
5645
330
5644
100
AcDbEntity
  8
0
100
AcDbBlockBegin
  2
*D58
 70
     1
 10
0.0
 20
0.0
 30
0.0
  3
*D58
  1

  0
LINE
  5
5647
330
5644
100
AcDbEntity
  8
Dim
 62
     0
370
    -2
100
AcDbLine
 10
334.7463550887892
 20
2203.803554295297
 30
0.0
 11
269.7242828292496
 21
2203.803554295297
 31
0.0
  0
LINE
  5
5648
330
5644
100
AcDbEntity
  8
Dim
 62
     0
370
    -2
100
AcDbLine
 10
334.7463550887805
 20
1969.788889313864
 30
0.0
 11
269.7242828292495
 21
1969.788889313864
 31
0.0
  0
LINE
  5
5649
330
5644
100
AcDbEntity
  8
Dim
 62
     0
370
    -2
100
AcDbLine
 10
269.7242828292496
 20
2193.80416464686
 30
0.0
 11
269.7242828292495
 21
1979.788278962302
 31
0.0
  0
INSERT
  5
564A
330
5644
100
AcDbEntity
  8
Dim
 62
     0
370
    -2
100
AcDbBlockReference
  2
_DOT
 10
269.7242828292496
 20
2203.803554295297
 30
0.0
 41
9.999389648437498
 42
9.999389648437498
 43
9.999389648437498
 50
89.99999999999999
  0
INSERT
  5
564B
330
5644
100
AcDbEntity
  8
Dim
 62
     0
370
    -2
100
AcDbBlockReference
  2
_DOT
 10
269.7242828292495
 20
1969.788889313864
 30
0.0
 41
9.999389648437498
 42
9.999389648437498
 43
9.999389648437498
 50
270.0
  0
MTEXT
  5
564C
330
5644
100
AcDbEntity
  8
Dim
 62
     0
100
AcDbMText
 10
247.5079742354995
 20
2086.79622180458
 30
0.0
 40
24.4326171875
 41
0.0
 46
0.0
 71
     5
 72
     1
  1
\A1;230
  7
ＭＳ ゴシック
 11
2.429053703335987E-16
 21
1.0
 31
0.0
 73
     1
 44
1.0
  0
POINT
  5
564D
330
5644
100
AcDbEntity
  8
Defpoints
 62
     0
100
AcDbPoint
 10
359.7463550887892
 20
2203.803554295297
 30
0.0
  0
POINT
  5
564E
330
5644
100
AcDbEntity
  8
Defpoints
 62
     0
100
AcDbPoint
 10
359.7463550887805
 20
1969.788889313864
 30
0.0
  0
POINT
  5
564F
330
5644
100
AcDbEntity
  8
Defpoints
 62
     0
100
AcDbPoint
 10
269.7242828292495
 20
1969.788889313864
 30
0.0
  0
ENDBLK
  5
5646
330
5644
100
AcDbEntity
  8
0
100
AcDbBlockEnd
  0
BLOCK
  5
5651
330
5650
100
AcDbEntity
  8
0
100
AcDbBlockBegin
  2
*D59
 70
     1
 10
0.0
 20
0.0
 30
0.0
  3
*D59
  1

  0
LINE
  5
5653
330
5650
100
AcDbEntity
  8
Dim
 62
     0
370
    -2
100
AcDbLine
 10
723.5687855957985
 20
1064.190566817031
 30
0.0
 11
723.5687855957985
 21
1113.226831248895
 31
0.0
  0
LINE
  5
5654
330
5650
100
AcDbEntity
  8
Dim
 62
     0
370
    -2
100
AcDbLine
 10
773.2882040317454
 20
1023.382794047546
 30
0.0
 11
773.2882040317454
 21
1113.226831248895
 31
0.0
  0
LINE
  5
5655
330
5650
100
AcDbEntity
  8
Dim
 62
     0
370
    -2
100
AcDbLine
 10
733.568175244236
 20
1113.226831248895
 30
0.0
 11
763.2888143833079
 21
1113.226831248895
 31
0.0
  0
INSERT
  5
5656
330
5650
100
AcDbEntity
  8
Dim
 62
     0
370
    -2
100
AcDbBlockReference
  2
_DOT
 10
723.5687855957985
 20
1113.226831248895
 30
0.0
 41
9.999389648437498
 42
9.999389648437498
 43
9.999389648437498
 50
180.0
  0
INSERT
  5
5657
330
5650
100
AcDbEntity
  8
Dim
 62
     0
370
    -2
100
AcDbBlockReference
  2
_DOT
 10
773.2882040317454
 20
1113.226831248895
 30
0.0
 41
9.999389648437498
 42
9.999389648437498
 43
9.999389648437498
  0
MTEXT
  5
5658
330
5650
100
AcDbEntity
  8
Dim
 62
     0
100
AcDbMText
 10
748.428494813772
 20
1135.443139842645
 30
0.0
 40
24.4326171875
 41
0.0
 46
0.0
 71
     5
 72
     1
  1
\A1;50
  7
ＭＳ ゴシック
 73
     1
 44
1.0
  0
POINT
  5
5659
330
5650
100
AcDbEntity
  8
Defpoints
 62
     0
100
AcDbPoint
 10
723.5687855957985
 20
1039.190566817031
 30
0.0
  0
POINT
  5
565A
330
5650
100
AcDbEntity
  8
Defpoints
 62
     0
100
AcDbPoint
 10
773.2882040317454
 20
998.382794047546
 30
0.0
  0
POINT
  5
565B
330
5650
100
AcDbEntity
  8
Defpoints
 62
     0
100
AcDbPoint
 10
773.2882040317454
 20
1113.226831248895
 30
0.0
  0
ENDBLK
  5
5652
330
5650
100
AcDbEntity
  8
0
100
AcDbBlockEnd
  0
BLOCK
  5
565D
330
565C
100
AcDbEntity
  8
0
100
AcDbBlockBegin
  2
*D60
 70
     1
 10
0.0
 20
0.0
 30
0.0
  3
*D60
  1

  0
LINE
  5
565F
330
565C
100
AcDbEntity
  8
Dim
 62
     0
370
    -2
100
AcDbLine
 10
1592.610806925347
 20
1060.726392060824
 30
0.0
 11
1660.473710650261
 21
1060.726392060824
 31
0.0
  0
LINE
  5
5660
330
565C
100
AcDbEntity
  8
Dim
 62
     0
370
    -2
100
AcDbLine
 10
1592.610806925347
 20
939.7264007671408
 30
0.0
 11
1660.473710650261
 21
939.7264007671408
 31
0.0
  0
LINE
  5
5661
330
565C
100
AcDbEntity
  8
Dim
 62
     0
370
    -2
100
AcDbLine
 10
1660.473710650261
 20
1050.727002412387
 30
0.0
 11
1660.473710650261
 21
949.7257904155783
 31
0.0
  0
INSERT
  5
5662
330
565C
100
AcDbEntity
  8
Dim
 62
     0
370
    -2
100
AcDbBlockReference
  2
_DOT
 10
1660.473710650261
 20
1060.726392060824
 30
0.0
 41
9.999389648437498
 42
9.999389648437498
 43
9.999389648437498
 50
90.0
  0
INSERT
  5
5663
330
565C
100
AcDbEntity
  8
Dim
 62
     0
370
    -2
100
AcDbBlockReference
  2
_DOT
 10
1660.473710650261
 20
939.7264007671408
 30
0.0
 41
9.999389648437498
 42
9.999389648437498
 43
9.999389648437498
 50
270.0
  0
MTEXT
  5
5664
330
565C
100
AcDbEntity
  8
Dim
 62
     0
100
AcDbMText
 10
1638.257402056511
 20
1000.226396413982
 30
0.0
 40
24.4326171875
 41
0.0
 46
0.0
 71
     5
 72
     1
  1
\A1;120
  7
ＭＳ ゴシック
 11
0.0
 21
1.0
 31
0.0
 73
     1
 44
1.0
  0
POINT
  5
5665
330
565C
100
AcDbEntity
  8
Defpoints
 62
     0
100
AcDbPoint
 10
1567.610806925347
 20
1060.726392060824
 30
0.0
  0
POINT
  5
5666
330
565C
100
AcDbEntity
  8
Defpoints
 62
     0
100
AcDbPoint
 10
1567.610806925347
 20
939.7264007671408
 30
0.0
  0
POINT
  5
5667
330
565C
100
AcDbEntity
  8
Defpoints
 62
     0
100
AcDbPoint
 10
1660.473710650261
 20
939.7264007671408
 30
0.0
  0
ENDBLK
  5
565E
330
565C
100
AcDbEntity
  8
0
100
AcDbBlockEnd
  0
BLOCK
  5
5669
330
5668
100
AcDbEntity
  8
0
100
AcDbBlockBegin
  2
*D61
 70
     1
 10
0.0
 20
0.0
 30
0.0
  3
*D61
  1

  0
LINE
  5
566B
330
5668
100
AcDbEntity
  8
Dim
 62
     0
370
    -2
100
AcDbLine
 10
671.3691737029185
 20
1952.26138108882
 30
0.0
 11
671.3691737029185
 21
1889.623749816
 31
0.0
  0
LINE
  5
566C
330
5668
100
AcDbEntity
  8
Dim
 62
     0
370
    -2
100
AcDbLine
 10
773.2885086414421
 20
1952.26138108882
 30
0.0
 11
773.2885086414421
 21
1889.623749816
 31
0.0
  0
LINE
  5
566D
330
5668
100
AcDbEntity
  8
Dim
 62
     0
370
    -2
100
AcDbLine
 10
681.368563351356
 20
1889.623749816
 30
0.0
 11
763.2891189930046
 21
1889.623749816
 31
0.0
  0
INSERT
  5
566E
330
5668
100
AcDbEntity
  8
Dim
 62
     0
370
    -2
100
AcDbBlockReference
  2
_DOT
 10
671.3691737029185
 20
1889.623749816
 30
0.0
 41
9.999389648437498
 42
9.999389648437498
 43
9.999389648437498
 50
180.0
  0
INSERT
  5
566F
330
5668
100
AcDbEntity
  8
Dim
 62
     0
370
    -2
100
AcDbBlockReference
  2
_DOT
 10
773.2885086414421
 20
1889.623749816
 30
0.0
 41
9.999389648437498
 42
9.999389648437498
 43
9.999389648437498
  0
MTEXT
  5
5670
330
5668
100
AcDbEntity
  8
Dim
 62
     0
100
AcDbMText
 10
722.3288411721803
 20
1911.84005840975
 30
0.0
 40
24.4326171875
 41
0.0
 46
0.0
 71
     5
 72
     1
  1
\A1;100
  7
ＭＳ ゴシック
 73
     1
 44
1.0
  0
POINT
  5
5671
330
5668
100
AcDbEntity
  8
Defpoints
 62
     0
100
AcDbPoint
 10
671.3691737029185
 20
1977.26138108882
 30
0.0
  0
POINT
  5
5672
330
5668
100
AcDbEntity
  8
Defpoints
 62
     0
100
AcDbPoint
 10
773.2885086414421
 20
1977.26138108882
 30
0.0
  0
POINT
  5
5673
330
5668
100
AcDbEntity
  8
Defpoints
 62
     0
100
AcDbPoint
 10
773.2885086414421
 20
1889.623749816
 30
0.0
  0
ENDBLK
  5
566A
330
5668
100
AcDbEntity
  8
0
100
AcDbBlockEnd
  0
BLOCK
  5
5675
330
5674
100
AcDbEntity
  8
0
100
AcDbBlockBegin
  2
*D62
 70
     1
 10
0.0
 20
0.0
 30
0.0
  3
*D62
  1

  0
LINE
  5
5677
330
5674
100
AcDbEntity
  8
Dim
 62
     0
370
    -2
100
AcDbLine
 10
798.7164941295359
 20
1060.726371738083
 30
0.0
 11
841.6240693777088
 21
1060.726371738083
 31
0.0
  0
LINE
  5
5678
330
5674
100
AcDbEntity
  8
Dim
 62
     0
370
    -2
100
AcDbLine
 10
762.3758521671625
 20
1020.413419114261
 30
0.0
 11
841.6240693777088
 21
1020.413419114261
 31
0.0
  0
LINE
  5
5679
330
5674
100
AcDbEntity
  8
Dim
 62
     0
370
    -2
100
AcDbLine
 10
841.6240693777088
 20
1050.726982089645
 30
0.0
 11
841.6240693777088
 21
1030.412808762698
 31
0.0
  0
INSERT
  5
567A
330
5674
100
AcDbEntity
  8
Dim
 62
     0
370
    -2
100
AcDbBlockReference
  2
_DOT
 10
841.6240693777088
 20
1060.726371738083
 30
0.0
 41
9.999389648437498
 42
9.999389648437498
 43
9.999389648437498
 50
90.0
  0
INSERT
  5
567B
330
5674
100
AcDbEntity
  8
Dim
 62
     0
370
    -2
100
AcDbBlockReference
  2
_DOT
 10
841.6240693777088
 20
1020.413419114261
 30
0.0
 41
9.999389648437498
 42
9.999389648437498
 43
9.999389648437498
 50
270.0
  0
MTEXT
  5
567C
330
5674
100
AcDbEntity
  8
Dim
 62
     0
100
AcDbMText
 10
819.4077607839588
 20
1040.569895426172
 30
0.0
 40
24.4326171875
 41
0.0
 46
0.0
 71
     5
 72
     1
  1
\A1;40
  7
ＭＳ ゴシック
 11
0.0
 21
1.0
 31
0.0
 73
     1
 44
1.0
  0
POINT
  5
567D
330
5674
100
AcDbEntity
  8
Defpoints
 62
     0
100
AcDbPoint
 10
773.7164941295359
 20
1060.726371738083
 30
0.0
  0
POINT
  5
567E
330
5674
100
AcDbEntity
  8
Defpoints
 62
     0
100
AcDbPoint
 10
737.3758521671625
 20
1020.413419114261
 30
0.0
  0
POINT
  5
567F
330
5674
100
AcDbEntity
  8
Defpoints
 62
     0
100
AcDbPoint
 10
841.6240693777088
 20
1020.413419114261
 30
0.0
  0
ENDBLK
  5
5676
330
5674
100
AcDbEntity
  8
0
100
AcDbBlockEnd
  0
BLOCK
  5
5681
330
5680
100
AcDbEntity
  8
0
100
AcDbBlockBegin
  2
*D63
 70
     1
 10
0.0
 20
0.0
 30
0.0
  3
*D63
  1

  0
LINE
  5
5683
330
5680
100
AcDbEntity
  8
Dim
 62
     0
370
    -2
100
AcDbLine
 10
352.1289993860523
 20
1060.726399464168
 30
0.0
 11
269.7242828292497
 21
1060.726399464168
 31
0.0
  0
LINE
  5
5684
330
5680
100
AcDbEntity
  8
Dim
 62
     0
370
    -2
100
AcDbLine
 10
370.2617506034021
 20
967.414830098768
 30
0.0
 11
269.7242828292497
 21
967.414830098768
 31
0.0
  0
LINE
  5
5685
330
5680
100
AcDbEntity
  8
Dim
 62
     0
370
    -2
100
AcDbLine
 10
269.7242828292497
 20
1050.727009815731
 30
0.0
 11
269.7242828292497
 21
977.4142197472055
 31
0.0
  0
INSERT
  5
5686
330
5680
100
AcDbEntity
  8
Dim
 62
     0
370
    -2
100
AcDbBlockReference
  2
_DOT
 10
269.7242828292497
 20
1060.726399464168
 30
0.0
 41
9.999389648437498
 42
9.999389648437498
 43
9.999389648437498
 50
90.0
  0
INSERT
  5
5687
330
5680
100
AcDbEntity
  8
Dim
 62
     0
370
    -2
100
AcDbBlockReference
  2
_DOT
 10
269.7242828292497
 20
967.414830098768
 30
0.0
 41
9.999389648437498
 42
9.999389648437498
 43
9.999389648437498
 50
270.0
  0
MTEXT
  5
5688
330
5680
100
AcDbEntity
  8
Dim
 62
     0
100
AcDbMText
 10
247.5079742354997
 20
1014.070614781468
 30
0.0
 40
24.4326171875
 41
0.0
 46
0.0
 71
     5
 72
     1
  1
\A1;95
  7
ＭＳ ゴシック
 11
0.0
 21
1.0
 31
0.0
 73
     1
 44
1.0
  0
POINT
  5
5689
330
5680
100
AcDbEntity
  8
Defpoints
 62
     0
100
AcDbPoint
 10
377.1289993860523
 20
1060.726399464168
 30
0.0
  0
POINT
  5
568A
330
5680
100
AcDbEntity
  8
Defpoints
 62
     0
100
AcDbPoint
 10
395.2617506034021
 20
967.414830098768
 30
0.0
  0
POINT
  5
568B
330
5680
100
AcDbEntity
  8
Defpoints
 62
     0
100
AcDbPoint
 10
269.7242828292497
 20
967.414830098768
 30
0.0
  0
ENDBLK
  5
5682
330
5680
100
AcDbEntity
  8
0
100
AcDbBlockEnd
  0
BLOCK
  5
568D
330
568C
100
AcDbEntity
  8
0
100
AcDbBlockBegin
  2
*D64
 70
     1
 10
0.0
 20
0.0
 30
0.0
  3
*D64
  1

  0
LINE
  5
568F
330
568C
100
AcDbEntity
  8
Dim
 62
     0
370
    -2
100
AcDbLine
 10
1468.587626103588
 20
965.660235778233
 30
0.0
 11
1441.886363863414
 21
965.660235778233
 31
0.0
  0
LINE
  5
5690
330
568C
100
AcDbEntity
  8
Dim
 62
     0
370
    -2
100
AcDbLine
 10
1468.589566106317
 20
1060.726392060828
 30
0.0
 11
1441.886363863414
 21
1060.726392060828
 31
0.0
  0
LINE
  5
5691
330
568C
100
AcDbEntity
  8
Dim
 62
     0
370
    -2
100
AcDbLine
 10
1441.886363863414
 20
965.660235778233
 30
0.0
 11
1441.886363863414
 21
1218.710279756141
 31
0.0
  0
LINE
  5
5692
330
568C
100
AcDbEntity
  8
Dim
 62
     0
370
    -2
100
AcDbLine
 10
1441.886363863414
 20
975.6596254266705
 30
0.0
 11
1441.886363863414
 21
1050.72700241239
 31
0.0
  0
LINE
  5
5693
330
568C
100
AcDbEntity
  8
Dim
 62
     0
370
    -2
100
AcDbLine
 10
1441.886363863414
 20
1050.72700241239
 30
0.0
 11
1441.886363863414
 21
1040.727612763953
 31
0.0
  0
INSERT
  5
5694
330
568C
100
AcDbEntity
  8
Dim
 62
     0
370
    -2
100
AcDbBlockReference
  2
_DOT
 10
1441.886363863414
 20
965.660235778233
 30
0.0
 41
9.999389648437498
 42
9.999389648437498
 43
9.999389648437498
 50
270.0
  0
INSERT
  5
5695
330
568C
100
AcDbEntity
  8
Dim
 62
     0
370
    -2
100
AcDbBlockReference
  2
_DOT
 10
1441.886363863414
 20
1060.726392060828
 30
0.0
 41
9.999389648437498
 42
9.999389648437498
 43
9.999389648437498
 50
90.0
  0
MTEXT
  5
5696
330
568C
100
AcDbEntity
  8
Dim
 62
     0
100
AcDbMText
 10
1417.50776864857
 20
1149.717725556922
 30
0.0
 40
24.4326171875
 41
0.0
 46
0.0
 71
     5
 72
     1
  1
\A1;95(深さ)
  7
ＭＳ ゴシック
 11
0.0
 21
1.0
 31
0.0
 73
     1
 44
1.0
  0
POINT
  5
5697
330
568C
100
AcDbEntity
  8
Defpoints
 62
     0
100
AcDbPoint
 10
1493.587626103588
 20
965.660235778233
 30
0.0
  0
POINT
  5
574B
330
568C
100
AcDbEntity
  8
Defpoints
 62
     0
100
AcDbPoint
 10
1493.589566106317
 20
1060.726392060828
 30
0.0
  0
POINT
  5
574C
330
568C
100
AcDbEntity
  8
Defpoints
 62
     0
100
AcDbPoint
 10
1441.886363863414
 20
1060.726392060828
 30
0.0
  0
ENDBLK
  5
568E
330
568C
100
AcDbEntity
  8
0
100
AcDbBlockEnd
  0
BLOCK
  5
5699
330
5698
100
AcDbEntity
  8
0
100
AcDbBlockBegin
  2
*D65
 70
     1
 10
0.0
 20
0.0
 30
0.0
  3
*D65
  1

  0
LINE
  5
569B
330
5698
100
AcDbEntity
  8
Dim
 62
     0
370
    -2
100
AcDbLine
 10
674.749938091395
 20
2193.940936919951
 30
0.0
 11
841.6240693777088
 21
2193.940936919951
 31
0.0
  0
LINE
  5
569C
330
5698
100
AcDbEntity
  8
Dim
 62
     0
370
    -2
100
AcDbLine
 10
674.749938091395
 20
1978.94093691995
 30
0.0
 11
841.6240693777088
 21
1978.94093691995
 31
0.0
  0
LINE
  5
569D
330
5698
100
AcDbEntity
  8
Dim
 62
     0
370
    -2
100
AcDbLine
 10
841.6240693777088
 20
2183.941547271514
 30
0.0
 11
841.6240693777088
 21
1988.940326568387
 31
0.0
  0
INSERT
  5
569E
330
5698
100
AcDbEntity
  8
Dim
 62
     0
370
    -2
100
AcDbBlockReference
  2
_DOT
 10
841.6240693777088
 20
2193.940936919951
 30
0.0
 41
9.999389648437498
 42
9.999389648437498
 43
9.999389648437498
 50
90.0
  0
INSERT
  5
569F
330
5698
100
AcDbEntity
  8
Dim
 62
     0
370
    -2
100
AcDbBlockReference
  2
_DOT
 10
841.6240693777088
 20
1978.94093691995
 30
0.0
 41
9.999389648437498
 42
9.999389648437498
 43
9.999389648437498
 50
270.0
  0
MTEXT
  5
56A0
330
5698
100
AcDbEntity
  8
Dim
 62
     0
100
AcDbMText
 10
819.4077607839588
 20
2086.440936919951
 30
0.0
 40
24.4326171875
 41
0.0
 46
0.0
 71
     5
 72
     1
  1
\A1;215
  7
ＭＳ ゴシック
 11
0.0
 21
1.0
 31
0.0
 73
     1
 44
1.0
  0
POINT
  5
56A1
330
5698
100
AcDbEntity
  8
Defpoints
 62
     0
100
AcDbPoint
 10
649.749938091395
 20
2193.940936919951
 30
0.0
  0
POINT
  5
56A2
330
5698
100
AcDbEntity
  8
Defpoints
 62
     0
100
AcDbPoint
 10
649.749938091395
 20
1978.94093691995
 30
0.0
  0
POINT
  5
56A3
330
5698
100
AcDbEntity
  8
Defpoints
 62
     0
100
AcDbPoint
 10
841.6240693777088
 20
1978.94093691995
 30
0.0
  0
ENDBLK
  5
569A
330
5698
100
AcDbEntity
  8
0
100
AcDbBlockEnd
  0
BLOCK
  5
56A5
330
56A4
100
AcDbEntity
  8
0
100
AcDbBlockBegin
  2
*D66
 70
     1
 10
0.0
 20
0.0
 30
0.0
  3
*D66
  1

  0
LINE
  5
56A7
330
56A4
100
AcDbEntity
  8
Dim
 62
     0
370
    -2
100
AcDbLine
 10
671.3691737029185
 20
1952.26138108882
 30
0.0
 11
671.3691737029185
 21
1889.623749816
 31
0.0
  0
LINE
  5
56A8
330
56A4
100
AcDbEntity
  8
Dim
 62
     0
370
    -2
100
AcDbLine
 10
381.3691737029185
 20
1952.26138108882
 30
0.0
 11
381.3691737029185
 21
1889.623749816
 31
0.0
  0
LINE
  5
56A9
330
56A4
100
AcDbEntity
  8
Dim
 62
     0
370
    -2
100
AcDbLine
 10
661.369784054481
 20
1889.623749816
 30
0.0
 11
391.368563351356
 21
1889.623749816
 31
0.0
  0
INSERT
  5
56AA
330
56A4
100
AcDbEntity
  8
Dim
 62
     0
370
    -2
100
AcDbBlockReference
  2
_DOT
 10
671.3691737029185
 20
1889.623749816
 30
0.0
 41
9.999389648437498
 42
9.999389648437498
 43
9.999389648437498
  0
INSERT
  5
56AB
330
56A4
100
AcDbEntity
  8
Dim
 62
     0
370
    -2
100
AcDbBlockReference
  2
_DOT
 10
381.3691737029185
 20
1889.623749816
 30
0.0
 41
9.999389648437498
 42
9.999389648437498
 43
9.999389648437498
 50
180.0
  0
MTEXT
  5
56AC
330
56A4
100
AcDbEntity
  8
Dim
 62
     0
100
AcDbMText
 10
526.3691737029185
 20
1911.84005840975
 30
0.0
 40
24.4326171875
 41
0.0
 46
0.0
 71
     5
 72
     1
  1
\A1;290
  7
ＭＳ ゴシック
 73
     1
 44
1.0
  0
POINT
  5
56AD
330
56A4
100
AcDbEntity
  8
Defpoints
 62
     0
100
AcDbPoint
 10
671.3691737029185
 20
1977.26138108882
 30
0.0
  0
POINT
  5
56AE
330
56A4
100
AcDbEntity
  8
Defpoints
 62
     0
100
AcDbPoint
 10
381.3691737029185
 20
1977.26138108882
 30
0.0
  0
POINT
  5
56AF
330
56A4
100
AcDbEntity
  8
Defpoints
 62
     0
100
AcDbPoint
 10
381.3691737029185
 20
1889.623749816
 30
0.0
  0
ENDBLK
  5
56A6
330
56A4
100
AcDbEntity
  8
0
100
AcDbBlockEnd
  0
BLOCK
  5
56B1
330
56B0
100
AcDbEntity
  8
0
100
AcDbBlockBegin
  2
*D67
 70
     1
 10
0.0
 20
0.0
 30
0.0
  3
*D67
  1

  0
LINE
  5
56B3
330
56B0
100
AcDbEntity
  8
Dim
 62
     0
370
    -2
100
AcDbLine
 10
773.2882040317522
 20
2218.940936919951
 30
0.0
 11
773.2882040317522
 21
2269.7749466928
 31
0.0
  0
LINE
  5
56B4
330
56B0
100
AcDbEntity
  8
Dim
 62
     0
370
    -2
100
AcDbLine
 10
713.2882040317522
 20
2134.487389347348
 30
0.0
 11
713.2882040317522
 21
2269.7749466928
 31
0.0
  0
LINE
  5
56B5
330
56B0
100
AcDbEntity
  8
Dim
 62
     0
370
    -2
100
AcDbLine
 10
763.2888143833147
 20
2269.7749466928
 30
0.0
 11
723.2875936801897
 21
2269.7749466928
 31
0.0
  0
INSERT
  5
56B6
330
56B0
100
AcDbEntity
  8
Dim
 62
     0
370
    -2
100
AcDbBlockReference
  2
_DOT
 10
773.2882040317522
 20
2269.7749466928
 30
0.0
 41
9.999389648437498
 42
9.999389648437498
 43
9.999389648437498
  0
INSERT
  5
56B7
330
56B0
100
AcDbEntity
  8
Dim
 62
     0
370
    -2
100
AcDbBlockReference
  2
_DOT
 10
713.2882040317522
 20
2269.7749466928
 30
0.0
 41
9.999389648437498
 42
9.999389648437498
 43
9.999389648437498
 50
180.0
  0
MTEXT
  5
56B8
330
56B0
100
AcDbEntity
  8
Dim
 62
     0
100
AcDbMText
 10
743.2882040317522
 20
2291.99125528655
 30
0.0
 40
24.4326171875
 41
0.0
 46
0.0
 71
     5
 72
     1
  1
\A1;60
  7
ＭＳ ゴシック
 73
     1
 44
1.0
  0
POINT
  5
56B9
330
56B0
100
AcDbEntity
  8
Defpoints
 62
     0
100
AcDbPoint
 10
773.2882040317522
 20
2193.940936919951
 30
0.0
  0
POINT
  5
56BA
330
56B0
100
AcDbEntity
  8
Defpoints
 62
     0
100
AcDbPoint
 10
713.2882040317522
 20
2109.487389347348
 30
0.0
  0
POINT
  5
56BB
330
56B0
100
AcDbEntity
  8
Defpoints
 62
     0
100
AcDbPoint
 10
713.2882040317522
 20
2269.7749466928
 30
0.0
  0
ENDBLK
  5
56B2
330
56B0
100
AcDbEntity
  8
0
100
AcDbBlockEnd
  0
BLOCK
  5
56BD
330
56BC
100
AcDbEntity
  8
0
100
AcDbBlockBegin
  2
*D68
 70
     1
 10
0.0
 20
0.0
 30
0.0
  3
*D68
  1

  0
LINE
  5
56BF
330
56BC
100
AcDbEntity
  8
Dim
 62
     0
370
    -2
100
AcDbLine
 10
723.5687855957985
 20
1064.190566817031
 30
0.0
 11
723.5687855957985
 21
1113.226831248895
 31
0.0
  0
LINE
  5
56C0
330
56BC
100
AcDbEntity
  8
Dim
 62
     0
370
    -2
100
AcDbLine
 10
408.5687855957985
 20
1007.600462938989
 30
0.0
 11
408.5687855957985
 21
1113.226831248895
 31
0.0
  0
LINE
  5
56C1
330
56BC
100
AcDbEntity
  8
Dim
 62
     0
370
    -2
100
AcDbLine
 10
713.569395947361
 20
1113.226831248895
 30
0.0
 11
418.568175244236
 21
1113.226831248895
 31
0.0
  0
INSERT
  5
56C2
330
56BC
100
AcDbEntity
  8
Dim
 62
     0
370
    -2
100
AcDbBlockReference
  2
_DOT
 10
723.5687855957985
 20
1113.226831248895
 30
0.0
 41
9.999389648437498
 42
9.999389648437498
 43
9.999389648437498
  0
INSERT
  5
56C3
330
56BC
100
AcDbEntity
  8
Dim
 62
     0
370
    -2
100
AcDbBlockReference
  2
_DOT
 10
408.5687855957985
 20
1113.226831248895
 30
0.0
 41
9.999389648437498
 42
9.999389648437498
 43
9.999389648437498
 50
180.0
  0
MTEXT
  5
56C4
330
56BC
100
AcDbEntity
  8
Dim
 62
     0
100
AcDbMText
 10
566.0687855957985
 20
1135.443139842645
 30
0.0
 40
24.4326171875
 41
0.0
 46
0.0
 71
     5
 72
     1
  1
\A1;315
  7
ＭＳ ゴシック
 73
     1
 44
1.0
  0
POINT
  5
56C5
330
56BC
100
AcDbEntity
  8
Defpoints
 62
     0
100
AcDbPoint
 10
723.5687855957985
 20
1039.190566817031
 30
0.0
  0
POINT
  5
56C6
330
56BC
100
AcDbEntity
  8
Defpoints
 62
     0
100
AcDbPoint
 10
408.5687855957985
 20
982.600462938989
 30
0.0
  0
POINT
  5
56C7
330
56BC
100
AcDbEntity
  8
Defpoints
 62
     0
100
AcDbPoint
 10
408.5687855957985
 20
1113.226831248895
 30
0.0
  0
ENDBLK
  5
56BE
330
56BC
100
AcDbEntity
  8
0
100
AcDbBlockEnd
  0
BLOCK
  5
56C9
330
56C8
100
AcDbEntity
  8
0
100
AcDbBlockBegin
  2
*D69
 70
     1
 10
0.0
 20
0.0
 30
0.0
  3
*D69
  1

  0
LINE
  5
56CB
330
56C8
100
AcDbEntity
  8
Dim
 62
     0
370
    -2
100
AcDbLine
 10
408.5687855957985
 20
1007.600462938989
 30
0.0
 11
408.5687855957985
 21
1113.226831248895
 31
0.0
  0
LINE
  5
56CC
330
56C8
100
AcDbEntity
  8
Dim
 62
     0
370
    -2
100
AcDbLine
 10
369.417275551049
 20
974.9873978066016
 30
0.0
 11
369.417275551049
 21
1113.226831248895
 31
0.0
  0
LINE
  5
56CD
330
56C8
100
AcDbEntity
  8
Dim
 62
     0
370
    -2
100
AcDbLine
 10
398.569395947361
 20
1113.226831248895
 30
0.0
 11
379.4166651994865
 21
1113.226831248895
 31
0.0
  0
INSERT
  5
56CE
330
56C8
100
AcDbEntity
  8
Dim
 62
     0
370
    -2
100
AcDbBlockReference
  2
_DOT
 10
408.5687855957985
 20
1113.226831248895
 30
0.0
 41
9.999389648437498
 42
9.999389648437498
 43
9.999389648437498
  0
INSERT
  5
56CF
330
56C8
100
AcDbEntity
  8
Dim
 62
     0
370
    -2
100
AcDbBlockReference
  2
_DOT
 10
369.417275551049
 20
1113.226831248895
 30
0.0
 41
9.999389648437498
 42
9.999389648437498
 43
9.999389648437498
 50
180.0
  0
MTEXT
  5
56D0
330
56C8
100
AcDbEntity
  8
Dim
 62
     0
100
AcDbMText
 10
388.9930305734238
 20
1135.443139842645
 30
0.0
 40
24.4326171875
 41
0.0
 46
0.0
 71
     5
 72
     1
  1
\A1;35
  7
ＭＳ ゴシック
 73
     1
 44
1.0
  0
POINT
  5
56D1
330
56C8
100
AcDbEntity
  8
Defpoints
 62
     0
100
AcDbPoint
 10
408.5687855957985
 20
982.600462938989
 30
0.0
  0
POINT
  5
56D2
330
56C8
100
AcDbEntity
  8
Defpoints
 62
     0
100
AcDbPoint
 10
369.417275551049
 20
949.9873978066016
 30
0.0
  0
POINT
  5
56D3
330
56C8
100
AcDbEntity
  8
Defpoints
 62
     0
100
AcDbPoint
 10
369.417275551049
 20
1113.226831248895
 30
0.0
  0
ENDBLK
  5
56CA
330
56C8
100
AcDbEntity
  8
0
100
AcDbBlockEnd
  0
BLOCK
  5
56D5
330
56D4
100
AcDbEntity
  8
0
100
AcDbBlockBegin
  2
*D70
 70
     1
 10
0.0
 20
0.0
 30
0.0
  3
*D70
  1

  0
LINE
  5
56D7
330
56D4
100
AcDbEntity
  8
Dim
 62
     0
370
    -2
100
AcDbLine
 10
1645.951660056314
 20
2214.856334891566
 30
0.0
 11
1645.951660056314
 21
2269.7749466928
 31
0.0
  0
LINE
  5
56D8
330
56D4
100
AcDbEntity
  8
Dim
 62
     0
370
    -2
100
AcDbLine
 10
1615.968044505929
 20
2215.847696847015
 30
0.0
 11
1615.968044505929
 21
2269.7749466928
 31
0.0
  0
LINE
  5
56D9
330
56D4
100
AcDbEntity
  8
Dim
 62
     0
370
    -2
100
AcDbLine
 10
1635.952270407877
 20
2269.7749466928
 30
0.0
 11
1625.967434154367
 21
2269.7749466928
 31
0.0
  0
INSERT
  5
56DA
330
56D4
100
AcDbEntity
  8
Dim
 62
     0
370
    -2
100
AcDbBlockReference
  2
_DOT
 10
1645.951660056314
 20
2269.7749466928
 30
0.0
 41
9.999389648437498
 42
9.999389648437498
 43
9.999389648437498
  0
INSERT
  5
56DB
330
56D4
100
AcDbEntity
  8
Dim
 62
     0
370
    -2
100
AcDbBlockReference
  2
_DOT
 10
1615.968044505929
 20
2269.7749466928
 30
0.0
 41
9.999389648437498
 42
9.999389648437498
 43
9.999389648437498
 50
180.0
  0
MTEXT
  5
56DC
330
56D4
100
AcDbEntity
  8
Dim
 62
     0
100
AcDbMText
 10
1631.37760390397
 20
2291.99125528655
 30
0.0
 40
24.4326171875
 41
0.0
 46
0.0
 71
     5
 72
     1
  1
\A1;30
  7
ＭＳ ゴシック
 73
     1
 44
1.0
  0
POINT
  5
56DD
330
56D4
100
AcDbEntity
  8
Defpoints
 62
     0
100
AcDbPoint
 10
1645.951660056314
 20
2189.856334891566
 30
0.0
  0
POINT
  5
56DE
330
56D4
100
AcDbEntity
  8
Defpoints
 62
     0
100
AcDbPoint
 10
1615.968044505929
 20
2190.847696847015
 30
0.0
  0
POINT
  5
56DF
330
56D4
100
AcDbEntity
  8
Defpoints
 62
     0
100
AcDbPoint
 10
1615.968044505929
 20
2269.7749466928
 30
0.0
  0
ENDBLK
  5
56D6
330
56D4
100
AcDbEntity
  8
0
100
AcDbBlockEnd
  0
BLOCK
  5
56E1
330
56E0
100
AcDbEntity
  8
0
100
AcDbBlockBegin
  2
*D71
 70
     1
 10
0.0
 20
0.0
 30
0.0
  3
*D71
  1

  0
LINE
  5
56E3
330
56E0
100
AcDbEntity
  8
Dim
 62
     0
370
    -2
100
AcDbLine
 10
1615.968044505929
 20
2215.847696847015
 30
0.0
 11
1615.968044505929
 21
2269.7749466928
 31
0.0
  0
LINE
  5
56E4
330
56E0
100
AcDbEntity
  8
Dim
 62
     0
370
    -2
100
AcDbLine
 10
1365.968044505929
 20
2215.847696847015
 30
0.0
 11
1365.968044505929
 21
2269.7749466928
 31
0.0
  0
LINE
  5
56E5
330
56E0
100
AcDbEntity
  8
Dim
 62
     0
370
    -2
100
AcDbLine
 10
1605.968654857492
 20
2269.7749466928
 30
0.0
 11
1375.967434154367
 21
2269.7749466928
 31
0.0
  0
INSERT
  5
56E6
330
56E0
100
AcDbEntity
  8
Dim
 62
     0
370
    -2
100
AcDbBlockReference
  2
_DOT
 10
1615.968044505929
 20
2269.7749466928
 30
0.0
 41
9.999389648437498
 42
9.999389648437498
 43
9.999389648437498
  0
INSERT
  5
56E7
330
56E0
100
AcDbEntity
  8
Dim
 62
     0
370
    -2
100
AcDbBlockReference
  2
_DOT
 10
1365.968044505929
 20
2269.7749466928
 30
0.0
 41
9.999389648437498
 42
9.999389648437498
 43
9.999389648437498
 50
180.0
  0
MTEXT
  5
56E8
330
56E0
100
AcDbEntity
  8
Dim
 62
     0
100
AcDbMText
 10
1490.968044505929
 20
2291.99125528655
 30
0.0
 40
24.4326171875
 41
0.0
 46
0.0
 71
     5
 72
     1
  1
\A1;250
  7
ＭＳ ゴシック
 73
     1
 44
1.0
  0
POINT
  5
56E9
330
56E0
100
AcDbEntity
  8
Defpoints
 62
     0
100
AcDbPoint
 10
1615.968044505929
 20
2190.847696847015
 30
0.0
  0
POINT
  5
56EA
330
56E0
100
AcDbEntity
  8
Defpoints
 62
     0
100
AcDbPoint
 10
1365.968044505929
 20
2190.847696847015
 30
0.0
  0
POINT
  5
56EB
330
56E0
100
AcDbEntity
  8
Defpoints
 62
     0
100
AcDbPoint
 10
1365.968044505929
 20
2269.7749466928
 30
0.0
  0
ENDBLK
  5
56E2
330
56E0
100
AcDbEntity
  8
0
100
AcDbBlockEnd
  0
BLOCK
  5
56ED
330
56EC
100
AcDbEntity
  8
0
100
AcDbBlockBegin
  2
*D72
 70
     1
 10
0.0
 20
0.0
 30
0.0
  3
*D72
  1

  0
LINE
  5
56EF
330
56EC
100
AcDbEntity
  8
Dim
 62
     0
370
    -2
100
AcDbLine
 10
1664.952573885369
 20
2203.803249684082
 30
0.0
 11
1744.710046688079
 21
2203.803249684082
 31
0.0
  0
LINE
  5
56F0
330
56EC
100
AcDbEntity
  8
Dim
 62
     0
370
    -2
100
AcDbLine
 10
1664.952573885369
 20
2138.803249684082
 30
0.0
 11
1744.710046688079
 21
2138.803249684082
 31
0.0
  0
LINE
  5
56F1
330
56EC
100
AcDbEntity
  8
Dim
 62
     0
370
    -2
100
AcDbLine
 10
1744.710046688079
 20
2193.803860035644
 30
0.0
 11
1744.710046688079
 21
2148.802639332519
 31
0.0
  0
INSERT
  5
56F2
330
56EC
100
AcDbEntity
  8
Dim
 62
     0
370
    -2
100
AcDbBlockReference
  2
_DOT
 10
1744.710046688079
 20
2203.803249684082
 30
0.0
 41
9.999389648437498
 42
9.999389648437498
 43
9.999389648437498
 50
90.0
  0
INSERT
  5
56F3
330
56EC
100
AcDbEntity
  8
Dim
 62
     0
370
    -2
100
AcDbBlockReference
  2
_DOT
 10
1744.710046688079
 20
2138.803249684082
 30
0.0
 41
9.999389648437498
 42
9.999389648437498
 43
9.999389648437498
 50
270.0
  0
MTEXT
  5
56F4
330
56EC
100
AcDbEntity
  8
Dim
 62
     0
100
AcDbMText
 10
1722.493738094329
 20
2171.303249684082
 30
0.0
 40
24.4326171875
 41
0.0
 46
0.0
 71
     5
 72
     1
  1
\A1;65
  7
ＭＳ ゴシック
 11
0.0
 21
1.0
 31
0.0
 73
     1
 44
1.0
  0
POINT
  5
56F5
330
56EC
100
AcDbEntity
  8
Defpoints
 62
     0
100
AcDbPoint
 10
1639.952573885369
 20
2203.803249684082
 30
0.0
  0
POINT
  5
56F6
330
56EC
100
AcDbEntity
  8
Defpoints
 62
     0
100
AcDbPoint
 10
1639.952573885369
 20
2138.803249684082
 30
0.0
  0
POINT
  5
56F7
330
56EC
100
AcDbEntity
  8
Defpoints
 62
     0
100
AcDbPoint
 10
1744.710046688079
 20
2138.803249684082
 30
0.0
  0
ENDBLK
  5
56EE
330
56EC
100
AcDbEntity
  8
0
100
AcDbBlockEnd
  0
BLOCK
  5
56F9
330
56F8
100
AcDbEntity
  8
0
100
AcDbBlockBegin
  2
*D73
 70
     1
 10
0.0
 20
0.0
 30
0.0
  3
*D73
  1

  0
LINE
  5
56FB
330
56F8
100
AcDbEntity
  8
Dim
 62
     0
370
    -2
100
AcDbLine
 10
1664.952573885369
 20
2138.803249684082
 30
0.0
 11
1744.710046688079
 21
2138.803249684082
 31
0.0
  0
LINE
  5
56FC
330
56F8
100
AcDbEntity
  8
Dim
 62
     0
370
    -2
100
AcDbLine
 10
1671.239069349762
 20
2039.00104542598
 30
0.0
 11
1744.710046688079
 21
2039.00104542598
 31
0.0
  0
LINE
  5
56FD
330
56F8
100
AcDbEntity
  8
Dim
 62
     0
370
    -2
100
AcDbLine
 10
1744.710046688079
 20
2128.803860035644
 30
0.0
 11
1744.710046688079
 21
2049.000435074418
 31
0.0
  0
INSERT
  5
56FE
330
56F8
100
AcDbEntity
  8
Dim
 62
     0
370
    -2
100
AcDbBlockReference
  2
_DOT
 10
1744.710046688079
 20
2138.803249684082
 30
0.0
 41
9.999389648437498
 42
9.999389648437498
 43
9.999389648437498
 50
90.0
  0
INSERT
  5
56FF
330
56F8
100
AcDbEntity
  8
Dim
 62
     0
370
    -2
100
AcDbBlockReference
  2
_DOT
 10
1744.710046688079
 20
2039.00104542598
 30
0.0
 41
9.999389648437498
 42
9.999389648437498
 43
9.999389648437498
 50
270.0
  0
MTEXT
  5
5700
330
56F8
100
AcDbEntity
  8
Dim
 62
     0
100
AcDbMText
 10
1722.493738094329
 20
2088.902147555031
 30
0.0
 40
24.4326171875
 41
0.0
 46
0.0
 71
     5
 72
     1
  1
\A1;100
  7
ＭＳ ゴシック
 11
0.0
 21
1.0
 31
0.0
 73
     1
 44
1.0
  0
POINT
  5
5701
330
56F8
100
AcDbEntity
  8
Defpoints
 62
     0
100
AcDbPoint
 10
1639.952573885369
 20
2138.803249684082
 30
0.0
  0
POINT
  5
5702
330
56F8
100
AcDbEntity
  8
Defpoints
 62
     0
100
AcDbPoint
 10
1646.239069349762
 20
2039.00104542598
 30
0.0
  0
POINT
  5
5703
330
56F8
100
AcDbEntity
  8
Defpoints
 62
     0
100
AcDbPoint
 10
1744.710046688079
 20
2039.00104542598
 30
0.0
  0
ENDBLK
  5
56FA
330
56F8
100
AcDbEntity
  8
0
100
AcDbBlockEnd
  0
BLOCK
  5
57AD
330
57AC
100
AcDbEntity
  8
0
100
AcDbBlockBegin
  2
*D74
 70
     1
 10
0.0
 20
0.0
 30
0.0
  3
*D74
  1

  0
LINE
  5
57AF
330
57AC
100
AcDbEntity
  8
Dim
 62
     0
370
    -2
100
AcDbLine
 10
773.3055143721463
 20
917.7612721762841
 30
0.0
 11
773.3055143721463
 21
850.6579775443203
 31
0.0
  0
LINE
  5
57B0
330
57AC
100
AcDbEntity
  8
Dim
 62
     0
370
    -2
100
AcDbLine
 10
523.3055143721463
 20
917.7612721762841
 30
0.0
 11
523.3055143721463
 21
850.6579775443203
 31
0.0
  0
LINE
  5
57B1
330
57AC
100
AcDbEntity
  8
Dim
 62
     0
370
    -2
100
AcDbLine
 10
763.3061247237088
 20
850.6579775443203
 30
0.0
 11
533.3049040205838
 21
850.6579775443203
 31
0.0
  0
INSERT
  5
57B2
330
57AC
100
AcDbEntity
  8
Dim
 62
     0
370
    -2
100
AcDbBlockReference
  2
_DOT
 10
773.3055143721463
 20
850.6579775443203
 30
0.0
 41
9.999389648437498
 42
9.999389648437498
 43
9.999389648437498
  0
INSERT
  5
57B3
330
57AC
100
AcDbEntity
  8
Dim
 62
     0
370
    -2
100
AcDbBlockReference
  2
_DOT
 10
523.3055143721463
 20
850.6579775443203
 30
0.0
 41
9.999389648437498
 42
9.999389648437498
 43
9.999389648437498
 50
180.0
  0
MTEXT
  5
57B4
330
57AC
100
AcDbEntity
  8
Dim
 62
     0
100
AcDbMText
 10
648.3055143721463
 20
872.8742861380703
 30
0.0
 40
24.4326171875
 41
0.0
 46
0.0
 71
     5
 72
     1
  1
\A1;250
  7
ＭＳ ゴシック
 73
     1
 44
1.0
  0
POINT
  5
57B5
330
57AC
100
AcDbEntity
  8
Defpoints
 62
     0
100
AcDbPoint
 10
773.3055143721463
 20
942.7612721762841
 30
0.0
  0
POINT
  5
57B6
330
57AC
100
AcDbEntity
  8
Defpoints
 62
     0
100
AcDbPoint
 10
523.3055143721463
 20
942.7612721762841
 30
0.0
  0
POINT
  5
57B7
330
57AC
100
AcDbEntity
  8
Defpoints
 62
     0
100
AcDbPoint
 10
523.3055143721463
 20
850.6579775443203
 30
0.0
  0
ENDBLK
  5
57AE
330
57AC
100
AcDbEntity
  8
0
100
AcDbBlockEnd
  0
ENDSEC
  0
SECTION
  2
ENTITIES
  0
MTEXT
  5
177
330
A
100
AcDbEntity
  8
template
390
1D
100
AcDbMText
 10
82.00000000048226
 20
348.023957835319
 30
0.0
 40
16.28841145833333
 41
0.0
 46
0.0
 71
     1
 72
     1
  1
品名
  7
ＭＳ ゴシック
 73
     1
 44
0.7828267384257843
  0
MTEXT
  5
178
330
A
100
AcDbEntity
  8
template
390
1D
100
AcDbMText
 10
82.00000000048226
 20
263.0239578353188
 30
0.0
 40
16.28841145833333
 41
0.0
 46
0.0
 71
     1
 72
     1
  1
仕様
  7
ＭＳ ゴシック
 73
     1
 44
0.7828267384257843
  0
LINE
  5
179
330
A
100
AcDbEntity
  8
template
390
1D
100
AcDbLine
 10
2025.0
 20
271.4388797103189
 30
0.0
 11
75.00000000000023
 21
271.4388797103189
 31
0.0
  0
LWPOLYLINE
  5
17A
330
A
100
AcDbEntity
  8
template
390
1D
100
AcDbPolyline
 90
        5
 70
   128
 43
0.0
 10
2025.0
 20
2901.438879710319
 10
75.00000000000023
 20
2901.438879710319
 10
75.00000000000023
 20
101.4388797103188
 10
2025.0
 20
101.4388797103188
 10
2025.0
 20
2901.438879710319
  0
LINE
  5
17B
330
A
100
AcDbEntity
  8
template
390
1D
100
AcDbLine
 10
2025.0
 20
356.4388797103188
 30
0.0
 11
75.00000000000023
 21
356.4388797103188
 31
0.0
  0
LINE
  5
17C
330
A
100
AcDbEntity
  8
template
390
1D
100
AcDbLine
 10
2025.000000000482
 20
186.4388797103189
 30
0.0
 11
1272.000000000482
 21
186.4388797103189
 31
0.0
  0
MTEXT
  5
17E
330
A
100
AcDbEntity
  8
template
390
1D
100
AcDbMText
 10
1301.871406252743
 20
156.5284852370108
 30
0.0
 40
24.4326171875
 41
0.0
 46
0.0
 71
     1
 72
     1
  1
大洋金物株式会社 ティーフォルム事業部
  7
ＭＳ ゴシック
 73
     1
 44
0.7828267384257843
  0
MTEXT
  5
180
330
A
100
AcDbEntity
  8
template
390
1D
100
AcDbMText
 10
1834.000000000742
 20
234.4414968978188
 30
0.0
 40
24.4326171875
 41
0.0
 46
0.0
 71
     1
 72
     1
  1
1:10
  7
ＭＳ ゴシック
 73
     1
 44
0.7828267384257843
  0
MTEXT
  5
181
330
A
100
AcDbEntity
  8
template
390
1D
100
AcDbMText
 10
1781.000000000742
 20
263.0239578353188
 30
0.0
 40
16.28841145833333
 41
0.0
 46
0.0
 71
     1
 72
     1
  1
縮尺
  7
ＭＳ ゴシック
 73
     1
 44
0.7828267384257843
  0
LINE
  5
182
330
A
100
AcDbEntity
  8
template
390
1D
100
AcDbLine
 10
1774.000000000742
 20
186.4388797103189
 30
0.0
 11
1774.000000000742
 21
271.4388797103189
 31
0.0
  0
MTEXT
  5
183
330
A
100
AcDbEntity
  8
template
390
1D
100
AcDbMText
 10
1530.000000000742
 20
263.0239578353188
 30
0.0
 40
16.28841145833333
 41
0.0
 46
0.0
 71
     1
 72
     1
  1
容量
  7
ＭＳ ゴシック
 73
     1
 44
0.7828267384257843
  0
LINE
  5
184
330
A
100
AcDbEntity
  8
template
390
1D
100
AcDbLine
 10
1523.000000000742
 20
186.4388797103189
 30
0.0
 11
1523.000000000742
 21
271.4388797103189
 31
0.0
  0
MTEXT
  5
185
330
A
100
AcDbEntity
  8
template
390
1D
100
AcDbMText
 10
1279.000000000742
 20
348.023957835319
 30
0.0
 40
16.28841145833333
 41
0.0
 46
0.0
 71
     1
 72
     1
  1
品番
  7
ＭＳ ゴシック
 73
     1
 44
0.7828267384257843
  0
MTEXT
  5
186
330
A
100
AcDbEntity
  8
template
390
1D
100
AcDbMText
 10
1279.000000000742
 20
263.0239578353188
 30
0.0
 40
16.28841145833333
 41
0.0
 46
0.0
 71
     1
 72
     1
  1
重量
  7
ＭＳ ゴシック
 73
     1
 44
0.7828267384257843
  0
MTEXT
  5
187
330
A
100
AcDbEntity
  8
template
390
1D
100
AcDbMText
 10
1332.000000000742
 20
319.4414968978188
 30
0.0
 40
24.4326171875
 41
0.0
 46
24.4326171875
 71
     1
 72
     1
  1
{ADF70-0622}
  7
ＭＳ ゴシック
 73
     1
 44
0.7828267384257843
1001
ACAD
1000
ACAD_MTEXT_DEFINED_HEIGHT_BEGIN
1070
    46
1040
24.4326171875
1000
ACAD_MTEXT_DEFINED_HEIGHT_END
  0
LINE
  5
188
330
A
100
AcDbEntity
  8
template
390
1D
100
AcDbLine
 10
1272.000000000742
 20
101.4388797103188
 30
0.0
 11
1272.000000000742
 21
356.4388797103188
 31
0.0
  0
MTEXT
  5
189
330
A
100
AcDbEntity
  8
template
390
1D
100
AcDbMText
 10
135.0000000004822
 20
319.4414968978188
 30
0.0
 40
24.4326171875
 41
0.0
 46
27.5355595703125
 71
     1
 72
     1
  1
{手洗器　-CATALANO, Verso-}
  7
ＭＳ ゴシック
 73
     1
 44
0.7828267384257843
1001
ACAD
1000
ACAD_MTEXT_DEFINED_HEIGHT_BEGIN
1070
    46
1040
27.5355595703125
1000
ACAD_MTEXT_DEFINED_HEIGHT_END
  0
MTEXT
  5
18A
330
A
100
AcDbEntity
  8
template
 62
     1
390
1D
100
AcDbMText
 10
135.0000000004822
 20
234.4414968978188
 30
0.0
 40
24.4326171875
 41
0.0
 46
68.99652178464815
 71
     1
 72
     1
  1
{{\C256;壁掛け、カウンター置き/オーバーフローなし/壁取付ボルト付属\P陶器、\H0.982293x;背面釉薬あり/\H1.01803x;ホワイト}}
  7
ＭＳ ゴシック
 73
     1
 44
0.9822934569727008
1001
ACAD
1000
ACAD_MTEXT_DEFINED_HEIGHT_BEGIN
1070
    46
1040
68.99652178464815
1000
ACAD_MTEXT_DEFINED_HEIGHT_END
  0
INSERT
  5
3D0
330
A
100
AcDbEntity
  8
template
100
AcDbBlockReference
  2
名称未設定-1
 10
1873.559250554905
 20
30.23897196054438
 30
0.0
 41
0.7619999999999999
 42
0.7619999999999999
 43
0.7619999999999999
  0
MTEXT
  5
BDB
102
{ACAD_XDICTIONARY
360
BDC
102
}
330
A
100
AcDbEntity
  8
template
  6
Continuous
100
AcDbMText
 10
78.95663872901252
 20
86.10730750352229
 30
0.0
 40
23.0
 41
0.0
 46
23.0
 71
     1
 72
     1
  1
{20170726N}
  7
ＭＳ ゴシック
 73
     1
 44
1.0
1001
ACAD
1000
ACAD_MTEXT_DEFINED_HEIGHT_BEGIN
1070
    46
1040
23.0
1000
ACAD_MTEXT_DEFINED_HEIGHT_END
  0
LWPOLYLINE
  5
BEE
330
A
100
AcDbEntity
  8
PRINT BORDER
100
AcDbPolyline
 90
        4
 70
     1
 43
0.0
 10
0.0
 20
0.0
 10
0.0
 20
2970.0
 10
2100.0
 20
2970.0
 10
2100.0
 20
0.0
  0
INSERT
  5
1273
330
A
100
AcDbEntity
  8
0
 62
     7
100
AcDbBlockReference
  2
BLOCK_2
 10
591.2037060744204
 20
943.564364962162
 30
0.0
  0
INSERT
  5
127B
330
A
100
AcDbEntity
  8
0
 62
     7
100
AcDbBlockReference
  2
BLOCK_2
 10
1291.863324028138
 20
1038.76992320659
 30
0.0
  0
INSERT
  5
127C
330
A
100
AcDbEntity
  8
0
 62
     7
100
AcDbBlockReference
  2
BLOCK_2
 10
652.1648429406905
 20
1595.641631888467
 30
0.0
  0
INSERT
  5
3B99
330
A
100
AcDbEntity
  8
retino
100
AcDbBlockReference
  2
mobile_latù
 10
-92101.31485198285
 20
1730.415535296608
 30
0.0
  0
INSERT
  5
467E
330
A
100
AcDbEntity
  8
retino
100
AcDbBlockReference
  2
mobile_latù
 10
-100894.893236163
 20
1696.039721945452
 30
0.0
  0
CIRCLE
  5
558F
330
A
100
AcDbEntity
  8
MODEL
100
AcDbCircle
 10
525.5578624575683
 20
2086.79606946932
 30
0.0
 40
22.0
  0
LINE
  5
5590
330
A
100
AcDbEntity
  8
MODEL
100
AcDbLine
 10
773.2882040317522
 20
1975.787975484802
 30
0.0
 11
773.2882040317522
 21
2197.804163513144
 31
0.0
  0
ARC
  5
5591
330
A
100
AcDbEntity
  8
MODEL
100
AcDbCircle
 10
767.2885380000844
 20
1975.788555345537
 30
0.0
 40
5.999666059695372
100
AcDbArc
 50
270.0055375704472
 51
359.9944624294095
  0
LINE
  5
5592
330
A
100
AcDbEntity
  8
MODEL
100
AcDbLine
 10
375.2729188741391
 20
1969.788889313864
 30
0.0
 11
767.2891178608152
 21
1969.788889313864
 31
0.0
  0
ARC
  5
5593
330
A
100
AcDbEntity
  8
MODEL
100
AcDbCircle
 10
375.2734987348704
 20
1975.788555345538
 30
0.0
 40
5.999666059696054
100
AcDbArc
 50
180.0055375705905
 51
269.9944624295528
  0
LINE
  5
5594
330
A
100
AcDbEntity
  8
MODEL
100
AcDbLine
 10
369.2738327032021
 20
2197.804163513144
 30
0.0
 11
369.2738327032021
 21
1975.787975484802
 31
0.0
  0
ARC
  5
5595
330
A
100
AcDbEntity
  8
MODEL
100
AcDbCircle
 10
375.2734987370313
 20
2197.80358365025
 30
0.0
 40
5.999666061854551
100
AcDbArc
 50
90.00553759087357
 51
179.9944624088007
  0
LINE
  5
5596
330
A
100
AcDbEntity
  8
MODEL
100
AcDbLine
 10
375.2729188741391
 20
2203.803249684082
 30
0.0
 11
767.2891178608152
 21
2203.803249684082
 31
0.0
  0
ARC
  5
5597
330
A
100
AcDbEntity
  8
MODEL
100
AcDbCircle
 10
767.2885379979234
 20
2197.80358365025
 30
0.0
 40
5.999666061853946
100
AcDbArc
 50
0.0055375911992841
 51
89.99446240912643
  0
SPLINE
  5
5598
330
A
100
AcDbEntity
  8
MODEL
100
AcDbSpline
210
0.0
220
0.0
230
1.0
 70
     8
 71
     3
 72
    51
 73
    47
 74
     0
 42
0.000000001
 43
0.0000000001
 40
0.0
 40
0.0
 40
0.0
 40
0.0
 40
27.72376602770056
 40
39.6066863381913
 40
48.5175842851363
 40
57.42925828830428
 40
66.34168378646874
 40
75.25481191214159
 40
78.59593499490697
 40
81.9382824007863
 40
83.6093748094074
 40
85.30097019733064
 40
87.05291730784664
 40
87.73398008459492
 40
88.87330092266708
 40
90.26116461321533
 40
92.3626125057903
 40
94.50461741787826
 40
97.66082213648602
 40
99.58104478622163
 40
103.185630312951
 40
107.0351887396911
 40
108.4796491789223
 40
111.8511869218043
 40
114.0190021034122
 40
117.1434195840821
 40
118.3374694970231
 40
119.2869303052548
 40
121.3947130836397
 40
122.7654731938931
 40
124.0983289723157
 40
124.5338802465472
 40
124.9654344994467
 40
126.6616217782772
 40
128.3355686305148
 40
131.6787556376717
 40
133.3511852819152
 40
138.3080865855456
 40
143.2648089910942
 40
150.7042148053492
 40
158.1431590464281
 40
169.3020743546599
 40
180.4598979246972
 40
197.1977755258167
 40
213.9329555907469
 40
248.477171057691
 40
248.477171057691
 40
248.477171057691
 40
248.477171057691
 10
670.7956643660546
 20
2086.796064444188
 30
0.0
 10
670.7956643660546
 20
2077.554471094999
 30
0.0
 10
670.7975882019923
 20
2064.351755269008
 30
0.0
 10
670.80330569333
 20
2048.178657264093
 30
0.0
 10
670.8078919977302
 20
2038.276436785839
 30
0.0
 10
670.8128555407411
 20
2029.364565387607
 30
0.0
 10
670.8186725419764
 20
2020.451411376725
 30
0.0
 10
670.823914560201
 20
2013.396856564312
 30
0.0
 10
670.8282090737953
 20
2008.195671731298
 30
0.0
 10
670.8309051729193
 20
2005.413664442087
 30
0.0
 10
670.8324878317835
 20
2003.175024080895
 30
0.0
 10
670.8343455611353
 20
2001.482169581432
 30
0.0
 10
670.8177278705002
 20
2000.170124406041
 30
0.0
 10
670.7747970875971
 20
1999.065245611616
 30
0.0
 10
670.7136814850855
 20
1998.091190377504
 30
0.0
 10
670.57095091668
 20
1996.714583496959
 30
0.0
 10
670.2937462741502
 20
1995.077193287522
 30
0.0
 10
669.7497296057081
 20
1992.982221598781
 30
0.0
 10
668.9929936425724
 20
1991.018404180848
 30
0.0
 10
667.8249637189983
 20
1988.782915118321
 30
0.0
 10
666.2687295870892
 20
1986.545040086867
 30
0.0
 10
664.4473170787714
 20
1984.709489853129
 30
0.0
 10
662.473584396229
 20
1983.1590811935
 30
0.0
 10
660.7487436268011
 20
1982.09127979207
 30
0.0
 10
658.4624724879282
 20
1981.046130841318
 30
0.0
 10
656.6670793178591
 20
1980.46922243177
 30
0.0
 10
655.163996754457
 20
1980.135415494706
 30
0.0
 10
653.9326871930571
 20
1979.918119812234
 30
0.0
 10
652.6240769468095
 20
1979.767381382939
 30
0.0
 10
651.1581012172792
 20
1979.682034459816
 30
0.0
 10
650.1724125507999
 20
1979.656590054314
 30
0.0
 10
649.4676615276803
 20
1979.647343853286
 30
0.0
 10
648.6391322009113
 20
1979.640492196108
 30
0.0
 10
647.3850235265231
 20
1979.640474293293
 30
0.0
 10
645.1459602931973
 20
1979.643415332322
 30
0.0
 10
642.916204941389
 20
1979.644719505476
 30
0.0
 10
639.5946605078893
 20
1979.649093116919
 30
0.0
 10
635.7307780612355
 20
1979.655138872912
 30
0.0
 10
629.9465380368811
 20
1979.661382048656
 30
0.0
 10
623.3344896402814
 20
1979.668729342757
 30
0.0
 10
614.6551291001551
 20
1979.677380897456
 30
0.0
 10
604.736193882959
 20
1979.686338895249
 30
0.0
 10
591.7175225887072
 20
1979.696479041469
 30
0.0
 10
576.8400212781812
 20
1979.705843223801
 30
0.0
 10
554.1667754819823
 20
1979.716073595515
 30
0.0
 10
537.0730219319121
 20
1979.719174558583
 30
0.0
 10
525.5578624575683
 20
1979.719174558583
 30
0.0
  0
SPLINE
  5
5599
330
A
100
AcDbEntity
  8
MODEL
100
AcDbSpline
210
0.0
220
0.0
230
1.0
 70
     8
 71
     3
 72
    53
 73
    49
 74
     0
 42
0.000000001
 43
0.0000000001
 40
0.0
 40
0.0
 40
0.0
 40
0.0
 40
39.60650290455561
 40
57.43041811752905
 40
75.25496036674569
 40
88.62354761292056
 40
101.9936762597623
 40
108.6795444103011
 40
115.3657612065419
 40
118.7098518013393
 40
120.3811771550189
 40
122.0515880581815
 40
122.8864259142294
 40
124.3607047894029
 40
125.4605918438319
 40
125.6880082814369
 40
126.1505859575664
 40
126.6228640159759
 40
127.3465150612493
 40
128.826349406653
 40
131.0366807003684
 40
131.8896438349638
 40
133.1625826947086
 40
134.4275214579232
 40
136.3110229588084
 40
138.1801695488487
 40
141.2708078729025
 40
146.1760308066837
 40
149.2322612816068
 40
151.0683937451271
 40
154.1416383832134
 40
155.3806438045854
 40
156.1967566973836
 40
157.8113683926734
 40
159.2134343538183
 40
160.2281636592933
 40
161.0288748682845
 40
162.5593639550097
 40
164.3840062018785
 40
166.560912324232
 40
168.0121435039951
 40
173.816902555709
 40
179.6212864112468
 40
187.4425051211165
 40
195.2628807658673
 40
206.9941521751821
 40
218.7228589567534
 40
248.7948141301214
 40
248.7948141301214
 40
248.7948141301214
 40
248.7948141301214
 10
525.5578624575683
 20
1979.719174832753
 30
0.0
 10
512.3560207165751
 20
1979.719174832753
 30
0.0
 10
493.2128013483411
 20
1979.722499762334
 30
0.0
 10
468.1277500042743
 20
1979.727421094339
 30
0.0
 10
451.7884991792271
 20
1979.72980058542
 30
0.0
 10
436.9338155776959
 20
1979.730486742051
 30
0.0
 10
425.7917687106701
 20
1979.729596129712
 30
0.0
 10
416.8777656319971
 20
1979.727904372242
 30
0.0
 10
411.3046764827413
 20
1979.726260838874
 30
0.0
 10
407.4051133817811
 20
1979.724863647461
 30
0.0
 10
405.1758356041933
 20
1979.724238023588
 30
0.0
 10
403.782752296388
 20
1979.723518895529
 30
0.0
 10
402.4551625206473
 20
1979.722802131881
 30
0.0
 10
401.3171175834241
 20
1979.720688324258
 30
0.0
 10
400.4165103772643
 20
1979.720096777621
 30
0.0
 10
399.8561667770291
 20
1979.724256138567
 30
0.0
 10
399.4968896394521
 20
1979.728804575411
 30
0.0
 10
398.99225181567
 20
1979.740048887971
 30
0.0
 10
398.1921059203123
 20
1979.770248217221
 30
0.0
 10
396.9014388860414
 20
1979.866294995966
 30
0.0
 10
395.5904809878302
 20
1980.06518949131
 30
0.0
 10
394.3534662598213
 20
1980.339716979473
 30
0.0
 10
393.3954920341739
 20
1980.600454133128
 30
0.0
 10
392.1645696724481
 20
1981.011949252981
 30
0.0
 10
390.7991782218551
 20
1981.578240158168
 30
0.0
 10
389.0025138948513
 20
1982.506786287711
 30
0.0
 10
386.5636879761691
 20
1984.130155134661
 30
0.0
 10
384.1787292845943
 20
1986.418099358214
 30
0.0
 10
382.4647639691352
 20
1988.780698177745
 30
0.0
 10
381.3001457792811
 20
1990.837287034893
 30
0.0
 10
380.5929992443744
 20
1992.513699307412
 30
0.0
 10
380.1593462000119
 20
1993.957055466977
 30
0.0
 10
379.903357235441
 20
1995.003261255354
 30
0.0
 10
379.703868758831
 20
1996.110565942397
 30
0.0
 10
379.5786602135522
 20
1997.299680662789
 30
0.0
 10
379.5240691959152
 20
1998.274470613862
 30
0.0
 10
379.4945462251371
 20
1999.313681046573
 30
0.0
 10
379.4889786983431
 20
2000.65148372341
 30
0.0
 10
379.4932650711589
 20
2002.497714607279
 30
0.0
 10
379.495121960691
 20
2004.314738083702
 30
0.0
 10
379.4993421014251
 20
2007.459424348546
 30
0.0
 10
379.5046093348392
 20
2011.812957987037
 30
0.0
 10
379.512028475302
 20
2018.290163223111
 30
0.0
 10
379.5193713785375
 20
2025.439213142377
 30
0.0
 10
379.527622414188
 20
2034.564057849051
 30
0.0
 10
379.5354302004589
 20
2044.991501170649
 30
0.0
 10
379.5455238375325
 20
2062.836681619366
 30
0.0
 10
379.5489333535916
 20
2076.771272377056
 30
0.0
 10
379.5489333535916
 20
2086.796064396612
 30
0.0
  0
SPLINE
  5
559A
330
A
100
AcDbEntity
  8
MODEL
100
AcDbSpline
210
0.0
220
0.0
230
1.0
 70
     8
 71
     3
 72
    53
 73
    49
 74
     0
 42
0.000000001
 43
0.0000000001
 40
0.0
 40
0.0
 40
0.0
 40
0.0
 40
39.60650290455561
 40
57.43041811752905
 40
75.25496036674569
 40
88.62354761292056
 40
101.9936762597623
 40
108.6795444103011
 40
115.3657612065419
 40
118.7098518013393
 40
120.3811771550189
 40
122.0515880581815
 40
122.8864259142294
 40
124.3607047894029
 40
125.4605918438319
 40
125.6880082814369
 40
126.1505859575664
 40
126.6228640159759
 40
127.3465150612493
 40
128.826349406653
 40
131.0366807003684
 40
131.8896438349638
 40
133.1625826947086
 40
134.4275214579233
 40
136.3110229588085
 40
138.1801695488488
 40
141.2708078729025
 40
146.1760308066836
 40
149.2322612816067
 40
151.0683937451271
 40
154.1416383832134
 40
155.3806438045853
 40
156.1967566973835
 40
157.8113683926734
 40
159.2134343538183
 40
160.2281636592932
 40
161.0288748682844
 40
162.5593639550097
 40
164.3840062018785
 40
166.560912324232
 40
168.0121435039951
 40
173.816902555709
 40
179.6212864112468
 40
187.4425051211166
 40
195.2628807658674
 40
206.9941521751823
 40
218.7228589567537
 40
248.7948141301212
 40
248.7948141301212
 40
248.7948141301212
 40
248.7948141301212
 10
525.5578624575683
 20
2193.872954055627
 30
0.0
 10
512.3560207165751
 20
2193.872954055627
 30
0.0
 10
493.2128013483411
 20
2193.869629126094
 30
0.0
 10
468.1277500042743
 20
2193.864707794165
 30
0.0
 10
451.7884991792271
 20
2193.862328303126
 30
0.0
 10
436.9338155776959
 20
2193.861642146505
 30
0.0
 10
425.7917687106701
 20
2193.862532758861
 30
0.0
 10
416.8777656319971
 20
2193.864224516283
 30
0.0
 10
411.3046764827413
 20
2193.865868049697
 30
0.0
 10
407.4051133817811
 20
2193.86726524102
 30
0.0
 10
405.1758356041933
 20
2193.867890864879
 30
0.0
 10
403.782752296388
 20
2193.868609992991
 30
0.0
 10
402.4551625206473
 20
2193.869326756754
 30
0.0
 10
401.3171175834241
 20
2193.871440564459
 30
0.0
 10
400.4165103772643
 20
2193.872032109089
 30
0.0
 10
399.8561667770291
 20
2193.867872745986
 30
0.0
 10
399.4968896394521
 20
2193.863324307481
 30
0.0
 10
398.99225181567
 20
2193.852079992113
 30
0.0
 10
398.1921059203123
 20
2193.821880657634
 30
0.0
 10
396.9014388860414
 20
2193.725833869172
 30
0.0
 10
395.5904809878302
 20
2193.526939364227
 30
0.0
 10
394.3534662598213
 20
2193.252411867731
 30
0.0
 10
393.3954920341739
 20
2192.991674708021
 30
0.0
 10
392.1645696724481
 20
2192.580179581014
 30
0.0
 10
390.7991782218551
 20
2192.013888668696
 30
0.0
 10
389.0025138948513
 20
2191.085342530876
 30
0.0
 10
386.5636879761691
 20
2189.461973674434
 30
0.0
 10
384.1787292845943
 20
2187.174029443794
 30
0.0
 10
382.4647639691352
 20
2184.811430620363
 30
0.0
 10
381.3001457792811
 20
2182.754841761165
 30
0.0
 10
380.5929992443744
 20
2181.078429487933
 30
0.0
 10
380.1593462000119
 20
2179.635073328456
 30
0.0
 10
379.903357235441
 20
2178.588867540378
 30
0.0
 10
379.703868758831
 20
2177.481562853941
 30
0.0
 10
379.5786602135522
 20
2176.292448134499
 30
0.0
 10
379.5240691959152
 20
2175.317658184204
 30
0.0
 10
379.4945462251371
 20
2174.278447752174
 30
0.0
 10
379.4889786983431
 20
2172.940645075785
 30
0.0
 10
379.4932650711589
 20
2171.094414191683
 30
0.0
 10
379.495121960691
 20
2169.277390715052
 30
0.0
 10
379.4993421014183
 20
2166.132704449839
 30
0.0
 10
379.5046093348392
 20
2161.779170810862
 30
0.0
 10
379.512028475302
 20
2155.301965574088
 30
0.0
 10
379.5193713785375
 20
2148.152915654099
 30
0.0
 10
379.527622414188
 20
2139.028070946577
 30
0.0
 10
379.5354302004589
 20
2128.600627624136
 30
0.0
 10
379.5455238375325
 20
2110.755447174277
 30
0.0
 10
379.5489333535916
 20
2096.820856416164
 30
0.0
 10
379.5489333535916
 20
2086.796064396612
 30
0.0
  0
SPLINE
  5
559B
330
A
100
AcDbEntity
  8
MODEL
100
AcDbSpline
210
0.0
220
0.0
230
1.0
 70
     8
 71
     3
 72
    51
 73
    47
 74
     0
 42
0.000000001
 43
0.0000000001
 40
0.0
 40
0.0
 40
0.0
 40
0.0
 40
27.72376602770055
 40
39.60668633819128
 40
48.51758428513629
 40
57.42925828830426
 40
66.34168378646874
 40
75.2548119121416
 40
78.59593499490697
 40
81.93828240078632
 40
83.6093748094074
 40
85.30097019733064
 40
87.05291730784666
 40
87.73398008459492
 40
88.87330092266707
 40
90.26116461321533
 40
92.3626125057903
 40
94.50461741787825
 40
97.660822136486
 40
99.58104478622165
 40
103.185630312951
 40
107.0351887396912
 40
108.4796491789223
 40
111.8511869218043
 40
114.0190021034123
 40
117.1434195840821
 40
118.3374694970232
 40
119.2869303052548
 40
121.3947130836398
 40
122.7654731938932
 40
124.0983289723158
 40
124.5338802465472
 40
124.9654344994468
 40
126.6616217782773
 40
128.3355686305148
 40
131.6787556376718
 40
133.3511852819152
 40
138.3080865855456
 40
143.2648089910942
 40
150.7042148053492
 40
158.1431590464282
 40
169.3020743546599
 40
180.4598979246972
 40
197.1977755258167
 40
213.9329555907469
 40
248.477171057691
 40
248.477171057691
 40
248.477171057691
 40
248.477171057691
 10
670.7956643660546
 20
2086.796064444188
 30
0.0
 10
670.7956643660546
 20
2096.037657793377
 30
0.0
 10
670.7975882019923
 20
2109.240373619506
 30
0.0
 10
670.80330569333
 20
2125.413471624826
 30
0.0
 10
670.8078919977302
 20
2135.315692103401
 30
0.0
 10
670.8128555407411
 20
2144.227563501976
 30
0.0
 10
670.8186725419764
 20
2153.140717513264
 30
0.0
 10
670.823914560201
 20
2160.195272326024
 30
0.0
 10
670.8282090737953
 20
2165.396457159352
 30
0.0
 10
670.8309051729193
 20
2168.178464448708
 30
0.0
 10
670.8324878317835
 20
2170.417104810095
 30
0.0
 10
670.8343455611353
 20
2172.109959309445
 30
0.0
 10
670.8177278705002
 20
2173.422004484165
 30
0.0
 10
670.7747970875971
 20
2174.526883277759
 30
0.0
 10
670.7136814850855
 20
2175.500938510986
 30
0.0
 10
670.57095091668
 20
2176.877545390028
 30
0.0
 10
670.2937462741502
 20
2178.514935597221
 30
0.0
 10
669.7497296057081
 20
2180.609907282405
 30
0.0
 10
668.9929936425724
 20
2182.573724696716
 30
0.0
 10
667.8249637189983
 20
2184.809213755766
 30
0.0
 10
666.2687295870892
 20
2187.047088785068
 30
0.0
 10
664.4473170787783
 20
2188.882639019473
 30
0.0
 10
662.473584396229
 20
2190.433047681487
 30
0.0
 10
660.7487436268011
 20
2191.500849085954
 30
0.0
 10
658.4624724879282
 20
2192.545998041056
 30
0.0
 10
656.6670793178591
 20
2193.122906453493
 30
0.0
 10
655.163996754457
 20
2193.456713392437
 30
0.0
 10
653.9326871930571
 20
2193.674009076331
 30
0.0
 10
652.6240769468095
 20
2193.824747507098
 30
0.0
 10
651.1581012172792
 20
2193.910094431806
 30
0.0
 10
650.1724125507999
 20
2193.93553883815
 30
0.0
 10
649.4676615276803
 20
2193.944785039611
 30
0.0
 10
648.6391322009113
 20
2193.951636697202
 30
0.0
 10
647.3850235265231
 20
2193.95165460027
 30
0.0
 10
645.1459602931973
 20
2193.948713561168
 30
0.0
 10
642.916204941389
 20
2193.947409387833
 30
0.0
 10
639.5946605078893
 20
2193.943035776179
 30
0.0
 10
635.7307780612355
 20
2193.936990019874
 30
0.0
 10
629.9465380368811
 20
2193.93074684369
 30
0.0
 10
623.3344896402814
 20
2193.923399549112
 30
0.0
 10
614.6551291001551
 20
2193.914747993827
 30
0.0
 10
604.736193882959
 20
2193.905789995428
 30
0.0
 10
591.7175225887072
 20
2193.895649848508
 30
0.0
 10
576.8400212781812
 20
2193.886285665524
 30
0.0
 10
554.1667754819823
 20
2193.876055293088
 30
0.0
 10
537.0730219319121
 20
2193.872954329799
 30
0.0
 10
525.5578624575683
 20
2193.872954329799
 30
0.0
  0
LINE
  5
559C
330
A
100
AcDbEntity
  8
MODEL
100
AcDbLine
 10
375.2729188741391
 20
2203.803554295297
 30
0.0
 11
767.2891178608152
 21
2203.803554295297
 31
0.0
  0
LINE
  5
559D
330
A
100
AcDbEntity
  8
MODEL
100
AcDbLine
 10
369.2735280935121
 20
2197.804163514671
 30
0.0
 11
369.2735280935121
 21
1975.787975486328
 31
0.0
  0
LINE
  5
559E
330
A
100
AcDbEntity
  8
MODEL
100
AcDbLine
 10
375.2729188741391
 20
1969.788584705702
 30
0.0
 11
767.2891178608152
 21
1969.788584705702
 31
0.0
  0
LINE
  5
559F
330
A
100
AcDbEntity
  8
MODEL
100
AcDbLine
 10
773.2885086414421
 20
1975.787975486328
 30
0.0
 11
773.2885086414421
 21
2197.804163514671
 31
0.0
  0
SPLINE
  5
55A0
330
A
100
AcDbEntity
  8
MODEL
100
AcDbSpline
210
0.0
220
0.0
230
1.0
 70
     8
 71
     3
 72
    15
 73
    11
 74
     0
 42
0.000000001
 43
0.0000000001
 40
0.0
 40
0.0
 40
0.0
 40
0.0
 40
0.7098471173127151
 40
1.862976083023365
 40
4.703906412332411
 40
5.868672637541976
 40
7.498607797228515
 40
9.278546878078133
 40
11.95357244106293
 40
13.6006603034639
 40
13.6006603034639
 40
13.6006603034639
 40
13.6006603034639
 10
1549.778519214378
 20
940.7263979709248
 30
0.0
 10
1549.778519224637
 20
940.7263979605857
 30
0.0
 10
1549.753031510292
 20
940.7263979334318
 30
0.0
 10
1549.520693256541
 20
940.7263978655035
 30
0.0
 10
1548.875520246707
 20
940.7263977947375
 30
0.0
 10
1547.795823477696
 20
940.7263977273112
 30
0.0
 10
1546.727591147668
 20
940.7263976793263
 30
0.0
 10
1545.046848118915
 20
940.7263976288457
 30
0.0
 10
1543.110417340313
 20
940.7263975984467
 30
0.0
 10
1541.668151481564
 20
940.7263975924513
 30
0.0
 10
1541.119942805169
 20
940.7263975924513
 30
0.0
  0
LINE
  5
55A1
330
A
100
AcDbEntity
  8
MODEL
100
AcDbLine
 10
1335.015640891397
 20
940.7263979709321
 30
0.0
 11
1343.674218057509
 21
940.7263975924513
 31
0.0
  0
LINE
  5
55A2
330
A
100
AcDbEntity
  8
MODEL
100
AcDbLine
 10
1350.246797873784
 20
940.7263975924513
 30
0.0
 11
1343.674218057509
 21
940.7263975924513
 31
0.0
  0
LINE
  5
55A3
330
A
100
AcDbEntity
  8
MODEL
100
AcDbLine
 10
1534.547362669793
 20
940.7263975924513
 30
0.0
 11
1541.119942805169
 21
940.7263975924513
 31
0.0
  0
ARC
  5
55A4
330
A
100
AcDbEntity
  8
MODEL
100
AcDbCircle
 10
1521.966671710419
 20
940.2263961791257
 30
0.0
 40
0.4999999999999979
100
AcDbArc
 50
121.7553711953379
 51
179.9997371260959
  0
ARC
  5
55A5
330
A
100
AcDbEntity
  8
MODEL
100
AcDbCircle
 10
1362.827491978911
 20
940.2263961791257
 30
0.0
 40
0.4999999999999979
100
AcDbArc
 50
0.0002945093860284
 51
58.24462880466206
  0
LINE
  5
55A6
330
A
100
AcDbEntity
  8
MODEL
100
AcDbLine
 10
1363.827491956944
 20
939.7264007671408
 30
0.0
 11
1520.966671710433
 21
939.7264007671408
 31
0.0
  0
ARC
  5
55A7
330
A
100
AcDbEntity
  8
MODEL
100
AcDbCircle
 10
1363.827491978903
 20
940.2264007671408
 30
0.0
 40
0.4999999999999997
100
AcDbArc
 50
180.0002945102198
 51
270.0
  0
ARC
  5
55A8
330
A
100
AcDbEntity
  8
MODEL
100
AcDbCircle
 10
1520.966671710433
 20
940.2264007671408
 30
0.0
 40
0.5000000000000001
100
AcDbArc
 50
270.0
 51
359.9997371252621
  0
LINE
  5
55A9
330
A
100
AcDbEntity
  8
MODEL
100
AcDbLine
 10
1332.407668891165
 20
1060.726393065831
 30
0.0
 11
1552.390373522102
 21
1060.726391055825
 31
0.0
  0
ARC
  5
55AA
330
A
100
AcDbEntity
  8
HIDDEN
100
AcDbCircle
 10
1552.397078752539
 20
1057.726398549189
 30
0.0
 40
2.999999999999989
100
AcDbArc
 50
90.0
 51
166.9999319069892
  0
LINE
  5
55AB
330
A
100
AcDbEntity
  8
HIDDEN
100
AcDbLine
 10
1549.464749825187
 20
1058.399653874265
 30
0.0
 11
1549.463611865895
 21
1058.399425784898
 31
0.0
  0
ARC
  5
55AC
330
A
100
AcDbEntity
  8
HIDDEN
100
AcDbCircle
 10
1332.39708019667
 20
1057.726398549189
 30
0.0
 40
2.999999999999976
100
AcDbArc
 50
13.00006809301075
 51
90.0
  0
SPLINE
  5
55AD
330
A
100
AcDbEntity
  8
HIDDEN
100
AcDbSpline
210
0.0
220
0.0
230
1.0
 70
     8
 71
     7
 72
    81
 73
    73
 74
     0
 42
0.000000001
 43
0.0000000001
 40
0.0158168239846289
 40
0.0158168239846289
 40
0.0158168239846289
 40
0.0158168239846289
 40
0.0158168239846289
 40
0.0158168239846289
 40
0.0158168239846289
 40
0.0158168239846289
 40
0.0793378983814982
 40
0.0793378983814982
 40
0.0793378983814982
 40
0.0793378983814982
 40
0.0793378983814982
 40
0.0848000000000001
 40
0.0848000000000001
 40
0.0848000000000001
 40
0.0848000000000001
 40
0.0848000000000001
 40
0.1341461829439534
 40
0.1341461829439534
 40
0.1341461829439534
 40
0.1341461829439534
 40
0.1341461829439534
 40
0.3121988706956286
 40
0.3121988706956286
 40
0.3121988706956286
 40
0.3121988706956286
 40
0.3121988706956286
 40
0.3595520000000002
 40
0.3595520000000002
 40
0.3595520000000002
 40
0.3595520000000002
 40
0.3595520000000002
 40
0.4240000000000002
 40
0.4240000000000002
 40
0.4240000000000002
 40
0.4240000000000002
 40
0.4240000000000002
 40
0.4280521235210766
 40
0.4280521235210766
 40
0.4280521235210766
 40
0.4280521235210766
 40
0.4280521235210766
 40
0.53
 40
0.53
 40
0.53
 40
0.53
 40
0.53
 40
0.6287
 40
0.6287
 40
0.6287
 40
0.6287
 40
0.6287
 40
0.6816191026836624
 40
0.6816191026836624
 40
0.6816191026836624
 40
0.6816191026836624
 40
0.6816191026836624
 40
0.6866228000000001
 40
0.6866228000000001
 40
0.6866228000000001
 40
0.6866228000000001
 40
0.6866228000000001
 40
0.8602533794676832
 40
0.8602533794676832
 40
0.8602533794676832
 40
0.8602533794676832
 40
0.8602533794676832
 40
0.9183140000000001
 40
0.9183140000000001
 40
0.9183140000000001
 40
0.9183140000000001
 40
0.9183140000000001
 40
0.9549448285305199
 40
0.9549448285305199
 40
0.9549448285305199
 40
0.9549448285305199
 40
0.9549448285305199
 40
0.9549448285305199
 40
0.9549448285305199
 40
0.9549448285305199
 10
1549.473969360253
 20
1058.401255186175
 30
0.0
 10
1549.165985115367
 20
1057.067236093055
 30
0.0
 10
1548.857980091845
 20
1055.733141722427
 30
0.0
 10
1548.549950441833
 20
1054.398979742233
 30
0.0
 10
1548.241912559977
 20
1053.064872070638
 30
0.0
 10
1547.933880490156
 20
1051.730962999333
 30
0.0
 10
1547.599353041412
 20
1050.28263992347
 30
0.0
 10
1547.264743386316
 20
1048.834517280615
 30
0.0
 10
1547.238248372232
 20
1048.719855837772
 30
0.0
 10
1547.211752760827
 20
1048.605195522549
 30
0.0
 10
1547.185256507153
 20
1048.490536256861
 30
0.0
 10
1546.919378618615
 20
1047.340022155091
 30
0.0
 10
1546.653426101918
 20
1046.189595094126
 30
0.0
 10
1546.413871100892
 20
1045.153801631438
 30
0.0
 10
1546.174156776302
 20
1044.11787010028
 30
0.0
 10
1545.934230055798
 20
1043.081692770495
 30
0.0
 10
1544.827376197579
 20
1038.305290869561
 30
0.0
 10
1543.713872196989
 20
1033.521713880662
 30
0.0
 10
1542.835597625962
 20
1029.770716171341
 30
0.0
 10
1541.948879345109
 20
1026.021054366822
 30
0.0
 10
1541.05187289023
 20
1022.292315171224
 30
0.0
 10
1539.893787864385
 20
1017.600522613583
 30
0.0
 10
1538.672646724415
 20
1012.93363403876
 30
0.0
 10
1538.412921698087
 20
1011.954183032555
 30
0.0
 10
1538.149532489966
 20
1010.975521984161
 30
0.0
 10
1537.881921795342
 20
1009.997443036242
 30
0.0
 10
1537.238587046646
 20
1007.689062058802
 30
0.0
 10
1536.563871500919
 20
1005.381787913444
 30
0.0
 10
1536.162599080031
 20
1004.051758593538
 30
0.0
 10
1535.746726835401
 20
1002.721599093457
 30
0.0
 10
1535.313568501762
 20
1001.391629168619
 30
0.0
 10
1534.831350361026
 20
999.979369924222
 30
0.0
 10
1534.321687117597
 20
998.5709941422399
 30
0.0
 10
1534.291441006615
 20
998.4876958290049
 30
0.0
 10
1534.261096948786
 20
998.4044122045459
 30
0.0
 10
1534.230653984609
 20
998.3211438467049
 30
0.0
 10
1533.43168020308
 20
996.1433315505351
 30
0.0
 10
1532.563702208601
 20
993.9767955831201
 30
0.0
 10
1531.64964572389
 20
991.9133123415529
 30
0.0
 10
1530.638907220708
 20
989.8873941993879
 30
0.0
 10
1529.507013949361
 20
987.924179514463
 30
0.0
 10
1527.013572333628
 20
984.2612406203989
 30
0.0
 10
1524.033949115561
 20
981.0991626183029
 30
0.0
 10
1522.4586176742
 20
979.689523109388
 30
0.0
 10
1520.801710099236
 20
978.44286469531
 30
0.0
 10
1519.107188832626
 20
977.342670859136
 30
0.0
 10
1516.487944204614
 20
975.848910646564
 30
0.0
 10
1513.892803977374
 20
974.612509664214
 30
0.0
 10
1512.993117499419
 20
974.209442857195
 30
0.0
 10
1512.101944064626
 20
973.83200112296
 30
0.0
 10
1511.221042381388
 20
973.477617245554
 30
0.0
 10
1510.269332331394
 20
973.112419880047
 30
0.0
 10
1509.331963180477
 20
972.769551546874
 30
0.0
 10
1509.251095455743
 20
972.74009750905
 30
0.0
 10
1509.170335658505
 20
972.710806574739
 30
0.0
 10
1509.089684175466
 20
972.681677007896
 30
0.0
 10
1506.214268511065
 20
971.647437736473
 30
0.0
 10
1503.477716902765
 20
970.81450800469
 30
0.0
 10
1500.958921451376
 20
970.123314385798
 30
0.0
 10
1498.542173572954
 20
969.509344760758
 30
0.0
 10
1496.153074650457
 20
968.941800241614
 30
0.0
 10
1492.945421826937
 20
968.223990095889
 30
0.0
 10
1489.691917356009
 20
967.54515793152
 30
0.0
 10
1488.873314549237
 20
967.37720502988
 30
0.0
 10
1488.051400558345
 20
967.211235902528
 30
0.0
 10
1487.226544968456
 20
967.047168522048
 30
0.0
 10
1485.877563391251
 20
966.782656835109
 30
0.0
 10
1484.524385944263
 20
966.52309404099
 30
0.0
 10
1484.000456007328
 20
966.42341877387
 30
0.0
 10
1483.476238611176
 20
966.324475027702
 30
0.0
 10
1482.951899687548
 20
966.226258367948
 30
0.0
 10
1482.427582227646
 20
966.128760943357
 30
0.0
 10
1481.90339113053
 20
966.031969133278
 30
0.0
  0
SPLINE
  5
55AE
330
A
100
AcDbEntity
  8
HIDDEN
100
AcDbSpline
210
0.0
220
0.0
230
1.0
 70
     8
 71
     3
 72
    71
 73
    67
 74
     0
 42
0.000000001
 43
0.0000000001
 40
0.0
 40
0.0
 40
0.0
 40
0.0
 40
1.010460155541152
 40
2.020908421678659
 40
3.031333051282118
 40
4.041722632780183
 40
5.052066445254638
 40
6.062354969022421
 40
7.072580398935362
 40
8.082737004862283
 40
9.092821365942434
 40
10.10283266121981
 40
11.11277300673169
 40
12.12264777128402
 40
13.13246589872904
 40
14.14224026021186
 40
15.15198805703708
 40
16.16173128550989
 40
17.17149727118146
 40
18.18131928924368
 40
19.19123729509605
 40
20.20129873889439
 40
21.21155915953748
 40
22.22208199719847
 40
23.23293731481678
 40
24.24419913529517
 40
25.25594248810301
 40
26.26825385589912
 40
27.28123038550129
 40
28.29495381117959
 40
29.30947801827882
 40
30.32482603627574
 40
31.34099482934332
 40
32.35797410332103
 40
33.37576851713867
 40
34.3944048048778
 40
35.4139440583979
 40
36.4344546225357
 40
37.45597056500087
 40
38.47852620410938
 40
39.50216800743719
 40
40.52694699815464
 40
41.55291315969949
 40
42.5801135016842
 40
43.60859090389729
 40
44.63838312645832
 40
45.66952172456796
 40
46.70203078772397
 40
47.73592559346307
 40
48.77121128316243
 40
49.80788133857268
 40
50.84591582663797
 40
51.88528022773362
 40
52.9259239652114
 40
53.96777809007732
 40
55.01075338591813
 40
56.05474085006236
 40
57.09961503414058
 40
58.14523701350851
 40
59.19145697416224
 40
60.23812986376957
 40
61.28513390180211
 40
62.33237531642204
 40
63.3797811138952
 40
64.42729016739283
 40
65.47484853641112
 40
65.47484853641112
 40
65.47484853641112
 40
65.47484853641112
 10
1442.397081203904
 20
965.660235778233
 30
0.0
 10
1442.720884904985
 20
965.660215343117
 30
0.0
 10
1443.367972921827
 20
965.66027084212
 30
0.0
 10
1444.338471482071
 20
965.660375217086
 30
0.0
 10
1445.307759365794
 20
965.660574745409
 30
0.0
 10
1446.275426732165
 20
965.660854793598
 30
0.0
 10
1447.240883212332
 20
965.661228893522
 30
0.0
 10
1448.203583481627
 20
965.661706564301
 30
0.0
 10
1449.162966571188
 20
965.662299928656
 30
0.0
 10
1450.118472464411
 20
965.663020742563
 30
0.0
 10
1451.069537829396
 20
965.663881686539
 30
0.0
 10
1452.015597283636
 20
965.664896408453
 30
0.0
 10
1452.956083433025
 20
965.666079435142
 30
0.0
 10
1453.890427318772
 20
965.667446335204
 30
0.0
 10
1454.818058765863
 20
965.669013940788
 30
0.0
 10
1455.738406739561
 20
965.670800636159
 30
0.0
 10
1456.65089969374
 20
965.672826645205
 30
0.0
 10
1457.554965948598
 20
965.675114272607
 30
0.0
 10
1458.450034042144
 20
965.677688166682
 30
0.0
 10
1459.335533101722
 20
965.680575516112
 30
0.0
 10
1460.210893007832
 20
965.683806377864
 30
0.0
 10
1461.075544712148
 20
965.687413680681
 30
0.0
 10
1461.928921738196
 20
965.691431474123
 30
0.0
 10
1462.770463486456
 20
965.695891533892
 30
0.0
 10
1463.599618852975
 20
965.700818521313
 30
0.0
 10
1464.41584786518
 20
965.706229943252
 30
0.0
 10
1465.218643984088
 20
965.71211666309
 30
0.0
 10
1466.007458336556
 20
965.718502543802
 30
0.0
 10
1466.781733218485
 20
965.725436467598
 30
0.0
 10
1467.540998032462
 20
965.732889389263
 30
0.0
 10
1468.284830948126
 20
965.740785277573
 30
0.0
 10
1469.012854402323
 20
965.749023956779
 30
0.0
 10
1469.724725596053
 20
965.757494389262
 30
0.0
 10
1470.420095546309
 20
965.766105269672
 30
0.0
 10
1471.098555948956
 20
965.774820721614
 30
0.0
 10
1471.759680465118
 20
965.78364552388
 30
0.0
 10
1472.402945910958
 20
965.792633215541
 30
0.0
 10
1473.027863945716
 20
965.801862561603
 30
0.0
 10
1473.634113337866
 20
965.811302974384
 30
0.0
 10
1474.221316024224
 20
965.820925233137
 30
0.0
 10
1474.789078568595
 20
965.830725481276
 30
0.0
 10
1475.337021386854
 20
965.840701809656
 30
0.0
 10
1475.864785157863
 20
965.850844968766
 30
0.0
 10
1476.372028893114
 20
965.861138363013
 30
0.0
 10
1476.858429817395
 20
965.871558891952
 30
0.0
 10
1477.32368297028
 20
965.882077907016
 30
0.0
 10
1477.767501452028
 20
965.892661872437
 30
0.0
 10
1478.18961706107
 20
965.903272720309
 30
0.0
 10
1478.589781055365
 20
965.913868052456
 30
0.0
 10
1478.967764649329
 20
965.924401376361
 30
0.0
 10
1479.323360129397
 20
965.934822359349
 30
0.0
 10
1479.6563829703
 20
965.945076541045
 30
0.0
 10
1479.966671662194
 20
965.955105615977
 30
0.0
 10
1480.254089397167
 20
965.964847776989
 30
0.0
 10
1480.518528212465
 20
965.974236985182
 30
0.0
 10
1480.759912740693
 20
965.983201900621
 30
0.0
 10
1480.978200519712
 20
965.991665797563
 30
0.0
 10
1481.173377893537
 20
965.999547993627
 30
0.0
 10
1481.345460067052
 20
966.006765789506
 30
0.0
 10
1481.494504516849
 20
966.013229764206
 30
0.0
 10
1481.62058250376
 20
966.018848140121
 30
0.0
 10
1481.723741374458
 20
966.023542847245
 30
0.0
 10
1481.803995096727
 20
966.027256966576
 30
0.0
 10
1481.861331626103
 20
966.029949580189
 30
0.0
 10
1481.895749133684
 20
966.031589794606
 30
0.0
 10
1481.903381508323
 20
966.031956419633
 30
0.0
 10
1481.903393080487
 20
966.031958573157
 30
0.0
  0
SPLINE
  5
55AF
330
A
100
AcDbEntity
  8
HIDDEN
100
AcDbSpline
210
0.0
220
0.0
230
1.0
 70
     8
 71
     3
 72
    71
 73
    67
 74
     0
 42
0.000000001
 43
0.0000000001
 40
0.0
 40
0.0
 40
0.0
 40
0.0
 40
1.010460155541152
 40
2.02090842167866
 40
3.031333051282118
 40
4.041722632780184
 40
5.052066445254639
 40
6.062354969022421
 40
7.072580398935362
 40
8.082737004862286
 40
9.092821365942434
 40
10.10283266121981
 40
11.11277300673169
 40
12.12264777128403
 40
13.13246589872904
 40
14.14224026021187
 40
15.15198805703708
 40
16.16173128550989
 40
17.17149727118146
 40
18.18131928924368
 40
19.19123729509606
 40
20.2012987388944
 40
21.21155915953749
 40
22.22208199719848
 40
23.23293731481679
 40
24.24419913529517
 40
25.25594248810302
 40
26.26825385589912
 40
27.28123038550129
 40
28.29495381117959
 40
29.30947801827883
 40
30.32482603627575
 40
31.34099482934333
 40
32.35797410332105
 40
33.37576851713868
 40
34.39440480487782
 40
35.41394405839792
 40
36.43445462253572
 40
37.45597056500088
 40
38.47852620410939
 40
39.50216800743721
 40
40.52694699815465
 40
41.5529131596995
 40
42.58011350168422
 40
43.6085909038973
 40
44.63838312645834
 40
45.66952172456796
 40
46.70203078772398
 40
47.73592559346307
 40
48.77121128316243
 40
49.80788133857268
 40
50.84591582663797
 40
51.88528022773362
 40
52.9259239652114
 40
53.96777809007732
 40
55.01075338591814
 40
56.05474085006237
 40
57.0996150341406
 40
58.14523701350853
 40
59.19145697416226
 40
60.23812986376959
 40
61.28513390180213
 40
62.33237531642206
 40
63.37978111389522
 40
64.42729016739284
 40
65.47484853641114
 40
65.47484853641114
 40
65.47484853641114
 40
65.47484853641114
 10
1442.397081203904
 20
965.660235778233
 30
0.0
 10
1442.073277502691
 20
965.660215343109
 30
0.0
 10
1441.42618948526
 20
965.66027084212
 30
0.0
 10
1440.455690921888
 20
965.660375217086
 30
0.0
 10
1439.486403033042
 20
965.660574745409
 30
0.0
 10
1438.518735659571
 20
965.660854793598
 30
0.0
 10
1437.553279170206
 20
965.661228893522
 30
0.0
 10
1436.590578889728
 20
965.661706564316
 30
0.0
 10
1435.631195786889
 20
965.662299928656
 30
0.0
 10
1434.675689878429
 20
965.663020742563
 30
0.0
 10
1433.724624496208
 20
965.663881686531
 30
0.0
 10
1432.778565022541
 20
965.664896408439
 30
0.0
 10
1431.838078851833
 20
965.666079435142
 30
0.0
 10
1430.903734942694
 20
965.667446335204
 30
0.0
 10
1429.976103470333
 20
965.669013940788
 30
0.0
 10
1429.055755469387
 20
965.670800636159
 30
0.0
 10
1428.143262485994
 20
965.672826645205
 30
0.0
 10
1427.239196199829
 20
965.675114272614
 30
0.0
 10
1426.344128072982
 20
965.677688166689
 30
0.0
 10
1425.458628978369
 20
965.680575516119
 30
0.0
 10
1424.583269035233
 20
965.683806377864
 30
0.0
 10
1423.718617292026
 20
965.687413680673
 30
0.0
 10
1422.865240225123
 20
965.69143147413
 30
0.0
 10
1422.023698434379
 20
965.695891533899
 30
0.0
 10
1421.194543023382
 20
965.700818521313
 30
0.0
 10
1420.378313964836
 20
965.706229943252
 30
0.0
 10
1419.575517797972
 20
965.71211666309
 30
0.0
 10
1418.786703395686
 20
965.718502543787
 30
0.0
 10
1418.0124284623
 20
965.725436467598
 30
0.0
 10
1417.25316359513
 20
965.732889389263
 30
0.0
 10
1416.509330624736
 20
965.740785277573
 30
0.0
 10
1415.781307114084
 20
965.749023956779
 30
0.0
 10
1415.06943586238
 20
965.757494389269
 30
0.0
 10
1414.374065852753
 20
965.766105269672
 30
0.0
 10
1413.695605389089
 20
965.7748207216
 30
0.0
 10
1413.03448081066
 20
965.78364552388
 30
0.0
 10
1412.391215301024
 20
965.792633215541
 30
0.0
 10
1411.766297201073
 20
965.801862561603
 30
0.0
 10
1411.160047742443
 20
965.811302974384
 30
0.0
 10
1410.572844988346
 20
965.820925233137
 30
0.0
 10
1410.005082374926
 20
965.830725481283
 30
0.0
 10
1409.457139486468
 20
965.840701809663
 30
0.0
 10
1408.929375644103
 20
965.850844968773
 30
0.0
 10
1408.422131836327
 20
965.861138363013
 30
0.0
 10
1407.935730838478
 20
965.871558891959
 30
0.0
 10
1407.470477610964
 20
965.882077907009
 30
0.0
 10
1407.026659053545
 20
965.89266187243
 30
0.0
 10
1406.604543368113
 20
965.903272720309
 30
0.0
 10
1406.204379296301
 20
965.913868052456
 30
0.0
 10
1405.826395624106
 20
965.924401376368
 30
0.0
 10
1405.470800064998
 20
965.934822359349
 30
0.0
 10
1405.137777144336
 20
965.945076541037
 30
0.0
 10
1404.827488372007
 20
965.955105615977
 30
0.0
 10
1404.540070555893
 20
965.964847776989
 30
0.0
 10
1404.275631658987
 20
965.974236985182
 30
0.0
 10
1404.03424704857
 20
965.983201900621
 30
0.0
 10
1403.81595918678
 20
965.991665797563
 30
0.0
 10
1403.620781729951
 20
965.999547993627
 30
0.0
 10
1403.448699472959
 20
966.006765789506
 30
0.0
 10
1403.299654939357
 20
966.013229764206
 30
0.0
 10
1403.173576868284
 20
966.018848140121
 30
0.0
 10
1403.070417913397
 20
966.023542847245
 30
0.0
 10
1402.990164106617
 20
966.027256966576
 30
0.0
 10
1402.932827492614
 20
966.029949580182
 30
0.0
 10
1402.898409900277
 20
966.031589794606
 30
0.0
 10
1402.890777469168
 20
966.031956419633
 30
0.0
 10
1402.890765868731
 20
966.031958573157
 30
0.0
  0
SPLINE
  5
55B0
330
A
100
AcDbEntity
  8
HIDDEN
100
AcDbSpline
210
0.0
220
0.0
230
1.0
 70
     8
 71
     7
 72
    81
 73
    73
 74
     0
 42
0.000000001
 43
0.0000000001
 40
0.0158168054320411
 40
0.0158168054320411
 40
0.0158168054320411
 40
0.0158168054320411
 40
0.0158168054320411
 40
0.0158168054320411
 40
0.0158168054320411
 40
0.0158168054320411
 40
0.0793378983814982
 40
0.0793378983814982
 40
0.0793378983814982
 40
0.0793378983814982
 40
0.0793378983814982
 40
0.0848000000000001
 40
0.0848000000000001
 40
0.0848000000000001
 40
0.0848000000000001
 40
0.0848000000000001
 40
0.1341461829439534
 40
0.1341461829439534
 40
0.1341461829439534
 40
0.1341461829439534
 40
0.1341461829439534
 40
0.3121988706956286
 40
0.3121988706956286
 40
0.3121988706956286
 40
0.3121988706956286
 40
0.3121988706956286
 40
0.3595520000000002
 40
0.3595520000000002
 40
0.3595520000000002
 40
0.3595520000000002
 40
0.3595520000000002
 40
0.4240000000000002
 40
0.4240000000000002
 40
0.4240000000000002
 40
0.4240000000000002
 40
0.4240000000000002
 40
0.4280521235210766
 40
0.4280521235210766
 40
0.4280521235210766
 40
0.4280521235210766
 40
0.4280521235210766
 40
0.53
 40
0.53
 40
0.53
 40
0.53
 40
0.53
 40
0.6287
 40
0.6287
 40
0.6287
 40
0.6287
 40
0.6287
 40
0.6816191026836624
 40
0.6816191026836624
 40
0.6816191026836624
 40
0.6816191026836624
 40
0.6816191026836624
 40
0.6866228000000001
 40
0.6866228000000001
 40
0.6866228000000001
 40
0.6866228000000001
 40
0.6866228000000001
 40
0.8602533794676832
 40
0.8602533794676832
 40
0.8602533794676832
 40
0.8602533794676832
 40
0.8602533794676832
 40
0.9183140000000001
 40
0.9183140000000001
 40
0.9183140000000001
 40
0.9183140000000001
 40
0.9183140000000001
 40
0.9549447852359662
 40
0.9549447852359662
 40
0.9549447852359662
 40
0.9549447852359662
 40
0.9549447852359662
 40
0.9549447852359662
 40
0.9549447852359662
 40
0.9549447852359662
 10
1335.320188959391
 20
1058.40125791356
 30
0.0
 10
1335.628173294149
 20
1057.067238430951
 30
0.0
 10
1335.936178407537
 20
1055.733143670761
 30
0.0
 10
1336.244208147538
 20
1054.398981300845
 30
0.0
 10
1336.552246119274
 20
1053.064873239426
 30
0.0
 10
1336.860278279069
 20
1051.73096377837
 30
0.0
 10
1337.194805817809
 20
1050.282640312937
 30
0.0
 10
1337.529415562778
 20
1048.834517280608
 30
0.0
 10
1337.555910576972
 20
1048.719855837779
 30
0.0
 10
1337.582406188383
 20
1048.605195522542
 30
0.0
 10
1337.608902442058
 20
1048.490536256868
 30
0.0
 10
1337.874780330596
 20
1047.340022155091
 30
0.0
 10
1338.1407328473
 20
1046.189595094118
 30
0.0
 10
1338.380287848317
 20
1045.153801631438
 30
0.0
 10
1338.620002172901
 20
1044.11787010028
 30
0.0
 10
1338.859928893412
 20
1043.081692770495
 30
0.0
 10
1339.966782751515
 20
1038.305290869569
 30
0.0
 10
1341.080286752214
 20
1033.521713880655
 30
0.0
 10
1341.958561323255
 20
1029.770716171341
 30
0.0
 10
1342.845279603985
 20
1026.02105436683
 30
0.0
 10
1343.742286058855
 20
1022.292315171224
 30
0.0
 10
1344.900371084826
 20
1017.60052261359
 30
0.0
 10
1346.12151222481
 20
1012.93363403876
 30
0.0
 10
1346.381237251123
 20
1011.954183032555
 30
0.0
 10
1346.644626459252
 20
1010.975521984161
 30
0.0
 10
1346.912237153883
 20
1009.997443036249
 30
0.0
 10
1347.555571902565
 20
1007.689062058802
 30
0.0
 10
1348.230287448292
 20
1005.381787913444
 30
0.0
 10
1348.63155986907
 20
1004.051758593538
 30
0.0
 10
1349.047432113809
 20
1002.721599093457
 30
0.0
 10
1349.480590447456
 20
1001.391629168626
 30
0.0
 10
1349.962808588199
 20
999.979369924222
 30
0.0
 10
1350.472471831627
 20
998.570994142247
 30
0.0
 10
1350.502717942603
 20
998.487695829012
 30
0.0
 10
1350.533062000438
 20
998.404412204553
 30
0.0
 10
1350.5635049646
 20
998.3211438467049
 30
0.0
 10
1351.362478746123
 20
996.1433315505351
 30
0.0
 10
1352.230456740609
 20
993.9767955831269
 30
0.0
 10
1353.144513225313
 20
991.913312341545
 30
0.0
 10
1354.155251728509
 20
989.8873941993879
 30
0.0
 10
1355.287144999863
 20
987.924179514463
 30
0.0
 10
1357.780586615575
 20
984.2612406203989
 30
0.0
 10
1360.760209833634
 20
981.0991626183029
 30
0.0
 10
1362.335541275002
 20
979.689523109388
 30
0.0
 10
1363.992448849981
 20
978.442864695295
 30
0.0
 10
1365.686970116592
 20
977.342670859136
 30
0.0
 10
1368.306214744596
 20
975.848910646572
 30
0.0
 10
1370.901354971822
 20
974.612509664214
 30
0.0
 10
1371.801041449798
 20
974.209442857195
 30
0.0
 10
1372.692214884584
 20
973.83200112296
 30
0.0
 10
1373.573116567706
 20
973.477617245547
 30
0.0
 10
1374.524826617816
 20
973.112419880047
 30
0.0
 10
1375.462195768749
 20
972.769551546888
 30
0.0
 10
1375.543063493473
 20
972.740097509036
 30
0.0
 10
1375.623823290711
 20
972.710806574739
 30
0.0
 10
1375.704474773745
 20
972.681677007903
 30
0.0
 10
1378.579890438144
 20
971.647437736473
 30
0.0
 10
1381.316442046452
 20
970.81450800469
 30
0.0
 10
1383.835237497842
 20
970.123314385798
 30
0.0
 10
1386.251985376256
 20
969.509344760758
 30
0.0
 10
1388.641084298753
 20
968.941800241614
 30
0.0
 10
1391.84873712228
 20
968.223990095882
 30
0.0
 10
1395.102241593209
 20
967.545157931513
 30
0.0
 10
1395.920844399974
 20
967.37720502988
 30
0.0
 10
1396.742758390864
 20
967.211235902528
 30
0.0
 10
1397.567613980754
 20
967.047168522048
 30
0.0
 10
1398.91659494119
 20
966.78265695605
 30
0.0
 10
1400.269771767576
 20
966.523094278346
 30
0.0
 10
1400.793701084228
 20
966.423419127292
 30
0.0
 10
1401.317917859669
 20
966.324475495487
 30
0.0
 10
1401.842256163043
 20
966.226258948373
 30
0.0
 10
1402.366573003266
 20
966.12876163477
 30
0.0
 10
1402.890763481751
 20
966.031969934084
 30
0.0
  0
ARC
  5
55B1
330
A
100
AcDbEntity
  8
HIDDEN
100
AcDbCircle
 10
1399.71349433239
 20
948.824975700111
 30
0.0
 40
17.49787672306389
100
AcDbArc
 50
49.99999999995043
 51
79.53818049423369
  0
ARC
  5
55B2
330
A
100
AcDbEntity
  8
HIDDEN
100
AcDbCircle
 10
1485.080664616813
 20
948.824975700111
 30
0.0
 40
17.49787672306388
100
AcDbArc
 50
100.4618195057664
 51
130.0000000000514
  0
LINE
  5
55B3
330
A
100
AcDbEntity
  8
HIDDEN
100
AcDbLine
 10
1464.397079474605
 20
943.4396917860365
 30
0.0
 11
1420.397079474605
 21
943.4396917860365
 31
0.0
  0
LINE
  5
55B4
330
A
100
AcDbEntity
  8
HIDDEN
100
AcDbLine
 10
1419.157175454158
 20
955.3516458642341
 30
0.0
 11
1465.636983495052
 21
955.3516458642341
 31
0.0
  0
ARC
  5
55B5
330
A
100
AcDbEntity
  8
MODEL
100
AcDbCircle
 10
1523.390113470886
 20
941.7264504412021
 30
0.0
 40
2.000000000000007
100
AcDbArc
 50
212.5103260727169
 51
269.9999999995831
  0
ARC
  5
55B6
330
A
100
AcDbEntity
  8
MODEL
100
AcDbCircle
 10
1361.404035125414
 20
941.7264763909757
 30
0.0
 40
2.00002594980034
100
AcDbArc
 50
270.0002965851651
 51
327.4892791334705
  0
LINE
  5
55B7
330
A
100
AcDbEntity
  8
MODEL
100
AcDbLine
 10
1533.37562062715
 20
939.7264504412021
 30
0.0
 11
1523.390113470886
 21
939.7264504412021
 31
0.0
  0
LINE
  5
55B8
330
A
100
AcDbEntity
  8
MODEL
100
AcDbLine
 10
1361.404045478323
 20
939.7264504412021
 30
0.0
 11
1351.418538322053
 21
939.7264504412021
 31
0.0
  0
ARC
  5
55B9
330
A
100
AcDbEntity
  8
MODEL
100
AcDbCircle
 10
1351.418538322053
 20
940.7264504412021
 30
0.0
 40
0.9999999999999998
100
AcDbArc
 50
200.0000000004467
 51
270.0
  0
ARC
  5
55BA
330
A
100
AcDbEntity
  8
MODEL
100
AcDbCircle
 10
1533.37562062715
 20
940.7264504412021
 30
0.0
 40
0.9999999999999998
100
AcDbArc
 50
270.0
 51
339.9999999995533
  0
LINE
  5
55BB
330
A
100
AcDbEntity
  8
MODEL
100
AcDbLine
 10
1557.404564269404
 20
940.7263985491888
 30
0.0
 11
1549.778518636062
 21
940.7263985491888
 31
0.0
  0
LINE
  5
55BC
330
A
100
AcDbEntity
  8
MODEL
100
AcDbLine
 10
1335.01564031314
 20
940.7263985491888
 30
0.0
 11
1327.389594679807
 21
940.7263985491888
 31
0.0
  0
ARC
  5
55BD
330
A
100
AcDbEntity
  8
MODEL
100
AcDbCircle
 10
1557.404564269404
 20
942.7263985491888
 30
0.0
 40
1.999999999999998
100
AcDbArc
 50
270.0000000004169
 51
0.9999999998715058
  0
ARC
  5
55BE
330
A
100
AcDbEntity
  8
MODEL
100
AcDbCircle
 10
1327.389594679807
 20
942.7263985491888
 30
0.0
 40
1.999999999999998
100
AcDbArc
 50
179.0000000001285
 51
269.9999999995831
  0
LINE
  5
55BF
330
A
100
AcDbEntity
  8
MODEL
100
AcDbLine
 10
1554.397079474612
 20
1060.726398549189
 30
0.0
 11
1552.397078752539
 21
1060.726398549189
 31
0.0
  0
LINE
  5
55C0
330
A
100
AcDbEntity
  8
MODEL
100
AcDbLine
 10
1332.397081148687
 20
1060.726398549189
 30
0.0
 11
1330.397079474598
 21
1060.726398549189
 31
0.0
  0
LINE
  5
55C1
330
A
100
AcDbEntity
  8
MODEL
100
AcDbLine
 10
1325.389899289496
 20
942.7613033620662
 30
0.0
 11
1327.397536389129
 21
1057.778755768501
 31
0.0
  0
LINE
  5
55C2
330
A
100
AcDbEntity
  8
MODEL
100
AcDbLine
 10
1559.404259659713
 20
942.7613033620662
 30
0.0
 11
1557.39662256008
 21
1057.778755768501
 31
0.0
  0
ARC
  5
55C3
330
A
100
AcDbEntity
  8
MODEL
100
AcDbCircle
 10
1554.397079474612
 20
1057.726398549189
 30
0.0
 40
3.0
100
AcDbArc
 50
1.0000000002884
 51
90.0
  0
ARC
  5
55C4
330
A
100
AcDbEntity
  8
MODEL
100
AcDbCircle
 10
1330.397079474598
 20
1057.726398549189
 30
0.0
 40
3.0
100
AcDbArc
 50
90.0
 51
178.9999999997116
  0
LINE
  5
55C5
330
A
100
AcDbEntity
  8
HIDDEN
100
AcDbLine
 10
1473.833241234999
 20
962.229122710859
 30
0.0
 11
1465.636983495052
 21
955.3516458642341
 31
0.0
  0
LINE
  5
55C6
330
A
100
AcDbEntity
  8
HIDDEN
100
AcDbLine
 10
1419.157175454158
 20
955.3516458642341
 30
0.0
 11
1410.960912685798
 21
962.229126930194
 31
0.0
  0
LINE
  5
55C7
330
A
100
AcDbEntity
  8
HIDDEN
100
AcDbLine
 10
1464.397079474605
 20
943.4396917860365
 30
0.0
 11
1464.565803238641
 21
953.1058697541891
 31
0.0
  0
LINE
  5
55C8
330
A
100
AcDbEntity
  8
HIDDEN
100
AcDbLine
 10
1420.228355710569
 20
953.1058697541891
 30
0.0
 11
1420.397079474605
 21
943.4396917860365
 31
0.0
  0
ARC
  5
55C9
330
A
100
AcDbEntity
  8
HIDDEN
100
AcDbCircle
 10
1467.565347573676
 20
953.0535119388667
 30
0.0
 40
3.000001259777704
100
AcDbArc
 50
130.000010964851
 51
178.9999890352749
  0
ARC
  5
55CA
330
A
100
AcDbEntity
  8
HIDDEN
100
AcDbCircle
 10
1417.228811375534
 20
953.0535119388667
 30
0.0
 40
3.000001259778291
100
AcDbArc
 50
1.000010964724924
 51
49.99998903542065
  0
SPLINE
  5
55CB
330
A
100
AcDbEntity
  8
MODEL
100
AcDbSpline
210
0.0
220
0.0
230
1.0
 70
     8
 71
     3
 72
     9
 73
     5
 74
     0
 42
0.000000001
 43
0.0000000001
 40
0.0
 40
0.0
 40
0.0
 40
0.0
 40
0.4845859558923643
 40
1.047921725316473
 40
1.047921725316473
 40
1.047921725316473
 40
1.047921725316473
 10
1350.491852212019
 20
940.3506154938448
 30
0.0
 10
1350.466955624309
 20
940.4120021254646
 30
0.0
 10
1350.396492128114
 20
940.5501115802479
 30
0.0
 10
1350.299590069953
 20
940.6717424516835
 30
0.0
 10
1350.246797868268
 20
940.7263975924513
 30
0.0
  0
SPLINE
  5
55CC
330
A
100
AcDbEntity
  8
MODEL
100
AcDbSpline
210
0.0
220
0.0
230
1.0
 70
     8
 71
     3
 72
     9
 73
     5
 74
     0
 42
0.000000001
 43
0.0000000001
 40
0.0
 40
0.0
 40
0.0
 40
0.0
 40
0.4845859558923489
 40
1.047921725314453
 40
1.047921725314453
 40
1.047921725314453
 40
1.047921725314453
 10
1534.302308243371
 20
940.3506154938375
 30
0.0
 10
1534.327204843888
 20
940.4120021254646
 30
0.0
 10
1534.397668367615
 20
940.5501115802479
 30
0.0
 10
1534.494570453126
 20
940.671742451698
 30
0.0
 10
1534.5473626698
 20
940.7263975924513
 30
0.0
  0
LINE
  5
55CD
330
A
100
AcDbEntity
  8
MODEL
100
AcDbLine
 10
503.6875826498763
 20
940.7263909341598
 30
0.0
 11
503.7284019389513
 21
940.7265575548033
 31
0.0
  0
ARC
  5
55CE
330
A
100
AcDbEntity
  8
MODEL
100
AcDbCircle
 10
503.7527429597931
 20
937.7262549949025
 30
0.0
 40
3.000401291232208
100
AcDbArc
 50
48.58869235800601
 51
90.46481915721667
  0
LINE
  5
55CF
330
A
100
AcDbEntity
  8
MODEL
100
AcDbLine
 10
478.5792794191693
 20
940.7263931291975
 30
0.0
 11
503.6875826498763
 21
940.7263909341598
 31
0.0
  0
ARC
  5
55D0
330
A
100
AcDbEntity
  8
MODEL
100
AcDbCircle
 10
506.3988419275511
 20
940.7263267583805
 30
0.0
 40
0.9998824937741708
100
AcDbArc
 50
228.5832145406916
 51
270.0025353653212
  0
LINE
  5
55D1
330
A
100
AcDbEntity
  8
MODEL
100
AcDbLine
 10
478.5792794191693
 20
940.7263931291975
 30
0.0
 11
473.4222801998362
 21
940.7263935800368
 31
0.0
  0
LINE
  5
55D2
330
A
100
AcDbEntity
  8
MODEL
100
AcDbLine
 10
380.2921990705613
 20
940.7264017217278
 30
0.0
 11
465.4303876175582
 21
940.7263942787101
 31
0.0
  0
LINE
  5
55D3
330
A
100
AcDbEntity
  8
MODEL
100
AcDbLine
 10
762.304438158174
 20
940.7263683251547
 30
0.0
 11
676.3914754279213
 21
940.7263758359043
 31
0.0
  0
ARC
  5
55D4
330
A
100
AcDbEntity
  8
MODEL
100
AcDbCircle
 10
674.65944714341
 20
941.7264148459669
 30
0.0
 40
2.000000000000007
100
AcDbArc
 50
269.9999899823336
 51
329.9987095491254
  0
LINE
  5
55D5
330
A
100
AcDbEntity
  8
MODEL
100
AcDbLine
 10
673.6611168150084
 20
1060.726376074601
 30
0.0
 11
377.1392040031606
 21
1060.726401997372
 31
0.0
  0
ARC
  5
55D6
330
A
100
AcDbEntity
  8
HIDDEN
100
AcDbCircle
 10
673.7360825760361
 20
1057.726376068047
 30
0.0
 40
3.00000000000001
100
AcDbArc
 50
89.99999499116682
 51
166.9989443536908
  0
ARC
  5
55D7
330
A
100
AcDbEntity
  8
HIDDEN
100
AcDbCircle
 10
377.1392037408914
 20
1057.726401997372
 30
0.0
 40
3.000000000000023
100
AcDbArc
 50
36.00002681590312
 51
89.99999499074994
  0
SPLINE
  5
55D8
330
A
100
AcDbEntity
  8
HIDDEN
100
AcDbSpline
210
0.0
220
0.0
230
1.0
 70
     8
 71
     7
 72
    81
 73
    73
 74
     0
 42
0.000000001
 43
0.0000000001
 40
0.0217544983805361
 40
0.0217544983805361
 40
0.0217544983805361
 40
0.0217544983805361
 40
0.0217544983805361
 40
0.0217544983805361
 40
0.0217544983805361
 40
0.0217544983805361
 40
0.081686
 40
0.081686
 40
0.081686
 40
0.081686
 40
0.081686
 40
0.1397466205323167
 40
0.1397466205323167
 40
0.1397466205323167
 40
0.1397466205323167
 40
0.1397466205323167
 40
0.3133771999999999
 40
0.3133771999999999
 40
0.3133771999999999
 40
0.3133771999999999
 40
0.3133771999999999
 40
0.3183808973163375
 40
0.3183808973163375
 40
0.3183808973163375
 40
0.3183808973163375
 40
0.3183808973163375
 40
0.3712999999999999
 40
0.3712999999999999
 40
0.3712999999999999
 40
0.3712999999999999
 40
0.3712999999999999
 40
0.4699999999999999
 40
0.4699999999999999
 40
0.4699999999999999
 40
0.4699999999999999
 40
0.4699999999999999
 40
0.5719478764789234
 40
0.5719478764789234
 40
0.5719478764789234
 40
0.5719478764789234
 40
0.5719478764789234
 40
0.5759999999999998
 40
0.5759999999999998
 40
0.5759999999999998
 40
0.5759999999999998
 40
0.5759999999999998
 40
0.6404479999999998
 40
0.6404479999999998
 40
0.6404479999999998
 40
0.6404479999999998
 40
0.6404479999999998
 40
0.6878011293043714
 40
0.6878011293043714
 40
0.6878011293043714
 40
0.6878011293043714
 40
0.6878011293043714
 40
0.8658538170560466
 40
0.8658538170560466
 40
0.8658538170560466
 40
0.8658538170560466
 40
0.8658538170560466
 40
0.9151999999999999
 40
0.9151999999999999
 40
0.9151999999999999
 40
0.9151999999999999
 40
0.9151999999999999
 40
0.9206621016185018
 40
0.9206621016185018
 40
0.9206621016185018
 40
0.9206621016185018
 40
0.9206621016185018
 40
0.9841831769244378
 40
0.9841831769244378
 40
0.9841831769244378
 40
0.9841831769244378
 40
0.9841831769244378
 40
0.9841831769244378
 40
0.9841831769244378
 40
0.9841831769244378
 10
565.2130608267362
 20
965.625439224553
 30
0.0
 10
567.0372205587882
 20
965.785215494645
 30
0.0
 10
568.8600860090041
 20
965.945054212651
 30
0.0
 10
570.6814508309435
 20
966.105047039055
 30
0.0
 10
572.50172364226
 20
966.265358760554
 30
0.0
 10
574.321699050498
 20
966.42621220431
 30
0.0
 10
577.906123112235
 20
966.744495559084
 30
0.0
 10
581.4964847183542
 20
967.067132394721
 30
0.0
 10
583.2654629990461
 20
967.227234100306
 30
0.0
 10
585.0375104516024
 20
967.38900150492
 30
0.0
 10
586.8130444837043
 20
967.552781956504
 30
0.0
 10
593.9117845860342
 20
968.215870212092
 30
0.0
 10
601.0538104584884
 20
968.923585159476
 30
0.0
 10
606.4128628150102
 20
969.490149740611
 30
0.0
 10
611.7177819402241
 20
970.1075221302
 30
0.0
 10
616.861365626838
 20
970.798029512022
 30
0.0
 10
621.9206913004855
 20
971.629925963441
 30
0.0
 10
626.6721811068742
 20
972.679329898837
 30
0.0
 10
626.8050313352969
 20
972.708897343267
 30
0.0
 10
626.9376370554123
 20
972.738639662659
 30
0.0
 10
627.0699967896326
 20
972.768559009538
 30
0.0
 10
628.5993285032491
 20
973.116979896493
 30
0.0
 10
630.0953034732843
 20
973.489711842437
 30
0.0
 10
631.4324702583722
 20
973.853153153424
 30
0.0
 10
632.7383857194832
 20
974.24248544958
 30
0.0
 10
634.011269742582
 20
974.66105048709
 30
0.0
 10
637.5571955088121
 20
975.954302261728
 30
0.0
 10
640.792326706035
 20
977.542928113575
 30
0.0
 10
642.7502674490202
 20
978.721974306134
 30
0.0
 10
644.5361841829836
 20
980.066427490162
 30
0.0
 10
646.1237176787722
 20
981.556405863191
 30
0.0
 10
648.9908028219324
 20
984.800717399489
 30
0.0
 10
651.227287022276
 20
988.3809841024499
 30
0.0
 10
652.2286889764691
 20
990.258365226488
 30
0.0
 10
653.1327289105793
 20
992.1767085218571
 30
0.0
 10
653.9623216842265
 20
994.134218582436
 30
0.0
 10
654.7657971455592
 20
996.2073319277349
 30
0.0
 10
655.5209541196632
 20
998.3157846570921
 30
0.0
 10
655.5497520956233
 20
998.396437116354
 30
0.0
 10
655.5784809720753
 20
998.477140756477
 30
0.0
 10
655.6071414838043
 20
998.557895343153
 30
0.0
 10
656.0904966883422
 20
999.9238884551919
 30
0.0
 10
656.5547234216465
 20
1001.304304982652
 30
0.0
 10
656.9774235733453
 20
1002.614828897087
 30
0.0
 10
657.3881540951152
 20
1003.935855566182
 30
0.0
 10
657.7885139268656
 20
1005.265853704571
 30
0.0
 10
658.467197745168
 20
1007.585726061253
 30
0.0
 10
659.1214020015141
 20
1009.922595032483
 30
0.0
 10
659.3944820331562
 20
1010.914736671827
 30
0.0
 10
659.6638808306411
 20
1011.908592949838
 30
0.0
 10
659.9298835747572
 20
1012.903585993221
 30
0.0
 10
661.1811421826451
 20
1017.642955466427
 30
0.0
 10
662.366635335794
 20
1022.388263391653
 30
0.0
 10
663.2746216245173
 20
1026.119705758412
 30
0.0
 10
664.1626381528222
 20
1029.832825398083
 30
0.0
 10
665.0408798173121
 20
1033.549003743434
 30
0.0
 10
666.1563749151419
 20
1038.307754211418
 30
0.0
 10
667.2668936928712
 20
1043.078757274558
 30
0.0
 10
667.5076824888783
 20
1044.11460404075
 30
0.0
 10
667.7482930414221
 20
1045.150871111741
 30
0.0
 10
667.9887283845565
 20
1046.187406931256
 30
0.0
 10
668.2555770588333
 20
1047.338786469336
 30
0.0
 10
668.5222042695132
 20
1048.490128006266
 30
0.0
 10
668.5487736985124
 20
1048.604868251598
 30
0.0
 10
668.5753409471545
 20
1048.719607848983
 30
0.0
 10
668.6019060285871
 20
1048.834346682173
 30
0.0
 10
668.937380430044
 20
1050.283420660748
 30
0.0
 10
669.2725143975431
 20
1051.732341339423
 30
0.0
 10
669.5808512458134
 20
1053.066260415744
 30
0.0
 10
669.8889932707643
 20
1054.399968771291
 30
0.0
 10
670.1970226843582
 20
1055.733636115677
 30
0.0
 10
670.5050093900022
 20
1057.067407084858
 30
0.0
 10
670.8129848160133
 20
1058.401283087821
 30
0.0
  0
SPLINE
  5
55D9
330
A
100
AcDbEntity
  8
HIDDEN
100
AcDbSpline
210
0.0
220
0.0
230
1.0
 70
     8
 71
     7
 72
    76
 73
    68
 74
     0
 42
0.000000001
 43
0.0000000001
 40
0.0096842394857111
 40
0.0096842394857111
 40
0.0096842394857111
 40
0.0096842394857111
 40
0.0096842394857111
 40
0.0096842394857111
 40
0.0096842394857111
 40
0.0096842394857111
 40
0.0409154007465349
 40
0.0409154007465349
 40
0.0409154007465349
 40
0.0409154007465349
 40
0.0409154007465349
 40
0.2097435571130821
 40
0.2097435571130821
 40
0.2097435571130821
 40
0.2097435571130821
 40
0.2097435571130821
 40
0.3109591680000001
 40
0.3109591680000001
 40
0.3109591680000001
 40
0.3109591680000001
 40
0.3109591680000001
 40
0.31110975498259
 40
0.31110975498259
 40
0.31110975498259
 40
0.31110975498259
 40
0.31110975498259
 40
0.4016137679139709
 40
0.4016137679139709
 40
0.4016137679139709
 40
0.4016137679139709
 40
0.4016137679139709
 40
0.4091568000000001
 40
0.4091568000000001
 40
0.4091568000000001
 40
0.4091568000000001
 40
0.4091568000000001
 40
0.5245600000000001
 40
0.5245600000000001
 40
0.5245600000000001
 40
0.5245600000000001
 40
0.5245600000000001
 40
0.5347428748934641
 40
0.5347428748934641
 40
0.5347428748934641
 40
0.5347428748934641
 40
0.5347428748934641
 40
0.6640000000000001
 40
0.6640000000000001
 40
0.6640000000000001
 40
0.6640000000000001
 40
0.6640000000000001
 40
0.7169991101178782
 40
0.7169991101178782
 40
0.7169991101178782
 40
0.7169991101178782
 40
0.7169991101178782
 40
0.8300000000000001
 40
0.8300000000000001
 40
0.8300000000000001
 40
0.8300000000000001
 40
0.8300000000000001
 40
0.8357658545550041
 40
0.8357658545550041
 40
0.8357658545550041
 40
0.8357658545550041
 40
0.8357658545550041
 40
0.9716022122362556
 40
0.9716022122362556
 40
0.9716022122362556
 40
0.9716022122362556
 40
0.9716022122362556
 40
0.9716022122362556
 40
0.9716022122362556
 40
0.9716022122362556
 10
379.5662538987121
 20
1059.489758890177
 30
0.0
 10
379.9801798801091
 20
1058.920039213705
 30
0.0
 10
380.3941069053722
 20
1058.350319039858
 30
0.0
 10
380.8080369360641
 20
1057.780596701789
 30
0.0
 10
381.2219736788575
 20
1057.210868799262
 30
0.0
 10
381.6359215703742
 20
1056.641131533231
 30
0.0
 10
384.2876726255672
 20
1052.991450084299
 30
0.0
 10
386.9402377631441
 20
1049.341150149118
 30
0.0
 10
389.1799528599472
 20
1046.259881842376
 30
0.0
 10
391.4212928614902
 20
1043.178251227387
 30
0.0
 10
393.6625448402801
 20
1040.099883973487
 30
0.0
 10
397.2488965803313
 20
1035.181822328707
 30
0.0
 10
400.8447429686894
 20
1030.270068904023
 30
0.0
 10
402.1944500837963
 20
1028.429715628018
 30
0.0
 10
403.5469431638662
 20
1026.589532764354
 30
0.0
 10
404.9032381682082
 20
1024.748984997698
 30
0.0
 10
406.2662186215921
 20
1022.905225371852
 30
0.0
 10
407.6336425798545
 20
1021.0626616112
 30
0.0
 10
407.6356739990624
 20
1021.059924349127
 30
0.0
 10
407.6377054280852
 20
1021.057187089703
 30
0.0
 10
407.6397368669095
 20
1021.054449832932
 30
0.0
 10
408.8626856209412
 20
1019.406600382955
 30
0.0
 10
410.0891878965231
 20
1017.759716105471
 30
0.0
 10
411.3171342249802
 20
1016.11757339737
 30
0.0
 10
412.5480762781481
 20
1014.47922771498
 30
0.0
 10
413.7815897127321
 20
1012.8465957054
 30
0.0
 10
415.1210167133281
 20
1011.085357714622
 30
0.0
 10
416.4656736043071
 20
1009.332147561473
 30
0.0
 10
416.5691536752811
 20
1009.197315708918
 30
0.0
 10
416.6726666017162
 20
1009.062531252252
 30
0.0
 10
416.7762134302066
 20
1008.927794041575
 30
0.0
 10
418.4645262059739
 20
1006.732436836084
 30
0.0
 10
420.1624556722923
 20
1004.54950099781
 30
0.0
 10
421.7688530872142
 20
1002.510517564737
 30
0.0
 10
423.3951870174606
 20
1000.478053466435
 30
0.0
 10
425.0494529582902
 20
998.4496968643309
 30
0.0
 10
426.8877143221571
 20
996.250347301082
 30
0.0
 10
428.7702527504912
 20
994.073998072925
 30
0.0
 10
428.9231872383493
 20
993.897692953997
 30
0.0
 10
429.0764161009611
 20
993.7215561191219
 30
0.0
 10
429.2299403953693
 20
993.545597002081
 30
0.0
 10
431.3362924412463
 20
991.138657630888
 30
0.0
 10
433.4982371497281
 20
988.7689009308399
 30
0.0
 10
435.5507795875201
 20
986.625758325795
 30
0.0
 10
437.6434866169029
 20
984.5721792828961
 30
0.0
 10
439.7642076394004
 20
982.651390134577
 30
0.0
 10
442.7654604869053
 20
980.169937607798
 30
0.0
 10
445.7560704214511
 20
978.020736709211
 30
0.0
 10
446.6240694299522
 20
977.424319438353
 30
0.0
 10
447.4895063268305
 20
976.856293920542
 30
0.0
 10
448.3521221705259
 20
976.315754974293
 30
0.0
 10
451.0471265464621
 20
974.704180210523
 30
0.0
 10
453.7354367484763
 20
973.329926105053
 30
0.0
 10
455.5768311391912
 20
972.486788430518
 30
0.0
 10
457.4616804481811
 20
971.711372485848
 30
0.0
 10
459.437337361519
 20
970.982299213437
 30
0.0
 10
461.6424656397685
 20
970.263142852522
 30
0.0
 10
463.9883592206779
 20
969.593331905673
 30
0.0
 10
464.1025794465272
 20
969.560930550004
 30
0.0
 10
464.2171325577983
 20
969.528645815532
 30
0.0
 10
464.3320187690292
 20
969.496477927096
 30
0.0
 10
467.1616614807381
 20
968.709350652782
 30
0.0
 10
470.1920685440964
 20
967.993033376639
 30
0.0
 10
473.2809102916103
 20
967.374908029182
 30
0.0
 10
476.4821595108915
 20
966.839923214857
 30
0.0
 10
479.7032401813813
 20
966.382811316111
 30
0.0
 10
482.8784185375371
 20
965.993625443746
 30
0.0
 10
486.0144400943645
 20
965.660231437499
 30
0.0
  0
SPLINE
  5
55DA
330
A
100
AcDbEntity
  8
HIDDEN
100
AcDbSpline
210
0.0
220
0.0
230
1.0
 70
     8
 71
     3
 72
    71
 73
    67
 74
     0
 42
0.000000001
 43
0.0000000001
 40
0.0
 40
0.0
 40
0.0
 40
0.0
 40
1.010460155541152
 40
2.02090842167866
 40
3.031333051282118
 40
4.041722632780184
 40
5.052066445254639
 40
6.062354969022421
 40
7.072580398935362
 40
8.082737004862286
 40
9.092821365942434
 40
10.10283266121981
 40
11.11277300673169
 40
12.12264777128403
 40
13.13246589872904
 40
14.14224026021187
 40
15.15198805703708
 40
16.16173128550989
 40
17.17149727118146
 40
18.18131928924368
 40
19.19123729509606
 40
20.2012987388944
 40
21.21155915953749
 40
22.22208199719848
 40
23.23293731481679
 40
24.24419913529517
 40
25.25594248810302
 40
26.26825385589912
 40
27.28123038550129
 40
28.29495381117959
 40
29.30947801827883
 40
30.32482603627575
 40
31.34099482934333
 40
32.35797410332105
 40
33.37576851713868
 40
34.39440480487782
 40
35.41394405839792
 40
36.43445462253572
 40
37.45597056500088
 40
38.47852620410939
 40
39.50216800743721
 40
40.52694699815465
 40
41.5529131596995
 40
42.58011350168422
 40
43.6085909038973
 40
44.63838312645834
 40
45.66952172456796
 40
46.70203078772398
 40
47.73592559346307
 40
48.77121128316243
 40
49.80788133857268
 40
50.84591582663797
 40
51.88528022773362
 40
52.9259239652114
 40
53.96777809007732
 40
55.01075338591814
 40
56.05474085006237
 40
57.0996150341406
 40
58.14523701350853
 40
59.19145697416226
 40
60.23812986376959
 40
61.28513390180213
 40
62.33237531642206
 40
63.37978111389522
 40
64.42729016739284
 40
65.47484853641114
 40
65.47484853641114
 40
65.47484853641114
 40
65.47484853641114
 10
486.0144400943645
 20
965.660231437499
 30
0.0
 10
486.014632286252
 20
965.660211002352
 30
0.0
 10
486.0221364477511
 20
965.660266500384
 30
0.0
 10
486.0572783392381
 20
965.660370870733
 30
0.0
 10
486.1156133331206
 20
965.660570391409
 30
0.0
 10
486.1973068994594
 20
965.660850428877
 30
0.0
 10
486.3022927472011
 20
965.661224515037
 30
0.0
 10
486.4305619106412
 20
965.661702169009
 30
0.0
 10
486.5820796236321
 20
965.662295513482
 30
0.0
 10
486.7568036395051
 20
965.663016304484
 30
0.0
 10
486.9546791276043
 20
965.663877222501
 30
0.0
 10
487.1756396676683
 20
965.664891915438
 30
0.0
 10
487.4196055703251
 20
965.666074910144
 30
0.0
 10
487.6864834465773
 20
965.66744177521
 30
0.0
 10
487.9761657726153
 20
965.669009342803
 30
0.0
 10
488.2885306770581
 20
965.670795997215
 30
0.0
 10
488.6234417485794
 20
965.672821962341
 30
0.0
 10
488.9807478102553
 20
965.675109542893
 30
0.0
 10
489.3602828117541
 20
965.677683387193
 30
0.0
 10
489.7618657000162
 20
965.68057068397
 30
0.0
 10
490.1853006847196
 20
965.683801490188
 30
0.0
 10
490.6303767511081
 20
965.687408734631
 30
0.0
 10
491.096864922084
 20
965.691426466912
 30
0.0
 10
491.5845134496303
 20
965.695886462732
 30
0.0
 10
492.0930449365223
 20
965.700813383465
 30
0.0
 10
492.6221552034872
 20
965.706224736014
 30
0.0
 10
493.1715028594222
 20
965.71211138382
 30
0.0
 10
493.740795520057
 20
965.718497189869
 30
0.0
 10
494.3297138384041
 20
965.72543103644
 30
0.0
 10
494.9378349351573
 20
965.732883878362
 30
0.0
 10
495.5646926229783
 20
965.740779684476
 30
0.0
 10
496.2097904168581
 20
965.749018279086
 30
0.0
 10
496.8726244151585
 20
965.757488624658
 30
0.0
 10
497.5527209310053
 20
965.766099415868
 30
0.0
 10
498.2496624418964
 20
965.774814776416
 30
0.0
 10
498.9630574049693
 20
965.783639485138
 30
0.0
 10
499.6925641688322
 20
965.792627081131
 30
0.0
 10
500.4377750783351
 20
965.801856329486
 30
0.0
 10
501.1981992815236
 20
965.811296642544
 30
0.0
 10
501.9733748814861
 20
965.820918799643
 30
0.0
 10
502.7628376609173
 20
965.830718944263
 30
0.0
 10
503.5661109962853
 20
965.8406951673
 30
0.0
 10
504.3827030315401
 20
965.850838219325
 30
0.0
 10
505.2121079552189
 20
965.861131504811
 30
0.0
 10
506.0538073588859
 20
965.871551923379
 30
0.0
 10
506.9072716447581
 20
965.882070826515
 30
0.0
 10
507.7719610509703
 20
965.892654678545
 30
0.0
 10
508.6473265318746
 20
965.903265411631
 30
0.0
 10
509.5328106383631
 20
965.913860627664
 30
0.0
 10
510.4278483645285
 20
965.924393834192
 30
0.0
 10
511.331867811251
 20
965.934814698638
 30
0.0
 10
512.2442912742513
 20
965.945068760674
 30
0.0
 10
513.1645362487861
 20
965.955097714936
 30
0.0
 10
514.0920160166093
 20
965.964839754323
 30
0.0
 10
515.0261407688631
 20
965.974228840022
 30
0.0
 10
515.9663197651271
 20
965.98319363217
 30
0.0
 10
516.9119641290922
 20
965.991657405103
 30
0.0
 10
517.8624885506615
 20
965.999539476518
 30
0.0
 10
518.8173123739653
 20
966.006757147193
 30
0.0
 10
519.7758676572439
 20
966.013220996196
 30
0.0
 10
520.7376020408155
 20
966.018839245985
 30
0.0
 10
521.7019695596064
 20
966.02353382666
 30
0.0
 10
522.668444591257
 20
966.027247819248
 30
0.0
 10
523.636460069999
 20
966.029940305926
 30
0.0
 10
524.6056324048222
 20
966.031580393241
 30
0.0
 10
525.2518146385373
 20
966.031946933537
 30
0.0
 10
525.5751713785903
 20
966.03194904466
 30
0.0
  0
SPLINE
  5
55DB
330
A
100
AcDbEntity
  8
HIDDEN
100
AcDbSpline
210
0.0
220
0.0
230
1.0
 70
     8
 71
     3
 72
    71
 73
    67
 74
     0
 42
0.000000001
 43
0.0000000001
 40
0.0
 40
0.0
 40
0.0
 40
0.0
 40
1.047556064469668
 40
2.095095949382721
 40
3.142592935760834
 40
4.19000004375347
 40
5.237241365166156
 40
6.284205700122756
 40
7.330744195881442
 40
8.37667332974584
 40
9.421783520194392
 40
10.46585227878089
 40
11.50865964819463
 40
12.55000314701742
 40
13.58970972956873
 40
14.62764321542048
 40
15.66370686976745
 40
16.69784191100991
 40
17.73002340482031
 40
18.76025520697836
 40
19.78856546970227
 40
20.8150024311982
 40
21.83962984318035
 40
22.86252275499384
 40
23.88376386532797
 40
24.9034405009767
 40
25.92164222382051
 40
26.93845901911648
 40
27.95397999930531
 40
28.96829253344396
 40
29.98148161391598
 40
30.99362957947834
 40
32.00481603727533
 40
33.01511774246788
 40
34.02460840791118
 40
35.03335844564881
 40
36.04143336963127
 40
37.04889266276673
 40
38.05580566831259
 40
39.0622510995745
 40
40.06829170808781
 40
41.07397346689226
 40
42.07933106493419
 40
43.08439200679447
 40
44.08918426978336
 40
45.09374672800015
 40
46.09812169661934
 40
47.10234612232303
 40
48.10645300582065
 40
49.11047272176348
 40
50.11443314340339
 40
51.11835951532135
 40
52.12227433421766
 40
53.12619728023618
 40
54.13014517395822
 40
55.13413193080363
 40
56.13816849543337
 40
57.14226274633389
 40
58.14641937083184
 40
59.1506397248662
 40
60.15492171032271
 40
61.15925984038447
 40
62.16364571773092
 40
63.16806885269173
 40
64.17251748246245
 40
65.17697909260578
 40
65.17697909260578
 40
65.17697909260578
 40
65.17697909260578
 10
525.5751713785903
 20
966.031960405577
 30
0.0
 10
525.898397060856
 20
966.031957503406
 30
0.0
 10
526.5447875498321
 20
966.031425991526
 30
0.0
 10
527.5139045643909
 20
966.029030145022
 30
0.0
 10
528.481977021921
 20
966.025082214809
 30
0.0
 10
529.4485020916873
 20
966.019635910274
 30
0.0
 10
530.4129547486991
 20
966.012769099541
 30
0.0
 10
531.3748109195831
 20
966.004579149369
 30
0.0
 10
532.3335391716864
 20
965.995182319454
 30
0.0
 10
533.2886004310021
 20
965.984710082834
 30
0.0
 10
534.2394455002614
 20
965.973304589867
 30
0.0
 10
535.1855137274351
 20
965.961113359733
 30
0.0
 10
536.126232600097
 20
965.948284012636
 30
0.0
 10
537.0610187986786
 20
965.934959626064
 30
0.0
 10
537.9892806271273
 20
965.921275178433
 30
0.0
 10
538.9104214317886
 20
965.907355300323
 30
0.0
 10
539.8238433555343
 20
965.893313302435
 30
0.0
 10
540.7289507483251
 20
965.879251195968
 30
0.0
 10
541.6251527712843
 20
965.865260228312
 30
0.0
 10
542.5118650560212
 20
965.851421230498
 30
0.0
 10
543.3885106407861
 20
965.837804355037
 30
0.0
 10
544.2545213866142
 20
965.824469532775
 30
0.0
 10
545.1093391284121
 20
965.811467204498
 30
0.0
 10
545.9524162782945
 20
965.798839150588
 30
0.0
 10
546.7832161419392
 20
965.786619407159
 30
0.0
 10
547.6012130139961
 20
965.774835202509
 30
0.0
 10
548.40589211928
 20
965.763507862461
 30
0.0
 10
549.1967494841774
 20
965.752653662665
 30
0.0
 10
549.9732917243273
 20
965.742284515848
 30
0.0
 10
550.7350360730661
 20
965.732408660086
 30
0.0
 10
551.4815101437371
 20
965.723031267708
 30
0.0
 10
552.2122518130673
 20
965.714154610085
 30
0.0
 10
552.9268096409969
 20
965.705778175769
 30
0.0
 10
553.6247432898563
 20
965.697899060583
 30
0.0
 10
554.3056240559781
 20
965.690512733315
 30
0.0
 10
554.9690343703005
 20
965.683615524369
 30
0.0
 10
555.6145770968542
 20
965.677218378133
 30
0.0
 10
556.2418163869916
 20
965.671364587329
 30
0.0
 10
556.850284511168
 20
965.666016143324
 30
0.0
 10
557.4396834146864
 20
965.661081853346
 30
0.0
 10
558.0097349831085
 20
965.656498580129
 30
0.0
 10
558.5601520472001
 20
965.65222349314
 30
0.0
 10
559.0906438843485
 20
965.64823848554
 30
0.0
 10
559.6009032778629
 20
965.644574551368
 30
0.0
 10
560.0905271951451
 20
965.641296757952
 30
0.0
 10
560.5591502862471
 20
965.638393092843
 30
0.0
 10
561.0065331985352
 20
965.635824450489
 30
0.0
 10
561.4324268319724
 20
965.633571809665
 30
0.0
 10
561.8365842329981
 20
965.631619259408
 30
0.0
 10
562.2187717998049
 20
965.629950616569
 30
0.0
 10
562.5787715581132
 20
965.628548588495
 30
0.0
 10
562.9163817014373
 20
965.627394880829
 30
0.0
 10
563.2314164318195
 20
965.626470554611
 30
0.0
 10
563.5237056866781
 20
965.625756214119
 30
0.0
 10
563.7930951671183
 20
965.625232009438
 30
0.0
 10
564.0394464818123
 20
965.624877526311
 30
0.0
 10
564.2626374322244
 20
965.624671570917
 30
0.0
 10
564.4625624017822
 20
965.6245918686
 30
0.0
 10
564.6391328746722
 20
965.624614696186
 30
0.0
 10
564.7922776778969
 20
965.624714559106
 30
0.0
 10
564.9219438107721
 20
965.624863776593
 30
0.0
 10
565.0280936656809
 20
965.625033106009
 30
0.0
 10
565.1107029551822
 20
965.625195382615
 30
0.0
 10
565.1697348444395
 20
965.625327738265
 30
0.0
 10
565.2052016808111
 20
965.625418664389
 30
0.0
 10
565.2130178174152
 20
965.625435459897
 30
0.0
 10
565.2130608267362
 20
965.625439224553
 30
0.0
  0
ARC
  5
55DC
330
A
100
AcDbEntity
  8
HIDDEN
100
AcDbCircle
 10
566.5017902420473
 20
950.9120634297931
 30
0.0
 40
14.76970720033881
100
AcDbArc
 50
95.00570337117496
 51
129.9999949910793
  0
ARC
  5
55DD
330
A
100
AcDbEntity
  8
HIDDEN
100
AcDbCircle
 10
484.4041548485875
 20
950.5133207289616
 30
0.0
 40
15.23226583884237
100
AcDbArc
 50
49.99999499117107
 51
83.93161398855088
  0
LINE
  5
55DE
330
A
100
AcDbEntity
  8
HIDDEN
100
AcDbLine
 10
557.0080064440954
 20
962.226316387081
 30
0.0
 11
548.8150779190873
 21
955.3516343040349
 31
0.0
  0
LINE
  5
55DF
330
A
100
AcDbEntity
  8
HIDDEN
100
AcDbLine
 10
547.5751728572614
 20
943.4396803342286
 30
0.0
 11
547.743897466341
 21
953.1058582876337
 31
0.0
  0
ARC
  5
55E0
330
A
100
AcDbEntity
  8
HIDDEN
100
AcDbCircle
 10
550.7434405472341
 20
953.0535008060949
 30
0.0
 40
3.000000000000002
100
AcDbArc
 50
129.999994991133
 51
178.9999949910796
  0
LINE
  5
55E1
330
A
100
AcDbEntity
  8
HIDDEN
100
AcDbLine
 10
503.5751728572614
 20
943.4396841808309
 30
0.0
 11
547.5751728572614
 21
943.4396803342286
 31
0.0
  0
LINE
  5
55E2
330
A
100
AcDbEntity
  8
HIDDEN
100
AcDbLine
 10
548.8150779190873
 20
955.3516343040353
 30
0.0
 11
502.3352698781923
 21
955.3516383674294
 31
0.0
  0
ARC
  5
55E3
330
A
100
AcDbEntity
  8
MODEL
100
AcDbCircle
 10
472.1322748037092
 20
940.7851489811255
 30
0.0
 40
1.291342758215406
100
AcDbArc
 50
304.9268451567019
 51
357.3921725263284
  0
ARC
  5
55E4
330
A
100
AcDbEntity
  8
MODEL
100
AcDbCircle
 10
467.1624356520661
 20
941.7263990817803
 30
0.0
 40
2.0
100
AcDbArc
 50
210.0001588844104
 51
269.9999899819168
  0
LINE
  5
55E5
330
A
100
AcDbEntity
  8
MODEL
100
AcDbLine
 10
472.8716073784562
 20
939.7263980835571
 30
0.0
 11
467.1624353023681
 21
939.7263990817808
 31
0.0
  0
LINE
  5
55E6
330
A
100
AcDbEntity
  8
MODEL
100
AcDbLine
 10
638.0711369501914
 20
939.7264212432726
 30
0.0
 11
642.4058161939574
 21
939.7264204853725
 31
0.0
  0
LINE
  5
55E7
330
A
100
AcDbEntity
  8
MODEL
100
AcDbLine
 10
371.2908382560081
 20
940.7264025086517
 30
0.0
 11
380.2922087639272
 21
940.7264017217269
 31
0.0
  0
LINE
  5
55E8
330
A
100
AcDbEntity
  8
MODEL
100
AcDbLine
 10
762.3044478515403
 20
940.7263683251538
 30
0.0
 11
771.3058188039395
 21
940.7263675382289
 31
0.0
  0
ARC
  5
55E9
330
A
100
AcDbEntity
  8
MODEL
100
AcDbCircle
 10
771.3058189787803
 20
942.7263675382289
 30
0.0
 40
1.999999999999998
100
AcDbArc
 50
269.9999949911668
 51
0.9999949910310184
  0
ARC
  5
55EA
330
A
100
AcDbEntity
  8
MODEL
100
AcDbCircle
 10
371.2908384308503
 20
942.7264025086517
 30
0.0
 40
1.999999999999998
100
AcDbArc
 50
178.9999949910535
 51
269.9999949907499
  0
LINE
  5
55EB
330
A
100
AcDbEntity
  8
MODEL
100
AcDbLine
 10
768.2983444998781
 20
1060.726367801151
 30
0.0
 11
673.7360828383062
 21
1060.726376068047
 31
0.0
  0
LINE
  5
55EC
330
A
100
AcDbEntity
  8
MODEL
100
AcDbLine
 10
377.1392040031606
 20
1060.726401997372
 30
0.0
 11
374.2983335415302
 21
1060.726402245729
 31
0.0
  0
LINE
  5
55ED
330
A
100
AcDbEntity
  8
MODEL
100
AcDbLine
 10
773.3055143721463
 20
942.7612721762841
 30
0.0
 11
771.2978873276625
 21
1057.778724758234
 31
0.0
  0
LINE
  5
55EE
330
A
100
AcDbEntity
  8
MODEL
100
AcDbLine
 10
369.2911430435879
 20
942.7613074963454
 30
0.0
 11
371.2987901983679
 21
1057.778759727269
 31
0.0
  0
ARC
  5
55EF
330
A
100
AcDbEntity
  8
MODEL
100
AcDbCircle
 10
374.2983332792601
 20
1057.726402245729
 30
0.0
 40
3.0
100
AcDbArc
 50
89.99999499116682
 51
178.999994990819
  0
ARC
  5
55F0
330
A
100
AcDbEntity
  8
MODEL
100
AcDbCircle
 10
768.298344237609
 20
1057.726367801151
 30
0.0
 40
3.0
100
AcDbArc
 50
0.9999949912655351
 51
89.99999499116682
  0
LINE
  5
55F1
330
A
100
AcDbEntity
  8
HIDDEN
100
AcDbLine
 10
494.1952676173491
 20
962.181912474952
 30
0.0
 11
502.3352698781923
 21
955.3516383674294
 31
0.0
  0
LINE
  5
55F2
330
A
100
AcDbEntity
  8
HIDDEN
100
AcDbLine
 10
503.5751728572614
 20
943.4396841808309
 30
0.0
 11
503.4064499382694
 21
953.1058621637374
 31
0.0
  0
ARC
  5
55F3
330
A
100
AcDbEntity
  8
HIDDEN
100
AcDbCircle
 10
500.4069055986583
 20
953.0535046106422
 30
0.0
 40
3.000001259778697
100
AcDbArc
 50
1.000005955773481
 51
49.99998402613201
  0
CIRCLE
  5
55F4
330
A
100
AcDbEntity
  8
MODEL
100
AcDbCircle
 10
525.5578624575683
 20
2086.79606946932
 30
0.0
 40
35.0
  0
CIRCLE
  5
55F5
330
A
100
AcDbEntity
  8
HIDDEN
  6
HIDDEN
100
AcDbCircle
 10
714.4541512535902
 20
2086.796069456787
 30
0.0
 40
17.50000000000182
  0
LINE
  5
55F6
330
A
100
AcDbEntity
  8
MODEL
100
AcDbLine
 10
506.3988861728239
 20
939.7264442655853
 30
0.0
 11
674.6594467937211
 21
939.7264148459669
 31
0.0
  0
CIRCLE
  5
55F7
330
A
100
AcDbEntity
  8
HIDDEN
 48
0.5
100
AcDbCircle
 10
723.5687855957985
 20
1020.413419114261
 30
0.0
 40
10.0
  0
CIRCLE
  5
55F8
330
A
100
AcDbEntity
  8
HIDDEN
 48
0.5
100
AcDbCircle
 10
408.5687855957985
 20
967.414830098768
 30
0.0
 40
10.0
  0
DIMENSION
  5
55F9
330
A
100
AcDbEntity
  8
Dim
100
AcDbDimension
  2
*D57
 10
369.273528093504
 20
2338.504070328
 30
0.0000000000003027
 11
571.2808660626251
 21
2338.504070328
 31
0.0000000000003027
 70
   160
  1
400
 71
     5
 42
404.0146759382415
 73
     0
 74
     0
 75
     0
 52
-89.99999999999999
  3
tform線あり
100
AcDbAlignedDimension
 13
773.2882040317454
 23
2203.129083521845
 33
0.0000000000003027
 14
369.273528093504
 24
2204.904947759857
 34
0.0
 50
180.0
100
AcDbRotatedDimension
  0
DIMENSION
  5
55FA
102
{ACAD_XDICTIONARY
360
55FB
102
}
330
A
100
AcDbEntity
  8
Dim
100
AcDbDimension
  2
*D58
 10
269.7242828292495
 20
1969.788889313864
 30
0.0000000000001514
 11
269.7242828292495
 21
2086.79622180458
 31
0.0000000000001514
 70
   160
  1
230
 71
     5
 42
234.014664981433
 73
     0
 74
     0
 75
     0
  3
tform線あり
100
AcDbAlignedDimension
 13
359.7463550887892
 23
2203.803554295297
 33
0.0
 14
359.7463550887805
 24
1969.788889313864
 34
0.0
 50
89.99999999999999
100
AcDbRotatedDimension
1001
AcadAnnotative
1000
AnnotativeData
1002
{
1070
     1
1070
     0
1002
}
  0
DIMENSION
  5
55FE
330
A
100
AcDbEntity
  8
Dim
100
AcDbDimension
  2
*D59
 10
773.2882040317454
 20
1113.226831248895
 30
0.0000000000001514
 11
748.428494813772
 21
1135.443139842645
 31
0.0000000000001514
 70
    32
  1
50
 71
     5
 42
49.71941843594687
 73
     0
 74
     0
 75
     0
 52
-270.0
  3
tform線あり
100
AcDbAlignedDimension
 13
723.5687855957985
 23
1039.190566817031
 33
0.0
 14
773.2882040317454
 24
998.382794047546
 34
0.0
 50
180.0
100
AcDbRotatedDimension
  0
DIMENSION
  5
55FF
330
A
100
AcDbEntity
  8
Dim
100
AcDbDimension
  2
*D60
 10
1660.473710650261
 20
939.7264007671408
 30
0.0000000000003559
 11
1638.257402056511
 21
1000.226396413982
 31
0.0000000000003559
 70
    32
  1
120
 71
     5
 42
120.9999912936833
 73
     0
 74
     0
 75
     0
  3
tform線あり
100
AcDbAlignedDimension
 13
1567.610806925347
 23
1060.726392060824
 33
0.0
 14
1567.610806925347
 24
939.7264007671408
 34
0.0
 50
-90.00000000000001
100
AcDbRotatedDimension
  0
DIMENSION
  5
5600
330
A
100
AcDbEntity
  8
Dim
100
AcDbDimension
  2
*D61
 10
773.2885086414421
 20
1889.623749816
 30
0.0000000000001514
 11
722.3288411721803
 21
1911.84005840975
 31
0.0000000000001514
 70
    32
  1
100
 71
     5
 42
101.9193349385237
 73
     0
 74
     0
 75
     0
 52
-270.0
  3
tform線あり
100
AcDbAlignedDimension
 13
671.3691737029185
 23
1977.26138108882
 33
0.0
 14
773.2885086414421
 24
1977.26138108882
 34
0.0
 50
180.0
100
AcDbRotatedDimension
  0
DIMENSION
  5
5601
330
A
100
AcDbEntity
  8
Dim
100
AcDbDimension
  2
*D62
 10
841.6240693777088
 20
1020.413419114261
 30
0.0000000000001514
 11
819.4077607839588
 21
1040.569895426172
 31
0.0000000000001514
 70
    32
  1
40
 71
     5
 42
40.31295262382184
 73
     0
 74
     1
 75
     1
 52
-90.0
  3
tform線あり
100
AcDbAlignedDimension
 13
773.7164941295359
 23
1060.726371738083
 33
0.0
 14
737.3758521671625
 24
1020.413419114261
 34
0.0
 50
90.00000000000001
100
AcDbRotatedDimension
  0
DIMENSION
  5
5602
330
A
100
AcDbEntity
  8
Dim
100
AcDbDimension
  2
*D63
 10
269.7242828292497
 20
967.414830098768
 30
0.0000000000001514
 11
247.5079742354997
 21
1014.070614781468
 31
0.0000000000001514
 70
    32
  1
95
 71
     5
 42
93.31156936540003
 73
     0
 74
     0
 75
     0
 52
-90.0
  3
tform線あり
100
AcDbAlignedDimension
 13
377.1289993860523
 23
1060.726399464168
 33
0.0
 14
395.2617506034021
 24
967.414830098768
 34
0.0
 50
90.00000000000001
100
AcDbRotatedDimension
  0
MTEXT
  5
5603
330
A
100
AcDbEntity
  8
Dim
390
1D
100
AcDbMText
 10
250.1249098102038
 20
1691.337758505331
 30
17.49760566173007
 40
24.0
 41
958.4349722413373
 46
0.0
 71
     1
 72
     1
  1
＝φ30もしくはφ35の水栓取付用穴あけ加工を承ります。\P  必要な場合、ご注文の際にご指示ください。
  7
ＭＳ ゴシック
 73
     1
 44
1.043768984567712
  0
CIRCLE
  5
5604
330
A
100
AcDbEntity
  8
HIDDEN
  6
HIDDEN
100
AcDbCircle
 10
220.4903702981413
 20
1678.574582803234
 30
0.0
 40
17.50000000000182
  0
LINE
  5
5605
330
A
100
AcDbEntity
  8
HIDDEN
  6
CENTER
 48
0.25
100
AcDbLine
 10
424.949759963697
 20
967.414830098768
 30
0.0
 11
392.1878112279001
 21
967.414830098768
 31
0.0
  0
LINE
  5
5606
330
A
100
AcDbEntity
  8
HIDDEN
  6
CENTER
 48
0.25
100
AcDbLine
 10
408.5687855957985
 20
983.795804466667
 30
0.0
 11
408.5687855957985
 21
951.0338557308696
 31
0.0
  0
LINE
  5
5607
330
A
100
AcDbEntity
  8
HIDDEN
  6
CENTER
 48
0.25
100
AcDbLine
 10
739.949759963697
 20
1020.413419114261
 30
0.0
 11
707.1878112279
 21
1020.413419114261
 31
0.0
  0
LINE
  5
5608
330
A
100
AcDbEntity
  8
HIDDEN
  6
CENTER
 48
0.25
100
AcDbLine
 10
723.5687855957985
 20
1036.79439348216
 30
0.0
 11
723.5687855957985
 21
1004.032444746362
 31
0.0
  0
LINE
  5
5609
330
A
100
AcDbEntity
  8
Dim
100
AcDbLine
 10
723.5687855957985
 20
1020.413419114261
 30
0.0
 11
557.1084053116265
 21
1208.620977798655
 31
0.0
  0
LINE
  5
560A
330
A
100
AcDbEntity
  8
Dim
100
AcDbLine
 10
557.1084053116265
 20
1208.620977798655
 30
0.0
 11
408.5687855957985
 21
967.414830098768
 31
0.0
  0
MTEXT
  5
560B
330
A
100
AcDbEntity
  8
Dim
390
1D
100
AcDbMText
 10
398.5485134170592
 20
1266.88262604066
 30
0.0
 40
24.0
 41
0.0
 46
26.808
 71
     1
 72
     1
  1
{壁取付ボルト位置(2ヶ所)}
  7
ＭＳ ゴシック
 73
     1
 44
0.7828267384257843
1001
ACAD
1000
ACAD_MTEXT_DEFINED_HEIGHT_BEGIN
1070
    46
1040
26.808
1000
ACAD_MTEXT_DEFINED_HEIGHT_END
  0
DIMENSION
  5
560C
330
A
100
AcDbEntity
  8
Dim
100
AcDbDimension
  2
*D64
 10
1441.886363863414
 20
1060.726392060828
 30
0.0
 11
1441.886363863414
 21
1149.717725556922
 31
0.0
 70
   160
  1
95(深さ)
 71
     5
 42
95.06615628259499
 73
     0
 74
     1
 75
     1
  3
tform線あり
100
AcDbAlignedDimension
 13
1493.587626103588
 23
965.660235778233
 33
0.0
 14
1493.589566106317
 24
1060.726392060828
 34
0.0
 50
90.0
100
AcDbRotatedDimension
  0
DIMENSION
  5
560D
330
A
100
AcDbEntity
  8
Dim
100
AcDbDimension
  2
*D65
 10
841.6240693777088
 20
1978.94093691995
 30
0.0
 11
819.4077607839588
 21
2086.440936919951
 31
0.0
 70
    32
 71
     5
 42
215.0000000000011
 73
     0
 74
     0
 75
     0
 52
-90.0
  3
tform線あり
100
AcDbAlignedDimension
 13
649.749938091395
 23
2193.940936919951
 33
0.0
 14
649.749938091395
 24
1978.94093691995
 34
0.0
 50
90.00000000000001
100
AcDbRotatedDimension
  0
DIMENSION
  5
560E
102
{ACAD_REACTORS
330
5610
102
}
102
{ACAD_XDICTIONARY
360
560F
102
}
330
A
100
AcDbEntity
  8
Dim
100
AcDbDimension
  2
*D66
 10
381.3691737029185
 20
1889.623749816
 30
0.0
 11
526.3691737029185
 21
1911.84005840975
 31
0.0
 70
    32
 71
     5
 42
290.0
 73
     0
 74
     0
 75
     0
 52
-89.99999999999999
  3
tform線あり
100
AcDbAlignedDimension
 13
671.3691737029185
 23
1977.26138108882
 33
0.0
 14
381.3691737029185
 24
1977.26138108882
 34
0.0
 50
180.0
100
AcDbRotatedDimension
  0
DIMENSION
  5
5611
330
A
100
AcDbEntity
  8
Dim
100
AcDbDimension
  2
*D67
 10
713.2882040317522
 20
2269.7749466928
 30
0.0
 11
743.2882040317522
 21
2291.99125528655
 31
0.0
 70
    32
 71
     5
 42
59.99999999999999
 73
     0
 74
     0
 75
     0
 52
-89.99999999999999
  3
tform線あり
100
AcDbAlignedDimension
 13
773.2882040317522
 23
2193.940936919951
 33
0.0
 14
713.2882040317522
 24
2109.487389347348
 34
0.0
 50
180.0
100
AcDbRotatedDimension
  0
DIMENSION
  5
5612
102
{ACAD_REACTORS
330
5614
102
}
102
{ACAD_XDICTIONARY
360
5613
102
}
330
A
100
AcDbEntity
  8
Dim
100
AcDbDimension
  2
*D68
 10
408.5687855957985
 20
1113.226831248895
 30
0.0
 11
566.0687855957985
 21
1135.443139842645
 31
0.0
 70
    32
 71
     5
 42
315.0
 73
     0
 74
     0
 75
     0
 52
-89.99999999999999
  3
tform線あり
100
AcDbAlignedDimension
 13
723.5687855957985
 23
1039.190566817031
 33
0.0
 14
408.5687855957985
 24
982.600462938989
 34
0.0
 50
180.0
100
AcDbRotatedDimension
  0
DIMENSION
  5
5615
102
{ACAD_REACTORS
330
5617
102
}
102
{ACAD_XDICTIONARY
360
5616
102
}
330
A
100
AcDbEntity
  8
Dim
100
AcDbDimension
  2
*D69
 10
369.417275551049
 20
1113.226831248895
 30
0.0
 11
388.9930305734238
 21
1135.443139842645
 31
0.0
 70
    32
  1
35
 71
     5
 42
39.15151004474955
 73
     0
 74
     1
 75
     1
 52
-89.99999999999999
  3
tform線あり
100
AcDbAlignedDimension
 13
408.5687855957985
 23
982.600462938989
 33
0.0
 14
369.417275551049
 24
949.9873978066016
 34
0.0
 50
180.0
100
AcDbRotatedDimension
  0
CIRCLE
  5
5618
330
A
100
AcDbEntity
  8
HIDDEN
100
AcDbCircle
 10
1398.22131848213
 20
2086.79606946932
 30
0.0
 40
22.0
  0
LINE
  5
5619
102
{ACAD_REACTORS
330
562C
102
}
330
A
100
AcDbEntity
  8
HIDDEN
100
AcDbLine
 10
1645.951660056314
 20
1975.787975484802
 30
0.0
 11
1645.951660056314
 21
2197.804163513144
 31
0.0
  0
ARC
  5
561A
330
A
100
AcDbEntity
  8
HIDDEN
100
AcDbCircle
 10
1639.951994024646
 20
1975.788555345537
 30
0.0
 40
5.999666059695372
100
AcDbArc
 50
270.0055375704472
 51
359.9944624294095
  0
LINE
  5
561B
330
A
100
AcDbEntity
  8
HIDDEN
100
AcDbLine
 10
1247.936374898701
 20
1969.788889313864
 30
0.0
 11
1639.952573885378
 21
1969.788889313864
 31
0.0
  0
ARC
  5
561C
330
A
100
AcDbEntity
  8
HIDDEN
100
AcDbCircle
 10
1247.936954759431
 20
1975.788555345538
 30
0.0
 40
5.999666059696054
100
AcDbArc
 50
180.0055375705905
 51
269.9944624295528
  0
LINE
  5
561D
330
A
100
AcDbEntity
  8
HIDDEN
100
AcDbLine
 10
1241.937288727764
 20
2197.804163513144
 30
0.0
 11
1241.937288727764
 21
1975.787975484802
 31
0.0
  0
ARC
  5
561E
330
A
100
AcDbEntity
  8
HIDDEN
100
AcDbCircle
 10
1247.936954761592
 20
2197.80358365025
 30
0.0
 40
5.999666061854551
100
AcDbArc
 50
90.00553759087357
 51
179.9944624088007
  0
LINE
  5
561F
330
A
100
AcDbEntity
  8
HIDDEN
100
AcDbLine
 10
1247.936374898701
 20
2203.803249684082
 30
0.0
 11
1639.952573885378
 21
2203.803249684082
 31
0.0
  0
ARC
  5
5620
330
A
100
AcDbEntity
  8
HIDDEN
100
AcDbCircle
 10
1639.951994022485
 20
2197.80358365025
 30
0.0
 40
5.999666061853946
100
AcDbArc
 50
0.0055375911992841
 51
89.99446240912643
  0
SPLINE
  5
5621
330
A
100
AcDbEntity
  8
HIDDEN
100
AcDbSpline
210
0.0
220
0.0
230
1.0
 70
     8
 71
     3
 72
    51
 73
    47
 74
     0
 42
0.000000001
 43
0.0000000001
 40
0.0
 40
0.0
 40
0.0
 40
0.0
 40
27.72376602770056
 40
39.6066863381913
 40
48.5175842851363
 40
57.42925828830428
 40
66.34168378646874
 40
75.25481191214159
 40
78.59593499490697
 40
81.9382824007863
 40
83.6093748094074
 40
85.30097019733064
 40
87.05291730784664
 40
87.73398008459492
 40
88.87330092266708
 40
90.26116461321533
 40
92.3626125057903
 40
94.50461741787826
 40
97.66082213648602
 40
99.58104478622163
 40
103.185630312951
 40
107.0351887396911
 40
108.4796491789223
 40
111.8511869218043
 40
114.0190021034122
 40
117.1434195840821
 40
118.3374694970231
 40
119.2869303052548
 40
121.3947130836397
 40
122.7654731938931
 40
124.0983289723157
 40
124.5338802465472
 40
124.9654344994467
 40
126.6616217782772
 40
128.3355686305148
 40
131.6787556376717
 40
133.3511852819152
 40
138.3080865855456
 40
143.2648089910942
 40
150.7042148053492
 40
158.1431590464281
 40
169.3020743546599
 40
180.4598979246972
 40
197.1977755258167
 40
213.9329555907469
 40
248.477171057691
 40
248.477171057691
 40
248.477171057691
 40
248.477171057691
 10
1543.459120390616
 20
2086.796064444188
 30
0.0
 10
1543.459120390616
 20
2077.554471094999
 30
0.0
 10
1543.461044226555
 20
2064.351755269008
 30
0.0
 10
1543.466761717891
 20
2048.178657264093
 30
0.0
 10
1543.471348022293
 20
2038.276436785839
 30
0.0
 10
1543.476311565303
 20
2029.364565387607
 30
0.0
 10
1543.482128566538
 20
2020.451411376725
 30
0.0
 10
1543.487370584763
 20
2013.396856564312
 30
0.0
 10
1543.491665098358
 20
2008.195671731298
 30
0.0
 10
1543.494361197481
 20
2005.413664442087
 30
0.0
 10
1543.495943856345
 20
2003.175024080895
 30
0.0
 10
1543.497801585697
 20
2001.482169581432
 30
0.0
 10
1543.481183895062
 20
2000.170124406041
 30
0.0
 10
1543.438253112159
 20
1999.065245611616
 30
0.0
 10
1543.377137509647
 20
1998.091190377504
 30
0.0
 10
1543.234406941242
 20
1996.714583496959
 30
0.0
 10
1542.957202298713
 20
1995.077193287522
 30
0.0
 10
1542.41318563027
 20
1992.982221598781
 30
0.0
 10
1541.656449667134
 20
1991.018404180848
 30
0.0
 10
1540.48841974356
 20
1988.782915118321
 30
0.0
 10
1538.932185611652
 20
1986.545040086867
 30
0.0
 10
1537.110773103332
 20
1984.709489853129
 30
0.0
 10
1535.137040420792
 20
1983.1590811935
 30
0.0
 10
1533.412199651363
 20
1982.09127979207
 30
0.0
 10
1531.125928512491
 20
1981.046130841318
 30
0.0
 10
1529.330535342421
 20
1980.46922243177
 30
0.0
 10
1527.827452779018
 20
1980.135415494706
 30
0.0
 10
1526.596143217619
 20
1979.918119812234
 30
0.0
 10
1525.287532971371
 20
1979.767381382939
 30
0.0
 10
1523.821557241842
 20
1979.682034459816
 30
0.0
 10
1522.835868575363
 20
1979.656590054314
 30
0.0
 10
1522.131117552242
 20
1979.647343853286
 30
0.0
 10
1521.302588225473
 20
1979.640492196108
 30
0.0
 10
1520.048479551085
 20
1979.640474293293
 30
0.0
 10
1517.809416317759
 20
1979.643415332322
 30
0.0
 10
1515.579660965951
 20
1979.644719505476
 30
0.0
 10
1512.258116532452
 20
1979.649093116919
 30
0.0
 10
1508.394234085796
 20
1979.655138872912
 30
0.0
 10
1502.609994061443
 20
1979.661382048656
 30
0.0
 10
1495.997945664843
 20
1979.668729342757
 30
0.0
 10
1487.318585124718
 20
1979.677380897456
 30
0.0
 10
1477.39964990752
 20
1979.686338895249
 30
0.0
 10
1464.38097861327
 20
1979.696479041469
 30
0.0
 10
1449.503477302743
 20
1979.705843223801
 30
0.0
 10
1426.830231506545
 20
1979.716073595515
 30
0.0
 10
1409.736477956474
 20
1979.719174558583
 30
0.0
 10
1398.22131848213
 20
1979.719174558583
 30
0.0
  0
SPLINE
  5
5622
330
A
100
AcDbEntity
  8
HIDDEN
100
AcDbSpline
210
0.0
220
0.0
230
1.0
 70
     8
 71
     3
 72
    53
 73
    49
 74
     0
 42
0.000000001
 43
0.0000000001
 40
0.0
 40
0.0
 40
0.0
 40
0.0
 40
39.60650290455561
 40
57.43041811752905
 40
75.25496036674569
 40
88.62354761292056
 40
101.9936762597623
 40
108.6795444103011
 40
115.3657612065419
 40
118.7098518013393
 40
120.3811771550189
 40
122.0515880581815
 40
122.8864259142294
 40
124.3607047894029
 40
125.4605918438319
 40
125.6880082814369
 40
126.1505859575664
 40
126.6228640159759
 40
127.3465150612493
 40
128.826349406653
 40
131.0366807003684
 40
131.8896438349638
 40
133.1625826947086
 40
134.4275214579232
 40
136.3110229588084
 40
138.1801695488487
 40
141.2708078729025
 40
146.1760308066837
 40
149.2322612816068
 40
151.0683937451271
 40
154.1416383832134
 40
155.3806438045854
 40
156.1967566973836
 40
157.8113683926734
 40
159.2134343538183
 40
160.2281636592933
 40
161.0288748682845
 40
162.5593639550097
 40
164.3840062018785
 40
166.560912324232
 40
168.0121435039951
 40
173.816902555709
 40
179.6212864112468
 40
187.4425051211165
 40
195.2628807658673
 40
206.9941521751821
 40
218.7228589567534
 40
248.7948141301214
 40
248.7948141301214
 40
248.7948141301214
 40
248.7948141301214
 10
1398.22131848213
 20
1979.719174832753
 30
0.0
 10
1385.019476741137
 20
1979.719174832753
 30
0.0
 10
1365.876257372904
 20
1979.722499762334
 30
0.0
 10
1340.791206028836
 20
1979.727421094339
 30
0.0
 10
1324.451955203789
 20
1979.72980058542
 30
0.0
 10
1309.597271602258
 20
1979.730486742051
 30
0.0
 10
1298.455224735232
 20
1979.729596129712
 30
0.0
 10
1289.541221656559
 20
1979.727904372242
 30
0.0
 10
1283.968132507302
 20
1979.726260838874
 30
0.0
 10
1280.068569406343
 20
1979.724863647461
 30
0.0
 10
1277.839291628756
 20
1979.724238023588
 30
0.0
 10
1276.446208320949
 20
1979.723518895529
 30
0.0
 10
1275.11861854521
 20
1979.722802131881
 30
0.0
 10
1273.980573607986
 20
1979.720688324258
 30
0.0
 10
1273.079966401826
 20
1979.720096777621
 30
0.0
 10
1272.519622801591
 20
1979.724256138567
 30
0.0
 10
1272.160345664014
 20
1979.728804575411
 30
0.0
 10
1271.655707840231
 20
1979.740048887971
 30
0.0
 10
1270.855561944873
 20
1979.770248217221
 30
0.0
 10
1269.564894910602
 20
1979.866294995966
 30
0.0
 10
1268.253937012391
 20
1980.06518949131
 30
0.0
 10
1267.016922284382
 20
1980.339716979473
 30
0.0
 10
1266.058948058736
 20
1980.600454133128
 30
0.0
 10
1264.82802569701
 20
1981.011949252981
 30
0.0
 10
1263.462634246417
 20
1981.578240158168
 30
0.0
 10
1261.665969919412
 20
1982.506786287711
 30
0.0
 10
1259.227144000732
 20
1984.130155134661
 30
0.0
 10
1256.842185309157
 20
1986.418099358214
 30
0.0
 10
1255.128219993698
 20
1988.780698177745
 30
0.0
 10
1253.963601803844
 20
1990.837287034893
 30
0.0
 10
1253.256455268935
 20
1992.513699307412
 30
0.0
 10
1252.822802224574
 20
1993.957055466977
 30
0.0
 10
1252.566813260003
 20
1995.003261255354
 30
0.0
 10
1252.367324783393
 20
1996.110565942397
 30
0.0
 10
1252.242116238114
 20
1997.299680662789
 30
0.0
 10
1252.187525220476
 20
1998.274470613862
 30
0.0
 10
1252.158002249699
 20
1999.313681046573
 30
0.0
 10
1252.152434722905
 20
2000.65148372341
 30
0.0
 10
1252.156721095721
 20
2002.497714607279
 30
0.0
 10
1252.158577985252
 20
2004.314738083702
 30
0.0
 10
1252.162798125987
 20
2007.459424348546
 30
0.0
 10
1252.168065359402
 20
2011.812957987037
 30
0.0
 10
1252.175484499863
 20
2018.290163223111
 30
0.0
 10
1252.182827403098
 20
2025.439213142377
 30
0.0
 10
1252.19107843875
 20
2034.564057849051
 30
0.0
 10
1252.198886225021
 20
2044.991501170649
 30
0.0
 10
1252.208979862094
 20
2062.836681619366
 30
0.0
 10
1252.212389378153
 20
2076.771272377056
 30
0.0
 10
1252.212389378153
 20
2086.796064396612
 30
0.0
  0
SPLINE
  5
5623
330
A
100
AcDbEntity
  8
HIDDEN
100
AcDbSpline
210
0.0
220
0.0
230
1.0
 70
     8
 71
     3
 72
    53
 73
    49
 74
     0
 42
0.000000001
 43
0.0000000001
 40
0.0
 40
0.0
 40
0.0
 40
0.0
 40
39.60650290455561
 40
57.43041811752905
 40
75.25496036674569
 40
88.62354761292056
 40
101.9936762597623
 40
108.6795444103011
 40
115.3657612065419
 40
118.7098518013393
 40
120.3811771550189
 40
122.0515880581815
 40
122.8864259142294
 40
124.3607047894029
 40
125.4605918438319
 40
125.6880082814369
 40
126.1505859575664
 40
126.6228640159759
 40
127.3465150612493
 40
128.826349406653
 40
131.0366807003684
 40
131.8896438349638
 40
133.1625826947086
 40
134.4275214579233
 40
136.3110229588085
 40
138.1801695488488
 40
141.2708078729025
 40
146.1760308066836
 40
149.2322612816067
 40
151.0683937451271
 40
154.1416383832134
 40
155.3806438045853
 40
156.1967566973835
 40
157.8113683926734
 40
159.2134343538183
 40
160.2281636592932
 40
161.0288748682844
 40
162.5593639550097
 40
164.3840062018785
 40
166.560912324232
 40
168.0121435039951
 40
173.816902555709
 40
179.6212864112468
 40
187.4425051211166
 40
195.2628807658674
 40
206.9941521751823
 40
218.7228589567537
 40
248.7948141301212
 40
248.7948141301212
 40
248.7948141301212
 40
248.7948141301212
 10
1398.22131848213
 20
2193.872954055627
 30
0.0
 10
1385.019476741137
 20
2193.872954055627
 30
0.0
 10
1365.876257372904
 20
2193.869629126094
 30
0.0
 10
1340.791206028836
 20
2193.864707794165
 30
0.0
 10
1324.451955203789
 20
2193.862328303126
 30
0.0
 10
1309.597271602258
 20
2193.861642146505
 30
0.0
 10
1298.455224735232
 20
2193.862532758861
 30
0.0
 10
1289.541221656559
 20
2193.864224516283
 30
0.0
 10
1283.968132507302
 20
2193.865868049697
 30
0.0
 10
1280.068569406343
 20
2193.86726524102
 30
0.0
 10
1277.839291628756
 20
2193.867890864879
 30
0.0
 10
1276.446208320949
 20
2193.868609992991
 30
0.0
 10
1275.11861854521
 20
2193.869326756754
 30
0.0
 10
1273.980573607986
 20
2193.871440564459
 30
0.0
 10
1273.079966401826
 20
2193.872032109089
 30
0.0
 10
1272.519622801591
 20
2193.867872745986
 30
0.0
 10
1272.160345664014
 20
2193.863324307481
 30
0.0
 10
1271.655707840231
 20
2193.852079992113
 30
0.0
 10
1270.855561944873
 20
2193.821880657634
 30
0.0
 10
1269.564894910602
 20
2193.725833869172
 30
0.0
 10
1268.253937012391
 20
2193.526939364227
 30
0.0
 10
1267.016922284382
 20
2193.252411867731
 30
0.0
 10
1266.058948058736
 20
2192.991674708021
 30
0.0
 10
1264.82802569701
 20
2192.580179581014
 30
0.0
 10
1263.462634246417
 20
2192.013888668696
 30
0.0
 10
1261.665969919412
 20
2191.085342530876
 30
0.0
 10
1259.227144000732
 20
2189.461973674434
 30
0.0
 10
1256.842185309157
 20
2187.174029443794
 30
0.0
 10
1255.128219993698
 20
2184.811430620363
 30
0.0
 10
1253.963601803844
 20
2182.754841761165
 30
0.0
 10
1253.256455268935
 20
2181.078429487933
 30
0.0
 10
1252.822802224574
 20
2179.635073328456
 30
0.0
 10
1252.566813260003
 20
2178.588867540378
 30
0.0
 10
1252.367324783393
 20
2177.481562853941
 30
0.0
 10
1252.242116238114
 20
2176.292448134499
 30
0.0
 10
1252.187525220476
 20
2175.317658184204
 30
0.0
 10
1252.158002249699
 20
2174.278447752174
 30
0.0
 10
1252.152434722905
 20
2172.940645075785
 30
0.0
 10
1252.156721095721
 20
2171.094414191683
 30
0.0
 10
1252.158577985252
 20
2169.277390715052
 30
0.0
 10
1252.162798125981
 20
2166.132704449839
 30
0.0
 10
1252.168065359402
 20
2161.779170810862
 30
0.0
 10
1252.175484499863
 20
2155.301965574088
 30
0.0
 10
1252.182827403098
 20
2148.152915654099
 30
0.0
 10
1252.19107843875
 20
2139.028070946577
 30
0.0
 10
1252.198886225021
 20
2128.600627624136
 30
0.0
 10
1252.208979862094
 20
2110.755447174277
 30
0.0
 10
1252.212389378153
 20
2096.820856416164
 30
0.0
 10
1252.212389378153
 20
2086.796064396612
 30
0.0
  0
SPLINE
  5
5624
330
A
100
AcDbEntity
  8
HIDDEN
100
AcDbSpline
210
0.0
220
0.0
230
1.0
 70
     8
 71
     3
 72
    51
 73
    47
 74
     0
 42
0.000000001
 43
0.0000000001
 40
0.0
 40
0.0
 40
0.0
 40
0.0
 40
27.72376602770055
 40
39.60668633819128
 40
48.51758428513629
 40
57.42925828830426
 40
66.34168378646874
 40
75.2548119121416
 40
78.59593499490697
 40
81.93828240078632
 40
83.6093748094074
 40
85.30097019733064
 40
87.05291730784666
 40
87.73398008459492
 40
88.87330092266707
 40
90.26116461321533
 40
92.3626125057903
 40
94.50461741787825
 40
97.660822136486
 40
99.58104478622165
 40
103.185630312951
 40
107.0351887396912
 40
108.4796491789223
 40
111.8511869218043
 40
114.0190021034123
 40
117.1434195840821
 40
118.3374694970232
 40
119.2869303052548
 40
121.3947130836398
 40
122.7654731938932
 40
124.0983289723158
 40
124.5338802465472
 40
124.9654344994468
 40
126.6616217782773
 40
128.3355686305148
 40
131.6787556376718
 40
133.3511852819152
 40
138.3080865855456
 40
143.2648089910942
 40
150.7042148053492
 40
158.1431590464282
 40
169.3020743546599
 40
180.4598979246972
 40
197.1977755258167
 40
213.9329555907469
 40
248.477171057691
 40
248.477171057691
 40
248.477171057691
 40
248.477171057691
 10
1543.459120390616
 20
2086.796064444188
 30
0.0
 10
1543.459120390616
 20
2096.037657793377
 30
0.0
 10
1543.461044226555
 20
2109.240373619506
 30
0.0
 10
1543.466761717891
 20
2125.413471624826
 30
0.0
 10
1543.471348022293
 20
2135.315692103401
 30
0.0
 10
1543.476311565303
 20
2144.227563501976
 30
0.0
 10
1543.482128566538
 20
2153.140717513264
 30
0.0
 10
1543.487370584763
 20
2160.195272326024
 30
0.0
 10
1543.491665098358
 20
2165.396457159352
 30
0.0
 10
1543.494361197481
 20
2168.178464448708
 30
0.0
 10
1543.495943856345
 20
2170.417104810095
 30
0.0
 10
1543.497801585697
 20
2172.109959309445
 30
0.0
 10
1543.481183895062
 20
2173.422004484165
 30
0.0
 10
1543.438253112159
 20
2174.526883277759
 30
0.0
 10
1543.377137509647
 20
2175.500938510986
 30
0.0
 10
1543.234406941242
 20
2176.877545390028
 30
0.0
 10
1542.957202298713
 20
2178.514935597221
 30
0.0
 10
1542.41318563027
 20
2180.609907282405
 30
0.0
 10
1541.656449667134
 20
2182.573724696716
 30
0.0
 10
1540.48841974356
 20
2184.809213755766
 30
0.0
 10
1538.932185611652
 20
2187.047088785068
 30
0.0
 10
1537.110773103341
 20
2188.882639019473
 30
0.0
 10
1535.137040420792
 20
2190.433047681487
 30
0.0
 10
1533.412199651363
 20
2191.500849085954
 30
0.0
 10
1531.125928512491
 20
2192.545998041056
 30
0.0
 10
1529.330535342421
 20
2193.122906453493
 30
0.0
 10
1527.827452779018
 20
2193.456713392437
 30
0.0
 10
1526.596143217619
 20
2193.674009076331
 30
0.0
 10
1525.287532971371
 20
2193.824747507098
 30
0.0
 10
1523.821557241842
 20
2193.910094431806
 30
0.0
 10
1522.835868575363
 20
2193.93553883815
 30
0.0
 10
1522.131117552242
 20
2193.944785039611
 30
0.0
 10
1521.302588225473
 20
2193.951636697202
 30
0.0
 10
1520.048479551085
 20
2193.95165460027
 30
0.0
 10
1517.809416317759
 20
2193.948713561168
 30
0.0
 10
1515.579660965951
 20
2193.947409387833
 30
0.0
 10
1512.258116532452
 20
2193.943035776179
 30
0.0
 10
1508.394234085796
 20
2193.936990019874
 30
0.0
 10
1502.609994061443
 20
2193.93074684369
 30
0.0
 10
1495.997945664843
 20
2193.923399549112
 30
0.0
 10
1487.318585124718
 20
2193.914747993827
 30
0.0
 10
1477.39964990752
 20
2193.905789995428
 30
0.0
 10
1464.38097861327
 20
2193.895649848508
 30
0.0
 10
1449.503477302743
 20
2193.886285665524
 30
0.0
 10
1426.830231506545
 20
2193.876055293088
 30
0.0
 10
1409.736477956474
 20
2193.872954329799
 30
0.0
 10
1398.22131848213
 20
2193.872954329799
 30
0.0
  0
LINE
  5
5625
330
A
100
AcDbEntity
  8
HIDDEN
100
AcDbLine
 10
1247.936374898701
 20
2203.803554295297
 30
0.0
 11
1639.952573885378
 21
2203.803554295297
 31
0.0
  0
LINE
  5
5626
330
A
100
AcDbEntity
  8
HIDDEN
100
AcDbLine
 10
1241.936984118075
 20
2197.804163514671
 30
0.0
 11
1241.936984118075
 21
1975.787975486328
 31
0.0
  0
LINE
  5
5627
330
A
100
AcDbEntity
  8
HIDDEN
100
AcDbLine
 10
1247.936374898701
 20
1969.788584705702
 30
0.0
 11
1639.952573885378
 21
1969.788584705702
 31
0.0
  0
LINE
  5
5628
330
A
100
AcDbEntity
  8
HIDDEN
100
AcDbLine
 10
1645.951964666005
 20
1975.787975486328
 30
0.0
 11
1645.951964666005
 21
2197.804163514671
 31
0.0
  0
CIRCLE
  5
5629
330
A
100
AcDbEntity
  8
HIDDEN
100
AcDbCircle
 10
1587.117607278152
 20
2086.796069456787
 30
0.0
 40
17.50000000000182
  0
DIMENSION
  5
562A
102
{ACAD_REACTORS
330
562C
102
}
102
{ACAD_XDICTIONARY
360
562B
102
}
330
A
100
AcDbEntity
  8
Dim
100
AcDbDimension
  2
*D70
 10
1615.968044505929
 20
2269.7749466928
 30
0.0
 11
1631.37760390397
 21
2269.7749466928
 31
0.0
 70
   160
 71
     5
 42
29.98361555038491
 73
     0
 74
     0
 75
     0
 52
-89.99999999999999
  3
tform線あり
100
AcDbAlignedDimension
 13
1645.951660056314
 23
2189.856334891566
 33
0.0
 14
1615.968044505929
 24
2190.847696847015
 34
0.0
 50
180.0
100
AcDbRotatedDimension
  0
DIMENSION
  5
562D
102
{ACAD_REACTORS
330
562F
102
}
102
{ACAD_XDICTIONARY
360
562E
102
}
330
A
100
AcDbEntity
  8
Dim
100
AcDbDimension
  2
*D71
 10
1365.968044505929
 20
2269.7749466928
 30
0.0
 11
1490.968044505929
 21
2291.99125528655
 31
0.0
 70
    32
 71
     5
 42
250.0
 73
     0
 74
     0
 75
     0
 52
-89.99999999999999
  3
tform線あり
100
AcDbAlignedDimension
 13
1615.968044505929
 23
2190.847696847015
 33
0.0
 14
1365.968044505929
 24
2190.847696847015
 34
0.0
 50
180.0
100
AcDbRotatedDimension
  0
DIMENSION
  5
5630
330
A
100
AcDbEntity
  8
Dim
100
AcDbDimension
  2
*D72
 10
1744.710046688079
 20
2138.803249684082
 30
0.0
 11
1722.493738094329
 21
2171.303249684082
 31
0.0
 70
    32
 71
     5
 42
65.0
 73
     0
 74
     0
 75
     0
 52
-90.0
  3
tform線あり
100
AcDbAlignedDimension
 13
1639.952573885369
 23
2203.803249684082
 33
0.0
 14
1639.952573885369
 24
2138.803249684082
 34
0.0
 50
90.00000000000001
100
AcDbRotatedDimension
  0
DIMENSION
  5
5631
330
A
100
AcDbEntity
  8
Dim
100
AcDbDimension
  2
*D73
 10
1744.710046688079
 20
2039.00104542598
 30
0.0
 11
1722.493738094329
 21
2088.902147555031
 31
0.0
 70
    32
  1
100
 71
     5
 42
99.80220425810194
 73
     0
 74
     0
 75
     0
 52
-90.0
  3
tform線あり
100
AcDbAlignedDimension
 13
1639.952573885369
 23
2138.803249684082
 33
0.0
 14
1646.239069349762
 24
2039.00104542598
 34
0.0
 50
90.00000000000001
100
AcDbRotatedDimension
  0
HATCH
  5
5632
330
A
100
AcDbEntity
  8
Dim
100
AcDbHatch
 10
0.0
 20
0.0
 30
0.0
210
0.0
220
0.0
230
1.0
  2
ANSI31
 70
     0
 71
     1
 91
        1
 92
        1
 93
        4
 72
     1
 10
1365.968044505929
 20
2138.803249684082
 11
1365.968044505929
 21
2039.00104542598
 72
     1
 10
1615.968044505929
 20
2138.803249684082
 11
1365.968044505929
 21
2138.803249684082
 72
     1
 10
1615.968044505929
 20
2039.00104542598
 11
1365.968044505929
 21
2039.00104542598
 72
     1
 10
1615.968044505929
 20
2138.803249684082
 11
1615.968044505929
 21
2039.00104542598
 97
        4
330
5636
330
5633
330
5634
330
5635
 75
     0
 76
     1
 52
180.0
 41
4.0
 77
     0
 78
     1
 53
135.0
 43
3388.646644231816
 44
1010.686733579348
 45
8.980256121069152
 46
8.980256121069154
 79
     0
 98
        1
 10
3388.646644231816
 20
1010.686733579348
1001
ACAD
1010
0.0
1020
0.0
1030
0.0
  0
LINE
  5
5633
102
{ACAD_REACTORS
330
5632
102
}
330
A
100
AcDbEntity
  8
Dim
100
AcDbLine
 10
1615.968044505929
 20
2138.803249684082
 30
0.0
 11
1365.968044505929
 21
2138.803249684082
 31
0.0
  0
LINE
  5
5634
102
{ACAD_REACTORS
330
5632
102
}
330
A
100
AcDbEntity
  8
Dim
100
AcDbLine
 10
1615.968044505929
 20
2039.00104542598
 30
0.0
 11
1365.968044505929
 21
2039.00104542598
 31
0.0
  0
LINE
  5
5635
102
{ACAD_REACTORS
330
5632
102
}
330
A
100
AcDbEntity
  8
Dim
100
AcDbLine
 10
1615.968044505929
 20
2138.803249684082
 30
0.0
 11
1615.968044505929
 21
2039.00104542598
 31
0.0
  0
LINE
  5
5636
102
{ACAD_REACTORS
330
5632
102
}
330
A
100
AcDbEntity
  8
Dim
100
AcDbLine
 10
1365.968044505929
 20
2138.803249684082
 30
0.0
 11
1365.968044505929
 21
2039.00104542598
 31
0.0
  0
MTEXT
  5
5637
330
A
100
AcDbEntity
  8
Dim
390
1D
100
AcDbMText
 10
1161.282535609134
 20
1695.894583079348
 30
17.49760566173007
 40
24.0
 41
896.0257214424064
 46
117.1618955823293
 71
     1
 72
     1
  1
{※陶器製品には寸法公差があります。\P  洗面器の収め方をご確認の上、必ず現物を合わせて\P  カウンターに切込を行ってください。}
  7
ＭＳ ゴシック
 73
     1
 44
1.043768984567712
1001
ACAD
1000
ACAD_MTEXT_DEFINED_HEIGHT_BEGIN
1070
    46
1040
117.1618955823293
1000
ACAD_MTEXT_DEFINED_HEIGHT_END
  0
MTEXT
  5
573D
330
A
100
AcDbEntity
  8
template
390
1D
100
AcDbMText
 10
1578.58361929172
 20
234.4414968978188
 30
0.0
 40
24.4326171875
 41
0.0
 46
24.4326171875
 71
     1
 72
     1
  1
{4L}
  7
ＭＳ ゴシック
 73
     1
 44
0.7828267384257843
1001
ACAD
1000
ACAD_MTEXT_DEFINED_HEIGHT_BEGIN
1070
    46
1040
24.4326171875
1000
ACAD_MTEXT_DEFINED_HEIGHT_END
  0
MTEXT
  5
573E
330
A
100
AcDbEntity
  8
template
390
1D
100
AcDbMText
 10
1332.000000000742
 20
234.4414968978188
 30
0.0
 40
24.4326171875
 41
0.0
 46
28.390701171875
 71
     1
 72
     1
  1
{7kg}
  7
ＭＳ ゴシック
 73
     1
 44
0.7828267384257843
1001
ACAD
1000
ACAD_MTEXT_DEFINED_HEIGHT_BEGIN
1070
    46
1040
28.390701171875
1000
ACAD_MTEXT_DEFINED_HEIGHT_END
  0
MTEXT
  5
5786
330
A
100
AcDbEntity
  8
Dim
390
1D
100
AcDbMText
 10
1289.000090170261
 20
2468.269001621695
 30
17.49760566173007
 40
24.0
 41
416.9648993209196
 46
13.7066982421875
 71
     1
 72
     1
  1
{カウンター切込寸法}
  7
ＭＳ ゴシック
 73
     1
 44
1.043768984567712
1001
ACAD
1000
ACAD_MTEXT_DEFINED_HEIGHT_BEGIN
1070
    46
1040
13.7066982421875
1000
ACAD_MTEXT_DEFINED_HEIGHT_END
  0
DIMENSION
  5
57AB
330
A
100
AcDbEntity
  8
Dim
100
AcDbDimension
  2
*D74
 10
523.3055143721463
 20
850.6579775443203
 30
0.0
 11
648.3055143721463
 21
872.8742861380703
 31
0.0
 70
    32
 71
     5
 42
250.0
 73
     0
 74
     0
 75
     0
 52
-89.99999999999999
  3
tform線あり
100
AcDbAlignedDimension
 13
773.3055143721463
 23
942.7612721762841
 33
0.0
 14
523.3055143721463
 24
942.7612721762841
 34
0.0
 50
180.0
100
AcDbRotatedDimension
1001
ACAD
1000
DSTYLE
1002
{
1070
   144
1040
1.0
1002
}
  0
MTEXT
  5
57DC
330
A
100
AcDbEntity
  8
Dim
390
1D
100
AcDbMText
 10
198.1293898102032
 20
709.8121585053309
 30
17.49760566173007
 40
24.0
 41
1518.637143789796
 46
42.256
 71
     1
 72
     1
  1
{\T1.1;※壁掛けの場合、左シンク/右シンクより選択可能です。}
  7
ＭＳ ゴシック
 73
     1
 44
1.043768984567712
1001
ACAD
1000
ACAD_MTEXT_DEFINED_HEIGHT_BEGIN
1070
    46
1040
42.256
1000
ACAD_MTEXT_DEFINED_HEIGHT_END
  0
VIEWPORT
  5
349
330
B
100
AcDbEntity
 67
     1
  8
0
100
AcDbViewport
 10
202.5
 20
128.5
 30
0.0
 40
486.0
 41
308.4
 68
     1
 69
     1
 12
202.5
 22
128.5
 13
0.0
 23
0.0
 14
0.5
 24
0.5
 15
0.0
 25
0.0
 16
0.0
 26
0.0
 36
1.0
 17
0.0
 27
0.0
 37
0.0
 42
50.0
 43
0.0
 44
0.0
 45
308.4
 50
0.0
 51
0.0
 72
   100
 90
   557152
  1

281
     0
 71
     1
 74
     0
110
0.0
120
0.0
130
0.0
111
1.0
121
0.0
131
0.0
112
0.0
122
1.0
132
0.0
 79
     0
146
0.0
170
     0
 61
     5
348
26C
292
     1
282
     1
141
0.0
142
0.0
 63
   256
  0
VIEWPORT
  5
34A
330
B
100
AcDbEntity
 67
     1
  8
0
100
AcDbViewport
 10
202.5
 20
128.5
 30
0.0
 40
324.0
 41
205.6
 68
     2
 69
     2
 12
986.6781359294573
 22
1427.077061889956
 13
0.0
 23
0.0
 14
0.5
 24
0.5
 15
0.0
 25
0.0
 16
0.0
 26
0.0
 36
1.0
 17
0.0
 27
0.0
 37
0.0
 42
50.0
 43
0.0
 44
0.0
 45
2890.021615685494
 50
0.0
 51
0.0
 72
   100
 90
   557152
  1

281
     0
 71
     1
 74
     0
110
0.0
120
0.0
130
0.0
111
1.0
121
0.0
131
0.0
112
0.0
122
1.0
132
0.0
 79
     0
146
0.0
170
     0
 61
     5
348
26C
292
     1
282
     1
141
0.0
142
0.0
 63
   256
  0
ENDSEC
  0
SECTION
  2
OBJECTS
  0
DICTIONARY
  5
19
330
0
100
AcDbDictionary
281
     1
  3
ACAD_COLOR
350
38F
  3
ACAD_DETAILVIEWSTYLE
350
8CF
  3
ACAD_FIELDLIST
350
BA6
  3
ACAD_GROUP
350
1A
  3
ACAD_IMAGE_VARS
350
27B
  3
ACAD_LAYOUT
350
1E
  3
ACAD_MATERIAL
350
263
  3
ACAD_MLEADERSTYLE
350
336
  3
ACAD_MLINESTYLE
350
1B
  3
ACAD_PLOTSETTINGS
350
22
  3
ACAD_PLOTSTYLENAME
350
1F
  3
ACAD_SCALELIST
350
241
  3
ACAD_SECTIONVIEWSTYLE
350
8D0
  3
ACAD_TABLESTYLE
350
278
  3
ACAD_VISUALSTYLE
350
267
  3
ACDB_RECOMPOSE_DATA
350
586F
  3
AcDbVariableDictionary
350
330
  3
APPDATA
350
27A
  3
DimOffsetDictionary
350
C08
  0
SUN
  5
8C2
330
15
100
AcDbSun
 90
        1
290
     0
 63
     7
421
 16777215
 40
1.0
291
     1
 91
  2455826
 92
 54000000
292
     0
 70
     2
 71
   256
280
     1
  0
DICTIONARY
  5
2E1
330
2
100
AcDbDictionary
280
     1
281
     1
  3
ACAD_LAYERSTATES
360
2E2
  3
ACLYDICTIONARY
360
50B8
  0
DICTIONARY
  5
BDC
330
BDB
100
AcDbDictionary
280
     1
281
     1
  3
ACAD_FIELD
360
BE4
  0
DICTIONARY
  5
55FB
330
55FA
100
AcDbDictionary
280
     1
281
     1
  3
AcDbContextDataManager
360
55FC
  0
DICTIONARY
  5
560F
330
560E
100
AcDbDictionary
280
     1
281
     1
  3
ACAD_DIMASSOC
360
5610
  0
DICTIONARY
  5
5613
330
5612
100
AcDbDictionary
280
     1
281
     1
  3
ACAD_DIMASSOC
360
5614
  0
DICTIONARY
  5
5616
330
5615
100
AcDbDictionary
280
     1
281
     1
  3
ACAD_DIMASSOC
360
5617
  0
DICTIONARY
  5
562B
330
562A
100
AcDbDictionary
280
     1
281
     1
  3
ACAD_DIMASSOC
360
562C
  0
DICTIONARY
  5
562E
330
562D
100
AcDbDictionary
280
     1
281
     1
  3
ACAD_DIMASSOC
360
562F
  0
DICTIONARY
  5
38F
102
{ACAD_REACTORS
330
19
102
}
330
19
100
AcDbDictionary
281
     1
  0
DICTIONARY
  5
8CF
102
{ACAD_REACTORS
330
19
102
}
330
19
100
AcDbDictionary
281
     1
  0
FIELDLIST
  5
BA6
102
{ACAD_REACTORS
330
19
102
}
330
19
100
AcDbIdSet
 90
        2
330
BDF
330
BDE
100
AcDbFieldList
  0
DICTIONARY
  5
1A
102
{ACAD_REACTORS
330
19
102
}
330
19
100
AcDbDictionary
281
     1
  0
RASTERVARIABLES
  5
27B
102
{ACAD_REACTORS
330
19
102
}
330
19
100
AcDbRasterVariables
 90
        0
 70
     1
 71
     1
 72
     1
  0
DICTIONARY
  5
1E
102
{ACAD_REACTORS
330
19
102
}
330
19
100
AcDbDictionary
281
     1
  3
Layout1
350
21
  3
Model
350
20
  0
DICTIONARY
  5
263
102
{ACAD_REACTORS
330
19
102
}
330
19
100
AcDbDictionary
281
     1
  3
ByBlock
350
50C8
  3
ByLayer
350
264
  3
Global
350
266
  0
DICTIONARY
  5
336
102
{ACAD_REACTORS
330
19
102
}
330
19
100
AcDbDictionary
281
     1
  3
Standard
350
8D1
  0
DICTIONARY
  5
1B
102
{ACAD_REACTORS
330
19
102
}
330
19
100
AcDbDictionary
281
     1
  3
Standard
350
1C
  0
DICTIONARY
  5
22
102
{ACAD_REACTORS
330
19
102
}
330
19
100
AcDbDictionary
281
     1
  0
ACDBDICTIONARYWDFLT
  5
1F
102
{ACAD_REACTORS
330
19
102
}
330
19
100
AcDbDictionary
281
     1
  3
Normal
350
1D
100
AcDbDictionaryWithDefault
340
1D
  0
DICTIONARY
  5
241
102
{ACAD_REACTORS
330
19
102
}
330
19
100
AcDbDictionary
281
     1
  3
A0
350
242
  3
A1
350
243
  3
A2
350
244
  3
A3
350
245
  3
A4
350
246
  3
A5
350
247
  3
A6
350
248
  3
A7
350
249
  3
A8
350
24A
  3
A9
350
24B
  3
B0
350
24C
  3
B1
350
24D
  3
B2
350
24E
  3
B3
350
24F
  3
B4
350
250
  3
B5
350
251
  3
B6
350
252
  3
B7
350
253
  3
B8
350
254
  3
B9
350
255
  3
C0
350
256
  3
C1
350
257
  3
C2
350
258
  3
C3
350
259
  3
C4
350
25A
  3
C5
350
25B
  3
C6
350
25C
  3
C7
350
25D
  3
C8
350
25E
  3
C9
350
25F
  3
D0
350
260
  3
D1
350
261
  3
D2
350
262
  0
DICTIONARY
  5
8D0
102
{ACAD_REACTORS
330
19
102
}
330
19
100
AcDbDictionary
281
     1
  0
DICTIONARY
  5
278
102
{ACAD_REACTORS
330
19
102
}
330
19
100
AcDbDictionary
281
     1
  3
Standard
350
279
  0
DICTIONARY
  5
267
102
{ACAD_REACTORS
330
19
102
}
330
19
100
AcDbDictionary
281
     1
  3
2dWireframe
350
26C
  3
3D Hidden
350
26E
  3
3dWireframe
350
26D
  3
Basic
350
26F
  3
Brighten
350
273
  3
ColorChange
350
277
  3
Conceptual
350
271
  3
Dim
350
272
  3
EdgeColorOff
350
8BC
  3
Facepattern
350
276
  3
Flat
350
268
  3
FlatWithEdges
350
269
  3
Gouraud
350
26A
  3
GouraudWithEdges
350
26B
  3
Hidden
350
8B9
  3
JitterOff
350
8BA
  3
Linepattern
350
275
  3
OverhangOff
350
8BB
  3
Realistic
350
270
  3
Shaded
350
8C1
  3
Shaded with edges
350
8C0
  3
Shades of Gray
350
8BD
  3
Sketchy
350
8BE
  3
Thicken
350
274
  3
Wireframe
350
8B8
  3
X-Ray
350
8BF
  0
XRECORD
  5
586F
102
{ACAD_REACTORS
330
19
102
}
330
19
100
AcDbXrecord
280
     1
 90
        1
330
279
  0
DICTIONARY
  5
330
102
{ACAD_REACTORS
330
19
102
}
330
19
100
AcDbDictionary
281
     1
  3
CANNOSCALE
350
331
  3
CMLEADERSTYLE
350
8DA
  3
CTABLESTYLE
350
335
  3
HPTRANSPARENCY
350
C07
  3
XCLIPFRAME
350
64A
  0
DICTIONARY
  5
27A
102
{ACAD_REACTORS
330
19
102
}
330
19
100
AcDbDictionary
281
     1
  0
DICTIONARY
  5
C08
102
{ACAD_REACTORS
330
19
102
}
330
19
100
AcDbDictionary
281
     1
  3
DIMRAILANGLE
350
4342
  3
DIMRAILFIRSTOFFSET
350
4340
  3
DIMRAILOFFSET
350
4341
  3
DIMRAILSENABLED
350
4343
  0
DICTIONARY
  5
2E2
102
{ACAD_REACTORS
330
2E1
102
}
330
2E1
100
AcDbDictionary
281
     1
  0
DICTIONARY
  5
50B8
102
{ACAD_REACTORS
330
2E1
102
}
330
2E1
100
AcDbDictionary
281
     1
1001
ACAD
1000
<All
  0
DICTIONARY
  5
BE4
102
{ACAD_REACTORS
330
BDC
102
}
330
BDC
100
AcDbDictionary
280
     1
281
     1
  3
TEXT
360
BDE
  0
DICTIONARY
  5
55FC
102
{ACAD_REACTORS
330
55FB
102
}
330
55FB
100
AcDbDictionary
281
     1
  3
ACDB_ANNOTATIONSCALES
350
55FD
  0
DIMASSOC
  5
5610
102
{ACAD_REACTORS
330
560F
102
}
330
560F
100
AcDbDimAssoc
330
560E
 90
        0
 70
     0
 71
     1
  0
DIMASSOC
  5
5614
102
{ACAD_REACTORS
330
5613
102
}
330
5613
100
AcDbDimAssoc
330
5612
 90
        0
 70
     0
 71
     1
  0
DIMASSOC
  5
5617
102
{ACAD_REACTORS
330
5616
102
}
330
5616
100
AcDbDimAssoc
330
5615
 90
        0
 70
     0
 71
     1
  0
DIMASSOC
  5
562C
102
{ACAD_REACTORS
330
562B
102
}
330
562B
100
AcDbDimAssoc
330
562A
 90
        1
 70
     0
 71
     1
  1
AcDbOsnapPointRef
 72
    10
331
5619
 73
     0
 91
        0
 40
0.9642015805596876
 10
0.0
 20
0.0
 30
0.0
 75
     0
  0
DIMASSOC
  5
562F
102
{ACAD_REACTORS
330
562E
102
}
330
562E
100
AcDbDimAssoc
330
562D
 90
        0
 70
     0
 71
     1
  0
LAYOUT
  5
21
102
{ACAD_REACTORS
330
1E
102
}
330
1E
100
AcDbPlotSettings
  1

  2
none_device
  4
ISO_A3_(420.00_x_297.00_MM)
  6

 40
7.5
 41
20.0
 42
7.5
 43
20.0
 44
420.0
 45
297.0
 46
0.0
 47
0.0
 48
0.0
 49
0.0
140
0.0
141
0.0
142
1.0
143
1.0
 70
     0
 72
     1
 73
     0
 74
     0
  7

 75
     0
 76
     0
 77
     2
 78
   300
147
1.0
148
0.0
149
0.0
100
AcDbLayout
  1
Layout1
 70
     0
 71
     0
 10
0.0
 20
0.0
 11
0.0
 21
0.0
 12
0.0
 22
0.0
 32
0.0
 14
0.0
 24
0.0
 34
0.0
 15
0.0
 25
0.0
 35
0.0
146
0.0
 13
0.0
 23
0.0
 33
0.0
 16
0.0
 26
0.0
 36
0.0
 17
0.0
 27
0.0
 37
0.0
 76
     0
330
B
331
349
  0
LAYOUT
  5
20
102
{ACAD_REACTORS
330
1E
102
}
330
1E
100
AcDbPlotSettings
  1

  2
none_device
  4
ISO_A3_(420.00_x_297.00_MM)
  6

 40
7.5
 41
20.0
 42
7.5
 43
20.0
 44
420.0
 45
297.0
 46
0.0
 47
0.0
 48
0.0
 49
0.0
140
0.0
141
0.0
142
1.0
143
1.0
 70
  1024
 72
     1
 73
     0
 74
     0
  7

 75
     0
 76
     0
 77
     2
 78
   300
147
1.0
148
0.0
149
0.0
100
AcDbLayout
  1
Model
 70
     0
 71
     1
 10
0.0
 20
0.0
 11
2100.0
 21
2970.0
 12
0.0
 22
0.0
 32
0.0
 14
0.0
 24
0.0
 34
0.0
 15
2100.0
 25
2970.0
 35
17.49760566173007
146
0.0
 13
0.0
 23
0.0
 33
0.0
 16
0.0
 26
0.0
 36
0.0
 17
0.0
 27
0.0
 37
0.0
 76
     0
330
A
331
15
  0
MATERIAL
  5
50C8
102
{ACAD_REACTORS
330
263
102
}
330
263
100
AcDbMaterial
  1
ByBlock
 72
     1
 94
      127
  0
MATERIAL
  5
264
102
{ACAD_REACTORS
330
263
102
}
330
263
100
AcDbMaterial
  1
ByLayer
 72
     1
 94
      127
  0
MATERIAL
  5
266
102
{ACAD_REACTORS
330
263
102
}
330
263
100
AcDbMaterial
  1
Global
 72
     1
 94
      127
  0
MLEADERSTYLE
  5
8D1
102
{ACAD_REACTORS
330
336
102
}
330
336
100
AcDbMLeaderStyle
170
     2
171
     1
172
     0
 90
        2
 40
0.0
 41
0.0
173
     1
 91
-1056964608
340
11
 92
       -2
290
     1
 42
2.0
291
     1
 43
8.0
  3
Standard
341
0
 44
4.0
300

342
17
174
     1
178
     6
175
     1
176
     0
 93
-1056964608
 45
4.0
292
     0
297
     0
 46
4.0
343
0
 94
-1056964608
 47
1.0
 49
1.0
140
1.0
293
     1
141
0.0
294
     1
177
     0
142
1.0
295
     0
296
     0
143
3.75
1001
ACAD_MLEADERVER
1070
     2
  0
MLINESTYLE
  5
1C
102
{ACAD_REACTORS
330
1B
102
}
330
1B
100
AcDbMlineStyle
  2
Standard
 70
     0
  3

 62
     0
 51
90.0
 52
90.0
 71
     2
 49
0.5
 62
   256
  6
BYLAYER
 49
-0.5
 62
   256
  6
BYLAYER
  0
ACDBPLACEHOLDER
  5
1D
102
{ACAD_REACTORS
330
1F
102
}
330
1F
  0
SCALE
  5
242
102
{ACAD_REACTORS
330
241
102
}
330
241
100
AcDbScale
 70
     0
300
1:1
140
1.0
141
1.0
290
     1
  0
SCALE
  5
243
102
{ACAD_REACTORS
330
241
102
}
330
241
100
AcDbScale
 70
     0
300
1:2
140
1.0
141
2.0
290
     0
  0
SCALE
  5
244
102
{ACAD_REACTORS
330
241
102
}
330
241
100
AcDbScale
 70
     0
300
1:4
140
1.0
141
4.0
290
     0
  0
SCALE
  5
245
102
{ACAD_REACTORS
330
241
102
}
330
241
100
AcDbScale
 70
     0
300
1:5
140
1.0
141
5.0
290
     0
  0
SCALE
  5
246
102
{ACAD_REACTORS
330
241
102
}
330
241
100
AcDbScale
 70
     0
300
1:8
140
1.0
141
8.0
290
     0
  0
SCALE
  5
247
102
{ACAD_REACTORS
330
241
102
}
330
241
100
AcDbScale
 70
     0
300
1:10
140
1.0
141
10.0
290
     0
  0
SCALE
  5
248
102
{ACAD_REACTORS
330
241
102
}
330
241
100
AcDbScale
 70
     0
300
1:16
140
1.0
141
16.0
290
     0
  0
SCALE
  5
249
102
{ACAD_REACTORS
330
241
102
}
330
241
100
AcDbScale
 70
     0
300
1:20
140
1.0
141
20.0
290
     0
  0
SCALE
  5
24A
102
{ACAD_REACTORS
330
241
102
}
330
241
100
AcDbScale
 70
     0
300
1:30
140
1.0
141
30.0
290
     0
  0
SCALE
  5
24B
102
{ACAD_REACTORS
330
241
102
}
330
241
100
AcDbScale
 70
     0
300
1:40
140
1.0
141
40.0
290
     0
  0
SCALE
  5
24C
102
{ACAD_REACTORS
330
241
102
}
330
241
100
AcDbScale
 70
     0
300
1:50
140
1.0
141
50.0
290
     0
  0
SCALE
  5
24D
102
{ACAD_REACTORS
330
241
102
}
330
241
100
AcDbScale
 70
     0
300
1:100
140
1.0
141
100.0
290
     0
  0
SCALE
  5
24E
102
{ACAD_REACTORS
330
241
102
}
330
241
100
AcDbScale
 70
     0
300
2:1
140
2.0
141
1.0
290
     0
  0
SCALE
  5
24F
102
{ACAD_REACTORS
330
241
102
}
330
241
100
AcDbScale
 70
     0
300
4:1
140
4.0
141
1.0
290
     0
  0
SCALE
  5
250
102
{ACAD_REACTORS
330
241
102
}
330
241
100
AcDbScale
 70
     0
300
8:1
140
8.0
141
1.0
290
     0
  0
SCALE
  5
251
102
{ACAD_REACTORS
330
241
102
}
330
241
100
AcDbScale
 70
     0
300
10:1
140
10.0
141
1.0
290
     0
  0
SCALE
  5
252
102
{ACAD_REACTORS
330
241
102
}
330
241
100
AcDbScale
 70
     0
300
100:1
140
100.0
141
1.0
290
     0
  0
SCALE
  5
253
102
{ACAD_REACTORS
330
241
102
}
330
241
100
AcDbScale
 70
     0
300
1/128" = 1'-0"
140
0.0078125
141
12.0
290
     0
  0
SCALE
  5
254
102
{ACAD_REACTORS
330
241
102
}
330
241
100
AcDbScale
 70
     0
300
1/64" = 1'-0"
140
0.015625
141
12.0
290
     0
  0
SCALE
  5
255
102
{ACAD_REACTORS
330
241
102
}
330
241
100
AcDbScale
 70
     0
300
1/32" = 1'-0"
140
0.03125
141
12.0
290
     0
  0
SCALE
  5
256
102
{ACAD_REACTORS
330
241
102
}
330
241
100
AcDbScale
 70
     0
300
1/16" = 1'-0"
140
0.0625
141
12.0
290
     0
  0
SCALE
  5
257
102
{ACAD_REACTORS
330
241
102
}
330
241
100
AcDbScale
 70
     0
300
3/32" = 1'-0"
140
0.09375
141
12.0
290
     0
  0
SCALE
  5
258
102
{ACAD_REACTORS
330
241
102
}
330
241
100
AcDbScale
 70
     0
300
1/8" = 1'-0"
140
0.125
141
12.0
290
     0
  0
SCALE
  5
259
102
{ACAD_REACTORS
330
241
102
}
330
241
100
AcDbScale
 70
     0
300
3/16" = 1'-0"
140
0.1875
141
12.0
290
     0
  0
SCALE
  5
25A
102
{ACAD_REACTORS
330
241
102
}
330
241
100
AcDbScale
 70
     0
300
1/4" = 1'-0"
140
0.25
141
12.0
290
     0
  0
SCALE
  5
25B
102
{ACAD_REACTORS
330
241
102
}
330
241
100
AcDbScale
 70
     0
300
3/8" = 1'-0"
140
0.375
141
12.0
290
     0
  0
SCALE
  5
25C
102
{ACAD_REACTORS
330
241
102
}
330
241
100
AcDbScale
 70
     0
300
1/2" = 1'-0"
140
0.5
141
12.0
290
     0
  0
SCALE
  5
25D
102
{ACAD_REACTORS
330
241
102
}
330
241
100
AcDbScale
 70
     0
300
3/4" = 1'-0"
140
0.75
141
12.0
290
     0
  0
SCALE
  5
25E
102
{ACAD_REACTORS
330
241
102
}
330
241
100
AcDbScale
 70
     0
300
1" = 1'-0"
140
1.0
141
12.0
290
     0
  0
SCALE
  5
25F
102
{ACAD_REACTORS
330
241
102
}
330
241
100
AcDbScale
 70
     0
300
1-1/2" = 1'-0"
140
1.5
141
12.0
290
     0
  0
SCALE
  5
260
102
{ACAD_REACTORS
330
241
102
}
330
241
100
AcDbScale
 70
     0
300
3" = 1'-0"
140
3.0
141
12.0
290
     0
  0
SCALE
  5
261
102
{ACAD_REACTORS
330
241
102
}
330
241
100
AcDbScale
 70
     0
300
6" = 1'-0"
140
6.0
141
12.0
290
     0
  0
SCALE
  5
262
102
{ACAD_REACTORS
330
241
102
}
330
241
100
AcDbScale
 70
     0
300
1'-0" = 1'-0"
140
12.0
141
12.0
290
     0
  0
TABLESTYLE
  5
279
102
{ACAD_REACTORS
330
278
102
}
102
{ACAD_XDICTIONARY
360
586D
102
}
330
278
100
AcDbTableStyle
  3
Standard
 70
     0
 71
     0
 40
0.06
 41
0.06
280
     0
281
     0
  7
Standard
140
4.5
170
     2
 62
     0
 63
   257
283
     0
 90
        4
 91
        0
  1

274
    -2
284
     1
 64
     0
275
    -2
285
     1
 65
     0
276
    -2
286
     1
 66
     0
277
    -2
287
     1
 67
     0
278
    -2
288
     1
 68
     0
279
    -2
289
     1
 69
     0
  7
Standard
140
6.0
170
     5
 62
     0
 63
   257
283
     0
 90
        4
 91
        0
  1

274
    -2
284
     1
 64
     0
275
    -2
285
     1
 65
     0
276
    -2
286
     1
 66
     0
277
    -2
287
     1
 67
     0
278
    -2
288
     1
 68
     0
279
    -2
289
     1
 69
     0
  7
Standard
140
4.5
170
     5
 62
     0
 63
   257
283
     0
 90
        4
 91
        0
  1

274
    -2
284
     1
 64
     0
275
    -2
285
     1
 65
     0
276
    -2
286
     1
 66
     0
277
    -2
287
     1
 67
     0
278
    -2
288
     1
 68
     0
279
    -2
289
     1
 69
     0
  0
VISUALSTYLE
  5
26C
102
{ACAD_REACTORS
330
267
102
}
330
267
100
AcDbVisualStyle
  2
2dWireframe
 70
     4
 71
     0
 72
     2
 73
     0
 90
        0
 40
-0.6
 41
-30.0
 62
     5
 63
     7
421
 16777215
 74
     1
 91
        4
 64
     7
 65
   257
 75
     1
175
     1
 42
1.0
 92
        0
 66
   257
 43
1.0
 76
     1
 77
     6
 78
     2
 67
     7
 79
     5
170
     0
171
     0
290
     0
174
     0
 93
        1
 44
0.0
173
     0
291
     0
 45
0.0
  0
VISUALSTYLE
  5
26E
102
{ACAD_REACTORS
330
267
102
}
330
267
100
AcDbVisualStyle
  2
3D Hidden
 70
     6
 71
     1
 72
     2
 73
     2
 90
        0
 40
-0.6
 41
-30.0
 62
     5
 63
     7
421
 16777215
 74
     2
 91
        2
 64
     7
 65
   257
 75
     2
175
     1
 42
40.0
 92
        0
 66
   257
 43
1.0
 76
     1
 77
     6
 78
     2
 67
     7
 79
     3
170
     0
171
     0
290
     0
174
     0
 93
        1
 44
0.0
173
     0
291
     0
 45
0.0
  0
VISUALSTYLE
  5
26D
102
{ACAD_REACTORS
330
267
102
}
330
267
100
AcDbVisualStyle
  2
3dWireframe
 70
     5
 71
     0
 72
     2
 73
     0
 90
        0
 40
-0.6
 41
-30.0
 62
     5
 63
     7
421
 16777215
 74
     1
 91
        4
 64
     7
 65
   257
 75
     1
175
     1
 42
1.0
 92
        0
 66
   257
 43
1.0
 76
     1
 77
     6
 78
     2
 67
     7
 79
     5
170
     0
171
     0
290
     0
174
     0
 93
        1
 44
0.0
173
     0
291
     0
 45
0.0
  0
VISUALSTYLE
  5
26F
102
{ACAD_REACTORS
330
267
102
}
330
267
100
AcDbVisualStyle
  2
Basic
 70
     7
 71
     1
 72
     0
 73
     1
 90
        0
 40
-0.6
 41
-30.0
 62
     5
 63
     7
421
 16777215
 74
     0
 91
        4
 64
     7
 65
   257
 75
     1
175
     1
 42
1.0
 92
        8
 66
     7
 43
1.0
 76
     1
 77
     6
 78
     2
 67
     7
 79
     5
170
     0
171
     0
290
     0
174
     0
 93
        1
 44
0.0
173
     0
291
     1
 45
0.0
  0
VISUALSTYLE
  5
273
102
{ACAD_REACTORS
330
267
102
}
330
267
100
AcDbVisualStyle
  2
Brighten
 70
    12
 71
     2
 72
     2
 73
     0
 90
        0
 40
-0.6
 41
-30.0
 62
     5
 63
     7
421
 16777215
 74
     1
 91
        4
 64
     7
 65
   257
 75
     1
175
     1
 42
1.0
 92
        8
 66
     7
 43
1.0
 76
     1
 77
     6
 78
     2
 67
     7
 79
     5
170
     0
171
     0
290
     0
174
     0
 93
        1
 44
50.0
173
     0
291
     1
 45
0.0
  0
VISUALSTYLE
  5
277
102
{ACAD_REACTORS
330
267
102
}
330
267
100
AcDbVisualStyle
  2
ColorChange
 70
    16
 71
     2
 72
     2
 73
     3
 90
        0
 40
-0.6
 41
-30.0
 62
     5
 63
     8
421
  8421504
 74
     1
 91
        4
 64
     7
 65
   257
 75
     1
175
     1
 42
1.0
 92
        8
 66
     8
424
  8421504
 43
1.0
 76
     1
 77
     6
 78
     2
 67
     7
 79
     5
170
     0
171
     0
290
     0
174
     0
 93
        1
 44
0.0
173
     0
291
     1
 45
0.0
  0
VISUALSTYLE
  5
271
102
{ACAD_REACTORS
330
267
102
}
330
267
100
AcDbVisualStyle
  2
Conceptual
 70
     9
 71
     3
 72
     2
 73
     0
 90
        0
 40
-0.6
 41
-30.0
 62
     5
 63
     7
421
 16777215
 74
     2
 91
        2
 64
     7
 65
   257
 75
     1
175
     1
 42
40.0
 92
        8
 66
     7
 43
1.0
 76
     1
 77
     6
 78
     2
 67
     7
 79
     3
170
     0
171
     0
290
     0
174
     0
 93
        1
 44
0.0
173
     0
291
     0
 45
0.0
  0
VISUALSTYLE
  5
272
102
{ACAD_REACTORS
330
267
102
}
330
267
100
AcDbVisualStyle
  2
Dim
 70
    11
 71
     2
 72
     2
 73
     0
 90
        0
 40
-0.6
 41
-30.0
 62
     5
 63
     7
421
 16777215
 74
     1
 91
        4
 64
     7
 65
   257
 75
     1
175
     1
 42
1.0
 92
        8
 66
     7
 43
1.0
 76
     1
 77
     6
 78
     2
 67
     7
 79
     5
170
     0
171
     0
290
     0
174
     0
 93
        1
 44
-50.0
173
     0
291
     1
 45
0.0
  0
VISUALSTYLE
  5
8BC
102
{ACAD_REACTORS
330
267
102
}
330
267
100
AcDbVisualStyle
  2
EdgeColorOff
 70
    22
 71
     2
 72
     2
 73
     0
 90
        0
 40
0.6
 41
30.0
 62
     5
 63
     7
421
 16777215
 74
     1
 91
        4
 64
     7
 65
   257
 75
     1
175
     1
 42
1.0
 92
        8
 66
     7
 43
1.0
 76
     1
 77
     6
 78
     2
 67
     7
 79
     5
170
     0
171
     0
290
     0
174
     0
 93
        1
 44
0.0
173
     0
291
     1
 45
0.0
  0
VISUALSTYLE
  5
276
102
{ACAD_REACTORS
330
267
102
}
330
267
100
AcDbVisualStyle
  2
Facepattern
 70
    15
 71
     2
 72
     2
 73
     0
 90
        0
 40
-0.6
 41
-30.0
 62
     5
 63
     7
421
 16777215
 74
     1
 91
        4
 64
     7
 65
   257
 75
     1
175
     1
 42
1.0
 92
        8
 66
     7
 43
1.0
 76
     1
 77
     6
 78
     2
 67
     7
 79
     5
170
     0
171
     0
290
     0
174
     0
 93
        1
 44
0.0
173
     0
291
     1
 45
0.0
  0
VISUALSTYLE
  5
268
102
{ACAD_REACTORS
330
267
102
}
330
267
100
AcDbVisualStyle
  2
Flat
 70
     0
 71
     2
 72
     1
 73
     1
 90
        2
 40
-0.6
 41
30.0
 62
     5
 63
     7
421
 16777215
 74
     0
 91
        4
 64
     7
 65
   257
 75
     1
175
     1
 42
1.0
 92
        8
 66
     7
 43
1.0
 76
     1
 77
     6
 78
     2
 67
     7
 79
     5
170
     0
171
     0
290
     0
174
     0
 93
       13
 44
0.0
173
     0
291
     1
 45
0.0
  0
VISUALSTYLE
  5
269
102
{ACAD_REACTORS
330
267
102
}
330
267
100
AcDbVisualStyle
  2
FlatWithEdges
 70
     1
 71
     2
 72
     1
 73
     1
 90
        2
 40
-0.6
 41
30.0
 62
     5
 63
     7
421
 16777215
 74
     1
 91
        4
 64
     7
 65
   257
 75
     1
175
     1
 42
1.0
 92
        0
 66
   257
 43
1.0
 76
     1
 77
     6
 78
     2
 67
     7
 79
     5
170
     0
171
     0
290
     0
174
     0
 93
       13
 44
0.0
173
     0
291
     1
 45
0.0
  0
VISUALSTYLE
  5
26A
102
{ACAD_REACTORS
330
267
102
}
330
267
100
AcDbVisualStyle
  2
Gouraud
 70
     2
 71
     2
 72
     2
 73
     1
 90
        2
 40
-0.6
 41
30.0
 62
     5
 63
     7
421
 16777215
 74
     0
 91
        4
 64
     7
 65
   257
 75
     1
175
     1
 42
1.0
 92
        0
 66
     7
 43
1.0
 76
     1
 77
     6
 78
     2
 67
     7
 79
     5
170
     0
171
     0
290
     0
174
     0
 93
       13
 44
0.0
173
     0
291
     1
 45
0.0
  0
VISUALSTYLE
  5
26B
102
{ACAD_REACTORS
330
267
102
}
330
267
100
AcDbVisualStyle
  2
GouraudWithEdges
 70
     3
 71
     2
 72
     2
 73
     1
 90
        2
 40
-0.6
 41
30.0
 62
     5
 63
     7
421
 16777215
 74
     1
 91
        4
 64
     7
 65
   257
 75
     1
175
     1
 42
1.0
 92
        0
 66
   257
 43
1.0
 76
     1
 77
     6
 78
     2
 67
     7
 79
     5
170
     0
171
     0
290
     0
174
     0
 93
       13
 44
0.0
173
     0
291
     1
 45
0.0
  0
VISUALSTYLE
  5
8B9
102
{ACAD_REACTORS
330
267
102
}
330
267
100
AcDbVisualStyle
  2
Hidden
 70
     6
 71
     1
 72
     2
 73
     2
 90
        0
 40
0.6
 41
30.0
 62
     5
 63
     7
421
 16777215
 74
     2
 91
        2
 64
     7
 65
   257
 75
     2
175
     1
 42
40.0
 92
        0
 66
   257
 43
1.0
 76
     1
 77
     6
 78
     2
 67
     7
 79
     3
170
     0
171
     0
290
     0
174
     0
 93
        1
 44
0.0
173
     0
291
     0
 45
0.0
  0
VISUALSTYLE
  5
8BA
102
{ACAD_REACTORS
330
267
102
}
330
267
100
AcDbVisualStyle
  2
JitterOff
 70
    20
 71
     2
 72
     2
 73
     0
 90
        0
 40
0.6
 41
30.0
 62
     5
 63
     7
421
 16777215
 74
     1
 91
        4
 64
     7
 65
   257
 75
     1
175
     1
 42
1.0
 92
       10
 66
     7
 43
1.0
 76
     1
 77
     6
 78
     2
 67
     7
 79
     5
170
     0
171
     0
290
     0
174
     0
 93
        1
 44
0.0
173
     0
291
     1
 45
0.0
  0
VISUALSTYLE
  5
275
102
{ACAD_REACTORS
330
267
102
}
330
267
100
AcDbVisualStyle
  2
Linepattern
 70
    14
 71
     2
 72
     2
 73
     0
 90
        0
 40
-0.6
 41
-30.0
 62
     5
 63
     7
421
 16777215
 74
     1
 91
        4
 64
     7
 65
   257
 75
     7
175
     7
 42
1.0
 92
        8
 66
     7
 43
1.0
 76
     1
 77
     6
 78
     2
 67
     7
 79
     5
170
     0
171
     0
290
     0
174
     0
 93
        1
 44
0.0
173
     0
291
     1
 45
0.0
  0
VISUALSTYLE
  5
8BB
102
{ACAD_REACTORS
330
267
102
}
330
267
100
AcDbVisualStyle
  2
OverhangOff
 70
    21
 71
     2
 72
     2
 73
     0
 90
        0
 40
0.6
 41
30.0
 62
     5
 63
     7
421
 16777215
 74
     1
 91
        4
 64
     7
 65
   257
 75
     1
175
     1
 42
1.0
 92
        9
 66
     7
 43
1.0
 76
     1
 77
     6
 78
     2
 67
     7
 79
     5
170
     0
171
     0
290
     0
174
     0
 93
        1
 44
0.0
173
     0
291
     1
 45
0.0
  0
VISUALSTYLE
  5
270
102
{ACAD_REACTORS
330
267
102
}
330
267
100
AcDbVisualStyle
  2
Realistic
 70
     8
 71
     2
 72
     2
 73
     0
 90
        0
 40
-0.6
 41
-30.0
 62
     5
 63
     7
421
 16777215
 74
     1
 91
        0
 64
     7
 65
   257
 75
     1
175
     1
 42
1.0
 92
        8
 66
     8
424
  7895160
 43
1.0
 76
     1
 77
     6
 78
     2
 67
     7
 79
     5
170
     0
171
     0
290
     0
174
     0
 93
       13
 44
0.0
173
     0
291
     0
 45
0.0
  0
VISUALSTYLE
  5
8C1
102
{ACAD_REACTORS
330
267
102
}
330
267
100
AcDbVisualStyle
  2
Shaded
 70
    27
 71
     2
 72
     2
 73
     1
 90
        2
 40
0.6
 41
30.0
 62
     5
 63
     7
421
 16777215
 74
     0
 91
        4
 64
     7
 65
   257
 75
     1
175
     1
 42
1.0
 92
        8
 66
   257
 43
1.0
 76
     1
 77
     6
 78
     2
 67
     8
425
  7895160
 79
     3
170
     0
171
     0
290
     0
174
     0
 93
        5
 44
0.0
173
     0
291
     0
 45
0.0
  0
VISUALSTYLE
  5
8C0
102
{ACAD_REACTORS
330
267
102
}
330
267
100
AcDbVisualStyle
  2
Shaded with edges
 70
    26
 71
     2
 72
     2
 73
     1
 90
        2
 40
0.6
 41
30.0
 62
     5
 63
     7
421
 16777215
 74
     1
 91
       10
 64
     7
 65
   257
 75
     2
175
     1
 42
1.0
 92
        8
 66
   257
 43
1.0
 76
     1
 77
     6
 78
     2
 67
     7
 79
     3
170
     0
171
     0
290
     0
174
     0
 93
        5
 44
0.0
173
     0
291
     0
 45
0.0
  0
VISUALSTYLE
  5
8BD
102
{ACAD_REACTORS
330
267
102
}
330
267
100
AcDbVisualStyle
  2
Shades of Gray
 70
    23
 71
     2
 72
     2
 73
     3
 90
        0
 40
0.6
 41
30.0
 62
     5
 63
     7
421
 16777215
 74
     2
 91
        2
 64
     7
 65
     7
 75
     1
175
     1
 42
40.0
 92
        8
 66
     7
 43
1.0
 76
     1
 77
     6
 78
     2
 67
     7
 79
     3
170
     0
171
     0
290
     0
174
     0
 93
        1
 44
0.0
173
     0
291
     0
 45
0.0
  0
VISUALSTYLE
  5
8BE
102
{ACAD_REACTORS
330
267
102
}
330
267
100
AcDbVisualStyle
  2
Sketchy
 70
    24
 71
     1
 72
     2
 73
     2
 90
        0
 40
0.6
 41
30.0
 62
     5
 63
     7
421
 16777215
 74
     2
 91
        2
 64
     7
 65
     7
 75
     1
175
     1
 42
40.0
 92
       11
 66
     7
 43
1.0
 76
     1
 77
     6
 78
     2
 67
     7
 79
     6
170
     0
171
     0
290
     0
174
     0
 93
        1
 44
0.0
173
     0
291
     0
 45
0.0
  0
VISUALSTYLE
  5
274
102
{ACAD_REACTORS
330
267
102
}
330
267
100
AcDbVisualStyle
  2
Thicken
 70
    13
 71
     2
 72
     2
 73
     0
 90
        0
 40
-0.6
 41
-30.0
 62
     5
 63
     7
421
 16777215
 74
     1
 91
        4
 64
     7
 65
   257
 75
     1
175
     1
 42
1.0
 92
       12
 66
     7
 43
1.0
 76
     1
 77
     6
 78
     2
 67
     7
 79
     5
170
     0
171
     0
290
     0
174
     0
 93
        1
 44
0.0
173
     0
291
     1
 45
0.0
  0
VISUALSTYLE
  5
8B8
102
{ACAD_REACTORS
330
267
102
}
330
267
100
AcDbVisualStyle
  2
Wireframe
 70
     5
 71
     0
 72
     2
 73
     0
 90
        0
 40
0.6
 41
30.0
 62
     5
 63
     7
421
 16777215
 74
     1
 91
        4
 64
     7
 65
   257
 75
     1
175
     1
 42
1.0
 92
        0
 66
   257
 43
1.0
 76
     1
 77
     6
 78
     2
 67
     7
 79
     3
170
     0
171
     0
290
     0
174
     0
 93
        1
 44
0.0
173
     0
291
     0
 45
0.0
  0
VISUALSTYLE
  5
8BF
102
{ACAD_REACTORS
330
267
102
}
330
267
100
AcDbVisualStyle
  2
X-Ray
 70
    25
 71
     2
 72
     2
 73
     1
 90
        1
 40
0.5
 41
30.0
 62
     5
 63
     7
421
 16777215
 74
     1
 91
        0
 64
     7
 65
   257
 75
     1
175
     1
 42
1.0
 92
        8
 66
     7
 43
1.0
 76
     1
 77
     6
 78
     2
 67
     7
 79
     3
170
     0
171
     0
290
     0
174
     0
 93
       13
 44
0.0
173
     0
291
     0
 45
0.0
  0
DICTIONARYVAR
  5
331
102
{ACAD_REACTORS
330
330
102
}
330
330
100
DictionaryVariables
280
     0
  1
1:1
  0
DICTIONARYVAR
  5
8DA
102
{ACAD_REACTORS
330
330
102
}
330
330
100
DictionaryVariables
280
     0
  1
Standard
  0
DICTIONARYVAR
  5
335
102
{ACAD_REACTORS
330
330
102
}
330
330
100
DictionaryVariables
280
     0
  1
Standard
  0
DICTIONARYVAR
  5
C07
102
{ACAD_REACTORS
330
330
102
}
330
330
100
DictionaryVariables
280
     0
  1
ByLayer
  0
DICTIONARYVAR
  5
64A
102
{ACAD_REACTORS
330
330
102
}
330
330
100
DictionaryVariables
280
     0
  1
0
  0
DICTIONARYVAR
  5
4342
102
{ACAD_REACTORS
330
C08
102
}
330
C08
100
DictionaryVariables
280
     0
  1
0.261799
  0
DICTIONARYVAR
  5
4340
102
{ACAD_REACTORS
330
C08
102
}
330
C08
100
DictionaryVariables
280
     0
  1
0.400000
  0
DICTIONARYVAR
  5
4341
102
{ACAD_REACTORS
330
C08
102
}
330
C08
100
DictionaryVariables
280
     0
  1
0.250000
  0
DICTIONARYVAR
  5
4343
102
{ACAD_REACTORS
330
C08
102
}
330
C08
100
DictionaryVariables
280
     0
  1
1
  0
FIELD
  5
BDE
102
{ACAD_REACTORS
330
BE4
102
}
330
BE4
100
AcDbField
  1
_text
  2
{%<\_FldIdx 0>%N}
 90
        1
360
BDF
 97
        0
 91
       63
 92
        0
 94
        8
 95
        2
 96
        0
300

 93
        1
  6
ACFD_FIELDTEXT_CHECKSUM
 93
        2
 90
        2
140
4552.0
 94
        0
300

302

304
ACVALUE_END
  7
ACFD_FIELD_VALUE
 93
        6
 90
        4
  1
{20170726N}
 94
        0
300

302

304
ACVALUE_END
301
{20170726N}
 98
       11
  0
DICTIONARY
  5
55FD
102
{ACAD_REACTORS
330
55FC
102
}
330
55FC
100
AcDbDictionary
281
     1
  0
DICTIONARY
  5
586D
330
279
100
AcDbDictionary
280
     1
281
     1
  3
ACAD_ROUNDTRIP_2008_TABLESTYLE_CELLSTYLEMAP
360
586E
  0
FIELD
  5
BDF
330
BDE
100
AcDbField
  1
AcVar
  2
\AcVar Date \f "yyyyMMdd"
 90
        0
 97
        0
 91
       63
 92
        0
 94
        8
 95
        2
 96
        0
300

 93
        1
  6
Variable
 93
        2
 90
        4
  1
Date
 94
        0
300

302

304
ACVALUE_END
  7
ACFD_FIELD_VALUE
 93
        6
 90
        8
 92
       16
310
E1070700000019001000170028000000
 94
        0
300
yyyyMMdd
302

304
ACVALUE_END
301
20170726
 98
        8
  0
CELLSTYLEMAP
  5
586E
102
{ACAD_REACTORS
330
586D
102
}
330
586D
100
AcDbCellStyleMap
 90
        3
300
CELLSTYLE
  1
TABLEFORMAT_BEGIN
 90
        5
170
     1
 91
        0
 92
    32768
 62
   257
 93
        1
300
CONTENTFORMAT
  1
CONTENTFORMAT_BEGIN
 90
        0
 91
        0
 92
        4
 93
        0
300

 40
0.0
140
1.0
 94
        5
 62
     0
340
17
144
6.0
309
CONTENTFORMAT_END
171
     1
301
MARGIN
  1
CELLMARGIN_BEGIN
 40
0.06
 40
0.06
 40
0.06
 40
0.06
 40
0.18
 40
0.18
309
CELLMARGIN_END
 94
        6
 95
        1
302
GRIDFORMAT
  1
GRIDFORMAT_BEGIN
 90
        0
 91
        1
 62
     0
 92
       -2
340
0
 93
        0
 40
0.045
309
GRIDFORMAT_END
 95
        2
302
GRIDFORMAT
  1
GRIDFORMAT_BEGIN
 90
        0
 91
        1
 62
     0
 92
       -2
340
0
 93
        0
 40
0.045
309
GRIDFORMAT_END
 95
        4
302
GRIDFORMAT
  1
GRIDFORMAT_BEGIN
 90
        0
 91
        1
 62
     0
 92
       -2
340
0
 93
        0
 40
0.045
309
GRIDFORMAT_END
 95
        8
302
GRIDFORMAT
  1
GRIDFORMAT_BEGIN
 90
        0
 91
        1
 62
     0
 92
       -2
340
0
 93
        0
 40
0.045
309
GRIDFORMAT_END
 95
       16
302
GRIDFORMAT
  1
GRIDFORMAT_BEGIN
 90
        0
 91
        1
 62
     0
 92
       -2
340
0
 93
        0
 40
0.045
309
GRIDFORMAT_END
 95
       32
302
GRIDFORMAT
  1
GRIDFORMAT_BEGIN
 90
        0
 91
        1
 62
     0
 92
       -2
340
0
 93
        0
 40
0.045
309
GRIDFORMAT_END
309
TABLEFORMAT_END
  1
CELLSTYLE_BEGIN
 90
        1
 91
        1
300
_TITLE
309
CELLSTYLE_END
300
CELLSTYLE
  1
TABLEFORMAT_BEGIN
 90
        5
170
     1
 91
        0
 92
        0
 62
   257
 93
        1
300
CONTENTFORMAT
  1
CONTENTFORMAT_BEGIN
 90
        0
 91
        0
 92
        4
 93
        0
300

 40
0.0
140
1.0
 94
        5
 62
     0
340
17
144
4.5
309
CONTENTFORMAT_END
171
     1
301
MARGIN
  1
CELLMARGIN_BEGIN
 40
0.06
 40
0.06
 40
0.06
 40
0.06
 40
0.18
 40
0.18
309
CELLMARGIN_END
 94
        6
 95
        1
302
GRIDFORMAT
  1
GRIDFORMAT_BEGIN
 90
        0
 91
        1
 62
     0
 92
       -2
340
0
 93
        0
 40
0.045
309
GRIDFORMAT_END
 95
        2
302
GRIDFORMAT
  1
GRIDFORMAT_BEGIN
 90
        0
 91
        1
 62
     0
 92
       -2
340
0
 93
        0
 40
0.045
309
GRIDFORMAT_END
 95
        4
302
GRIDFORMAT
  1
GRIDFORMAT_BEGIN
 90
        0
 91
        1
 62
     0
 92
       -2
340
0
 93
        0
 40
0.045
309
GRIDFORMAT_END
 95
        8
302
GRIDFORMAT
  1
GRIDFORMAT_BEGIN
 90
        0
 91
        1
 62
     0
 92
       -2
340
0
 93
        0
 40
0.045
309
GRIDFORMAT_END
 95
       16
302
GRIDFORMAT
  1
GRIDFORMAT_BEGIN
 90
        0
 91
        1
 62
     0
 92
       -2
340
0
 93
        0
 40
0.045
309
GRIDFORMAT_END
 95
       32
302
GRIDFORMAT
  1
GRIDFORMAT_BEGIN
 90
        0
 91
        1
 62
     0
 92
       -2
340
0
 93
        0
 40
0.045
309
GRIDFORMAT_END
309
TABLEFORMAT_END
  1
CELLSTYLE_BEGIN
 90
        2
 91
        1
300
_HEADER
309
CELLSTYLE_END
300
CELLSTYLE
  1
TABLEFORMAT_BEGIN
 90
        5
170
     1
 91
        0
 92
        0
 62
   257
 93
        1
300
CONTENTFORMAT
  1
CONTENTFORMAT_BEGIN
 90
        0
 91
        0
 92
        4
 93
        0
300

 40
0.0
140
1.0
 94
        2
 62
     0
340
17
144
4.5
309
CONTENTFORMAT_END
171
     1
301
MARGIN
  1
CELLMARGIN_BEGIN
 40
0.06
 40
0.06
 40
0.06
 40
0.06
 40
0.18
 40
0.18
309
CELLMARGIN_END
 94
        6
 95
        1
302
GRIDFORMAT
  1
GRIDFORMAT_BEGIN
 90
        0
 91
        1
 62
     0
 92
       -2
340
0
 93
        0
 40
0.045
309
GRIDFORMAT_END
 95
        2
302
GRIDFORMAT
  1
GRIDFORMAT_BEGIN
 90
        0
 91
        1
 62
     0
 92
       -2
340
0
 93
        0
 40
0.045
309
GRIDFORMAT_END
 95
        4
302
GRIDFORMAT
  1
GRIDFORMAT_BEGIN
 90
        0
 91
        1
 62
     0
 92
       -2
340
0
 93
        0
 40
0.045
309
GRIDFORMAT_END
 95
        8
302
GRIDFORMAT
  1
GRIDFORMAT_BEGIN
 90
        0
 91
        1
 62
     0
 92
       -2
340
0
 93
        0
 40
0.045
309
GRIDFORMAT_END
 95
       16
302
GRIDFORMAT
  1
GRIDFORMAT_BEGIN
 90
        0
 91
        1
 62
     0
 92
       -2
340
0
 93
        0
 40
0.045
309
GRIDFORMAT_END
 95
       32
302
GRIDFORMAT
  1
GRIDFORMAT_BEGIN
 90
        0
 91
        1
 62
     0
 92
       -2
340
0
 93
        0
 40
0.045
309
GRIDFORMAT_END
309
TABLEFORMAT_END
  1
CELLSTYLE_BEGIN
 90
        3
 91
        2
300
_DATA
309
CELLSTYLE_END
  0
ENDSEC
  0
EOF
