  0
SECTION
  2
HEADER
  9
$ACADVER
  1
AC1021
  9
$ACADMAINTVER
 70
    25
  9
$DWGCODEPAGE
  3
ANSI_932
  9
$LASTSAVEDBY
  1
T-HOWE-PC
  9
$INSBASE
 10
0.0
 20
0.0
 30
0.0
  9
$EXTMIN
 10
0.0
 20
0.0
 30
-0.0000000053126276
  9
$EXTMAX
 10
2100.0
 20
2970.0
 30
34.99521132346015
  9
$LIMMIN
 10
0.0
 20
0.0
  9
$LIMMAX
 10
2100.0
 20
2970.0
  9
$ORTHOMODE
 70
     1
  9
$REGENMODE
 70
     1
  9
$FILLMODE
 70
     1
  9
$QTEXTMODE
 70
     0
  9
$MIRRTEXT
 70
     1
  9
$LTSCALE
 40
5.0
  9
$ATTMODE
 70
     1
  9
$TEXTSIZE
 40
533.0403732820173
  9
$TRACEWID
 40
1.0
  9
$TEXTSTYLE
  7
Standard
  9
$CLAYER
  8
Dim
  9
$CELTYPE
  6
ByLayer
  9
$CECOLOR
 62
   256
  9
$CELTSCALE
 40
1.0
  9
$DISPSILH
 70
     0
  9
$DIMSCALE
 40
1.0
  9
$DIMASZ
 40
9.999389648437498
  9
$DIMEXO
 40
25.0
  9
$DIMDLI
 40
0.9999999999999999
  9
$DIMRND
 40
0.0
  9
$DIMDLE
 40
0.0
  9
$DIMEXE
 40
0.0
  9
$DIMTP
 40
0.0
  9
$DIMTM
 40
0.0
  9
$DIMTXT
 40
24.4326171875
  9
$DIMCEN
 40
0.0
  9
$DIMTSZ
 40
0.0
  9
$DIMTOL
 70
     0
  9
$DIMLIM
 70
     0
  9
$DIMTIH
 70
     0
  9
$DIMTOH
 70
     0
  9
$DIMSE1
 70
     0
  9
$DIMSE2
 70
     0
  9
$DIMTAD
 70
     1
  9
$DIMZIN
 70
    11
  9
$DIMBLK
  1
DOT
  9
$DIMASO
 70
     1
  9
$DIMSHO
 70
     1
  9
$DIMPOST
  1
<>
  9
$DIMAPOST
  1
[]
  9
$DIMALT
 70
     0
  9
$DIMALTD
 70
     1
  9
$DIMALTF
 40
1.0
  9
$DIMLFAC
 40
1.0
  9
$DIMTOFL
 70
     1
  9
$DIMTVP
 40
0.0
  9
$DIMTIX
 70
     1
  9
$DIMSOXD
 70
     0
  9
$DIMSAH
 70
     0
  9
$DIMBLK1
  1

  9
$DIMBLK2
  1

  9
$DIMSTYLE
  2
tform線あり
  9
$DIMCLRD
 70
     0
  9
$DIMCLRE
 70
     0
  9
$DIMCLRT
 70
     0
  9
$DIMTFAC
 40
0.8
  9
$DIMGAP
 40
10.0
  9
$DIMJUST
 70
     0
  9
$DIMSD1
 70
     0
  9
$DIMSD2
 70
     0
  9
$DIMTOLJ
 70
     1
  9
$DIMTZIN
 70
    11
  9
$DIMALTZ
 70
    11
  9
$DIMALTTZ
 70
    11
  9
$DIMUPT
 70
     0
  9
$DIMDEC
 70
     0
  9
$DIMTDEC
 70
     1
  9
$DIMALTU
 70
     2
  9
$DIMALTTD
 70
     2
  9
$DIMTXSTY
  7
ＭＳ ゴシック
  9
$DIMAUNIT
 70
     0
  9
$DIMADEC
 70
     2
  9
$DIMALTRND
 40
0.0
  9
$DIMAZIN
 70
     0
  9
$DIMDSEP
 70
    46
  9
$DIMATFIT
 70
     0
  9
$DIMFRAC
 70
     2
  9
$DIMLDRBLK
  1
DOT
  9
$DIMLUNIT
 70
     2
  9
$DIMLWD
 70
    -2
  9
$DIMLWE
 70
    -2
  9
$DIMTMOVE
 70
     0
  9
$DIMFXL
 40
1.0
  9
$DIMFXLON
 70
     0
  9
$DIMJOGANG
 40
0.7853981633974483
  9
$DIMTFILL
 70
     0
  9
$DIMTFILLCLR
 70
     0
  9
$DIMARCSYM
 70
     0
  9
$DIMLTYPE
  6

  9
$DIMLTEX1
  6

  9
$DIMLTEX2
  6

  9
$LUNITS
 70
     2
  9
$LUPREC
 70
     0
  9
$SKETCHINC
 40
0.1
  9
$FILLETRAD
 40
0.0
  9
$AUNITS
 70
     0
  9
$AUPREC
 70
     0
  9
$MENU
  1
acad
  9
$ELEVATION
 40
0.0
  9
$PELEVATION
 40
0.0
  9
$THICKNESS
 40
0.0
  9
$LIMCHECK
 70
     0
  9
$CHAMFERA
 40
0.0
  9
$CHAMFERB
 40
0.0
  9
$CHAMFERC
 40
0.0
  9
$CHAMFERD
 40
0.0
  9
$SKPOLY
 70
     0
  9
$TDCREATE
 40
2447893.375
  9
$TDUCREATE
 40
0.0
  9
$TDUPDATE
 40
2459450.71556272
  9
$TDUUPDATE
 40
2459450.34056272
  9
$TDINDWG
 40
0.0006769329
  9
$TDUSRTIMER
 40
0.0011660069
  9
$USRTIMER
 70
     1
  9
$ANGBASE
 50
0.0
  9
$ANGDIR
 70
     0
  9
$PDMODE
 70
     1
  9
$PDSIZE
 40
-2.0
  9
$PLINEWID
 40
0.0
  9
$SPLFRAME
 70
     0
  9
$SPLINETYPE
 70
     6
  9
$SPLINESEGS
 70
     8
  9
$HANDSEED
  5
8106
  9
$SURFTAB1
 70
     6
  9
$SURFTAB2
 70
     6
  9
$SURFTYPE
 70
     6
  9
$SURFU
 70
     6
  9
$SURFV
 70
     6
  9
$UCSBASE
  2

  9
$UCSNAME
  2

  9
$UCSORG
 10
0.0
 20
0.0
 30
0.0
  9
$UCSXDIR
 10
1.0
 20
0.0
 30
0.0
  9
$UCSYDIR
 10
0.0
 20
1.0
 30
0.0
  9
$UCSORTHOREF
  2

  9
$UCSORTHOVIEW
 70
     0
  9
$UCSORGTOP
 10
0.0
 20
0.0
 30
0.0
  9
$UCSORGBOTTOM
 10
0.0
 20
0.0
 30
0.0
  9
$UCSORGLEFT
 10
0.0
 20
0.0
 30
0.0
  9
$UCSORGRIGHT
 10
0.0
 20
0.0
 30
0.0
  9
$UCSORGFRONT
 10
0.0
 20
0.0
 30
0.0
  9
$UCSORGBACK
 10
0.0
 20
0.0
 30
0.0
  9
$PUCSBASE
  2

  9
$PUCSNAME
  2

  9
$PUCSORG
 10
0.0
 20
0.0
 30
0.0
  9
$PUCSXDIR
 10
1.0
 20
0.0
 30
0.0
  9
$PUCSYDIR
 10
0.0
 20
1.0
 30
0.0
  9
$PUCSORTHOREF
  2

  9
$PUCSORTHOVIEW
 70
     0
  9
$PUCSORGTOP
 10
0.0
 20
0.0
 30
0.0
  9
$PUCSORGBOTTOM
 10
0.0
 20
0.0
 30
0.0
  9
$PUCSORGLEFT
 10
0.0
 20
0.0
 30
0.0
  9
$PUCSORGRIGHT
 10
0.0
 20
0.0
 30
0.0
  9
$PUCSORGFRONT
 10
0.0
 20
0.0
 30
0.0
  9
$PUCSORGBACK
 10
0.0
 20
0.0
 30
0.0
  9
$USERI1
 70
     0
  9
$USERI2
 70
     0
  9
$USERI3
 70
     0
  9
$USERI4
 70
     0
  9
$USERI5
 70
     0
  9
$USERR1
 40
0.0
  9
$USERR2
 40
0.0
  9
$USERR3
 40
0.0
  9
$USERR4
 40
0.0
  9
$USERR5
 40
0.0
  9
$WORLDVIEW
 70
     1
  9
$SHADEDGE
 70
     3
  9
$SHADEDIF
 70
    70
  9
$TILEMODE
 70
     1
  9
$MAXACTVP
 70
    64
  9
$PINSBASE
 10
0.0
 20
0.0
 30
0.0
  9
$PLIMCHECK
 70
     0
  9
$PEXTMIN
 10
0.0
 20
0.0
 30
0.0
  9
$PEXTMAX
 10
0.0
 20
0.0
 30
0.0
  9
$PLIMMIN
 10
-7.5
 20
-20.0
  9
$PLIMMAX
 10
412.5
 20
277.0
  9
$UNITMODE
 70
     0
  9
$VISRETAIN
 70
     0
  9
$PLINEGEN
 70
     1
  9
$PSLTSCALE
 70
     0
  9
$TREEDEPTH
 70
  3020
  9
$CMLSTYLE
  2
Standard
  9
$CMLJUST
 70
     0
  9
$CMLSCALE
 40
1.0
  9
$PROXYGRAPHICS
 70
     0
  9
$MEASUREMENT
 70
     1
  9
$CELWEIGHT
370
    -1
  9
$ENDCAPS
280
     0
  9
$JOINSTYLE
280
     0
  9
$LWDISPLAY
290
     1
  9
$INSUNITS
 70
     4
  9
$HYPERLINKBASE
  1

  9
$STYLESHEET
  1

  9
$XEDIT
290
     1
  9
$CEPSNTYPE
380
     0
  9
$PSTYLEMODE
290
     1
  9
$FINGERPRINTGUID
  2

  9
$VERSIONGUID
  2

  9
$EXTNAMES
290
     1
  9
$PSVPSCALE
 40
0.0
  9
$OLESTARTUP
290
     0
  9
$SORTENTS
280
   127
  9
$INDEXCTL
280
     0
  9
$HIDETEXT
280
     1
  9
$XCLIPFRAME
290
     0
  9
$HALOGAP
280
     0
  9
$OBSCOLOR
 70
   257
  9
$OBSLTYPE
280
     0
  9
$INTERSECTIONDISPLAY
280
     0
  9
$INTERSECTIONCOLOR
 70
   257
  9
$DIMASSOC
280
     2
  9
$PROJECTNAME
  1

  9
$CAMERADISPLAY
290
     0
  9
$LENSLENGTH
 40
50.0
  9
$CAMERAHEIGHT
 40
0.0
  9
$STEPSPERSEC
 40
2.0
  9
$STEPSIZE
 40
6.0
  9
$3DDWFPREC
 40
2.0
  9
$PSOLWIDTH
 40
0.25
  9
$PSOLHEIGHT
 40
4.0
  9
$LOFTANG1
 40
1.570796326794897
  9
$LOFTANG2
 40
1.570796326794897
  9
$LOFTMAG1
 40
0.0
  9
$LOFTMAG2
 40
0.0
  9
$LOFTPARAM
 70
     7
  9
$LOFTNORMALS
280
     1
  9
$LATITUDE
 40
37.795
  9
$LONGITUDE
 40
-122.394
  9
$NORTHDIRECTION
 40
0.0
  9
$TIMEZONE
 70
 -8000
  9
$LIGHTGLYPHDISPLAY
280
     1
  9
$TILEMODELIGHTSYNCH
280
     1
  9
$SOLIDHIST
280
     1
  9
$SHOWHIST
280
     1
  9
$DWFFRAME
280
     2
  9
$DGNFRAME
280
     2
  9
$REALWORLDSCALE
290
     1
  9
$INTERFERECOLOR
 62
   256
  9
$CSHADOW
280
     0
  9
$SHADOWPLANELOCATION
 40
0.0
  0
ENDSEC
  0
SECTION
  2
CLASSES
  0
CLASS
  1
LWPOLYLINE
  2
AcDbPolyline
  3
ObjectDBX Classes
 90
        0
 91
        1
280
     0
281
     1
  0
CLASS
  1
IMAGE
  2
AcDbRasterImage
  3
ISM
 90
      127
 91
        4
280
     0
281
     1
  0
CLASS
  1
OLE2FRAME
  2
AcDbOle2Frame
  3
ObjectDBX Classes
 90
        0
 91
        1
280
     0
281
     1
  0
CLASS
  1
HATCH
  2
AcDbHatch
  3
ObjectDBX Classes
 90
        0
 91
        1
280
     0
281
     1
  0
CLASS
  1
DICTIONARYVAR
  2
AcDbDictionaryVar
  3
ObjectDBX Classes
 90
        0
 91
        3
280
     0
281
     0
  0
CLASS
  1
RASTERVARIABLES
  2
AcDbRasterVariables
  3
ISM
 90
        0
 91
        3
280
     0
281
     0
  0
CLASS
  1
IMAGEDEF
  2
AcDbRasterImageDef
  3
ISM
 90
        0
 91
        3
280
     0
281
     0
  0
CLASS
  1
IMAGEDEF_REACTOR
  2
AcDbRasterImageDefReactor
  3
ISM
 90
        1
 91
        3
280
     0
281
     0
  0
CLASS
  1
IDBUFFER
  2
AcDbIdBuffer
  3
ObjectDBX Classes
 90
        0
 91
        3
280
     0
281
     0
  0
CLASS
  1
SPATIAL_FILTER
  2
AcDbSpatialFilter
  3
ObjectDBX Classes
 90
        0
 91
        3
280
     0
281
     0
  0
CLASS
  1
XRECORD
  2
AcDbXrecord
  3
ObjectDBX Classes
 90
        0
 91
        1
280
     0
281
     0
  0
CLASS
  1
SORTENTSTABLE
  2
AcDbSortentsTable
  3
ObjectDBX Classes
 90
        0
 91
        3
280
     0
281
     0
  0
CLASS
  1
LAYER_INDEX
  2
AcDbLayerIndex
  3
ObjectDBX Classes
 90
        0
 91
        3
280
     0
281
     0
  0
CLASS
  1
SPATIAL_INDEX
  2
AcDbSpatialIndex
  3
AutoCAD 2000
 90
        0
 91
        3
280
     0
281
     0
  0
CLASS
  1
OBJECT_PTR
  2
CAseDLPNTableRecord
  3
ASE-LPNTableRecord
 90
        1
 91
        3
280
     0
281
     0
  0
CLASS
  1
LAYOUT
  2
AcDbLayout
  3
ObjectDBX Classes
 90
        0
 91
        1
280
     0
281
     0
  0
CLASS
  1
PLOTSETTINGS
  2
AcDbPlotSettings
  3
ObjectDBX Classes
 90
        0
 91
        3
280
     0
281
     0
  0
CLASS
  1
ACDBDICTIONARYWDFLT
  2
AcDbDictionaryWithDefault
  3
ObjectDBX Classes
 90
        0
 91
        3
280
     0
281
     0
  0
CLASS
  1
ACDBPLACEHOLDER
  2
AcDbPlaceHolder
  3
ObjectDBX Classes
 90
        0
 91
        1
280
     0
281
     0
  0
CLASS
  1
SCALE
  2
AcDbScale
  3
ObjectDBX Classes
 90
     1153
 91
        3
280
     0
281
     0
  0
CLASS
  1
MATERIAL
  2
AcDbMaterial
  3
ObjectDBX Classes
 90
     1153
 91
        3
280
     0
281
     0
  0
CLASS
  1
VISUALSTYLE
  2
AcDbVisualStyle
  3
ObjectDBX Classes
 90
     4095
 91
        3
280
     0
281
     0
  0
CLASS
  1
TABLESTYLE
  2
AcDbTableStyle
  3
ObjectDBX Classes
 90
     4095
 91
        3
280
     0
281
     0
  0
CLASS
  1
DIMASSOC
  2
AcDbDimAssoc
  3
"AcDbDimAssoc|Product Desc:     AcDim ARX App For Dimension|Company:          Autodesk, Inc.|WEB Address:      www.autodesk.com"
 90
        0
 91
        3
280
     0
281
     0
  0
CLASS
  1
CELLSTYLEMAP
  2
AcDbCellStyleMap
  3
ObjectDBX Classes
 90
     1152
 91
        3
280
     0
281
     0
  0
CLASS
  1
SUN
  2
AcDbSun
  3
SCENEOE
 90
     1153
 91
        3
280
     0
281
     0
  0
CLASS
  1
MLEADERSTYLE
  2
AcDbMLeaderStyle
  3
ACDB_MLEADERSTYLE_CLASS
 90
     4095
 91
        3
280
     0
281
     0
  0
CLASS
  1
FIELD
  2
AcDbField
  3
ObjectDBX Classes
 90
     1152
 91
        3
280
     0
281
     0
  0
CLASS
  1
FIELDLIST
  2
AcDbFieldList
  3
ObjectDBX Classes
 90
     1152
 91
        3
280
     0
281
     0
  0
CLASS
  1
ACDB_ALDIMOBJECTCONTEXTDATA_CLASS
  2
AcDbAlignedDimensionObjectContextData
  3
ObjectDBX Classes
 90
     1153
 91
        3
280
     0
281
     0
  0
ENDSEC
  0
SECTION
  2
TABLES
  0
TABLE
  2
VPORT
  5
7
330
0
100
AcDbSymbolTable
 70
     1
  0
VPORT
  5
15
330
7
100
AcDbSymbolTableRecord
100
AcDbViewportTableRecord
  2
*ACTIVE
 70
     0
 10
0.0
 20
0.0
 11
1.0
 21
1.0
 12
672.952561754036
 22
1782.612370234514
 13
0.0
 23
0.0
 14
1.0
 24
1.0
 15
0.0
 25
0.0
 16
0.0
 26
0.0
 36
1.0
 17
377.047438245964
 27
-297.6123702345137
 37
0.0
 40
3029.4
 41
2.226173541963016
 42
50.0
 43
0.0
 44
0.0
 50
0.0
 51
0.0
 71
    16
 72
  2000
 73
     1
 74
     1
 75
     0
 76
     0
 77
     0
 78
     0
281
     0
 65
     1
110
0.0
120
0.0
130
0.0
111
1.0
121
0.0
131
0.0
112
0.0
122
1.0
132
0.0
 79
     0
146
0.0
348
26C
 60
     3
 61
     5
292
     1
282
     1
141
0.0
142
0.0
 63
   256
361
8C2
  0
ENDTAB
  0
TABLE
  2
LTYPE
  5
4
330
0
100
AcDbSymbolTable
 70
     4
  0
LTYPE
  5
11
330
4
100
AcDbSymbolTableRecord
100
AcDbLinetypeTableRecord
  2
ByBlock
 70
     0
  3

 72
    65
 73
     0
 40
0.0
  0
LTYPE
  5
12
330
4
100
AcDbSymbolTableRecord
100
AcDbLinetypeTableRecord
  2
ByLayer
 70
     0
  3

 72
    65
 73
     0
 40
0.0
  0
LTYPE
  5
13
330
4
100
AcDbSymbolTableRecord
100
AcDbLinetypeTableRecord
  2
Continuous
 70
     0
  3
Solid line
 72
    65
 73
     0
 40
0.0
  0
LTYPE
  5
8D4
330
4
100
AcDbSymbolTableRecord
100
AcDbLinetypeTableRecord
  2
HIDDEN
 70
     0
  3
Hidden _ _ _ _ _ _ _ _ _ _ _ _ _ _ _ _ _ _ _ _ 
 72
    65
 73
     2
 40
9.524999999999999
 49
6.35
 74
     0
 49
-3.175
 74
     0
  0
LTYPE
  5
BF2
330
4
100
AcDbSymbolTableRecord
100
AcDbLinetypeTableRecord
  2
BORDER
 70
     0
  3
Border __  __  . __  __  . __  __  . __  __  . 
 72
    65
 73
     6
 40
44.45
 49
12.7
 74
     0
 49
-6.35
 74
     0
 49
12.7
 74
     0
 49
-6.35
 74
     0
 49
0.0
 74
     0
 49
-6.35
 74
     0
  0
LTYPE
  5
4337
330
4
100
AcDbSymbolTableRecord
100
AcDbLinetypeTableRecord
  2
HIDDEN2
 70
     0
  3
Hidden (.5x) _ _ _ _ _ _ _ _ _ _ _ _ _ _ _ _ _ 
 72
    65
 73
     2
 40
4.762499999999999
 49
3.175
 74
     0
 49
-1.5875
 74
     0
  0
ENDTAB
  0
TABLE
  2
LAYER
  5
2
102
{ACAD_XDICTIONARY
360
2E1
102
}
330
0
100
AcDbSymbolTable
 70
    10
  0
LAYER
  5
14
330
2
100
AcDbSymbolTableRecord
100
AcDbLayerTableRecord
  2
0
 70
     0
 62
     7
  6
Continuous
370
    -3
390
1D
347
266
  0
LAYER
  5
4A
330
2
100
AcDbSymbolTableRecord
100
AcDbLayerTableRecord
  2
Defpoints
 70
     0
 62
     7
  6
Continuous
290
     0
370
    20
390
1D
347
266
  0
LAYER
  5
4B
330
2
100
AcDbSymbolTableRecord
100
AcDbLayerTableRecord
  2
template
 70
     0
 62
     7
  6
Continuous
370
    20
390
1D
347
266
  0
LAYER
  5
4D
330
2
100
AcDbSymbolTableRecord
100
AcDbLayerTableRecord
  2
MODEL
 70
     0
 62
     7
  6
Continuous
370
    20
390
1D
347
266
  0
LAYER
  5
382
330
2
100
AcDbSymbolTableRecord
100
AcDbLayerTableRecord
  2
レイヤー 1
 70
     0
 62
     7
  6
Continuous
370
    -3
390
1D
347
266
  0
LAYER
  5
5C4
330
2
100
AcDbSymbolTableRecord
100
AcDbLayerTableRecord
  2
HIDDEN
 70
     0
 62
   253
  6
HIDDEN
370
    20
390
1D
347
266
1001
AcAecLayerStandard
1000

1000

  0
LAYER
  5
5EB
330
2
100
AcDbSymbolTableRecord
100
AcDbLayerTableRecord
  2
Dim
 70
     0
 62
     3
  6
Continuous
370
    13
390
1D
347
266
1001
AcAecLayerStandard
1000

1000

  0
LAYER
  5
BF1
330
2
100
AcDbSymbolTableRecord
100
AcDbLayerTableRecord
  2
PRINT BORDER
 70
     0
 62
     4
  6
BORDER
290
     0
370
    20
390
1D
347
266
1001
AcAecLayerStandard
1000

1000

  0
LAYER
  5
1BD2
330
2
100
AcDbSymbolTableRecord
100
AcDbLayerTableRecord
  2
retino
 70
     0
 62
   253
  6
Continuous
370
     0
390
1D
347
266
  0
LAYER
  5
4336
330
2
100
AcDbSymbolTableRecord
100
AcDbLayerTableRecord
  2
tratteggio
 70
     0
 62
    74
  6
HIDDEN2
370
     0
390
1D
347
266
  0
ENDTAB
  0
TABLE
  2
STYLE
  5
3
330
0
100
AcDbSymbolTable
 70
     2
  0
STYLE
  5
17
330
3
100
AcDbSymbolTableRecord
100
AcDbTextStyleTableRecord
  2
Standard
 70
     0
 40
0.0
 41
1.0
 50
0.0
 71
     0
 42
533.0403732820173
  3
txt
  4
BIGFONT.SHX
  0
STYLE
  5
39
330
3
100
AcDbSymbolTableRecord
100
AcDbTextStyleTableRecord
  2
ＭＳ ゴシック
 70
     0
 40
0.0
 41
1.0
 50
0.0
 71
     0
 42
533.0403732820173
  3
msgothic.ttc
  4
ＭＳ ゴシック
1001
ACAD
1000
ＭＳ ゴシック
1071
        0
  0
ENDTAB
  0
TABLE
  2
VIEW
  5
5
330
0
100
AcDbSymbolTable
 70
     0
  0
ENDTAB
  0
TABLE
  2
UCS
  5
6
330
0
100
AcDbSymbolTable
 70
     0
  0
ENDTAB
  0
TABLE
  2
APPID
  5
8
330
0
100
AcDbSymbolTable
 70
    17
  0
APPID
  5
16
330
8
100
AcDbSymbolTableRecord
100
AcDbRegAppTableRecord
  2
ACAD
 70
     0
  0
APPID
  5
5C5
330
8
100
AcDbSymbolTableRecord
100
AcDbRegAppTableRecord
  2
AcAecLayerStandard
 70
     0
  0
APPID
  5
913
330
8
100
AcDbSymbolTableRecord
100
AcDbRegAppTableRecord
  2
ACAD_DSTYLE_DIMBREAK
 70
     0
  0
APPID
  5
914
330
8
100
AcDbSymbolTableRecord
100
AcDbRegAppTableRecord
  2
ACAD_DSTYLE_DIMJAG
 70
     0
  0
APPID
  5
915
330
8
100
AcDbSymbolTableRecord
100
AcDbRegAppTableRecord
  2
ACAD_DSTYLE_DIMTALN
 70
     0
  0
APPID
  5
E4F
330
8
100
AcDbSymbolTableRecord
100
AcDbRegAppTableRecord
  2
ACAD_MLEADERVER
 70
     0
  0
APPID
  5
E79
330
8
100
AcDbSymbolTableRecord
100
AcDbRegAppTableRecord
  2
ACAD_PSEXT
 70
     0
  0
APPID
  5
E7A
330
8
100
AcDbSymbolTableRecord
100
AcDbRegAppTableRecord
  2
ACAD_NAV_VCDISPLAY
 70
     0
  0
APPID
  5
166E
330
8
100
AcDbSymbolTableRecord
100
AcDbRegAppTableRecord
  2
AcadAnnotative
 70
     0
  0
APPID
  5
166F
330
8
100
AcDbSymbolTableRecord
100
AcDbRegAppTableRecord
  2
GradientColor1ACI
 70
     0
  0
APPID
  5
1670
330
8
100
AcDbSymbolTableRecord
100
AcDbRegAppTableRecord
  2
GradientColor2ACI
 70
     0
  0
APPID
  5
20FE
330
8
100
AcDbSymbolTableRecord
100
AcDbRegAppTableRecord
  2
AcLayerTools
 70
     0
  0
APPID
  5
27AB
330
8
100
AcDbSymbolTableRecord
100
AcDbRegAppTableRecord
  2
ACAD_DSTYLE_DIMRADIAL_EXTENSION
 70
     0
  0
APPID
  5
4342
330
8
100
AcDbSymbolTableRecord
100
AcDbRegAppTableRecord
  2
AcadAnnoAV
 70
     0
  0
APPID
  5
6AC5
330
8
100
AcDbSymbolTableRecord
100
AcDbRegAppTableRecord
  2
PLOTTRANSPARENCY
 70
     0
  0
APPID
  5
6AD8
330
8
100
AcDbSymbolTableRecord
100
AcDbRegAppTableRecord
  2
AcCmTransparency
 70
     0
  0
APPID
  5
80B6
330
8
100
AcDbSymbolTableRecord
100
AcDbRegAppTableRecord
  2
HATCHBACKGROUNDCOLOR
 70
     0
  0
ENDTAB
  0
TABLE
  2
DIMSTYLE
  5
9
330
0
100
AcDbSymbolTable
 70
     1
100
AcDbDimStyleTable
  0
DIMSTYLE
105
56
102
{ACAD_REACTORS
330
7FA7
330
7FB6
330
7FDA
330
7FE3
330
801D
330
802A
330
8037
330
8049
330
8059
330
806C
330
8079
330
80BB
330
80CC
330
80DB
102
}
330
9
100
AcDbSymbolTableRecord
100
AcDbDimStyleTableRecord
  2
tform線あり
 70
     0
  3
<>
  4
[]
 41
9.999389648437498
 42
25.0
 43
0.9999999999999999
 44
0.0
 73
     0
 74
     0
 77
     1
 78
    11
140
24.4326171875
141
0.0
143
1.0
146
0.8
147
10.0
171
     1
172
     1
174
     1
178
     0
179
     2
271
     0
272
     1
276
     2
284
    11
285
    11
286
    11
289
     0
340
39
341
4E
342
4E
  0
ENDTAB
  0
TABLE
  2
BLOCK_RECORD
  5
1
330
0
100
AcDbSymbolTable
 70
    39
  0
BLOCK_RECORD
  5
A
102
{ACAD_XDICTIONARY
360
6587
102
}
330
1
100
AcDbSymbolTableRecord
100
AcDbBlockTableRecord
  2
*MODEL_SPACE
340
20
 70
     0
280
     1
281
     0
  0
BLOCK_RECORD
  5
B
330
1
100
AcDbSymbolTableRecord
100
AcDbBlockTableRecord
  2
*PAPER_SPACE
340
21
 70
     0
280
     1
281
     0
  0
BLOCK_RECORD
  5
4E
330
1
100
AcDbSymbolTableRecord
100
AcDbBlockTableRecord
  2
_DOT
340
0
102
{BLKREFS
331
78EC
331
78ED
331
78F8
331
78F9
331
791A
331
791B
331
7929
331
792A
331
7936
331
7937
331
7947
331
7948
331
7956
331
7957
331
7966
331
7967
331
7973
331
7974
331
799D
331
799E
331
79AD
331
79AE
331
79C3
331
79C4
331
79D3
331
79D4
331
7FA1
331
7FA2
331
7FB0
331
7FB1
331
7FBD
331
7FBE
331
7FCE
331
7FCF
331
7FEC
331
7FED
331
7FF8
331
7FF9
331
8024
331
8025
331
8031
331
8032
331
8040
331
8041
331
8053
331
8054
331
8060
331
8061
331
8073
331
8074
331
8080
331
8081
331
80C7
331
80C8
331
80D5
331
80D6
331
80E4
331
80E5
102
}
 70
     0
280
     1
281
     0
  0
BLOCK_RECORD
  5
3A5
330
1
100
AcDbSymbolTableRecord
100
AcDbBlockTableRecord
  2
名称未設定-1
340
0
102
{BLKREFS
331
3D0
102
}
 70
     1
280
     1
281
     0
  0
BLOCK_RECORD
  5
3A8
330
1
100
AcDbSymbolTableRecord
100
AcDbBlockTableRecord
  2
block 2
340
0
102
{BLKREFS
331
3A7
102
}
 70
     0
280
     1
281
     0
  0
BLOCK_RECORD
  5
3AB
330
1
100
AcDbSymbolTableRecord
100
AcDbBlockTableRecord
  2
block 3
340
0
102
{BLKREFS
331
3AA
102
}
 70
     0
280
     1
281
     0
  0
BLOCK_RECORD
  5
3AE
330
1
100
AcDbSymbolTableRecord
100
AcDbBlockTableRecord
  2
block 4
340
0
102
{BLKREFS
331
3AD
102
}
 70
     0
280
     1
281
     0
  0
BLOCK_RECORD
  5
3BD
330
1
100
AcDbSymbolTableRecord
100
AcDbBlockTableRecord
  2
block 5
340
0
102
{BLKREFS
331
3BC
102
}
 70
     0
280
     1
281
     0
  0
BLOCK_RECORD
  5
11F0
330
1
100
AcDbSymbolTableRecord
100
AcDbBlockTableRecord
  2
BLOCK_2
340
0
102
{BLKREFS
331
1273
331
127B
331
127C
102
}
 70
     0
280
     1
281
     0
  0
BLOCK_RECORD
  5
38B6
330
1
100
AcDbSymbolTableRecord
100
AcDbBlockTableRecord
  2
mobile_latù
340
0
310
2800000020000000200000000100080000000000000400000000000000000000000000000000000000000000000080000080000000808000800000008000800080800000C0C0C000C0DCC000F0CAA6000020400000206000002080000020A0000020C0000020E00000400000004020000040400000406000004080000040A0
310
000040C0000040E00000600000006020000060400000606000006080000060A0000060C0000060E00000800000008020000080400000806000008080000080A0000080C0000080E00000A0000000A0200000A0400000A0600000A0800000A0A00000A0C00000A0E00000C0000000C0200000C0400000C0600000C0800000C0
310
A00000C0C00000C0E00000E0000000E0200000E0400000E0600000E0800000E0A00000E0C00000E0E00040000000400020004000400040006000400080004000A0004000C0004000E00040200000402020004020400040206000402080004020A0004020C0004020E000404000004040200040404000404060004040800040
310
40A0004040C0004040E00040600000406020004060400040606000406080004060A0004060C0004060E00040800000408020004080400040806000408080004080A0004080C0004080E00040A0000040A0200040A0400040A0600040A0800040A0A00040A0C00040A0E00040C0000040C0200040C0400040C0600040C08000
310
40C0A00040C0C00040C0E00040E0000040E0200040E0400040E0600040E0800040E0A00040E0C00040E0E00080000000800020008000400080006000800080008000A0008000C0008000E00080200000802020008020400080206000802080008020A0008020C0008020E00080400000804020008040400080406000804080
310
008040A0008040C0008040E00080600000806020008060400080606000806080008060A0008060C0008060E00080800000808020008080400080806000808080008080A0008080C0008080E00080A0000080A0200080A0400080A0600080A0800080A0A00080A0C00080A0E00080C0000080C0200080C0400080C0600080C0
310
800080C0A00080C0C00080C0E00080E0000080E0200080E0400080E0600080E0800080E0A00080E0C00080E0E000C0000000C0002000C0004000C0006000C0008000C000A000C000C000C000E000C0200000C0202000C0204000C0206000C0208000C020A000C020C000C020E000C0400000C0402000C0404000C0406000C0
310
408000C040A000C040C000C040E000C0600000C0602000C0604000C0606000C0608000C060A000C060C000C060E000C0800000C0802000C0804000C0806000C0808000C080A000C080C000C080E000C0A00000C0A02000C0A04000C0A06000C0A08000C0A0A000C0A0C000C0A0E000C0C00000C0C02000C0C04000C0C06000
310
C0C08000C0C0A000F0FBFF00A4A0A000808080000000FF0000FF000000FFFF00FF000000FF00FF00FFFF0000FFFFFF0049494949494949494949494949494949494949494949494949494949494949494949494949494949494949494949494949494949494949494949494949494949494949494949494949494949494949
310
49494949494949494949494949494949494949494949494949494949494949494949494949494949494949494949494949494949494949494949494949494949494949494949494949494949494949494949FAFAFAFAFAFAFAFAFAFAFAFAFAFAFAFAFAFAFAFAFAFAFAFAFAFAFAFAFAFA4949FAFA4949494949494949494949
310
494949494949494949494949494949FAFA4949FAFA4949494949494949494949494949494949494949494949494949FAFA4949FAFA4949494949494949494949494949494949494949494949494949FAFA4949FAFA4949494949494949494949494949494949494949494949494949FAFA4949FAFA49494949494949494949
310
49494949494949494949494949494949FAFA4949FAFA4949494949494949494949494949494949494949494949494949FAFA4949FAFA4949494949494949494949494949494949494949494949494949FAFA4949FAFA4949494949494949494949494949494949494949494949494949FAFA4949FAFA494949494949494949
310
4949494949494949494949494949494949FAFA4949FAFA4949494949494949494949494949494949494949494949494949FAFA4949FAFA4949494949494949494949494949494949494949494949494949FAFA4949FAFA4949494949494949494949494949494949494949494949494949FAFA4949FAFA4949494949494949
310
494949494949494949494949494949494949FAFA4949FAFA4949494949494949494949494949494949494949494949494949FAFA4949FAFA4949494949494949494949494949494949494949494949494949FAFA4949FAFA4949494949494949494949494949494949494949494949494949FAFA4949FAFA49494949494949
310
49494949494949494949494949494949494949FAFA4949FAFAFAFAFAFAFAFAFAFAFAFAFAFAFAFAFAFAFAFAFAFAFAFAFAFAFAFAFAFA4949FAFAFAFAFAFAFAFAFAFAFAFAFAFAFAFAFAFAFAFAFAFAFAFAFAFAFAFAFAFA4949FAFA4949494949494949494949494949494949494949494949494949FAFA4949FAFAFAFAFAFAFAFA
310
FAFAFAFAFAFAFAFAFAFAFAFAFAFAFAFAFAFAFAFAFAFA494949494949494949494949494949494949494949494949494949494949494949494949494949494949494949494949494949494949494949494949494949494949494949494949494949494949494949494949494949494949494949494949494949494949494949
310
4949494949494949494949494949494949494949494949494949494949494949494949494949494949494949494949494949494949494949
102
{BLKREFS
331
3B99
331
45C2
102
}
 70
     4
280
     1
281
     0
  0
BLOCK_RECORD
  5
436B
330
1
100
AcDbSymbolTableRecord
100
AcDbBlockTableRecord
  2
.TD_SECTION_1
340
0
102
{BLKREFS
331
45C3
331
45C5
331
45C7
331
45C9
331
45CB
331
45CD
331
4611
102
}
 70
     0
280
     1
281
     0
  0
BLOCK_RECORD
  5
436F
330
1
100
AcDbSymbolTableRecord
100
AcDbBlockTableRecord
  2
.TD_SECTION_2
340
0
102
{BLKREFS
331
45C4
331
45C6
331
45C8
331
45CA
331
45CC
331
45CE
331
4612
102
}
 70
     0
280
     1
281
     0
  0
BLOCK_RECORD
  5
78E6
330
1
100
AcDbSymbolTableRecord
100
AcDbBlockTableRecord
  2
*D10
340
0
 70
     0
280
     1
281
     0
  0
BLOCK_RECORD
  5
78F2
330
1
100
AcDbSymbolTableRecord
100
AcDbBlockTableRecord
  2
*D11
340
0
 70
     0
280
     1
281
     0
  0
BLOCK_RECORD
  5
7914
330
1
100
AcDbSymbolTableRecord
100
AcDbBlockTableRecord
  2
*D12
340
0
 70
     0
280
     1
281
     0
  0
BLOCK_RECORD
  5
7923
330
1
100
AcDbSymbolTableRecord
100
AcDbBlockTableRecord
  2
*D13
340
0
 70
     0
280
     1
281
     0
  0
BLOCK_RECORD
  5
7930
330
1
100
AcDbSymbolTableRecord
100
AcDbBlockTableRecord
  2
*D14
340
0
 70
     0
280
     1
281
     0
  0
BLOCK_RECORD
  5
7941
330
1
100
AcDbSymbolTableRecord
100
AcDbBlockTableRecord
  2
*D15
340
0
 70
     0
280
     1
281
     0
  0
BLOCK_RECORD
  5
7950
330
1
100
AcDbSymbolTableRecord
100
AcDbBlockTableRecord
  2
*D16
340
0
 70
     0
280
     1
281
     0
  0
BLOCK_RECORD
  5
7960
330
1
100
AcDbSymbolTableRecord
100
AcDbBlockTableRecord
  2
*D17
340
0
 70
     0
280
     1
281
     0
  0
BLOCK_RECORD
  5
796D
330
1
100
AcDbSymbolTableRecord
100
AcDbBlockTableRecord
  2
*D18
340
0
 70
     0
280
     1
281
     0
  0
BLOCK_RECORD
  5
7997
330
1
100
AcDbSymbolTableRecord
100
AcDbBlockTableRecord
  2
*D19
340
0
 70
     0
280
     1
281
     0
  0
BLOCK_RECORD
  5
79A7
330
1
100
AcDbSymbolTableRecord
100
AcDbBlockTableRecord
  2
*D20
340
0
 70
     0
280
     1
281
     0
  0
BLOCK_RECORD
  5
79BA
330
1
100
AcDbSymbolTableRecord
100
AcDbBlockTableRecord
  2
*D21
340
0
 70
     0
280
     1
281
     0
  0
BLOCK_RECORD
  5
79CD
330
1
100
AcDbSymbolTableRecord
100
AcDbBlockTableRecord
  2
*D22
340
0
 70
     0
280
     1
281
     0
  0
BLOCK_RECORD
  5
7F9B
330
1
100
AcDbSymbolTableRecord
100
AcDbBlockTableRecord
  2
*D23
340
0
 70
     0
280
     1
281
     0
  0
BLOCK_RECORD
  5
7FAA
330
1
100
AcDbSymbolTableRecord
100
AcDbBlockTableRecord
  2
*D24
340
0
 70
     0
280
     1
281
     0
  0
BLOCK_RECORD
  5
7FB7
330
1
100
AcDbSymbolTableRecord
100
AcDbBlockTableRecord
  2
*D25
340
0
 70
     0
280
     1
281
     0
  0
BLOCK_RECORD
  5
7FC8
330
1
100
AcDbSymbolTableRecord
100
AcDbBlockTableRecord
  2
*D26
340
0
 70
     0
280
     1
281
     0
  0
BLOCK_RECORD
  5
7FE6
330
1
100
AcDbSymbolTableRecord
100
AcDbBlockTableRecord
  2
*D27
340
0
 70
     0
280
     1
281
     0
  0
BLOCK_RECORD
  5
7FF2
330
1
100
AcDbSymbolTableRecord
100
AcDbBlockTableRecord
  2
*D28
340
0
 70
     0
280
     1
281
     0
  0
BLOCK_RECORD
  5
801E
330
1
100
AcDbSymbolTableRecord
100
AcDbBlockTableRecord
  2
*D29
340
0
 70
     0
280
     1
281
     0
  0
BLOCK_RECORD
  5
802B
330
1
100
AcDbSymbolTableRecord
100
AcDbBlockTableRecord
  2
*D30
340
0
 70
     0
280
     1
281
     0
  0
BLOCK_RECORD
  5
803A
330
1
100
AcDbSymbolTableRecord
100
AcDbBlockTableRecord
  2
*D31
340
0
 70
     0
280
     1
281
     0
  0
BLOCK_RECORD
  5
804A
330
1
100
AcDbSymbolTableRecord
100
AcDbBlockTableRecord
  2
*D32
340
0
 70
     0
280
     1
281
     0
  0
BLOCK_RECORD
  5
805A
330
1
100
AcDbSymbolTableRecord
100
AcDbBlockTableRecord
  2
*D33
340
0
 70
     0
280
     1
281
     0
  0
BLOCK_RECORD
  5
806D
330
1
100
AcDbSymbolTableRecord
100
AcDbBlockTableRecord
  2
*D34
340
0
 70
     0
280
     1
281
     0
  0
BLOCK_RECORD
  5
807A
330
1
100
AcDbSymbolTableRecord
100
AcDbBlockTableRecord
  2
*D35
340
0
 70
     0
280
     1
281
     0
  0
BLOCK_RECORD
  5
80BE
330
1
100
AcDbSymbolTableRecord
100
AcDbBlockTableRecord
  2
*D36
340
0
 70
     0
280
     1
281
     0
  0
BLOCK_RECORD
  5
80CF
330
1
100
AcDbSymbolTableRecord
100
AcDbBlockTableRecord
  2
*D37
340
0
 70
     0
280
     1
281
     0
  0
BLOCK_RECORD
  5
80DE
330
1
100
AcDbSymbolTableRecord
100
AcDbBlockTableRecord
  2
*D38
340
0
 70
     0
280
     1
281
     0
  0
ENDTAB
  0
ENDSEC
  0
SECTION
  2
BLOCKS
  0
BLOCK
  5
D
330
A
100
AcDbEntity
  8
0
390
1D
100
AcDbBlockBegin
  2
*MODEL_SPACE
 70
     0
 10
0.0
 20
0.0
 30
0.0
  3
*MODEL_SPACE
  1
*MODEL_SPACE
  0
ENDBLK
  5
E
330
A
100
AcDbEntity
  8
0
390
1D
100
AcDbBlockEnd
  0
BLOCK
  5
F
330
B
100
AcDbEntity
 67
     1
  8
0
390
1D
100
AcDbBlockBegin
  2
*PAPER_SPACE
 70
     0
 10
0.0
 20
0.0
 30
0.0
  3
*PAPER_SPACE
  1
*PAPER_SPACE
  0
ENDBLK
  5
10
330
B
100
AcDbEntity
 67
     1
  8
0
390
1D
100
AcDbBlockEnd
  0
BLOCK
  5
490E
330
4E
100
AcDbEntity
  8
0
390
1D
100
AcDbBlockBegin
  2
_DOT
 70
     0
 10
0.0
 20
0.0
 30
0.0
  3
_DOT
  1
_DOT
  0
POLYLINE
  5
4910
330
4E
100
AcDbEntity
  8
0
  6
ByBlock
 62
     0
370
    -2
390
1D
100
AcDb2dPolyline
 66
     1
 10
0.0
 20
0.0
 30
0.0
 70
     1
 40
0.5
 41
0.5
  0
VERTEX
  5
4911
330
4910
100
AcDbEntity
  8
0
  6
ByBlock
 62
     0
370
    -2
390
1D
100
AcDbVertex
100
AcDb2dVertex
 10
-0.25
 20
0.0
 30
0.0
 42
1.0
  0
VERTEX
  5
4912
330
4910
100
AcDbEntity
  8
0
  6
ByBlock
 62
     0
370
    -2
390
1D
100
AcDbVertex
100
AcDb2dVertex
 10
0.25
 20
0.0
 30
0.0
 42
1.0
  0
SEQEND
  5
4913
330
4910
100
AcDbEntity
  8
0
390
1D
  0
LINE
  5
4914
330
4E
100
AcDbEntity
  8
0
  6
ByBlock
 62
     0
370
    -2
390
1D
100
AcDbLine
 10
-0.5
 20
0.0
 30
0.0
 11
-1.0
 21
0.0
 31
0.0
  0
ENDBLK
  5
4915
330
4E
100
AcDbEntity
  8
0
390
1D
100
AcDbBlockEnd
  0
BLOCK
  5
3A6
330
3A5
100
AcDbEntity
  8
0
100
AcDbBlockBegin
  2
名称未設定-1
 70
     0
 10
0.0
 20
0.0
 30
0.0
  3
名称未設定-1
  1
名称未設定-1
  0
INSERT
  5
3A7
330
3A5
100
AcDbEntity
  8
レイヤー 1
100
AcDbBlockReference
  2
block 2
 10
0.0
 20
0.0
 30
0.0
  0
ENDBLK
  5
3CC
330
3A5
100
AcDbEntity
  8
0
100
AcDbBlockEnd
  0
BLOCK
  5
3A9
330
3A8
100
AcDbEntity
  8
0
100
AcDbBlockBegin
  2
block 2
 70
     0
 10
0.0
 20
0.0
 30
0.0
  3
block 2
  1
block 2
  0
INSERT
  5
3AA
330
3A8
100
AcDbEntity
  8
レイヤー 1
100
AcDbBlockReference
  2
block 3
 10
0.0
 20
0.0
 30
0.0
  0
ENDBLK
  5
3CB
330
3A8
100
AcDbEntity
  8
0
100
AcDbBlockEnd
  0
BLOCK
  5
3AC
330
3AB
100
AcDbEntity
  8
0
100
AcDbBlockBegin
  2
block 3
 70
     0
 10
0.0
 20
0.0
 30
0.0
  3
block 3
  1
block 3
  0
INSERT
  5
3AD
330
3AB
100
AcDbEntity
  8
レイヤー 1
100
AcDbBlockReference
  2
block 4
 10
0.0
 20
0.0
 30
0.0
  0
ENDBLK
  5
3CA
330
3AB
100
AcDbEntity
  8
0
100
AcDbBlockEnd
  0
BLOCK
  5
3AF
330
3AE
100
AcDbEntity
  8
0
100
AcDbBlockBegin
  2
block 4
 70
     0
 10
0.0
 20
0.0
 30
0.0
  3
block 4
  1
block 4
  0
POLYLINE
  5
3B0
330
3AE
100
AcDbEntity
  8
レイヤー 1
370
     0
100
AcDb2dPolyline
 66
     1
 10
0.0
 20
0.0
 30
0.0
  0
VERTEX
  5
3B1
330
3B0
100
AcDbEntity
  8
レイヤー 1
370
     0
100
AcDbVertex
100
AcDb2dVertex
 10
83.79545727667795
 20
167.6444858234922
 30
0.0
  0
VERTEX
  5
3B2
330
3B0
100
AcDbEntity
  8
レイヤー 1
370
     0
100
AcDbVertex
100
AcDb2dVertex
 10
83.79545727667795
 20
159.7968976406313
 30
0.0
  0
VERTEX
  5
3B3
330
3B0
100
AcDbEntity
  8
レイヤー 1
370
     0
100
AcDbVertex
100
AcDb2dVertex
 10
71.3631329975216
 20
159.7968976406313
 30
0.0
  0
VERTEX
  5
3B4
330
3B0
100
AcDbEntity
  8
レイヤー 1
370
     0
100
AcDbVertex
100
AcDb2dVertex
 10
71.3631329975216
 20
127.8027915271048
 30
0.0
  0
VERTEX
  5
3B5
330
3B0
100
AcDbEntity
  8
レイヤー 1
370
     0
100
AcDbVertex
100
AcDb2dVertex
 10
60.43011526263018
 20
127.8027915271048
 30
0.0
  0
VERTEX
  5
3B6
330
3B0
100
AcDbEntity
  8
レイヤー 1
370
     0
100
AcDbVertex
100
AcDb2dVertex
 10
60.43011526263018
 20
159.7968976406313
 30
0.0
  0
VERTEX
  5
3B7
330
3B0
100
AcDbEntity
  8
レイヤー 1
370
     0
100
AcDbVertex
100
AcDb2dVertex
 10
48.21793273020759
 20
159.7968976406313
 30
0.0
  0
VERTEX
  5
3B8
330
3B0
100
AcDbEntity
  8
レイヤー 1
370
     0
100
AcDbVertex
100
AcDb2dVertex
 10
48.21793273020759
 20
167.6444858234922
 30
0.0
  0
VERTEX
  5
3B9
330
3B0
100
AcDbEntity
  8
レイヤー 1
370
     0
100
AcDbVertex
100
AcDb2dVertex
 10
83.79545727667795
 20
167.6444858234922
 30
0.0
  0
SEQEND
  5
3BA
330
3B0
100
AcDbEntity
  8
レイヤー 1
370
     0
  0
HATCH
  5
3BB
330
3AE
100
AcDbEntity
  8
レイヤー 1
 62
   250
420
  2234388
100
AcDbHatch
 10
0.0
 20
0.0
 30
0.0
210
0.0
220
0.0
230
1.0
  2
SOLID
 70
     1
 71
     0
 91
        1
 92
        1
 93
        8
 72
     1
 10
83.79545727667795
 20
167.6444858234922
 11
83.79545727667795
 21
159.7968976406313
 72
     1
 10
83.79545727667795
 20
159.7968976406313
 11
71.3631329975216
 21
159.7968976406313
 72
     1
 10
71.3631329975216
 20
159.7968976406313
 11
71.3631329975216
 21
127.8027915271048
 72
     1
 10
71.3631329975216
 20
127.8027915271048
 11
60.43011526263018
 21
127.8027915271048
 72
     1
 10
60.43011526263018
 20
127.8027915271048
 11
60.43011526263018
 21
159.7968976406313
 72
     1
 10
60.43011526263018
 20
159.7968976406313
 11
48.21793273020759
 21
159.7968976406313
 72
     1
 10
48.21793273020759
 20
159.7968976406313
 11
48.21793273020759
 21
167.6444858234922
 72
     1
 10
48.21793273020759
 20
167.6444858234922
 11
83.79545727667795
 21
167.6444858234922
 97
        0
 75
     2
 76
     1
 98
        0
  0
INSERT
  5
3BC
330
3AE
100
AcDbEntity
  8
レイヤー 1
100
AcDbBlockReference
  2
block 5
 10
0.0
 20
0.0
 30
0.0
  0
ENDBLK
  5
3C9
330
3AE
100
AcDbEntity
  8
0
100
AcDbBlockEnd
  0
BLOCK
  5
3BE
330
3BD
100
AcDbEntity
  8
0
100
AcDbBlockBegin
  2
block 5
 70
     0
 10
0.0
 20
0.0
 30
0.0
  3
block 5
  1
block 5
  0
SPLINE
  5
3BF
330
3BD
100
AcDbEntity
  8
レイヤー 1
370
     0
100
AcDbSpline
210
0.0
220
0.0
230
1.0
 70
    11
 71
     3
 72
    56
 73
    52
 74
     0
 42
0.000000001
 43
0.0000000001
 40
0.0
 40
0.0
 40
0.0
 40
0.0
 40
1.0
 40
1.0
 40
1.0
 40
2.0
 40
2.0
 40
2.0
 40
3.0
 40
3.0
 40
3.0
 40
4.0
 40
4.0
 40
4.0
 40
5.0
 40
5.0
 40
5.0
 40
6.0
 40
6.0
 40
6.0
 40
7.0
 40
7.0
 40
7.0
 40
8.0
 40
8.0
 40
8.0
 40
9.0
 40
9.0
 40
9.0
 40
10.0
 40
10.0
 40
10.0
 40
11.0
 40
11.0
 40
11.0
 40
12.0
 40
12.0
 40
12.0
 40
13.0
 40
13.0
 40
13.0
 40
14.0
 40
14.0
 40
14.0
 40
15.0
 40
15.0
 40
15.0
 40
16.0
 40
16.0
 40
16.0
 40
17.0
 40
17.0
 40
17.0
 40
17.0
 10
100.4504378777679
 20
166.69157178364
 30
0.0
 10
101.9848844191641
 20
167.1313385124438
 30
0.0
 10
103.9637485713373
 20
166.7649523658846
 30
0.0
 10
103.9637485713373
 20
166.7649523658846
 30
0.0
 10
103.9637485713373
 20
166.7649523658846
 30
0.0
 10
103.0132460999156
 20
163.911205638077
 30
0.0
 10
103.0132460999156
 20
163.911205638077
 30
0.0
 10
103.0132460999156
 20
163.911205638077
 30
0.0
 10
101.0674548862189
 20
164.3601018759394
 30
0.0
 10
99.57090442016032
 20
163.1805004036133
 30
0.0
 10
98.40508333886608
 20
162.258247733807
 30
0.0
 10
97.65301849830304
 20
159.804132345923
 30
0.0
 10
97.3598406791005
 20
158.8699940888517
 30
0.0
 10
97.3598406791005
 20
158.8699940888517
 30
0.0
 10
96.07137411762282
 20
154.9119212747295
 30
0.0
 10
96.07137411762282
 20
154.9119212747295
 30
0.0
 10
96.07137411762282
 20
154.9119212747295
 30
0.0
 10
100.3012651448482
 20
154.9119212747295
 30
0.0
 10
100.3012651448482
 20
154.9119212747295
 30
0.0
 10
100.3012651448482
 20
154.9119212747295
 30
0.0
 10
99.64152892419852
 20
152.4199098115079
 30
0.0
 10
99.64152892419852
 20
152.4199098115079
 30
0.0
 10
99.64152892419852
 20
152.4199098115079
 30
0.0
 10
95.38097652692731
 20
152.4199098115079
 30
0.0
 10
95.38097652692731
 20
152.4199098115079
 30
0.0
 10
95.38097652692731
 20
152.4199098115079
 30
0.0
 10
87.75353009080013
 20
127.8027915271048
 30
0.0
 10
87.75353009080013
 20
127.8027915271048
 30
0.0
 10
87.75353009080013
 20
127.8027915271048
 30
0.0
 10
85.36538832498108
 20
127.8027915271048
 30
0.0
 10
85.36538832498108
 20
127.8027915271048
 30
0.0
 10
85.36538832498108
 20
127.8027915271048
 30
0.0
 10
93.00006946639998
 20
152.4199098115079
 30
0.0
 10
93.00006946639998
 20
152.4199098115079
 30
0.0
 10
93.00006946639998
 20
152.4199098115079
 30
0.0
 10
89.85297266450198
 20
152.4199098115079
 30
0.0
 10
89.85297266450198
 20
152.4199098115079
 30
0.0
 10
89.85297266450198
 20
152.4199098115079
 30
0.0
 10
90.51270888515164
 20
154.9119212747295
 30
0.0
 10
90.51270888515164
 20
154.9119212747295
 30
0.0
 10
90.51270888515164
 20
154.9119212747295
 30
0.0
 10
93.6904670570955
 20
154.9119212747295
 30
0.0
 10
93.6904670570955
 20
154.9119212747295
 30
0.0
 10
93.6904670570955
 20
154.9119212747295
 30
0.0
 10
94.81598049462158
 20
158.3616699146644
 30
0.0
 10
94.81598049462158
 20
158.3616699146644
 30
0.0
 10
95.7237637538445
 20
161.2605474231013
 30
0.0
 10
96.4968436907311
 20
162.8139420021662
 30
0.0
 10
97.15657991138076
 20
163.9844139654337
 30
0.0
 10
97.81183750494507
 20
165.1523021053827
 30
0.0
 10
99.1047826935081
 20
166.3084769129547
 30
0.0
 10
100.4504378777679
 20
166.69157178364
 30
0.0
  0
HATCH
  5
3C0
330
3BD
100
AcDbEntity
  8
レイヤー 1
 62
   250
420
  2234388
100
AcDbHatch
 10
0.0
 20
0.0
 30
0.0
210
0.0
220
0.0
230
1.0
  2
SOLID
 70
     1
 71
     0
 91
        1
 92
        1
 93
        1
 72
     4
 94
        3
 73
     0
 74
     1
 95
       56
 96
       52
 40
0.0
 40
0.0
 40
0.0
 40
0.0
 40
1.0
 40
1.0
 40
1.0
 40
2.0
 40
2.0
 40
2.0
 40
3.0
 40
3.0
 40
3.0
 40
4.0
 40
4.0
 40
4.0
 40
5.0
 40
5.0
 40
5.0
 40
6.0
 40
6.0
 40
6.0
 40
7.0
 40
7.0
 40
7.0
 40
8.0
 40
8.0
 40
8.0
 40
9.0
 40
9.0
 40
9.0
 40
10.0
 40
10.0
 40
10.0
 40
11.0
 40
11.0
 40
11.0
 40
12.0
 40
12.0
 40
12.0
 40
13.0
 40
13.0
 40
13.0
 40
14.0
 40
14.0
 40
14.0
 40
15.0
 40
15.0
 40
15.0
 40
16.0
 40
16.0
 40
16.0
 40
17.0
 40
17.0
 40
17.0
 40
17.0
 10
100.4504378777679
 20
166.69157178364
 10
101.9848844191641
 20
167.1313385124438
 10
103.9637485713373
 20
166.7649523658846
 10
103.9637485713373
 20
166.7649523658846
 10
103.9637485713373
 20
166.7649523658846
 10
103.0132460999156
 20
163.911205638077
 10
103.0132460999156
 20
163.911205638077
 10
103.0132460999156
 20
163.911205638077
 10
101.0674548862189
 20
164.3601018759394
 10
99.57090442016032
 20
163.1805004036133
 10
98.40508333886608
 20
162.258247733807
 10
97.65301849830304
 20
159.804132345923
 10
97.3598406791005
 20
158.8699940888517
 10
97.3598406791005
 20
158.8699940888517
 10
96.07137411762282
 20
154.9119212747295
 10
96.07137411762282
 20
154.9119212747295
 10
96.07137411762282
 20
154.9119212747295
 10
100.3012651448482
 20
154.9119212747295
 10
100.3012651448482
 20
154.9119212747295
 10
100.3012651448482
 20
154.9119212747295
 10
99.64152892419852
 20
152.4199098115079
 10
99.64152892419852
 20
152.4199098115079
 10
99.64152892419852
 20
152.4199098115079
 10
95.38097652692731
 20
152.4199098115079
 10
95.38097652692731
 20
152.4199098115079
 10
95.38097652692731
 20
152.4199098115079
 10
87.75353009080013
 20
127.8027915271048
 10
87.75353009080013
 20
127.8027915271048
 10
87.75353009080013
 20
127.8027915271048
 10
85.36538832498108
 20
127.8027915271048
 10
85.36538832498108
 20
127.8027915271048
 10
85.36538832498108
 20
127.8027915271048
 10
93.00006946639998
 20
152.4199098115079
 10
93.00006946639998
 20
152.4199098115079
 10
93.00006946639998
 20
152.4199098115079
 10
89.85297266450198
 20
152.4199098115079
 10
89.85297266450198
 20
152.4199098115079
 10
89.85297266450198
 20
152.4199098115079
 10
90.51270888515164
 20
154.9119212747295
 10
90.51270888515164
 20
154.9119212747295
 10
90.51270888515164
 20
154.9119212747295
 10
93.6904670570955
 20
154.9119212747295
 10
93.6904670570955
 20
154.9119212747295
 10
93.6904670570955
 20
154.9119212747295
 10
94.81598049462158
 20
158.3616699146644
 10
94.81598049462158
 20
158.3616699146644
 10
95.7237637538445
 20
161.2605474231013
 10
96.4968436907311
 20
162.8139420021662
 10
97.15657991138076
 20
163.9844139654337
 10
97.81183750494507
 20
165.1523021053827
 10
99.1047826935081
 20
166.3084769129547
 10
100.4504378777679
 20
166.69157178364
 97
        0
 75
     2
 76
     1
 98
        0
  0
SPLINE
  5
3C1
330
3BD
100
AcDbEntity
  8
レイヤー 1
370
     0
100
AcDbSpline
210
0.0
220
0.0
230
1.0
 70
    11
 71
     3
 72
    38
 73
    34
 74
     0
 42
0.000000001
 43
0.0000000001
 40
0.0
 40
0.0
 40
0.0
 40
0.0
 40
1.0
 40
1.0
 40
1.0
 40
2.0
 40
2.0
 40
2.0
 40
3.0
 40
3.0
 40
3.0
 40
4.0
 40
4.0
 40
4.0
 40
5.0
 40
5.0
 40
5.0
 40
6.0
 40
6.0
 40
6.0
 40
7.0
 40
7.0
 40
7.0
 40
8.0
 40
8.0
 40
8.0
 40
9.0
 40
9.0
 40
9.0
 40
10.0
 40
10.0
 40
10.0
 40
11.0
 40
11.0
 40
11.0
 40
11.0
 10
126.377554584636
 20
154.8151140277308
 30
0.0
 10
126.377554584636
 20
154.8151140277308
 30
0.0
 10
128.8311532078563
 20
154.8151140277308
 30
0.0
 10
128.8311532078563
 20
154.8151140277308
 30
0.0
 10
128.8311532078563
 20
154.8151140277308
 30
0.0
 10
127.7345785914971
 20
151.3062819612468
 30
0.0
 10
127.7345785914971
 20
151.3062819612468
 30
0.0
 10
128.571392836906
 20
152.2922689395754
 30
0.0
 10
129.8860421413442
 20
153.604506675583
 30
0.0
 10
131.0163787157314
 20
154.2664822097754
 30
0.0
 10
132.7044766171327
 20
155.2500576196734
 30
0.0
 10
133.6642808525008
 20
155.3847609420097
 30
0.0
 10
134.7284715499351
 20
155.3565111403944
 30
0.0
 10
134.7284715499351
 20
155.3565111403944
 30
0.0
 10
133.6877075172549
 20
152.0345756272799
 30
0.0
 10
133.6877075172549
 20
152.0345756272799
 30
0.0
 10
133.011434827367
 20
152.3184516825359
 30
0.0
 10
130.930940291334
 20
151.7768823149844
 30
0.0
 10
129.739280976855
 20
150.9162968950455
 30
0.0
 10
128.66613302525
 20
150.1454562717016
 30
0.0
 10
127.9192358313239
 20
149.4857200510519
 30
0.0
 10
127.0393578639405
 20
147.8282835196966
 30
0.0
 10
126.164647543194
 20
146.1699857139017
 30
0.0
 10
125.4742499524985
 20
143.5262176944419
 30
0.0
 10
124.2822461282437
 20
139.6959580071401
 30
0.0
 10
124.2822461282437
 20
139.6959580071401
 30
0.0
 10
120.5753209406769
 20
127.8027915271048
 30
0.0
 10
120.5753209406769
 20
127.8027915271048
 30
0.0
 10
120.5753209406769
 20
127.8027915271048
 30
0.0
 10
118.1964809388044
 20
127.8027915271048
 30
0.0
 10
118.1964809388044
 20
127.8027915271048
 30
0.0
 10
118.1964809388044
 20
127.8027915271048
 30
0.0
 10
126.377554584636
 20
154.8151140277308
 30
0.0
 10
126.377554584636
 20
154.8151140277308
 30
0.0
  0
HATCH
  5
3C2
330
3BD
100
AcDbEntity
  8
レイヤー 1
 62
   250
420
  2234388
100
AcDbHatch
 10
0.0
 20
0.0
 30
0.0
210
0.0
220
0.0
230
1.0
  2
SOLID
 70
     1
 71
     0
 91
        1
 92
        1
 93
        1
 72
     4
 94
        3
 73
     0
 74
     1
 95
       38
 96
       34
 40
0.0
 40
0.0
 40
0.0
 40
0.0
 40
1.0
 40
1.0
 40
1.0
 40
2.0
 40
2.0
 40
2.0
 40
3.0
 40
3.0
 40
3.0
 40
4.0
 40
4.0
 40
4.0
 40
5.0
 40
5.0
 40
5.0
 40
6.0
 40
6.0
 40
6.0
 40
7.0
 40
7.0
 40
7.0
 40
8.0
 40
8.0
 40
8.0
 40
9.0
 40
9.0
 40
9.0
 40
10.0
 40
10.0
 40
10.0
 40
11.0
 40
11.0
 40
11.0
 40
11.0
 10
126.377554584636
 20
154.8151140277308
 10
126.377554584636
 20
154.8151140277308
 10
128.8311532078563
 20
154.8151140277308
 10
128.8311532078563
 20
154.8151140277308
 10
128.8311532078563
 20
154.8151140277308
 10
127.7345785914971
 20
151.3062819612468
 10
127.7345785914971
 20
151.3062819612468
 10
128.571392836906
 20
152.2922689395754
 10
129.8860421413442
 20
153.604506675583
 10
131.0163787157314
 20
154.2664822097754
 10
132.7044766171327
 20
155.2500576196734
 10
133.6642808525008
 20
155.3847609420097
 10
134.7284715499351
 20
155.3565111403944
 10
134.7284715499351
 20
155.3565111403944
 10
133.6877075172549
 20
152.0345756272799
 10
133.6877075172549
 20
152.0345756272799
 10
133.011434827367
 20
152.3184516825359
 10
130.930940291334
 20
151.7768823149844
 10
129.739280976855
 20
150.9162968950455
 10
128.66613302525
 20
150.1454562717016
 10
127.9192358313239
 20
149.4857200510519
 10
127.0393578639405
 20
147.8282835196966
 10
126.164647543194
 20
146.1699857139017
 10
125.4742499524985
 20
143.5262176944419
 10
124.2822461282437
 20
139.6959580071401
 10
124.2822461282437
 20
139.6959580071401
 10
120.5753209406769
 20
127.8027915271048
 10
120.5753209406769
 20
127.8027915271048
 10
120.5753209406769
 20
127.8027915271048
 10
118.1964809388044
 20
127.8027915271048
 10
118.1964809388044
 20
127.8027915271048
 10
118.1964809388044
 20
127.8027915271048
 10
126.377554584636
 20
154.8151140277308
 10
126.377554584636
 20
154.8151140277308
 97
        0
 75
     2
 76
     1
 98
        0
  0
SPLINE
  5
3C3
330
3BD
100
AcDbEntity
  8
レイヤー 1
370
     0
100
AcDbSpline
210
0.0
220
0.0
230
1.0
 70
    11
 71
     3
 72
   104
 73
   100
 74
     0
 42
0.000000001
 43
0.0000000001
 40
0.0
 40
0.0
 40
0.0
 40
0.0
 40
1.0
 40
1.0
 40
1.0
 40
2.0
 40
2.0
 40
2.0
 40
3.0
 40
3.0
 40
3.0
 40
4.0
 40
4.0
 40
4.0
 40
5.0
 40
5.0
 40
5.0
 40
6.0
 40
6.0
 40
6.0
 40
7.0
 40
7.0
 40
7.0
 40
8.0
 40
8.0
 40
8.0
 40
9.0
 40
9.0
 40
9.0
 40
10.0
 40
10.0
 40
10.0
 40
11.0
 40
11.0
 40
11.0
 40
12.0
 40
12.0
 40
12.0
 40
13.0
 40
13.0
 40
13.0
 40
14.0
 40
14.0
 40
14.0
 40
15.0
 40
15.0
 40
15.0
 40
16.0
 40
16.0
 40
16.0
 40
17.0
 40
17.0
 40
17.0
 40
18.0
 40
18.0
 40
18.0
 40
19.0
 40
19.0
 40
19.0
 40
20.0
 40
20.0
 40
20.0
 40
21.0
 40
21.0
 40
21.0
 40
22.0
 40
22.0
 40
22.0
 40
23.0
 40
23.0
 40
23.0
 40
24.0
 40
24.0
 40
24.0
 40
25.0
 40
25.0
 40
25.0
 40
26.0
 40
26.0
 40
26.0
 40
27.0
 40
27.0
 40
27.0
 40
28.0
 40
28.0
 40
28.0
 40
29.0
 40
29.0
 40
29.0
 40
30.0
 40
30.0
 40
30.0
 40
31.0
 40
31.0
 40
31.0
 40
32.0
 40
32.0
 40
32.0
 40
33.0
 40
33.0
 40
33.0
 40
33.0
 10
139.8926730891197
 20
154.8294111834263
 30
0.0
 10
139.8926730891197
 20
154.8294111834263
 30
0.0
 10
142.0344903652445
 20
154.8294111834263
 30
0.0
 10
142.0344903652445
 20
154.8294111834263
 30
0.0
 10
142.0344903652445
 20
154.8294111834263
 30
0.0
 10
140.9516961399171
 20
151.3157559800812
 30
0.0
 10
140.9516961399171
 20
151.3157559800812
 30
0.0
 10
141.8928968473923
 20
152.7887075264977
 30
0.0
 10
142.7341897198865
 20
153.4484437471474
 30
0.0
 10
143.8552245303272
 20
154.2926649527359
 30
0.0
 10
144.9803934580775
 20
155.1296514530327
 30
0.0
 10
146.3139908001845
 20
155.3044901642492
 30
0.0
 10
147.241066606852
 20
155.3044901642492
 30
0.0
 10
148.3855280820469
 20
155.3044901642492
 30
0.0
 10
149.4969166187653
 20
155.0752189084569
 30
0.0
 10
150.0784491203092
 20
153.8172414621372
 30
0.0
 10
150.5228667310863
 20
152.833838307127
 30
0.0
 10
150.5414702589793
 20
152.7201500811143
 30
0.0
 10
150.4140016419347
 20
150.7765981809602
 30
0.0
 10
151.5818897818837
 20
152.7699317437168
 30
0.0
 10
152.4424752018226
 20
153.6256940267945
 30
0.0
 10
153.9038856707499
 20
154.4507949398263
 30
0.0
 10
155.4455669174378
 20
155.3044901642492
 30
0.0
 10
156.339225275853
 20
155.3659851592288
 30
0.0
 10
157.3748216618963
 20
155.2147453676543
 30
0.0
 10
158.911679771723
 20
154.9877134254046
 30
0.0
 10
159.8859534176746
 20
154.4390816074493
 30
0.0
 10
160.3965169054045
 20
152.7816450760939
 30
0.0
 10
160.9070803931344
 20
151.1219692311958
 30
0.0
 10
160.6328506116007
 20
150.2303779314354
 30
0.0
 10
159.9992971339115
 20
147.597634224801
 30
0.0
 10
159.7105979417943
 20
146.4014962832367
 30
0.0
 10
159.2947746424084
 20
144.9400858143094
 30
0.0
 10
158.7463150793409
 20
143.2092687007094
 30
0.0
 10
158.7463150793409
 20
143.2092687007094
 30
0.0
 10
153.9038856707499
 20
127.8027915271048
 30
0.0
 10
153.9038856707499
 20
127.8027915271048
 30
0.0
 10
153.9038856707499
 20
127.8027915271048
 30
0.0
 10
151.3882752878863
 20
127.8027915271048
 30
0.0
 10
151.3882752878863
 20
127.8027915271048
 30
0.0
 10
151.3882752878863
 20
127.8027915271048
 30
0.0
 10
155.6250565106276
 20
141.2751908193897
 30
0.0
 10
155.6250565106276
 20
141.2751908193897
 30
0.0
 10
156.5094131050963
 20
144.0936252951782
 30
0.0
 10
157.109893644309
 20
146.1506931664571
 30
0.0
 10
157.4220195011804
 20
147.4415712963654
 30
0.0
 10
157.8095929989511
 20
149.0530157726519
 30
0.0
 10
157.9656559273867
 20
149.5826995529385
 30
0.0
 10
157.7816877071116
 20
150.7529992613181
 30
0.0
 10
157.6111553680925
 20
151.8430281919372
 30
0.0
 10
157.0582171779396
 20
152.5547853887321
 30
0.0
 10
156.1170164704645
 20
152.5547853887321
 30
0.0
 10
155.1096698860365
 20
152.5547853887321
 30
0.0
 10
154.2962823053817
 20
152.4412694176073
 30
0.0
 10
153.156643967048
 20
151.2945686288697
 30
0.0
 10
152.0170056287143
 20
150.1476955852443
 30
0.0
 10
151.076149431015
 20
148.7930831468137
 30
0.0
 10
150.3337308641742
 20
147.2290087646991
 30
0.0
 10
149.5957909244188
 20
145.6683794803425
 30
0.0
 10
148.8530278478023
 20
143.6822806228776
 30
0.0
 10
148.0964843801539
 20
141.2751908193897
 30
0.0
 10
148.0964843801539
 20
141.2751908193897
 30
0.0
 10
143.8552245303272
 20
127.8027915271048
 30
0.0
 10
143.8552245303272
 20
127.8027915271048
 30
0.0
 10
143.8552245303272
 20
127.8027915271048
 30
0.0
 10
141.486030802177
 20
127.8027915271048
 30
0.0
 10
141.486030802177
 20
127.8027915271048
 30
0.0
 10
141.486030802177
 20
127.8027915271048
 30
0.0
 10
146.3329388378533
 20
143.2092687007094
 30
0.0
 10
146.3329388378533
 20
143.2092687007094
 30
0.0
 10
146.8483254624444
 20
144.8408669988801
 30
0.0
 10
147.2314203331297
 20
146.1837661049335
 30
0.0
 10
147.4867020769946
 20
147.224185627838
 30
0.0
 10
147.9169947869641
 20
149.0197705792876
 30
0.0
 10
148.0306830129768
 20
150.2400242051577
 30
0.0
 10
147.709255392159
 20
151.3157559800812
 30
0.0
 10
147.3874832615654
 20
152.3916600098926
 30
0.0
 10
146.8245542879144
 20
152.6683013598569
 30
0.0
 10
145.8840425999909
 20
152.6683013598569
 30
0.0
 10
145.0989048209514
 20
152.6683013598569
 30
0.0
 10
144.3282364524954
 20
152.3275811915945
 30
0.0
 10
143.4531816219731
 20
151.6538923250251
 30
0.0
 10
142.34627171234
 20
150.8074318058939
 30
0.0
 10
141.901854101563
 20
150.1097995099067
 30
0.0
 10
141.3578731655808
 20
149.289521733736
 30
0.0
 10
140.6299240093235
 20
148.192602607601
 30
0.0
 10
140.2850697237515
 20
147.455696197173
 30
0.0
 10
139.6652966370942
 20
145.8385673095858
 30
0.0
 10
139.0506911970739
 20
144.2214384219986
 30
0.0
 10
138.463991048893
 20
142.3252566160164
 30
0.0
 10
138.0571250036777
 20
141.0154304484394
 30
0.0
 10
138.0571250036777
 20
141.0154304484394
 30
0.0
 10
133.9009590684727
 20
127.8027915271048
 30
0.0
 10
133.9009590684727
 20
127.8027915271048
 30
0.0
 10
133.9009590684727
 20
127.8027915271048
 30
0.0
 10
131.4180771143097
 20
127.8027915271048
 30
0.0
 10
131.4180771143097
 20
127.8027915271048
 30
0.0
 10
131.4180771143097
 20
127.8027915271048
 30
0.0
 10
139.8926730891197
 20
154.8294111834263
 30
0.0
 10
139.8926730891197
 20
154.8294111834263
 30
0.0
  0
HATCH
  5
3C4
330
3BD
100
AcDbEntity
  8
レイヤー 1
 62
   250
420
  2234388
100
AcDbHatch
 10
0.0
 20
0.0
 30
0.0
210
0.0
220
0.0
230
1.0
  2
SOLID
 70
     1
 71
     0
 91
        1
 92
        1
 93
        1
 72
     4
 94
        3
 73
     0
 74
     1
 95
      104
 96
      100
 40
0.0
 40
0.0
 40
0.0
 40
0.0
 40
1.0
 40
1.0
 40
1.0
 40
2.0
 40
2.0
 40
2.0
 40
3.0
 40
3.0
 40
3.0
 40
4.0
 40
4.0
 40
4.0
 40
5.0
 40
5.0
 40
5.0
 40
6.0
 40
6.0
 40
6.0
 40
7.0
 40
7.0
 40
7.0
 40
8.0
 40
8.0
 40
8.0
 40
9.0
 40
9.0
 40
9.0
 40
10.0
 40
10.0
 40
10.0
 40
11.0
 40
11.0
 40
11.0
 40
12.0
 40
12.0
 40
12.0
 40
13.0
 40
13.0
 40
13.0
 40
14.0
 40
14.0
 40
14.0
 40
15.0
 40
15.0
 40
15.0
 40
16.0
 40
16.0
 40
16.0
 40
17.0
 40
17.0
 40
17.0
 40
18.0
 40
18.0
 40
18.0
 40
19.0
 40
19.0
 40
19.0
 40
20.0
 40
20.0
 40
20.0
 40
21.0
 40
21.0
 40
21.0
 40
22.0
 40
22.0
 40
22.0
 40
23.0
 40
23.0
 40
23.0
 40
24.0
 40
24.0
 40
24.0
 40
25.0
 40
25.0
 40
25.0
 40
26.0
 40
26.0
 40
26.0
 40
27.0
 40
27.0
 40
27.0
 40
28.0
 40
28.0
 40
28.0
 40
29.0
 40
29.0
 40
29.0
 40
30.0
 40
30.0
 40
30.0
 40
31.0
 40
31.0
 40
31.0
 40
32.0
 40
32.0
 40
32.0
 40
33.0
 40
33.0
 40
33.0
 40
33.0
 10
139.8926730891197
 20
154.8294111834263
 10
139.8926730891197
 20
154.8294111834263
 10
142.0344903652445
 20
154.8294111834263
 10
142.0344903652445
 20
154.8294111834263
 10
142.0344903652445
 20
154.8294111834263
 10
140.9516961399171
 20
151.3157559800812
 10
140.9516961399171
 20
151.3157559800812
 10
141.8928968473923
 20
152.7887075264977
 10
142.7341897198865
 20
153.4484437471474
 10
143.8552245303272
 20
154.2926649527359
 10
144.9803934580775
 20
155.1296514530327
 10
146.3139908001845
 20
155.3044901642492
 10
147.241066606852
 20
155.3044901642492
 10
148.3855280820469
 20
155.3044901642492
 10
149.4969166187653
 20
155.0752189084569
 10
150.0784491203092
 20
153.8172414621372
 10
150.5228667310863
 20
152.833838307127
 10
150.5414702589793
 20
152.7201500811143
 10
150.4140016419347
 20
150.7765981809602
 10
151.5818897818837
 20
152.7699317437168
 10
152.4424752018226
 20
153.6256940267945
 10
153.9038856707499
 20
154.4507949398263
 10
155.4455669174378
 20
155.3044901642492
 10
156.339225275853
 20
155.3659851592288
 10
157.3748216618963
 20
155.2147453676543
 10
158.911679771723
 20
154.9877134254046
 10
159.8859534176746
 20
154.4390816074493
 10
160.3965169054045
 20
152.7816450760939
 10
160.9070803931344
 20
151.1219692311958
 10
160.6328506116007
 20
150.2303779314354
 10
159.9992971339115
 20
147.597634224801
 10
159.7105979417943
 20
146.4014962832367
 10
159.2947746424084
 20
144.9400858143094
 10
158.7463150793409
 20
143.2092687007094
 10
158.7463150793409
 20
143.2092687007094
 10
153.9038856707499
 20
127.8027915271048
 10
153.9038856707499
 20
127.8027915271048
 10
153.9038856707499
 20
127.8027915271048
 10
151.3882752878863
 20
127.8027915271048
 10
151.3882752878863
 20
127.8027915271048
 10
151.3882752878863
 20
127.8027915271048
 10
155.6250565106276
 20
141.2751908193897
 10
155.6250565106276
 20
141.2751908193897
 10
156.5094131050963
 20
144.0936252951782
 10
157.109893644309
 20
146.1506931664571
 10
157.4220195011804
 20
147.4415712963654
 10
157.8095929989511
 20
149.0530157726519
 10
157.9656559273867
 20
149.5826995529385
 10
157.7816877071116
 20
150.7529992613181
 10
157.6111553680925
 20
151.8430281919372
 10
157.0582171779396
 20
152.5547853887321
 10
156.1170164704645
 20
152.5547853887321
 10
155.1096698860365
 20
152.5547853887321
 10
154.2962823053817
 20
152.4412694176073
 10
153.156643967048
 20
151.2945686288697
 10
152.0170056287143
 20
150.1476955852443
 10
151.076149431015
 20
148.7930831468137
 10
150.3337308641742
 20
147.2290087646991
 10
149.5957909244188
 20
145.6683794803425
 10
148.8530278478023
 20
143.6822806228776
 10
148.0964843801539
 20
141.2751908193897
 10
148.0964843801539
 20
141.2751908193897
 10
143.8552245303272
 20
127.8027915271048
 10
143.8552245303272
 20
127.8027915271048
 10
143.8552245303272
 20
127.8027915271048
 10
141.486030802177
 20
127.8027915271048
 10
141.486030802177
 20
127.8027915271048
 10
141.486030802177
 20
127.8027915271048
 10
146.3329388378533
 20
143.2092687007094
 10
146.3329388378533
 20
143.2092687007094
 10
146.8483254624444
 20
144.8408669988801
 10
147.2314203331297
 20
146.1837661049335
 10
147.4867020769946
 20
147.224185627838
 10
147.9169947869641
 20
149.0197705792876
 10
148.0306830129768
 20
150.2400242051577
 10
147.709255392159
 20
151.3157559800812
 10
147.3874832615654
 20
152.3916600098926
 10
146.8245542879144
 20
152.6683013598569
 10
145.8840425999909
 20
152.6683013598569
 10
145.0989048209514
 20
152.6683013598569
 10
144.3282364524954
 20
152.3275811915945
 10
143.4531816219731
 20
151.6538923250251
 10
142.34627171234
 20
150.8074318058939
 10
141.901854101563
 20
150.1097995099067
 10
141.3578731655808
 20
149.289521733736
 10
140.6299240093235
 20
148.192602607601
 10
140.2850697237515
 20
147.455696197173
 10
139.6652966370942
 20
145.8385673095858
 10
139.0506911970739
 20
144.2214384219986
 10
138.463991048893
 20
142.3252566160164
 10
138.0571250036777
 20
141.0154304484394
 10
138.0571250036777
 20
141.0154304484394
 10
133.9009590684727
 20
127.8027915271048
 10
133.9009590684727
 20
127.8027915271048
 10
133.9009590684727
 20
127.8027915271048
 10
131.4180771143097
 20
127.8027915271048
 10
131.4180771143097
 20
127.8027915271048
 10
131.4180771143097
 20
127.8027915271048
 10
139.8926730891197
 20
154.8294111834263
 10
139.8926730891197
 20
154.8294111834263
 97
        0
 75
     2
 76
     1
 98
        0
  0
SPLINE
  5
3C5
330
3BD
100
AcDbEntity
  8
レイヤー 1
370
     0
100
AcDbSpline
210
0.0
220
0.0
230
1.0
 70
    11
 71
     3
 72
    29
 73
    25
 74
     0
 42
0.000000001
 43
0.0000000001
 40
0.0
 40
0.0
 40
0.0
 40
0.0
 40
1.0
 40
1.0
 40
1.0
 40
2.0
 40
2.0
 40
2.0
 40
3.0
 40
3.0
 40
3.0
 40
4.0
 40
4.0
 40
4.0
 40
5.0
 40
5.0
 40
5.0
 40
6.0
 40
6.0
 40
6.0
 40
7.0
 40
7.0
 40
7.0
 40
8.0
 40
8.0
 40
8.0
 40
8.0
 10
101.6420971922469
 20
132.8388354296931
 30
0.0
 10
101.630039350094
 20
134.7164137077823
 30
0.0
 10
102.2236296937908
 20
138.0598810818841
 30
0.0
 10
103.7487744712405
 20
142.5378191476827
 30
0.0
 10
105.819967243327
 20
148.5896501242061
 30
0.0
 10
107.0602024361932
 20
150.8074318058939
 30
0.0
 10
108.1522984254671
 20
151.8833358357054
 30
0.0
 10
109.741177511439
 20
153.4532668840085
 30
0.0
 10
111.8740375333931
 20
153.5290590346837
 30
0.0
 10
112.5075910110823
 20
153.4532668840085
 30
0.0
 10
113.4012493694975
 20
153.3490526768302
 30
0.0
 10
114.6683563248758
 20
152.7580461564518
 30
0.0
 10
114.7493161221879
 20
150.7838328862519
 30
0.0
 10
114.8106388622796
 20
149.0909118479895
 30
0.0
 10
114.3186789024427
 20
145.9191825971221
 30
0.0
 10
112.6164561002338
 20
140.9489400617108
 30
0.0
 10
110.6444821435766
 20
135.1746117095912
 30
0.0
 10
109.4669477299053
 20
132.8960240524753
 30
0.0
 10
108.5212683953448
 20
131.9072809959403
 30
0.0
 10
106.7346406980658
 20
130.0538184021569
 30
0.0
 10
104.8222669326213
 20
130.2336525051225
 30
0.0
 10
104.5408024457958
 20
130.2336525051225
 30
0.0
 10
104.1721769856939
 20
130.2336525051225
 30
0.0
 10
101.6465758193322
 20
130.6305277668397
 30
0.0
 10
101.6420971922469
 20
132.8388354296931
 30
0.0
  0
SPLINE
  5
3C6
330
3BD
100
AcDbEntity
  8
レイヤー 1
370
     0
100
AcDbSpline
210
0.0
220
0.0
230
1.0
 70
    11
 71
     3
 72
    32
 73
    28
 74
     0
 42
0.000000001
 43
0.0000000001
 40
0.0
 40
0.0
 40
0.0
 40
0.0
 40
1.0
 40
1.0
 40
1.0
 40
2.0
 40
2.0
 40
2.0
 40
3.0
 40
3.0
 40
3.0
 40
4.0
 40
4.0
 40
4.0
 40
5.0
 40
5.0
 40
5.0
 40
6.0
 40
6.0
 40
6.0
 40
7.0
 40
7.0
 40
7.0
 40
8.0
 40
8.0
 40
8.0
 40
9.0
 40
9.0
 40
9.0
 40
9.0
 10
106.2595617172429
 20
153.4105476718098
 30
0.0
 10
104.8222669326213
 20
151.5474388043041
 30
0.0
 10
103.7177685914188
 20
149.8758773721411
 30
0.0
 10
101.9232171692965
 20
144.6141795664062
 30
0.0
 10
100.2754269116635
 20
139.7999999594306
 30
0.0
 10
99.22777268346732
 20
136.3052927937542
 30
0.0
 10
99.06964269637689
 20
132.039572749846
 30
0.0
 10
98.94665270641765
 20
128.8673267343149
 30
0.0
 10
100.8807305877373
 20
127.8027915271048
 30
0.0
 10
103.7129454545577
 20
127.8027915271048
 30
0.0
 10
104.9352661390825
 20
127.8027915271048
 30
0.0
 10
108.0151835347002
 20
127.8827177950895
 30
0.0
 10
110.2045431598849
 20
130.5926316915021
 30
0.0
 10
111.7417457794874
 20
132.4984597712065
 30
0.0
 10
113.155269389579
 20
134.475256864725
 30
0.0
 10
115.0562743324223
 20
140.9489400617108
 30
0.0
 10
116.6361961642235
 20
146.3680788349845
 30
0.0
 10
117.7282921534974
 20
149.8639917848761
 30
0.0
 10
117.6480213757369
 20
151.8595646611754
 30
0.0
 10
117.6480213757369
 20
151.8595646611754
 30
0.0
 10
117.6480213757369
 20
151.8595646611754
 30
0.0
 10
117.6480213757369
 20
151.8595646611754
 30
0.0
 10
117.13229024137
 20
155.18150017429
 30
0.0
 10
114.7162431837115
 20
155.886194920681
 30
0.0
 10
113.3351034925446
 20
155.886194920681
 30
0.0
 10
111.9829026225447
 20
155.886194920681
 30
0.0
 10
108.3414342923792
 20
156.1251124501957
 30
0.0
 10
106.2595617172429
 20
153.4105476718098
 30
0.0
  0
HATCH
  5
3C7
330
3BD
100
AcDbEntity
  8
レイヤー 1
 62
   250
420
  2234388
100
AcDbHatch
 10
0.0
 20
0.0
 30
0.0
210
0.0
220
0.0
230
1.0
  2
SOLID
 70
     1
 71
     0
 91
        2
 92
        1
 93
        1
 72
     4
 94
        3
 73
     0
 74
     1
 95
       29
 96
       25
 40
0.0
 40
0.0
 40
0.0
 40
0.0
 40
1.0
 40
1.0
 40
1.0
 40
2.0
 40
2.0
 40
2.0
 40
3.0
 40
3.0
 40
3.0
 40
4.0
 40
4.0
 40
4.0
 40
5.0
 40
5.0
 40
5.0
 40
6.0
 40
6.0
 40
6.0
 40
7.0
 40
7.0
 40
7.0
 40
8.0
 40
8.0
 40
8.0
 40
8.0
 10
101.6420971922469
 20
132.8388354296931
 10
101.630039350094
 20
134.7164137077823
 10
102.2236296937908
 20
138.0598810818841
 10
103.7487744712405
 20
142.5378191476827
 10
105.819967243327
 20
148.5896501242061
 10
107.0602024361932
 20
150.8074318058939
 10
108.1522984254671
 20
151.8833358357054
 10
109.741177511439
 20
153.4532668840085
 10
111.8740375333931
 20
153.5290590346837
 10
112.5075910110823
 20
153.4532668840085
 10
113.4012493694975
 20
153.3490526768302
 10
114.6683563248758
 20
152.7580461564518
 10
114.7493161221879
 20
150.7838328862519
 10
114.8106388622796
 20
149.0909118479895
 10
114.3186789024427
 20
145.9191825971221
 10
112.6164561002338
 20
140.9489400617108
 10
110.6444821435766
 20
135.1746117095912
 10
109.4669477299053
 20
132.8960240524753
 10
108.5212683953448
 20
131.9072809959403
 10
106.7346406980658
 20
130.0538184021569
 10
104.8222669326213
 20
130.2336525051225
 10
104.5408024457958
 20
130.2336525051225
 10
104.1721769856939
 20
130.2336525051225
 10
101.6465758193322
 20
130.6305277668397
 10
101.6420971922469
 20
132.8388354296931
 97
        0
 92
        1
 93
        1
 72
     4
 94
        3
 73
     0
 74
     1
 95
       32
 96
       28
 40
0.0
 40
0.0
 40
0.0
 40
0.0
 40
1.0
 40
1.0
 40
1.0
 40
2.0
 40
2.0
 40
2.0
 40
3.0
 40
3.0
 40
3.0
 40
4.0
 40
4.0
 40
4.0
 40
5.0
 40
5.0
 40
5.0
 40
6.0
 40
6.0
 40
6.0
 40
7.0
 40
7.0
 40
7.0
 40
8.0
 40
8.0
 40
8.0
 40
9.0
 40
9.0
 40
9.0
 40
9.0
 10
106.2595617172429
 20
153.4105476718098
 10
104.8222669326213
 20
151.5474388043041
 10
103.7177685914188
 20
149.8758773721411
 10
101.9232171692965
 20
144.6141795664062
 10
100.2754269116635
 20
139.7999999594306
 10
99.22777268346732
 20
136.3052927937542
 10
99.06964269637689
 20
132.039572749846
 10
98.94665270641765
 20
128.8673267343149
 10
100.8807305877373
 20
127.8027915271048
 10
103.7129454545577
 20
127.8027915271048
 10
104.9352661390825
 20
127.8027915271048
 10
108.0151835347002
 20
127.8827177950895
 10
110.2045431598849
 20
130.5926316915021
 10
111.7417457794874
 20
132.4984597712065
 10
113.155269389579
 20
134.475256864725
 10
115.0562743324223
 20
140.9489400617108
 10
116.6361961642235
 20
146.3680788349845
 10
117.7282921534974
 20
149.8639917848761
 10
117.6480213757369
 20
151.8595646611754
 10
117.6480213757369
 20
151.8595646611754
 10
117.6480213757369
 20
151.8595646611754
 10
117.6480213757369
 20
151.8595646611754
 10
117.13229024137
 20
155.18150017429
 10
114.7162431837115
 20
155.886194920681
 10
113.3351034925446
 20
155.886194920681
 10
111.9829026225447
 20
155.886194920681
 10
108.3414342923792
 20
156.1251124501957
 10
106.2595617172429
 20
153.4105476718098
 97
        0
 75
     2
 76
     1
 98
        0
  0
ENDBLK
  5
3C8
330
3BD
100
AcDbEntity
  8
0
100
AcDbBlockEnd
  0
BLOCK
  5
11F1
330
11F0
100
AcDbEntity
  8
0
100
AcDbBlockBegin
  2
BLOCK_2
 70
     0
 10
0.0
 20
0.0
 30
0.0
  3
BLOCK_2
  1
BLOCK_2
  0
ENDBLK
  5
11F2
330
11F0
100
AcDbEntity
  8
0
100
AcDbBlockEnd
  0
BLOCK
  5
38B7
330
38B6
100
AcDbEntity
  8
0
100
AcDbBlockBegin
  2
mobile_latù
 70
     0
 10
0.0
 20
0.0
 30
0.0
  3
mobile_latù
  1
mobile_latù
  0
ENDBLK
  5
38B8
330
38B6
100
AcDbEntity
  8
0
100
AcDbBlockEnd
  0
BLOCK
  5
436C
330
436B
100
AcDbEntity
  8
0
100
AcDbBlockBegin
  2
.TD_SECTION_1
 70
     0
 10
225818116096.0
 20
0.0
 30
0.0
  3
.TD_SECTION_1
  1
.TD_SECTION_1
  0
ENDBLK
  5
436D
330
436B
100
AcDbEntity
  8
0
100
AcDbBlockEnd
  0
BLOCK
  5
4370
330
436F
100
AcDbEntity
  8
0
100
AcDbBlockBegin
  2
.TD_SECTION_2
 70
     0
 10
225818181632.0
 20
0.0
 30
0.0
  3
.TD_SECTION_2
  1
.TD_SECTION_2
  0
ENDBLK
  5
4371
330
436F
100
AcDbEntity
  8
0
100
AcDbBlockEnd
  0
BLOCK
  5
78E7
330
78E6
100
AcDbEntity
  8
0
100
AcDbBlockBegin
  2
*D10
 70
     1
 10
0.0
 20
0.0
 30
0.0
  3
*D10
  1

  0
LINE
  5
78E9
330
78E6
100
AcDbEntity
  8
Dim
 62
     0
370
    -2
100
AcDbLine
 10
-1328.680750120755
 20
2144.86517955354
 30
0.0
 11
-1328.680750120755
 21
2213.585720279992
 31
0.0
  0
LINE
  5
78EA
330
78E6
100
AcDbEntity
  8
Dim
 62
     0
370
    -2
100
AcDbLine
 10
-1228.680750120755
 20
2146.36517955354
 30
0.0
 11
-1228.680750120755
 21
2213.585720279992
 31
0.0
  0
LINE
  5
78EB
330
78E6
100
AcDbEntity
  8
Dim
 62
     0
370
    -2
100
AcDbLine
 10
-1318.681360472318
 20
2213.585720279992
 30
0.0
 11
-1238.680139769193
 21
2213.585720279992
 31
0.0
  0
INSERT
  5
78EC
330
78E6
100
AcDbEntity
  8
Dim
 62
     0
370
    -2
100
AcDbBlockReference
  2
_DOT
 10
-1328.680750120755
 20
2213.585720279992
 30
0.0
 41
9.999389648437498
 42
9.999389648437498
 43
9.999389648437498
 50
180.0
  0
INSERT
  5
78ED
330
78E6
100
AcDbEntity
  8
Dim
 62
     0
370
    -2
100
AcDbBlockReference
  2
_DOT
 10
-1228.680750120755
 20
2213.585720279992
 30
0.0
 41
9.999389648437498
 42
9.999389648437498
 43
9.999389648437498
  0
MTEXT
  5
78EE
330
78E6
100
AcDbEntity
  8
Dim
 62
     0
100
AcDbMText
 10
-1278.680750120755
 20
2235.806611708028
 30
0.0
 40
24.4326171875
 41
0.0
 46
0.0
 71
     5
 72
     1
  1
\A1;100
  7
ＭＳ ゴシック
 73
     1
 44
1.0
  0
POINT
  5
78EF
330
78E6
100
AcDbEntity
  8
Defpoints
 62
     0
100
AcDbPoint
 10
-1328.680750120755
 20
2119.86517955354
 30
0.0
  0
POINT
  5
78F0
330
78E6
100
AcDbEntity
  8
Defpoints
 62
     0
100
AcDbPoint
 10
-1228.680750120755
 20
2121.36517955354
 30
0.0
  0
POINT
  5
78F1
330
78E6
100
AcDbEntity
  8
Defpoints
 62
     0
100
AcDbPoint
 10
-1228.680750120755
 20
2213.585720279992
 30
0.0
  0
ENDBLK
  5
78E8
330
78E6
100
AcDbEntity
  8
0
100
AcDbBlockEnd
  0
BLOCK
  5
78F3
330
78F2
100
AcDbEntity
  8
0
100
AcDbBlockBegin
  2
*D11
 70
     1
 10
0.0
 20
0.0
 30
0.0
  3
*D11
  1

  0
LINE
  5
78F5
330
78F2
100
AcDbEntity
  8
Dim
 62
     0
370
    -2
100
AcDbLine
 10
-1128.680750120755
 20
2144.86517955354
 30
0.0
 11
-1128.680750120755
 21
2213.585720279992
 31
0.0
  0
LINE
  5
78F6
330
78F2
100
AcDbEntity
  8
Dim
 62
     0
370
    -2
100
AcDbLine
 10
-1228.680750120755
 20
2146.36517955354
 30
0.0
 11
-1228.680750120755
 21
2213.585720279992
 31
0.0
  0
LINE
  5
78F7
330
78F2
100
AcDbEntity
  8
Dim
 62
     0
370
    -2
100
AcDbLine
 10
-1138.680139769193
 20
2213.585720279992
 30
0.0
 11
-1218.681360472318
 21
2213.585720279992
 31
0.0
  0
INSERT
  5
78F8
330
78F2
100
AcDbEntity
  8
Dim
 62
     0
370
    -2
100
AcDbBlockReference
  2
_DOT
 10
-1128.680750120755
 20
2213.585720279992
 30
0.0
 41
9.999389648437498
 42
9.999389648437498
 43
9.999389648437498
  0
INSERT
  5
78F9
330
78F2
100
AcDbEntity
  8
Dim
 62
     0
370
    -2
100
AcDbBlockReference
  2
_DOT
 10
-1228.680750120755
 20
2213.585720279992
 30
0.0
 41
9.999389648437498
 42
9.999389648437498
 43
9.999389648437498
 50
180.0
  0
MTEXT
  5
78FA
330
78F2
100
AcDbEntity
  8
Dim
 62
     0
100
AcDbMText
 10
-1178.680750120755
 20
2235.806611708028
 30
0.0
 40
24.4326171875
 41
0.0
 46
0.0
 71
     5
 72
     1
  1
\A1;100
  7
ＭＳ ゴシック
 73
     1
 44
1.0
  0
POINT
  5
78FB
330
78F2
100
AcDbEntity
  8
Defpoints
 62
     0
100
AcDbPoint
 10
-1128.680750120755
 20
2119.86517955354
 30
0.0
  0
POINT
  5
78FC
330
78F2
100
AcDbEntity
  8
Defpoints
 62
     0
100
AcDbPoint
 10
-1228.680750120755
 20
2121.36517955354
 30
0.0
  0
POINT
  5
78FD
330
78F2
100
AcDbEntity
  8
Defpoints
 62
     0
100
AcDbPoint
 10
-1228.680750120755
 20
2213.585720279992
 30
0.0
  0
ENDBLK
  5
78F4
330
78F2
100
AcDbEntity
  8
0
100
AcDbBlockEnd
  0
BLOCK
  5
7915
330
7914
100
AcDbEntity
  8
0
100
AcDbBlockBegin
  2
*D12
 70
     1
 10
0.0
 20
0.0
 30
0.0
  3
*D12
  1

  0
LINE
  5
7917
330
7914
100
AcDbEntity
  8
Dim
 62
     0
370
    -2
100
AcDbLine
 10
-1503.680750120755
 20
2191.215179553531
 30
0.0
 11
-1503.680750120755
 21
2274.819256341575
 31
0.0
  0
LINE
  5
7918
330
7914
100
AcDbEntity
  8
Dim
 62
     0
370
    -2
100
AcDbLine
 10
-953.6807501207552
 20
2191.215179553531
 30
0.0
 11
-953.6807501207552
 21
2274.819256341575
 31
0.0
  0
LINE
  5
7919
330
7914
100
AcDbEntity
  8
Dim
 62
     0
370
    -2
100
AcDbLine
 10
-1493.681360472318
 20
2274.819256341575
 30
0.0
 11
-963.6801397691927
 21
2274.819256341575
 31
0.0
  0
INSERT
  5
791A
330
7914
100
AcDbEntity
  8
Dim
 62
     0
370
    -2
100
AcDbBlockReference
  2
_DOT
 10
-1503.680750120755
 20
2274.819256341575
 30
0.0
 41
9.999389648437498
 42
9.999389648437498
 43
9.999389648437498
 50
180.0
  0
INSERT
  5
791B
330
7914
100
AcDbEntity
  8
Dim
 62
     0
370
    -2
100
AcDbBlockReference
  2
_DOT
 10
-953.6807501207552
 20
2274.819256341575
 30
0.0
 41
9.999389648437498
 42
9.999389648437498
 43
9.999389648437498
  0
MTEXT
  5
791C
330
7914
100
AcDbEntity
  8
Dim
 62
     0
100
AcDbMText
 10
-1228.680750120755
 20
2297.04014776961
 30
0.0
 40
24.4326171875
 41
0.0
 46
0.0
 71
     5
 72
     1
  1
\A1;550
  7
ＭＳ ゴシック
 73
     1
 44
1.0
  0
POINT
  5
791D
330
7914
100
AcDbEntity
  8
Defpoints
 62
     0
100
AcDbPoint
 10
-1503.680750120755
 20
2166.215179553531
 30
0.0
  0
POINT
  5
791E
330
7914
100
AcDbEntity
  8
Defpoints
 62
     0
100
AcDbPoint
 10
-953.6807501207552
 20
2166.215179553531
 30
0.0
  0
POINT
  5
791F
330
7914
100
AcDbEntity
  8
Defpoints
 62
     0
100
AcDbPoint
 10
-953.6807501207552
 20
2274.819256341575
 30
0.0
  0
ENDBLK
  5
7916
330
7914
100
AcDbEntity
  8
0
100
AcDbBlockEnd
  0
BLOCK
  5
7924
330
7923
100
AcDbEntity
  8
0
100
AcDbBlockBegin
  2
*D13
 70
     1
 10
0.0
 20
0.0
 30
0.0
  3
*D13
  1

  0
LINE
  5
7926
330
7923
100
AcDbEntity
  8
Dim
 62
     0
370
    -2
100
AcDbLine
 10
-928.6807501207552
 20
2166.215179553531
 30
0.0
 11
-851.0078103459197
 21
2166.215179553531
 31
0.0
  0
LINE
  5
7927
330
7923
100
AcDbEntity
  8
Dim
 62
     0
370
    -2
100
AcDbLine
 10
-931.6789229671738
 20
1816.215179553531
 30
0.0
 11
-851.0078103459197
 21
1816.215179553531
 31
0.0
  0
LINE
  5
7928
330
7923
100
AcDbEntity
  8
Dim
 62
     0
370
    -2
100
AcDbLine
 10
-851.0078103459197
 20
2156.215789905094
 30
0.0
 11
-851.0078103459197
 21
1826.214569201969
 31
0.0
  0
INSERT
  5
7929
330
7923
100
AcDbEntity
  8
Dim
 62
     0
370
    -2
100
AcDbBlockReference
  2
_DOT
 10
-851.0078103459197
 20
2166.215179553531
 30
0.0
 41
9.999389648437498
 42
9.999389648437498
 43
9.999389648437498
 50
90.0
  0
INSERT
  5
792A
330
7923
100
AcDbEntity
  8
Dim
 62
     0
370
    -2
100
AcDbBlockReference
  2
_DOT
 10
-851.0078103459197
 20
1816.215179553531
 30
0.0
 41
9.999389648437498
 42
9.999389648437498
 43
9.999389648437498
 50
270.0
  0
MTEXT
  5
792B
330
7923
100
AcDbEntity
  8
Dim
 62
     0
100
AcDbMText
 10
-873.2287017739551
 20
1991.215179553531
 30
0.0
 40
24.4326171875
 41
0.0
 46
0.0
 71
     5
 72
     1
  1
\A1;350
  7
ＭＳ ゴシック
 11
0.0
 21
1.0
 31
0.0
 73
     1
 44
1.0
  0
POINT
  5
792C
330
7923
100
AcDbEntity
  8
Defpoints
 62
     0
100
AcDbPoint
 10
-953.6807501207552
 20
2166.215179553531
 30
0.0
  0
POINT
  5
792D
330
7923
100
AcDbEntity
  8
Defpoints
 62
     0
100
AcDbPoint
 10
-956.6789229671738
 20
1816.215179553531
 30
0.0
  0
POINT
  5
792E
330
7923
100
AcDbEntity
  8
Defpoints
 62
     0
100
AcDbPoint
 10
-851.0078103459197
 20
1816.215179553531
 30
0.0
  0
ENDBLK
  5
7925
330
7923
100
AcDbEntity
  8
0
100
AcDbBlockEnd
  0
BLOCK
  5
7931
330
7930
100
AcDbEntity
  8
0
100
AcDbBlockBegin
  2
*D14
 70
     1
 10
0.0
 20
0.0
 30
0.0
  3
*D14
  1

  0
LINE
  5
7933
330
7930
100
AcDbEntity
  8
Dim
 62
     0
370
    -2
100
AcDbLine
 10
-1493.680750120758
 20
1798.728214467044
 30
0.0
 11
-1493.680750120758
 21
1719.839767764392
 31
0.0
  0
LINE
  5
7934
330
7930
100
AcDbEntity
  8
Dim
 62
     0
370
    -2
100
AcDbLine
 10
-963.6807501207583
 20
1798.728214467044
 30
0.0
 11
-963.6807501207583
 21
1719.839767764392
 31
0.0
  0
LINE
  5
7935
330
7930
100
AcDbEntity
  8
Dim
 62
     0
370
    -2
100
AcDbLine
 10
-1483.681360472321
 20
1719.839767764392
 30
0.0
 11
-973.6801397691958
 21
1719.839767764392
 31
0.0
  0
INSERT
  5
7936
330
7930
100
AcDbEntity
  8
Dim
 62
     0
370
    -2
100
AcDbBlockReference
  2
_DOT
 10
-1493.680750120758
 20
1719.839767764392
 30
0.0
 41
9.999389648437498
 42
9.999389648437498
 43
9.999389648437498
 50
180.0
  0
INSERT
  5
7937
330
7930
100
AcDbEntity
  8
Dim
 62
     0
370
    -2
100
AcDbBlockReference
  2
_DOT
 10
-963.6807501207583
 20
1719.839767764392
 30
0.0
 41
9.999389648437498
 42
9.999389648437498
 43
9.999389648437498
  0
MTEXT
  5
7938
330
7930
100
AcDbEntity
  8
Dim
 62
     0
100
AcDbMText
 10
-1228.680750120758
 20
1742.060659192427
 30
0.0
 40
24.4326171875
 41
0.0
 46
0.0
 71
     5
 72
     1
  1
\A1;530
  7
ＭＳ ゴシック
 73
     1
 44
1.0
  0
POINT
  5
7939
330
7930
100
AcDbEntity
  8
Defpoints
 62
     0
100
AcDbPoint
 10
-1493.680750120758
 20
1823.728214467044
 30
0.0
  0
POINT
  5
793A
330
7930
100
AcDbEntity
  8
Defpoints
 62
     0
100
AcDbPoint
 10
-963.6807501207583
 20
1823.728214467044
 30
0.0
  0
POINT
  5
793B
330
7930
100
AcDbEntity
  8
Defpoints
 62
     0
100
AcDbPoint
 10
-963.6807501207583
 20
1719.839767764392
 30
0.0
  0
ENDBLK
  5
7932
330
7930
100
AcDbEntity
  8
0
100
AcDbBlockEnd
  0
BLOCK
  5
7942
330
7941
100
AcDbEntity
  8
0
100
AcDbBlockBegin
  2
*D15
 70
     1
 10
0.0
 20
0.0
 30
0.0
  3
*D15
  1

  0
LINE
  5
7944
330
7941
100
AcDbEntity
  8
Dim
 62
     0
370
    -2
100
AcDbLine
 10
-1516.959734484427
 20
2166.215179553531
 30
0.0
 11
-1575.553316968638
 21
2166.215179553531
 31
0.0
  0
LINE
  5
7945
330
7941
100
AcDbEntity
  8
Dim
 62
     0
370
    -2
100
AcDbLine
 10
-1516.959734484427
 20
2066.215179553531
 30
0.0
 11
-1575.553316968638
 21
2066.215179553531
 31
0.0
  0
LINE
  5
7946
330
7941
100
AcDbEntity
  8
Dim
 62
     0
370
    -2
100
AcDbLine
 10
-1575.553316968638
 20
2156.215789905094
 30
0.0
 11
-1575.553316968638
 21
2076.214569201969
 31
0.0
  0
INSERT
  5
7947
330
7941
100
AcDbEntity
  8
Dim
 62
     0
370
    -2
100
AcDbBlockReference
  2
_DOT
 10
-1575.553316968638
 20
2166.215179553531
 30
0.0
 41
9.999389648437498
 42
9.999389648437498
 43
9.999389648437498
 50
90.0
  0
INSERT
  5
7948
330
7941
100
AcDbEntity
  8
Dim
 62
     0
370
    -2
100
AcDbBlockReference
  2
_DOT
 10
-1575.553316968638
 20
2066.215179553531
 30
0.0
 41
9.999389648437498
 42
9.999389648437498
 43
9.999389648437498
 50
270.0
  0
MTEXT
  5
7949
330
7941
100
AcDbEntity
  8
Dim
 62
     0
100
AcDbMText
 10
-1597.774208396673
 20
2116.215179553531
 30
0.0
 40
24.4326171875
 41
0.0
 46
0.0
 71
     5
 72
     1
  1
\A1;100
  7
ＭＳ ゴシック
 11
0.0
 21
1.0
 31
0.0
 73
     1
 44
1.0
  0
POINT
  5
794A
330
7941
100
AcDbEntity
  8
Defpoints
 62
     0
100
AcDbPoint
 10
-1491.959734484427
 20
2166.215179553531
 30
0.0
  0
POINT
  5
794B
330
7941
100
AcDbEntity
  8
Defpoints
 62
     0
100
AcDbPoint
 10
-1491.959734484427
 20
2066.215179553531
 30
0.0
  0
POINT
  5
794C
330
7941
100
AcDbEntity
  8
Defpoints
 62
     0
100
AcDbPoint
 10
-1575.553316968638
 20
2066.215179553531
 30
0.0
  0
ENDBLK
  5
7943
330
7941
100
AcDbEntity
  8
0
100
AcDbBlockEnd
  0
BLOCK
  5
7951
330
7950
100
AcDbEntity
  8
0
100
AcDbBlockBegin
  2
*D16
 70
     1
 10
0.0
 20
0.0
 30
0.0
  3
*D16
  1

  0
LINE
  5
7953
330
7950
100
AcDbEntity
  8
Dim
 62
     0
370
    -2
100
AcDbLine
 10
-1516.959734484427
 20
2066.215179553531
 30
0.0
 11
-1575.553316968638
 21
2066.215179553531
 31
0.0
  0
LINE
  5
7954
330
7950
100
AcDbEntity
  8
Dim
 62
     0
370
    -2
100
AcDbLine
 10
-1522.165091971139
 20
1826.271635665733
 30
0.0
 11
-1575.553316968638
 21
1826.271635665733
 31
0.0
  0
LINE
  5
7955
330
7950
100
AcDbEntity
  8
Dim
 62
     0
370
    -2
100
AcDbLine
 10
-1575.553316968638
 20
2056.215789905094
 30
0.0
 11
-1575.553316968638
 21
1836.27102531417
 31
0.0
  0
INSERT
  5
7956
330
7950
100
AcDbEntity
  8
Dim
 62
     0
370
    -2
100
AcDbBlockReference
  2
_DOT
 10
-1575.553316968638
 20
2066.215179553531
 30
0.0
 41
9.999389648437498
 42
9.999389648437498
 43
9.999389648437498
 50
90.0
  0
INSERT
  5
7957
330
7950
100
AcDbEntity
  8
Dim
 62
     0
370
    -2
100
AcDbBlockReference
  2
_DOT
 10
-1575.553316968638
 20
1826.271635665733
 30
0.0
 41
9.999389648437498
 42
9.999389648437498
 43
9.999389648437498
 50
270.0
  0
MTEXT
  5
7958
330
7950
100
AcDbEntity
  8
Dim
 62
     0
100
AcDbMText
 10
-1597.774208396673
 20
1946.243407609632
 30
0.0
 40
24.4326171875
 41
0.0
 46
0.0
 71
     5
 72
     1
  1
\A1;240
  7
ＭＳ ゴシック
 11
0.0
 21
1.0
 31
0.0
 73
     1
 44
1.0
  0
POINT
  5
7959
330
7950
100
AcDbEntity
  8
Defpoints
 62
     0
100
AcDbPoint
 10
-1491.959734484427
 20
2066.215179553531
 30
0.0
  0
POINT
  5
795A
330
7950
100
AcDbEntity
  8
Defpoints
 62
     0
100
AcDbPoint
 10
-1497.165091971139
 20
1826.271635665733
 30
0.0
  0
POINT
  5
795B
330
7950
100
AcDbEntity
  8
Defpoints
 62
     0
100
AcDbPoint
 10
-1575.553316968638
 20
1826.271635665733
 30
0.0
  0
ENDBLK
  5
7952
330
7950
100
AcDbEntity
  8
0
100
AcDbBlockEnd
  0
BLOCK
  5
7961
330
7960
100
AcDbEntity
  8
0
100
AcDbBlockBegin
  2
*D17
 70
     1
 10
0.0
 20
0.0
 30
0.0
  3
*D17
  1

  0
LINE
  5
7963
330
7960
100
AcDbEntity
  8
Dim
 62
     0
370
    -2
100
AcDbLine
 10
-944.9852374374858
 20
1031.881344873168
 30
0.0
 11
-865.8462727717678
 21
1031.881344873168
 31
0.0
  0
LINE
  5
7964
330
7960
100
AcDbEntity
  8
Dim
 62
     0
370
    -2
100
AcDbLine
 10
-944.9852374374858
 20
911.881344873168
 30
0.0
 11
-865.8462727717678
 21
911.881344873168
 31
0.0
  0
LINE
  5
7965
330
7960
100
AcDbEntity
  8
Dim
 62
     0
370
    -2
100
AcDbLine
 10
-865.8462727717678
 20
1021.881955224731
 30
0.0
 11
-865.8462727717678
 21
921.8807345216055
 31
0.0
  0
INSERT
  5
7966
330
7960
100
AcDbEntity
  8
Dim
 62
     0
370
    -2
100
AcDbBlockReference
  2
_DOT
 10
-865.8462727717678
 20
1031.881344873168
 30
0.0
 41
9.999389648437498
 42
9.999389648437498
 43
9.999389648437498
 50
90.0
  0
INSERT
  5
7967
330
7960
100
AcDbEntity
  8
Dim
 62
     0
370
    -2
100
AcDbBlockReference
  2
_DOT
 10
-865.8462727717678
 20
911.881344873168
 30
0.0
 41
9.999389648437498
 42
9.999389648437498
 43
9.999389648437498
 50
270.0
  0
MTEXT
  5
7968
330
7960
100
AcDbEntity
  8
Dim
 62
     0
100
AcDbMText
 10
-888.0671641998033
 20
971.881344873168
 30
0.0
 40
24.4326171875
 41
0.0
 46
0.0
 71
     5
 72
     1
  1
\A1;120
  7
ＭＳ ゴシック
 11
0.0
 21
1.0
 31
0.0
 73
     1
 44
1.0
  0
POINT
  5
7969
330
7960
100
AcDbEntity
  8
Defpoints
 62
     0
100
AcDbPoint
 10
-969.9852374374858
 20
1031.881344873168
 30
0.0
  0
POINT
  5
796A
330
7960
100
AcDbEntity
  8
Defpoints
 62
     0
100
AcDbPoint
 10
-969.9852374374858
 20
911.881344873168
 30
0.0
  0
POINT
  5
796B
330
7960
100
AcDbEntity
  8
Defpoints
 62
     0
100
AcDbPoint
 10
-865.8462727717678
 20
911.881344873168
 30
0.0
  0
ENDBLK
  5
7962
330
7960
100
AcDbEntity
  8
0
100
AcDbBlockEnd
  0
BLOCK
  5
796E
330
796D
100
AcDbEntity
  8
0
100
AcDbBlockBegin
  2
*D18
 70
     1
 10
0.0
 20
0.0
 30
0.0
  3
*D18
  1

  0
LINE
  5
7970
330
796D
100
AcDbEntity
  8
Dim
 62
     0
370
    -2
100
AcDbLine
 10
-1528.048769154129
 20
1031.881344873168
 30
0.0
 11
-1587.033990661952
 21
1031.881344873168
 31
0.0
  0
LINE
  5
7971
330
796D
100
AcDbEntity
  8
Dim
 62
     0
370
    -2
100
AcDbLine
 10
-1528.048769154129
 20
986.881344873168
 30
0.0
 11
-1587.033990661952
 21
986.881344873168
 31
0.0
  0
LINE
  5
7972
330
796D
100
AcDbEntity
  8
Dim
 62
     0
370
    -2
100
AcDbLine
 10
-1587.033990661952
 20
1021.881955224731
 30
0.0
 11
-1587.033990661952
 21
996.8807345216055
 31
0.0
  0
INSERT
  5
7973
330
796D
100
AcDbEntity
  8
Dim
 62
     0
370
    -2
100
AcDbBlockReference
  2
_DOT
 10
-1587.033990661952
 20
1031.881344873168
 30
0.0
 41
9.999389648437498
 42
9.999389648437498
 43
9.999389648437498
 50
90.0
  0
INSERT
  5
7974
330
796D
100
AcDbEntity
  8
Dim
 62
     0
370
    -2
100
AcDbBlockReference
  2
_DOT
 10
-1587.033990661952
 20
986.881344873168
 30
0.0
 41
9.999389648437498
 42
9.999389648437498
 43
9.999389648437498
 50
270.0
  0
MTEXT
  5
7975
330
796D
100
AcDbEntity
  8
Dim
 62
     0
100
AcDbMText
 10
-1609.254882089988
 20
1009.381344873168
 30
0.0
 40
24.4326171875
 41
0.0
 46
0.0
 71
     5
 72
     1
  1
\A1;45
  7
ＭＳ ゴシック
 11
0.0
 21
1.0
 31
0.0
 73
     1
 44
1.0
  0
POINT
  5
7976
330
796D
100
AcDbEntity
  8
Defpoints
 62
     0
100
AcDbPoint
 10
-1503.048769154129
 20
1031.881344873168
 30
0.0
  0
POINT
  5
7977
330
796D
100
AcDbEntity
  8
Defpoints
 62
     0
100
AcDbPoint
 10
-1503.048769154129
 20
986.881344873168
 30
0.0
  0
POINT
  5
7978
330
796D
100
AcDbEntity
  8
Defpoints
 62
     0
100
AcDbPoint
 10
-1587.033990661952
 20
986.881344873168
 30
0.0
  0
ENDBLK
  5
796F
330
796D
100
AcDbEntity
  8
0
100
AcDbBlockEnd
  0
BLOCK
  5
7998
330
7997
100
AcDbEntity
  8
0
100
AcDbBlockBegin
  2
*D19
 70
     1
 10
0.0
 20
0.0
 30
0.0
  3
*D19
  1

  0
LINE
  5
799A
330
7997
100
AcDbEntity
  8
Dim
 62
     0
370
    -2
100
AcDbLine
 10
-1368.680817683178
 20
1041.814472169586
 30
0.0
 11
-1368.680817683178
 21
1129.932894565483
 31
0.0
  0
LINE
  5
799B
330
7997
100
AcDbEntity
  8
Dim
 62
     0
370
    -2
100
AcDbLine
 10
-1088.680682558319
 20
1041.814472169586
 30
0.0
 11
-1088.680682558319
 21
1129.932894565483
 31
0.0
  0
LINE
  5
799C
330
7997
100
AcDbEntity
  8
Dim
 62
     0
370
    -2
100
AcDbLine
 10
-1358.68142803474
 20
1129.932894565483
 30
0.0
 11
-1098.680072206756
 21
1129.932894565483
 31
0.0
  0
INSERT
  5
799D
330
7997
100
AcDbEntity
  8
Dim
 62
     0
370
    -2
100
AcDbBlockReference
  2
_DOT
 10
-1368.680817683178
 20
1129.932894565483
 30
0.0
 41
9.999389648437498
 42
9.999389648437498
 43
9.999389648437498
 50
180.0
  0
INSERT
  5
799E
330
7997
100
AcDbEntity
  8
Dim
 62
     0
370
    -2
100
AcDbBlockReference
  2
_DOT
 10
-1088.680682558319
 20
1129.932894565483
 30
0.0
 41
9.999389648437498
 42
9.999389648437498
 43
9.999389648437498
  0
MTEXT
  5
799F
330
7997
100
AcDbEntity
  8
Dim
 62
     0
100
AcDbMText
 10
-1228.680750120748
 20
1152.153785993518
 30
0.0
 40
24.4326171875
 41
0.0
 46
0.0
 71
     5
 72
     1
  1
\A1;280
  7
ＭＳ ゴシック
 73
     1
 44
1.0
  0
POINT
  5
79A0
330
7997
100
AcDbEntity
  8
Defpoints
 62
     0
100
AcDbPoint
 10
-1368.680817683178
 20
1016.814472169586
 30
0.0
  0
POINT
  5
79A1
330
7997
100
AcDbEntity
  8
Defpoints
 62
     0
100
AcDbPoint
 10
-1088.680682558319
 20
1016.814472169586
 30
0.0
  0
POINT
  5
79A2
330
7997
100
AcDbEntity
  8
Defpoints
 62
     0
100
AcDbPoint
 10
-1088.680682558319
 20
1129.932894565483
 30
0.0
  0
ENDBLK
  5
7999
330
7997
100
AcDbEntity
  8
0
100
AcDbBlockEnd
  0
BLOCK
  5
79A8
330
79A7
100
AcDbEntity
  8
0
100
AcDbBlockBegin
  2
*D20
 70
     1
 10
0.0
 20
0.0
 30
0.0
  3
*D20
  1

  0
LINE
  5
79AA
330
79A7
100
AcDbEntity
  8
Dim
 62
     0
370
    -2
100
AcDbLine
 10
-191.0247208093656
 20
897.4789331105869
 30
0.0
 11
-191.0247208093656
 21
836.9527911529585
 31
0.0
  0
LINE
  5
79AB
330
79A7
100
AcDbEntity
  8
Dim
 62
     0
370
    -2
100
AcDbLine
 10
-371.0247208093656
 20
897.4789331105868
 30
0.0
 11
-371.0247208093656
 21
836.9527911529585
 31
0.0
  0
LINE
  5
79AC
330
79A7
100
AcDbEntity
  8
Dim
 62
     0
370
    -2
100
AcDbLine
 10
-201.0241104578031
 20
836.9527911529585
 30
0.0
 11
-361.0253311609281
 21
836.9527911529585
 31
0.0
  0
INSERT
  5
79AD
330
79A7
100
AcDbEntity
  8
Dim
 62
     0
370
    -2
100
AcDbBlockReference
  2
_DOT
 10
-191.0247208093656
 20
836.9527911529585
 30
0.0
 41
9.999389648437498
 42
9.999389648437498
 43
9.999389648437498
  0
INSERT
  5
79AE
330
79A7
100
AcDbEntity
  8
Dim
 62
     0
370
    -2
100
AcDbBlockReference
  2
_DOT
 10
-371.0247208093656
 20
836.9527911529585
 30
0.0
 41
9.999389648437498
 42
9.999389648437498
 43
9.999389648437498
 50
180.0
  0
MTEXT
  5
79AF
330
79A7
100
AcDbEntity
  8
Dim
 62
     0
100
AcDbMText
 10
-281.0247208093656
 20
859.1736825809941
 30
0.0
 40
24.4326171875
 41
0.0
 46
0.0
 71
     5
 72
     1
  1
\A1;180
  7
ＭＳ ゴシック
 73
     1
 44
1.0
  0
POINT
  5
79B0
330
79A7
100
AcDbEntity
  8
Defpoints
 62
     0
100
AcDbPoint
 10
-191.0247208093656
 20
922.4789331105869
 30
0.0
  0
POINT
  5
79B1
330
79A7
100
AcDbEntity
  8
Defpoints
 62
     0
100
AcDbPoint
 10
-371.0247208093656
 20
922.4789331105868
 30
0.0
  0
POINT
  5
79B2
330
79A7
100
AcDbEntity
  8
Defpoints
 62
     0
100
AcDbPoint
 10
-371.0247208093656
 20
836.9527911529585
 30
0.0
  0
ENDBLK
  5
79A9
330
79A7
100
AcDbEntity
  8
0
100
AcDbBlockEnd
  0
BLOCK
  5
79BB
330
79BA
100
AcDbEntity
  8
0
100
AcDbBlockBegin
  2
*D21
 70
     1
 10
0.0
 20
0.0
 30
0.0
  3
*D21
  1

  0
LINE
  5
79BD
330
79BA
100
AcDbEntity
  8
Dim
 62
     0
370
    -2
100
AcDbLine
 10
-347.4889008342836
 20
1031.881344873169
 30
0.0
 11
-370.7526604658967
 21
1031.881344873169
 31
0.0
  0
LINE
  5
79BE
330
79BA
100
AcDbEntity
  8
Dim
 62
     0
370
    -2
100
AcDbLine
 10
-347.4889008342836
 20
941.881344873169
 30
0.0
 11
-370.7526604658967
 21
941.881344873169
 31
0.0
  0
LINE
  5
79BF
330
79BA
100
AcDbEntity
  8
Dim
 62
     0
370
    -2
100
AcDbLine
 10
-370.7526604658967
 20
1031.881344873169
 30
0.0
 11
-370.7526604658967
 21
1189.910257387726
 31
0.0
  0
LINE
  5
79C0
330
79BA
100
AcDbEntity
  8
Dim
 62
     0
370
    -2
100
AcDbLine
 10
-370.7526604658967
 20
1031.881344873169
 30
0.0
 11
-370.7526604658967
 21
941.881344873169
 31
0.0
  0
LINE
  5
79C1
330
79BA
100
AcDbEntity
  8
Dim
 62
     0
370
    -2
100
AcDbLine
 10
-370.7526604658967
 20
1041.880734521606
 30
0.0
 11
-370.7526604658967
 21
1051.880124170044
 31
0.0
  0
LINE
  5
79C2
330
79BA
100
AcDbEntity
  8
Dim
 62
     0
370
    -2
100
AcDbLine
 10
-370.7526604658967
 20
931.8819552247315
 30
0.0
 11
-370.7526604658967
 21
921.882565576294
 31
0.0
  0
INSERT
  5
79C3
330
79BA
100
AcDbEntity
  8
Dim
 62
     0
370
    -2
100
AcDbBlockReference
  2
_DOT
 10
-370.7526604658967
 20
1031.881344873169
 30
0.0
 41
9.999389648437498
 42
9.999389648437498
 43
9.999389648437498
 50
270.0
  0
INSERT
  5
79C4
330
79BA
100
AcDbEntity
  8
Dim
 62
     0
370
    -2
100
AcDbBlockReference
  2
_DOT
 10
-370.7526604658967
 20
941.881344873169
 30
0.0
 41
9.999389648437498
 42
9.999389648437498
 43
9.999389648437498
 50
90.0
  0
MTEXT
  5
79C5
330
79BA
100
AcDbEntity
  8
Dim
 62
     0
100
AcDbMText
 10
-395.0144407624141
 20
1120.895190778885
 30
0.0
 40
24.4326171875
 41
0.0
 46
0.0
 71
     5
 72
     1
  1
\A1;90(深さ)
  7
ＭＳ ゴシック
 11
0.0
 21
1.0
 31
0.0
 73
     1
 44
1.0
  0
POINT
  5
79C6
330
79BA
100
AcDbEntity
  8
Defpoints
 62
     0
100
AcDbPoint
 10
-372.4889008342836
 20
1031.881344873169
 30
0.0
  0
POINT
  5
79C7
330
79BA
100
AcDbEntity
  8
Defpoints
 62
     0
100
AcDbPoint
 10
-372.4889008342836
 20
941.881344873169
 30
0.0
  0
POINT
  5
79C8
330
79BA
100
AcDbEntity
  8
Defpoints
 62
     0
100
AcDbPoint
 10
-370.7526604658967
 20
941.881344873169
 30
0.0
  0
ENDBLK
  5
79BC
330
79BA
100
AcDbEntity
  8
0
100
AcDbBlockEnd
  0
BLOCK
  5
79CE
330
79CD
100
AcDbEntity
  8
0
100
AcDbBlockBegin
  2
*D22
 70
     1
 10
0.0
 20
0.0
 30
0.0
  3
*D22
  1

  0
LINE
  5
79D0
330
79CD
100
AcDbEntity
  8
Dim
 62
     0
370
    -2
100
AcDbLine
 10
-191.0247208093735
 20
1051.464129703937
 30
0.0
 11
-191.0247208093735
 21
1097.521241364427
 31
0.0
  0
LINE
  5
79D1
330
79CD
100
AcDbEntity
  8
Dim
 62
     0
370
    -2
100
AcDbLine
 10
-251.0247208093735
 20
1051.464129703937
 30
0.0
 11
-251.0247208093735
 21
1097.521241364427
 31
0.0
  0
LINE
  5
79D2
330
79CD
100
AcDbEntity
  8
Dim
 62
     0
370
    -2
100
AcDbLine
 10
-201.024110457811
 20
1097.521241364427
 30
0.0
 11
-241.025331160936
 21
1097.521241364427
 31
0.0
  0
INSERT
  5
79D3
330
79CD
100
AcDbEntity
  8
Dim
 62
     0
370
    -2
100
AcDbBlockReference
  2
_DOT
 10
-191.0247208093735
 20
1097.521241364427
 30
0.0
 41
9.999389648437498
 42
9.999389648437498
 43
9.999389648437498
  0
INSERT
  5
79D4
330
79CD
100
AcDbEntity
  8
Dim
 62
     0
370
    -2
100
AcDbBlockReference
  2
_DOT
 10
-251.0247208093735
 20
1097.521241364427
 30
0.0
 41
9.999389648437498
 42
9.999389648437498
 43
9.999389648437498
 50
180.0
  0
MTEXT
  5
79D5
330
79CD
100
AcDbEntity
  8
Dim
 62
     0
100
AcDbMText
 10
-221.0247208093735
 20
1119.737549958177
 30
0.0
 40
24.4326171875
 41
0.0
 46
0.0
 71
     5
 72
     1
  1
\A1;60
  7
ＭＳ ゴシック
 73
     1
 44
1.0
  0
POINT
  5
79D6
330
79CD
100
AcDbEntity
  8
Defpoints
 62
     0
100
AcDbPoint
 10
-191.0247208093735
 20
1026.464129703937
 30
0.0
  0
POINT
  5
79D7
330
79CD
100
AcDbEntity
  8
Defpoints
 62
     0
100
AcDbPoint
 10
-251.0247208093735
 20
1026.464129703937
 30
0.0
  0
POINT
  5
79D8
330
79CD
100
AcDbEntity
  8
Defpoints
 62
     0
100
AcDbPoint
 10
-251.0247208093735
 20
1097.521241364427
 30
0.0
  0
ENDBLK
  5
79CF
330
79CD
100
AcDbEntity
  8
0
100
AcDbBlockEnd
  0
BLOCK
  5
7F9C
330
7F9B
100
AcDbEntity
  8
0
100
AcDbBlockBegin
  2
*D23
 70
     1
 10
0.0
 20
0.0
 30
0.0
  3
*D23
  1

  0
LINE
  5
7F9E
330
7F9B
100
AcDbEntity
  8
Dim
 62
     0
370
    -2
100
AcDbLine
 10
812.8677238732887
 20
2166.215179553531
 30
0.0
 11
908.0617397695048
 21
2166.215179553531
 31
0.0
  0
LINE
  5
7F9F
330
7F9B
100
AcDbEntity
  8
Dim
 62
     0
370
    -2
100
AcDbLine
 10
812.8677238732887
 20
1820.796827829451
 30
0.0
 11
908.0617397695048
 21
1820.796827829451
 31
0.0
  0
LINE
  5
7FA0
330
7F9B
100
AcDbEntity
  8
Dim
 62
     0
370
    -2
100
AcDbLine
 10
908.0617397695048
 20
2156.215789905094
 30
0.0
 11
908.0617397695048
 21
1830.796217477889
 31
0.0
  0
INSERT
  5
7FA1
330
7F9B
100
AcDbEntity
  8
Dim
 62
     0
370
    -2
100
AcDbBlockReference
  2
_DOT
 10
908.0617397695048
 20
2166.215179553531
 30
0.0
 41
9.999389648437498
 42
9.999389648437498
 43
9.999389648437498
 50
90.0
  0
INSERT
  5
7FA2
330
7F9B
100
AcDbEntity
  8
Dim
 62
     0
370
    -2
100
AcDbBlockReference
  2
_DOT
 10
908.0617397695048
 20
1820.796827829451
 30
0.0
 41
9.999389648437498
 42
9.999389648437498
 43
9.999389648437498
 50
270.0
  0
MTEXT
  5
7FA3
330
7F9B
100
AcDbEntity
  8
Dim
 62
     0
100
AcDbMText
 10
885.8408483414694
 20
1993.506003691491
 30
0.0
 40
24.4326171875
 41
0.0
 46
0.0
 71
     5
 72
     1
  1
\A1;345
  7
ＭＳ ゴシック
 11
0.0
 21
1.0
 31
0.0
 73
     1
 44
1.0
  0
POINT
  5
7FA4
330
7F9B
100
AcDbEntity
  8
Defpoints
 62
     0
100
AcDbPoint
 10
787.8677238732887
 20
2166.215179553531
 30
0.0
  0
POINT
  5
7FA5
330
7F9B
100
AcDbEntity
  8
Defpoints
 62
     0
100
AcDbPoint
 10
787.8677238732887
 20
1820.796827829451
 30
0.0
  0
POINT
  5
7FA6
330
7F9B
100
AcDbEntity
  8
Defpoints
 62
     0
100
AcDbPoint
 10
908.0617397695048
 20
1820.796827829451
 30
0.0
  0
ENDBLK
  5
7F9D
330
7F9B
100
AcDbEntity
  8
0
100
AcDbBlockEnd
  0
BLOCK
  5
7FAB
330
7FAA
100
AcDbEntity
  8
0
100
AcDbBlockBegin
  2
*D24
 70
     1
 10
0.0
 20
0.0
 30
0.0
  3
*D24
  1

  0
LINE
  5
7FAD
330
7FAA
100
AcDbEntity
  8
Dim
 62
     0
370
    -2
100
AcDbLine
 10
797.4085994266752
 20
2180.171157766293
 30
0.0
 11
797.4085994266752
 21
2248.253741505468
 31
0.0
  0
LINE
  5
7FAE
330
7FAA
100
AcDbEntity
  8
Dim
 62
     0
370
    -2
100
AcDbLine
 10
347.4085994266752
 20
2180.171157766293
 30
0.0
 11
347.4085994266752
 21
2248.253741505468
 31
0.0
  0
LINE
  5
7FAF
330
7FAA
100
AcDbEntity
  8
Dim
 62
     0
370
    -2
100
AcDbLine
 10
787.4092097782377
 20
2248.253741505468
 30
0.0
 11
357.4079890751127
 21
2248.253741505468
 31
0.0
  0
INSERT
  5
7FB0
330
7FAA
100
AcDbEntity
  8
Dim
 62
     0
370
    -2
100
AcDbBlockReference
  2
_DOT
 10
797.4085994266752
 20
2248.253741505468
 30
0.0
 41
9.999389648437498
 42
9.999389648437498
 43
9.999389648437498
  0
INSERT
  5
7FB1
330
7FAA
100
AcDbEntity
  8
Dim
 62
     0
370
    -2
100
AcDbBlockReference
  2
_DOT
 10
347.4085994266752
 20
2248.253741505468
 30
0.0
 41
9.999389648437498
 42
9.999389648437498
 43
9.999389648437498
 50
180.0
  0
MTEXT
  5
7FB2
330
7FAA
100
AcDbEntity
  8
Dim
 62
     0
100
AcDbMText
 10
572.4085994266752
 20
2270.474632933503
 30
0.0
 40
24.4326171875
 41
0.0
 46
0.0
 71
     5
 72
     1
  1
\A1;450
  7
ＭＳ ゴシック
 73
     1
 44
1.0
  0
POINT
  5
7FB3
330
7FAA
100
AcDbEntity
  8
Defpoints
 62
     0
100
AcDbPoint
 10
797.4085994266752
 20
2155.171157766293
 30
0.0
  0
POINT
  5
7FB4
330
7FAA
100
AcDbEntity
  8
Defpoints
 62
     0
100
AcDbPoint
 10
347.4085994266752
 20
2155.171157766293
 30
0.0
  0
POINT
  5
7FB5
330
7FAA
100
AcDbEntity
  8
Defpoints
 62
     0
100
AcDbPoint
 10
347.4085994266752
 20
2248.253741505468
 30
0.0
  0
ENDBLK
  5
7FAC
330
7FAA
100
AcDbEntity
  8
0
100
AcDbBlockEnd
  0
BLOCK
  5
7FB8
330
7FB7
100
AcDbEntity
  8
0
100
AcDbBlockBegin
  2
*D25
 70
     1
 10
0.0
 20
0.0
 30
0.0
  3
*D25
  1

  0
LINE
  5
7FBA
330
7FB7
100
AcDbEntity
  8
Dim
 62
     0
370
    -2
100
AcDbLine
 10
357.4085994266751
 20
1824.463010201853
 30
0.0
 11
357.4085994266751
 21
1732.289298266777
 31
0.0
  0
LINE
  5
7FBB
330
7FB7
100
AcDbEntity
  8
Dim
 62
     0
370
    -2
100
AcDbLine
 10
787.4085994266751
 20
1824.463010201853
 30
0.0
 11
787.4085994266751
 21
1732.289298266777
 31
0.0
  0
LINE
  5
7FBC
330
7FB7
100
AcDbEntity
  8
Dim
 62
     0
370
    -2
100
AcDbLine
 10
367.4079890751126
 20
1732.289298266777
 30
0.0
 11
777.4092097782376
 21
1732.289298266777
 31
0.0
  0
INSERT
  5
7FBD
330
7FB7
100
AcDbEntity
  8
Dim
 62
     0
370
    -2
100
AcDbBlockReference
  2
_DOT
 10
357.4085994266751
 20
1732.289298266777
 30
0.0
 41
9.999389648437498
 42
9.999389648437498
 43
9.999389648437498
 50
180.0
  0
INSERT
  5
7FBE
330
7FB7
100
AcDbEntity
  8
Dim
 62
     0
370
    -2
100
AcDbBlockReference
  2
_DOT
 10
787.4085994266751
 20
1732.289298266777
 30
0.0
 41
9.999389648437498
 42
9.999389648437498
 43
9.999389648437498
  0
MTEXT
  5
7FBF
330
7FB7
100
AcDbEntity
  8
Dim
 62
     0
100
AcDbMText
 10
572.4085994266751
 20
1754.510189694812
 30
0.0
 40
24.4326171875
 41
0.0
 46
0.0
 71
     5
 72
     1
  1
\A1;430
  7
ＭＳ ゴシック
 73
     1
 44
1.0
  0
POINT
  5
7FC0
330
7FB7
100
AcDbEntity
  8
Defpoints
 62
     0
100
AcDbPoint
 10
357.4085994266751
 20
1849.463010201853
 30
0.0
  0
POINT
  5
7FC1
330
7FB7
100
AcDbEntity
  8
Defpoints
 62
     0
100
AcDbPoint
 10
787.4085994266751
 20
1849.463010201853
 30
0.0
  0
POINT
  5
7FC2
330
7FB7
100
AcDbEntity
  8
Defpoints
 62
     0
100
AcDbPoint
 10
787.4085994266751
 20
1732.289298266777
 30
0.0
  0
ENDBLK
  5
7FB9
330
7FB7
100
AcDbEntity
  8
0
100
AcDbBlockEnd
  0
BLOCK
  5
7FC9
330
7FC8
100
AcDbEntity
  8
0
100
AcDbBlockBegin
  2
*D26
 70
     1
 10
0.0
 20
0.0
 30
0.0
  3
*D26
  1

  0
LINE
  5
7FCB
330
7FC8
100
AcDbEntity
  8
Dim
 62
     0
370
    -2
100
AcDbLine
 10
335.4975667801749
 20
2166.215179553531
 30
0.0
 11
253.1814811585535
 21
2166.215179553531
 31
0.0
  0
LINE
  5
7FCC
330
7FC8
100
AcDbEntity
  8
Dim
 62
     0
370
    -2
100
AcDbLine
 10
335.4975667801748
 20
1816.215179553531
 30
0.0
 11
253.1814811585534
 21
1816.215179553531
 31
0.0
  0
LINE
  5
7FCD
330
7FC8
100
AcDbEntity
  8
Dim
 62
     0
370
    -2
100
AcDbLine
 10
253.1814811585535
 20
2156.215789905094
 30
0.0
 11
253.1814811585534
 21
1826.214569201969
 31
0.0
  0
INSERT
  5
7FCE
330
7FC8
100
AcDbEntity
  8
Dim
 62
     0
370
    -2
100
AcDbBlockReference
  2
_DOT
 10
253.1814811585535
 20
2166.215179553531
 30
0.0
 41
9.999389648437498
 42
9.999389648437498
 43
9.999389648437498
 50
90.0
  0
INSERT
  5
7FCF
330
7FC8
100
AcDbEntity
  8
Dim
 62
     0
370
    -2
100
AcDbBlockReference
  2
_DOT
 10
253.1814811585534
 20
1816.215179553531
 30
0.0
 41
9.999389648437498
 42
9.999389648437498
 43
9.999389648437498
 50
270.0
  0
MTEXT
  5
7FD0
330
7FC8
100
AcDbEntity
  8
Dim
 62
     0
100
AcDbMText
 10
230.960589730518
 20
1991.215179553531
 30
0.0
 40
24.4326171875
 41
0.0
 46
0.0
 71
     5
 72
     1
  1
\A1;350
  7
ＭＳ ゴシック
 11
8.120488408686859E-17
 21
1.0
 31
0.0
 73
     1
 44
1.0
  0
POINT
  5
7FD1
330
7FC8
100
AcDbEntity
  8
Defpoints
 62
     0
100
AcDbPoint
 10
360.4975667801749
 20
2166.215179553531
 30
0.0
  0
POINT
  5
7FD2
330
7FC8
100
AcDbEntity
  8
Defpoints
 62
     0
100
AcDbPoint
 10
360.4975667801748
 20
1816.215179553531
 30
0.0
  0
POINT
  5
7FD3
330
7FC8
100
AcDbEntity
  8
Defpoints
 62
     0
100
AcDbPoint
 10
253.1814811585534
 20
1816.215179553531
 30
0.0
  0
ENDBLK
  5
7FCA
330
7FC8
100
AcDbEntity
  8
0
100
AcDbBlockEnd
  0
BLOCK
  5
7FE7
330
7FE6
100
AcDbEntity
  8
0
100
AcDbBlockBegin
  2
*D27
 70
     1
 10
0.0
 20
0.0
 30
0.0
  3
*D27
  1

  0
LINE
  5
7FE9
330
7FE6
100
AcDbEntity
  8
Dim
 62
     0
370
    -2
100
AcDbLine
 10
326.1338017008395
 20
1031.881344873168
 30
0.0
 11
267.148580193016
 21
1031.881344873168
 31
0.0
  0
LINE
  5
7FEA
330
7FE6
100
AcDbEntity
  8
Dim
 62
     0
370
    -2
100
AcDbLine
 10
326.1338017008395
 20
986.8813448731678
 30
0.0
 11
267.148580193016
 21
986.8813448731678
 31
0.0
  0
LINE
  5
7FEB
330
7FE6
100
AcDbEntity
  8
Dim
 62
     0
370
    -2
100
AcDbLine
 10
267.148580193016
 20
1021.88195522473
 30
0.0
 11
267.148580193016
 21
996.8807345216053
 31
0.0
  0
INSERT
  5
7FEC
330
7FE6
100
AcDbEntity
  8
Dim
 62
     0
370
    -2
100
AcDbBlockReference
  2
_DOT
 10
267.148580193016
 20
1031.881344873168
 30
0.0
 41
9.999389648437498
 42
9.999389648437498
 43
9.999389648437498
 50
90.0
  0
INSERT
  5
7FED
330
7FE6
100
AcDbEntity
  8
Dim
 62
     0
370
    -2
100
AcDbBlockReference
  2
_DOT
 10
267.148580193016
 20
986.8813448731678
 30
0.0
 41
9.999389648437498
 42
9.999389648437498
 43
9.999389648437498
 50
270.0
  0
MTEXT
  5
7FEE
330
7FE6
100
AcDbEntity
  8
Dim
 62
     0
100
AcDbMText
 10
244.9276887649804
 20
1009.381344873168
 30
0.0
 40
24.4326171875
 41
0.0
 46
0.0
 71
     5
 72
     1
  1
\A1;45
  7
ＭＳ ゴシック
 11
0.0
 21
1.0
 31
0.0
 73
     1
 44
1.0
  0
POINT
  5
7FEF
330
7FE6
100
AcDbEntity
  8
Defpoints
 62
     0
100
AcDbPoint
 10
351.1338017008395
 20
1031.881344873168
 30
0.0
  0
POINT
  5
7FF0
330
7FE6
100
AcDbEntity
  8
Defpoints
 62
     0
100
AcDbPoint
 10
351.1338017008395
 20
986.8813448731678
 30
0.0
  0
POINT
  5
7FF1
330
7FE6
100
AcDbEntity
  8
Defpoints
 62
     0
100
AcDbPoint
 10
267.148580193016
 20
986.8813448731678
 30
0.0
  0
ENDBLK
  5
7FE8
330
7FE6
100
AcDbEntity
  8
0
100
AcDbBlockEnd
  0
BLOCK
  5
7FF3
330
7FF2
100
AcDbEntity
  8
0
100
AcDbBlockBegin
  2
*D28
 70
     1
 10
0.0
 20
0.0
 30
0.0
  3
*D28
  1

  0
LINE
  5
7FF5
330
7FF2
100
AcDbEntity
  8
Dim
 62
     0
370
    -2
100
AcDbLine
 10
472.4085318642515
 20
1041.814472169586
 30
0.0
 11
472.4085318642515
 21
1129.932894565483
 31
0.0
  0
LINE
  5
7FF6
330
7FF2
100
AcDbEntity
  8
Dim
 62
     0
370
    -2
100
AcDbLine
 10
672.4086669891105
 20
1041.814472169586
 30
0.0
 11
672.4086669891105
 21
1129.932894565483
 31
0.0
  0
LINE
  5
7FF7
330
7FF2
100
AcDbEntity
  8
Dim
 62
     0
370
    -2
100
AcDbLine
 10
482.407921512689
 20
1129.932894565483
 30
0.0
 11
662.409277340673
 21
1129.932894565483
 31
0.0
  0
INSERT
  5
7FF8
330
7FF2
100
AcDbEntity
  8
Dim
 62
     0
370
    -2
100
AcDbBlockReference
  2
_DOT
 10
472.4085318642515
 20
1129.932894565483
 30
0.0
 41
9.999389648437498
 42
9.999389648437498
 43
9.999389648437498
 50
180.0
  0
INSERT
  5
7FF9
330
7FF2
100
AcDbEntity
  8
Dim
 62
     0
370
    -2
100
AcDbBlockReference
  2
_DOT
 10
672.4086669891105
 20
1129.932894565483
 30
0.0
 41
9.999389648437498
 42
9.999389648437498
 43
9.999389648437498
  0
MTEXT
  5
7FFA
330
7FF2
100
AcDbEntity
  8
Dim
 62
     0
100
AcDbMText
 10
572.408599426681
 20
1152.153785993518
 30
0.0
 40
24.4326171875
 41
0.0
 46
0.0
 71
     5
 72
     1
  1
\A1;200
  7
ＭＳ ゴシック
 73
     1
 44
1.0
  0
POINT
  5
7FFB
330
7FF2
100
AcDbEntity
  8
Defpoints
 62
     0
100
AcDbPoint
 10
472.4085318642515
 20
1016.814472169586
 30
0.0
  0
POINT
  5
7FFC
330
7FF2
100
AcDbEntity
  8
Defpoints
 62
     0
100
AcDbPoint
 10
672.4086669891105
 20
1016.814472169586
 30
0.0
  0
POINT
  5
7FFD
330
7FF2
100
AcDbEntity
  8
Defpoints
 62
     0
100
AcDbPoint
 10
672.4086669891105
 20
1129.932894565483
 30
0.0
  0
ENDBLK
  5
7FF4
330
7FF2
100
AcDbEntity
  8
0
100
AcDbBlockEnd
  0
BLOCK
  5
801F
330
801E
100
AcDbEntity
  8
0
100
AcDbBlockBegin
  2
*D29
 70
     1
 10
0.0
 20
0.0
 30
0.0
  3
*D29
  1

  0
LINE
  5
8021
330
801E
100
AcDbEntity
  8
Dim
 62
     0
370
    -2
100
AcDbLine
 10
813.2997679356625
 20
2166.215179553531
 30
0.0
 11
913.012355858052
 21
2166.215179553531
 31
0.0
  0
LINE
  5
8022
330
801E
100
AcDbEntity
  8
Dim
 62
     0
370
    -2
100
AcDbLine
 10
813.2997679356625
 20
1816.215179553531
 30
0.0
 11
913.012355858052
 21
1816.215179553531
 31
0.0
  0
LINE
  5
8023
330
801E
100
AcDbEntity
  8
Dim
 62
     0
370
    -2
100
AcDbLine
 10
913.012355858052
 20
2156.215789905094
 30
0.0
 11
913.012355858052
 21
1826.214569201969
 31
0.0
  0
INSERT
  5
8024
330
801E
100
AcDbEntity
  8
Dim
 62
     0
370
    -2
100
AcDbBlockReference
  2
_DOT
 10
913.012355858052
 20
2166.215179553531
 30
0.0
 41
9.999389648437498
 42
9.999389648437498
 43
9.999389648437498
 50
90.0
  0
INSERT
  5
8025
330
801E
100
AcDbEntity
  8
Dim
 62
     0
370
    -2
100
AcDbBlockReference
  2
_DOT
 10
913.012355858052
 20
1816.215179553531
 30
0.0
 41
9.999389648437498
 42
9.999389648437498
 43
9.999389648437498
 50
270.0
  0
MTEXT
  5
8026
330
801E
100
AcDbEntity
  8
Dim
 62
     0
100
AcDbMText
 10
890.7914644300166
 20
1991.215179553531
 30
0.0
 40
24.4326171875
 41
0.0
 46
0.0
 71
     5
 72
     1
  1
\A1;350
  7
ＭＳ ゴシック
 11
0.0
 21
1.0
 31
0.0
 73
     1
 44
1.0
  0
POINT
  5
8027
330
801E
100
AcDbEntity
  8
Defpoints
 62
     0
100
AcDbPoint
 10
788.2997679356625
 20
2166.215179553531
 30
0.0
  0
POINT
  5
8028
330
801E
100
AcDbEntity
  8
Defpoints
 62
     0
100
AcDbPoint
 10
788.2997679356625
 20
1816.215179553531
 30
0.0
  0
POINT
  5
8029
330
801E
100
AcDbEntity
  8
Defpoints
 62
     0
100
AcDbPoint
 10
913.012355858052
 20
1816.215179553531
 30
0.0
  0
ENDBLK
  5
8020
330
801E
100
AcDbEntity
  8
0
100
AcDbBlockEnd
  0
BLOCK
  5
802C
330
802B
100
AcDbEntity
  8
0
100
AcDbBlockBegin
  2
*D30
 70
     1
 10
0.0
 20
0.0
 30
0.0
  3
*D30
  1

  0
LINE
  5
802E
330
802B
100
AcDbEntity
  8
Dim
 62
     0
370
    -2
100
AcDbLine
 10
331.3242822334724
 20
2166.215179553531
 30
0.0
 11
257.8194120628893
 21
2166.215179553531
 31
0.0
  0
LINE
  5
802F
330
802B
100
AcDbEntity
  8
Dim
 62
     0
370
    -2
100
AcDbLine
 10
331.3242822334724
 20
2066.215179553531
 30
0.0
 11
257.8194120628893
 21
2066.215179553531
 31
0.0
  0
LINE
  5
8030
330
802B
100
AcDbEntity
  8
Dim
 62
     0
370
    -2
100
AcDbLine
 10
257.8194120628893
 20
2156.215789905094
 30
0.0
 11
257.8194120628893
 21
2076.214569201969
 31
0.0
  0
INSERT
  5
8031
330
802B
100
AcDbEntity
  8
Dim
 62
     0
370
    -2
100
AcDbBlockReference
  2
_DOT
 10
257.8194120628893
 20
2166.215179553531
 30
0.0
 41
9.999389648437498
 42
9.999389648437498
 43
9.999389648437498
 50
90.0
  0
INSERT
  5
8032
330
802B
100
AcDbEntity
  8
Dim
 62
     0
370
    -2
100
AcDbBlockReference
  2
_DOT
 10
257.8194120628893
 20
2066.215179553531
 30
0.0
 41
9.999389648437498
 42
9.999389648437498
 43
9.999389648437498
 50
270.0
  0
MTEXT
  5
8033
330
802B
100
AcDbEntity
  8
Dim
 62
     0
100
AcDbMText
 10
235.5985206348539
 20
2116.215179553531
 30
0.0
 40
24.4326171875
 41
0.0
 46
0.0
 71
     5
 72
     1
  1
\A1;100
  7
ＭＳ ゴシック
 11
0.0
 21
1.0
 31
0.0
 73
     1
 44
1.0
  0
POINT
  5
8034
330
802B
100
AcDbEntity
  8
Defpoints
 62
     0
100
AcDbPoint
 10
356.3242822334724
 20
2166.215179553531
 30
0.0
  0
POINT
  5
8035
330
802B
100
AcDbEntity
  8
Defpoints
 62
     0
100
AcDbPoint
 10
356.3242822334724
 20
2066.215179553531
 30
0.0
  0
POINT
  5
8036
330
802B
100
AcDbEntity
  8
Defpoints
 62
     0
100
AcDbPoint
 10
257.8194120628893
 20
2066.215179553531
 30
0.0
  0
ENDBLK
  5
802D
330
802B
100
AcDbEntity
  8
0
100
AcDbBlockEnd
  0
BLOCK
  5
803B
330
803A
100
AcDbEntity
  8
0
100
AcDbBlockBegin
  2
*D31
 70
     1
 10
0.0
 20
0.0
 30
0.0
  3
*D31
  1

  0
LINE
  5
803D
330
803A
100
AcDbEntity
  8
Dim
 62
     0
370
    -2
100
AcDbLine
 10
331.3242822334724
 20
2066.215179553531
 30
0.0
 11
257.8194120628893
 21
2066.215179553531
 31
0.0
  0
LINE
  5
803E
330
803A
100
AcDbEntity
  8
Dim
 62
     0
370
    -2
100
AcDbLine
 10
328.5307605915953
 20
1826.231437944154
 30
0.0
 11
257.8194120628893
 21
1826.231437944154
 31
0.0
  0
LINE
  5
803F
330
803A
100
AcDbEntity
  8
Dim
 62
     0
370
    -2
100
AcDbLine
 10
257.8194120628893
 20
2056.215789905094
 30
0.0
 11
257.8194120628893
 21
1836.230827592591
 31
0.0
  0
INSERT
  5
8040
330
803A
100
AcDbEntity
  8
Dim
 62
     0
370
    -2
100
AcDbBlockReference
  2
_DOT
 10
257.8194120628893
 20
2066.215179553531
 30
0.0
 41
9.999389648437498
 42
9.999389648437498
 43
9.999389648437498
 50
90.0
  0
INSERT
  5
8041
330
803A
100
AcDbEntity
  8
Dim
 62
     0
370
    -2
100
AcDbBlockReference
  2
_DOT
 10
257.8194120628893
 20
1826.231437944154
 30
0.0
 41
9.999389648437498
 42
9.999389648437498
 43
9.999389648437498
 50
270.0
  0
MTEXT
  5
8042
330
803A
100
AcDbEntity
  8
Dim
 62
     0
100
AcDbMText
 10
235.5985206348539
 20
1946.223308748842
 30
0.0
 40
24.4326171875
 41
0.0
 46
0.0
 71
     5
 72
     1
  1
\A1;240
  7
ＭＳ ゴシック
 11
0.0
 21
1.0
 31
0.0
 73
     1
 44
1.0
  0
POINT
  5
8043
330
803A
100
AcDbEntity
  8
Defpoints
 62
     0
100
AcDbPoint
 10
356.3242822334724
 20
2066.215179553531
 30
0.0
  0
POINT
  5
8044
330
803A
100
AcDbEntity
  8
Defpoints
 62
     0
100
AcDbPoint
 10
353.5307605915953
 20
1826.231437944154
 30
0.0
  0
POINT
  5
8045
330
803A
100
AcDbEntity
  8
Defpoints
 62
     0
100
AcDbPoint
 10
257.8194120628893
 20
1826.231437944154
 30
0.0
  0
ENDBLK
  5
803C
330
803A
100
AcDbEntity
  8
0
100
AcDbBlockEnd
  0
BLOCK
  5
804B
330
804A
100
AcDbEntity
  8
0
100
AcDbBlockBegin
  2
*D32
 70
     1
 10
0.0
 20
0.0
 30
0.0
  3
*D32
  1

  0
LINE
  5
804D
330
804A
100
AcDbEntity
  8
Dim
 62
     0
370
    -2
100
AcDbLine
 10
1545.135167340655
 20
1032.013151838547
 30
0.0
 11
1521.871407709042
 21
1032.013151838547
 31
0.0
  0
LINE
  5
804E
330
804A
100
AcDbEntity
  8
Dim
 62
     0
370
    -2
100
AcDbLine
 10
1545.135167340655
 20
942.0131518385472
 30
0.0
 11
1521.871407709042
 21
942.0131518385472
 31
0.0
  0
LINE
  5
804F
330
804A
100
AcDbEntity
  8
Dim
 62
     0
370
    -2
100
AcDbLine
 10
1521.871407709042
 20
1032.013151838547
 30
0.0
 11
1521.871407709042
 21
1190.042064353104
 31
0.0
  0
LINE
  5
8050
330
804A
100
AcDbEntity
  8
Dim
 62
     0
370
    -2
100
AcDbLine
 10
1521.871407709042
 20
1032.013151838547
 30
0.0
 11
1521.871407709042
 21
942.0131518385472
 31
0.0
  0
LINE
  5
8051
330
804A
100
AcDbEntity
  8
Dim
 62
     0
370
    -2
100
AcDbLine
 10
1521.871407709042
 20
1042.012541486984
 30
0.0
 11
1521.871407709042
 21
1052.011931135422
 31
0.0
  0
LINE
  5
8052
330
804A
100
AcDbEntity
  8
Dim
 62
     0
370
    -2
100
AcDbLine
 10
1521.871407709042
 20
932.0137621901097
 30
0.0
 11
1521.871407709042
 21
922.0143725416722
 31
0.0
  0
INSERT
  5
8053
330
804A
100
AcDbEntity
  8
Dim
 62
     0
370
    -2
100
AcDbBlockReference
  2
_DOT
 10
1521.871407709042
 20
1032.013151838547
 30
0.0
 41
9.999389648437498
 42
9.999389648437498
 43
9.999389648437498
 50
270.0
  0
INSERT
  5
8054
330
804A
100
AcDbEntity
  8
Dim
 62
     0
370
    -2
100
AcDbBlockReference
  2
_DOT
 10
1521.871407709042
 20
942.0131518385472
 30
0.0
 41
9.999389648437498
 42
9.999389648437498
 43
9.999389648437498
 50
90.0
  0
MTEXT
  5
8055
330
804A
100
AcDbEntity
  8
Dim
 62
     0
100
AcDbMText
 10
1497.609627412524
 20
1121.026997744263
 30
0.0
 40
24.4326171875
 41
0.0
 46
0.0
 71
     5
 72
     1
  1
\A1;90(深さ)
  7
ＭＳ ゴシック
 11
0.0
 21
1.0
 31
0.0
 73
     1
 44
1.0
  0
POINT
  5
8056
330
804A
100
AcDbEntity
  8
Defpoints
 62
     0
100
AcDbPoint
 10
1520.135167340655
 20
1032.013151838547
 30
0.0
  0
POINT
  5
8057
330
804A
100
AcDbEntity
  8
Defpoints
 62
     0
100
AcDbPoint
 10
1520.135167340655
 20
942.0131518385472
 30
0.0
  0
POINT
  5
8058
330
804A
100
AcDbEntity
  8
Defpoints
 62
     0
100
AcDbPoint
 10
1521.871407709042
 20
942.0131518385472
 30
0.0
  0
ENDBLK
  5
804C
330
804A
100
AcDbEntity
  8
0
100
AcDbBlockEnd
  0
BLOCK
  5
805B
330
805A
100
AcDbEntity
  8
0
100
AcDbBlockBegin
  2
*D33
 70
     1
 10
0.0
 20
0.0
 30
0.0
  3
*D33
  1

  0
LINE
  5
805D
330
805A
100
AcDbEntity
  8
Dim
 62
     0
370
    -2
100
AcDbLine
 10
816.7231739422632
 20
1031.881344873168
 30
0.0
 11
913.0123558580519
 21
1031.881344873168
 31
0.0
  0
LINE
  5
805E
330
805A
100
AcDbEntity
  8
Dim
 62
     0
370
    -2
100
AcDbLine
 10
816.7231739422633
 20
911.8813448731678
 30
0.0
 11
913.0123558580519
 21
911.8813448731678
 31
0.0
  0
LINE
  5
805F
330
805A
100
AcDbEntity
  8
Dim
 62
     0
370
    -2
100
AcDbLine
 10
913.0123558580519
 20
1021.88195522473
 30
0.0
 11
913.0123558580519
 21
921.8807345216053
 31
0.0
  0
INSERT
  5
8060
330
805A
100
AcDbEntity
  8
Dim
 62
     0
370
    -2
100
AcDbBlockReference
  2
_DOT
 10
913.0123558580519
 20
1031.881344873168
 30
0.0
 41
9.999389648437498
 42
9.999389648437498
 43
9.999389648437498
 50
90.0
  0
INSERT
  5
8061
330
805A
100
AcDbEntity
  8
Dim
 62
     0
370
    -2
100
AcDbBlockReference
  2
_DOT
 10
913.0123558580519
 20
911.8813448731678
 30
0.0
 41
9.999389648437498
 42
9.999389648437498
 43
9.999389648437498
 50
270.0
  0
MTEXT
  5
8062
330
805A
100
AcDbEntity
  8
Dim
 62
     0
100
AcDbMText
 10
890.7914644300164
 20
971.8813448731678
 30
0.0
 40
24.4326171875
 41
0.0
 46
0.0
 71
     5
 72
     1
  1
\A1;120
  7
ＭＳ ゴシック
 11
0.0
 21
1.0
 31
0.0
 73
     1
 44
1.0
  0
POINT
  5
8063
330
805A
100
AcDbEntity
  8
Defpoints
 62
     0
100
AcDbPoint
 10
791.7231739422632
 20
1031.881344873168
 30
0.0
  0
POINT
  5
8064
330
805A
100
AcDbEntity
  8
Defpoints
 62
     0
100
AcDbPoint
 10
791.7231739422633
 20
911.8813448731678
 30
0.0
  0
POINT
  5
8065
330
805A
100
AcDbEntity
  8
Defpoints
 62
     0
100
AcDbPoint
 10
913.0123558580519
 20
911.8813448731678
 30
0.0
  0
ENDBLK
  5
805C
330
805A
100
AcDbEntity
  8
0
100
AcDbBlockEnd
  0
BLOCK
  5
806E
330
806D
100
AcDbEntity
  8
0
100
AcDbBlockBegin
  2
*D34
 70
     1
 10
0.0
 20
0.0
 30
0.0
  3
*D34
  1

  0
LINE
  5
8070
330
806D
100
AcDbEntity
  8
Dim
 62
     0
370
    -2
100
AcDbLine
 10
1701.871407709038
 20
1046.217154006887
 30
0.0
 11
1701.871407709038
 21
1112.311566054545
 31
0.0
  0
LINE
  5
8071
330
806D
100
AcDbEntity
  8
Dim
 62
     0
370
    -2
100
AcDbLine
 10
1641.871407709038
 20
1046.217154006887
 30
0.0
 11
1641.871407709038
 21
1112.311566054545
 31
0.0
  0
LINE
  5
8072
330
806D
100
AcDbEntity
  8
Dim
 62
     0
370
    -2
100
AcDbLine
 10
1691.872018060601
 20
1112.311566054545
 30
0.0
 11
1651.870797357476
 21
1112.311566054545
 31
0.0
  0
INSERT
  5
8073
330
806D
100
AcDbEntity
  8
Dim
 62
     0
370
    -2
100
AcDbBlockReference
  2
_DOT
 10
1701.871407709038
 20
1112.311566054545
 30
0.0
 41
9.999389648437498
 42
9.999389648437498
 43
9.999389648437498
  0
INSERT
  5
8074
330
806D
100
AcDbEntity
  8
Dim
 62
     0
370
    -2
100
AcDbBlockReference
  2
_DOT
 10
1641.871407709038
 20
1112.311566054545
 30
0.0
 41
9.999389648437498
 42
9.999389648437498
 43
9.999389648437498
 50
180.0
  0
MTEXT
  5
8075
330
806D
100
AcDbEntity
  8
Dim
 62
     0
100
AcDbMText
 10
1671.871407709038
 20
1134.527874648295
 30
0.0
 40
24.4326171875
 41
0.0
 46
0.0
 71
     5
 72
     1
  1
\A1;60
  7
ＭＳ ゴシック
 73
     1
 44
1.0
  0
POINT
  5
8076
330
806D
100
AcDbEntity
  8
Defpoints
 62
     0
100
AcDbPoint
 10
1701.871407709038
 20
1021.217154006887
 30
0.0
  0
POINT
  5
8077
330
806D
100
AcDbEntity
  8
Defpoints
 62
     0
100
AcDbPoint
 10
1641.871407709038
 20
1021.217154006887
 30
0.0
  0
POINT
  5
8078
330
806D
100
AcDbEntity
  8
Defpoints
 62
     0
100
AcDbPoint
 10
1641.871407709038
 20
1112.311566054545
 30
0.0
  0
ENDBLK
  5
806F
330
806D
100
AcDbEntity
  8
0
100
AcDbBlockEnd
  0
BLOCK
  5
807B
330
807A
100
AcDbEntity
  8
0
100
AcDbBlockBegin
  2
*D35
 70
     1
 10
0.0
 20
0.0
 30
0.0
  3
*D35
  1

  0
LINE
  5
807D
330
807A
100
AcDbEntity
  8
Dim
 62
     0
370
    -2
100
AcDbLine
 10
1701.871407709044
 20
890.3171235869097
 30
0.0
 11
1701.871407709044
 21
833.2445577180679
 31
0.0
  0
LINE
  5
807E
330
807A
100
AcDbEntity
  8
Dim
 62
     0
370
    -2
100
AcDbLine
 10
1521.871407709044
 20
890.3171235869098
 30
0.0
 11
1521.871407709044
 21
833.2445577180679
 31
0.0
  0
LINE
  5
807F
330
807A
100
AcDbEntity
  8
Dim
 62
     0
370
    -2
100
AcDbLine
 10
1691.872018060606
 20
833.2445577180679
 30
0.0
 11
1531.870797357481
 21
833.2445577180679
 31
0.0
  0
INSERT
  5
8080
330
807A
100
AcDbEntity
  8
Dim
 62
     0
370
    -2
100
AcDbBlockReference
  2
_DOT
 10
1701.871407709044
 20
833.2445577180679
 30
0.0
 41
9.999389648437498
 42
9.999389648437498
 43
9.999389648437498
  0
INSERT
  5
8081
330
807A
100
AcDbEntity
  8
Dim
 62
     0
370
    -2
100
AcDbBlockReference
  2
_DOT
 10
1521.871407709044
 20
833.2445577180679
 30
0.0
 41
9.999389648437498
 42
9.999389648437498
 43
9.999389648437498
 50
180.0
  0
MTEXT
  5
8082
330
807A
100
AcDbEntity
  8
Dim
 62
     0
100
AcDbMText
 10
1611.871407709044
 20
855.4654491461034
 30
0.0
 40
24.4326171875
 41
0.0
 46
0.0
 71
     5
 72
     1
  1
\A1;180
  7
ＭＳ ゴシック
 73
     1
 44
1.0
  0
POINT
  5
8083
330
807A
100
AcDbEntity
  8
Defpoints
 62
     0
100
AcDbPoint
 10
1701.871407709044
 20
915.3171235869097
 30
0.0
  0
POINT
  5
8084
330
807A
100
AcDbEntity
  8
Defpoints
 62
     0
100
AcDbPoint
 10
1521.871407709044
 20
915.3171235869098
 30
0.0
  0
POINT
  5
8085
330
807A
100
AcDbEntity
  8
Defpoints
 62
     0
100
AcDbPoint
 10
1521.871407709044
 20
833.2445577180679
 30
0.0
  0
ENDBLK
  5
807C
330
807A
100
AcDbEntity
  8
0
100
AcDbBlockEnd
  0
BLOCK
  5
80BF
330
80BE
100
AcDbEntity
  8
0
100
AcDbBlockBegin
  2
*D36
 70
     1
 10
0.0
 20
0.0
 30
0.0
  3
*D36
  1

  0
LINE
  5
80C1
330
80BE
100
AcDbEntity
  8
Dim
 62
     0
370
    -2
100
AcDbLine
 10
1732.621979630156
 20
2166.215179553531
 30
0.0
 11
1801.608277774566
 21
2166.215179553531
 31
0.0
  0
LINE
  5
80C2
330
80BE
100
AcDbEntity
  8
Dim
 62
     0
370
    -2
100
AcDbLine
 10
1577.863563864797
 20
2141.215179553531
 30
0.0
 11
1801.608277774566
 21
2141.215179553531
 31
0.0
  0
LINE
  5
80C3
330
80BE
100
AcDbEntity
  8
Dim
 62
     0
370
    -2
100
AcDbLine
 10
1801.608277774566
 20
2166.215179553531
 30
0.0
 11
1801.608277774566
 21
2234.615310529161
 31
0.0
  0
LINE
  5
80C4
330
80BE
100
AcDbEntity
  8
Dim
 62
     0
370
    -2
100
AcDbLine
 10
1801.608277774566
 20
2166.215179553531
 30
0.0
 11
1801.608277774566
 21
2141.215179553531
 31
0.0
  0
LINE
  5
80C5
330
80BE
100
AcDbEntity
  8
Dim
 62
     0
370
    -2
100
AcDbLine
 10
1801.608277774566
 20
2176.214569201969
 30
0.0
 11
1801.608277774566
 21
2186.213958850406
 31
0.0
  0
LINE
  5
80C6
330
80BE
100
AcDbEntity
  8
Dim
 62
     0
370
    -2
100
AcDbLine
 10
1801.608277774566
 20
2131.215789905094
 30
0.0
 11
1801.608277774566
 21
2121.216400256656
 31
0.0
  0
INSERT
  5
80C7
330
80BE
100
AcDbEntity
  8
Dim
 62
     0
370
    -2
100
AcDbBlockReference
  2
_DOT
 10
1801.608277774566
 20
2166.215179553531
 30
0.0
 41
9.999389648437498
 42
9.999389648437498
 43
9.999389648437498
 50
270.0
  0
INSERT
  5
80C8
330
80BE
100
AcDbEntity
  8
Dim
 62
     0
370
    -2
100
AcDbBlockReference
  2
_DOT
 10
1801.608277774566
 20
2141.215179553531
 30
0.0
 41
9.999389648437498
 42
9.999389648437498
 43
9.999389648437498
 50
90.0
  0
MTEXT
  5
80C9
330
80BE
100
AcDbEntity
  8
Dim
 62
     0
100
AcDbMText
 10
1779.387386346531
 20
2210.414634689783
 30
0.0
 40
24.4326171875
 41
0.0
 46
0.0
 71
     5
 72
     1
  1
\A1;25
  7
ＭＳ ゴシック
 11
0.0
 21
1.0
 31
0.0
 73
     1
 44
1.0
  0
POINT
  5
80CA
330
80BE
100
AcDbEntity
  8
Defpoints
 62
     0
100
AcDbPoint
 10
1707.621979630156
 20
2166.215179553531
 30
0.0
  0
POINT
  5
80CB
330
80BE
100
AcDbEntity
  8
Defpoints
 62
     0
100
AcDbPoint
 10
1552.863563864797
 20
2141.215179553531
 30
0.0
  0
POINT
  5
80EA
330
80BE
100
AcDbEntity
  8
Defpoints
 62
     0
100
AcDbPoint
 10
1801.608277774566
 20
2141.215179553531
 30
0.0
  0
ENDBLK
  5
80C0
330
80BE
100
AcDbEntity
  8
0
100
AcDbBlockEnd
  0
BLOCK
  5
80D0
330
80CF
100
AcDbEntity
  8
0
100
AcDbBlockBegin
  2
*D37
 70
     1
 10
0.0
 20
0.0
 30
0.0
  3
*D37
  1

  0
LINE
  5
80D2
330
80CF
100
AcDbEntity
  8
Dim
 62
     0
370
    -2
100
AcDbLine
 10
1577.863563864797
 20
2141.215179553531
 30
0.0
 11
1801.608277774566
 21
2141.215179553531
 31
0.0
  0
LINE
  5
80D3
330
80CF
100
AcDbEntity
  8
Dim
 62
     0
370
    -2
100
AcDbLine
 10
1577.863563864797
 20
1921.215179553531
 30
0.0
 11
1801.608277774566
 21
1921.215179553531
 31
0.0
  0
LINE
  5
80D4
330
80CF
100
AcDbEntity
  8
Dim
 62
     0
370
    -2
100
AcDbLine
 10
1801.608277774566
 20
2131.215789905094
 30
0.0
 11
1801.608277774566
 21
1931.214569201969
 31
0.0
  0
INSERT
  5
80D5
330
80CF
100
AcDbEntity
  8
Dim
 62
     0
370
    -2
100
AcDbBlockReference
  2
_DOT
 10
1801.608277774566
 20
2141.215179553531
 30
0.0
 41
9.999389648437498
 42
9.999389648437498
 43
9.999389648437498
 50
90.0
  0
INSERT
  5
80D6
330
80CF
100
AcDbEntity
  8
Dim
 62
     0
370
    -2
100
AcDbBlockReference
  2
_DOT
 10
1801.608277774566
 20
1921.215179553531
 30
0.0
 41
9.999389648437498
 42
9.999389648437498
 43
9.999389648437498
 50
270.0
  0
MTEXT
  5
80D7
330
80CF
100
AcDbEntity
  8
Dim
 62
     0
100
AcDbMText
 10
1779.387386346531
 20
2031.215179553531
 30
0.0
 40
24.4326171875
 41
0.0
 46
0.0
 71
     5
 72
     1
  1
\A1;220
  7
ＭＳ ゴシック
 11
0.0
 21
1.0
 31
0.0
 73
     1
 44
1.0
  0
POINT
  5
80D8
330
80CF
100
AcDbEntity
  8
Defpoints
 62
     0
100
AcDbPoint
 10
1552.863563864797
 20
2141.215179553531
 30
0.0
  0
POINT
  5
80D9
330
80CF
100
AcDbEntity
  8
Defpoints
 62
     0
100
AcDbPoint
 10
1552.863563864797
 20
1921.215179553531
 30
0.0
  0
POINT
  5
80DA
330
80CF
100
AcDbEntity
  8
Defpoints
 62
     0
100
AcDbPoint
 10
1801.608277774566
 20
1921.215179553531
 30
0.0
  0
ENDBLK
  5
80D1
330
80CF
100
AcDbEntity
  8
0
100
AcDbBlockEnd
  0
BLOCK
  5
80DF
330
80DE
100
AcDbEntity
  8
0
100
AcDbBlockBegin
  2
*D38
 70
     1
 10
0.0
 20
0.0
 30
0.0
  3
*D38
  1

  0
LINE
  5
80E1
330
80DE
100
AcDbEntity
  8
Dim
 62
     0
370
    -2
100
AcDbLine
 10
1552.863563864797
 20
1896.215179553531
 30
0.0
 11
1552.863563864797
 21
1752.864860438578
 31
0.0
  0
LINE
  5
80E2
330
80DE
100
AcDbEntity
  8
Dim
 62
     0
370
    -2
100
AcDbLine
 10
1432.863563864797
 20
1896.215179553531
 30
0.0
 11
1432.863563864797
 21
1752.864860438578
 31
0.0
  0
LINE
  5
80E3
330
80DE
100
AcDbEntity
  8
Dim
 62
     0
370
    -2
100
AcDbLine
 10
1542.864174216359
 20
1752.864860438578
 30
0.0
 11
1442.862953513234
 21
1752.864860438578
 31
0.0
  0
INSERT
  5
80E4
330
80DE
100
AcDbEntity
  8
Dim
 62
     0
370
    -2
100
AcDbBlockReference
  2
_DOT
 10
1552.863563864797
 20
1752.864860438578
 30
0.0
 41
9.999389648437498
 42
9.999389648437498
 43
9.999389648437498
  0
INSERT
  5
80E5
330
80DE
100
AcDbEntity
  8
Dim
 62
     0
370
    -2
100
AcDbBlockReference
  2
_DOT
 10
1432.863563864797
 20
1752.864860438578
 30
0.0
 41
9.999389648437498
 42
9.999389648437498
 43
9.999389648437498
 50
180.0
  0
MTEXT
  5
80E6
330
80DE
100
AcDbEntity
  8
Dim
 62
     0
100
AcDbMText
 10
1492.863563864797
 20
1775.085751866613
 30
0.0
 40
24.4326171875
 41
0.0
 46
0.0
 71
     5
 72
     1
  1
\A1;120
  7
ＭＳ ゴシック
 73
     1
 44
1.0
  0
POINT
  5
80E7
330
80DE
100
AcDbEntity
  8
Defpoints
 62
     0
100
AcDbPoint
 10
1552.863563864797
 20
1921.215179553531
 30
0.0
  0
POINT
  5
80E8
330
80DE
100
AcDbEntity
  8
Defpoints
 62
     0
100
AcDbPoint
 10
1432.863563864797
 20
1921.215179553531
 30
0.0
  0
POINT
  5
80E9
330
80DE
100
AcDbEntity
  8
Defpoints
 62
     0
100
AcDbPoint
 10
1432.863563864797
 20
1752.864860438578
 30
0.0
  0
ENDBLK
  5
80E0
330
80DE
100
AcDbEntity
  8
0
100
AcDbBlockEnd
  0
ENDSEC
  0
SECTION
  2
ENTITIES
  0
MTEXT
  5
177
330
A
100
AcDbEntity
  8
template
390
1D
100
AcDbMText
 10
82.00000000048226
 20
348.023957835319
 30
0.0
 40
16.28841145833333
 41
0.0
 46
0.0
 71
     1
 72
     1
  1
品名
  7
ＭＳ ゴシック
 73
     1
 44
0.7828267384257843
  0
MTEXT
  5
178
330
A
100
AcDbEntity
  8
template
390
1D
100
AcDbMText
 10
82.00000000048226
 20
263.0239578353188
 30
0.0
 40
16.28841145833333
 41
0.0
 46
0.0
 71
     1
 72
     1
  1
仕様
  7
ＭＳ ゴシック
 73
     1
 44
0.7828267384257843
  0
LINE
  5
179
330
A
100
AcDbEntity
  8
template
390
1D
100
AcDbLine
 10
2025.0
 20
271.4388797103189
 30
0.0
 11
75.00000000000023
 21
271.4388797103189
 31
0.0
  0
LWPOLYLINE
  5
17A
330
A
100
AcDbEntity
  8
template
390
1D
100
AcDbPolyline
 90
        5
 70
   128
 43
0.0
 10
2025.0
 20
2901.438879710319
 10
75.00000000000023
 20
2901.438879710319
 10
75.00000000000023
 20
101.4388797103188
 10
2025.0
 20
101.4388797103188
 10
2025.0
 20
2901.438879710319
  0
LINE
  5
17B
330
A
100
AcDbEntity
  8
template
390
1D
100
AcDbLine
 10
2025.0
 20
356.4388797103188
 30
0.0
 11
75.00000000000023
 21
356.4388797103188
 31
0.0
  0
LINE
  5
17C
330
A
100
AcDbEntity
  8
template
390
1D
100
AcDbLine
 10
2025.000000000482
 20
186.4388797103189
 30
0.0
 11
1272.000000000482
 21
186.4388797103189
 31
0.0
  0
MTEXT
  5
17E
330
A
100
AcDbEntity
  8
template
390
1D
100
AcDbMText
 10
1301.871406252743
 20
156.5284852370108
 30
0.0
 40
24.4326171875
 41
0.0
 46
0.0
 71
     1
 72
     1
  1
大洋金物株式会社 ティーフォルム事業部
  7
ＭＳ ゴシック
 73
     1
 44
0.7828267384257843
  0
MTEXT
  5
180
330
A
100
AcDbEntity
  8
template
390
1D
100
AcDbMText
 10
1834.000000000742
 20
234.4414968978188
 30
0.0
 40
24.4326171875
 41
0.0
 46
0.0
 71
     1
 72
     1
  1
1:10
  7
ＭＳ ゴシック
 73
     1
 44
0.7828267384257843
  0
MTEXT
  5
181
330
A
100
AcDbEntity
  8
template
390
1D
100
AcDbMText
 10
1781.000000000742
 20
263.0239578353188
 30
0.0
 40
16.28841145833333
 41
0.0
 46
0.0
 71
     1
 72
     1
  1
縮尺
  7
ＭＳ ゴシック
 73
     1
 44
0.7828267384257843
  0
LINE
  5
182
330
A
100
AcDbEntity
  8
template
390
1D
100
AcDbLine
 10
1774.000000000742
 20
186.4388797103189
 30
0.0
 11
1774.000000000742
 21
271.4388797103189
 31
0.0
  0
MTEXT
  5
183
330
A
100
AcDbEntity
  8
template
390
1D
100
AcDbMText
 10
1530.000000000742
 20
263.0239578353188
 30
0.0
 40
16.28841145833333
 41
0.0
 46
0.0
 71
     1
 72
     1
  1
容量
  7
ＭＳ ゴシック
 73
     1
 44
0.7828267384257843
  0
LINE
  5
184
330
A
100
AcDbEntity
  8
template
390
1D
100
AcDbLine
 10
1523.000000000742
 20
186.4388797103189
 30
0.0
 11
1523.000000000742
 21
271.4388797103189
 31
0.0
  0
MTEXT
  5
185
330
A
100
AcDbEntity
  8
template
390
1D
100
AcDbMText
 10
1279.000000000742
 20
348.023957835319
 30
0.0
 40
16.28841145833333
 41
0.0
 46
0.0
 71
     1
 72
     1
  1
品番
  7
ＭＳ ゴシック
 73
     1
 44
0.7828267384257843
  0
MTEXT
  5
186
330
A
100
AcDbEntity
  8
template
390
1D
100
AcDbMText
 10
1279.000000000742
 20
263.0239578353188
 30
0.0
 40
16.28841145833333
 41
0.0
 46
0.0
 71
     1
 72
     1
  1
重量
  7
ＭＳ ゴシック
 73
     1
 44
0.7828267384257843
  0
MTEXT
  5
187
330
A
100
AcDbEntity
  8
template
390
1D
100
AcDbMText
 10
1332.000000000742
 20
319.4414968978188
 30
0.0
 40
24.4326171875
 41
0.0
 46
24.4326171875
 71
     1
 72
     1
  1
{ADF70-0625-001}
  7
ＭＳ ゴシック
 73
     1
 44
0.7828267384257843
1001
ACAD
1000
ACAD_MTEXT_DEFINED_HEIGHT_BEGIN
1070
    46
1040
24.4326171875
1000
ACAD_MTEXT_DEFINED_HEIGHT_END
  0
LINE
  5
188
330
A
100
AcDbEntity
  8
template
390
1D
100
AcDbLine
 10
1272.000000000742
 20
101.4388797103188
 30
0.0
 11
1272.000000000742
 21
356.4388797103188
 31
0.0
  0
MTEXT
  5
189
330
A
100
AcDbEntity
  8
template
390
1D
100
AcDbMText
 10
135.0000000004822
 20
319.4414968978188
 30
0.0
 40
24.4326171875
 41
0.0
 46
27.53672361022102
 71
     1
 72
     1
  1
{手洗器 -CATALANO, Verso-}
  7
ＭＳ ゴシック
 73
     1
 44
0.7828267384257843
1001
ACAD
1000
ACAD_MTEXT_DEFINED_HEIGHT_BEGIN
1070
    46
1040
27.53672361022102
1000
ACAD_MTEXT_DEFINED_HEIGHT_END
  0
MTEXT
  5
18A
330
A
100
AcDbEntity
  8
template
390
1D
100
AcDbMText
 10
135.0000000004823
 20
234.4414968978188
 30
0.0
 40
24.4326171875
 41
0.0
 46
69.00885866868045
 71
     1
 72
     1
  1
{壁掛け、カウンター置き/オーバーフロー無し/\fＭＳ ゴシック|b0|i0|c1|p0;^Z^Z壁取付ボルト付属/^Z^Z\fＭＳ ゴシック|b0|i0|c0|p0;\P陶器/ホワイト}
  7
ＭＳ ゴシック
 73
     1
 44
0.9822934569727008
1001
ACAD
1000
ACAD_MTEXT_DEFINED_HEIGHT_BEGIN
1070
    46
1040
69.00885866868045
1000
ACAD_MTEXT_DEFINED_HEIGHT_END
  0
MTEXT
  5
1A6
330
A
100
AcDbEntity
  8
template
390
1D
100
AcDbMText
 10
1332.000000000742
 20
234.4414968978188
 30
0.0
 40
24.4326171875
 41
0.0
 46
28.40135167875453
 71
     1
 72
     1
  1
{11kg}
  7
ＭＳ ゴシック
 73
     1
 44
0.7828267384257843
1001
ACAD
1000
ACAD_MTEXT_DEFINED_HEIGHT_BEGIN
1070
    46
1040
28.40135167875453
1000
ACAD_MTEXT_DEFINED_HEIGHT_END
  0
MTEXT
  5
374
330
A
100
AcDbEntity
  8
template
390
1D
100
AcDbMText
 10
1581.992122669024
 20
234.4414968978188
 30
0.0
 40
24.4326171875
 41
0.0
 46
24.4326171875
 71
     1
 72
     1
  1
{6L}
  7
ＭＳ ゴシック
 73
     1
 44
0.7828267384257843
1001
ACAD
1000
ACAD_MTEXT_DEFINED_HEIGHT_BEGIN
1070
    46
1040
24.4326171875
1000
ACAD_MTEXT_DEFINED_HEIGHT_END
  0
INSERT
  5
3D0
330
A
100
AcDbEntity
  8
template
100
AcDbBlockReference
  2
名称未設定-1
 10
1873.559250554905
 20
30.23897196054438
 30
0.0
 41
0.7619999999999999
 42
0.7619999999999999
 43
0.7619999999999999
  0
MTEXT
  5
BDB
102
{ACAD_XDICTIONARY
360
BDC
102
}
330
A
100
AcDbEntity
  8
template
  6
Continuous
100
AcDbMText
 10
78.95663872901252
 20
86.10730750352229
 30
0.0
 40
23.0
 41
0.0
 46
23.0
 71
     1
 72
     1
  1
{20210818N}
  7
ＭＳ ゴシック
 73
     1
 44
1.0
1001
ACAD
1000
ACAD_MTEXT_DEFINED_HEIGHT_BEGIN
1070
    46
1040
23.0
1000
ACAD_MTEXT_DEFINED_HEIGHT_END
  0
LWPOLYLINE
  5
BEE
330
A
100
AcDbEntity
  8
PRINT BORDER
100
AcDbPolyline
 90
        4
 70
     1
 43
0.0
 10
0.0
 20
0.0
 10
0.0
 20
2970.0
 10
2100.0
 20
2970.0
 10
2100.0
 20
0.0
  0
INSERT
  5
1273
330
A
100
AcDbEntity
  8
0
 62
     7
100
AcDbBlockReference
  2
BLOCK_2
 10
591.2037060744204
 20
943.564364962162
 30
0.0
  0
INSERT
  5
127B
330
A
100
AcDbEntity
  8
0
 62
     7
100
AcDbBlockReference
  2
BLOCK_2
 10
1291.863324028138
 20
1038.76992320659
 30
0.0
  0
INSERT
  5
127C
330
A
100
AcDbEntity
  8
0
 62
     7
100
AcDbBlockReference
  2
BLOCK_2
 10
652.1648429406905
 20
1595.641631888467
 30
0.0
  0
INSERT
  5
3B99
330
A
100
AcDbEntity
  8
retino
100
AcDbBlockReference
  2
mobile_latù
 10
-92101.31485198285
 20
1730.415535296608
 30
0.0
  0
INSERT
  5
45C2
330
A
100
AcDbEntity
  8
retino
100
AcDbBlockReference
  2
mobile_latù
 10
-86439.67799028098
 20
684.0045377191276
 30
0.0
  0
INSERT
  5
45C3
330
A
100
AcDbEntity
  8
0
100
AcDbBlockReference
  2
.TD_SECTION_1
 10
225818108268.3253
 20
1093.456007493889
 30
0.0
  0
INSERT
  5
45C4
330
A
100
AcDbEntity
  8
0
100
AcDbBlockReference
  2
.TD_SECTION_2
 10
225818173804.3253
 20
1093.456007493889
 30
0.0
  0
INSERT
  5
45C5
330
A
100
AcDbEntity
  8
0
  6
Continuous
 62
     0
370
     0
100
AcDbBlockReference
  2
.TD_SECTION_1
 10
-5309.067341990833
 20
1307.927120367214
 30
0.0
  0
INSERT
  5
45C6
330
A
100
AcDbEntity
  8
0
  6
Continuous
 62
     0
370
     0
100
AcDbBlockReference
  2
.TD_SECTION_2
 10
-5866.445500560169
 20
1615.480640569851
 30
0.0
  0
INSERT
  5
45C7
330
A
100
AcDbEntity
  8
0
  6
Continuous
 62
     0
370
     0
100
AcDbBlockReference
  2
.TD_SECTION_1
 10
-7732.562264964368
 20
-610.0674069533197
 30
0.0
  0
INSERT
  5
45C8
330
A
100
AcDbEntity
  8
0
  6
Continuous
 62
     0
370
     0
100
AcDbBlockReference
  2
.TD_SECTION_2
 10
-7444.601476237562
 20
-908.1755612501947
 30
0.0
  0
INSERT
  5
45C9
330
A
100
AcDbEntity
  8
0
  6
Continuous
 62
     0
370
     0
100
AcDbBlockReference
  2
.TD_SECTION_1
 10
-7604.211434120536
 20
-675.956232615647
 30
0.0
  0
INSERT
  5
45CA
330
A
100
AcDbEntity
  8
0
  6
Continuous
 62
     0
370
     0
100
AcDbBlockReference
  2
.TD_SECTION_2
 10
-7316.160069221854
 20
-974.1548715316626
 30
0.0
  0
INSERT
  5
45CB
330
A
100
AcDbEntity
  8
0
  6
Continuous
 62
     0
370
     0
100
AcDbBlockReference
  2
.TD_SECTION_1
 10
1998.261972039336
 20
584.7577436013784
 30
0.0
  0
INSERT
  5
45CC
330
A
100
AcDbEntity
  8
0
  6
Continuous
 62
     0
370
     0
100
AcDbBlockReference
  2
.TD_SECTION_2
 10
2325.569123833769
 20
298.7106092019643
 30
0.0
  0
INSERT
  5
45CD
330
A
100
AcDbEntity
  8
0
  6
Continuous
 62
     0
370
     0
100
AcDbBlockReference
  2
.TD_SECTION_1
 10
4096.079043894448
 20
729.9229578437947
 30
0.0
  0
INSERT
  5
45CE
330
A
100
AcDbEntity
  8
0
  6
Continuous
 62
     0
370
     0
100
AcDbBlockReference
  2
.TD_SECTION_2
 10
4527.386195688881
 20
443.5448297920369
 30
0.0
  0
INSERT
  5
4611
330
A
100
AcDbEntity
  8
0
  6
Continuous
 62
     0
370
     0
100
AcDbBlockReference
  2
.TD_SECTION_1
 10
6135.868573041045
 20
-239.8054397977554
 30
0.0
  0
INSERT
  5
4612
330
A
100
AcDbEntity
  8
0
  6
Continuous
 62
     0
370
     0
100
AcDbBlockReference
  2
.TD_SECTION_2
 10
6878.171818585479
 20
-958.2465713895522
 30
0.0
  0
ELLIPSE
  5
543D
330
A
100
AcDbEntity
  8
tratteggio
  6
HIDDEN2
 62
     3
 60
     1
370
     0
100
AcDbEllipse
 10
-4096.49475666334
 20
1623.797447106776
 30
0.0
 11
300.0
 21
0.0
 31
0.0
210
0.0
220
0.0
230
1.0
 40
0.5
 41
5.728374274199514
 42
6.837996340159658
  0
ELLIPSE
  5
62B3
330
A
100
AcDbEntity
  8
tratteggio
  6
HIDDEN2
 62
     3
 60
     1
370
     0
100
AcDbEllipse
 10
-3728.470049359251
 20
2199.237967545522
 30
0.0
 11
300.0
 21
0.0
 31
0.0
210
0.0
220
0.0
230
1.0
 40
0.5
 41
5.728374274199514
 42
6.837996340159658
  0
MTEXT
  5
69F0
330
A
100
AcDbEntity
  8
template
390
1D
100
AcDbMText
 10
109.9913836583539
 20
735.5401602155133
 30
0.0
 40
24.4326171875
 41
0.0
 46
24.4326171875
 71
     1
 72
     1
  1
{  }
  7
ＭＳ ゴシック
 73
     1
 44
0.7828267384257843
1001
ACAD
1000
ACAD_MTEXT_DEFINED_HEIGHT_BEGIN
1070
    46
1040
24.4326171875
1000
ACAD_MTEXT_DEFINED_HEIGHT_END
  0
MTEXT
  5
78D6
330
A
100
AcDbEntity
  8
Dim
390
1D
100
AcDbMText
 10
1189.183823663062
 20
1612.424266243212
 30
34.99521132346015
 40
24.0
 41
1169.771715461011
 46
0.0
 71
     1
 72
     1
  1
※陶器製品には寸法公差があります。\P  洗面器の収め方をご確認の上、必ず現物を合わせて\P  カウンターに切込を行ってください。
  7
ＭＳ ゴシック
 73
     1
 44
1.174240107638677
  0
MTEXT
  5
78D7
330
A
100
AcDbEntity
  8
Dim
390
1D
100
AcDbMText
 10
258.6422546506833
 20
1611.501709684321
 30
34.99521132346015
 40
24.4326171875
 41
833.929798641839
 46
0.0
 71
     1
 72
     1
  1
＝φ30もしくはφ35の水栓取付用穴あけ加工を承ります。\P  必要な場合、ご注文の際にご指示ください。
  7
ＭＳ ゴシック
 73
     1
 44
1.043768984567712
  0
CIRCLE
  5
78D8
330
A
100
AcDbEntity
  8
HIDDEN
 48
0.58
390
1D
100
AcDbCircle
 10
227.2752249525954
 20
1596.912885228038
 30
34.99521132346015
 40
17.5
  0
MTEXT
  5
78DC
330
A
100
AcDbEntity
  8
Dim
390
1D
100
AcDbMText
 10
1359.031569034242
 20
2347.38036113474
 30
34.99521132346015
 40
24.0
 41
0.0
 46
27.413396484375
 71
     1
 72
     1
  1
{カウンター切込寸法}
  7
ＭＳ ゴシック
 73
     1
 44
0.7828267384257843
1001
ACAD
1000
ACAD_MTEXT_DEFINED_HEIGHT_BEGIN
1070
    46
1040
27.413396484375
1000
ACAD_MTEXT_DEFINED_HEIGHT_END
  0
CIRCLE
  5
7CEB
330
A
100
AcDbEntity
  8
MODEL
 48
0.5
100
AcDbCircle
 10
572.4085994266752
 20
1986.215179553531
 30
-0.0000000046240195
 40
22.12450746108834
  0
CIRCLE
  5
7CEC
330
A
100
AcDbEntity
  8
MODEL
  6
HIDDEN2
100
AcDbCircle
 10
572.4085994266752
 20
2103.86517955354
 30
-0.0000000053126276
 40
17.5
  0
LINE
  5
7CED
330
A
100
AcDbEntity
  8
MODEL
 48
0.5
100
AcDbLine
 10
795.3482771435474
 20
913.8455603254558
 30
0.0
 11
797.3552973035648
 21
1028.827668285384
 31
0.0
  0
LINE
  5
7CEE
330
A
100
AcDbEntity
  8
MODEL
 48
0.5
100
AcDbLine
 10
792.3492061602474
 20
911.8813448731678
 30
0.0
 11
352.4679926931085
 21
911.8813448731678
 31
0.0
  0
LINE
  5
7CEF
330
A
100
AcDbEntity
  8
MODEL
 48
0.5
100
AcDbLine
 10
793.3485971090586
 20
911.8813448731678
 30
0.0
 11
792.3492061602474
 21
911.8813448731678
 31
0.0
  0
LINE
  5
7CF0
330
A
100
AcDbEntity
  8
MODEL
 48
0.5
100
AcDbLine
 10
352.4679926931012
 20
911.8813448731678
 30
0.0
 11
351.46860174429
 21
911.8813448731678
 31
0.0
  0
LINE
  5
7CF1
330
A
100
AcDbEntity
  8
MODEL
 48
0.5
100
AcDbLine
 10
797.3553203332294
 20
1028.828987653855
 30
0.0
 11
795.3482924993768
 21
913.8464400602895
 31
0.0
  0
LINE
  5
7CF2
330
A
100
AcDbEntity
  8
MODEL
 48
0.5
100
AcDbLine
 10
349.4689063539872
 20
913.8464400602904
 30
0.0
 11
347.4618785201264
 21
1028.828987653855
 31
0.0
  0
LINE
  5
7CF3
330
A
100
AcDbEntity
  8
MODEL
 48
0.5
100
AcDbLine
 10
350.4614216055952
 20
1031.881344873168
 30
0.0
 11
794.355777247768
 21
1031.881344873168
 31
0.0
  0
ARC
  5
7CF4
330
A
100
AcDbEntity
  8
MODEL
 48
0.5
100
AcDbCircle
 10
793.3485971090586
 20
913.8813448731642
 30
0.0
 40
2.0
100
AcDbArc
 50
270.0
 51
358.9999999999982
  0
ARC
  5
7CF5
330
A
100
AcDbEntity
  8
MODEL
 48
0.5
100
AcDbCircle
 10
351.46860174429
 20
913.8813448731642
 30
0.0
 40
2.0
100
AcDbArc
 50
180.9999999999497
 51
270.0
  0
ARC
  5
7CF6
330
A
100
AcDbEntity
  8
MODEL
 48
0.5
100
AcDbCircle
 10
794.355777247768
 20
1028.881344873164
 30
0.0
 40
3.0
100
AcDbArc
 50
358.9999999999982
 51
90.0
  0
ARC
  5
7CF7
330
A
100
AcDbEntity
  8
MODEL
 48
0.5
100
AcDbCircle
 10
350.4614216055952
 20
1028.881344873164
 30
0.0
 40
3.0
100
AcDbArc
 50
90.0
 51
180.9999999999497
  0
LINE
  5
7CF8
330
A
100
AcDbEntity
  8
MODEL
100
AcDbLine
 10
1370.259032000485
 20
911.8813448731682
 30
-0.0000000000000062
 11
1365.278058510025
 21
911.8813448731682
 31
-0.0000000000000062
  0
LINE
  5
7CFA
330
A
100
AcDbEntity
  8
MODEL
100
AcDbLine
 10
1701.871407709044
 20
920.8905841819226
 30
-0.0000000000000068
 11
1701.871407709044
 21
919.8813448731682
 31
-0.0000000000000069
  0
LINE
  5
7CFD
330
A
100
AcDbEntity
  8
MODEL
100
AcDbLine
 10
1701.871407709044
 20
944.7189325730153
 30
-0.0000000000000062
 11
1701.871407709044
 21
924.0379393236592
 31
-0.0000000000000062
  0
LINE
  5
7D04
330
A
100
AcDbEntity
  8
MODEL
100
AcDbLine
 10
1698.87140770904
 20
911.8813448731682
 30
-0.0000000000000073
 11
1370.259032000485
 21
911.8813448731682
 31
-0.0000000000000073
  0
LINE
  5
7D05
330
A
100
AcDbEntity
  8
MODEL
100
AcDbLine
 10
1701.871407709044
 20
915.3171235869097
 30
-0.0000000000000071
 11
1701.871407709044
 21
914.8813448731682
 31
-0.0000000000000072
  0
LINE
  5
7D06
330
A
100
AcDbEntity
  8
MODEL
100
AcDbLine
 10
1701.871407709044
 20
919.8813448731682
 30
-0.0000000000000069
 11
1701.871407709044
 21
915.3171235869097
 31
-0.0000000000000071
  0
ARC
  5
7D08
330
A
100
AcDbEntity
  8
MODEL
100
AcDbCircle
 10
1698.87140770904
 20
914.8813448731682
 30
0.0000000000001287
 40
2.999999999999663
100
AcDbArc
 50
270.0
 51
0.0
  0
SPLINE
  5
7D09
330
A
100
AcDbEntity
  8
MODEL
100
AcDbSpline
210
0.0
220
0.0
230
1.0
 70
    24
 71
     3
 72
    22
 73
    18
 74
     0
 42
0.000000001
 43
0.0000000001
 40
0.0
 40
0.0
 40
0.0
 40
0.0
 40
0.0625000000000032
 40
0.0625000000000032
 40
0.1250000000000065
 40
0.1250000000000065
 40
0.2500000000000033
 40
0.2500000000000033
 40
0.3750000000000002
 40
0.3750000000000002
 40
0.499999999999997
 40
0.499999999999997
 40
0.6249999999999938
 40
0.6249999999999938
 40
0.7499999999999907
 40
0.7499999999999907
 40
1.0
 40
1.0
 40
1.0
 40
1.0
 10
1701.871407709044
 20
922.4789331105869
 30
-0.0000000000000067
 10
1701.871407709044
 20
922.4404003881148
 30
-0.0000000000000067
 10
1701.871407709044
 20
922.402620864051
 30
-0.0000000000000067
 10
1701.871407709044
 20
922.3282286628903
 30
-0.0000000000000067
 10
1701.871407709044
 20
922.2916179853939
 30
-0.0000000000000067
 10
1701.871407709044
 20
922.1831981185835
 30
-0.0000000000000067
 10
1701.871407709044
 20
922.1127841789214
 30
-0.0000000000000067
 10
1701.871407709044
 20
921.9745481649818
 30
-0.0000000000000067
 10
1701.871407709044
 20
921.9067378135453
 30
-0.0000000000000067
 10
1701.871407709044
 20
921.7730462202246
 30
-0.0000000000000067
 10
1701.871407709044
 20
921.7071696430369
 30
-0.0000000000000067
 10
1701.871407709044
 20
921.576891738406
 30
-0.0000000000000068
 10
1701.871407709044
 20
921.5124697455915
 30
-0.0000000000000068
 10
1701.871407709044
 20
921.3851332897477
 30
-0.0000000000000068
 10
1701.871407709044
 20
921.3221675296675
 30
-0.0000000000000068
 10
1701.871407709044
 20
921.1348790324566
 30
-0.0000000000000068
 10
1701.871407709044
 20
921.0121447847062
 30
-0.0000000000000068
 10
1701.871407709044
 20
920.8905841819226
 30
-0.0000000000000068
  0
SPLINE
  5
7D0A
330
A
100
AcDbEntity
  8
MODEL
100
AcDbSpline
210
0.0
220
0.0
230
1.0
 70
    24
 71
     3
 72
    10
 73
     6
 74
     0
 42
0.000000001
 43
0.0000000001
 40
0.0
 40
0.0
 40
0.0
 40
0.0
 40
0.5
 40
0.5
 40
1.0
 40
1.0
 40
1.0
 40
1.0
 10
1701.871407709044
 20
924.0379393236592
 30
-0.0000000000000066
 10
1701.871407709044
 20
923.7742625491603
 30
-0.0000000000000066
 10
1701.871407709044
 20
923.5127337432871
 30
-0.0000000000000066
 10
1701.871407709044
 20
922.9933785044934
 30
-0.0000000000000067
 10
1701.871407709044
 20
922.7355437467133
 30
-0.0000000000000067
 10
1701.871407709044
 20
922.4789331105869
 30
-0.0000000000000067
  0
SPLINE
  5
7D0B
330
A
100
AcDbEntity
  8
MODEL
100
AcDbSpline
210
0.0
220
0.0
230
1.0
 70
    24
 71
     3
 72
    49
 73
    45
 74
     0
 42
0.000000001
 43
0.0000000001
 40
0.0
 40
0.0
 40
0.0
 40
0.0
 40
0.0625000000000046
 40
0.0625000000000046
 40
0.1250000000000091
 40
0.1875000000000137
 40
0.1875000000000137
 40
0.2187500000000152
 40
0.2187500000000152
 40
0.2343750000000166
 40
0.2343750000000166
 40
0.2421875000000166
 40
0.2421875000000166
 40
0.2500000000000165
 40
0.3125000000000148
 40
0.3125000000000148
 40
0.3750000000000131
 40
0.4375000000000114
 40
0.4375000000000114
 40
0.5000000000000097
 40
0.5000000000000097
 40
0.562500000000008
 40
0.6250000000000063
 40
0.6250000000000063
 40
0.656250000000005
 40
0.656250000000005
 40
0.6640625000000047
 40
0.6640625000000047
 40
0.6718750000000043
 40
0.6875000000000046
 40
0.6875000000000046
 40
0.7500000000000043
 40
0.7500000000000043
 40
0.8125000000000042
 40
0.8125000000000042
 40
0.875000000000004
 40
0.875000000000004
 40
0.906250000000004
 40
0.906250000000004
 40
0.9218750000000037
 40
0.9218750000000037
 40
0.9375000000000032
 40
0.9375000000000032
 40
1.0
 40
1.0
 40
1.0
 40
1.0
 10
1701.871407709044
 20
961.028888839611
 30
-0.0000000000000043
 10
1701.871407709044
 20
961.02883883461
 30
-0.0000000000000043
 10
1701.871407709044
 20
961.0040793702949
 30
-0.0000000000000043
 10
1701.871407709044
 20
960.9063042819046
 30
-0.0000000000000043
 10
1701.871407709044
 20
960.76031699501
 30
-0.0000000000000044
 10
1701.871407709044
 20
960.5186726496115
 30
-0.0000000000000044
 10
1701.871407709044
 20
960.3011492518865
 30
-0.0000000000000044
 10
1701.871407709044
 20
960.222585748664
 30
-0.0000000000000044
 10
1701.871407709044
 20
960.0955356773422
 30
-0.0000000000000044
 10
1701.871407709044
 20
960.0516510233949
 30
-0.0000000000000044
 10
1701.871407709044
 20
959.9835023441058
 30
-0.0000000000000044
 10
1701.871407709044
 20
959.9603864612302
 30
-0.0000000000000044
 10
1701.871407709044
 20
959.9134653509693
 30
-0.0000000000000044
 10
1701.871407709044
 20
959.6991762291448
 30
-0.0000000000000044
 10
1701.871407709044
 20
959.4568182635714
 30
-0.0000000000000044
 10
1701.871407709044
 20
958.9828118339003
 30
-0.0000000000000045
 10
1701.871407709044
 20
958.4656522416929
 30
-0.0000000000000045
 10
1701.871407709044
 20
957.8628563911345
 30
-0.0000000000000045
 10
1701.871407709044
 20
957.2167377177768
 30
-0.0000000000000046
 10
1701.871407709044
 20
956.8720106748672
 30
-0.0000000000000046
 10
1701.871407709044
 20
956.1378833321735
 30
-0.0000000000000046
 10
1701.871407709044
 20
955.3672894349377
 30
-0.0000000000000047
 10
1701.871407709044
 20
954.5248772775678
 30
-0.0000000000000047
 10
1701.871407709044
 20
953.8660145004699
 30
-0.0000000000000048
 10
1701.871407709044
 20
953.6418791849512
 30
-0.0000000000000048
 10
1701.871407709044
 20
953.3560119745318
 30
-0.0000000000000048
 10
1701.871407709044
 20
953.298526620348
 30
-0.0000000000000048
 10
1701.871407709044
 20
953.1831568319114
 30
-0.0000000000000048
 10
1701.871407709044
 20
953.0094893334547
 30
-0.0000000000000048
 10
1701.871407709044
 20
952.8339926036799
 30
-0.0000000000000048
 10
1701.871407709044
 20
952.2449742476613
 30
-0.0000000000000049
 10
1701.871407709044
 20
951.7608864593651
 30
-0.0000000000000049
 10
1701.871407709044
 20
950.7675399907178
 30
-0.000000000000005
 10
1701.871407709044
 20
950.2582802532136
 30
-0.000000000000005
 10
1701.871407709044
 20
949.2146611905494
 30
-0.0000000000000051
 10
1701.871407709044
 20
948.680302428854
 30
-0.0000000000000051
 10
1701.871407709044
 20
947.8596245562669
 30
-0.0000000000000051
 10
1701.871407709044
 20
947.5828714126485
 30
-0.0000000000000052
 10
1701.871407709044
 20
947.1628744641214
 30
-0.0000000000000052
 10
1701.871407709044
 20
947.0220479300926
 30
-0.0000000000000052
 10
1701.871407709044
 20
946.7388214649702
 30
-0.0000000000000052
 10
1701.871407709044
 20
946.5967096476973
 30
-0.0000000000000052
 10
1701.871407709044
 20
945.8836637398138
 30
-0.0000000000000053
 10
1701.871407709044
 20
945.3052816040301
 30
-0.0000000000000053
 10
1701.871407709044
 20
944.7189325730153
 30
-0.0000000000000053
  0
SPLINE
  5
7D0C
330
A
100
AcDbEntity
  8
MODEL
100
AcDbSpline
210
0.0
220
0.0
230
1.0
 70
    24
 71
     3
 72
    91
 73
    87
 74
     0
 42
0.000000001
 43
0.0000000001
 40
0.0
 40
0.0
 40
0.0
 40
0.0
 40
0.0014792269849649
 40
0.0014792269849649
 40
0.0088756771554473
 40
0.0088756771554473
 40
0.0107247896980678
 40
0.0107247896980678
 40
0.0125739022406884
 40
0.0125739022406884
 40
0.0162721273259296
 40
0.0162721273259296
 40
0.0236685774964126
 40
0.0310650276668955
 40
0.0310650276668955
 40
0.0384614778373784
 40
0.0384614778373784
 40
0.0458579280078613
 40
0.0458579280078613
 40
0.0495561530931029
 40
0.0495561530931029
 40
0.0514052656357237
 40
0.0514052656357237
 40
0.0532543781783446
 40
0.0532543781783446
 40
0.0606508283488272
 40
0.0606508283488272
 40
0.0680472785193101
 40
0.0754437286897928
 40
0.0828401788602754
 40
0.0828401788602754
 40
0.0902366290307581
 40
0.0902366290307581
 40
0.0939348541159998
 40
0.0939348541159998
 40
0.0957839666586205
 40
0.0957839666586205
 40
0.0976330792012411
 40
0.1050295293717232
 40
0.1050295293717232
 40
0.1124259795422052
 40
0.1124259795422052
 40
0.1272188798831688
 40
0.1272188798831688
 40
0.1346153300536502
 40
0.1346153300536502
 40
0.1383135551388911
 40
0.1383135551388911
 40
0.142011780224132
 40
0.1494082303946136
 40
0.1494082303946136
 40
0.156804680565095
 40
0.156804680565095
 40
0.1715975809060578
 40
0.1715975809060578
 40
0.1789940310765392
 40
0.1789940310765392
 40
0.1863904812470204
 40
0.1863904812470204
 40
0.1900887063322611
 40
0.1900887063322611
 40
0.1937869314175018
 40
0.1937869314175018
 40
0.2011833815879834
 40
0.2011833815879834
 40
0.2085798317584652
 40
0.2085798317584652
 40
0.2159762819289468
 40
0.2159762819289468
 40
0.2233727320994284
 40
0.2233727320994284
 40
0.2307691822699102
 40
0.2307691822699102
 40
0.2455620826108734
 40
0.2455620826108734
 40
0.2603549829518368
 40
0.2603549829518368
 40
0.2899407836337635
 40
0.2899407836337635
 40
0.3491123849976165
 40
0.3491123849976165
 40
0.4082839863614696
 40
0.4082839863614696
 40
0.5266271890891758
 40
0.5266271890891758
 40
1.0
 40
1.0
 40
1.0
 40
1.0
 10
1358.069827692008
 20
1031.881344873168
 30
0.0
 10
1358.084618367298
 20
1031.881344873168
 30
0.0
 10
1358.09977177167
 20
1031.881344873168
 30
0.0
 10
1358.192936890671
 20
1031.881344873168
 30
0.0
 10
1358.279874369538
 20
1031.881344873168
 30
0.0
 10
1358.401744521786
 20
1031.881344873168
 30
0.0
 10
1358.426779033063
 20
1031.881344873168
 30
0.0
 10
1358.478210805569
 20
1031.881344873168
 30
0.0
 10
1358.504604809149
 20
1031.881344873168
 30
0.0
 10
1358.585686077014
 20
1031.881344873168
 30
0.0
 10
1358.642336572771
 20
1031.881344873168
 30
0.0
 10
1358.820353378112
 20
1031.881344873168
 30
0.0
 10
1359.07913459148
 20
1031.881344873168
 30
0.0
 10
1359.382435241841
 20
1031.881344873168
 30
0.0
 10
1359.709062794307
 20
1031.881344873168
 30
0.0
 10
1359.884075634792
 20
1031.881344873168
 30
0.0
 10
1360.258025651859
 20
1031.881344873168
 30
0.0
 10
1360.456956258221
 20
1031.881344873168
 30
0.0
 10
1360.773936131525
 20
1031.881344873168
 30
0.0
 10
1360.882698690264
 20
1031.881344873168
 30
0.0
 10
1361.05059559867
 20
1031.881344873168
 30
0.0
 10
1361.107351910741
 20
1031.881344873168
 30
0.0
 10
1361.222454358736
 20
1031.881344873168
 30
0.0
 10
1361.280835014611
 20
1031.881344873168
 30
0.0
 10
1361.576351738724
 20
1031.881344873168
 30
0.0
 10
1361.822867659444
 20
1031.881344873168
 30
0.0
 10
1362.335449784859
 20
1031.881344873168
 30
0.0
 10
1362.867583951356
 20
1031.881344873168
 30
0.0
 10
1363.723406074586
 20
1031.881344873168
 30
0.0
 10
1364.332249676179
 20
1031.881344873168
 30
0.0
 10
1364.96045567252
 20
1031.881344873168
 30
0.0
 10
1365.284233493996
 20
1031.881344873168
 30
0.0
 10
1365.784705803791
 20
1031.881344873168
 30
0.0
 10
1365.953999825374
 20
1031.881344873168
 30
0.0
 10
1366.211704458295
 20
1031.881344873168
 30
0.0
 10
1366.298302121766
 20
1031.881344873168
 30
0.0
 10
1366.472181844939
 20
1031.881344873168
 30
0.0
 10
1366.908834017365
 20
1031.881344873168
 30
0.0
 10
1367.355192473809
 20
1031.881344873168
 30
0.0
 10
1368.081411789939
 20
1031.881344873168
 30
0.0
 10
1368.450543786795
 20
1031.881344873168
 30
0.0
 10
1369.575716670351
 20
1031.881344873168
 30
0.0
 10
1370.349635958751
 20
1031.881344873168
 30
0.0
 10
1371.544631595166
 20
1031.881344873168
 30
0.0
 10
1371.948678182776
 20
1031.881344873168
 30
0.0
 10
1372.563165874929
 20
1031.881344873168
 30
0.0
 10
1372.768477832451
 20
1031.881344873168
 30
0.0
 10
1373.179857096227
 20
1031.881344873168
 30
0.0
 10
1373.798143636599
 20
1031.881344873168
 30
0.0
 10
1374.419919433192
 20
1031.881344873168
 30
0.0
 10
1375.251793775587
 20
1031.881344873168
 30
0.0
 10
1375.669144726689
 20
1031.881344873168
 30
0.0
 10
1376.924880680468
 20
1031.881344873168
 30
0.0
 10
1377.766938079516
 20
1031.881344873168
 30
0.0
 10
1379.035250573146
 20
1031.881344873168
 30
0.0
 10
1379.458895701514
 20
1031.881344873168
 30
0.0
 10
1380.307576925144
 20
1031.881344873168
 30
0.0
 10
1380.732607547706
 20
1031.881344873168
 30
0.0
 10
1381.370966776896
 20
1031.881344873168
 30
0.0
 10
1381.583888910725
 20
1031.881344873168
 30
0.0
 10
1382.009967098358
 20
1031.881344873168
 30
0.0
 10
1382.223155276849
 20
1031.881344873168
 30
0.0
 10
1382.862749342159
 20
1031.881344873168
 30
0.0
 10
1383.289148359221
 20
1031.881344873168
 30
0.0
 10
1384.141950428071
 20
1031.881344873168
 30
0.0
 10
1384.568353494629
 20
1031.881344873168
 30
0.0
 10
1385.421161828566
 20
1031.881344873168
 30
0.0
 10
1385.847567012035
 20
1031.881344873168
 30
0.0
 10
1386.700378494668
 20
1031.881344873168
 30
0.0
 10
1387.126784821677
 20
1031.881344873168
 30
0.0
 10
1387.979597908371
 20
1031.881344873168
 30
0.0
 10
1388.40600462475
 20
1031.881344873168
 30
0.0
 10
1389.685224978075
 20
1031.881344873168
 30
0.0
 10
1390.53803882794
 20
1031.881344873168
 30
0.0
 10
1392.243666451166
 20
1031.881344873168
 30
0.0
 10
1393.096480294447
 20
1031.881344873168
 30
0.0
 10
1395.654921916324
 20
1031.881344873168
 30
0.0
 10
1397.360549779215
 20
1031.881344873168
 30
0.0
 10
1402.477433815973
 20
1031.881344873168
 30
0.0
 10
1405.888690538555
 20
1031.881344873168
 30
0.0
 10
1412.711203753064
 20
1031.881344873168
 30
0.0
 10
1416.122460251532
 20
1031.881344873168
 30
0.0
 10
1426.356229550594
 20
1031.881344873168
 30
0.0
 10
1433.178742221698
 20
1031.881344873168
 30
0.0
 10
1467.29130586392
 20
1031.881344873168
 30
0.0
 10
1494.581356778369
 20
1031.881344873168
 30
0.0
 10
1521.871407692782
 20
1031.881344873168
 30
0.0
  0
SPLINE
  5
7D0D
330
A
100
AcDbEntity
  8
MODEL
100
AcDbSpline
210
0.0
220
0.0
230
1.0
 70
    24
 71
     3
 72
    79
 73
    75
 74
     0
 42
0.000000001
 43
0.0000000001
 40
0.0
 40
0.0
 40
0.0
 40
0.0
 40
0.3456918213597526
 40
0.3456918213597526
 40
0.518537732039629
 40
0.518537732039629
 40
0.5617492097095982
 40
0.5617492097095982
 40
0.5725520791270904
 40
0.5725520791270904
 40
0.5833549485445827
 40
0.5833549485445827
 40
0.5941578179620749
 40
0.5941578179620749
 40
0.6049606873795672
 40
0.6049606873795672
 40
0.648172165049537
 40
0.648172165049537
 40
0.669777903884522
 40
0.669777903884522
 40
0.6805807733020145
 40
0.6859822080107607
 40
0.6859822080107607
 40
0.6886829253651339
 40
0.6886829253651339
 40
0.6913836427195068
 40
0.6913836427195068
 40
0.7129893815544897
 40
0.7129893815544897
 40
0.7345951203894727
 40
0.7345951203894727
 40
0.7562008592244558
 40
0.7562008592244558
 40
0.7670037286419472
 40
0.7670037286419472
 40
0.7724051633506926
 40
0.7724051633506926
 40
0.7751058807050656
 40
0.7751058807050656
 40
0.7778065980594384
 40
0.7994123368944219
 40
0.7994123368944219
 40
0.8210180757294054
 40
0.8210180757294054
 40
0.842623814564389
 40
0.842623814564389
 40
0.8534266839818809
 40
0.8534266839818809
 40
0.8588281186906269
 40
0.8615288360450003
 40
0.8615288360450003
 40
0.8642295533993736
 40
0.8642295533993736
 40
0.8858352922343627
 40
0.8858352922343627
 40
0.9074410310693519
 40
0.9074410310693519
 40
0.9290467699043411
 40
0.9290467699043411
 40
0.9398496393218357
 40
0.9398496393218357
 40
0.942550356676209
 40
0.942550356676209
 40
0.9452510740305824
 40
0.9452510740305824
 40
0.9506525087393285
 40
0.9506525087393285
 40
0.9722582475743121
 40
0.9722582475743121
 40
0.9830611169918034
 40
0.9830611169918034
 40
0.9938639864092947
 40
0.9938639864092947
 40
1.0
 40
1.0
 40
1.0
 40
1.0
 10
1521.871407692782
 20
1031.881344873168
 30
0.0
 10
1531.971413582879
 20
1031.881344873168
 30
0.0
 10
1542.071419740524
 20
1031.881344873168
 30
0.0
 10
1557.221428146247
 20
1031.881344873168
 30
0.0
 10
1562.271430930991
 20
1031.881344873168
 30
0.0
 10
1568.583935321708
 20
1031.881344873168
 30
0.0
 10
1569.846435752685
 20
1031.881344873168
 30
0.0
 10
1571.424561451243
 20
1031.881344873168
 30
0.0
 10
1571.740186694037
 20
1031.881344873168
 30
0.0
 10
1572.371437737517
 20
1031.881344873168
 30
0.0
 10
1572.687063748318
 20
1031.881344873168
 30
0.0
 10
1573.318313777773
 20
1031.881344873168
 30
0.0
 10
1573.633937753078
 20
1031.881344873168
 30
0.0
 10
1574.265180417332
 20
1031.881344873168
 30
0.0
 10
1574.580799334802
 20
1031.881344873168
 30
0.0
 10
1576.158863671083
 20
1031.881344873168
 30
0.0
 10
1577.421218614591
 20
1031.881344873168
 30
0.0
 10
1579.314244564935
 20
1031.881344873168
 30
0.0
 10
1579.945169428068
 20
1031.881344873168
 30
0.0
 10
1580.891387034945
 20
1031.881344873168
 30
0.0
 10
1581.364453281453
 20
1031.881344873168
 30
0.0
 10
1581.837446825967
 20
1031.881344873168
 30
0.0
 10
1582.073930725993
 20
1031.881344873168
 30
0.0
 10
1582.152737620399
 20
1031.881344873168
 30
0.0
 10
1582.310114621875
 20
1031.881344873168
 30
0.0
 10
1582.388711510407
 20
1031.881344873168
 30
0.0
 10
1583.095240107114
 20
1031.881344873168
 30
0.0
 10
1583.717249295724
 20
1031.881344873168
 30
0.0
 10
1584.947241840901
 20
1031.881344873168
 30
0.0
 10
1585.555281623157
 20
1031.881344873168
 30
0.0
 10
1586.756051995012
 20
1031.881344873168
 30
0.0
 10
1587.348837762339
 20
1031.881344873168
 30
0.0
 10
1588.226002570888
 20
1031.881344873168
 30
0.0
 10
1588.516384909711
 20
1031.881344873168
 30
0.0
 10
1588.948837144241
 20
1031.881344873168
 30
0.0
 10
1589.092467413843
 20
1031.881344873168
 30
0.0
 10
1589.307115555453
 20
1031.881344873168
 30
0.0
 10
1589.37856858643
 20
1031.881344873168
 30
0.0
 10
1589.521035295601
 20
1031.881344873168
 30
0.0
 10
1590.1596166234
 20
1031.881344873168
 30
0.0
 10
1590.775460673673
 20
1031.881344873168
 30
0.0
 10
1591.835777453019
 20
1031.881344873168
 30
0.0
 10
1592.348683981355
 20
1031.881344873168
 30
0.0
 10
1593.340327285706
 20
1031.881344873168
 30
0.0
 10
1593.819021175564
 20
1031.881344873168
 30
0.0
 10
1594.511101365289
 20
1031.881344873168
 30
0.0
 10
1594.737466410726
 20
1031.881344873168
 30
0.0
 10
1595.070429411294
 20
1031.881344873168
 30
0.0
 10
1595.235263950107
 20
1031.881344873168
 30
0.0
 10
1595.397603110056
 20
1031.881344873168
 30
0.0
 10
1595.5052713623
 20
1031.881344873168
 30
0.0
 10
1595.558862022887
 20
1031.881344873168
 30
0.0
 10
1596.037745976983
 20
1031.881344873168
 30
0.0
 10
1596.438660401122
 20
1031.881344873168
 30
0.0
 10
1597.192606823776
 20
1031.881344873168
 30
0.0
 10
1597.545703142378
 20
1031.881344873168
 30
0.0
 10
1598.204902514425
 20
1031.881344873168
 30
0.0
 10
1598.511003752435
 20
1031.881344873168
 30
0.0
 10
1598.934384355081
 20
1031.881344873168
 30
0.0
 10
1599.069547784146
 20
1031.881344873168
 30
0.0
 10
1599.231157933768
 20
1031.881344873168
 30
0.0
 10
1599.263112594736
 20
1031.881344873168
 30
0.0
 10
1599.326289283013
 20
1031.881344873168
 30
0.0
 10
1599.357525978764
 20
1031.881344873168
 30
0.0
 10
1599.449933144016
 20
1031.881344873168
 30
0.0
 10
1599.509856671687
 20
1031.881344873168
 30
0.0
 10
1599.801281127819
 20
1031.881344873168
 30
0.0
 10
1600.008274086605
 20
1031.881344873168
 30
0.0
 10
1600.282724565553
 20
1031.881344873168
 30
0.0
 10
1600.368155326915
 20
1031.881344873168
 30
0.0
 10
1600.527534454456
 20
1031.881344873168
 30
0.0
 10
1600.601515755326
 20
1031.881344873168
 30
0.0
 10
1600.709246309651
 20
1031.881344873168
 30
0.0
 10
1600.746569387417
 20
1031.881344873168
 30
0.0
 10
1600.782267692451
 20
1031.881344873168
 30
0.0
  0
LINE
  5
7D0E
102
{ACAD_REACTORS
330
7F87
102
}
330
A
100
AcDbEntity
  8
HIDDEN
 48
0.25
100
AcDbLine
 10
1560.430660802936
 20
936.0973658022133
 30
-0.0000000000000062
 11
1483.312154615137
 21
936.0973658022133
 31
-0.0000000000000062
  0
LINE
  5
7D0F
102
{ACAD_REACTORS
330
7F87
102
}
330
A
100
AcDbEntity
  8
HIDDEN
 48
0.25
100
AcDbLine
 10
1544.328586399205
 20
922.0143725416722
 30
-0.0000000000000062
 11
1499.414229018878
 21
922.0143725416722
 31
-0.0000000000000062
  0
LINE
  5
7D10
102
{ACAD_REACTORS
330
7F87
102
}
330
A
100
AcDbEntity
  8
HIDDEN
 48
0.25
100
AcDbLine
 10
1543.87140770904
 20
914.8813448731682
 30
-0.0000000000000062
 11
1499.87140770904
 21
914.8813448731682
 31
-0.0000000000000062
  0
SPLINE
  5
7D11
102
{ACAD_REACTORS
330
7F87
102
}
330
A
100
AcDbEntity
  8
HIDDEN
 48
0.25
100
AcDbSpline
210
0.0
220
0.0
230
1.0
 70
     8
 71
     3
 72
    56
 73
    52
 74
     0
 42
0.000000001
 43
0.0000000001
 40
0.0
 40
0.0
 40
0.0
 40
0.0
 40
0.0625
 40
0.0625
 40
0.125
 40
0.125
 40
0.1875
 40
0.1875
 40
0.2500000000000003
 40
0.2500000000000003
 40
0.3125000000000007
 40
0.3125000000000007
 40
0.3281250000000008
 40
0.3281250000000008
 40
0.3437500000000009
 40
0.3437500000000009
 40
0.3750000000000008
 40
0.3750000000000008
 40
0.4375000000000007
 40
0.4375000000000007
 40
0.5000000000000006
 40
0.5000000000000006
 40
0.5625000000000004
 40
0.5625000000000004
 40
0.6250000000000003
 40
0.6250000000000003
 40
0.6562500000000003
 40
0.6562500000000003
 40
0.6718750000000002
 40
0.6718750000000002
 40
0.6875000000000001
 40
0.6875000000000001
 40
0.75
 40
0.75
 40
0.8125
 40
0.8125
 40
0.875
 40
0.875
 40
0.9375
 40
0.9375
 40
0.96875
 40
0.96875
 40
0.984375
 40
0.9921875
 40
0.99609375
 40
0.998046875
 40
0.9990234375
 40
0.99951171875
 40
0.999755859375
 40
0.999755859375
 40
1.0
 40
1.0
 40
1.0
 40
1.0
 10
1478.311069320113
 20
941.6627823323803
 30
-0.0000000000002356
 10
1485.842045003766
 20
941.6152045423671
 30
-0.0000000000000055
 10
1486.362781126702
 20
941.611759845285
 30
-0.0000000000000055
 10
1487.445048623157
 20
941.6050807949807
 30
-0.0000000000000055
 10
1488.006586818893
 20
941.6018556683496
 30
-0.0000000000000055
 10
1489.169962549108
 20
941.5956712903146
 30
-0.0000000000000055
 10
1489.77179713753
 20
941.5927134023816
 30
-0.0000000000000055
 10
1491.015721123006
 20
941.5871280284566
 30
-0.0000000000000055
 10
1491.657819996678
 20
941.5844984314256
 30
-0.0000000000000055
 10
1492.982574846966
 20
941.5794171181417
 30
-0.0000000000000055
 10
1493.665203739641
 20
941.5769328079707
 30
-0.0000000000000055
 10
1494.544411739199
 20
941.5741344356586
 30
-0.0000000000000055
 10
1494.721552000999
 20
941.5735918045987
 30
-0.0000000000000055
 10
1495.078454323509
 20
941.5725519631535
 30
-0.0000000000000055
 10
1495.258241555409
 20
941.5720550344861
 30
-0.0000000000000055
 10
1495.801426540164
 20
941.5706470269154
 30
-0.0000000000000055
 10
1496.166879791889
 20
941.5698258648711
 30
-0.0000000000000055
 10
1497.273118469427
 20
941.5677673972907
 30
-0.0000000000000055
 10
1498.023777732632
 20
941.5669465680851
 30
-0.0000000000000055
 10
1499.550877705696
 20
941.5662640307576
 30
-0.0000000000000055
 10
1500.327312852095
 20
941.5663924913108
 30
-0.0000000000000055
 10
1501.905657663606
 20
941.5674262160694
 30
-0.0000000000000055
 10
1502.707568499186
 20
941.5683342896239
 30
-0.0000000000000055
 10
1504.336871493585
 20
941.5708129742718
 30
-0.0000000000000055
 10
1505.164264202579
 20
941.5723878183865
 30
-0.0000000000000055
 10
1506.424685471363
 20
941.5751745286555
 30
-0.0000000000000055
 10
1506.848049667194
 20
941.5761728522205
 30
-0.0000000000000055
 10
1507.487977768836
 20
941.5777575053883
 30
-0.0000000000000055
 10
1507.70210089967
 20
941.5783000070744
 30
-0.0000000000000055
 10
1508.131983037662
 20
941.5794075908937
 30
-0.0000000000000055
 10
1508.347792853346
 20
941.5799728088398
 30
-0.0000000000000055
 10
1509.430426833947
 20
941.5828379151001
 30
-0.0000000000000055
 10
1510.30087046137
 20
941.5852276476883
 30
-0.0000000000000055
 10
1512.050186040421
 20
941.5898643330158
 30
-0.0000000000000055
 10
1512.929058460278
 20
941.5921115928224
 30
-0.0000000000000055
 10
1514.695104508947
 20
941.596235085047
 30
-0.0000000000000055
 10
1515.582278715533
 20
941.5981122792157
 30
-0.0000000000000055
 10
1517.364900552299
 20
941.601274276037
 30
-0.0000000000000055
 10
1518.260347554379
 20
941.6025563865926
 30
-0.0000000000000055
 10
1519.609772895604
 20
941.6038793388009
 30
-0.0000000000000055
 10
1520.060624633336
 20
941.6042207200092
 30
-0.0000000000000055
 10
1520.73848046052
 20
941.6045669784519
 30
-0.0000000000000055
 10
1521.077803000421
 20
941.6046986777521
 30
-0.0000000000000055
 10
1521.474373568354
 20
941.6047765288979
 30
-0.0000000000000055
 10
1521.672832938663
 20
941.6047961190791
 30
-0.0000000000000055
 10
1521.772106211952
 20
941.6048010330135
 30
-0.0000000000000055
 10
1521.82175375416
 20
941.6048022638727
 30
-0.0000000000000055
 10
1521.846580252723
 20
941.6048025720531
 30
-0.0000000000000055
 10
1521.857220765257
 20
941.6048026382207
 30
-0.0000000000000055
 10
1521.864314570196
 20
941.6048026676665
 30
-0.0000000000000055
 10
1521.867910855583
 20
941.6048026749206
 30
-0.0000000000000055
 10
1521.87140770904
 20
941.6048026751389
 30
-0.0000000000000055
  0
SPLINE
  5
7D12
102
{ACAD_REACTORS
330
7F87
102
}
330
A
100
AcDbEntity
  8
HIDDEN
 48
0.25
100
AcDbSpline
210
0.0
220
0.0
230
1.0
 70
     8
 71
     3
 72
    38
 73
    34
 74
     0
 42
0.000000001
 43
0.0000000001
 40
0.0
 40
0.0
 40
0.0
 40
0.0
 40
0.000244140625
 40
0.000244140625
 40
0.00048828125
 40
0.0009765625
 40
0.001953125
 40
0.00390625
 40
0.0078125
 40
0.0156250000000001
 40
0.0312500000000001
 40
0.0625000000000003
 40
0.0625000000000003
 40
0.1250000000000005
 40
0.1250000000000005
 40
0.2500000000000009
 40
0.2500000000000009
 40
0.3750000000000014
 40
0.3750000000000014
 40
0.4375000000000017
 40
0.4375000000000017
 40
0.4687500000000017
 40
0.4843750000000016
 40
0.4843750000000016
 40
0.5000000000000013
 40
0.5000000000000013
 40
0.625000000000001
 40
0.625000000000001
 40
0.7500000000000006
 40
0.7500000000000006
 40
0.8750000000000003
 40
0.8750000000000003
 40
1.0
 40
1.0
 40
1.0
 40
1.0
 10
1521.87140770904
 20
941.6047725820983
 30
-0.0000000000000055
 10
1521.873799770313
 20
941.6047725821275
 30
-0.0000000000000055
 10
1521.876258305702
 20
941.60477258164
 30
-0.0000000000000055
 10
1521.881109646222
 20
941.6047725789697
 30
-0.0000000000000055
 10
1521.888386556157
 20
941.6047725727706
 30
-0.0000000000000055
 10
1521.905365306894
 20
941.6047725429028
 30
-0.0000000000000055
 10
1521.939319985634
 20
941.6047724217217
 30
-0.0000000000000055
 10
1522.007218055634
 20
941.6047719345163
 30
-0.0000000000000055
 10
1522.142969073261
 20
941.6047699885833
 30
-0.0000000000000055
 10
1522.414290835742
 20
941.6047622736235
 30
-0.0000000000000055
 10
1522.956214951787
 20
941.6047320580922
 30
-0.0000000000000055
 10
1523.419493639608
 20
941.6046825648166
 30
-0.0000000000000055
 10
1524.344426831506
 20
941.6045569116334
 30
-0.0000000000000055
 10
1524.958884105871
 20
941.6044375628055
 30
-0.0000000000000055
 10
1526.795836141798
 20
941.6040123141295
 30
-0.0000000000000055
 10
1528.01192264325
 20
941.6036388468722
 30
-0.0000000000000055
 10
1530.427116572489
 20
941.6029252168967
 30
-0.0000000000000055
 10
1531.626224411207
 20
941.6025893690542
 30
-0.0000000000000055
 10
1533.411973627982
 20
941.6022639466985
 30
-0.0000000000000055
 10
1534.005068576519
 20
941.6021843053834
 30
-0.0000000000000055
 10
1534.891430828672
 20
941.6021226331516
 30
-0.0000000000000055
 10
1535.333791668933
 20
941.6021061547665
 30
-0.0000000000000055
 10
1535.774910288353
 20
941.6021133289771
 30
-0.0000000000000055
 10
1536.068711724517
 20
941.602124072496
 30
-0.0000000000000055
 10
1536.215539140459
 20
941.6021324187034
 30
-0.0000000000000055
 10
1537.534360749348
 20
941.6022372105447
 30
-0.0000000000000055
 10
1538.680707633687
 20
941.6025315411546
 30
-0.0000000000000055
 10
1540.922995541229
 20
941.6037920954343
 30
-0.0000000000000055
 10
1542.018916463988
 20
941.604800267088
 30
-0.0000000000000055
 10
1544.160798986401
 20
941.6076473104924
 30
-0.0000000000000055
 10
1545.206792395012
 20
941.6094007644872
 30
-0.0000000000000055
 10
1547.248154461608
 20
941.6135833390592
 30
-0.0000000000000055
 10
1548.243492144585
 20
941.6160815645865
 30
-0.0000000000000055
 10
1564.962630052546
 20
942.1292713700724
 30
-0.0000000000002356
  0
CIRCLE
  5
7D15
330
A
100
AcDbEntity
  8
MODEL
 48
0.5
100
AcDbCircle
 10
572.4085994266752
 20
1986.215179553531
 30
-0.0000000046240195
 40
38.90796527382839
  0
CIRCLE
  5
7D16
330
A
100
AcDbEntity
  8
MODEL
 48
0.5
100
AcDbCircle
 10
572.4085994266752
 20
1986.215179553531
 30
-0.0000000046240195
 40
22.0
  0
LINE
  5
7D17
102
{ACAD_REACTORS
330
7FA9
102
}
330
A
100
AcDbEntity
  8
MODEL
 48
0.5
100
AcDbLine
 10
797.4085994266752
 20
1819.215179553531
 30
-0.0000000046240195
 11
797.4085994266752
 21
2163.215179553531
 31
-0.0000000046240195
  0
ARC
  5
7D18
330
A
100
AcDbEntity
  8
MODEL
 48
0.5
100
AcDbCircle
 10
794.4085994266752
 20
1819.215179553531
 30
-0.0000000046240195
 40
3.0
100
AcDbArc
 50
270.0
 51
0.0
  0
ARC
  5
7D19
330
A
100
AcDbEntity
  8
MODEL
 48
0.5
100
AcDbCircle
 10
794.4085994266752
 20
2163.215179553531
 30
-0.0000000046240195
 40
3.0
100
AcDbArc
 50
0.0
 51
90.0
  0
LINE
  5
7D1A
330
A
100
AcDbEntity
  8
MODEL
 48
0.5
100
AcDbLine
 10
794.4085994266752
 20
2166.215179553531
 30
-0.0000000046240195
 11
350.4085994266752
 21
2166.215179553531
 31
-0.0000000046240195
  0
ARC
  5
7D1B
330
A
100
AcDbEntity
  8
MODEL
 48
0.5
100
AcDbCircle
 10
350.4085994266752
 20
2163.215179553531
 30
-0.0000000046240195
 40
3.0
100
AcDbArc
 50
90.0
 51
180.0
  0
LINE
  5
7D1C
102
{ACAD_REACTORS
330
7FA9
102
}
330
A
100
AcDbEntity
  8
MODEL
 48
0.5
100
AcDbLine
 10
347.4085994266752
 20
2163.215179553531
 30
-0.0000000046240195
 11
347.4085994266752
 21
1819.215179553531
 31
-0.0000000046240195
  0
ARC
  5
7D1D
330
A
100
AcDbEntity
  8
MODEL
 48
0.5
100
AcDbCircle
 10
350.4085994266752
 20
1819.215179553531
 30
-0.0000000046240195
 40
3.0
100
AcDbArc
 50
180.0
 51
270.0
  0
LINE
  5
7D1E
330
A
100
AcDbEntity
  8
MODEL
 48
0.5
100
AcDbLine
 10
350.4085994266752
 20
1816.215179553531
 30
-0.0000000046240195
 11
794.4085994266752
 21
1816.215179553531
 31
-0.0000000046240195
  0
SPLINE
  5
7D1F
330
A
100
AcDbEntity
  8
MODEL
 48
0.5
100
AcDbSpline
210
0.0
220
0.0
230
1.0
 70
     8
 71
     3
 72
    53
 73
    49
 74
     0
 42
0.000000001
 43
0.0000000001
 40
0.0
 40
0.0
 40
0.0
 40
0.0
 40
0.03125
 40
0.0625
 40
0.125
 40
0.1874999999999999
 40
0.25
 40
0.3125
 40
0.3437499999999999
 40
0.375
 40
0.40625
 40
0.4375
 40
0.4531250000000001
 40
0.4687500000000001
 40
0.4843750000000002
 40
0.5
 40
0.5078125
 40
0.515625
 40
0.5234375
 40
0.53125
 40
0.5390625
 40
0.546875
 40
0.5546875
 40
0.5625
 40
0.5703125
 40
0.578125
 40
0.5859375
 40
0.59375
 40
0.6015625
 40
0.609375
 40
0.6171875
 40
0.625
 40
0.6328125
 40
0.640625
 40
0.6484375
 40
0.65625
 40
0.671875
 40
0.6875
 40
0.703125
 40
0.71875
 40
0.734375
 40
0.75
 40
0.78125
 40
0.8125
 40
0.84375
 40
0.875
 40
0.9375
 40
1.0
 40
1.0
 40
1.0
 40
1.0
 10
572.4085994266752
 20
1823.515179553527
 30
-0.0000000046240195
 10
568.5373430548607
 20
1823.515179553527
 30
-0.0000000046240195
 10
560.7948302960831
 20
1823.515180500867
 30
-0.0000000046240195
 10
545.3098047162239
 20
1823.515182905437
 30
-0.0000000046240195
 10
525.9535226215557
 20
1823.515180718276
 30
-0.0000000046240195
 10
502.7259839063445
 20
1823.515150108432
 30
-0.0000000046240195
 10
479.4984457892533
 20
1823.51516162461
 30
-0.0000000046240195
 10
460.1421651898527
 20
1823.515264752513
 30
-0.0000000046240195
 10
444.6571398178457
 20
1823.5152738077
 30
-0.0000000046240195
 10
433.0433699447349
 20
1823.515211484081
 30
-0.0000000046240195
 10
421.4295988296617
 20
1823.515047654007
 30
-0.0000000046240195
 10
411.7514564444828
 20
1823.514925280672
 30
-0.0000000046240195
 10
404.0089434101355
 20
1823.514895117299
 30
-0.0000000046240195
 10
398.2020592581357
 20
1823.514921173482
 30
-0.0000000046240195
 10
392.3951759167358
 20
1823.515010719441
 30
-0.0000000046240195
 10
387.5561072967866
 20
1823.515150591777
 30
-0.0000000046240195
 10
383.6848529929666
 20
1823.5153090456
 30
-0.0000000046240195
 10
380.7814081633223
 20
1823.522071700488
 30
-0.0000000046240195
 10
377.8781065572948
 20
1823.556806997166
 30
-0.0000000046240195
 10
374.976248219722
 20
1823.66526667328
 30
-0.0000000046240195
 10
372.0824104068415
 20
1823.921450793462
 30
-0.0000000046240195
 10
369.2205307767108
 20
1824.43626217293
 30
-0.0000000046240195
 10
366.4466324571222
 20
1825.319713297092
 30
-0.0000000046240195
 10
363.8406354680155
 20
1826.621373200137
 30
-0.0000000046240195
 10
361.4825450524477
 20
1828.331262875748
 30
-0.0000000046240195
 10
359.4301230599121
 20
1830.398637834812
 30
-0.0000000046240195
 10
357.741131339837
 20
1832.772753588232
 30
-0.0000000046240195
 10
356.4757996126973
 20
1835.397307464434
 30
-0.0000000046240195
 10
355.6442828741383
 20
1838.187105578399
 30
-0.0000000046240195
 10
355.1684402347491
 20
1841.055150523559
 30
-0.0000000046240195
 10
354.9224923694528
 20
1843.949300089228
 30
-0.0000000046240195
 10
354.800502664355
 20
1846.850523855798
 30
-0.0000000046240195
 10
354.7433523410837
 20
1849.753485970798
 30
-0.0000000046240195
 10
354.719201126758
 20
1852.656844343298
 30
-0.0000000046240195
 10
354.7100544606765
 20
1855.560267399723
 30
-0.0000000046240195
 10
354.7083301188723
 20
1859.431537370677
 30
-0.0000000046240195
 10
354.7079303697064
 20
1864.27061023351
 30
-0.0000000046240195
 10
354.7086489340545
 20
1870.077487946374
 30
-0.0000000046240195
 10
354.7089549401608
 20
1875.884369575545
 30
-0.0000000046240195
 10
354.7089688506057
 20
1881.691253985121
 30
-0.0000000046240195
 10
354.7088111280209
 20
1887.498140039209
 30
-0.0000000046240195
 10
354.7085326039778
 20
1895.240655456152
 30
-0.0000000046240195
 10
354.7083576793484
 20
1904.918798159156
 30
-0.0000000046240195
 10
354.7083404697805
 20
1916.532567622769
 30
-0.0000000046240195
 10
354.7084314915737
 20
1928.146336035518
 30
-0.0000000046240195
 10
354.7085845375805
 20
1943.631360156821
 30
-0.0000000046240195
 10
354.7086240802419
 20
1962.987641326817
 30
-0.0000000046240195
 10
354.7085994266781
 20
1978.472666809949
 30
-0.0000000046240195
 10
354.7085994266781
 20
1986.215179553531
 30
-0.0000000046240195
  0
SPLINE
  5
7D20
330
A
100
AcDbEntity
  8
MODEL
 48
0.5
100
AcDbSpline
210
0.0
220
0.0
230
1.0
 70
     8
 71
     3
 72
    53
 73
    49
 74
     0
 42
0.000000001
 43
0.0000000001
 40
0.0
 40
0.0
 40
0.0
 40
0.0
 40
0.03125
 40
0.0625
 40
0.125
 40
0.1874999999999999
 40
0.25
 40
0.3125
 40
0.3437499999999999
 40
0.375
 40
0.40625
 40
0.4375
 40
0.4531250000000001
 40
0.4687500000000001
 40
0.4843750000000002
 40
0.5
 40
0.5078125
 40
0.515625
 40
0.5234375
 40
0.53125
 40
0.5390625
 40
0.546875
 40
0.5546875
 40
0.5625
 40
0.5703125
 40
0.578125
 40
0.5859375
 40
0.59375
 40
0.6015625
 40
0.609375
 40
0.6171875
 40
0.625
 40
0.6328125
 40
0.640625
 40
0.6484375
 40
0.65625
 40
0.671875
 40
0.6875
 40
0.703125
 40
0.71875
 40
0.734375
 40
0.75
 40
0.78125
 40
0.8125
 40
0.84375
 40
0.875
 40
0.9375
 40
1.0
 40
1.0
 40
1.0
 40
1.0
 10
572.4085994266752
 20
1823.515179553527
 30
-0.0000000046240195
 10
576.2798557984825
 20
1823.515179553527
 30
-0.0000000046240195
 10
584.0223685572673
 20
1823.515180500867
 30
-0.0000000046240195
 10
599.5073941371193
 20
1823.515182905437
 30
-0.0000000046240195
 10
618.8636762317947
 20
1823.515180718276
 30
-0.0000000046240195
 10
642.0912149470059
 20
1823.515150108432
 30
-0.0000000046240195
 10
665.3187530641044
 20
1823.51516162461
 30
-0.0000000046240195
 10
684.6750336634977
 20
1823.515264752513
 30
-0.0000000046240195
 10
700.1600590355047
 20
1823.5152738077
 30
-0.0000000046240195
 10
711.7738289086155
 20
1823.515211484081
 30
-0.0000000046240195
 10
723.3876000236814
 20
1823.515047654007
 30
-0.0000000046240195
 10
733.0657424088677
 20
1823.514925280672
 30
-0.0000000046240195
 10
740.8082554432076
 20
1823.514895117299
 30
-0.0000000046240195
 10
746.6151395952147
 20
1823.514921173482
 30
-0.0000000046240195
 10
752.4220229366074
 20
1823.515010719441
 30
-0.0000000046240195
 10
757.2610915565638
 20
1823.515150591777
 30
-0.0000000046240195
 10
761.1323458603765
 20
1823.5153090456
 30
-0.0000000046240195
 10
764.0357906900281
 20
1823.522071700488
 30
-0.0000000046240195
 10
766.9390922960556
 20
1823.556806997166
 30
-0.0000000046240195
 10
769.8409506336357
 20
1823.66526667328
 30
-0.0000000046240195
 10
772.7347884465162
 20
1823.921450793462
 30
-0.0000000046240195
 10
775.5966680766323
 20
1824.43626217293
 30
-0.0000000046240195
 10
778.3705663962355
 20
1825.319713297092
 30
-0.0000000046240195
 10
780.9765633853349
 20
1826.621373200137
 30
-0.0000000046240195
 10
783.3346538008955
 20
1828.331262875748
 30
-0.0000000046240195
 10
785.3870757934455
 20
1830.398637834812
 30
-0.0000000046240195
 10
787.0760675135061
 20
1832.772753588232
 30
-0.0000000046240195
 10
788.3413992406531
 20
1835.397307464434
 30
-0.0000000046240195
 10
789.1729159792048
 20
1838.187105578399
 30
-0.0000000046240195
 10
789.6487586186086
 20
1841.055150523559
 30
-0.0000000046240195
 10
789.8947064838976
 20
1843.949300089228
 30
-0.0000000046240195
 10
790.0166961889954
 20
1846.850523855798
 30
-0.0000000046240195
 10
790.0738465122595
 20
1849.753485970798
 30
-0.0000000046240195
 10
790.0979977265924
 20
1852.656844343298
 30
-0.0000000046240195
 10
790.107144392674
 20
1855.560267399723
 30
-0.0000000046240195
 10
790.1088687344782
 20
1859.431537370677
 30
-0.0000000046240195
 10
790.1092684836367
 20
1864.27061023351
 30
-0.0000000046240195
 10
790.1085499192886
 20
1870.077487946374
 30
-0.0000000046240195
 10
790.1082439131897
 20
1875.884369575545
 30
-0.0000000046240195
 10
790.1082300027301
 20
1881.691253985121
 30
-0.0000000046240195
 10
790.1083877253222
 20
1887.498140039209
 30
-0.0000000046240195
 10
790.1086662493581
 20
1895.240655456152
 30
-0.0000000046240195
 10
790.108841174002
 20
1904.918798159156
 30
-0.0000000046240195
 10
790.1088583835626
 20
1916.532567622769
 30
-0.0000000046240195
 10
790.1087673617694
 20
1928.146336035518
 30
-0.0000000046240195
 10
790.10861431577
 20
1943.631360156821
 30
-0.0000000046240195
 10
790.1085747731086
 20
1962.987641326817
 30
-0.0000000046240195
 10
790.1085994266723
 20
1978.472666809949
 30
-0.0000000046240195
 10
790.1085994266723
 20
1986.215179553531
 30
-0.0000000046240195
  0
SPLINE
  5
7D21
330
A
100
AcDbEntity
  8
MODEL
 48
0.5
100
AcDbSpline
210
0.0
220
0.0
230
1.0
 70
     8
 71
     3
 72
    46
 73
    42
 74
     0
 42
0.000000001
 43
0.0000000001
 40
0.0
 40
0.0
 40
0.0
 40
0.0
 40
0.03125
 40
0.0625
 40
0.09375
 40
0.125
 40
0.140625
 40
0.15625
 40
0.171875
 40
0.1796875
 40
0.1875
 40
0.203125
 40
0.2109375
 40
0.21875
 40
0.2265625
 40
0.234375
 40
0.25
 40
0.265625
 40
0.2734375
 40
0.28125
 40
0.2890625
 40
0.296875
 40
0.3046875
 40
0.3125
 40
0.3203125
 40
0.328125
 40
0.3359375
 40
0.34375
 40
0.359375
 40
0.375
 40
0.390625
 40
0.40625
 40
0.4375
 40
0.46875
 40
0.5
 40
0.5625
 40
0.625
 40
0.6875
 40
0.75
 40
0.875
 40
1.0
 40
1.0
 40
1.0
 40
1.0
 10
790.1085994266723
 20
1986.215179553531
 30
-0.0000000046240195
 10
790.1085994266723
 20
1989.194063819595
 30
-0.0000000046240195
 10
790.108605529229
 20
1995.151828996403
 30
-0.0000000046240195
 10
790.1086195637072
 20
2004.088474429444
 30
-0.0000000046240195
 10
790.108625051751
 20
2013.025125264109
 30
-0.0000000046240195
 10
790.1086113139063
 20
2020.472345239187
 30
-0.0000000046240195
 10
790.1085826233575
 20
2026.430131653854
 30
-0.0000000046240195
 10
790.1085858428523
 20
2030.898449857846
 30
-0.0000000046240195
 10
790.1086371298552
 20
2034.622008001726
 30
-0.0000000046240195
 10
790.1081649097723
 20
2037.600811674117
 30
-0.0000000046240195
 10
790.0798166069326
 20
2040.579626412163
 30
-0.0000000046240195
 10
789.9683533055322
 20
2043.55851718987
 30
-0.0000000046240195
 10
789.6167570289726
 20
2046.518390330856
 30
-0.0000000046240195
 10
789.1779210588466
 20
2048.711343665439
 30
-0.0000000046240195
 10
788.5215585931401
 20
2050.850347054514
 30
-0.0000000046240195
 10
787.3270186543486
 20
2053.585052322141
 30
-0.0000000046240195
 10
785.220854583542
 20
2056.690461295078
 30
-0.0000000046240195
 10
782.4107315751353
 20
2059.178109319698
 30
-0.0000000046240195
 10
779.8454506692105
 20
2060.70397031119
 30
-0.0000000046240195
 10
777.7955368637959
 20
2061.6025830631
 30
-0.0000000046240195
 10
775.6563984494678
 20
2062.258614513466
 30
-0.0000000046240195
 10
773.4632793452074
 20
2062.696661785284
 30
-0.0000000046240195
 10
771.2436861230926
 20
2062.961551050302
 30
-0.0000000046240195
 10
769.0137890708029
 20
2063.107947489962
 30
-0.0000000046240195
 10
766.7809077267993
 20
2063.18102979302
 30
-0.0000000046240195
 10
764.5466009183474
 20
2063.208029379114
 30
-0.0000000046240195
 10
762.3124274726979
 20
2063.21617766789
 30
-0.0000000046240195
 10
759.3336023694101
 20
2063.214838229221
 30
-0.0000000046240195
 10
755.6100106741251
 20
2063.214527835308
 30
-0.0000000046240195
 10
751.1416575753647
 20
2063.215128981693
 30
-0.0000000046240195
 10
746.6733148535895
 20
2063.215495119169
 30
-0.0000000046240195
 10
740.71553556246
 20
2063.215734891691
 30
-0.0000000046240195
 10
733.2683267731882
 20
2063.215690589247
 30
-0.0000000046240195
 10
724.3316837569182
 20
2063.215476604061
 30
-0.0000000046240195
 10
712.4161623602886
 20
2063.215137138121
 30
-0.0000000046240195
 10
697.521751631346
 20
2063.214911789949
 30
-0.0000000046240195
 10
679.6484485083674
 20
2063.214866379497
 30
-0.0000000046240195
 10
661.7751392619211
 20
2063.214952608959
 30
-0.0000000046240195
 10
637.9440576017478
 20
2063.215118611514
 30
-0.0000000046240195
 10
608.1552108417782
 20
2063.215188377234
 30
-0.0000000046240195
 10
584.32413649093
 20
2063.215179553527
 30
-0.0000000046240195
 10
572.4085994266752
 20
2063.215179553527
 30
-0.0000000046240195
  0
SPLINE
  5
7D22
330
A
100
AcDbEntity
  8
MODEL
 48
0.5
100
AcDbSpline
210
0.0
220
0.0
230
1.0
 70
     8
 71
     3
 72
    46
 73
    42
 74
     0
 42
0.000000001
 43
0.0000000001
 40
0.0
 40
0.0
 40
0.0
 40
0.0
 40
0.125
 40
0.25
 40
0.3125
 40
0.375
 40
0.4375
 40
0.5
 40
0.53125
 40
0.5625
 40
0.59375
 40
0.609375
 40
0.625
 40
0.640625
 40
0.65625
 40
0.6640625
 40
0.671875
 40
0.6796875
 40
0.6875
 40
0.6953125
 40
0.703125
 40
0.7109375
 40
0.71875
 40
0.7265625
 40
0.734375
 40
0.75
 40
0.765625
 40
0.7734375
 40
0.78125
 40
0.7890625
 40
0.796875
 40
0.8125
 40
0.8203125
 40
0.828125
 40
0.84375
 40
0.859375
 40
0.875
 40
0.90625
 40
0.9375
 40
0.96875
 40
1.0
 40
1.0
 40
1.0
 40
1.0
 10
572.4085994266752
 20
2063.215179553527
 30
-0.0000000046240195
 10
560.4930623624132
 20
2063.215179553527
 30
-0.0000000046240195
 10
536.6619880115722
 20
2063.215188377234
 30
-0.0000000046240195
 10
506.8731412516099
 20
2063.215118611514
 30
-0.0000000046240195
 10
483.0420595914293
 20
2063.214952608959
 30
-0.0000000046240195
 10
465.168750344983
 20
2063.214866379497
 30
-0.0000000046240195
 10
447.2954472219972
 20
2063.214911789949
 30
-0.0000000046240195
 10
432.4010364930691
 20
2063.215137138121
 30
-0.0000000046240195
 10
420.4855150964322
 20
2063.215476604061
 30
-0.0000000046240195
 10
411.548872080155
 20
2063.215690589247
 30
-0.0000000046240195
 10
404.1016632908832
 20
2063.215734891691
 30
-0.0000000046240195
 10
398.1438839997536
 20
2063.215495119169
 30
-0.0000000046240195
 10
393.6755412779858
 20
2063.215128981693
 30
-0.0000000046240195
 10
389.2071881792253
 20
2063.214527835308
 30
-0.0000000046240195
 10
385.4835964839476
 20
2063.214838229221
 30
-0.0000000046240195
 10
382.5047713806453
 20
2063.21617766789
 30
-0.0000000046240195
 10
380.270597935003
 20
2063.208029379114
 30
-0.0000000046240195
 10
378.0362911265438
 20
2063.18102979302
 30
-0.0000000046240195
 10
375.8034097825475
 20
2063.107947489962
 30
-0.0000000046240195
 10
373.5735127302651
 20
2062.961551050302
 30
-0.0000000046240195
 10
371.3539195081503
 20
2062.696661785284
 30
-0.0000000046240195
 10
369.1608004038826
 20
2062.258614513466
 30
-0.0000000046240195
 10
367.0216619895546
 20
2061.6025830631
 30
-0.0000000046240195
 10
364.9717481841471
 20
2060.70397031119
 30
-0.0000000046240195
 10
362.4064672782151
 20
2059.178109319698
 30
-0.0000000046240195
 10
359.5963442698085
 20
2056.690461295078
 30
-0.0000000046240195
 10
357.4901801990018
 20
2053.585052322141
 30
-0.0000000046240195
 10
356.2956402602103
 20
2050.850347054514
 30
-0.0000000046240195
 10
355.6392777944966
 20
2048.711343665439
 30
-0.0000000046240195
 10
355.2004418243705
 20
2046.518390330856
 30
-0.0000000046240195
 10
354.8488455478109
 20
2043.55851718987
 30
-0.0000000046240195
 10
354.7373822464251
 20
2040.579626412163
 30
-0.0000000046240195
 10
354.7090339435781
 20
2037.600811674117
 30
-0.0000000046240195
 10
354.7085617234952
 20
2034.622008001726
 30
-0.0000000046240195
 10
354.7086130104981
 20
2030.898449857846
 30
-0.0000000046240195
 10
354.7086162299784
 20
2026.430131653854
 30
-0.0000000046240195
 10
354.7085875394441
 20
2020.472345239187
 30
-0.0000000046240195
 10
354.7085738015921
 20
2013.025125264109
 30
-0.0000000046240195
 10
354.7085792896432
 20
2004.088474429444
 30
-0.0000000046240195
 10
354.7085933241142
 20
1995.151828996403
 30
-0.0000000046240195
 10
354.7085994266781
 20
1989.194063819595
 30
-0.0000000046240195
 10
354.7085994266781
 20
1986.215179553531
 30
-0.0000000046240195
  0
LINE
  5
7D24
102
{ACAD_REACTORS
330
7F87
102
}
330
A
100
AcDbEntity
  8
HIDDEN
 48
0.25
100
AcDbLine
 10
1543.871407709042
 20
914.8813448731682
 30
-0.0000000000000062
 11
1543.972054610619
 21
920.6474020030084
 31
-0.0000000000000062
  0
LINE
  5
7D25
102
{ACAD_REACTORS
330
7F87
102
}
330
A
100
AcDbEntity
  8
HIDDEN
 48
0.25
100
AcDbLine
 10
1545.043234867027
 20
922.8931781130607
 30
-0.0000000000000062
 11
1559.330175672007
 21
934.8813448731682
 31
-0.0000000000000062
  0
LINE
  5
7D26
102
{ACAD_REACTORS
330
7F87
102
}
330
A
100
AcDbEntity
  8
HIDDEN
 48
0.25
100
AcDbLine
 10
1561.269004971623
 20
937.9246972612684
 30
-0.0000000000000062
 11
1561.449928567244
 21
938.5999133124217
 31
-0.0000000000000062
  0
LINE
  5
7D27
330
A
100
AcDbEntity
  8
MODEL
 48
0.5
100
AcDbLine
 10
1601.620420103883
 20
1031.881344873168
 30
-0.0000000000000062
 11
1698.871407709042
 21
1031.881344873168
 31
-0.0000000000000062
  0
LINE
  5
7D29
330
A
100
AcDbEntity
  8
MODEL
 48
0.5
100
AcDbLine
 10
1701.871407709038
 20
1028.881344873168
 30
-0.0000000000000062
 11
1701.871407709038
 21
961.0288638371069
 31
-0.0000000000000062
  0
LINE
  5
7D3A
102
{ACAD_REACTORS
330
7F87
102
}
330
A
100
AcDbEntity
  8
HIDDEN
 48
0.25
100
AcDbLine
 10
1482.452434095002
 20
938.0044748909579
 30
-0.0000000000000062
 11
1482.47381044645
 21
937.9246972612684
 31
-0.0000000000000062
  0
LINE
  5
7D3B
102
{ACAD_REACTORS
330
7F87
102
}
330
A
100
AcDbEntity
  8
HIDDEN
 48
0.25
100
AcDbLine
 10
1484.412639746065
 20
934.8813448731682
 30
-0.0000000000000062
 11
1498.699580551046
 21
922.8931781130607
 31
-0.0000000000000062
  0
LINE
  5
7D3C
102
{ACAD_REACTORS
330
7F87
102
}
330
A
100
AcDbEntity
  8
HIDDEN
 48
0.25
100
AcDbLine
 10
1499.770760807457
 20
920.6474020030084
 30
-0.0000000000000062
 11
1499.871407709038
 21
914.8813448731682
 31
-0.0000000000000062
  0
LINE
  5
7D45
330
A
100
AcDbEntity
  8
MODEL
 48
0.5
100
AcDbLine
 10
1365.27805851002
 20
911.8813448731682
 30
-0.0000000000000062
 11
1359.982596084826
 21
911.8813448731682
 31
-0.0000000000000062
  0
LINE
  5
7D46
330
A
100
AcDbEntity
  8
MODEL
 48
0.5
100
AcDbLine
 10
1356.985451420079
 20
914.7504867110704
 30
-0.0000000000000062
 11
1352.008103928508
 21
1028.750486711078
 31
-0.0000000000000062
  0
LINE
  5
7D48
330
A
100
AcDbEntity
  8
MODEL
 48
0.5
100
AcDbLine
 10
1355.005248593255
 20
1031.881344873168
 30
-0.0000000000000062
 11
1357.370546341453
 21
1031.881344873168
 31
-0.0000000000000062
  0
ARC
  5
7D4C
102
{ACAD_REACTORS
330
7F87
102
}
330
A
100
AcDbEntity
  8
HIDDEN
 48
0.25
100
AcDbCircle
 10
1546.971597696088
 20
920.5950447837033
 30
-0.0000000000002356
 40
3.0
100
AcDbArc
 50
130.0000000000426
 51
179.0000000000415
  0
ARC
  5
7D4D
102
{ACAD_REACTORS
330
7F87
102
}
330
A
100
AcDbEntity
  8
HIDDEN
 48
0.25
100
AcDbCircle
 10
1555.473450013888
 20
939.4776115318757
 30
0.0000000000002231
 40
6.000000000000001
100
AcDbArc
 50
310.000000000042
 51
345.000000000035
  0
ARC
  5
7D4E
102
{ACAD_REACTORS
330
7F87
102
}
330
A
100
AcDbEntity
  8
HIDDEN
 48
0.25
100
AcDbCircle
 10
1566.279557698691
 20
937.3058180869132
 30
-0.0000000000002356
 40
5.0
100
AcDbArc
 50
105.2710427286294
 51
165.000000000041
  0
ARC
  5
7D4F
102
{ACAD_REACTORS
330
7F87
102
}
330
A
100
AcDbEntity
  8
HIDDEN
 48
0.25
100
AcDbCircle
 10
1601.620420103883
 20
1028.881344873168
 30
-0.0000000000002356
 40
3.0
100
AcDbArc
 50
90.0
 51
175.0010750282719
  0
ARC
  5
7D50
330
A
100
AcDbEntity
  8
MODEL
 48
0.5
100
AcDbCircle
 10
1698.871407709042
 20
1028.881344873168
 30
-0.0000000000002356
 40
3.0
100
AcDbArc
 50
0.0
 51
90.0
  0
ARC
  5
7D5C
102
{ACAD_REACTORS
330
7F87
102
}
330
A
100
AcDbEntity
  8
HIDDEN
 48
0.25
100
AcDbCircle
 10
1477.622804963558
 20
936.7103796654421
 30
-0.0000000000002356
 40
5.0
100
AcDbArc
 50
14.99999999996155
 51
84.84423546396631
  0
ARC
  5
7D5D
102
{ACAD_REACTORS
330
7F87
102
}
330
A
100
AcDbEntity
  8
HIDDEN
 48
0.25
100
AcDbCircle
 10
1488.269365404188
 20
939.4776115318757
 30
0.0000000000002231
 40
6.000000000000001
100
AcDbArc
 50
194.999999999967
 51
229.9999999999614
  0
ARC
  5
7D5E
102
{ACAD_REACTORS
330
7F87
102
}
330
A
100
AcDbEntity
  8
HIDDEN
 48
0.25
100
AcDbCircle
 10
1496.771217721985
 20
920.5950447837033
 30
-0.0000000000002356
 40
3.0
100
AcDbArc
 50
0.9999999999409757
 51
49.99999999995737
  0
ARC
  5
7D66
330
A
100
AcDbEntity
  8
MODEL
 48
0.5
100
AcDbCircle
 10
1359.982596084826
 20
914.8813448731682
 30
-0.0000000000002356
 40
3.0
100
AcDbArc
 50
182.5000000000181
 51
270.0
  0
ARC
  5
7D67
330
A
100
AcDbEntity
  8
MODEL
 48
0.5
100
AcDbCircle
 10
1355.005248593255
 20
1028.881344873168
 30
-0.0000000000002356
 40
3.0
100
AcDbArc
 50
90.0
 51
182.5000000000181
  0
ARC
  5
7D68
102
{ACAD_REACTORS
330
7F87
102
}
330
A
100
AcDbEntity
  8
HIDDEN
 48
0.25
100
AcDbCircle
 10
1357.370546341453
 20
1028.881344873168
 30
-0.0000000000002356
 40
3.0
100
AcDbArc
 50
28.09560027956048
 51
90.0
  0
SPLINE
  5
7D6B
102
{ACAD_REACTORS
330
7F87
102
}
330
A
100
AcDbEntity
  8
HIDDEN
 48
0.25
100
AcDbSpline
210
0.0
220
0.0
230
1.0
 70
     8
 71
     3
 72
    36
 73
    32
 74
     0
 42
0.000000001
 43
0.0000000001
 40
0.0
 40
0.0
 40
0.0
 40
0.0
 40
0.0226329208407543
 40
0.089191624921674
 40
0.1557503290025937
 40
0.1890296810430536
 40
0.2223090330835134
 40
0.2555883851239733
 40
0.2722280611442032
 40
0.2888677371644331
 40
0.3055074131846631
 40
0.322147089204893
 40
0.3554264412453528
 40
0.3887057932858127
 40
0.4219851453262725
 40
0.4386248213465025
 40
0.4552644973667324
 40
0.4885438494071923
 40
0.5218232014476522
 40
0.555102553488112
 40
0.5883819055285718
 40
0.6216612575690317
 40
0.6549406096094915
 40
0.6715802856297214
 40
0.7214993136904113
 40
0.754778665730871
 40
0.771418341751101
 40
0.8213373698117908
 40
0.8878960738927105
 40
0.9211754259331704
 40
1.0
 40
1.0
 40
1.0
 40
1.0
 10
1564.96263005255
 20
942.1292713700761
 30
-0.0000000000000062
 10
1565.436567390568
 20
942.2586685356157
 30
-0.0000000000000062
 10
1567.300351769049
 20
942.7704134767639
 30
-0.0000000000000062
 10
1570.51617850236
 20
943.6755880950452
 30
-0.0000000000000062
 10
1573.956408756389
 20
944.7155385227027
 30
-0.0000000000000062
 10
1576.754041621335
 20
945.6504223905442
 30
-0.0000000000000062
 10
1578.88004679895
 20
946.4307706836128
 30
-0.0000000000000062
 10
1580.678340947762
 20
947.1839735412807
 30
-0.0000000000000062
 10
1582.127350093514
 20
947.8854387028707
 30
-0.0000000000000062
 10
1583.214159441956
 20
948.4735606919942
 30
-0.0000000000000062
 10
1584.290325416642
 20
949.1397127095272
 30
-0.0000000000000062
 10
1585.695327606268
 20
950.1580505220711
 30
-0.0000000000000062
 10
1587.352286250615
 20
951.7060818581315
 30
-0.0000000000000062
 10
1589.01831846816
 20
954.1169703337957
 30
-0.0000000000000062
 10
1590.090771224238
 20
956.5399879552144
 30
-0.0000000000000062
 10
1590.800911083335
 20
958.6952875228901
 30
-0.0000000000000062
 10
1591.429324027163
 20
960.9929280328445
 30
-0.0000000000000062
 10
1592.083431149637
 20
964.0826283521467
 30
-0.0000000000000062
 10
1592.725036983972
 20
967.9797031068385
 30
-0.0000000000000062
 10
1593.267064001529
 20
972.0062514096874
 30
-0.0000000000000062
 10
1593.753989900558
 20
976.1187494788403
 30
-0.0000000000000062
 10
1594.204172568535
 20
980.295145853933
 30
-0.0000000000000062
 10
1594.558088615705
 20
983.8075698128753
 30
-0.0000000000000062
 10
1594.969608166231
 20
988.044829317246
 30
-0.0000000000000062
 10
1595.36722680161
 20
992.3075645620277
 30
-0.0000000000000062
 10
1595.758234894257
 20
996.5933616384802
 30
-0.0000000000000062
 10
1596.145751600198
 20
1000.889045625963
 30
-0.0000000000000062
 10
1596.656906239777
 20
1006.630664417878
 30
-0.0000000000000062
 10
1597.227573548867
 20
1013.108643660352
 30
-0.0000000000000062
 10
1597.906734203302
 20
1020.851623163196
 30
-0.0000000000000062
 10
1598.33234170462
 20
1025.718836613321
 30
-0.0000000000000062
 10
1598.631831104279
 20
1029.142756027207
 30
-0.0000000000000062
  0
SPLINE
  5
7D73
102
{ACAD_REACTORS
330
7F87
102
}
330
A
100
AcDbEntity
  8
HIDDEN
 48
0.25
100
AcDbSpline
210
0.0
220
0.0
230
1.0
 70
     8
 71
     3
 72
    38
 73
    34
 74
     0
 42
0.000000001
 43
0.0000000001
 40
0.0
 40
0.0
 40
0.0
 40
0.0
 40
0.0546676680643949
 40
0.1192286066249863
 40
0.1837895451855777
 40
0.2160700144658733
 40
0.248350483746169
 40
0.2887010703465386
 40
0.3129114223067604
 40
0.3290516569469082
 40
0.3694022435472779
 40
0.3774723608673518
 40
0.4097528301476475
 40
0.4339631821078692
 40
0.4420332994279432
 40
0.458173534068091
 40
0.4743137687082388
 40
0.4823838860283127
 40
0.5065942379885345
 40
0.5388747072688301
 40
0.5711551765491258
 40
0.6034356458294216
 40
0.6357161151097173
 40
0.6841368190301608
 40
0.7002770536703086
 40
0.7325575229506043
 40
0.7809782268710478
 40
0.8293989307914914
 40
0.8778196347119349
 40
0.9262403386323784
 40
0.9504506905926001
 40
0.9746610425528219
 40
1.0
 40
1.0
 40
1.0
 40
1.0
 10
1360.01703543816
 20
1030.294177298137
 30
-0.0000000000000062
 10
1361.577022358947
 20
1027.372041378877
 30
-0.0000000000000062
 10
1365.008863255849
 20
1021.014711147386
 30
-0.0000000000000062
 10
1370.424697043507
 20
1011.27962426375
 30
-0.0000000000000062
 10
1375.329945829269
 20
1002.804963876371
 30
-0.0000000000000062
 10
1379.372590636156
 20
996.098101826313
 30
-0.0000000000000062
 10
1382.731805228957
 20
990.6998632100742
 30
-0.0000000000000062
 10
1385.920860145472
 20
985.7819897996826
 30
-0.0000000000000062
 10
1388.662261419698
 20
981.7511125313115
 30
-0.0000000000000062
 10
1391.462150702625
 20
977.7751496673384
 30
-0.0000000000000062
 10
1393.772148108722
 20
974.6654978709932
 30
-0.0000000000000062
 10
1396.756018912173
 20
970.889836881078
 30
-0.0000000000000062
 10
1399.209184654069
 20
967.9519350243947
 30
-0.0000000000000062
 10
1401.764718538762
 20
965.1761671256911
 30
-0.0000000000000062
 10
1403.728483580156
 20
963.1824559231547
 30
-0.0000000000000062
 10
1405.393664726865
 20
961.5803877113151
 30
-0.0000000000000062
 10
1407.095349673496
 20
960.0691115964667
 30
-0.0000000000000062
 10
1409.165685873902
 20
958.34752926857
 30
-0.0000000000000062
 10
1411.972275725559
 20
956.2244481419705
 30
-0.0000000000000062
 10
1415.922695188828
 20
953.7518609889096
 30
-0.0000000000000062
 10
1420.253116791956
 20
951.6100663838381
 30
-0.0000000000000062
 10
1424.549865782196
 20
949.9412818507856
 30
-0.0000000000000062
 10
1429.490625851156
 20
948.412989033802
 30
-0.0000000000000062
 10
1433.646858259385
 20
947.4246570758562
 30
-0.0000000000000062
 10
1437.790486921288
 20
946.5892551606314
 30
-0.0000000000000062
 10
1441.93196889386
 20
945.8513454515353
 30
-0.0000000000000062
 10
1447.482234106255
 20
945.009417929404
 30
-0.0000000000000062
 10
1453.836154156496
 20
944.184378077721
 30
-0.0000000000000062
 10
1460.385734058597
 20
943.4294109552004
 30
-0.0000000000000062
 10
1466.04756527428
 20
942.8359755072463
 30
-0.0000000000000062
 10
1470.711080815928
 20
942.3759190790745
 30
-0.0000000000000062
 10
1474.334793846589
 20
942.0312088628646
 30
-0.0000000000000062
 10
1476.80407820346
 20
941.8045641498259
 30
-0.0000000000000062
 10
1478.072123344752
 20
941.6901500409015
 30
-0.0000000000000062
  0
LINE
  5
7D8F
330
A
100
AcDbEntity
  8
MODEL
 48
0.5
100
AcDbLine
 10
351.46860174429
 20
911.8813448731678
 30
0.0
 11
352.4679926931012
 21
911.8813448731678
 31
0.0
  0
ARC
  5
7D90
330
A
100
AcDbEntity
  8
MODEL
 48
0.5
100
AcDbCircle
 10
351.46860174429
 20
913.8813448731642
 30
0.0
 40
2.0
100
AcDbArc
 50
181.0000000000018
 51
270.0
  0
CIRCLE
  5
7F6B
330
A
100
AcDbEntity
  8
HIDDEN
 48
0.5
100
AcDbCircle
 10
1492.863563864796
 20
1986.215179553531
 30
-0.0000000046240195
 40
22.12450746108834
  0
CIRCLE
  5
7F6C
330
A
100
AcDbEntity
  8
HIDDEN
100
AcDbCircle
 10
1492.863563864796
 20
2103.86517955354
 30
-0.0000000053126276
 40
17.5
  0
CIRCLE
  5
7F6E
330
A
100
AcDbEntity
  8
HIDDEN
 48
0.5
100
AcDbCircle
 10
1492.863563864796
 20
1986.215179553531
 30
-0.0000000046240195
 40
22.0
  0
LINE
  5
7F6F
330
A
100
AcDbEntity
  8
HIDDEN
 48
0.5
100
AcDbLine
 10
1717.863563864797
 20
1819.215179553531
 30
-0.0000000046240195
 11
1717.863563864797
 21
2163.215179553531
 31
-0.0000000046240195
  0
ARC
  5
7F70
330
A
100
AcDbEntity
  8
HIDDEN
 48
0.5
100
AcDbCircle
 10
1714.863563864797
 20
1819.215179553531
 30
-0.0000000046240195
 40
3.0
100
AcDbArc
 50
270.0
 51
0.0
  0
ARC
  5
7F71
330
A
100
AcDbEntity
  8
HIDDEN
 48
0.5
100
AcDbCircle
 10
1714.863563864797
 20
2163.215179553531
 30
-0.0000000046240195
 40
3.0
100
AcDbArc
 50
0.0
 51
90.0
  0
LINE
  5
7F72
102
{ACAD_REACTORS
330
80BD
102
}
330
A
100
AcDbEntity
  8
HIDDEN
 48
0.5
100
AcDbLine
 10
1714.863563864797
 20
2166.215179553531
 30
-0.0000000046240195
 11
1270.863563864796
 21
2166.215179553531
 31
-0.0000000046240195
  0
ARC
  5
7F73
330
A
100
AcDbEntity
  8
HIDDEN
 48
0.5
100
AcDbCircle
 10
1270.863563864796
 20
2163.215179553531
 30
-0.0000000046240195
 40
3.0
100
AcDbArc
 50
90.0
 51
180.0
  0
LINE
  5
7F74
330
A
100
AcDbEntity
  8
HIDDEN
 48
0.5
100
AcDbLine
 10
1267.863563864796
 20
2163.215179553531
 30
-0.0000000046240195
 11
1267.863563864796
 21
1819.215179553531
 31
-0.0000000046240195
  0
ARC
  5
7F75
330
A
100
AcDbEntity
  8
HIDDEN
 48
0.5
100
AcDbCircle
 10
1270.863563864796
 20
1819.215179553531
 30
-0.0000000046240195
 40
3.0
100
AcDbArc
 50
180.0
 51
270.0
  0
LINE
  5
7F76
330
A
100
AcDbEntity
  8
HIDDEN
 48
0.5
100
AcDbLine
 10
1270.863563864796
 20
1816.215179553531
 30
-0.0000000046240195
 11
1714.863563864797
 21
1816.215179553531
 31
-0.0000000046240195
  0
SPLINE
  5
7F77
330
A
100
AcDbEntity
  8
HIDDEN
 48
0.5
100
AcDbSpline
210
0.0
220
0.0
230
1.0
 70
     8
 71
     3
 72
    53
 73
    49
 74
     0
 42
0.000000001
 43
0.0000000001
 40
0.0
 40
0.0
 40
0.0
 40
0.0
 40
0.03125
 40
0.0625
 40
0.125
 40
0.1874999999999999
 40
0.25
 40
0.3125
 40
0.3437499999999999
 40
0.375
 40
0.40625
 40
0.4375
 40
0.4531250000000001
 40
0.4687500000000001
 40
0.4843750000000002
 40
0.5
 40
0.5078125
 40
0.515625
 40
0.5234375
 40
0.53125
 40
0.5390625
 40
0.546875
 40
0.5546875
 40
0.5625
 40
0.5703125
 40
0.578125
 40
0.5859375
 40
0.59375
 40
0.6015625
 40
0.609375
 40
0.6171875
 40
0.625
 40
0.6328125
 40
0.640625
 40
0.6484375
 40
0.65625
 40
0.671875
 40
0.6875
 40
0.703125
 40
0.71875
 40
0.734375
 40
0.75
 40
0.78125
 40
0.8125
 40
0.84375
 40
0.875
 40
0.9375
 40
1.0
 40
1.0
 40
1.0
 40
1.0
 10
1492.863563864796
 20
1823.515179553526
 30
-0.0000000046240195
 10
1488.992307492982
 20
1823.515179553526
 30
-0.0000000046240195
 10
1481.249794734204
 20
1823.515180500867
 30
-0.0000000046240195
 10
1465.764769154345
 20
1823.515182905436
 30
-0.0000000046240195
 10
1446.408487059677
 20
1823.515180718276
 30
-0.0000000046240195
 10
1423.180948344465
 20
1823.515150108432
 30
-0.0000000046240195
 10
1399.953410227374
 20
1823.51516162461
 30
-0.0000000046240195
 10
1380.597129627974
 20
1823.515264752513
 30
-0.0000000046240195
 10
1365.112104255967
 20
1823.5152738077
 30
-0.0000000046240195
 10
1353.498334382856
 20
1823.515211484081
 30
-0.0000000046240195
 10
1341.884563267783
 20
1823.515047654006
 30
-0.0000000046240195
 10
1332.206420882604
 20
1823.514925280672
 30
-0.0000000046240195
 10
1324.463907848256
 20
1823.514895117298
 30
-0.0000000046240195
 10
1318.657023696257
 20
1823.514921173481
 30
-0.0000000046240195
 10
1312.850140354857
 20
1823.515010719441
 30
-0.0000000046240195
 10
1308.011071734908
 20
1823.515150591777
 30
-0.0000000046240195
 10
1304.139817431088
 20
1823.515309045599
 30
-0.0000000046240195
 10
1301.236372601443
 20
1823.522071700487
 30
-0.0000000046240195
 10
1298.333070995416
 20
1823.556806997166
 30
-0.0000000046240195
 10
1295.431212657843
 20
1823.66526667328
 30
-0.0000000046240195
 10
1292.537374844962
 20
1823.921450793462
 30
-0.0000000046240195
 10
1289.675495214832
 20
1824.436262172929
 30
-0.0000000046240195
 10
1286.901596895243
 20
1825.319713297092
 30
-0.0000000046240195
 10
1284.295599906136
 20
1826.621373200137
 30
-0.0000000046240195
 10
1281.937509490569
 20
1828.331262875747
 30
-0.0000000046240195
 10
1279.885087498033
 20
1830.398637834812
 30
-0.0000000046240195
 10
1278.196095777958
 20
1832.772753588232
 30
-0.0000000046240195
 10
1276.930764050818
 20
1835.397307464433
 30
-0.0000000046240195
 10
1276.099247312259
 20
1838.187105578398
 30
-0.0000000046240195
 10
1275.62340467287
 20
1841.055150523559
 30
-0.0000000046240195
 10
1275.377456807574
 20
1843.949300089228
 30
-0.0000000046240195
 10
1275.255467102476
 20
1846.850523855798
 30
-0.0000000046240195
 10
1275.198316779205
 20
1849.753485970798
 30
-0.0000000046240195
 10
1275.174165564879
 20
1852.656844343298
 30
-0.0000000046240195
 10
1275.165018898797
 20
1855.560267399723
 30
-0.0000000046240195
 10
1275.163294556993
 20
1859.431537370677
 30
-0.0000000046240195
 10
1275.162894807827
 20
1864.270610233509
 30
-0.0000000046240195
 10
1275.163613372175
 20
1870.077487946374
 30
-0.0000000046240195
 10
1275.163919378282
 20
1875.884369575545
 30
-0.0000000046240195
 10
1275.163933288727
 20
1881.691253985121
 30
-0.0000000046240195
 10
1275.163775566142
 20
1887.498140039209
 30
-0.0000000046240195
 10
1275.163497042099
 20
1895.240655456152
 30
-0.0000000046240195
 10
1275.163322117469
 20
1904.918798159156
 30
-0.0000000046240195
 10
1275.163304907901
 20
1916.532567622768
 30
-0.0000000046240195
 10
1275.163395929695
 20
1928.146336035518
 30
-0.0000000046240195
 10
1275.163548975701
 20
1943.631360156821
 30
-0.0000000046240195
 10
1275.163588518363
 20
1962.987641326816
 30
-0.0000000046240195
 10
1275.163563864799
 20
1978.472666809949
 30
-0.0000000046240195
 10
1275.163563864799
 20
1986.215179553531
 30
-0.0000000046240195
  0
SPLINE
  5
7F78
330
A
100
AcDbEntity
  8
HIDDEN
 48
0.5
100
AcDbSpline
210
0.0
220
0.0
230
1.0
 70
     8
 71
     3
 72
    53
 73
    49
 74
     0
 42
0.000000001
 43
0.0000000001
 40
0.0
 40
0.0
 40
0.0
 40
0.0
 40
0.03125
 40
0.0625
 40
0.125
 40
0.1874999999999999
 40
0.25
 40
0.3125
 40
0.3437499999999999
 40
0.375
 40
0.40625
 40
0.4375
 40
0.4531250000000001
 40
0.4687500000000001
 40
0.4843750000000002
 40
0.5
 40
0.5078125
 40
0.515625
 40
0.5234375
 40
0.53125
 40
0.5390625
 40
0.546875
 40
0.5546875
 40
0.5625
 40
0.5703125
 40
0.578125
 40
0.5859375
 40
0.59375
 40
0.6015625
 40
0.609375
 40
0.6171875
 40
0.625
 40
0.6328125
 40
0.640625
 40
0.6484375
 40
0.65625
 40
0.671875
 40
0.6875
 40
0.703125
 40
0.71875
 40
0.734375
 40
0.75
 40
0.78125
 40
0.8125
 40
0.84375
 40
0.875
 40
0.9375
 40
1.0
 40
1.0
 40
1.0
 40
1.0
 10
1492.863563864796
 20
1823.515179553526
 30
-0.0000000046240195
 10
1496.734820236603
 20
1823.515179553526
 30
-0.0000000046240195
 10
1504.477332995388
 20
1823.515180500867
 30
-0.0000000046240195
 10
1519.962358575241
 20
1823.515182905436
 30
-0.0000000046240195
 10
1539.318640669916
 20
1823.515180718276
 30
-0.0000000046240195
 10
1562.546179385127
 20
1823.515150108432
 30
-0.0000000046240195
 10
1585.773717502226
 20
1823.51516162461
 30
-0.0000000046240195
 10
1605.129998101619
 20
1823.515264752513
 30
-0.0000000046240195
 10
1620.615023473626
 20
1823.5152738077
 30
-0.0000000046240195
 10
1632.228793346737
 20
1823.515211484081
 30
-0.0000000046240195
 10
1643.842564461803
 20
1823.515047654006
 30
-0.0000000046240195
 10
1653.520706846989
 20
1823.514925280672
 30
-0.0000000046240195
 10
1661.263219881329
 20
1823.514895117298
 30
-0.0000000046240195
 10
1667.070104033336
 20
1823.514921173481
 30
-0.0000000046240195
 10
1672.876987374729
 20
1823.515010719441
 30
-0.0000000046240195
 10
1677.716055994685
 20
1823.515150591777
 30
-0.0000000046240195
 10
1681.587310298498
 20
1823.515309045599
 30
-0.0000000046240195
 10
1684.490755128149
 20
1823.522071700487
 30
-0.0000000046240195
 10
1687.394056734177
 20
1823.556806997166
 30
-0.0000000046240195
 10
1690.295915071757
 20
1823.66526667328
 30
-0.0000000046240195
 10
1693.189752884638
 20
1823.921450793462
 30
-0.0000000046240195
 10
1696.051632514754
 20
1824.436262172929
 30
-0.0000000046240195
 10
1698.825530834357
 20
1825.319713297092
 30
-0.0000000046240195
 10
1701.431527823456
 20
1826.621373200137
 30
-0.0000000046240195
 10
1703.789618239017
 20
1828.331262875747
 30
-0.0000000046240195
 10
1705.842040231567
 20
1830.398637834812
 30
-0.0000000046240195
 10
1707.531031951627
 20
1832.772753588232
 30
-0.0000000046240195
 10
1708.796363678774
 20
1835.397307464433
 30
-0.0000000046240195
 10
1709.627880417326
 20
1838.187105578398
 30
-0.0000000046240195
 10
1710.10372305673
 20
1841.055150523559
 30
-0.0000000046240195
 10
1710.349670922019
 20
1843.949300089228
 30
-0.0000000046240195
 10
1710.471660627117
 20
1846.850523855798
 30
-0.0000000046240195
 10
1710.528810950381
 20
1849.753485970798
 30
-0.0000000046240195
 10
1710.552962164714
 20
1852.656844343298
 30
-0.0000000046240195
 10
1710.562108830795
 20
1855.560267399723
 30
-0.0000000046240195
 10
1710.5638331726
 20
1859.431537370677
 30
-0.0000000046240195
 10
1710.564232921758
 20
1864.270610233509
 30
-0.0000000046240195
 10
1710.56351435741
 20
1870.077487946374
 30
-0.0000000046240195
 10
1710.563208351311
 20
1875.884369575545
 30
-0.0000000046240195
 10
1710.563194440851
 20
1881.691253985121
 30
-0.0000000046240195
 10
1710.563352163444
 20
1887.498140039209
 30
-0.0000000046240195
 10
1710.563630687479
 20
1895.240655456152
 30
-0.0000000046240195
 10
1710.563805612123
 20
1904.918798159156
 30
-0.0000000046240195
 10
1710.563822821684
 20
1916.532567622768
 30
-0.0000000046240195
 10
1710.563731799891
 20
1928.146336035518
 30
-0.0000000046240195
 10
1710.563578753891
 20
1943.631360156821
 30
-0.0000000046240195
 10
1710.56353921123
 20
1962.987641326816
 30
-0.0000000046240195
 10
1710.563563864794
 20
1978.472666809949
 30
-0.0000000046240195
 10
1710.563563864794
 20
1986.215179553531
 30
-0.0000000046240195
  0
SPLINE
  5
7F79
330
A
100
AcDbEntity
  8
HIDDEN
 48
0.5
100
AcDbSpline
210
0.0
220
0.0
230
1.0
 70
     8
 71
     3
 72
    46
 73
    42
 74
     0
 42
0.000000001
 43
0.0000000001
 40
0.0
 40
0.0
 40
0.0
 40
0.0
 40
0.03125
 40
0.0625
 40
0.09375
 40
0.125
 40
0.140625
 40
0.15625
 40
0.171875
 40
0.1796875
 40
0.1875
 40
0.203125
 40
0.2109375
 40
0.21875
 40
0.2265625
 40
0.234375
 40
0.25
 40
0.265625
 40
0.2734375
 40
0.28125
 40
0.2890625
 40
0.296875
 40
0.3046875
 40
0.3125
 40
0.3203125
 40
0.328125
 40
0.3359375
 40
0.34375
 40
0.359375
 40
0.375
 40
0.390625
 40
0.40625
 40
0.4375
 40
0.46875
 40
0.5
 40
0.5625
 40
0.625
 40
0.6875
 40
0.75
 40
0.875
 40
1.0
 40
1.0
 40
1.0
 40
1.0
 10
1710.563563864794
 20
1986.215179553531
 30
-0.0000000046240195
 10
1710.563563864794
 20
1989.194063819594
 30
-0.0000000046240195
 10
1710.56356996735
 20
1995.151828996403
 30
-0.0000000046240195
 10
1710.563584001829
 20
2004.088474429444
 30
-0.0000000046240195
 10
1710.563589489872
 20
2013.025125264109
 30
-0.0000000046240195
 10
1710.563575752028
 20
2020.472345239187
 30
-0.0000000046240195
 10
1710.563547061479
 20
2026.430131653854
 30
-0.0000000046240195
 10
1710.563550280974
 20
2030.898449857845
 30
-0.0000000046240195
 10
1710.563601567977
 20
2034.622008001725
 30
-0.0000000046240195
 10
1710.563129347894
 20
2037.600811674117
 30
-0.0000000046240195
 10
1710.534781045054
 20
2040.579626412162
 30
-0.0000000046240195
 10
1710.423317743654
 20
2043.55851718987
 30
-0.0000000046240195
 10
1710.071721467094
 20
2046.518390330856
 30
-0.0000000046240195
 10
1709.632885496968
 20
2048.711343665439
 30
-0.0000000046240195
 10
1708.976523031261
 20
2050.850347054514
 30
-0.0000000046240195
 10
1707.78198309247
 20
2053.585052322141
 30
-0.0000000046240195
 10
1705.675819021663
 20
2056.690461295078
 30
-0.0000000046240195
 10
1702.865696013257
 20
2059.178109319698
 30
-0.0000000046240195
 10
1700.300415107332
 20
2060.70397031119
 30
-0.0000000046240195
 10
1698.250501301917
 20
2061.6025830631
 30
-0.0000000046240195
 10
1696.111362887589
 20
2062.258614513466
 30
-0.0000000046240195
 10
1693.918243783329
 20
2062.696661785284
 30
-0.0000000046240195
 10
1691.698650561214
 20
2062.961551050302
 30
-0.0000000046240195
 10
1689.468753508924
 20
2063.107947489962
 30
-0.0000000046240195
 10
1687.235872164921
 20
2063.18102979302
 30
-0.0000000046240195
 10
1685.001565356469
 20
2063.208029379114
 30
-0.0000000046240195
 10
1682.767391910819
 20
2063.21617766789
 30
-0.0000000046240195
 10
1679.788566807531
 20
2063.214838229221
 30
-0.0000000046240195
 10
1676.064975112246
 20
2063.214527835308
 30
-0.0000000046240195
 10
1671.596622013486
 20
2063.215128981693
 30
-0.0000000046240195
 10
1667.128279291711
 20
2063.215495119169
 30
-0.0000000046240195
 10
1661.170500000581
 20
2063.215734891691
 30
-0.0000000046240195
 10
1653.72329121131
 20
2063.215690589247
 30
-0.0000000046240195
 10
1644.78664819504
 20
2063.215476604061
 30
-0.0000000046240195
 10
1632.87112679841
 20
2063.215137138121
 30
-0.0000000046240195
 10
1617.976716069467
 20
2063.214911789949
 30
-0.0000000046240195
 10
1600.103412946489
 20
2063.214866379497
 30
-0.0000000046240195
 10
1582.230103700042
 20
2063.214952608959
 30
-0.0000000046240195
 10
1558.399022039869
 20
2063.215118611514
 30
-0.0000000046240195
 10
1528.6101752799
 20
2063.215188377234
 30
-0.0000000046240195
 10
1504.779100929051
 20
2063.215179553527
 30
-0.0000000046240195
 10
1492.863563864796
 20
2063.215179553527
 30
-0.0000000046240195
  0
SPLINE
  5
7F7A
330
A
100
AcDbEntity
  8
HIDDEN
 48
0.5
100
AcDbSpline
210
0.0
220
0.0
230
1.0
 70
     8
 71
     3
 72
    46
 73
    42
 74
     0
 42
0.000000001
 43
0.0000000001
 40
0.0
 40
0.0
 40
0.0
 40
0.0
 40
0.125
 40
0.25
 40
0.3125
 40
0.375
 40
0.4375
 40
0.5
 40
0.53125
 40
0.5625
 40
0.59375
 40
0.609375
 40
0.625
 40
0.640625
 40
0.65625
 40
0.6640625
 40
0.671875
 40
0.6796875
 40
0.6875
 40
0.6953125
 40
0.703125
 40
0.7109375
 40
0.71875
 40
0.7265625
 40
0.734375
 40
0.75
 40
0.765625
 40
0.7734375
 40
0.78125
 40
0.7890625
 40
0.796875
 40
0.8125
 40
0.8203125
 40
0.828125
 40
0.84375
 40
0.859375
 40
0.875
 40
0.90625
 40
0.9375
 40
0.96875
 40
1.0
 40
1.0
 40
1.0
 40
1.0
 10
1492.863563864796
 20
2063.215179553527
 30
-0.0000000046240195
 10
1480.948026800534
 20
2063.215179553527
 30
-0.0000000046240195
 10
1457.116952449693
 20
2063.215188377234
 30
-0.0000000046240195
 10
1427.328105689731
 20
2063.215118611514
 30
-0.0000000046240195
 10
1403.49702402955
 20
2063.214952608959
 30
-0.0000000046240195
 10
1385.623714783104
 20
2063.214866379497
 30
-0.0000000046240195
 10
1367.750411660118
 20
2063.214911789949
 30
-0.0000000046240195
 10
1352.85600093119
 20
2063.215137138121
 30
-0.0000000046240195
 10
1340.940479534553
 20
2063.215476604061
 30
-0.0000000046240195
 10
1332.003836518276
 20
2063.215690589247
 30
-0.0000000046240195
 10
1324.556627729004
 20
2063.215734891691
 30
-0.0000000046240195
 10
1318.598848437874
 20
2063.215495119169
 30
-0.0000000046240195
 10
1314.130505716107
 20
2063.215128981693
 30
-0.0000000046240195
 10
1309.662152617346
 20
2063.214527835308
 30
-0.0000000046240195
 10
1305.938560922069
 20
2063.214838229221
 30
-0.0000000046240195
 10
1302.959735818766
 20
2063.21617766789
 30
-0.0000000046240195
 10
1300.725562373124
 20
2063.208029379114
 30
-0.0000000046240195
 10
1298.491255564665
 20
2063.18102979302
 30
-0.0000000046240195
 10
1296.258374220668
 20
2063.107947489962
 30
-0.0000000046240195
 10
1294.028477168386
 20
2062.961551050302
 30
-0.0000000046240195
 10
1291.808883946271
 20
2062.696661785284
 30
-0.0000000046240195
 10
1289.615764842004
 20
2062.258614513466
 30
-0.0000000046240195
 10
1287.476626427675
 20
2061.6025830631
 30
-0.0000000046240195
 10
1285.426712622268
 20
2060.70397031119
 30
-0.0000000046240195
 10
1282.861431716336
 20
2059.178109319698
 30
-0.0000000046240195
 10
1280.051308707929
 20
2056.690461295078
 30
-0.0000000046240195
 10
1277.945144637123
 20
2053.585052322141
 30
-0.0000000046240195
 10
1276.750604698331
 20
2050.850347054514
 30
-0.0000000046240195
 10
1276.094242232617
 20
2048.711343665439
 30
-0.0000000046240195
 10
1275.655406262491
 20
2046.518390330856
 30
-0.0000000046240195
 10
1275.303809985932
 20
2043.55851718987
 30
-0.0000000046240195
 10
1275.192346684546
 20
2040.579626412162
 30
-0.0000000046240195
 10
1275.163998381699
 20
2037.600811674117
 30
-0.0000000046240195
 10
1275.163526161616
 20
2034.622008001725
 30
-0.0000000046240195
 10
1275.163577448619
 20
2030.898449857845
 30
-0.0000000046240195
 10
1275.163580668099
 20
2026.430131653854
 30
-0.0000000046240195
 10
1275.163551977565
 20
2020.472345239187
 30
-0.0000000046240195
 10
1275.163538239713
 20
2013.025125264109
 30
-0.0000000046240195
 10
1275.163543727764
 20
2004.088474429444
 30
-0.0000000046240195
 10
1275.163557762235
 20
1995.151828996403
 30
-0.0000000046240195
 10
1275.163563864799
 20
1989.194063819594
 30
-0.0000000046240195
 10
1275.163563864799
 20
1986.215179553531
 30
-0.0000000046240195
  0
DIMENSION
  5
7FA7
102
{ACAD_REACTORS
330
7FA9
102
}
102
{ACAD_XDICTIONARY
360
7FA8
102
}
330
A
100
AcDbEntity
  8
Dim
100
AcDbDimension
  2
*D24
 10
347.4085994266752
 20
2248.253741505468
 30
0.0
 11
572.4085994266752
 21
2270.474632933503
 31
0.0
 70
    32
 71
     5
 42
450.0
 73
     0
 74
     0
 75
     0
  3
tform線あり
100
AcDbAlignedDimension
 13
797.4085994266752
 23
2155.171157766293
 33
-0.0000000046240195
 14
347.4085994266752
 24
2155.171157766293
 34
-0.0000000046240195
100
AcDbRotatedDimension
  0
DIMENSION
  5
7FB6
330
A
100
AcDbEntity
  8
Dim
100
AcDbDimension
  2
*D25
 10
787.4085994266751
 20
1732.289298266777
 30
-0.0000000046240195
 11
572.4085994266751
 21
1754.510189694812
 31
-0.0000000046240195
 70
    32
 71
     5
 42
430.0
 73
     0
 74
     0
 75
     0
  3
tform線あり
100
AcDbAlignedDimension
 13
357.4085994266751
 23
1849.463010201853
 33
-0.000000009248039
 14
787.4085994266751
 24
1849.463010201853
 34
-0.000000009248039
100
AcDbRotatedDimension
  0
DIMENSION
  5
7FDA
330
A
100
AcDbEntity
  8
Dim
100
AcDbDimension
  2
*D27
 10
267.148580193016
 20
986.8813448731678
 30
0.0
 11
244.9276887649804
 21
1009.381344873168
 31
0.0
 70
    32
 71
     5
 42
45.0
 73
     0
 74
     1
 75
     1
  3
tform線あり
100
AcDbAlignedDimension
 13
351.1338017008395
 23
1031.881344873168
 33
0.0
 14
351.1338017008395
 24
986.8813448731678
 34
0.0
 50
90.0
100
AcDbRotatedDimension
  0
LINE
  5
7FDB
330
A
100
AcDbEntity
  8
HIDDEN
 48
0.5
100
AcDbLine
 10
472.4085318642515
 20
1016.814472169586
 30
0.0000000009984768
 11
472.4085318642515
 21
956.0460592764505
 31
0.0000000009984768
  0
LINE
  5
7FDC
330
A
100
AcDbEntity
  8
HIDDEN
 48
0.5
100
AcDbLine
 10
441.6840616613936
 20
986.8813448731676
 30
0.0
 11
503.1330020671105
 21
986.8813448731676
 31
0.0
  0
CIRCLE
  5
7FDD
330
A
100
AcDbEntity
  8
HIDDEN
 48
0.5
100
AcDbCircle
 10
472.4085318642515
 20
986.8813448731676
 30
0.0
 40
15.0
  0
CIRCLE
  5
7FDE
330
A
100
AcDbEntity
  8
HIDDEN
 48
0.5
100
AcDbCircle
 10
672.4086669891105
 20
986.8813448731676
 30
0.0
 40
15.0
  0
LINE
  5
7FDF
330
A
100
AcDbEntity
  8
HIDDEN
 48
0.5
100
AcDbLine
 10
672.4086669891105
 20
1016.814472169586
 30
0.0000000009984768
 11
672.4086669891105
 21
956.0460592764505
 31
0.0000000009984768
  0
LINE
  5
7FE0
330
A
100
AcDbEntity
  8
HIDDEN
 48
0.5
100
AcDbLine
 10
703.1331371919696
 20
986.8813448731676
 30
0.0
 11
641.6841967862524
 21
986.8813448731676
 31
0.0
  0
LINE
  5
7FE1
330
A
100
AcDbEntity
  8
Dim
  6
Continuous
100
AcDbLine
 10
683.9821478272545
 20
996.4235951994337
 30
0.0
 11
777.7871964553385
 21
1125.946178722746
 31
0.0
  0
MTEXT
  5
7FE2
330
A
100
AcDbEntity
  8
Dim
390
1D
100
AcDbMText
 10
778.8309632334615
 20
1172.539464078033
 30
34.99521132346015
 40
24.0
 41
1169.77171546101
 46
26.808
 71
     1
 72
     1
  1
{壁取付ボルト穴(2ヶ所)}
  7
ＭＳ ゴシック
 73
     1
 44
1.174240107638677
1001
ACAD
1000
ACAD_MTEXT_DEFINED_HEIGHT_BEGIN
1070
    46
1040
26.808
1000
ACAD_MTEXT_DEFINED_HEIGHT_END
  0
DIMENSION
  5
7FE3
330
A
100
AcDbEntity
  8
Dim
100
AcDbDimension
  2
*D28
 10
672.4086669891105
 20
1129.932894565483
 30
0.0
 11
572.408599426681
 21
1152.153785993518
 31
0.0
 70
    32
 71
     5
 42
200.0001351248591
 73
     0
 74
     0
 75
     0
  3
tform線あり
100
AcDbAlignedDimension
 13
472.4085318642515
 23
1016.814472169586
 33
0.0000000009984768
 14
672.4086669891105
 24
1016.814472169586
 34
0.0000000009984768
100
AcDbRotatedDimension
  0
LINE
  5
8001
330
A
100
AcDbEntity
  8
HIDDEN
 48
0.5
100
AcDbLine
 10
594.8694941004128
 20
921.6786751911744
 30
-0.0000000000000055
 11
549.9551367200856
 21
921.6786751911744
 31
-0.0000000000000055
  0
LINE
  5
8002
330
A
100
AcDbEntity
  8
HIDDEN
100
AcDbLine
 10
594.4123154102458
 20
914.5456475226705
 30
-0.0000000000000055
 11
550.4123154102499
 21
914.5456475226705
 31
-0.0000000000000055
  0
LINE
  5
8003
330
A
100
AcDbEntity
  8
HIDDEN
 48
0.25
100
AcDbLine
 10
532.9933131786129
 20
937.6688843427795
 30
-0.0000000000000055
 11
533.0147181476609
 21
937.5889999107707
 31
-0.0000000000000055
  0
LINE
  5
8004
330
A
100
AcDbEntity
  8
HIDDEN
 48
0.25
100
AcDbLine
 10
534.9535474472759
 20
934.5456475226705
 30
-0.0000000000000055
 11
549.2404882522569
 21
922.5574807625593
 31
-0.0000000000000055
  0
LINE
  5
8005
330
A
100
AcDbEntity
  8
HIDDEN
 48
0.25
100
AcDbLine
 10
550.3116685086648
 20
920.3117046525143
 30
-0.0000000000000055
 11
550.4123154102499
 21
914.5456475226705
 31
-0.0000000000000055
  0
LINE
  5
8006
330
A
100
AcDbEntity
  8
HIDDEN
 48
0.25
100
AcDbLine
 10
594.4123154102458
 20
914.5456475226705
 30
-0.0000000000000055
 11
594.5129623118269
 21
920.3117046525143
 31
-0.0000000000000055
  0
LINE
  5
8007
330
A
100
AcDbEntity
  8
HIDDEN
 48
0.25
100
AcDbLine
 10
595.5841425682338
 20
922.5574807625593
 30
-0.0000000000000055
 11
609.871083373218
 21
934.5456475226705
 31
-0.0000000000000055
  0
LINE
  5
8008
330
A
100
AcDbEntity
  8
HIDDEN
 48
0.25
100
AcDbLine
 10
611.8099126728339
 20
937.5889999107707
 30
-0.0000000000000055
 11
612.0349518306471
 21
938.4288574814158
 31
-0.0000000000000055
  0
ARC
  5
8009
330
A
100
AcDbEntity
  8
HIDDEN
 48
0.25
100
AcDbCircle
 10
528.163684047166
 20
936.3747891172674
 30
-0.0000000000000055
 40
5.0
100
AcDbArc
 50
14.99999999999445
 51
84.83992838600908
  0
ARC
  5
800A
330
A
100
AcDbEntity
  8
HIDDEN
 48
0.25
100
AcDbCircle
 10
538.8102731053959
 20
939.1419141813852
 30
-0.0000000000000055
 40
6.000000000000001
100
AcDbArc
 50
194.9999999999944
 51
229.9999999999791
  0
ARC
  5
800B
330
A
100
AcDbEntity
  8
HIDDEN
 48
0.25
100
AcDbCircle
 10
547.312125423196
 20
920.2593474331983
 30
-0.0000000000000055
 40
3.0
100
AcDbArc
 50
0.9999999999757105
 51
49.99999999998519
  0
ARC
  5
800C
330
A
100
AcDbEntity
  8
HIDDEN
 48
0.25
100
AcDbCircle
 10
597.5125053972988
 20
920.2593474331983
 30
-0.0000000000000055
 40
3.0
100
AcDbArc
 50
130.0000000000148
 51
178.9999999999722
  0
ARC
  5
800D
330
A
100
AcDbEntity
  8
HIDDEN
 48
0.25
100
AcDbCircle
 10
606.0143577150989
 20
939.1419141813852
 30
-0.0000000000000055
 40
6.000000000000001
100
AcDbArc
 50
310.0000000000209
 51
345.0000000000056
  0
ARC
  5
800E
330
A
100
AcDbEntity
  8
HIDDEN
 48
0.25
100
AcDbCircle
 10
616.8645809620898
 20
937.1347622559
 30
-0.0000000000000055
 40
5.0
100
AcDbArc
 50
108.2162586506237
 51
165.0000000000056
  0
LINE
  5
800F
330
A
100
AcDbEntity
  8
HIDDEN
 48
0.5
100
AcDbLine
 10
615.3015585788999
 20
941.8841791705994
 30
-0.0000000000000055
 11
528.6133767698338
 21
941.3545257021864
 31
-0.0000000000000055
  0
SPLINE
  5
8010
330
A
100
AcDbEntity
  8
HIDDEN
100
AcDbSpline
 70
  1056
 71
     3
 72
    12
 73
     8
 74
     6
 42
0.000000001
 43
0.0000000001
 44
0.0
 40
0.0
 40
0.0
 40
0.0
 40
0.0
 40
60.22230327318682
 40
83.7979284128534
 40
95.4339572256163
 40
117.1902741491507
 40
227.7905804361894
 40
227.7905804361894
 40
227.7905804361894
 40
227.7905804361894
 10
357.5946397558621
 20
1031.881344873168
 30
0.0
 10
360.916241295111
 20
1012.683165082112
 30
0.0000000020953117
 10
365.5381722554625
 20
985.9693463081906
 30
0.000000005010889
 10
380.5347956575499
 20
953.5922996814274
 30
0.0000000045392581
 10
400.2013778274131
 20
950.3847195840593
 30
0.000000004568022
 10
447.2505667045941
 20
945.552923004789
 30
0.0000000047585894
 10
491.5749118361618
 20
943.2657452279793
 30
0.0000000021662305
 10
528.613376769832
 20
941.3545257021864
 30
-0.0000000000000055
 11
357.5946397558621
 21
1031.881344873168
 31
0.0
 11
371.9733266487743
 21
973.4007568566024
 31
0.0000000045662311
 11
385.3798175515895
 21
954.0080751854458
 31
0.0000000045662311
 11
396.632724731267
 21
951.0467838223727
 31
0.0000000045662311
 11
418.2501516817009
 21
948.5923637035007
 31
0.0000000045662311
 11
528.613376769832
 21
941.3545257021864
 31
-0.0000000000000055
  0
SPLINE
  5
8016
330
A
100
AcDbEntity
  8
HIDDEN
100
AcDbSpline
 70
  1056
 71
     3
 72
    12
 73
     8
 74
     6
 42
0.000000001
 43
0.0000000001
 44
0.0
 40
0.0
 40
0.0
 40
0.0
 40
0.0
 40
60.2223032731868
 40
83.79792841285337
 40
95.43395722561633
 40
117.1902741491506
 40
227.7905804361894
 40
227.7905804361894
 40
227.7905804361894
 40
227.7905804361894
 10
787.2299910646364
 20
1031.881344873168
 30
0.0
 10
783.9083895253875
 20
1012.683165082112
 30
0.0000000020953117
 10
779.2864585650362
 20
985.9693463081909
 30
0.000000005010889
 10
764.2898351629485
 20
953.5922996814272
 30
0.0000000045392581
 10
744.6232529930855
 20
950.3847195840596
 30
0.000000004568022
 10
697.5740641159044
 20
945.5529230047888
 30
0.0000000047585894
 10
653.2497189843366
 20
943.2657452279791
 30
0.0000000021662305
 10
616.2112540506664
 20
941.3545257021864
 30
-0.0000000000000055
 11
787.2299910646364
 21
1031.881344873168
 31
0.0
 11
772.8513041717242
 21
973.4007568566024
 31
0.0000000045662311
 11
759.444813268909
 21
954.0080751854458
 31
0.0000000045662311
 11
748.1919060892315
 21
951.0467838223727
 31
0.0000000045662311
 11
726.5744791387976
 21
948.5923637035007
 31
0.0000000045662311
 11
616.2112540506664
 21
941.3545257021864
 31
-0.0000000000000055
  0
DIMENSION
  5
801D
330
A
100
AcDbEntity
  8
Dim
100
AcDbDimension
  2
*D29
 10
913.012355858052
 20
1816.215179553531
 30
0.0
 11
890.7914644300166
 21
1991.215179553531
 31
0.0
 70
    32
 71
     5
 42
350.0
 73
     0
 74
     0
 75
     0
  3
tform線あり
100
AcDbAlignedDimension
 13
788.2997679356625
 23
2166.215179553531
 33
-0.0000000046240195
 14
788.2997679356625
 24
1816.215179553531
 34
-0.0000000046240195
 50
90.0
100
AcDbRotatedDimension
  0
DIMENSION
  5
802A
330
A
100
AcDbEntity
  8
Dim
100
AcDbDimension
  2
*D30
 10
257.8194120628893
 20
2066.215179553531
 30
0.0
 11
235.5985206348539
 21
2116.215179553531
 31
0.0
 70
    32
 71
     5
 42
100.0
 73
     0
 74
     0
 75
     0
  3
tform線あり
100
AcDbAlignedDimension
 13
356.3242822334724
 23
2166.215179553531
 33
-0.0000000046240195
 14
356.3242822334724
 24
2066.215179553531
 34
-0.0000000046240195
 50
90.0
100
AcDbRotatedDimension
  0
DIMENSION
  5
8037
330
A
100
AcDbEntity
  8
Dim
100
AcDbDimension
  2
*D31
 10
257.8194120628893
 20
1826.231437944154
 30
0.0
 11
235.5985206348539
 21
1946.223308748842
 31
0.0
 70
    32
 71
     5
 42
239.9837416093774
 73
     0
 74
     0
 75
     0
  3
tform線あり
100
AcDbAlignedDimension
 13
356.3242822334724
 23
2066.215179553531
 33
0.0
 14
353.5307605915953
 24
1826.231437944154
 34
-0.0000000079941034
 50
90.0
100
AcDbRotatedDimension
  0
DIMENSION
  5
8049
330
A
100
AcDbEntity
  8
Dim
100
AcDbDimension
  2
*D32
 10
1521.871407709042
 20
942.0131518385472
 30
-0.0000000000000062
 11
1521.871407709042
 21
1121.026997744263
 31
-0.0000000000000062
 70
   160
 71
     5
 42
89.99999999999977
 73
     0
 74
     0
 75
     0
  3
tform線あり
100
AcDbAlignedDimension
 13
1520.135167340655
 23
1032.013151838547
 33
-0.0000000000000062
 14
1520.135167340655
 24
942.0131518385472
 34
-0.0000000000000062
 50
90.0
100
AcDbRotatedDimension
1001
ACAD
1000
DSTYLE
1002
{
1070
     3
1000
<>(深さ)
1002
}
  0
DIMENSION
  5
8059
330
A
100
AcDbEntity
  8
Dim
100
AcDbDimension
  2
*D33
 10
913.0123558580519
 20
911.8813448731678
 30
0.0
 11
890.7914644300164
 21
971.8813448731678
 31
0.0
 70
    32
 71
     5
 42
120.0
 73
     0
 74
     0
 75
     0
  3
tform線あり
100
AcDbAlignedDimension
 13
791.7231739422632
 23
1031.881344873168
 33
0.0
 14
791.7231739422633
 24
911.8813448731678
 34
0.0
 50
90.0
100
AcDbRotatedDimension
  0
DIMENSION
  5
806C
330
A
100
AcDbEntity
  8
Dim
100
AcDbDimension
  2
*D34
 10
1641.871407709038
 20
1112.311566054545
 30
0.0
 11
1671.871407709038
 21
1134.527874648295
 31
0.0
 70
    32
 71
     5
 42
60.0
 73
     0
 74
     0
 75
     0
  3
tform線あり
100
AcDbAlignedDimension
 13
1701.871407709038
 23
1021.217154006887
 33
-0.0000000000000062
 14
1641.871407709038
 24
1021.217154006887
 34
-0.0000000000000062
100
AcDbRotatedDimension
  0
DIMENSION
  5
8079
330
A
100
AcDbEntity
  8
Dim
100
AcDbDimension
  2
*D35
 10
1521.871407709044
 20
833.2445577180679
 30
0.0
 11
1611.871407709044
 21
855.4654491461034
 31
0.0
 70
    32
 71
     5
 42
180.0
 73
     0
 74
     0
 75
     0
  3
tform線あり
100
AcDbAlignedDimension
 13
1701.871407709044
 23
915.3171235869097
 33
-0.0000000000000071
 14
1521.871407709044
 24
915.3171235869098
 34
-0.0000000000000071
100
AcDbRotatedDimension
  0
LINE
  5
80AC
102
{ACAD_REACTORS
330
80B1
330
80B7
330
80CE
102
}
330
A
100
AcDbEntity
  8
MODEL
100
AcDbLine
 10
1432.863563864797
 20
2141.215179553531
 30
-0.0000000046240195
 11
1552.863563864797
 21
2141.215179553531
 31
-0.0000000046240195
  0
LINE
  5
80AD
102
{ACAD_REACTORS
330
80B1
330
80B7
330
80CE
330
80DD
102
}
330
A
100
AcDbEntity
  8
MODEL
100
AcDbLine
 10
1552.863563864797
 20
2141.215179553531
 30
-0.0000000046240195
 11
1552.863563864797
 21
1921.215179553531
 31
-0.0000000046240195
  0
LINE
  5
80AE
102
{ACAD_REACTORS
330
80B1
330
80B7
102
}
330
A
100
AcDbEntity
  8
MODEL
100
AcDbLine
 10
1552.863563864797
 20
1921.215179553531
 30
-0.0000000046240195
 11
1432.863563864797
 21
1921.215179553531
 31
-0.0000000046240195
  0
LINE
  5
80AF
102
{ACAD_REACTORS
330
80B1
330
80B7
330
80DD
102
}
330
A
100
AcDbEntity
  8
MODEL
100
AcDbLine
 10
1432.863563864797
 20
1921.215179553531
 30
-0.0000000046240195
 11
1432.863563864797
 21
2141.215179553531
 31
-0.0000000046240195
  0
HATCH
  5
80B7
330
A
100
AcDbEntity
  8
Dim
100
AcDbHatch
 10
0.0
 20
0.0
 30
-0.0000000046240195
210
0.0
220
0.0
230
1.0
  2
ANSI31
 70
     0
 71
     1
 91
        1
 92
        1
 93
        4
 72
     1
 10
1432.863563864797
 20
2141.215179553531
 11
1552.863563864797
 21
2141.215179553531
 72
     1
 10
1552.863563864797
 20
2141.215179553531
 11
1552.863563864797
 21
1921.215179553531
 72
     1
 10
1552.863563864797
 20
1921.215179553531
 11
1432.863563864797
 21
1921.215179553531
 72
     1
 10
1432.863563864797
 20
1921.215179553531
 11
1432.863563864797
 21
2141.215179553531
 97
        4
330
80AC
330
80AD
330
80AE
330
80AF
 75
     0
 76
     1
 52
0.0
 41
5.0
 77
     0
 78
     1
 53
45.0
 43
-193.4241192942357
 44
174.1700050743277
 45
-11.22532015133644
 46
11.22532015133644
 79
     0
 98
        1
 10
-193.4241192942357
 20
174.1700050743277
1001
ACAD
1010
0.0
1020
0.0
1030
0.0
1001
HATCHBACKGROUNDCOLOR
1071
-939524096
1000

1000

  0
DIMENSION
  5
80BB
102
{ACAD_REACTORS
330
80BD
102
}
102
{ACAD_XDICTIONARY
360
80BC
102
}
330
A
100
AcDbEntity
  8
Dim
100
AcDbDimension
  2
*D36
 10
1801.608277774566
 20
2141.215179553531
 30
-0.0000000046240195
 11
1801.608277774566
 21
2210.414634689783
 31
-0.0000000046240195
 70
   160
 71
     5
 42
25.00000000000001
 73
     0
 74
     0
 75
     0
  3
tform線あり
100
AcDbAlignedDimension
 13
1707.621979630156
 23
2166.215179553531
 33
-0.0000000046240195
 14
1552.863563864797
 24
2141.215179553531
 34
-0.0000000046240195
 50
90.0
100
AcDbRotatedDimension
  0
DIMENSION
  5
80CC
102
{ACAD_REACTORS
330
80CE
102
}
102
{ACAD_XDICTIONARY
360
80CD
102
}
330
A
100
AcDbEntity
  8
Dim
100
AcDbDimension
  2
*D37
 10
1801.608277774566
 20
1921.215179553531
 30
0.0
 11
1779.387386346531
 21
2031.215179553531
 31
0.0
 70
    32
 71
     5
 42
220.0
 73
     0
 74
     0
 75
     0
  3
tform線あり
100
AcDbAlignedDimension
 13
1552.863563864797
 23
2141.215179553531
 33
-0.0000000046240195
 14
1552.863563864797
 24
1921.215179553531
 34
-0.0000000046240195
 50
90.0
100
AcDbRotatedDimension
  0
DIMENSION
  5
80DB
102
{ACAD_REACTORS
330
80DD
102
}
102
{ACAD_XDICTIONARY
360
80DC
102
}
330
A
100
AcDbEntity
  8
Dim
100
AcDbDimension
  2
*D38
 10
1432.863563864797
 20
1752.864860438578
 30
0.0
 11
1492.863563864797
 21
1775.085751866613
 31
0.0
 70
    32
 71
     5
 42
120.0
 73
     0
 74
     0
 75
     0
  3
tform線あり
100
AcDbAlignedDimension
 13
1552.863563864797
 23
1921.215179553531
 33
-0.0000000046240195
 14
1432.863563864797
 24
1921.215179553531
 34
-0.0000000046240195
100
AcDbRotatedDimension
  0
VIEWPORT
  5
349
330
B
100
AcDbEntity
 67
     1
  8
0
100
AcDbViewport
 10
202.5
 20
128.5
 30
0.0
 40
486.0
 41
308.4
 68
     1
 69
     1
 12
202.5
 22
128.5
 13
0.0
 23
0.0
 14
0.5
 24
0.5
 15
0.0
 25
0.0
 16
0.0
 26
0.0
 36
1.0
 17
0.0
 27
0.0
 37
0.0
 42
50.0
 43
0.0
 44
0.0
 45
308.4
 50
0.0
 51
0.0
 72
   100
 90
   557152
  1

281
     0
 71
     1
 74
     0
110
0.0
120
0.0
130
0.0
111
1.0
121
0.0
131
0.0
112
0.0
122
1.0
132
0.0
 79
     0
146
0.0
170
     0
 61
     5
348
26C
292
     1
282
     1
141
0.0
142
0.0
 63
   256
  0
VIEWPORT
  5
34A
330
B
100
AcDbEntity
 67
     1
  8
0
100
AcDbViewport
 10
202.5
 20
128.5
 30
0.0
 40
324.0
 41
205.6
 68
     2
 69
     2
 12
986.6781359294573
 22
1427.077061889956
 13
0.0
 23
0.0
 14
0.5
 24
0.5
 15
0.0
 25
0.0
 16
0.0
 26
0.0
 36
1.0
 17
0.0
 27
0.0
 37
0.0
 42
50.0
 43
0.0
 44
0.0
 45
2890.021615685494
 50
0.0
 51
0.0
 72
   100
 90
   557152
  1

281
     0
 71
     1
 74
     0
110
0.0
120
0.0
130
0.0
111
1.0
121
0.0
131
0.0
112
0.0
122
1.0
132
0.0
 79
     0
146
0.0
170
     0
 61
     5
348
26C
292
     1
282
     1
141
0.0
142
0.0
 63
   256
  0
ENDSEC
  0
SECTION
  2
OBJECTS
  0
DICTIONARY
  5
19
330
0
100
AcDbDictionary
281
     1
  3
ACAD_COLOR
350
38F
  3
ACAD_DETAILVIEWSTYLE
350
8CF
  3
ACAD_FIELDLIST
350
BA6
  3
ACAD_GROUP
350
1A
  3
ACAD_IMAGE_VARS
350
27B
  3
ACAD_LAYOUT
350
1E
  3
ACAD_MATERIAL
350
263
  3
ACAD_MLEADERSTYLE
350
336
  3
ACAD_MLINESTYLE
350
1B
  3
ACAD_PLOTSETTINGS
350
22
  3
ACAD_PLOTSTYLENAME
350
1F
  3
ACAD_SCALELIST
350
241
  3
ACAD_SECTIONVIEWSTYLE
350
8D0
  3
ACAD_TABLESTYLE
350
278
  3
ACAD_VISUALSTYLE
350
267
  3
ACDB_RECOMPOSE_DATA
350
8105
  3
AcDbVariableDictionary
350
330
  3
APPDATA
350
27A
  3
DimOffsetDictionary
350
C08
  0
SUN
  5
8C2
330
15
100
AcDbSun
 90
        1
290
     0
 63
     7
421
 16777215
 40
1.0
291
     1
 91
  2455826
 92
 54000000
292
     0
 70
     2
 71
   256
280
     1
  0
DICTIONARY
  5
2E1
330
2
100
AcDbDictionary
280
     1
281
     1
  3
ACAD_LAYERSTATES
360
2E2
  3
ACLYDICTIONARY
360
BFE
  0
DICTIONARY
  5
6587
330
A
100
AcDbDictionary
280
     1
281
     1
  3
ACAD_SORTENTS
360
6588
  0
DICTIONARY
  5
BDC
330
BDB
100
AcDbDictionary
280
     1
281
     1
  3
ACAD_FIELD
360
808F
  0
DICTIONARY
  5
7FA8
330
7FA7
100
AcDbDictionary
280
     1
281
     1
  3
ACAD_DIMASSOC
360
7FA9
  0
DICTIONARY
  5
80BC
330
80BB
100
AcDbDictionary
280
     1
281
     1
  3
ACAD_DIMASSOC
360
80BD
  0
DICTIONARY
  5
80CD
330
80CC
100
AcDbDictionary
280
     1
281
     1
  3
ACAD_DIMASSOC
360
80CE
  0
DICTIONARY
  5
80DC
330
80DB
100
AcDbDictionary
280
     1
281
     1
  3
ACAD_DIMASSOC
360
80DD
  0
DICTIONARY
  5
38F
102
{ACAD_REACTORS
330
19
102
}
330
19
100
AcDbDictionary
281
     1
  0
DICTIONARY
  5
8CF
102
{ACAD_REACTORS
330
19
102
}
330
19
100
AcDbDictionary
281
     1
  0
FIELDLIST
  5
BA6
102
{ACAD_REACTORS
330
19
102
}
330
19
100
AcDbIdSet
 90
        2
330
BDF
330
BDE
100
AcDbFieldList
  0
DICTIONARY
  5
1A
102
{ACAD_REACTORS
330
19
102
}
330
19
100
AcDbDictionary
281
     1
  3
*A1
350
7F87
  3
*A2
350
80B1
  0
RASTERVARIABLES
  5
27B
102
{ACAD_REACTORS
330
19
102
}
330
19
100
AcDbRasterVariables
 90
        0
 70
     1
 71
     1
 72
     1
  0
DICTIONARY
  5
1E
102
{ACAD_REACTORS
330
19
102
}
330
19
100
AcDbDictionary
281
     1
  3
Layout1
350
21
  3
Model
350
20
  0
DICTIONARY
  5
263
102
{ACAD_REACTORS
330
19
102
}
330
19
100
AcDbDictionary
281
     1
  3
ByBlock
350
3F68
  3
ByLayer
350
264
  3
Global
350
266
  0
DICTIONARY
  5
336
102
{ACAD_REACTORS
330
19
102
}
330
19
100
AcDbDictionary
281
     1
  3
Standard
350
8D1
  0
DICTIONARY
  5
1B
102
{ACAD_REACTORS
330
19
102
}
330
19
100
AcDbDictionary
281
     1
  3
Standard
350
1C
  0
DICTIONARY
  5
22
102
{ACAD_REACTORS
330
19
102
}
330
19
100
AcDbDictionary
281
     1
  0
ACDBDICTIONARYWDFLT
  5
1F
102
{ACAD_REACTORS
330
19
102
}
330
19
100
AcDbDictionary
281
     1
  3
Normal
350
1D
100
AcDbDictionaryWithDefault
340
1D
  0
DICTIONARY
  5
241
102
{ACAD_REACTORS
330
19
102
}
330
19
100
AcDbDictionary
281
     1
  3
A0
350
242
  3
A1
350
243
  3
A2
350
244
  3
A3
350
245
  3
A4
350
246
  3
A5
350
247
  3
A6
350
248
  3
A7
350
249
  3
A8
350
24A
  3
A9
350
24B
  3
B0
350
24C
  3
B1
350
24D
  3
B2
350
24E
  3
B3
350
24F
  3
B4
350
250
  3
B5
350
251
  3
B6
350
252
  3
B7
350
253
  3
B8
350
254
  3
B9
350
255
  3
C0
350
256
  3
C1
350
257
  3
C2
350
258
  3
C3
350
259
  3
C4
350
25A
  3
C5
350
25B
  3
C6
350
25C
  3
C7
350
25D
  3
C8
350
25E
  3
C9
350
25F
  3
D0
350
260
  3
D1
350
261
  3
D2
350
262
  0
DICTIONARY
  5
8D0
102
{ACAD_REACTORS
330
19
102
}
330
19
100
AcDbDictionary
281
     1
  0
DICTIONARY
  5
278
102
{ACAD_REACTORS
330
19
102
}
330
19
100
AcDbDictionary
281
     1
  3
Standard
350
279
  0
DICTIONARY
  5
267
102
{ACAD_REACTORS
330
19
102
}
330
19
100
AcDbDictionary
281
     1
  3
2dWireframe
350
26C
  3
3D Hidden
350
26E
  3
3dWireframe
350
26D
  3
Basic
350
26F
  3
Brighten
350
273
  3
ColorChange
350
277
  3
Conceptual
350
271
  3
Dim
350
272
  3
EdgeColorOff
350
8BC
  3
Facepattern
350
276
  3
Flat
350
268
  3
FlatWithEdges
350
269
  3
Gouraud
350
26A
  3
GouraudWithEdges
350
26B
  3
Hidden
350
8B9
  3
JitterOff
350
8BA
  3
Linepattern
350
275
  3
OverhangOff
350
8BB
  3
Realistic
350
270
  3
Shaded
350
8C1
  3
Shaded with edges
350
8C0
  3
Shades of Gray
350
8BD
  3
Sketchy
350
8BE
  3
Thicken
350
274
  3
Wireframe
350
8B8
  3
X-Ray
350
8BF
  0
XRECORD
  5
8105
102
{ACAD_REACTORS
330
19
102
}
330
19
100
AcDbXrecord
280
     1
 90
        1
330
279
  0
DICTIONARY
  5
330
102
{ACAD_REACTORS
330
19
102
}
330
19
100
AcDbDictionary
281
     1
  3
CANNOSCALE
350
331
  3
CMLEADERSTYLE
350
8DA
  3
CTABLESTYLE
350
335
  3
HPTRANSPARENCY
350
C07
  3
XCLIPFRAME
350
64A
  0
DICTIONARY
  5
27A
102
{ACAD_REACTORS
330
19
102
}
330
19
100
AcDbDictionary
281
     1
  0
DICTIONARY
  5
C08
102
{ACAD_REACTORS
330
19
102
}
330
19
100
AcDbDictionary
281
     1
  3
DIMRAILANGLE
350
4918
  3
DIMRAILFIRSTOFFSET
350
4916
  3
DIMRAILOFFSET
350
4917
  3
DIMRAILSENABLED
350
4919
  0
DICTIONARY
  5
2E2
102
{ACAD_REACTORS
330
2E1
102
}
330
2E1
100
AcDbDictionary
281
     1
  0
DICTIONARY
  5
BFE
102
{ACAD_REACTORS
330
2E1
102
}
330
2E1
100
AcDbDictionary
281
     1
1001
ACAD
1000
<All
  0
SORTENTSTABLE
  5
6588
102
{ACAD_REACTORS
330
6587
102
}
330
6587
100
AcDbSortentsTable
330
A
331
0
  5
80B7
331
80AC
  5
80AE
331
80AD
  5
80AF
331
80AE
  5
80B0
331
80AF
  5
80B5
331
80B7
  5
80AD
  0
DICTIONARY
  5
808F
102
{ACAD_REACTORS
330
BDC
102
}
330
BDC
100
AcDbDictionary
280
     1
281
     1
  3
TEXT
360
BDE
  0
DIMASSOC
  5
7FA9
102
{ACAD_REACTORS
330
7FA8
102
}
330
7FA8
100
AcDbDimAssoc
330
7FA7
 90
        3
 70
     0
 71
     1
  1
AcDbOsnapPointRef
 72
    10
331
7D17
 73
     0
 91
        0
 40
0.9766162157347723
 10
0.0
 20
0.0
 30
0.0
 75
     0
  1
AcDbOsnapPointRef
 72
     8
331
7D1C
 73
     0
 91
        0
 40
0.0233837842652276
 10
0.0
 20
0.0
 30
0.0
 75
     1
  1
AcDbOsnapPointRef
 72
    10
331
7D17
 73
     0
 91
        0
 40
0.9766162157347723
 10
0.0
 20
0.0
 30
0.0
 75
     0
  0
DIMASSOC
  5
80BD
102
{ACAD_REACTORS
330
80BC
102
}
330
80BC
100
AcDbDimAssoc
330
80BB
 90
        1
 70
     0
 71
     1
  1
AcDbOsnapPointRef
 72
    10
331
7F72
 73
     0
 91
        0
 40
0.0163098744023438
 10
0.0
 20
0.0
 30
0.0
 75
     0
  0
DIMASSOC
  5
80CE
102
{ACAD_REACTORS
330
80CD
102
}
330
80CD
100
AcDbDimAssoc
330
80CC
 90
        3
 70
     0
 71
     1
  1
AcDbOsnapPointRef
 72
     1
331
80AC
 73
     0
 91
        0
 40
0.0
 10
0.0
 20
0.0
 30
0.0
 75
     0
  1
AcDbOsnapPointRef
 72
     1
331
80AD
 73
     0
 91
        0
 40
0.0
 10
0.0
 20
0.0
 30
0.0
 75
     0
  0
DIMASSOC
  5
80DD
102
{ACAD_REACTORS
330
80DC
102
}
330
80DC
100
AcDbDimAssoc
330
80DB
 90
        3
 70
     0
 71
     1
  1
AcDbOsnapPointRef
 72
     1
331
80AD
 73
     0
 91
        0
 40
0.0
 10
0.0
 20
0.0
 30
0.0
 75
     0
  1
AcDbOsnapPointRef
 72
    13
331
80AF
 73
     0
 91
        0
 40
0.0
 10
0.0
 20
0.0
 30
0.0
 75
     0
  0
GROUP
  5
7F87
102
{ACAD_REACTORS
330
1A
102
}
330
1A
100
AcDbGroup
300

 70
     1
 71
     1
340
7D0E
340
7D0F
340
7D10
340
7D11
340
7D12
340
7D24
340
7D25
340
7D26
340
7D3A
340
7D3B
340
7D3C
340
7D4C
340
7D4D
340
7D4E
340
7D4F
340
7D5C
340
7D5D
340
7D5E
340
7D68
340
7D6B
340
7D73
  0
GROUP
  5
80B1
102
{ACAD_REACTORS
330
1A
102
}
330
1A
100
AcDbGroup
300

 70
     1
 71
     1
340
80AC
340
80AD
340
80AE
340
80AF
  0
LAYOUT
  5
21
102
{ACAD_REACTORS
330
1E
102
}
330
1E
100
AcDbPlotSettings
  1

  2
none_device
  4
ISO_A3_(420.00_x_297.00_MM)
  6

 40
7.5
 41
20.0
 42
7.5
 43
20.0
 44
420.0
 45
297.0
 46
0.0
 47
0.0
 48
0.0
 49
0.0
140
0.0
141
0.0
142
1.0
143
1.0
 70
     0
 72
     1
 73
     0
 74
     0
  7

 75
     0
 76
     0
 77
     2
 78
   300
147
1.0
148
0.0
149
0.0
100
AcDbLayout
  1
Layout1
 70
     0
 71
     0
 10
0.0
 20
0.0
 11
0.0
 21
0.0
 12
0.0
 22
0.0
 32
0.0
 14
0.0
 24
0.0
 34
0.0
 15
0.0
 25
0.0
 35
0.0
146
0.0
 13
0.0
 23
0.0
 33
0.0
 16
0.0
 26
0.0
 36
0.0
 17
0.0
 27
0.0
 37
0.0
 76
     0
330
B
331
349
  0
LAYOUT
  5
20
102
{ACAD_REACTORS
330
1E
102
}
330
1E
100
AcDbPlotSettings
  1

  2
none_device
  4
ISO_A3_(420.00_x_297.00_MM)
  6

 40
7.5
 41
20.0
 42
7.5
 43
20.0
 44
420.0
 45
297.0
 46
0.0
 47
0.0
 48
0.0
 49
0.0
140
0.0
141
0.0
142
1.0
143
1.0
 70
  1024
 72
     1
 73
     0
 74
     0
  7

 75
     0
 76
     0
 77
     2
 78
   300
147
1.0
148
0.0
149
0.0
100
AcDbLayout
  1
Model
 70
     0
 71
     1
 10
0.0
 20
0.0
 11
2100.0
 21
2970.0
 12
0.0
 22
0.0
 32
0.0
 14
0.0
 24
0.0
 34
-0.0000000053126276
 15
2100.0
 25
2970.0
 35
34.99521132346015
146
0.0
 13
0.0
 23
0.0
 33
0.0
 16
0.0
 26
0.0
 36
0.0
 17
0.0
 27
0.0
 37
0.0
 76
     0
330
A
331
15
  0
MATERIAL
  5
3F68
102
{ACAD_REACTORS
330
263
102
}
330
263
100
AcDbMaterial
  1
ByBlock
 72
     1
 94
      127
  0
MATERIAL
  5
264
102
{ACAD_REACTORS
330
263
102
}
330
263
100
AcDbMaterial
  1
ByLayer
 72
     1
 94
      127
  0
MATERIAL
  5
266
102
{ACAD_REACTORS
330
263
102
}
330
263
100
AcDbMaterial
  1
Global
 72
     1
 94
      127
  0
MLEADERSTYLE
  5
8D1
102
{ACAD_REACTORS
330
336
102
}
330
336
100
AcDbMLeaderStyle
170
     2
171
     1
172
     0
 90
        2
 40
0.0
 41
0.0
173
     1
 91
-1056964608
340
11
 92
       -2
290
     1
 42
2.0
291
     1
 43
8.0
  3
Standard
341
0
 44
4.0
300

342
17
174
     1
178
     6
175
     1
176
     0
 93
-1056964608
 45
4.0
292
     0
297
     0
 46
4.0
343
0
 94
-1056964608
 47
1.0
 49
1.0
140
1.0
293
     1
141
0.0
294
     1
177
     0
142
1.0
295
     0
296
     0
143
3.75
1001
ACAD_MLEADERVER
1070
     2
  0
MLINESTYLE
  5
1C
102
{ACAD_REACTORS
330
1B
102
}
330
1B
100
AcDbMlineStyle
  2
Standard
 70
     0
  3

 62
     0
 51
90.0
 52
90.0
 71
     2
 49
0.5
 62
   256
  6
BYLAYER
 49
-0.5
 62
   256
  6
BYLAYER
  0
ACDBPLACEHOLDER
  5
1D
102
{ACAD_REACTORS
330
1F
102
}
330
1F
  0
SCALE
  5
242
102
{ACAD_REACTORS
330
241
102
}
330
241
100
AcDbScale
 70
     0
300
1:1
140
1.0
141
1.0
290
     1
  0
SCALE
  5
243
102
{ACAD_REACTORS
330
241
102
}
330
241
100
AcDbScale
 70
     0
300
1:2
140
1.0
141
2.0
290
     0
  0
SCALE
  5
244
102
{ACAD_REACTORS
330
241
102
}
330
241
100
AcDbScale
 70
     0
300
1:4
140
1.0
141
4.0
290
     0
  0
SCALE
  5
245
102
{ACAD_REACTORS
330
241
102
}
330
241
100
AcDbScale
 70
     0
300
1:5
140
1.0
141
5.0
290
     0
  0
SCALE
  5
246
102
{ACAD_REACTORS
330
241
102
}
330
241
100
AcDbScale
 70
     0
300
1:8
140
1.0
141
8.0
290
     0
  0
SCALE
  5
247
102
{ACAD_REACTORS
330
241
102
}
330
241
100
AcDbScale
 70
     0
300
1:10
140
1.0
141
10.0
290
     0
  0
SCALE
  5
248
102
{ACAD_REACTORS
330
241
102
}
330
241
100
AcDbScale
 70
     0
300
1:16
140
1.0
141
16.0
290
     0
  0
SCALE
  5
249
102
{ACAD_REACTORS
330
241
102
}
330
241
100
AcDbScale
 70
     0
300
1:20
140
1.0
141
20.0
290
     0
  0
SCALE
  5
24A
102
{ACAD_REACTORS
330
241
102
}
330
241
100
AcDbScale
 70
     0
300
1:30
140
1.0
141
30.0
290
     0
  0
SCALE
  5
24B
102
{ACAD_REACTORS
330
241
102
}
330
241
100
AcDbScale
 70
     0
300
1:40
140
1.0
141
40.0
290
     0
  0
SCALE
  5
24C
102
{ACAD_REACTORS
330
241
102
}
330
241
100
AcDbScale
 70
     0
300
1:50
140
1.0
141
50.0
290
     0
  0
SCALE
  5
24D
102
{ACAD_REACTORS
330
241
102
}
330
241
100
AcDbScale
 70
     0
300
1:100
140
1.0
141
100.0
290
     0
  0
SCALE
  5
24E
102
{ACAD_REACTORS
330
241
102
}
330
241
100
AcDbScale
 70
     0
300
2:1
140
2.0
141
1.0
290
     0
  0
SCALE
  5
24F
102
{ACAD_REACTORS
330
241
102
}
330
241
100
AcDbScale
 70
     0
300
4:1
140
4.0
141
1.0
290
     0
  0
SCALE
  5
250
102
{ACAD_REACTORS
330
241
102
}
330
241
100
AcDbScale
 70
     0
300
8:1
140
8.0
141
1.0
290
     0
  0
SCALE
  5
251
102
{ACAD_REACTORS
330
241
102
}
330
241
100
AcDbScale
 70
     0
300
10:1
140
10.0
141
1.0
290
     0
  0
SCALE
  5
252
102
{ACAD_REACTORS
330
241
102
}
330
241
100
AcDbScale
 70
     0
300
100:1
140
100.0
141
1.0
290
     0
  0
SCALE
  5
253
102
{ACAD_REACTORS
330
241
102
}
330
241
100
AcDbScale
 70
     0
300
1/128" = 1'-0"
140
0.0078125
141
12.0
290
     0
  0
SCALE
  5
254
102
{ACAD_REACTORS
330
241
102
}
330
241
100
AcDbScale
 70
     0
300
1/64" = 1'-0"
140
0.015625
141
12.0
290
     0
  0
SCALE
  5
255
102
{ACAD_REACTORS
330
241
102
}
330
241
100
AcDbScale
 70
     0
300
1/32" = 1'-0"
140
0.03125
141
12.0
290
     0
  0
SCALE
  5
256
102
{ACAD_REACTORS
330
241
102
}
330
241
100
AcDbScale
 70
     0
300
1/16" = 1'-0"
140
0.0625
141
12.0
290
     0
  0
SCALE
  5
257
102
{ACAD_REACTORS
330
241
102
}
330
241
100
AcDbScale
 70
     0
300
3/32" = 1'-0"
140
0.09375
141
12.0
290
     0
  0
SCALE
  5
258
102
{ACAD_REACTORS
330
241
102
}
330
241
100
AcDbScale
 70
     0
300
1/8" = 1'-0"
140
0.125
141
12.0
290
     0
  0
SCALE
  5
259
102
{ACAD_REACTORS
330
241
102
}
330
241
100
AcDbScale
 70
     0
300
3/16" = 1'-0"
140
0.1875
141
12.0
290
     0
  0
SCALE
  5
25A
102
{ACAD_REACTORS
330
241
102
}
330
241
100
AcDbScale
 70
     0
300
1/4" = 1'-0"
140
0.25
141
12.0
290
     0
  0
SCALE
  5
25B
102
{ACAD_REACTORS
330
241
102
}
330
241
100
AcDbScale
 70
     0
300
3/8" = 1'-0"
140
0.375
141
12.0
290
     0
  0
SCALE
  5
25C
102
{ACAD_REACTORS
330
241
102
}
330
241
100
AcDbScale
 70
     0
300
1/2" = 1'-0"
140
0.5
141
12.0
290
     0
  0
SCALE
  5
25D
102
{ACAD_REACTORS
330
241
102
}
330
241
100
AcDbScale
 70
     0
300
3/4" = 1'-0"
140
0.75
141
12.0
290
     0
  0
SCALE
  5
25E
102
{ACAD_REACTORS
330
241
102
}
330
241
100
AcDbScale
 70
     0
300
1" = 1'-0"
140
1.0
141
12.0
290
     0
  0
SCALE
  5
25F
102
{ACAD_REACTORS
330
241
102
}
330
241
100
AcDbScale
 70
     0
300
1-1/2" = 1'-0"
140
1.5
141
12.0
290
     0
  0
SCALE
  5
260
102
{ACAD_REACTORS
330
241
102
}
330
241
100
AcDbScale
 70
     0
300
3" = 1'-0"
140
3.0
141
12.0
290
     0
  0
SCALE
  5
261
102
{ACAD_REACTORS
330
241
102
}
330
241
100
AcDbScale
 70
     0
300
6" = 1'-0"
140
6.0
141
12.0
290
     0
  0
SCALE
  5
262
102
{ACAD_REACTORS
330
241
102
}
330
241
100
AcDbScale
 70
     0
300
1'-0" = 1'-0"
140
12.0
141
12.0
290
     0
  0
TABLESTYLE
  5
279
102
{ACAD_REACTORS
330
278
102
}
102
{ACAD_XDICTIONARY
360
8103
102
}
330
278
100
AcDbTableStyle
  3
Standard
 70
     0
 71
     0
 40
0.06
 41
0.06
280
     0
281
     0
  7
Standard
140
4.5
170
     2
 62
     0
 63
   257
283
     0
 90
        4
 91
        0
  1

274
    -2
284
     1
 64
     0
275
    -2
285
     1
 65
     0
276
    -2
286
     1
 66
     0
277
    -2
287
     1
 67
     0
278
    -2
288
     1
 68
     0
279
    -2
289
     1
 69
     0
  7
Standard
140
6.0
170
     5
 62
     0
 63
   257
283
     0
 90
        4
 91
        0
  1

274
    -2
284
     1
 64
     0
275
    -2
285
     1
 65
     0
276
    -2
286
     1
 66
     0
277
    -2
287
     1
 67
     0
278
    -2
288
     1
 68
     0
279
    -2
289
     1
 69
     0
  7
Standard
140
4.5
170
     5
 62
     0
 63
   257
283
     0
 90
        4
 91
        0
  1

274
    -2
284
     1
 64
     0
275
    -2
285
     1
 65
     0
276
    -2
286
     1
 66
     0
277
    -2
287
     1
 67
     0
278
    -2
288
     1
 68
     0
279
    -2
289
     1
 69
     0
  0
VISUALSTYLE
  5
26C
102
{ACAD_REACTORS
330
267
102
}
330
267
100
AcDbVisualStyle
  2
2dWireframe
 70
     4
 71
     0
 72
     2
 73
     0
 90
        0
 40
-0.6
 41
-30.0
 62
     5
 63
     7
421
 16777215
 74
     1
 91
        4
 64
     7
 65
   257
 75
     1
175
     1
 42
1.0
 92
        0
 66
   257
 43
1.0
 76
     1
 77
     6
 78
     2
 67
     7
 79
     5
170
     0
171
     0
290
     0
174
     0
 93
        1
 44
0.0
173
     0
291
     0
 45
0.0
  0
VISUALSTYLE
  5
26E
102
{ACAD_REACTORS
330
267
102
}
330
267
100
AcDbVisualStyle
  2
3D Hidden
 70
     6
 71
     1
 72
     2
 73
     2
 90
        0
 40
-0.6
 41
-30.0
 62
     5
 63
     7
421
 16777215
 74
     2
 91
        2
 64
     7
 65
   257
 75
     2
175
     1
 42
40.0
 92
        0
 66
   257
 43
1.0
 76
     1
 77
     6
 78
     2
 67
     7
 79
     3
170
     0
171
     0
290
     0
174
     0
 93
        1
 44
0.0
173
     0
291
     0
 45
0.0
  0
VISUALSTYLE
  5
26D
102
{ACAD_REACTORS
330
267
102
}
330
267
100
AcDbVisualStyle
  2
3dWireframe
 70
     5
 71
     0
 72
     2
 73
     0
 90
        0
 40
-0.6
 41
-30.0
 62
     5
 63
     7
421
 16777215
 74
     1
 91
        4
 64
     7
 65
   257
 75
     1
175
     1
 42
1.0
 92
        0
 66
   257
 43
1.0
 76
     1
 77
     6
 78
     2
 67
     7
 79
     5
170
     0
171
     0
290
     0
174
     0
 93
        1
 44
0.0
173
     0
291
     0
 45
0.0
  0
VISUALSTYLE
  5
26F
102
{ACAD_REACTORS
330
267
102
}
330
267
100
AcDbVisualStyle
  2
Basic
 70
     7
 71
     1
 72
     0
 73
     1
 90
        0
 40
-0.6
 41
-30.0
 62
     5
 63
     7
421
 16777215
 74
     0
 91
        4
 64
     7
 65
   257
 75
     1
175
     1
 42
1.0
 92
        8
 66
     7
 43
1.0
 76
     1
 77
     6
 78
     2
 67
     7
 79
     5
170
     0
171
     0
290
     0
174
     0
 93
        1
 44
0.0
173
     0
291
     1
 45
0.0
  0
VISUALSTYLE
  5
273
102
{ACAD_REACTORS
330
267
102
}
330
267
100
AcDbVisualStyle
  2
Brighten
 70
    12
 71
     2
 72
     2
 73
     0
 90
        0
 40
-0.6
 41
-30.0
 62
     5
 63
     7
421
 16777215
 74
     1
 91
        4
 64
     7
 65
   257
 75
     1
175
     1
 42
1.0
 92
        8
 66
     7
 43
1.0
 76
     1
 77
     6
 78
     2
 67
     7
 79
     5
170
     0
171
     0
290
     0
174
     0
 93
        1
 44
50.0
173
     0
291
     1
 45
0.0
  0
VISUALSTYLE
  5
277
102
{ACAD_REACTORS
330
267
102
}
330
267
100
AcDbVisualStyle
  2
ColorChange
 70
    16
 71
     2
 72
     2
 73
     3
 90
        0
 40
-0.6
 41
-30.0
 62
     5
 63
     8
421
  8421504
 74
     1
 91
        4
 64
     7
 65
   257
 75
     1
175
     1
 42
1.0
 92
        8
 66
     8
424
  8421504
 43
1.0
 76
     1
 77
     6
 78
     2
 67
     7
 79
     5
170
     0
171
     0
290
     0
174
     0
 93
        1
 44
0.0
173
     0
291
     1
 45
0.0
  0
VISUALSTYLE
  5
271
102
{ACAD_REACTORS
330
267
102
}
330
267
100
AcDbVisualStyle
  2
Conceptual
 70
     9
 71
     3
 72
     2
 73
     0
 90
        0
 40
-0.6
 41
-30.0
 62
     5
 63
     7
421
 16777215
 74
     2
 91
        2
 64
     7
 65
   257
 75
     1
175
     1
 42
40.0
 92
        8
 66
     7
 43
1.0
 76
     1
 77
     6
 78
     2
 67
     7
 79
     3
170
     0
171
     0
290
     0
174
     0
 93
        1
 44
0.0
173
     0
291
     0
 45
0.0
  0
VISUALSTYLE
  5
272
102
{ACAD_REACTORS
330
267
102
}
330
267
100
AcDbVisualStyle
  2
Dim
 70
    11
 71
     2
 72
     2
 73
     0
 90
        0
 40
-0.6
 41
-30.0
 62
     5
 63
     7
421
 16777215
 74
     1
 91
        4
 64
     7
 65
   257
 75
     1
175
     1
 42
1.0
 92
        8
 66
     7
 43
1.0
 76
     1
 77
     6
 78
     2
 67
     7
 79
     5
170
     0
171
     0
290
     0
174
     0
 93
        1
 44
-50.0
173
     0
291
     1
 45
0.0
  0
VISUALSTYLE
  5
8BC
102
{ACAD_REACTORS
330
267
102
}
330
267
100
AcDbVisualStyle
  2
EdgeColorOff
 70
    22
 71
     2
 72
     2
 73
     0
 90
        0
 40
0.6
 41
30.0
 62
     5
 63
     7
421
 16777215
 74
     1
 91
        4
 64
     7
 65
   257
 75
     1
175
     1
 42
1.0
 92
        8
 66
     7
 43
1.0
 76
     1
 77
     6
 78
     2
 67
     7
 79
     5
170
     0
171
     0
290
     0
174
     0
 93
        1
 44
0.0
173
     0
291
     1
 45
0.0
  0
VISUALSTYLE
  5
276
102
{ACAD_REACTORS
330
267
102
}
330
267
100
AcDbVisualStyle
  2
Facepattern
 70
    15
 71
     2
 72
     2
 73
     0
 90
        0
 40
-0.6
 41
-30.0
 62
     5
 63
     7
421
 16777215
 74
     1
 91
        4
 64
     7
 65
   257
 75
     1
175
     1
 42
1.0
 92
        8
 66
     7
 43
1.0
 76
     1
 77
     6
 78
     2
 67
     7
 79
     5
170
     0
171
     0
290
     0
174
     0
 93
        1
 44
0.0
173
     0
291
     1
 45
0.0
  0
VISUALSTYLE
  5
268
102
{ACAD_REACTORS
330
267
102
}
330
267
100
AcDbVisualStyle
  2
Flat
 70
     0
 71
     2
 72
     1
 73
     1
 90
        2
 40
-0.6
 41
30.0
 62
     5
 63
     7
421
 16777215
 74
     0
 91
        4
 64
     7
 65
   257
 75
     1
175
     1
 42
1.0
 92
        8
 66
     7
 43
1.0
 76
     1
 77
     6
 78
     2
 67
     7
 79
     5
170
     0
171
     0
290
     0
174
     0
 93
       13
 44
0.0
173
     0
291
     1
 45
0.0
  0
VISUALSTYLE
  5
269
102
{ACAD_REACTORS
330
267
102
}
330
267
100
AcDbVisualStyle
  2
FlatWithEdges
 70
     1
 71
     2
 72
     1
 73
     1
 90
        2
 40
-0.6
 41
30.0
 62
     5
 63
     7
421
 16777215
 74
     1
 91
        4
 64
     7
 65
   257
 75
     1
175
     1
 42
1.0
 92
        0
 66
   257
 43
1.0
 76
     1
 77
     6
 78
     2
 67
     7
 79
     5
170
     0
171
     0
290
     0
174
     0
 93
       13
 44
0.0
173
     0
291
     1
 45
0.0
  0
VISUALSTYLE
  5
26A
102
{ACAD_REACTORS
330
267
102
}
330
267
100
AcDbVisualStyle
  2
Gouraud
 70
     2
 71
     2
 72
     2
 73
     1
 90
        2
 40
-0.6
 41
30.0
 62
     5
 63
     7
421
 16777215
 74
     0
 91
        4
 64
     7
 65
   257
 75
     1
175
     1
 42
1.0
 92
        0
 66
     7
 43
1.0
 76
     1
 77
     6
 78
     2
 67
     7
 79
     5
170
     0
171
     0
290
     0
174
     0
 93
       13
 44
0.0
173
     0
291
     1
 45
0.0
  0
VISUALSTYLE
  5
26B
102
{ACAD_REACTORS
330
267
102
}
330
267
100
AcDbVisualStyle
  2
GouraudWithEdges
 70
     3
 71
     2
 72
     2
 73
     1
 90
        2
 40
-0.6
 41
30.0
 62
     5
 63
     7
421
 16777215
 74
     1
 91
        4
 64
     7
 65
   257
 75
     1
175
     1
 42
1.0
 92
        0
 66
   257
 43
1.0
 76
     1
 77
     6
 78
     2
 67
     7
 79
     5
170
     0
171
     0
290
     0
174
     0
 93
       13
 44
0.0
173
     0
291
     1
 45
0.0
  0
VISUALSTYLE
  5
8B9
102
{ACAD_REACTORS
330
267
102
}
330
267
100
AcDbVisualStyle
  2
Hidden
 70
     6
 71
     1
 72
     2
 73
     2
 90
        0
 40
0.6
 41
30.0
 62
     5
 63
     7
421
 16777215
 74
     2
 91
        2
 64
     7
 65
   257
 75
     2
175
     1
 42
40.0
 92
        0
 66
   257
 43
1.0
 76
     1
 77
     6
 78
     2
 67
     7
 79
     3
170
     0
171
     0
290
     0
174
     0
 93
        1
 44
0.0
173
     0
291
     0
 45
0.0
  0
VISUALSTYLE
  5
8BA
102
{ACAD_REACTORS
330
267
102
}
330
267
100
AcDbVisualStyle
  2
JitterOff
 70
    20
 71
     2
 72
     2
 73
     0
 90
        0
 40
0.6
 41
30.0
 62
     5
 63
     7
421
 16777215
 74
     1
 91
        4
 64
     7
 65
   257
 75
     1
175
     1
 42
1.0
 92
       10
 66
     7
 43
1.0
 76
     1
 77
     6
 78
     2
 67
     7
 79
     5
170
     0
171
     0
290
     0
174
     0
 93
        1
 44
0.0
173
     0
291
     1
 45
0.0
  0
VISUALSTYLE
  5
275
102
{ACAD_REACTORS
330
267
102
}
330
267
100
AcDbVisualStyle
  2
Linepattern
 70
    14
 71
     2
 72
     2
 73
     0
 90
        0
 40
-0.6
 41
-30.0
 62
     5
 63
     7
421
 16777215
 74
     1
 91
        4
 64
     7
 65
   257
 75
     7
175
     7
 42
1.0
 92
        8
 66
     7
 43
1.0
 76
     1
 77
     6
 78
     2
 67
     7
 79
     5
170
     0
171
     0
290
     0
174
     0
 93
        1
 44
0.0
173
     0
291
     1
 45
0.0
  0
VISUALSTYLE
  5
8BB
102
{ACAD_REACTORS
330
267
102
}
330
267
100
AcDbVisualStyle
  2
OverhangOff
 70
    21
 71
     2
 72
     2
 73
     0
 90
        0
 40
0.6
 41
30.0
 62
     5
 63
     7
421
 16777215
 74
     1
 91
        4
 64
     7
 65
   257
 75
     1
175
     1
 42
1.0
 92
        9
 66
     7
 43
1.0
 76
     1
 77
     6
 78
     2
 67
     7
 79
     5
170
     0
171
     0
290
     0
174
     0
 93
        1
 44
0.0
173
     0
291
     1
 45
0.0
  0
VISUALSTYLE
  5
270
102
{ACAD_REACTORS
330
267
102
}
330
267
100
AcDbVisualStyle
  2
Realistic
 70
     8
 71
     2
 72
     2
 73
     0
 90
        0
 40
-0.6
 41
-30.0
 62
     5
 63
     7
421
 16777215
 74
     1
 91
        0
 64
     7
 65
   257
 75
     1
175
     1
 42
1.0
 92
        8
 66
     8
424
  7895160
 43
1.0
 76
     1
 77
     6
 78
     2
 67
     7
 79
     5
170
     0
171
     0
290
     0
174
     0
 93
       13
 44
0.0
173
     0
291
     0
 45
0.0
  0
VISUALSTYLE
  5
8C1
102
{ACAD_REACTORS
330
267
102
}
330
267
100
AcDbVisualStyle
  2
Shaded
 70
    27
 71
     2
 72
     2
 73
     1
 90
        2
 40
0.6
 41
30.0
 62
     5
 63
     7
421
 16777215
 74
     0
 91
        4
 64
     7
 65
   257
 75
     1
175
     1
 42
1.0
 92
        8
 66
   257
 43
1.0
 76
     1
 77
     6
 78
     2
 67
     8
425
  7895160
 79
     3
170
     0
171
     0
290
     0
174
     0
 93
        5
 44
0.0
173
     0
291
     0
 45
0.0
  0
VISUALSTYLE
  5
8C0
102
{ACAD_REACTORS
330
267
102
}
330
267
100
AcDbVisualStyle
  2
Shaded with edges
 70
    26
 71
     2
 72
     2
 73
     1
 90
        2
 40
0.6
 41
30.0
 62
     5
 63
     7
421
 16777215
 74
     1
 91
       10
 64
     7
 65
   257
 75
     2
175
     1
 42
1.0
 92
        8
 66
   257
 43
1.0
 76
     1
 77
     6
 78
     2
 67
     7
 79
     3
170
     0
171
     0
290
     0
174
     0
 93
        5
 44
0.0
173
     0
291
     0
 45
0.0
  0
VISUALSTYLE
  5
8BD
102
{ACAD_REACTORS
330
267
102
}
330
267
100
AcDbVisualStyle
  2
Shades of Gray
 70
    23
 71
     2
 72
     2
 73
     3
 90
        0
 40
0.6
 41
30.0
 62
     5
 63
     7
421
 16777215
 74
     2
 91
        2
 64
     7
 65
     7
 75
     1
175
     1
 42
40.0
 92
        8
 66
     7
 43
1.0
 76
     1
 77
     6
 78
     2
 67
     7
 79
     3
170
     0
171
     0
290
     0
174
     0
 93
        1
 44
0.0
173
     0
291
     0
 45
0.0
  0
VISUALSTYLE
  5
8BE
102
{ACAD_REACTORS
330
267
102
}
330
267
100
AcDbVisualStyle
  2
Sketchy
 70
    24
 71
     1
 72
     2
 73
     2
 90
        0
 40
0.6
 41
30.0
 62
     5
 63
     7
421
 16777215
 74
     2
 91
        2
 64
     7
 65
     7
 75
     1
175
     1
 42
40.0
 92
       11
 66
     7
 43
1.0
 76
     1
 77
     6
 78
     2
 67
     7
 79
     6
170
     0
171
     0
290
     0
174
     0
 93
        1
 44
0.0
173
     0
291
     0
 45
0.0
  0
VISUALSTYLE
  5
274
102
{ACAD_REACTORS
330
267
102
}
330
267
100
AcDbVisualStyle
  2
Thicken
 70
    13
 71
     2
 72
     2
 73
     0
 90
        0
 40
-0.6
 41
-30.0
 62
     5
 63
     7
421
 16777215
 74
     1
 91
        4
 64
     7
 65
   257
 75
     1
175
     1
 42
1.0
 92
       12
 66
     7
 43
1.0
 76
     1
 77
     6
 78
     2
 67
     7
 79
     5
170
     0
171
     0
290
     0
174
     0
 93
        1
 44
0.0
173
     0
291
     1
 45
0.0
  0
VISUALSTYLE
  5
8B8
102
{ACAD_REACTORS
330
267
102
}
330
267
100
AcDbVisualStyle
  2
Wireframe
 70
     5
 71
     0
 72
     2
 73
     0
 90
        0
 40
0.6
 41
30.0
 62
     5
 63
     7
421
 16777215
 74
     1
 91
        4
 64
     7
 65
   257
 75
     1
175
     1
 42
1.0
 92
        0
 66
   257
 43
1.0
 76
     1
 77
     6
 78
     2
 67
     7
 79
     3
170
     0
171
     0
290
     0
174
     0
 93
        1
 44
0.0
173
     0
291
     0
 45
0.0
  0
VISUALSTYLE
  5
8BF
102
{ACAD_REACTORS
330
267
102
}
330
267
100
AcDbVisualStyle
  2
X-Ray
 70
    25
 71
     2
 72
     2
 73
     1
 90
        1
 40
0.5
 41
30.0
 62
     5
 63
     7
421
 16777215
 74
     1
 91
        0
 64
     7
 65
   257
 75
     1
175
     1
 42
1.0
 92
        8
 66
     7
 43
1.0
 76
     1
 77
     6
 78
     2
 67
     7
 79
     3
170
     0
171
     0
290
     0
174
     0
 93
       13
 44
0.0
173
     0
291
     0
 45
0.0
  0
DICTIONARYVAR
  5
331
102
{ACAD_REACTORS
330
330
102
}
330
330
100
DictionaryVariables
280
     0
  1
1:1
  0
DICTIONARYVAR
  5
8DA
102
{ACAD_REACTORS
330
330
102
}
330
330
100
DictionaryVariables
280
     0
  1
Standard
  0
DICTIONARYVAR
  5
335
102
{ACAD_REACTORS
330
330
102
}
330
330
100
DictionaryVariables
280
     0
  1
Standard
  0
DICTIONARYVAR
  5
C07
102
{ACAD_REACTORS
330
330
102
}
330
330
100
DictionaryVariables
280
     0
  1
ByLayer
  0
DICTIONARYVAR
  5
64A
102
{ACAD_REACTORS
330
330
102
}
330
330
100
DictionaryVariables
280
     0
  1
0
  0
DICTIONARYVAR
  5
4918
102
{ACAD_REACTORS
330
C08
102
}
330
C08
100
DictionaryVariables
280
     0
  1
0.261799
  0
DICTIONARYVAR
  5
4916
102
{ACAD_REACTORS
330
C08
102
}
330
C08
100
DictionaryVariables
280
     0
  1
0.400000
  0
DICTIONARYVAR
  5
4917
102
{ACAD_REACTORS
330
C08
102
}
330
C08
100
DictionaryVariables
280
     0
  1
0.250000
  0
DICTIONARYVAR
  5
4919
102
{ACAD_REACTORS
330
C08
102
}
330
C08
100
DictionaryVariables
280
     0
  1
1
  0
FIELD
  5
BDE
102
{ACAD_REACTORS
330
808F
102
}
330
808F
100
AcDbField
  1
_text
  2
{%<\_FldIdx 0>%N}
 90
        1
360
BDF
 97
        0
 91
       63
 92
        0
 94
       11
 95
        2
 96
        0
300

 93
        1
  6
ACFD_FIELDTEXT_CHECKSUM
 93
        2
 90
        2
140
4543.0
 94
        0
300

302

304
ACVALUE_END
  7
ACFD_FIELD_VALUE
 93
        6
 90
        4
  1
{20210818N}
 94
        0
300

302

304
ACVALUE_END
301
{20210818N}
 98
       11
  0
DICTIONARY
  5
8103
330
279
100
AcDbDictionary
280
     1
281
     1
  3
ACAD_ROUNDTRIP_2008_TABLESTYLE_CELLSTYLEMAP
360
8104
  0
FIELD
  5
BDF
330
BDE
100
AcDbField
  1
AcVar
  2
\AcVar Date \f "yyyyMMdd"
 90
        0
 97
        0
 91
       63
 92
        0
 94
        8
 95
       64
 96
        0
300
Variable not supported
 93
        1
  6
Variable
 93
        2
 90
        4
  1
Date
 94
        0
300

302

304
ACVALUE_END
  7
ACFD_FIELD_VALUE
 93
        6
 90
        8
 92
       16
310
E50708000000120006002D0009000000
 94
        0
300
yyyyMMdd
302

304
ACVALUE_END
301
20210818
 98
        8
  0
CELLSTYLEMAP
  5
8104
102
{ACAD_REACTORS
330
8103
102
}
330
8103
100
AcDbCellStyleMap
 90
        3
300
CELLSTYLE
  1
TABLEFORMAT_BEGIN
 90
        5
170
     1
 91
        0
 92
    32768
 62
   257
 93
        1
300
CONTENTFORMAT
  1
CONTENTFORMAT_BEGIN
 90
        0
 91
        0
 92
        4
 93
        0
300

 40
0.0
140
1.0
 94
        5
 62
     0
340
17
144
6.0
309
CONTENTFORMAT_END
171
     1
301
MARGIN
  1
CELLMARGIN_BEGIN
 40
0.06
 40
0.06
 40
0.06
 40
0.06
 40
0.18
 40
0.18
309
CELLMARGIN_END
 94
        6
 95
        1
302
GRIDFORMAT
  1
GRIDFORMAT_BEGIN
 90
        0
 91
        1
 62
     0
 92
       -2
340
0
 93
        0
 40
0.045
309
GRIDFORMAT_END
 95
        2
302
GRIDFORMAT
  1
GRIDFORMAT_BEGIN
 90
        0
 91
        1
 62
     0
 92
       -2
340
0
 93
        0
 40
0.045
309
GRIDFORMAT_END
 95
        4
302
GRIDFORMAT
  1
GRIDFORMAT_BEGIN
 90
        0
 91
        1
 62
     0
 92
       -2
340
0
 93
        0
 40
0.045
309
GRIDFORMAT_END
 95
        8
302
GRIDFORMAT
  1
GRIDFORMAT_BEGIN
 90
        0
 91
        1
 62
     0
 92
       -2
340
0
 93
        0
 40
0.045
309
GRIDFORMAT_END
 95
       16
302
GRIDFORMAT
  1
GRIDFORMAT_BEGIN
 90
        0
 91
        1
 62
     0
 92
       -2
340
0
 93
        0
 40
0.045
309
GRIDFORMAT_END
 95
       32
302
GRIDFORMAT
  1
GRIDFORMAT_BEGIN
 90
        0
 91
        1
 62
     0
 92
       -2
340
0
 93
        0
 40
0.045
309
GRIDFORMAT_END
309
TABLEFORMAT_END
  1
CELLSTYLE_BEGIN
 90
        1
 91
        1
300
_TITLE
309
CELLSTYLE_END
300
CELLSTYLE
  1
TABLEFORMAT_BEGIN
 90
        5
170
     1
 91
        0
 92
        0
 62
   257
 93
        1
300
CONTENTFORMAT
  1
CONTENTFORMAT_BEGIN
 90
        0
 91
        0
 92
        4
 93
        0
300

 40
0.0
140
1.0
 94
        5
 62
     0
340
17
144
4.5
309
CONTENTFORMAT_END
171
     1
301
MARGIN
  1
CELLMARGIN_BEGIN
 40
0.06
 40
0.06
 40
0.06
 40
0.06
 40
0.18
 40
0.18
309
CELLMARGIN_END
 94
        6
 95
        1
302
GRIDFORMAT
  1
GRIDFORMAT_BEGIN
 90
        0
 91
        1
 62
     0
 92
       -2
340
0
 93
        0
 40
0.045
309
GRIDFORMAT_END
 95
        2
302
GRIDFORMAT
  1
GRIDFORMAT_BEGIN
 90
        0
 91
        1
 62
     0
 92
       -2
340
0
 93
        0
 40
0.045
309
GRIDFORMAT_END
 95
        4
302
GRIDFORMAT
  1
GRIDFORMAT_BEGIN
 90
        0
 91
        1
 62
     0
 92
       -2
340
0
 93
        0
 40
0.045
309
GRIDFORMAT_END
 95
        8
302
GRIDFORMAT
  1
GRIDFORMAT_BEGIN
 90
        0
 91
        1
 62
     0
 92
       -2
340
0
 93
        0
 40
0.045
309
GRIDFORMAT_END
 95
       16
302
GRIDFORMAT
  1
GRIDFORMAT_BEGIN
 90
        0
 91
        1
 62
     0
 92
       -2
340
0
 93
        0
 40
0.045
309
GRIDFORMAT_END
 95
       32
302
GRIDFORMAT
  1
GRIDFORMAT_BEGIN
 90
        0
 91
        1
 62
     0
 92
       -2
340
0
 93
        0
 40
0.045
309
GRIDFORMAT_END
309
TABLEFORMAT_END
  1
CELLSTYLE_BEGIN
 90
        2
 91
        1
300
_HEADER
309
CELLSTYLE_END
300
CELLSTYLE
  1
TABLEFORMAT_BEGIN
 90
        5
170
     1
 91
        0
 92
        0
 62
   257
 93
        1
300
CONTENTFORMAT
  1
CONTENTFORMAT_BEGIN
 90
        0
 91
        0
 92
        4
 93
        0
300

 40
0.0
140
1.0
 94
        2
 62
     0
340
17
144
4.5
309
CONTENTFORMAT_END
171
     1
301
MARGIN
  1
CELLMARGIN_BEGIN
 40
0.06
 40
0.06
 40
0.06
 40
0.06
 40
0.18
 40
0.18
309
CELLMARGIN_END
 94
        6
 95
        1
302
GRIDFORMAT
  1
GRIDFORMAT_BEGIN
 90
        0
 91
        1
 62
     0
 92
       -2
340
0
 93
        0
 40
0.045
309
GRIDFORMAT_END
 95
        2
302
GRIDFORMAT
  1
GRIDFORMAT_BEGIN
 90
        0
 91
        1
 62
     0
 92
       -2
340
0
 93
        0
 40
0.045
309
GRIDFORMAT_END
 95
        4
302
GRIDFORMAT
  1
GRIDFORMAT_BEGIN
 90
        0
 91
        1
 62
     0
 92
       -2
340
0
 93
        0
 40
0.045
309
GRIDFORMAT_END
 95
        8
302
GRIDFORMAT
  1
GRIDFORMAT_BEGIN
 90
        0
 91
        1
 62
     0
 92
       -2
340
0
 93
        0
 40
0.045
309
GRIDFORMAT_END
 95
       16
302
GRIDFORMAT
  1
GRIDFORMAT_BEGIN
 90
        0
 91
        1
 62
     0
 92
       -2
340
0
 93
        0
 40
0.045
309
GRIDFORMAT_END
 95
       32
302
GRIDFORMAT
  1
GRIDFORMAT_BEGIN
 90
        0
 91
        1
 62
     0
 92
       -2
340
0
 93
        0
 40
0.045
309
GRIDFORMAT_END
309
TABLEFORMAT_END
  1
CELLSTYLE_BEGIN
 90
        3
 91
        2
300
_DATA
309
CELLSTYLE_END
  0
ENDSEC
  0
EOF
