  0
SECTION
  2
HEADER
  9
$ACADVER
  1
AC1015
  9
$ACADMAINTVER
 70
               6
  9
$DWGCODEPAGE
  3
ANSI_932
  9
$INSBASE
 10
0.0
 20
0.0
 30
0.0
  9
$EXTMIN
 10
14097.929353303181
 20
3750.3023742530245
 30
-14.834305555555554
  9
$EXTMAX
 10
16047.929353303665
 20
6587.8251893654369
 30
14.834305555555554
  9
$LIMMIN
 10
0.0
 20
0.0
  9
$LIMMAX
 10
0.0
 20
0.0
  9
$ORTHOMODE
 70
               0
  9
$REGENMODE
 70
               1
  9
$FILLMODE
 70
               1
  9
$QTEXTMODE
 70
               0
  9
$MIRRTEXT
 70
               1
  9
$LTSCALE
 40
50.799999999999997
  9
$ATTMODE
 70
               1
  9
$TEXTSIZE
 40
0.2
  9
$TRACEWID
 40
1.0
  9
$TEXTSTYLE
  7
Standard
  9
$CLAYER
  8
template
  9
$CELTYPE
  6
Continuous
  9
$CECOLOR
 62
             256
  9
$CELTSCALE
 40
1.0
  9
$DISPSILH
 70
               0
  9
$DIMSCALE
 40
1.0
  9
$DIMASZ
 40
9.9993896484374982
  9
$DIMEXO
 40
24.999999999999996
  9
$DIMDLI
 40
0.9999999999999999
  9
$DIMRND
 40
0.0
  9
$DIMDLE
 40
0.0
  9
$DIMEXE
 40
0.0
  9
$DIMTP
 40
0.0
  9
$DIMTM
 40
0.0
  9
$DIMTXT
 40
24.432617187500004
  9
$DIMCEN
 40
0.0
  9
$DIMTSZ
 40
0.0
  9
$DIMTOL
 70
               0
  9
$DIMLIM
 70
               0
  9
$DIMTIH
 70
               0
  9
$DIMTOH
 70
               0
  9
$DIMSE1
 70
               0
  9
$DIMSE2
 70
               0
  9
$DIMTAD
 70
               1
  9
$DIMZIN
 70
              11
  9
$DIMBLK
  1
_DOT
  9
$DIMASO
 70
               1
  9
$DIMSHO
 70
               1
  9
$DIMPOST
  1
<>
  9
$DIMAPOST
  1
[]
  9
$DIMALT
 70
               0
  9
$DIMALTD
 70
               1
  9
$DIMALTF
 40
1.0
  9
$DIMLFAC
 40
1.0
  9
$DIMTOFL
 70
               0
  9
$DIMTVP
 40
0.0
  9
$DIMTIX
 70
               1
  9
$DIMSOXD
 70
               0
  9
$DIMSAH
 70
               0
  9
$DIMBLK1
  1

  9
$DIMBLK2
  1

  9
$DIMSTYLE
  2
tform線あり
  9
$DIMCLRD
 70
               0
  9
$DIMCLRE
 70
               0
  9
$DIMCLRT
 70
               0
  9
$DIMTFAC
 40
1.0
  9
$DIMGAP
 40
0.4999999999999999
  9
$DIMJUST
 70
               0
  9
$DIMSD1
 70
               0
  9
$DIMSD2
 70
               0
  9
$DIMTOLJ
 70
               1
  9
$DIMTZIN
 70
              11
  9
$DIMALTZ
 70
              11
  9
$DIMALTTZ
 70
              11
  9
$DIMUPT
 70
               0
  9
$DIMDEC
 70
               1
  9
$DIMTDEC
 70
               1
  9
$DIMALTU
 70
               2
  9
$DIMALTTD
 70
               2
  9
$DIMTXSTY
  7
ＭＳ ゴシック
  9
$DIMAUNIT
 70
               0
  9
$DIMADEC
 70
               2
  9
$DIMALTRND
 40
0.0
  9
$DIMAZIN
 70
               0
  9
$DIMDSEP
 70
              46
  9
$DIMATFIT
 70
               0
  9
$DIMFRAC
 70
               2
  9
$DIMLDRBLK
  1

  9
$DIMLUNIT
 70
               2
  9
$DIMLWD
 70
              -2
  9
$DIMLWE
 70
              -2
  9
$DIMTMOVE
 70
               0
  9
$LUNITS
 70
               2
  9
$LUPREC
 70
               4
  9
$SKETCHINC
 40
0.1
  9
$FILLETRAD
 40
0.0
  9
$AUNITS
 70
               0
  9
$AUPREC
 70
               0
  9
$MENU
  1
acad
  9
$ELEVATION
 40
0.0
  9
$PELEVATION
 40
0.0
  9
$THICKNESS
 40
0.0
  9
$LIMCHECK
 70
               0
  9
$CHAMFERA
 40
0.0
  9
$CHAMFERB
 40
0.0
  9
$CHAMFERC
 40
0.0
  9
$CHAMFERD
 40
0.0
  9
$SKPOLY
 70
               0
  9
$TDCREATE
 40
2456029.673923611
  9
$TDUCREATE
 40
0.000000000
  9
$TDUPDATE
 40
2456029.673923611
  9
$TDUUPDATE
 40
0.000000000
  9
$TDINDWG
 40
0.0000000000
  9
$TDUSRTIMER
 40
0.0000000000
  9
$USRTIMER
 70
               1
  9
$ANGBASE
 50
0.0
  9
$ANGDIR
 70
               0
  9
$PDMODE
 70
               1
  9
$PDSIZE
 40
-2.0
  9
$PLINEWID
 40
0.0
  9
$SPLFRAME
 70
               0
  9
$SPLINETYPE
 70
               6
  9
$SPLINESEGS
 70
               8
  9
$HANDSEED
  5
1B9
  9
$SURFTAB1
 70
               6
  9
$SURFTAB2
 70
               6
  9
$SURFTYPE
 70
               6
  9
$SURFU
 70
               6
  9
$SURFV
 70
               6
  9
$UCSBASE
  2

  9
$UCSNAME
  2

  9
$UCSORG
 10
0.0
 20
0.0
 30
0.0
  9
$UCSXDIR
 10
1.0
 20
0.0
 30
0.0
  9
$UCSYDIR
 10
0.0
 20
1.0
 30
0.0
  9
$UCSORTHOREF
  2

  9
$UCSORTHOVIEW
 70
               0
  9
$UCSORGTOP
 10
0.0
 20
0.0
 30
0.0
  9
$UCSORGBOTTOM
 10
0.0
 20
0.0
 30
0.0
  9
$UCSORGLEFT
 10
0.0
 20
0.0
 30
0.0
  9
$UCSORGRIGHT
 10
0.0
 20
0.0
 30
0.0
  9
$UCSORGFRONT
 10
0.0
 20
0.0
 30
0.0
  9
$UCSORGBACK
 10
0.0
 20
0.0
 30
0.0
  9
$PUCSBASE
  2

  9
$PUCSNAME
  2

  9
$PUCSORG
 10
0.0
 20
0.0
 30
0.0
  9
$PUCSXDIR
 10
1.0
 20
0.0
 30
0.0
  9
$PUCSYDIR
 10
0.0
 20
1.0
 30
0.0
  9
$PUCSORTHOREF
  2

  9
$PUCSORTHOVIEW
 70
               0
  9
$PUCSORGTOP
 10
0.0
 20
0.0
 30
0.0
  9
$PUCSORGBOTTOM
 10
0.0
 20
0.0
 30
0.0
  9
$PUCSORGLEFT
 10
0.0
 20
0.0
 30
0.0
  9
$PUCSORGRIGHT
 10
0.0
 20
0.0
 30
0.0
  9
$PUCSORGFRONT
 10
0.0
 20
0.0
 30
0.0
  9
$PUCSORGBACK
 10
0.0
 20
0.0
 30
0.0
  9
$USERI1
 70
               0
  9
$USERI2
 70
               0
  9
$USERI3
 70
               0
  9
$USERI4
 70
               0
  9
$USERI5
 70
               0
  9
$USERR1
 40
0.0
  9
$USERR2
 40
0.0
  9
$USERR3
 40
0.0
  9
$USERR4
 40
0.0
  9
$USERR5
 40
0.0
  9
$WORLDVIEW
 70
               1
  9
$SHADEDGE
 70
               3
  9
$SHADEDIF
 70
              70
  9
$TILEMODE
 70
               1
  9
$MAXACTVP
 70
              64
  9
$PINSBASE
 10
0.0
 20
0.0
 30
0.0
  9
$PLIMCHECK
 70
               0
  9
$PEXTMIN
 10
1.0000000000000000E+20
 20
1.0000000000000000E+20
 30
1.0000000000000000E+20
  9
$PEXTMAX
 10
-1.0000000000000000E+20
 20
-1.0000000000000000E+20
 30
-1.0000000000000000E+20
  9
$PLIMMIN
 10
0.0
 20
0.0
  9
$PLIMMAX
 10
12.0
 20
9.0
  9
$UNITMODE
 70
               0
  9
$VISRETAIN
 70
               0
  9
$PLINEGEN
 70
               1
  9
$PSLTSCALE
 70
               0
  9
$TREEDEPTH
 70
            3020
  9
$CMLSTYLE
  2
Standard
  9
$CMLJUST
 70
               0
  9
$CMLSCALE
 40
1.0
  9
$PROXYGRAPHICS
 70
               0
  9
$MEASUREMENT
 70
               1
  9
$CELWEIGHT
370
               0
  9
$ENDCAPS
280
               0
  9
$JOINSTYLE
280
               0
  9
$LWDISPLAY
290
               1
  9
$INSUNITS
 70
               4
  9
$HYPERLINKBASE
  1

  9
$STYLESHEET
  1

  9
$XEDIT
290
               1
  9
$CEPSNTYPE
380
               0
  9
$PSTYLEMODE
290
               1
  9
$FINGERPRINTGUID
  2

  9
$VERSIONGUID
  2

  9
$EXTNAMES
290
               1
  9
$PSVPSCALE
 40
0.0
  0
ENDSEC
  0
SECTION
  2
CLASSES
  0
CLASS
  1
LWPOLYLINE
  2
AcDbPolyline
  3
AutoCAD 2000
 90
        0
280
               0
281
               1
  0
CLASS
  1
IMAGE
  2
AcDbRasterImage
  3
ISM
 90
      127
280
               0
281
               1
  0
CLASS
  1
OLE2FRAME
  2
AcDbOle2Frame
  3
AutoCAD 2000
 90
        0
280
               0
281
               1
  0
CLASS
  1
HATCH
  2
AcDbHatch
  3
AutoCAD 2000
 90
        0
280
               0
281
               1
  0
CLASS
  1
DICTIONARYVAR
  2
AcDbDictionaryVar
  3
AutoCAD 2000
 90
        0
280
               0
281
               0
  0
CLASS
  1
RASTERVARIABLES
  2
AcDbRasterVariables
  3
ISM
 90
        0
280
               0
281
               0
  0
CLASS
  1
IMAGEDEF
  2
AcDbRasterImageDef
  3
ISM
 90
        0
280
               0
281
               0
  0
CLASS
  1
IMAGEDEF_REACTOR
  2
AcDbRasterImageDefReactor
  3
ISM
 90
        1
280
               0
281
               0
  0
CLASS
  1
IDBUFFER
  2
AcDbIdBuffer
  3
AutoCAD 2000
 90
        0
280
               0
281
               0
  0
CLASS
  1
SPATIAL_FILTER
  2
AcDbSpatialFilter
  3
AutoCAD 2000
 90
        0
280
               0
281
               0
  0
CLASS
  1
XRECORD
  2
AcDbXrecord
  3
AutoCAD 2000
 90
        0
280
               0
281
               0
  0
CLASS
  1
SORTENTSTABLE
  2
AcDbSortentsTable
  3
AutoCAD 2000
 90
        0
280
               0
281
               0
  0
CLASS
  1
LAYER_INDEX
  2
AcDbLayerIndex
  3
AutoCAD 2000
 90
        0
280
               0
281
               0
  0
CLASS
  1
SPATIAL_INDEX
  2
AcDbSpatialIndex
  3
AutoCAD 2000
 90
        0
280
               0
281
               0
  0
CLASS
  1
OBJECT_PTR
  2
CAseDLPNTableRecord
  3
"ASE-LPNTableRecord"
 90
        1
280
               0
281
               0
  0
CLASS
  1
LAYOUT
  2
AcDbLayout
  3
AutoCAD 2000
 90
        0
280
               0
281
               0
  0
CLASS
  1
PLOTSETTINGS
  2
AcDbPlotSettings
  3
AutoCAD 2000
 90
        0
280
               0
281
               0
  0
CLASS
  1
ACDBDICTIONARYWDFLT
  2
AcDbDictionaryWithDefault
  3
AutoCAD 2000
 90
        0
280
               0
281
               0
  0
CLASS
  1
ACDBPLACEHOLDER
  2
AcDbPlaceHolder
  3
AutoCAD 2000
 90
        0
280
               0
281
               0
  0
ENDSEC
  0
SECTION
  2
TABLES
  0
TABLE
  2
VPORT
  5
7
100
AcDbSymbolTable
 70
               1
  0
VPORT
  5
15
100
AcDbSymbolTableRecord
100
AcDbViewportTableRecord
  2
*ACTIVE
 70
               0
 10
0.0
 20
0.0
 11
1.0
 21
1.0
 12
15072.929353303423
 22
5169.0637818092309
 13
0.0
 23
0.0
 14
1.0
 24
1.0
 15
0.0
 25
0.0
 16
0.0
 26
0.0
 36
1.0
 17
0.0
 27
0.0
 37
0.0
 40
2837.5228151124124
 41
0.688564
 42
50.0
 43
0.0
 44
0.0
 50
0.0
 51
0.0
 71
               0
 72
            2000
 73
               1
 74
               1
 75
               0
 76
               0
 77
               0
 78
               0
281
               0
 65
               0
110
0.0
120
0.0
130
0.0
111
1.0
121
0.0
131
0.0
112
0.0
122
1.0
132
0.0
345
0
346
0
 79
               0
146
0.0
  0
ENDTAB
  0
TABLE
  2
LTYPE
  5
4
100
AcDbSymbolTable
 70
              15
  0
LTYPE
  5
11
100
AcDbSymbolTableRecord
100
AcDbLinetypeTableRecord
  2
ByBlock
 70
              64
  3

 72
              65
 73
               0
 40
0.0
  0
LTYPE
  5
12
100
AcDbSymbolTableRecord
100
AcDbLinetypeTableRecord
  2
ByLayer
 70
              64
  3

 72
              65
 73
               0
 40
0.0
  0
LTYPE
  5
13
100
AcDbSymbolTableRecord
100
AcDbLinetypeTableRecord
  2
Continuous
 70
              64
  3
Solid line
 72
              65
 73
               0
 40
0.0
  0
LTYPE
  5
36
100
AcDbSymbolTableRecord
100
AcDbLinetypeTableRecord
  2
STYLE_01
 70
               0
  3

 72
              65
 73
               2
 40
9.375
 49
6.25
 74
               0
 49
-3.125
 74
               0
  0
LTYPE
  5
37
100
AcDbSymbolTableRecord
100
AcDbLinetypeTableRecord
  2
STYLE_02
 70
               0
  3

 72
              65
 73
               4
 40
0.984251968503937
 49
0.4921259842519685
 74
               0
 49
-0.2460629921259843
 74
               0
 49
0.0004999999999999
 74
               0
 49
-0.2455629921259843
 74
               0
  0
LTYPE
  5
38
100
AcDbSymbolTableRecord
100
AcDbLinetypeTableRecord
  2
STYLE_03
 70
               0
  3

 72
              65
 73
               2
 40
1.25
 49
1.0416400000000001
 74
               0
 49
-0.2083599999999999
 74
               0
  0
LTYPE
  5
39
100
AcDbSymbolTableRecord
100
AcDbLinetypeTableRecord
  2
STYLE_04
 70
               0
  3

 72
              65
 73
               2
 40
1.5277099999999999
 49
1.3194249999999998
 74
               0
 49
-0.208285
 74
               0
  0
LTYPE
  5
3A
100
AcDbSymbolTableRecord
100
AcDbLinetypeTableRecord
  2
STYLE_05
 70
               0
  3

 72
              65
 73
               2
 40
0.20828
 49
0.069425
 74
               0
 49
-0.138855
 74
               0
  0
LTYPE
  5
3B
100
AcDbSymbolTableRecord
100
AcDbLinetypeTableRecord
  2
STYLE_06
 70
               0
  3

 72
              65
 73
               4
 40
1.0416400000000001
 49
0.625
 74
               0
 49
-0.20828
 74
               0
 49
0.06943
 74
               0
 49
-0.13893
 74
               0
  0
LTYPE
  5
3C
100
AcDbSymbolTableRecord
100
AcDbLinetypeTableRecord
  2
STYLE_07
 70
               0
  3

 72
              65
 73
               6
 40
1.875
 49
0.625
 74
               0
 49
-0.20828
 74
               0
 49
0.6250000000000001
 74
               0
 49
-0.2083599999999999
 74
               0
 49
0.06943
 74
               0
 49
-0.1389299999999999
 74
               0
  0
LTYPE
  5
3D
100
AcDbSymbolTableRecord
100
AcDbLinetypeTableRecord
  2
STYLE_08
 70
               0
  3

 72
              65
 73
               6
 40
1.25
 49
0.625
 74
               0
 49
-0.20828
 74
               0
 49
0.06943
 74
               0
 49
-0.13893
 74
               0
 49
0.0694299999999999
 74
               0
 49
-0.13893
 74
               0
  0
LTYPE
  5
3E
100
AcDbSymbolTableRecord
100
AcDbLinetypeTableRecord
  2
STYLE_09
 70
               0
  3

 72
              65
 73
               4
 40
5.0
 49
3.75
 74
               0
 49
-0.2777849999999998
 74
               0
 49
0.6944300000000003
 74
               0
 49
-0.2777849999999998
 74
               0
  0
LTYPE
  5
3F
100
AcDbSymbolTableRecord
100
AcDbLinetypeTableRecord
  2
STYLE_10
 70
               0
  3

 72
              65
 73
               6
 40
5.9375
 49
3.75
 74
               0
 49
-0.2777849999999998
 74
               0
 49
0.6944300000000003
 74
               0
 49
-0.2777849999999998
 74
               0
 49
0.625
 74
               0
 49
-0.3125
 74
               0
  0
LTYPE
  5
40
100
AcDbSymbolTableRecord
100
AcDbLinetypeTableRecord
  2
STYLE_11
 70
               0
  3

 72
              65
 73
               2
 40
0.0694444881889764
 49
0.0347222440944882
 74
               0
 49
-0.0347222440944882
 74
               0
  0
LTYPE
  5
41
100
AcDbSymbolTableRecord
100
AcDbLinetypeTableRecord
  2
STYLE_12
 70
               0
  3

 72
              65
 73
               2
 40
0.3937007874015748
 49
0.1968503937007874
 74
               0
 49
-0.1968503937007874
 74
               0
  0
ENDTAB
  0
TABLE
  2
LAYER
  5
2
100
AcDbSymbolTable
 70
               5
  0
LAYER
  5
14
100
AcDbSymbolTableRecord
100
AcDbLayerTableRecord
  2
0
 70
               0
 62
               7
  6
Continuous
290
               1
370
              -3
390
1D
  0
LAYER
  5
42
100
AcDbSymbolTableRecord
100
AcDbLayerTableRecord
  2
Defpoints
 70
               0
 62
               7
  6
Continuous
290
               0
370
              -3
390
1D
  0
LAYER
  5
43
100
AcDbSymbolTableRecord
100
AcDbLayerTableRecord
  2
template
 70
               0
 62
               7
  6
Continuous
290
               1
370
              -3
390
1D
  0
LAYER
  5
44
100
AcDbSymbolTableRecord
100
AcDbLayerTableRecord
  2
notes
 70
               0
 62
               7
  6
Continuous
290
               1
370
              -3
390
1D
  0
LAYER
  5
45
100
AcDbSymbolTableRecord
100
AcDbLayerTableRecord
  2
ADF70-0702
 70
               0
 62
               7
  6
Continuous
290
               1
370
              -3
390
1D
  0
ENDTAB
  0
TABLE
  2
STYLE
  5
3
100
AcDbSymbolTable
 70
               3
  0
STYLE
  5
17
100
AcDbSymbolTableRecord
100
AcDbTextStyleTableRecord
  2
Standard
 70
               0
 40
0.0
 41
1.0
 50
0.0
 71
               0
 42
0.0
  3
txt
  4
BIGFONT.SHX
  0
STYLE
  5
34
100
AcDbSymbolTableRecord
100
AcDbTextStyleTableRecord
  2
MS UI Gothic
 70
               0
 40
0.0
 41
1.0
 50
0.0
 71
               0
 42
0.0
  3

  4
MS UI Gothic
1001
ACAD
1000
MS UI Gothic
1071
        0
  0
STYLE
  5
35
100
AcDbSymbolTableRecord
100
AcDbTextStyleTableRecord
  2
ＭＳ ゴシック
 70
               0
 40
0.0
 41
1.0
 50
0.0
 71
               0
 42
0.0
  3

  4
ＭＳ ゴシック
1001
ACAD
1000
ＭＳ ゴシック
1071
        0
  0
ENDTAB
  0
TABLE
  2
VIEW
  5
5
100
AcDbSymbolTable
 70
               0
  0
ENDTAB
  0
TABLE
  2
UCS
  5
6
100
AcDbSymbolTable
 70
               0
  0
ENDTAB
  0
TABLE
  2
APPID
  5
8
100
AcDbSymbolTable
 70
               1
  0
APPID
  5
16
100
AcDbSymbolTableRecord
100
AcDbRegAppTableRecord
  2
ACAD
 70
               0
  0
ENDTAB
  0
TABLE
  2
DIMSTYLE
  5
9
100
AcDbSymbolTable
 70
               2
100
AcDbDimStyleTable
 71
               0
  0
DIMSTYLE
105
18
100
AcDbSymbolTableRecord
100
AcDbDimStyleTableRecord
  2
Standard
 70
               0
  3

  4

 40
1.0
 41
0.18
 42
0.0625
 43
0.38
 44
0.18
 45
0.0
 46
0.0
 47
0.0
 48
0.0
 71
               0
 72
               0
 73
               1
 74
               1
 75
               0
 76
               0
 77
               0
 78
               0
 79
               0
140
0.18
141
0.09
142
0.0
143
25.399999999999999
144
1.0
145
0.0
146
1.0
147
0.09
148
0.0
170
               0
171
               2
172
               0
173
               0
174
               0
175
               0
176
               0
177
               0
178
               0
179
               0
271
               4
272
               4
273
               2
274
               2
275
               0
276
               0
277
               2
278
              46
279
               0
280
               0
281
               0
282
               0
283
               1
284
               0
285
               0
286
               0
288
               0
289
               3
340
17
341
0
342
0
343
0
344
0
371
              -2
372
              -2
  0
DIMSTYLE
105
4E
100
AcDbSymbolTableRecord
100
AcDbDimStyleTableRecord
  2
tform線あり
 70
               0
  3
<>
  4
[]
 40
1.0
 41
9.9993896484374982
 42
24.999999999999996
 43
0.9999999999999999
 44
0.0
 45
0.0
 46
0.0
 47
0.0
 48
0.0
 71
               0
 72
               0
 73
               0
 74
               0
 75
               0
 76
               0
 77
               1
 78
              11
 79
               0
140
24.432617187500004
141
0.0
142
0.0
143
1.0
144
1.0
145
0.0
146
1.0
147
0.4999999999999999
148
0.0
170
               0
171
               1
172
               0
173
               0
174
               1
175
               0
176
               0
177
               0
178
               0
179
               2
271
               1
272
               1
273
               2
274
               2
275
               0
276
               2
277
               2
278
              46
279
               0
280
               0
281
               0
282
               0
283
               1
284
              11
285
              11
286
              11
288
               0
289
               0
340
35
341
46
342
46
343
0
344
0
371
              -2
372
              -2
  0
ENDTAB
  0
TABLE
  2
BLOCK_RECORD
  5
1
100
AcDbSymbolTable
 70
              18
  0
BLOCK_RECORD
  5
A
100
AcDbSymbolTableRecord
100
AcDbBlockTableRecord
  2
*MODEL_SPACE
340
20
  0
BLOCK_RECORD
  5
B
100
AcDbSymbolTableRecord
100
AcDbBlockTableRecord
  2
*PAPER_SPACE
340
21
  0
BLOCK_RECORD
  5
46
100
AcDbSymbolTableRecord
100
AcDbBlockTableRecord
  2
_DOT
340
0
  0
BLOCK_RECORD
  5
23
100
AcDbSymbolTableRecord
100
AcDbBlockTableRecord
  2
グループ
340
0
102
{BLKREFS
331
131
102
}
  0
BLOCK_RECORD
  5
24
100
AcDbSymbolTableRecord
100
AcDbBlockTableRecord
  2
*D2
340
0
  0
BLOCK_RECORD
  5
25
100
AcDbSymbolTableRecord
100
AcDbBlockTableRecord
  2
*D3
340
0
  0
BLOCK_RECORD
  5
26
100
AcDbSymbolTableRecord
100
AcDbBlockTableRecord
  2
*D4
340
0
  0
BLOCK_RECORD
  5
27
100
AcDbSymbolTableRecord
100
AcDbBlockTableRecord
  2
*D5
340
0
  0
BLOCK_RECORD
  5
28
100
AcDbSymbolTableRecord
100
AcDbBlockTableRecord
  2
*D6
340
0
  0
BLOCK_RECORD
  5
29
100
AcDbSymbolTableRecord
100
AcDbBlockTableRecord
  2
*D7
340
0
  0
BLOCK_RECORD
  5
2A
100
AcDbSymbolTableRecord
100
AcDbBlockTableRecord
  2
*D8
340
0
  0
BLOCK_RECORD
  5
2B
100
AcDbSymbolTableRecord
100
AcDbBlockTableRecord
  2
*D9
340
0
  0
BLOCK_RECORD
  5
2C
100
AcDbSymbolTableRecord
100
AcDbBlockTableRecord
  2
*D10
340
0
  0
BLOCK_RECORD
  5
2D
100
AcDbSymbolTableRecord
100
AcDbBlockTableRecord
  2
*D11
340
0
  0
BLOCK_RECORD
  5
2E
100
AcDbSymbolTableRecord
100
AcDbBlockTableRecord
  2
*D12
340
0
  0
BLOCK_RECORD
  5
2F
100
AcDbSymbolTableRecord
100
AcDbBlockTableRecord
  2
*D13
340
0
  0
BLOCK_RECORD
  5
30
100
AcDbSymbolTableRecord
100
AcDbBlockTableRecord
  2
*D14
340
0
  0
BLOCK_RECORD
  5
31
100
AcDbSymbolTableRecord
100
AcDbBlockTableRecord
  2
*D15
340
0
  0
BLOCK_RECORD
  5
32
100
AcDbSymbolTableRecord
100
AcDbBlockTableRecord
  2
*D16
340
0
  0
BLOCK_RECORD
  5
33
100
AcDbSymbolTableRecord
100
AcDbBlockTableRecord
  2
*D17
340
0
  0
ENDTAB
  0
ENDSEC
  0
SECTION
  2
BLOCKS
  0
BLOCK
  5
D
100
AcDbEntity
  8
0
390
0
100
AcDbBlockBegin
  2
*MODEL_SPACE
 70
               0
 10
0.0
 20
0.0
 30
0.0
  3
*MODEL_SPACE
  1

  0
ENDBLK
  5
E
100
AcDbEntity
  8
0
390
0
100
AcDbBlockEnd
  0
BLOCK
  5
F
100
AcDbEntity
 67
               1
  8
0
390
0
100
AcDbBlockBegin
  2
*PAPER_SPACE
 70
               0
 10
0.0
 20
0.0
 30
0.0
  3
*PAPER_SPACE
  1

  0
ENDBLK
  5
10
100
AcDbEntity
 67
               1
  8
0
390
0
100
AcDbBlockEnd
  0
BLOCK
  5
47
100
AcDbEntity
  8
0
390
0
100
AcDbBlockBegin
  2
_DOT
 70
               0
 10
0.0
 20
0.0
 30
0.0
  3
_DOT
  1

  0
POLYLINE
  5
48
100
AcDbEntity
  8
0
370
              -2
390
0
  6
ByBlock
 62
               0
100
AcDb2dPolyline
 66
               1
 10
0.0
 20
0.0
 30
0.0
 70
               1
 40
0.5
 41
0.5
  0
VERTEX
  5
49
100
AcDbEntity
  8
0
370
              -2
390
0
  6
ByBlock
 62
               0
100
AcDbVertex
100
AcDb2dVertex
 10
-0.25
 20
0.0
 30
0.0
 42
1.0
  0
VERTEX
  5
4A
100
AcDbEntity
  8
0
370
              -2
390
0
  6
ByBlock
 62
               0
100
AcDbVertex
100
AcDb2dVertex
 10
0.25
 20
0.0
 30
0.0
 42
1.0
  0
SEQEND
  5
4B
100
AcDbEntity
  8
0
390
0
  0
LINE
  5
4C
100
AcDbEntity
  8
0
370
              -2
390
0
  6
ByBlock
 62
               0
100
AcDbLine
 10
-0.5
 20
0.0
 30
0.0
 11
-1.0
 21
0.0
 31
0.0
  0
ENDBLK
  5
4D
100
AcDbEntity
  8
0
390
0
100
AcDbBlockEnd
  0
BLOCK
  5
4F
100
AcDbEntity
  8
template
390
0
100
AcDbBlockBegin
  2
グループ
 70
               0
 10
0.0
 20
0.0
 30
0.0
  3
グループ
  1

  0
LWPOLYLINE
  5
50
100
AcDbEntity
  8
0
370
              15
390
0
  6
Continuous
 62
               7
100
AcDbPolyline
 90
        8
 70
             129
 10
871.53802778431736
 20
-1289.6318294131547
 10
871.53802778431736
 20
-1295.6292181067306
 10
862.03683086631418
 20
-1295.6292181067306
 10
862.03683086631418
 20
-1320.0801813702392
 10
853.68145360453127
 20
-1320.0801813702392
 10
853.68145360453127
 20
-1295.6292181067306
 10
844.34849665822185
 20
-1295.6292181067306
 10
844.34849665822185
 20
-1289.6318294131547
  0
LWPOLYLINE
  5
51
100
AcDbEntity
  8
0
370
              15
390
0
  6
Continuous
 62
               7
100
AcDbPolyline
 90
      101
 70
             128
 10
884.26631961487431
 20
-1290.3600779060912
 10
884.28166964366005
 20
-1290.355717149406
 42
-0.0222221607814899
 10
884.57167422033035
 20
-1290.2870926841615
 10
884.58746798432344
 20
-1290.2840892610645
 42
-0.0146883565584565
 10
884.85017068954812
 20
-1290.2420860741152
 42
-0.0127458844185407
 10
885.11480965670341
 20
-1290.2145491060426
 10
885.17726473501398
 20
-1290.2096556834545
 42
-0.0198099018566778
 10
885.56811384448611
 20
-1290.1945705260578
 10
885.61992531393457
 20
-1290.1946243017228
 42
-0.0147617382763049
 10
886.11454877491076
 20
-1290.2097443269677
 10
886.18724022978154
 20
-1290.2141169338552
 42
-0.0162624549004613
 10
886.57739385924833
 20
-1290.2503498091276
 10
886.69892625051637
 20
-1290.2656363681251
 42
-0.0080020874657359
 10
886.84450528159914
 20
-1290.2863192153925
 10
886.88282475217977
 20
-1290.2923904932013
 42
-0.0053821929685899
 10
886.95130885750893
 20
-1290.3039980170252
 10
886.22490315831033
 20
-1292.4849264727391
 42
0.0108667757395238
 10
886.15758608817669
 20
-1292.4717393575186
 10
886.12011806499004
 20
-1292.4652416149247
 42
0.0170663203310854
 10
885.97690127807539
 20
-1292.4454120176331
 10
885.90902594539148
 20
-1292.4383648470455
 42
0.0220162375270755
 10
885.62864653754048
 20
-1292.4216824862754
 10
885.55079097048088
 20
-1292.4204831190088
 42
0.028260691579079
 10
885.21515464690617
 20
-1292.434286395978
 10
885.17124137313851
 20
-1292.4385863859811
 42
0.0169677213677539
 10
884.92531687817495
 20
-1292.4711234355336
 42
0.0190576269871978
 10
884.68240891559515
 20
-1292.52127030764
 10
884.67614972748402
 20
-1292.5228132817492
 42
0.0213685642846887
 10
884.42576524300364
 20
-1292.5960135668549
 10
884.42027534809006
 20
-1292.5978765629131
 42
0.0237595297593449
 10
884.16678046318953
 20
-1292.6975610848096
 10
884.16167838916169
 20
-1292.6998528602869
 42
0.0261857468820499
 10
883.90950761293232
 20
-1292.8293891976612
 10
883.89908142384752
 20
-1292.8354546721282
 42
0.027255306201428
 10
883.66265164860624
 20
-1292.9908268780741
 10
883.62788863509695
 20
-1293.0164880261661
 42
0.0325996893177867
 10
883.47773329144525
 20
-1293.1432358991376
 10
883.45402386231467
 20
-1293.1660539276577
 42
0.0138050960651383
 10
883.36214070611209
 20
-1293.2595035892023
 42
0.0125280103789131
 10
883.27529817328559
 20
-1293.357666915794
 10
883.25161772837021
 20
-1293.3858254139898
 42
0.0205218024741156
 10
883.12651765285386
 20
-1293.5476187282225
 10
883.10405131236939
 20
-1293.5792784580458
 42
0.0163110129581952
 10
882.94834093311749
 20
-1293.8146088931167
 10
882.94561703706711
 20
-1293.8190326551012
 42
0.0131897341892092
 10
882.79881651616233
 20
-1294.0721647474636
 10
882.79711642079474
 20
-1294.0752829866012
 42
0.0107895576063095
 10
882.65933971858533
 20
-1294.3414981962337
 10
882.65860682905895
 20
-1294.3429924288828
 42
0.0091371507214271
 10
882.53012688040951
 20
-1294.6175176266422
 10
882.50038124900016
 20
-1294.6842241338013
 42
0.0135418326352652
 10
882.32866730992657
 20
-1295.0991619190752
 10
882.29506250149495
 20
-1295.1870280613496
 42
0.0092834542409593
 10
882.12383344157342
 20
-1295.6609265596567
 10
882.09821631385626
 20
-1295.7361676294486
 42
0.0054261043584165
 10
881.99057816556274
 20
-1296.0639316025151
 10
881.97305217937992
 20
-1296.1193197647624
 42
0.0008225090820389
 10
881.90438212755532
 20
-1296.3375885228943
 10
880.91969299562186
 20
-1299.3624798161509
 10
884.15231683569573
 20
-1299.3624798161509
 10
883.64812440584228
 20
-1301.2669581145033
 10
880.39206812385896
 20
-1301.2669581145033
 10
874.56291909150514
 20
-1320.0801811805081
 10
872.73782148119471
 20
-1320.0801811805081
 10
878.57249951669576
 20
-1301.2669581145033
 10
876.16738314765541
 20
-1301.2669581145033
 10
876.67157557750886
 20
-1299.3624798161509
 10
879.10012438845888
 20
-1299.3624798161509
 10
879.96027930664752
 20
-1296.7260668154522
 42
-0.0005863560627068
 10
879.99701398485274
 20
-1296.6092403951548
 10
880.07310181851142
 20
-1296.368248095775
 42
-0.0087522378929326
 10
880.27256996196809
 20
-1295.772972008629
 10
880.36483423738389
 20
-1295.5128318401096
 42
-0.0077400953829182
 10
880.62276789651287
 20
-1294.8198271625672
 10
880.63853286809024
 20
-1294.779396279185
 42
-0.0082369946330813
 10
880.8856173387037
 20
-1294.1753172129854
 42
-0.0085725238364861
 10
881.15286343470439
 20
-1293.5798911737031
 10
881.25449303571304
 20
-1293.3634700717153
 42
-0.0168109410596301
 10
881.54143746444402
 20
-1292.802262545609
 10
881.66728085487659
 20
-1292.5752985126592
 42
-0.0007817726885631
 10
881.72156520495969
 20
-1292.4777542675804
 10
881.72169351097511
 20
-1292.4775245588473
 42
-0.0036626142166862
 10
881.77658137499816
 20
-1292.3809266788753
 42
-0.0080221150670871
 10
881.83370563040808
 20
-1292.2856474441173
 10
881.86440558176605
 20
-1292.2362564950004
 42
-0.020213932557885
 10
881.99206132157121
 20
-1292.0482748943211
 10
882.04612878676039
 20
-1291.9751960300782
 42
-0.0249323791796218
 10
882.30529158048125
 20
-1291.6591507879218
 10
882.32943139460656
 20
-1291.6325365150112
 42
-0.0242132121541027
 10
882.66911213614583
 20
-1291.2926530288098
 10
882.71702370889852
 20
-1291.2491438926218
 42
-0.0251017527856833
 10
883.00100540953986
 20
-1291.0161511468564
 10
883.00245088635404
 20
-1291.0150818892771
 42
-0.0130868069040741
 10
883.30071153631093
 20
-1290.8063014207348
 10
883.30227335545248
 20
-1290.8052679804605
 42
-0.0290329526391233
 10
883.61338449684695
 20
-1290.6244424788306
 10
883.64323005883909
 20
-1290.609340095988
 42
-0.0160250190046323
 10
883.90913447259777
 20
-1290.4853239857778
 42
-0.0267600374784051
 10
884.18441055006667
 20
-1290.384575665229
 10
884.21114646958733
 20
-1290.3763831064034
 42
-0.0049981587689047
 10
884.26631961487431
 20
-1290.3600779060912
 42
-0.0049981587689047
  0
LWPOLYLINE
  5
52
100
AcDbEntity
  8
0
370
              15
390
0
  6
Continuous
 62
               7
100
AcDbPolyline
 90
      118
 70
             128
 10
904.08068717932122
 20
-1299.4364631439785
 10
905.95580910382068
 20
-1299.4364631439785
 10
905.1177701982208
 20
-1302.1180296703783
 42
-0.0010587229226169
 10
905.14922601375599
 20
-1302.081125137066
 10
905.20742010442473
 20
-1302.0131428808475
 42
-0.0071874740406837
 10
905.35779532252695
 20
-1301.8425021888138
 10
905.49951809578499
 20
-1301.6862660475051
 42
-0.0148118053513798
 10
905.94964738849671
 20
-1301.2186522014929
 10
906.03686972340711
 20
-1301.1332548806313
 42
-0.0086273358691479
 10
906.37241852440798
 20
-1300.8158792466222
 10
906.41625224064023
 20
-1300.7758296022835
 42
-0.0103138323114494
 10
906.67427594286733
 20
-1300.5496664649509
 10
906.72005034919039
 20
-1300.511184417694
 42
-0.0060206748564539
 10
906.89289841330663
 20
-1300.3693897669361
 10
906.89492954419643
 20
-1300.3677640613018
 42
-0.006706902730124
 10
907.06722235885513
 20
-1300.2336134275099
 10
907.06977112478705
 20
-1300.23168325763
 42
-0.0076184352042164
 10
907.24067639065242
 20
-1300.1063083823908
 42
-0.0089652861681071
 10
907.41563735338002
 20
-1299.9866751220627
 10
907.45198907353188
 20
-1299.9627639085752
 42
-0.0156916245932499
 10
907.64794857069205
 20
-1299.8425014221009
 42
-0.0023299011068174
 10
907.84821061467051
 20
-1299.7293234825606
 10
907.86359474705171
 20
-1299.7207234874952
 42
-0.0107669341486716
 10
908.09783157214986
 20
-1299.5963233541472
 10
908.12009637322785
 20
-1299.5851066041957
 42
-0.0078058045898131
 10
908.40368649117886
 20
-1299.4477451485582
 10
908.41359357888973
 20
-1299.4431360206888
 42
-0.0181829330474139
 10
908.72390298350331
 20
-1299.312272279594
 10
908.77795842607213
 20
-1299.2917571596497
 42
-0.0208411536033257
 10
909.1270433935224
 20
-1299.1756666971567
 10
909.14139949364892
 20
-1299.1715482522034
 42
-0.0222799817134764
 10
909.47011928756706
 20
-1299.0929066860629
 10
909.47900825080865
 20
-1299.0911946754768
 42
-0.0215509523881978
 10
909.79547921908397
 20
-1299.0442789869435
 10
909.83796118013777
 20
-1299.039841460152
 42
-0.0182545924864539
 10
910.07206995943807
 20
-1299.0239976347618
 10
910.11147097578441
 20
-1299.0227730896827
 42
-0.0072962856534305
 10
910.26739385547512
 20
-1299.0202037611605
 10
910.2964935260527
 20
-1299.0201489257568
 42
-0.0059227516306126
 10
910.39424302519205
 20
-1299.021122637547
 10
910.42348524265174
 20
-1299.02176040415
 42
-0.001183311191669
 10
910.46273652639638
 20
-1299.0227094084603
 10
909.66734993078921
 20
-1301.5614433535593
 42
0.0143932051483898
 10
909.64094854843927
 20
-1301.5512443835144
 10
909.63367657602134
 20
-1301.5486731646567
 42
0.0234388603519253
 10
909.59184571008961
 20
-1301.5360539289416
 10
909.58316404717652
 20
-1301.5338729669363
 42
0.0199162742982796
 10
909.52287521309745
 20
-1301.5212562316015
 10
909.50206127529032
 20
-1301.5177590321728
 42
0.0293643550674703
 10
909.39898641652917
 20
-1301.5066089865195
 10
909.37430123581089
 20
-1301.505397369501
 42
0.0214606686862732
 10
909.22116031986229
 20
-1301.5044588090834
 10
909.21178840904042
 20
-1301.5048037206279
 42
0.0167564054176559
 10
909.04026821792729
 20
-1301.5168807629964
 10
909.03180842517304
 20
-1301.5177621034231
 42
0.0137677553250041
 10
908.84445511190279
 20
-1301.5425114119673
 10
908.83710337240041
 20
-1301.5436893319345
 42
0.0118497261482869
 10
908.63660560829692
 20
-1301.5807066821239
 10
908.63045560105184
 20
-1301.5819935448437
 42
0.0106421143891368
 10
908.4195747137627
 20
-1301.6308259204195
 10
908.41466590537777
 20
-1301.6320732631036
 42
0.0099746379706426
 10
908.19620743620669
 20
-1301.6922477914209
 10
908.13465939604498
 20
-1301.710529670049
 42
0.019161367586065
 10
907.79867493352697
 20
-1301.8245070503369
 10
907.71061516078601
 20
-1301.8581939606595
 42
0.020527408014231
 10
907.32530838888329
 20
-1302.0240223684868
 10
907.26765910690131
 20
-1302.0516903330592
 42
0.0181256912195539
 10
907.00938216623433
 20
-1302.1873741520369
 10
906.95642678292427
 20
-1302.2176917652494
 42
0.0140709242406505
 10
906.81147184829206
 20
-1302.3061864386859
 10
906.78522297966538
 20
-1302.3232432574066
 42
0.0086667884400184
 10
906.69629681813103
 20
-1302.3832459252842
 42
0.0036408192024638
 10
906.6088635801126
 20
-1302.4454267830658
 10
906.57363670562904
 20
-1302.4708677289893
 42
0.0052260781280833
 10
906.41740800824869
 20
-1302.5862001156156
 10
906.40120115197828
 20
-1302.5984282262418
 42
0.0050024435885512
 10
906.21519780893561
 20
-1302.7417107944914
 10
906.19987965240432
 20
-1302.7537568169498
 42
0.0136138710287222
 10
905.98943838408127
 20
-1302.9287233218613
 10
905.95577050828547
 20
-1302.9583022945774
 42
0.0172815186914513
 10
905.69136696662349
 20
-1303.2072989672001
 10
905.68880462078027
 20
-1303.2098847843479
 42
0.0189403857990567
 10
905.43822282220322
 20
-1303.4826900491496
 10
905.40559132866701
 20
-1303.5210339806472
 42
0.0185044199505828
 10
905.21363488968518
 20
-1303.7642825617722
 42
0.0088565243901851
 10
905.03517478305093
 20
-1304.017798981931
 10
905.02599680340825
 20
-1304.0313403616824
 42
0.0157195347231784
 10
904.8427761970753
 20
-1304.3208625709963
 10
904.79669325513885
 20
-1304.3990147680263
 42
0.0095451879789298
 10
904.63160770500565
 20
-1304.6916094103753
 10
904.62045978607614
 20
-1304.712280082507
 42
0.0100351706257029
 10
904.48841603691676
 20
-1304.9693356429982
 42
0.0086935915419153
 10
904.36608488512366
 20
-1305.2311687884005
 10
904.3627641437082
 20
-1305.2386111113744
 42
0.0072580174865684
 10
904.24241769176251
 20
-1305.5192031029594
 10
904.23915605845696
 20
-1305.5271231289753
 42
0.0060005122618138
 10
904.11995539011036
 20
-1305.8267327995907
 10
904.11674441177263
 20
-1305.8350943274852
 42
0.0049017786982891
 10
903.99784425291421
 20
-1306.1540233080923
 10
903.99467844652474
 20
-1306.1627762453199
 42
0.0039415167599237
 10
903.87524216847123
 20
-1306.501318307724
 10
903.87211106581594
 20
-1306.5104215086092
 42
0.00310358387617
 10
903.75130628012073
 20
-1306.8688613703891
 10
903.74819623559245
 20
-1306.8782819917576
 42
0.0025070747151545
 10
903.62529488428265
 20
-1307.2569292086841
 10
903.58800098785173
 20
-1307.3738208739546
 42
0.0029081910283976
 10
903.3959826900367
 20
-1307.9879845322596
 10
903.35517952152384
 20
-1308.1212077745222
 42
0.0009266453731292
 10
903.08676214723175
 20
-1309.0034322343706
 10
903.06587467457825
 20
-1309.0725441136492
 42
-0.000580999366583
 10
902.78853799397734
 20
-1309.9863522203204
 10
902.72225619572851
 20
-1310.2038371524011
 42
-0.0012018708168783
 10
902.57527188627523
 20
-1310.6819998170008
 10
902.52295203462711
 20
-1310.8507589581325
 42
-0.0002691059594532
 10
902.47938255354109
 20
-1310.9910265782087
 10
899.64642665525184
 20
-1320.0801811805081
 10
897.82843776327331
 20
-1320.0801811805081
 10
904.08068717932122
 20
-1299.4364631439785
  0
SPLINE
  5
53
100
AcDbEntity
  8
0
370
              15
390
0
  6
Continuous
 62
               7
100
AcDbSpline
210
0.0
220
0.0
230
1.0
 70
              13
 71
               2
 72
             782
 73
             779
 74
               0
 42
0.000001
 43
0.000001
 40
0.0
 40
0.0
 40
0.0
 40
1.0
 40
1.0
 40
2.0
 40
2.0
 40
3.0
 40
3.0
 40
4.0
 40
4.0
 40
5.0
 40
5.0
 40
6.0
 40
6.0
 40
7.0
 40
7.0
 40
8.0
 40
8.0
 40
9.0
 40
9.0
 40
10.0
 40
10.0
 40
11.0
 40
11.0
 40
12.0
 40
12.0
 40
13.0
 40
13.0
 40
14.0
 40
14.0
 40
15.0
 40
15.0
 40
16.0
 40
16.0
 40
17.0
 40
17.0
 40
18.0
 40
18.0
 40
19.0
 40
19.0
 40
20.0
 40
20.0
 40
21.0
 40
21.0
 40
22.0
 40
22.0
 40
23.0
 40
23.0
 40
24.0
 40
24.0
 40
25.0
 40
25.0
 40
26.0
 40
26.0
 40
27.0
 40
27.0
 40
28.0
 40
28.0
 40
29.0
 40
29.0
 40
30.0
 40
30.0
 40
31.0
 40
31.0
 40
32.0
 40
32.0
 40
33.0
 40
33.0
 40
34.0
 40
34.0
 40
35.0
 40
35.0
 40
36.0
 40
36.0
 40
37.0
 40
37.0
 40
38.0
 40
38.0
 40
39.0
 40
39.0
 40
40.0
 40
40.0
 40
41.0
 40
41.0
 40
42.0
 40
42.0
 40
43.0
 40
43.0
 40
44.0
 40
44.0
 40
45.0
 40
45.0
 40
46.0
 40
46.0
 40
47.0
 40
47.0
 40
48.0
 40
48.0
 40
49.0
 40
49.0
 40
50.0
 40
50.0
 40
51.0
 40
51.0
 40
52.0
 40
52.0
 40
53.0
 40
53.0
 40
54.0
 40
54.0
 40
55.0
 40
55.0
 40
56.0
 40
56.0
 40
57.0
 40
57.0
 40
58.0
 40
58.0
 40
59.0
 40
59.0
 40
60.0
 40
60.0
 40
61.0
 40
61.0
 40
62.0
 40
62.0
 40
63.0
 40
63.0
 40
64.0
 40
64.0
 40
65.0
 40
65.0
 40
66.0
 40
66.0
 40
67.0
 40
67.0
 40
68.0
 40
68.0
 40
69.0
 40
69.0
 40
70.0
 40
70.0
 40
71.0
 40
71.0
 40
72.0
 40
72.0
 40
73.0
 40
73.0
 40
74.0
 40
74.0
 40
75.0
 40
75.0
 40
76.0
 40
76.0
 40
77.0
 40
77.0
 40
78.0
 40
78.0
 40
79.0
 40
79.0
 40
80.0
 40
80.0
 40
81.0
 40
81.0
 40
82.0
 40
82.0
 40
83.0
 40
83.0
 40
84.0
 40
84.0
 40
85.0
 40
85.0
 40
86.0
 40
86.0
 40
87.0
 40
87.0
 40
88.0
 40
88.0
 40
89.0
 40
89.0
 40
90.0
 40
90.0
 40
91.0
 40
91.0
 40
92.0
 40
92.0
 40
93.0
 40
93.0
 40
94.0
 40
94.0
 40
95.0
 40
95.0
 40
96.0
 40
96.0
 40
97.0
 40
97.0
 40
98.0
 40
98.0
 40
99.0
 40
99.0
 40
100.0
 40
100.0
 40
101.0
 40
101.0
 40
102.0
 40
102.0
 40
103.0
 40
103.0
 40
104.0
 40
104.0
 40
105.0
 40
105.0
 40
106.0
 40
106.0
 40
107.0
 40
107.0
 40
108.0
 40
108.0
 40
109.0
 40
109.0
 40
110.0
 40
110.0
 40
111.0
 40
111.0
 40
112.0
 40
112.0
 40
113.0
 40
113.0
 40
114.0
 40
114.0
 40
115.0
 40
115.0
 40
116.0
 40
116.0
 40
117.0
 40
117.0
 40
118.0
 40
118.0
 40
119.0
 40
119.0
 40
120.0
 40
120.0
 40
121.0
 40
121.0
 40
122.0
 40
122.0
 40
123.0
 40
123.0
 40
124.0
 40
124.0
 40
125.0
 40
125.0
 40
126.0
 40
126.0
 40
127.0
 40
127.0
 40
128.0
 40
128.0
 40
129.0
 40
129.0
 40
130.0
 40
130.0
 40
131.0
 40
131.0
 40
132.0
 40
132.0
 40
133.0
 40
133.0
 40
134.0
 40
134.0
 40
135.0
 40
135.0
 40
136.0
 40
136.0
 40
137.0
 40
137.0
 40
138.0
 40
138.0
 40
139.0
 40
139.0
 40
140.0
 40
140.0
 40
141.0
 40
141.0
 40
142.0
 40
142.0
 40
143.0
 40
143.0
 40
144.0
 40
144.0
 40
145.0
 40
145.0
 40
146.0
 40
146.0
 40
147.0
 40
147.0
 40
148.0
 40
148.0
 40
149.0
 40
149.0
 40
150.0
 40
150.0
 40
151.0
 40
151.0
 40
152.0
 40
152.0
 40
153.0
 40
153.0
 40
154.0
 40
154.0
 40
155.0
 40
155.0
 40
156.0
 40
156.0
 40
157.0
 40
157.0
 40
158.0
 40
158.0
 40
159.0
 40
159.0
 40
160.0
 40
160.0
 40
161.0
 40
161.0
 40
162.0
 40
162.0
 40
163.0
 40
163.0
 40
164.0
 40
164.0
 40
165.0
 40
165.0
 40
166.0
 40
166.0
 40
167.0
 40
167.0
 40
168.0
 40
168.0
 40
169.0
 40
169.0
 40
170.0
 40
170.0
 40
171.0
 40
171.0
 40
172.0
 40
172.0
 40
173.0
 40
173.0
 40
174.0
 40
174.0
 40
175.0
 40
175.0
 40
176.0
 40
176.0
 40
177.0
 40
177.0
 40
178.0
 40
178.0
 40
179.0
 40
179.0
 40
180.0
 40
180.0
 40
181.0
 40
181.0
 40
182.0
 40
182.0
 40
183.0
 40
183.0
 40
184.0
 40
184.0
 40
185.0
 40
185.0
 40
186.0
 40
186.0
 40
187.0
 40
187.0
 40
188.0
 40
188.0
 40
189.0
 40
189.0
 40
190.0
 40
190.0
 40
191.0
 40
191.0
 40
192.0
 40
192.0
 40
193.0
 40
193.0
 40
194.0
 40
194.0
 40
195.0
 40
195.0
 40
196.0
 40
196.0
 40
197.0
 40
197.0
 40
198.0
 40
198.0
 40
199.0
 40
199.0
 40
200.0
 40
200.0
 40
201.0
 40
201.0
 40
202.0
 40
202.0
 40
203.0
 40
203.0
 40
204.0
 40
204.0
 40
205.0
 40
205.0
 40
206.0
 40
206.0
 40
207.0
 40
207.0
 40
208.0
 40
208.0
 40
209.0
 40
209.0
 40
210.0
 40
210.0
 40
211.0
 40
211.0
 40
212.0
 40
212.0
 40
213.0
 40
213.0
 40
214.0
 40
214.0
 40
215.0
 40
215.0
 40
216.0
 40
216.0
 40
217.0
 40
217.0
 40
218.0
 40
218.0
 40
219.0
 40
219.0
 40
220.0
 40
220.0
 40
221.0
 40
221.0
 40
222.0
 40
222.0
 40
223.0
 40
223.0
 40
224.0
 40
224.0
 40
225.0
 40
225.0
 40
226.0
 40
226.0
 40
227.0
 40
227.0
 40
228.0
 40
228.0
 40
229.0
 40
229.0
 40
230.0
 40
230.0
 40
231.0
 40
231.0
 40
232.0
 40
232.0
 40
233.0
 40
233.0
 40
234.0
 40
234.0
 40
235.0
 40
235.0
 40
236.0
 40
236.0
 40
237.0
 40
237.0
 40
238.0
 40
238.0
 40
239.0
 40
239.0
 40
240.0
 40
240.0
 40
241.0
 40
241.0
 40
242.0
 40
242.0
 40
243.0
 40
243.0
 40
244.0
 40
244.0
 40
245.0
 40
245.0
 40
246.0
 40
246.0
 40
247.0
 40
247.0
 40
248.0
 40
248.0
 40
249.0
 40
249.0
 40
250.0
 40
250.0
 40
251.0
 40
251.0
 40
252.0
 40
252.0
 40
253.0
 40
253.0
 40
254.0
 40
254.0
 40
255.0
 40
255.0
 40
256.0
 40
256.0
 40
257.0
 40
257.0
 40
258.0
 40
258.0
 40
259.0
 40
259.0
 40
260.0
 40
260.0
 40
261.0
 40
261.0
 40
262.0
 40
262.0
 40
263.0
 40
263.0
 40
264.0
 40
264.0
 40
265.0
 40
265.0
 40
266.0
 40
266.0
 40
267.0
 40
267.0
 40
268.0
 40
268.0
 40
269.0
 40
269.0
 40
270.0
 40
270.0
 40
271.0
 40
271.0
 40
272.0
 40
272.0
 40
273.0
 40
273.0
 40
274.0
 40
274.0
 40
275.0
 40
275.0
 40
276.0
 40
276.0
 40
277.0
 40
277.0
 40
278.0
 40
278.0
 40
279.0
 40
279.0
 40
280.0
 40
280.0
 40
281.0
 40
281.0
 40
282.0
 40
282.0
 40
283.0
 40
283.0
 40
284.0
 40
284.0
 40
285.0
 40
285.0
 40
286.0
 40
286.0
 40
287.0
 40
287.0
 40
288.0
 40
288.0
 40
289.0
 40
289.0
 40
290.0
 40
290.0
 40
291.0
 40
291.0
 40
292.0
 40
292.0
 40
293.0
 40
293.0
 40
294.0
 40
294.0
 40
295.0
 40
295.0
 40
296.0
 40
296.0
 40
297.0
 40
297.0
 40
298.0
 40
298.0
 40
299.0
 40
299.0
 40
300.0
 40
300.0
 40
301.0
 40
301.0
 40
302.0
 40
302.0
 40
303.0
 40
303.0
 40
304.0
 40
304.0
 40
305.0
 40
305.0
 40
306.0
 40
306.0
 40
307.0
 40
307.0
 40
308.0
 40
308.0
 40
309.0
 40
309.0
 40
310.0
 40
310.0
 40
311.0
 40
311.0
 40
312.0
 40
312.0
 40
313.0
 40
313.0
 40
314.0
 40
314.0
 40
315.0
 40
315.0
 40
316.0
 40
316.0
 40
317.0
 40
317.0
 40
318.0
 40
318.0
 40
319.0
 40
319.0
 40
320.0
 40
320.0
 40
321.0
 40
321.0
 40
322.0
 40
322.0
 40
323.0
 40
323.0
 40
324.0
 40
324.0
 40
325.0
 40
325.0
 40
326.0
 40
326.0
 40
327.0
 40
327.0
 40
328.0
 40
328.0
 40
329.0
 40
329.0
 40
330.0
 40
330.0
 40
331.0
 40
331.0
 40
332.0
 40
332.0
 40
333.0
 40
333.0
 40
334.0
 40
334.0
 40
335.0
 40
335.0
 40
336.0
 40
336.0
 40
337.0
 40
337.0
 40
338.0
 40
338.0
 40
339.0
 40
339.0
 40
340.0
 40
340.0
 40
341.0
 40
341.0
 40
342.0
 40
342.0
 40
343.0
 40
343.0
 40
344.0
 40
344.0
 40
345.0
 40
345.0
 40
346.0
 40
346.0
 40
347.0
 40
347.0
 40
348.0
 40
348.0
 40
349.0
 40
349.0
 40
350.0
 40
350.0
 40
351.0
 40
351.0
 40
352.0
 40
352.0
 40
353.0
 40
353.0
 40
354.0
 40
354.0
 40
355.0
 40
355.0
 40
356.0
 40
356.0
 40
357.0
 40
357.0
 40
358.0
 40
358.0
 40
359.0
 40
359.0
 40
360.0
 40
360.0
 40
361.0
 40
361.0
 40
362.0
 40
362.0
 40
363.0
 40
363.0
 40
364.0
 40
364.0
 40
365.0
 40
365.0
 40
366.0
 40
366.0
 40
367.0
 40
367.0
 40
368.0
 40
368.0
 40
369.0
 40
369.0
 40
370.0
 40
370.0
 40
371.0
 40
371.0
 40
372.0
 40
372.0
 40
373.0
 40
373.0
 40
374.0
 40
374.0
 40
375.0
 40
375.0
 40
376.0
 40
376.0
 40
377.0
 40
377.0
 40
378.0
 40
378.0
 40
379.0
 40
379.0
 40
380.0
 40
380.0
 40
381.0
 40
381.0
 40
382.0
 40
382.0
 40
383.0
 40
383.0
 40
384.0
 40
384.0
 40
385.0
 40
385.0
 40
386.0
 40
386.0
 40
387.0
 40
387.0
 40
388.0
 40
388.0
 40
389.0
 40
389.0
 40
389.0
 10
914.40939163005385
 20
-1299.4255367806159
 30
0.0
 41
1.0
 10
915.22781573877432
 20
-1299.4255367806159
 30
0.0
 41
1.0
 10
916.0462398474948
 20
-1299.4255367806159
 30
0.0
 41
1.0
 10
915.6324861119781
 20
-1300.7681630448656
 30
0.0
 41
1.0
 10
915.21873237646128
 20
-1302.1107893091153
 30
0.0
 41
1.0
 10
915.23707187163677
 20
-1302.0820885361923
 30
0.0
 41
0.9999957264399899
 10
915.25557886847582
 20
-1302.0534954860286
 30
0.0
 41
1.0
 10
915.28600819260521
 20
-1302.006482607665
 30
0.0
 41
1.0
 10
915.3164375167346
 20
-1301.9594697293016
 30
0.0
 41
1.0
 10
915.39580316183947
 20
-1301.8368509223997
 30
0.0
 41
0.9995394069080709
 10
915.48246155339098
 20
-1301.7192728606587
 30
0.0
 41
1.0
 10
915.51821841565334
 20
-1301.6707579680619
 30
0.0
 41
1.0
 10
915.55397527791558
 20
-1301.6222430754649
 30
0.0
 41
1.0
 10
915.68770194573119
 20
-1301.4408028003418
 30
0.0
 41
0.9994460617143622
 10
915.83320242701825
 20
-1301.2686604026931
 30
0.0
 41
1.0
 10
915.83759060799093
 20
-1301.2634687223133
 30
0.0
 41
1.0
 10
915.8419787889635
 20
-1301.2582770419335
 30
0.0
 41
1.0
 10
915.97870290830451
 20
-1301.096518005045
 30
0.0
 41
0.9994359394934268
 10
916.12597713865762
 20
-1300.9443018038787
 30
0.0
 41
1.0
 10
916.12836049261387
 20
-1300.9418384735027
 30
0.0
 41
1.0
 10
916.13074384657
 20
-1300.9393751431264
 30
0.0
 41
1.0
 10
916.27325136901231
 20
-1300.7920856027108
 30
0.0
 41
0.9995293688567605
 10
916.42452304999119
 20
-1300.65381239055
 30
0.0
 41
1.0
 10
916.44381680925335
 20
-1300.6361765048998
 30
0.0
 41
1.0
 10
916.46311056851562
 20
-1300.6185406192496
 30
0.0
 41
1.0
 10
916.57579473097439
 20
-1300.5155391783851
 30
0.0
 41
0.9997087614803406
 10
916.69331761992839
 20
-1300.4180948975882
 30
0.0
 41
1.0
 10
916.71248369309592
 20
-1300.4022033190868
 30
0.0
 41
1.0
 10
916.73164976626344
 20
-1300.3863117405856
 30
0.0
 41
1.0
 10
916.81084050887534
 20
-1300.3206506167967
 30
0.0
 41
0.9999595338699395
 10
916.8911997797386
 20
-1300.2564248861352
 30
0.0
 41
1.0
 10
916.97155905059822
 20
-1300.1921991554766
 30
0.0
 41
0.9999749417500083
 10
917.05281958494004
 20
-1300.1291176015316
 30
0.0
 41
1.0
 10
917.07380573111004
 20
-1300.1128263142241
 30
0.0
 41
1.0
 10
917.09479187727993
 20
-1300.0965350269166
 30
0.0
 41
1.0
 10
917.17935976257399
 20
-1300.0308860170819
 30
0.0
 41
0.9999792037123095
 10
917.26476736233963
 20
-1299.9663332354412
 30
0.0
 41
1.0
 10
917.28559218827502
 20
-1299.9505934131653
 30
0.0
 41
1.0
 10
917.30641701421041
 20
-1299.9348535908896
 30
0.0
 41
1.0
 10
917.35017496213209
 20
-1299.9017804537802
 30
0.0
 41
0.9999993374004732
 10
917.39385664825227
 20
-1299.8686066583737
 30
0.0
 41
1.0
 10
917.43753833439837
 20
-1299.8354328629475
 30
0.0
 41
0.9999160953816436
 10
917.48206474532094
 20
-1299.803401797747
 30
0.0
 41
1.0
 10
917.51488663273744
 20
-1299.7797906421642
 30
0.0
 41
1.0
 10
917.54770852015406
 20
-1299.7561794865815
 30
0.0
 41
1.0
 10
917.65787870591225
 20
-1299.6769261102136
 30
0.0
 41
0.9980964527231022
 10
917.77696769941269
 20
-1299.6118386373578
 30
0.0
 41
1.0
 10
917.81400030634029
 20
-1299.591598657765
 30
0.0
 41
1.0
 10
917.85103291326789
 20
-1299.5713586781721
 30
0.0
 41
1.0
 10
918.03035992654213
 20
-1299.4733484274702
 30
0.0
 41
0.9984572810572913
 10
918.21944849290139
 20
-1299.3958261661237
 30
0.0
 41
1.0
 10
918.22309476229759
 20
-1299.3943312737856
 30
0.0
 41
1.0
 10
918.22674103169379
 20
-1299.3928363814475
 30
0.0
 41
1.0
 10
918.40853705926065
 20
-1299.3183039047772
 30
0.0
 41
0.9987838528033991
 10
918.59678971781955
 20
-1299.2620382646114
 30
0.0
 41
1.0
 10
918.6010276670188
 20
-1299.260771610921
 30
0.0
 41
1.0
 10
918.60526561621793
 20
-1299.2595049572308
 30
0.0
 41
1.0
 10
918.78504237637969
 20
-1299.2057726244454
 30
0.0
 41
0.9990652816207208
 10
918.96878830809464
 20
-1299.1677689449036
 30
0.0
 41
1.0
 10
918.97397670912619
 20
-1299.166695841797
 30
0.0
 41
1.0
 10
918.97916511015774
 20
-1299.1656227386904
 30
0.0
 41
1.0
 10
919.15253423981085
 20
-1299.1297652653616
 30
0.0
 41
0.9992909934270541
 10
919.32811000626884
 20
-1299.1070548328951
 30
0.0
 41
1.0
 10
919.50368577272877
 20
-1299.0843444004286
 30
0.0
 41
0.9994553539448565
 10
919.68037720582345
 20
-1299.073265096222
 30
0.0
 41
1.0
 10
919.71581161361792
 20
-1299.0710432081744
 30
0.0
 41
1.0
 10
919.7512460214125
 20
-1299.0688213201267
 30
0.0
 41
1.0
 10
919.91747178798175
 20
-1299.058398257715
 30
0.0
 41
0.9990928098292751
 10
920.08398157988358
 20
-1299.0621578989496
 30
0.0
 41
1.0
 10
920.12254341515631
 20
-1299.0630285904826
 30
0.0
 41
1.0
 10
920.16110525042905
 20
-1299.0638992820157
 30
0.0
 41
1.0
 10
920.25049137178701
 20
-1299.0659175401843
 30
0.0
 41
0.999838208920544
 10
920.3397470545724
 20
-1299.0711496667122
 30
0.0
 41
1.0
 10
920.34017696079093
 20
-1299.0711748676144
 30
0.0
 41
1.0
 10
920.34060686700946
 20
-1299.0712000685166
 30
0.0
 41
1.0
 10
920.42900273735722
 20
-1299.07638179324
 30
0.0
 41
0.9997558016758734
 10
920.51708331455939
 20
-1299.0854643086068
 30
0.0
 41
1.0
 10
920.51755945298839
 20
-1299.0855134060894
 30
0.0
 41
1.0
 10
920.5180355914174
 20
-1299.0855625035717
 30
0.0
 41
1.0
 10
920.60516389175962
 20
-1299.0945468239734
 30
0.0
 41
0.9996565144181814
 10
920.69170174510236
 20
-1299.1080841306623
 30
0.0
 41
1.0
 10
920.6921676704801
 20
-1299.1081570163938
 30
0.0
 41
1.0
 10
920.69263359585773
 20
-1299.108229902125
 30
0.0
 41
1.0
 10
920.77823959844466
 20
-1299.1216214373512
 30
0.0
 41
0.9995321806867563
 10
920.86286667877232
 20
-1299.1402219257805
 30
0.0
 41
1.0
 10
920.86325587334386
 20
-1299.1403074682462
 30
0.0
 41
1.0
 10
920.8636450679154
 20
-1299.1403930107122
 30
0.0
 41
1.0
 10
920.94749375910044
 20
-1299.1588224142097
 30
0.0
 41
0.9993819199219207
 10
921.0298402932965
 20
-1299.1830977974705
 30
0.0
 41
1.0
 10
921.03007872679655
 20
-1299.1831680865803
 30
0.0
 41
1.0
 10
921.03031716029648
 20
-1299.1832383756903
 30
0.0
 41
1.0
 10
921.11218682749461
 20
-1299.207373180732
 30
0.0
 41
0.9992088568506462
 10
921.19187934648096
 20
-1299.2379384165256
 30
0.0
 41
1.0
 10
921.27156033736003
 20
-1299.2684980172585
 30
0.0
 41
0.9990226101772061
 10
921.34823100726715
 20
-1299.3059754488734
 30
0.0
 41
1.0
 10
921.42489014906562
 20
-1299.3434472454271
 30
0.0
 41
0.9988424273972554
 10
921.49759377627822
 20
-1299.3881120206802
 30
0.0
 41
1.0
 10
921.49786148465728
 20
-1299.3882764847522
 30
0.0
 41
1.0
 10
921.49812919303622
 20
-1299.3884409488242
 30
0.0
 41
1.0
 10
921.57136823700614
 20
-1299.4334346522207
 30
0.0
 41
0.9986928844490404
 10
921.63963110371594
 20
-1299.4856703865005
 30
0.0
 41
1.0
 10
921.64021239593922
 20
-1299.4861151997288
 30
0.0
 41
1.0
 10
921.64079368816238
 20
-1299.4865600129569
 30
0.0
 41
1.0
 10
921.71021913931861
 20
-1299.5396853736934
 30
0.0
 41
0.9986007262279059
 10
921.77364530908528
 20
-1299.5998461433867
 30
0.0
 41
1.0
 10
921.77453972454214
 20
-1299.6006945112213
 30
0.0
 41
1.0
 10
921.77543413999888
 20
-1299.6015428790561
 30
0.0
 41
1.0
 10
921.84064914068006
 20
-1299.6634003844197
 30
0.0
 41
0.9985581491380745
 10
921.89885675238099
 20
-1299.7318928746906
 30
0.0
 41
1.0
 10
921.90811520597708
 20
-1299.7427872323929
 30
0.0
 41
1.0
 10
921.91737365957329
 20
-1299.7536815900949
 30
0.0
 41
1.0
 10
921.99409817846686
 20
-1299.8439627957705
 30
0.0
 41
0.9970460233521659
 10
922.05609007962619
 20
-1299.9449298799518
 30
0.0
 41
1.0
 10
922.07055944470608
 20
-1299.9684963390337
 30
0.0
 41
1.0
 10
922.08502880978597
 20
-1299.9920627981155
 30
0.0
 41
1.0
 10
922.12476550979818
 20
-1300.0567825221474
 30
0.0
 41
0.9988468816636847
 10
922.15811188054886
 20
-1300.1250149745733
 30
0.0
 41
1.0
 10
922.16514790304018
 20
-1300.1394118957105
 30
0.0
 41
1.0
 10
922.1721839255315
 20
-1300.1538088168475
 30
0.0
 41
1.0
 10
922.19145825129999
 20
-1300.193247427
 30
0.0
 41
0.999843118999746
 10
922.20932357879542
 20
-1300.2333439814417
 30
0.0
 41
1.0
 10
922.2271889063129
 20
-1300.2734405359333
 30
0.0
 41
0.9999989990080395
 10
922.24516762976032
 20
-1300.3134863735731
 30
0.0
 41
1.0
 10
922.25133994133057
 20
-1300.3272345903324
 30
0.0
 41
1.0
 10
922.25751225290082
 20
-1300.3409828070917
 30
0.0
 41
1.0
 10
922.2878355995141
 20
-1300.4085250783078
 30
0.0
 41
0.9998790356321717
 10
922.31604347965265
 20
-1300.4769778302461
 30
0.0
 41
1.0
 10
922.32287866093588
 20
-1300.4935649316708
 30
0.0
 41
1.0
 10
922.32971384221901
 20
-1300.5101520330957
 30
0.0
 41
1.0
 10
922.35327150459852
 20
-1300.5673199879798
 30
0.0
 41
0.9998227574562489
 10
922.3746602529875
 20
-1300.6253342962557
 30
0.0
 41
1.0
 10
922.39604900137761
 20
-1300.683348604535
 30
0.0
 41
0.9996797971041026
 10
922.41447528633717
 20
-1300.7423707236549
 30
0.0
 41
1.0
 10
922.41837908906211
 20
-1300.7548751818219
 30
0.0
 41
1.0
 10
922.42228289178706
 20
-1300.767379639989
 30
0.0
 41
1.0
 10
922.44851678219732
 20
-1300.8514106754449
 30
0.0
 41
0.9979274938734877
 10
922.46374130567676
 20
-1300.9381150341064
 30
0.0
 41
1.0
 10
922.4659649929381
 20
-1300.950779034928
 30
0.0
 41
1.0
 10
922.46818868019932
 20
-1300.9634430357494
 30
0.0
 41
1.0
 10
922.47911861989735
 20
-1301.0256895430389
 30
0.0
 41
0.9994985982137388
 10
922.48608678507412
 20
-1301.08850304418
 30
0.0
 41
1.0
 10
922.49305495025112
 20
-1301.1513165453214
 30
0.0
 41
0.9996372611201724
 10
922.49663081601909
 20
-1301.2144141240078
 30
0.0
 41
1.0
 10
922.49679939350835
 20
-1301.2173887410881
 30
0.0
 41
1.0
 10
922.4969679709975
 20
-1301.2203633581685
 30
0.0
 41
1.0
 10
922.50088099174377
 20
-1301.289410171019
 30
0.0
 41
0.9997730630738042
 10
922.5018493052321
 20
-1301.3585609950571
 30
0.0
 41
1.0
 10
922.50190641165011
 20
-1301.3626391741948
 30
0.0
 41
1.0
 10
922.50196351806812
 20
-1301.3667173533324
 30
0.0
 41
1.0
 10
922.50304604439225
 20
-1301.4440245356564
 30
0.0
 41
0.9998772614071486
 10
922.50170595766065
 20
-1301.5213276822194
 30
0.0
 41
1.0
 10
922.50161669446197
 20
-1301.526476846052
 30
0.0
 41
1.0
 10
922.50152743126318
 20
-1301.5316260098846
 30
0.0
 41
1.0
 10
922.50000881813355
 20
-1301.6192274841324
 30
0.0
 41
0.9999415567322866
 10
922.49659650788738
 20
-1301.7067756458098
 30
0.0
 41
1.0
 10
922.49635518721243
 20
-1301.7129671055391
 30
0.0
 41
1.0
 10
922.49611386653737
 20
-1301.7191585652686
 30
0.0
 41
1.0
 10
922.49221891494028
 20
-1301.8190896464293
 30
0.0
 41
0.9999716810425363
 10
922.48682033182126
 20
-1301.9189507846675
 30
0.0
 41
1.0
 10
922.4836075330328
 20
-1301.9783800343184
 30
0.0
 41
1.0
 10
922.48039473424433
 20
-1302.0378092839694
 30
0.0
 41
1.0
 10
922.47232082509186
 20
-1302.1871576852463
 30
0.0
 41
0.9999819129894652
 10
922.46245103347542
 20
-1302.3363981629541
 30
0.0
 41
1.0
 10
922.45258124185887
 20
-1302.4856386406655
 30
0.0
 41
1.0
 10
922.45014192129497
 20
-1302.522831686515
 30
0.0
 41
1.0
 10
922.47284015514219
 20
-1302.4840906891575
 30
0.0
 41
0.9999982128276237
 10
922.49568471392263
 20
-1302.4454357951572
 30
0.0
 41
1.0
 10
922.52259427378681
 20
-1302.399902581137
 30
0.0
 41
1.0
 10
922.5495038336511
 20
-1302.3543693671168
 30
0.0
 41
1.0
 10
922.62616751217456
 20
-1302.2246480450508
 30
0.0
 41
0.9998609190055584
 10
922.70711482503486
 20
-1302.097555663124
 30
0.0
 41
1.0
 10
922.73676314652039
 20
-1302.0510059301607
 30
0.0
 41
1.0
 10
922.76641146800591
 20
-1302.0044561971974
 30
0.0
 41
1.0
 10
922.84868368823982
 20
-1301.8752836272076
 30
0.0
 41
0.9999067609732395
 10
922.93445269770336
 20
-1301.7484059377671
 30
0.0
 41
1.0
 10
922.93685740090086
 20
-1301.7448486717174
 30
0.0
 41
1.0
 10
922.93926210409825
 20
-1301.7412914056677
 30
0.0
 41
1.0
 10
923.02022170716293
 20
-1301.6215282483317
 30
0.0
 41
0.9998784952150063
 10
923.10487531684873
 20
-1301.504347031617
 30
0.0
 41
1.0
 10
923.18952892653169
 20
-1301.3871658149064
 30
0.0
 41
0.9998532968284297
 10
923.27814654735573
 20
-1301.2729529064343
 30
0.0
 41
1.0
 10
923.29810833634724
 20
-1301.2472255854136
 30
0.0
 41
1.0
 10
923.31807012533864
 20
-1301.2214982643929
 30
0.0
 41
1.0
 10
923.43655417509592
 20
-1301.068792653427
 30
0.0
 41
0.9991551975795677
 10
923.56717862471737
 20
-1300.9263330913457
 30
0.0
 41
1.0
 10
923.57068824069904
 20
-1300.9225054897192
 30
0.0
 41
1.0
 10
923.57419785668071
 20
-1300.9186778880928
 30
0.0
 41
1.0
 10
923.69780307434246
 20
-1300.7838735292603
 30
0.0
 41
0.9997418144181176
 10
923.82740521404139
 20
-1300.6548241186497
 30
0.0
 41
1.0
 10
923.95700735374373
 20
-1300.5257747080359
 30
0.0
 41
0.9989238204633962
 10
924.09800990199619
 20
-1300.4092897459955
 30
0.0
 41
1.0
 10
924.14325758013297
 20
-1300.371909754389
 30
0.0
 41
1.0
 10
924.18850525826963
 20
-1300.3345297627827
 30
0.0
 41
1.0
 10
924.32874531549282
 20
-1300.2186747094902
 30
0.0
 41
0.999082508409629
 10
924.47838524809754
 20
-1300.1152457116568
 30
0.0
 41
1.0
 10
924.48843061215371
 20
-1300.1083024985778
 30
0.0
 41
1.0
 10
924.49847597620987
 20
-1300.1013592854988
 30
0.0
 41
1.0
 10
924.62802518070225
 20
-1300.0118167138235
 30
0.0
 41
0.999816489982765
 10
924.76090938407776
 20
-1299.9273024723075
 30
0.0
 41
1.0
 10
924.77275494460127
 20
-1299.9197687057833
 30
0.0
 41
1.0
 10
924.78460050512479
 20
-1299.9122349392592
 30
0.0
 41
1.0
 10
924.89379358745077
 20
-1299.8427882307928
 30
0.0
 41
0.9997473449129557
 10
925.0059975447034
 20
-1299.7783192729753
 30
0.0
 41
1.0
 10
925.11820150195342
 20
-1299.7138503151593
 30
0.0
 41
0.9999327861145819
 10
925.23187011271875
 20
-1299.6520003234768
 30
0.0
 41
1.0
 10
925.23242211527827
 20
-1299.6516999647984
 30
0.0
 41
1.0
 10
925.23297411783778
 20
-1299.6513996061199
 30
0.0
 41
1.0
 10
925.34774673372408
 20
-1299.5889488970795
 30
0.0
 41
0.9996956420483947
 10
925.46546005956395
 20
-1299.5322354301049
 30
0.0
 41
1.0
 10
925.49590046445519
 20
-1299.5175694533757
 30
0.0
 41
1.0
 10
925.52634086934643
 20
-1299.5029034766465
 30
0.0
 41
1.0
 10
925.62931797609122
 20
-1299.4532898182026
 30
0.0
 41
0.9998070570176998
 10
925.73416436503305
 20
-1299.407759231301
 30
0.0
 41
1.0
 10
925.83901075397523
 20
-1299.3622286443995
 30
0.0
 41
0.999782743614773
 10
925.94566369058816
 20
-1299.3211074730864
 30
0.0
 41
1.0
 10
925.96488654021744
 20
-1299.3136958994548
 30
0.0
 41
1.0
 10
925.98410938984671
 20
-1299.3062843258233
 30
0.0
 41
1.0
 10
926.12920802571921
 20
-1299.2503400072467
 30
0.0
 41
0.9988031841976348
 10
926.27907838832391
 20
-1299.2088399430791
 30
0.0
 41
1.0
 10
926.30399563668902
 20
-1299.2019401972716
 30
0.0
 41
1.0
 10
926.32891288505402
 20
-1299.1950404514644
 30
0.0
 41
1.0
 10
926.49618291069919
 20
-1299.1487223090583
 30
0.0
 41
0.9984748040550178
 10
926.66753981934664
 20
-1299.1211280767936
 30
0.0
 41
1.0
 10
926.67227895559427
 20
-1299.1203649162803
 30
0.0
 41
1.0
 10
926.67701809184177
 20
-1299.1196017557672
 30
0.0
 41
1.0
 10
926.83889672799421
 20
-1299.0935338445288
 30
0.0
 41
0.998443649547976
 10
927.0026714717203
 20
-1299.0856558907101
 30
0.0
 41
1.0
 10
927.0243686798525
 20
-1299.0846122035105
 30
0.0
 41
1.0
 10
927.0460658879847
 20
-1299.0835685163106
 30
0.0
 41
1.0
 10
927.16644621544583
 20
-1299.0777779368914
 30
0.0
 41
0.9987954789335777
 10
927.28681446035489
 20
-1299.0838144646336
 30
0.0
 41
1.0
 10
927.30677925285136
 20
-1299.0848157089722
 30
0.0
 41
1.0
 10
927.32674404534771
 20
-1299.085816953311
 30
0.0
 41
1.0
 10
927.40718270526668
 20
-1299.0898509923761
 30
0.0
 41
0.9997941595877771
 10
927.48739148335915
 20
-1299.097145058297
 30
0.0
 41
1.0
 10
927.56760026145525
 20
-1299.1044391242183
 30
0.0
 41
0.9998589466238064
 10
927.6475188083117
 20
-1299.1144229786685
 30
0.0
 41
1.0
 10
927.67992501011838
 20
-1299.1184713355874
 30
0.0
 41
1.0
 10
927.71233121192506
 20
-1299.1225196925066
 30
0.0
 41
1.0
 10
927.85706216239419
 20
-1299.1406002607946
 30
0.0
 41
0.9993495063248878
 10
928.00011340615777
 20
-1299.1690659705357
 30
0.0
 41
1.0
 10
928.03304710331122
 20
-1299.1756194337509
 30
0.0
 41
1.0
 10
928.06598080046479
 20
-1299.182172896966
 30
0.0
 41
1.0
 10
928.17527462366968
 20
-1299.2039212311013
 30
0.0
 41
0.9996788715560897
 10
928.28332619562718
 20
-1299.2311790304645
 30
0.0
 41
1.0
 10
928.28538919816606
 20
-1299.2316994570374
 30
0.0
 41
1.0
 10
928.28745220070493
 20
-1299.2322198836102
 30
0.0
 41
1.0
 10
928.391377767584
 20
-1299.2584368298278
 30
0.0
 41
0.9995480654493186
 10
928.49354000281301
 20
-1299.2908517864521
 30
0.0
 41
1.0
 10
928.49522964494417
 20
-1299.2913878913666
 30
0.0
 41
1.0
 10
928.49691928707523
 20
-1299.2919239962812
 30
0.0
 41
1.0
 10
928.5957022380444
 20
-1299.3232667430773
 30
0.0
 41
0.9993867959456489
 10
928.692049396485
 20
-1299.3614461123664
 30
0.0
 41
1.0
 10
928.69329234556915
 20
-1299.3619386542623
 30
0.0
 41
1.0
 10
928.69453529465329
 20
-1299.3624311961582
 30
0.0
 41
1.0
 10
928.78839655492709
 20
-1299.3996254816559
 30
0.0
 41
0.9992050256521718
 10
928.87899622996088
 20
-1299.4441793808949
 30
0.0
 41
1.0
 10
928.87973091267429
 20
-1299.4445406733562
 30
0.0
 41
1.0
 10
928.8804655953877
 20
-1299.4449019658175
 30
0.0
 41
1.0
 10
928.96959590499512
 20
-1299.4887332801341
 30
0.0
 41
0.9990222350741724
 10
929.05450596638798
 20
-1299.5402665478318
 30
0.0
 41
1.0
 10
929.05468985167045
 20
-1299.5403781507366
 30
0.0
 41
1.0
 10
929.05487373695303
 20
-1299.5404897536412
 30
0.0
 41
1.0
 10
929.13941602778095
 20
-1299.5917998155296
 30
0.0
 41
0.9988642743804839
 10
929.21869056240052
 20
-1299.6509240030553
 30
0.0
 41
1.0
 10
929.2979650970201
 20
-1299.7100481905809
 30
0.0
 41
0.9987681233311044
 10
929.37098888129583
 20
-1299.7767388819814
 30
0.0
 41
1.0
 10
929.37131780926165
 20
-1299.7770392831956
 30
0.0
 41
1.0
 10
929.37164673722737
 20
-1299.7773396844098
 30
0.0
 41
1.0
 10
929.44532837743498
 20
-1299.8446311782388
 30
0.0
 41
0.9987496570898685
 10
929.51192218276196
 20
-1299.9189439923255
 30
0.0
 41
1.0
 10
929.51269435252254
 20
-1299.9198056656835
 30
0.0
 41
1.0
 10
929.51346652228312
 20
-1299.9206673390415
 30
0.0
 41
1.0
 10
929.58160466713173
 20
-1299.9967034998447
 30
0.0
 41
0.998814766982709
 10
929.64202692135598
 20
-1300.079004506686
 30
0.0
 41
1.0
 10
929.64314624743383
 20
-1300.0805291380389
 30
0.0
 41
1.0
 10
929.64426557351169
 20
-1300.0820537693915
 30
0.0
 41
1.0
 10
929.70692647989222
 20
-1300.1674040389391
 30
0.0
 41
0.9989452636216306
 10
929.76149339285382
 20
-1300.2581427280973
 30
0.0
 41
1.0
 10
929.76284211893926
 20
-1300.2603855091231
 30
0.0
 41
1.0
 10
929.76419084502481
 20
-1300.262628290149
 30
0.0
 41
1.0
 10
929.82145521015752
 20
-1300.3578525413593
 30
0.0
 41
0.9991046436070808
 10
929.87046442347923
 20
-1300.4575769743847
 30
0.0
 41
1.0
 10
929.8719282850692
 20
-1300.460555654457
 30
0.0
 41
1.0
 10
929.87339214665917
 20
-1300.4635343345296
 30
0.0
 41
1.0
 10
929.9253290831607
 20
-1300.5692161276995
 30
0.0
 41
0.9992763831100876
 10
929.96908221171543
 20
-1300.6785401896548
 30
0.0
 41
1.0
 10
929.97056148137904
 20
-1300.6822363771889
 30
0.0
 41
1.0
 10
929.97204075104264
 20
-1300.6859325647233
 30
0.0
 41
1.0
 10
930.01875241892503
 20
-1300.802649001748
 30
0.0
 41
0.9994163472883259
 10
930.05738545011411
 20
-1300.9222825902104
 30
0.0
 41
1.0
 10
930.05862360236108
 20
-1300.9261167339937
 30
0.0
 41
1.0
 10
930.05986175460805
 20
-1300.9299508777772
 30
0.0
 41
1.0
 10
930.09974531562557
 20
-1301.0534569392571
 30
0.0
 41
0.9997268055890695
 10
930.13381337153692
 20
-1301.1786919712051
 30
0.0
 41
1.0
 10
930.13474355180711
 20
-1301.1821113373164
 30
0.0
 41
1.0
 10
930.13567373207741
 20
-1301.1855307034277
 30
0.0
 41
1.0
 10
930.16788142744986
 20
-1301.30392700316
 30
0.0
 41
0.9996701319000567
 10
930.19396704421933
 20
-1301.4238209564191
 30
0.0
 41
1.0
 10
930.22005266098995
 20
-1301.5437149096824
 30
0.0
 41
0.9995785451108784
 10
930.23913623832959
 20
-1301.6649206707143
 30
0.0
 41
1.0
 10
930.24335602050337
 20
-1301.6917218254794
 30
0.0
 41
1.0
 10
930.24757580267703
 20
-1301.7185229802442
 30
0.0
 41
1.0
 10
930.27415077861576
 20
-1301.8873089539475
 30
0.0
 41
0.9979925101216186
 10
930.27917636454197
 20
-1302.0581002820388
 30
0.0
 41
1.0
 10
930.28000117696661
 20
-1302.0861310055216
 30
0.0
 41
1.0
 10
930.28082598939136
 20
-1302.1141617290041
 30
0.0
 41
1.0
 10
930.28420195046829
 20
-1302.2288916101334
 30
0.0
 41
0.9995314902263419
 10
930.28055175832981
 20
-1302.3436130938826
 30
0.0
 41
1.0
 10
930.27690156619155
 20
-1302.4583345776316
 30
0.0
 41
0.9996245486944542
 10
930.26697247106063
 20
-1302.5726838487576
 30
0.0
 41
1.0
 10
930.26680942306632
 20
-1302.5745616048935
 30
0.0
 41
1.0
 10
930.26664637507201
 20
-1302.5764393610291
 30
0.0
 41
1.0
 10
930.25639118395247
 20
-1302.6945441444232
 30
0.0
 41
0.9997286095001465
 10
930.24064586038139
 20
-1302.8120430533163
 30
0.0
 41
1.0
 10
930.24025236773093
 20
-1302.8149794780193
 30
0.0
 41
1.0
 10
930.23985887508047
 20
-1302.817915902722
 30
0.0
 41
1.0
 10
930.22332656620915
 20
-1302.9412876610156
 30
0.0
 41
0.999826553396852
 10
930.20221110747627
 20
-1303.063958135805
 30
0.0
 41
1.0
 10
930.20153456533876
 20
-1303.0678885143143
 30
0.0
 41
1.0
 10
930.20085802320136
 20
-1303.0718188928238
 30
0.0
 41
1.0
 10
930.17838948019516
 20
-1303.2023501246247
 30
0.0
 41
0.9999022530855406
 10
930.15228001558432
 20
-1303.3322020932665
 30
0.0
 41
1.0
 10
930.15130137441906
 20
-1303.3370692356534
 30
0.0
 41
1.0
 10
930.1503227332538
 20
-1303.3419363780401
 30
0.0
 41
1.0
 10
930.12225598631323
 20
-1303.4815226314531
 30
0.0
 41
0.9999524761932178
 10
930.09147301747873
 20
-1303.6205351246163
 30
0.0
 41
1.0
 10
930.09019691030312
 20
-1303.6262978839195
 30
0.0
 41
1.0
 10
930.08892080312739
 20
-1303.6320606432228
 30
0.0
 41
1.0
 10
930.05558561993803
 20
-1303.782598655007
 30
0.0
 41
0.9999813588711534
 10
930.02041461914257
 20
-1303.9327183676623
 30
0.0
 41
1.0
 10
930.01886069368766
 20
-1303.9393509580775
 30
0.0
 41
1.0
 10
930.01730676823286
 20
-1303.9459835484927
 30
0.0
 41
1.0
 10
929.97902791653587
 20
-1304.1093684419429
 30
0.0
 41
0.9999955237662158
 10
929.93977203855809
 20
-1304.2725213455387
 30
0.0
 41
1.0
 10
929.92749040291642
 20
-1304.3235655360922
 30
0.0
 41
1.0
 10
929.91520876727463
 20
-1304.374609726646
 30
0.0
 41
1.0
 10
929.85138961801658
 20
-1304.6398510113345
 30
0.0
 41
0.999999360488206
 10
929.78697067083385
 20
-1304.9049472620795
 30
0.0
 41
1.0
 10
929.78225183529867
 20
-1304.9243661700714
 30
0.0
 41
1.0
 10
929.77753299976337
 20
-1304.9437850780632
 30
0.0
 41
1.0
 10
929.70367638150037
 20
-1305.2477191448315
 30
0.0
 41
0.9999659914731669
 10
929.62481678561653
 20
-1305.5503936913858
 30
0.0
 41
1.0
 10
929.61986409668646
 20
-1305.5694028285661
 30
0.0
 41
1.0
 10
929.61491140775638
 20
-1305.5884119657462
 30
0.0
 41
1.0
 10
929.52614643401125
 20
-1305.9291047866648
 30
0.0
 41
0.9999441976023671
 10
929.43020340104442
 20
-1306.2678462119754
 30
0.0
 41
1.0
 10
929.41350288262038
 20
-1306.3268099244976
 30
0.0
 41
1.0
 10
929.39680236419645
 20
-1306.3857736370198
 30
0.0
 41
1.0
 10
929.26745829438062
 20
-1306.8424424873779
 30
0.0
 41
0.9999625120735389
 10
929.13022552705615
 20
-1307.2968030213774
 30
0.0
 41
1.0
 10
929.09443558397186
 20
-1307.4152990480088
 30
0.0
 41
1.0
 10
929.05864564088756
 20
-1307.5337950746405
 30
0.0
 41
1.0
 10
928.98412543684958
 20
-1307.7805221527326
 30
0.0
 41
0.9999793386320158
 10
928.90643941371377
 20
-1308.0262707919626
 30
0.0
 41
1.0
 10
928.82875339057625
 20
-1308.2720194311987
 30
0.0
 41
1.0
 10
928.81797383170556
 20
-1308.3060373355734
 30
0.0
 41
1.0
 10
926.96760077843646
 20
-1314.1931092580407
 30
0.0
 41
1.0
 10
925.11722772516725
 20
-1320.0801811805081
 30
0.0
 41
1.0
 10
924.15597103514369
 20
-1320.0801811805081
 30
0.0
 41
1.0
 10
923.19471434512013
 20
-1320.0801811805081
 30
0.0
 41
1.0
 10
924.81365912379852
 20
-1314.9321526787187
 30
0.0
 41
1.0
 10
926.43260390247701
 20
-1309.7841241769293
 30
0.0
 41
1.0
 10
926.47776972565566
 20
-1309.6400929546458
 30
0.0
 41
1.0
 10
926.5229355488342
 20
-1309.4960617323625
 30
0.0
 41
1.0
 10
926.69323996618959
 20
-1308.9529707032234
 30
0.0
 41
0.9999911657889485
 10
926.85897277786853
 20
-1308.4084671718635
 30
0.0
 41
1.0
 10
926.88866872136509
 20
-1308.3109032318262
 30
0.0
 41
1.0
 10
926.91836466486154
 20
-1308.2133392917885
 30
0.0
 41
1.0
 10
927.02470558953905
 20
-1307.8639636405319
 30
0.0
 41
0.9999952428142909
 10
927.12888917887381
 20
-1307.5139386161502
 30
0.0
 41
1.0
 10
927.13394864921145
 20
-1307.4969403418577
 30
0.0
 41
1.0
 10
927.13900811954909
 20
-1307.4799420675652
 30
0.0
 41
1.0
 10
927.23307276820503
 20
-1307.163913591779
 30
0.0
 41
0.999993168750135
 10
927.32479860607236
 20
-1306.84719837853
 30
0.0
 41
1.0
 10
927.32973387053926
 20
-1306.8301576692334
 30
0.0
 41
1.0
 10
927.33466913500627
 20
-1306.8131169599369
 30
0.0
 41
1.0
 10
927.41652444395368
 20
-1306.5304831652329
 30
0.0
 41
0.9999893840816718
 10
927.49577167040286
 20
-1306.2471070360129
 30
0.0
 41
1.0
 10
927.57501889685614
 20
-1305.9637309067793
 30
0.0
 41
0.999983398006253
 10
927.65099513759276
 20
-1305.6794603237706
 30
0.0
 41
1.0
 10
927.65999907431774
 20
-1305.6457714452822
 30
0.0
 41
1.0
 10
927.66900301104272
 20
-1305.6120825667936
 30
0.0
 41
1.0
 10
927.737967559911
 20
-1305.3540467344892
 30
0.0
 41
0.9999233658068105
 10
927.8005225311332
 20
-1305.0943825757599
 30
0.0
 41
1.0
 10
927.86307750235346
 20
-1304.8347184170375
 30
0.0
 41
1.0
 10
927.90256092121103
 20
-1304.6709117526113
 30
0.0
 41
1.0
 10
927.90753952518617
 20
-1304.6502567907496
 30
0.0
 41
1.0
 10
927.91251812916141
 20
-1304.6296018288879
 30
0.0
 41
1.0
 10
927.94204434006724
 20
-1304.5071050881916
 30
0.0
 41
0.9999868670864154
 10
927.97031342406478
 20
-1304.3843121425398
 30
0.0
 41
1.0
 10
927.97421091122419
 20
-1304.3673825551155
 30
0.0
 41
1.0
 10
927.9781083983836
 20
-1304.3504529676911
 30
0.0
 41
1.0
 10
927.99858250806381
 20
-1304.2615191968816
 30
0.0
 41
0.9999778173347689
 10
928.01787010617636
 20
-1304.1723205796638
 30
0.0
 41
1.0
 10
928.03715770429312
 20
-1304.0831219624279
 30
0.0
 41
0.9999602692865078
 10
928.05485206292587
 20
-1303.9935936739907
 30
0.0
 41
1.0
 10
928.05805589500187
 20
-1303.9773832191131
 30
0.0
 41
1.0
 10
928.06125972707787
 20
-1303.9611727642357
 30
0.0
 41
1.0
 10
928.08536174986375
 20
-1303.8392235660394
 30
0.0
 41
0.9995617985319907
 10
928.10220509708211
 20
-1303.7160618183352
 30
0.0
 41
1.0
 10
928.10466958698851
 20
-1303.6980410009687
 30
0.0
 41
1.0
 10
928.10713407689491
 20
-1303.680020183602
 30
0.0
 41
1.0
 10
928.12741733794326
 20
-1303.5317051339007
 30
0.0
 41
0.9991121410639914
 10
928.13514269153166
 20
-1303.3822090350934
 30
0.0
 41
1.0
 10
928.13606148155611
 20
-1303.3644291985192
 30
0.0
 41
1.0
 10
928.13698027158057
 20
-1303.3466493619453
 30
0.0
 41
1.0
 10
928.14286804511983
 20
-1303.2327129362893
 30
0.0
 41
0.9989792494905837
 10
928.13844895300258
 20
-1303.1187101003889
 30
0.0
 41
1.0
 10
928.13780098113398
 20
-1303.1019938544614
 30
0.0
 41
1.0
 10
928.13715300926526
 20
-1303.0852776085339
 30
0.0
 41
1.0
 10
928.13402986088545
 20
-1303.0047072644929
 30
0.0
 41
0.9997820295393801
 10
928.12754586350957
 20
-1302.9243375427466
 30
0.0
 41
1.0
 10
928.12106186613403
 20
-1302.8439678210036
 30
0.0
 41
0.99983351059723
 10
928.11164967062166
 20
-1302.7638882045485
 30
0.0
 41
1.0
 10
928.11005474594549
 20
-1302.7503184740674
 30
0.0
 41
1.0
 10
928.10845982126943
 20
-1302.7367487435863
 30
0.0
 41
1.0
 10
928.09585777640518
 20
-1302.6295296661701
 30
0.0
 41
0.9996876457879067
 10
928.07791386360668
 20
-1302.523074238454
 30
0.0
 41
1.0
 10
928.07568220046119
 20
-1302.5098345032111
 30
0.0
 41
1.0
 10
928.07345053731569
 20
-1302.496594767968
 30
0.0
 41
1.0
 10
928.05965471589502
 20
-1302.4147486240106
 30
0.0
 41
0.9995547496494024
 10
928.04100139400248
 20
-1302.3338711268209
 30
0.0
 41
1.0
 10
928.04062743713098
 20
-1302.3322497161148
 30
0.0
 41
1.0
 10
928.04025348025948
 20
-1302.3306283054085
 30
0.0
 41
1.0
 10
928.02234807210982
 20
-1302.2529936296291
 30
0.0
 41
0.9994899427174563
 10
927.99952316343047
 20
-1302.1766603467954
 30
0.0
 41
1.0
 10
927.99906463668958
 20
-1302.1751268970061
 30
0.0
 41
1.0
 10
927.99860610994858
 20
-1302.1735934472169
 30
0.0
 41
1.0
 10
927.97669825475145
 20
-1302.1003270639624
 30
0.0
 41
0.999378487759152
 10
927.94968261964459
 20
-1302.0287863588021
 30
0.0
 41
1.0
 10
927.94915092866734
 20
-1302.0273783760806
 30
0.0
 41
1.0
 10
927.94861923769008
 20
-1302.0259703933591
 30
0.0
 41
1.0
 10
927.9226669845375
 20
-1301.9572456536416
 30
0.0
 41
0.999243083225428
 10
927.89145044937868
 20
-1301.8907465015748
 30
0.0
 41
1.0
 10
927.89086833332226
 20
-1301.8895064464577
 30
0.0
 41
1.0
 10
927.89028621726584
 20
-1301.8882663913409
 30
0.0
 41
1.0
 10
927.86023391421963
 20
-1301.824247349507
 30
0.0
 41
0.9990789632798266
 10
927.82480328744259
 20
-1301.7630407377569
 30
0.0
 41
1.0
 10
927.82420758126045
 20
-1301.7620116518974
 30
0.0
 41
1.0
 10
927.8236118750782
 20
-1301.7609825660377
 30
0.0
 41
1.0
 10
927.789372660666
 20
-1301.7018341260075
 30
0.0
 41
0.9988874801121669
 10
927.74971338463388
 20
-1301.6461744135893
 30
0.0
 41
1.0
 10
927.74915785856967
 20
-1301.6453947619148
 30
0.0
 41
1.0
 10
927.74860233250547
 20
-1301.64461511024
 30
0.0
 41
1.0
 10
927.71005410860187
 20
-1301.5905147011715
 30
0.0
 41
0.9986762060692475
 10
927.66615163732558
 20
-1301.5406609867323
 30
0.0
 41
1.0
 10
927.66570767699386
 20
-1301.5401568449163
 30
0.0
 41
1.0
 10
927.66526371666225
 20
-1301.5396527031003
 30
0.0
 41
1.0
 10
927.62224916605032
 20
-1301.4908072722942
 30
0.0
 41
0.998462164248889
 10
927.57409160927159
 20
-1301.4470239718221
 30
0.0
 41
1.0
 10
927.57384497475482
 20
-1301.4467997396584
 30
0.0
 41
1.0
 10
927.57359834023816
 20
-1301.4465755074948
 30
0.0
 41
1.0
 10
927.52593405249343
 20
-1301.4032406713504
 30
0.0
 41
0.998272469385076
 10
927.47351542065235
 20
-1301.3657963208332
 30
0.0
 41
1.0
 10
927.4210967888099
 20
-1301.3283519703148
 30
0.0
 41
0.9981399180158095
 10
927.36451072541615
 20
-1301.2975654508712
 30
0.0
 41
1.0
 10
927.36446506333846
 20
-1301.2975406077144
 30
0.0
 41
1.0
 10
927.36441940126065
 20
-1301.2975157645576
 30
0.0
 41
1.0
 10
927.30774201371048
 20
-1301.2666795587998
 30
0.0
 41
0.9980927086836264
 10
927.24769666264376
 20
-1301.2430627499473
 30
0.0
 41
1.0
 10
927.24725649293214
 20
-1301.2428896240722
 30
0.0
 41
1.0
 10
927.24681632322063
 20
-1301.2427164981973
 30
0.0
 41
1.0
 10
927.18589063273123
 20
-1301.2187534375948
 30
0.0
 41
0.9981411356561633
 10
927.12250211133176
 20
-1301.2023807960893
 30
0.0
 41
1.0
 10
927.12161999463024
 20
-1301.2021529538838
 30
0.0
 41
1.0
 10
927.1207378779286
 20
-1301.2019251116783
 30
0.0
 41
1.0
 10
927.05558512312609
 20
-1301.1850967857617
 30
0.0
 41
0.998303181293467
 10
926.98891769413069
 20
-1301.1759574245855
 30
0.0
 41
1.0
 10
926.98004666872794
 20
-1301.1747413059143
 30
0.0
 41
1.0
 10
926.97117564332507
 20
-1301.1735251872431
 30
0.0
 41
1.0
 10
926.91682600082038
 20
-1301.1660744572519
 30
0.0
 41
0.9983887708263282
 10
926.86198215152683
 20
-1301.1648297836186
 30
0.0
 41
1.0
 10
926.85391874630875
 20
-1301.1646467857438
 30
0.0
 41
1.0
 10
926.84585534109067
 20
-1301.164463787869
 30
0.0
 41
1.0
 10
926.80713830223328
 20
-1301.1635851099854
 30
0.0
 41
0.9998869563081401
 10
926.76841234903134
 20
-1301.1638709793451
 30
0.0
 41
1.0
 10
926.72968639581404
 20
-1301.1641568487048
 30
0.0
 41
0.999997232008646
 10
926.69096221658936
 20
-1301.1646249482342
 30
0.0
 41
1.0
 10
926.67160920002357
 20
-1301.1648588883234
 30
0.0
 41
1.0
 10
926.65225618345789
 20
-1301.1650928284125
 30
0.0
 41
1.0
 10
926.57482597108685
 20
-1301.1660288081202
 30
0.0
 41
0.9997304945087442
 10
926.49752266484893
 20
-1301.1705579019065
 30
0.0
 41
1.0
 10
926.48847302314493
 20
-1301.1710881078964
 30
0.0
 41
1.0
 10
926.47942338144105
 20
-1301.1716183138863
 30
0.0
 41
1.0
 10
926.38402079179411
 20
-1301.1772078196523
 30
0.0
 41
0.9997888306414848
 10
926.28892845595067
 20
-1301.1867127841415
 30
0.0
 41
1.0
 10
926.28020739437875
 20
-1301.1875844987735
 30
0.0
 41
1.0
 10
926.27148633280683
 20
-1301.1884562134055
 30
0.0
 41
1.0
 10
926.15895187381989
 20
-1301.1997046071585
 30
0.0
 41
0.9984170238190587
 10
926.04839272646927
 20
-1301.2235206890941
 30
0.0
 41
1.0
 10
926.01201159548214
 20
-1301.2313577249004
 30
0.0
 41
1.0
 10
925.975630464495
 20
-1301.2391947607066
 30
0.0
 41
1.0
 10
925.86043939607328
 20
-1301.2640086272163
 30
0.0
 41
0.9976592854198977
 10
925.74971122966804
 20
-1301.3043073043636
 30
0.0
 41
1.0
 10
925.63898306326064
 20
-1301.3446059815117
 30
0.0
 41
0.9993255074352351
 10
925.53151126446778
 20
-1301.3929228800052
 30
0.0
 41
1.0
 10
925.52688608554672
 20
-1301.395002256204
 30
0.0
 41
1.0
 10
925.52226090662566
 20
-1301.3970816324027
 30
0.0
 41
1.0
 10
925.40553874998875
 20
-1301.4495572832943
 30
0.0
 41
0.9976475078274946
 10
925.29709140567809
 20
-1301.5175052729528
 30
0.0
 41
1.0
 10
925.27874901154416
 20
-1301.5289977517668
 30
0.0
 41
1.0
 10
925.26040661741024
 20
-1301.5404902305809
 30
0.0
 41
1.0
 10
925.17620442585792
 20
-1301.5932473513494
 30
0.0
 41
0.9995131336407113
 10
925.0954567108987
 20
-1301.6511535633038
 30
0.0
 41
1.0
 10
925.01470899594005
 20
-1301.7090597752579
 30
0.0
 41
0.9995810107606358
 10
924.93744734821166
 20
-1301.7715414577235
 30
0.0
 41
1.0
 10
924.93447731700201
 20
-1301.7739433291877
 30
0.0
 41
1.0
 10
924.93150728579235
 20
-1301.7763452006518
 30
0.0
 41
1.0
 10
924.84830557564021
 20
-1301.8436306260494
 30
0.0
 41
0.9996617837953988
 10
924.76871488850372
 20
-1301.9151510816107
 30
0.0
 41
1.0
 10
924.75658413763131
 20
-1301.926051814597
 30
0.0
 41
1.0
 10
924.74445338675901
 20
-1301.9369525475836
 30
0.0
 41
1.0
 10
924.67617785935875
 20
-1301.9983051630593
 30
0.0
 41
0.9997267750051911
 10
924.61084435107296
 20
-1302.0627816995866
 30
0.0
 41
1.0
 10
924.54551084279842
 20
-1302.127258236103
 30
0.0
 41
0.9999667288953924
 10
924.4812378996603
 20
-1302.1927920429885
 30
0.0
 41
1.0
 10
924.41241045187633
 20
-1302.2629697017555
 30
0.0
 41
1.0
 10
924.34358300409235
 20
-1302.3331473605228
 30
0.0
 41
1.0
 10
924.14165516539435
 20
-1302.5390364849347
 30
0.0
 41
0.9988205335175152
 10
923.96064954841381
 20
-1302.7635407169969
 30
0.0
 41
1.0
 10
923.93000958351024
 20
-1302.8015439674255
 30
0.0
 41
1.0
 10
923.89936961860667
 20
-1302.839547217854
 30
0.0
 41
1.0
 10
923.65708407181683
 20
-1303.1400579507756
 30
0.0
 41
0.999707782675569
 10
923.42960612071101
 20
-1303.4519277449929
 30
0.0
 41
1.0
 10
923.42788270558128
 20
-1303.4542905283715
 30
0.0
 41
1.0
 10
923.42615929045155
 20
-1303.45665331175
 30
0.0
 41
1.0
 10
923.19523450908628
 20
-1303.7732486727241
 30
0.0
 41
0.9989147567079076
 10
922.99477100620311
 20
-1304.1099581339081
 30
0.0
 41
1.0
 10
922.97002986089535
 20
-1304.1515147144619
 30
0.0
 41
1.0
 10
922.94528871558759
 20
-1304.1930712950159
 30
0.0
 41
1.0
 10
922.79007741695011
 20
-1304.4537726794688
 30
0.0
 41
0.9997476598181287
 10
922.64673242944104
 20
-1304.7211824280503
 30
0.0
 41
1.0
 10
922.50338744193141
 20
-1304.9885921766327
 30
0.0
 41
0.9996258967109973
 10
922.37487918999977
 20
-1305.2634401132568
 30
0.0
 41
1.0
 10
922.36167928054851
 20
-1305.2916715133556
 30
0.0
 41
1.0
 10
922.34847937109737
 20
-1305.3199029134544
 30
0.0
 41
1.0
 10
922.20827065009792
 20
-1305.6197753114068
 30
0.0
 41
0.9998735413945146
 10
922.07766930337993
 20
-1305.9239549108693
 30
0.0
 41
1.0
 10
922.07422647531973
 20
-1305.9319734963333
 30
0.0
 41
1.0
 10
922.07078364725953
 20
-1305.9399920817971
 30
0.0
 41
1.0
 10
921.94706795666048
 20
-1306.2281345103352
 30
0.0
 41
0.9999377418861818
 10
921.82981315448478
 20
-1306.5189659780119
 30
0.0
 41
1.0
 10
921.71255835231216
 20
-1306.8097974456819
 30
0.0
 41
0.9999508299506138
 10
921.60109440893825
 20
-1307.1028971224937
 30
0.0
 41
1.0
 10
921.59801364027282
 20
-1307.1109981484653
 30
0.0
 41
1.0
 10
921.5949328716074
 20
-1307.119099174437
 30
0.0
 41
1.0
 10
921.47730739090093
 20
-1307.4284009031967
 30
0.0
 41
0.9999609228429255
 10
921.36516878802638
 20
-1307.7397339192146
 30
0.0
 41
1.0
 10
921.36221277767913
 20
-1307.7479407596174
 30
0.0
 41
1.0
 10
921.35925676733177
 20
-1307.7561476000205
 30
0.0
 41
1.0
 10
921.24120614375977
 20
-1308.0838942968517
 30
0.0
 41
0.9999674607404452
 10
921.12845861769142
 20
-1308.4135029168467
 30
0.0
 41
1.0
 10
921.07706022712921
 20
-1308.5637621125379
 30
0.0
 41
1.0
 10
921.025661836567
 20
-1308.7140213082291
 30
0.0
 41
1.0
 10
920.90965122980811
 20
-1309.0531692907348
 30
0.0
 41
0.9999287532305944
 10
920.8017698258368
 20
-1309.3949900297127
 30
0.0
 41
1.0
 10
920.7552925697247
 20
-1309.5422525739978
 30
0.0
 41
1.0
 10
920.7088153136126
 20
-1309.689515118283
 30
0.0
 41
1.0
 10
920.69388842189051
 20
-1309.7368107686107
 30
0.0
 41
0.9999998223803203
 10
920.67901791313557
 20
-1309.7841241769293
 30
0.0
 41
1.0
 10
919.05836177634012
 20
-1314.9321526787187
 30
0.0
 41
1.0
 10
917.43770563954467
 20
-1320.0801811805081
 30
0.0
 41
1.0
 10
916.53239719565374
 20
-1320.0801811805081
 30
0.0
 41
1.0
 10
915.62708875176281
 20
-1320.0801811805081
 30
0.0
 41
1.0
 10
917.47917316314886
 20
-1314.1931092580407
 30
0.0
 41
1.0
 10
919.3312575745349
 20
-1308.3060373355734
 30
0.0
 41
1.0
 10
919.34137933283762
 20
-1308.2739941221234
 30
0.0
 41
1.0
 10
919.41398700168736
 20
-1308.0436945802976
 30
0.0
 41
1.0
 10
919.48659467053483
 20
-1307.813395038479
 30
0.0
 41
0.9999825681972597
 10
919.55647770974417
 20
-1307.5822541434211
 30
0.0
 41
1.0
 10
919.60476877190831
 20
-1307.4225295599144
 30
0.0
 41
1.0
 10
919.65305983407245
 20
-1307.2628049764078
 30
0.0
 41
1.0
 10
919.75021218738539
 20
-1306.9414697546458
 30
0.0
 41
0.9999672528966986
 10
919.84215099300945
 20
-1306.6186042090569
 30
0.0
 41
1.0
 10
919.84493987667656
 20
-1306.6088103636762
 30
0.0
 41
1.0
 10
919.84772876034367
 20
-1306.5990165182957
 30
0.0
 41
1.0
 10
919.93408979863034
 20
-1306.2957386634789
 30
0.0
 41
0.9999899749145735
 10
920.01773140816749
 20
-1305.9916995750182
 30
0.0
 41
1.0
 10
920.0278373271874
 20
-1305.9549643373307
 30
0.0
 41
1.0
 10
920.03794324620742
 20
-1305.9182290996432
 30
0.0
 41
1.0
 10
920.10137301770533
 20
-1305.6876604865545
 30
0.0
 41
0.9999214200503436
 10
920.15900244607997
 20
-1305.4555741443564
 30
0.0
 41
1.0
 10
920.17176829825894
 20
-1305.4041632589665
 30
0.0
 41
1.0
 10
920.18453415043803
 20
-1305.3527523735765
 30
0.0
 41
1.0
 10
920.21663187445552
 20
-1305.223487802155
 30
0.0
 41
0.9999828681666058
 10
920.24721412645306
 20
-1305.0938563276795
 30
0.0
 41
1.0
 10
920.27779637845049
 20
-1304.9642248532032
 30
0.0
 41
0.9999389844479613
 10
920.30550736723944
 20
-1304.833949397304
 30
0.0
 41
1.0
 10
920.31264511095878
 20
-1304.8003932934707
 30
0.0
 41
1.0
 10
920.31978285467812
 20
-1304.7668371896373
 30
0.0
 41
1.0
 10
920.36176933090746
 20
-1304.5694495260639
 30
0.0
 41
0.9998933699439405
 10
920.3979735953094
 20
-1304.3709199183072
 30
0.0
 41
1.0
 10
920.39934642052606
 20
-1304.3633918976088
 30
0.0
 41
1.0
 10
920.40071924574272
 20
-1304.3558638769107
 30
0.0
 41
1.0
 10
920.43966916057843
 20
-1304.1422782277548
 30
0.0
 41
0.9996850305193771
 10
920.46785283683744
 20
-1303.9270072223142
 30
0.0
 41
1.0
 10
920.46984787020654
 20
-1303.9117688681936
 30
0.0
 41
1.0
 10
920.47184290357563
 20
-1303.8965305140732
 30
0.0
 41
1.0
 10
920.49925076603438
 20
-1303.6871852869208
 30
0.0
 41
0.9994697936706825
 10
920.51297532525359
 20
-1303.4765000915929
 30
0.0
 41
1.0
 10
920.51345239450325
 20
-1303.4691766193814
 30
0.0
 41
1.0
 10
920.51392946375302
 20
-1303.4618531471699
 30
0.0
 41
1.0
 10
920.52669988447337
 20
-1303.2658148962605
 30
0.0
 41
0.9991804893136705
 10
920.5235715682004
 20
-1303.0693860462889
 30
0.0
 41
1.0
 10
920.52348768937827
 20
-1303.0641192448747
 30
0.0
 41
1.0
 10
920.52340381055615
 20
-1303.0588524434604
 30
0.0
 41
1.0
 10
920.52044325192765
 20
-1302.8729571963138
 30
0.0
 41
0.9988448329321472
 10
920.49965170630389
 20
-1302.688204606482
 30
0.0
 41
1.0
 10
920.49805763260088
 20
-1302.6740397507108
 30
0.0
 41
1.0
 10
920.49646355889786
 20
-1302.6598748949395
 30
0.0
 41
1.0
 10
920.47886016068014
 20
-1302.5034520166487
 30
0.0
 41
0.9985503209458706
 10
920.44454388838062
 20
-1302.3498278325594
 30
0.0
 41
1.0
 10
920.43695789630908
 20
-1302.3158675051577
 30
0.0
 41
1.0
 10
920.42937190423754
 20
-1302.2819071777562
 30
0.0
 41
1.0
 10
920.41022761608076
 20
-1302.1962036484686
 30
0.0
 41
0.9991036781369239
 10
920.38390275442976
 20
-1302.1124265611452
 30
0.0
 41
1.0
 10
920.37992052897403
 20
-1302.0997533986354
 30
0.0
 41
1.0
 10
920.3759383035183
 20
-1302.0870802361255
 30
0.0
 41
1.0
 10
920.35757789277886
 20
-1302.0286494738209
 30
0.0
 41
0.999887450436948
 10
920.33747268510024
 20
-1301.9707958715969
 30
0.0
 41
1.0
 10
920.3173674774215
 20
-1301.9129422693727
 30
0.0
 41
0.9994041637543251
 10
920.29331886448779
 20
-1301.8566135654844
 30
0.0
 41
1.0
 10
920.28912208026395
 20
-1301.8467835010028
 30
0.0
 41
1.0
 10
920.28492529604011
 20
-1301.8369534365215
 30
0.0
 41
1.0
 10
920.25704646504528
 20
-1301.7716532705535
 30
0.0
 41
0.9991846840701992
 10
920.22399010835181
 20
-1301.7088152392723
 30
0.0
 41
1.0
 10
920.22285350195705
 20
-1301.706654622818
 30
0.0
 41
1.0
 10
920.22171689556228
 20
-1301.7044940063638
 30
0.0
 41
1.0
 10
920.19093375165949
 20
-1301.6459772079934
 30
0.0
 41
0.9989253167923411
 10
920.15486432760372
 20
-1301.590562279602
 30
0.0
 41
1.0
 10
920.15381020292921
 20
-1301.5889427848392
 30
0.0
 41
1.0
 10
920.1527560782547
 20
-1301.5873232900765
 30
0.0
 41
1.0
 10
920.11879490354852
 20
-1301.5351473512114
 30
0.0
 41
0.9986467172836683
 10
920.07959775091149
 20
-1301.4867813175822
 30
0.0
 41
1.0
 10
920.07872362221099
 20
-1301.4857027153043
 30
0.0
 41
1.0
 10
920.07784949351048
 20
-1301.4846241130263
 30
0.0
 41
1.0
 10
920.04040059827412
 20
-1301.438415283953
 30
0.0
 41
0.9984001104268514
 10
919.99797386775685
 20
-1301.3967301765838
 30
0.0
 41
1.0
 10
919.9973867296477
 20
-1301.3961533017027
 30
0.0
 41
1.0
 10
919.99679959153855
 20
-1301.3955764268217
 30
0.0
 41
1.0
 10
919.95554713723971
 20
-1301.3550450692153
 30
0.0
 41
0.9982442159084054
 10
919.90979103590416
 20
-1301.3196765079549
 30
0.0
 41
1.0
 10
919.90957624044268
 20
-1301.319510475312
 30
0.0
 41
1.0
 10
919.9093614449813
 20
-1301.319344442669
 30
0.0
 41
1.0
 10
919.8640349345693
 20
-1301.2843079466952
 30
0.0
 41
0.9982450060836905
 10
919.81488395549673
 20
-1301.254876163661
 30
0.0
 41
1.0
 10
919.76573297642415
 20
-1301.2254443806269
 30
0.0
 41
0.9983922639633998
 10
919.71356667025896
 20
-1301.2017647459727
 30
0.0
 41
1.0
 10
919.71333979293513
 20
-1301.2016617604916
 30
0.0
 41
1.0
 10
919.71311291561119
 20
-1301.2015587750104
 30
0.0
 41
1.0
 10
919.66049285479733
 20
-1301.1776731693935
 30
0.0
 41
0.9986517147150248
 10
919.60567988192872
 20
-1301.1593720502715
 30
0.0
 41
1.0
 10
919.60500196050134
 20
-1301.1591457038403
 30
0.0
 41
1.0
 10
919.60432403907384
 20
-1301.1589193574089
 30
0.0
 41
1.0
 10
919.54815522334923
 20
-1301.140165545424
 30
0.0
 41
0.9989435598955847
 10
919.49050183619693
 20
-1301.1266478431894
 30
0.0
 41
1.0
 10
919.48942171661611
 20
-1301.1263945929365
 30
0.0
 41
1.0
 10
919.48834159703529
 20
-1301.1261413426837
 30
0.0
 41
1.0
 10
919.42852797072067
 20
-1301.1121171399432
 30
0.0
 41
0.9992249241239745
 10
919.36779646182367
 20
-1301.1028417972282
 30
0.0
 41
1.0
 10
919.36638277353245
 20
-1301.1026258888203
 30
0.0
 41
1.0
 10
919.36496908524111
 20
-1301.1024099804124
 30
0.0
 41
1.0
 10
919.30141019976224
 20
-1301.0927028208816
 30
0.0
 41
0.9994396597834604
 10
919.2373442632254
 20
-1301.0872698985359
 30
0.0
 41
1.0
 10
919.21820359574724
 20
-1301.0856467308172
 30
0.0
 41
1.0
 10
919.19906292826909
 20
-1301.0840235630985
 30
0.0
 41
1.0
 10
919.09671565677559
 20
-1301.0753443053154
 30
0.0
 41
0.9987693403120735
 10
918.99401203318791
 20
-1301.0768473687681
 30
0.0
 41
1.0
 10
918.98375769896063
 20
-1301.0769974405423
 30
0.0
 41
1.0
 10
918.97350336473335
 20
-1301.0771475123165
 30
0.0
 41
1.0
 10
918.86394759855534
 20
-1301.0787508566041
 30
0.0
 41
0.9989753644966481
 10
918.75498559853963
 20
-1301.0902538635291
 30
0.0
 41
1.0
 10
918.64602359852427
 20
-1301.1017568704542
 30
0.0
 41
0.9983190067306288
 10
918.53912478756001
 20
-1301.1257918622405
 30
0.0
 41
1.0
 10
918.53022383595237
 20
-1301.1277931408035
 30
0.0
 41
1.0
 10
918.52132288434473
 20
-1301.1297944193664
 30
0.0
 41
1.0
 10
918.39662217016689
 20
-1301.1578319682783
 30
0.0
 41
0.9985539388302893
 10
918.27565241648995
 20
-1301.1990956443237
 30
0.0
 41
1.0
 10
918.27330698552885
 20
-1301.1998956881398
 30
0.0
 41
1.0
 10
918.27096155456775
 20
-1301.2006957319559
 30
0.0
 41
1.0
 10
918.14530093897099
 20
-1301.2435594956326
 30
0.0
 41
0.9988468746494154
 10
918.02433059667112
 20
-1301.2982775806947
 30
0.0
 41
1.0
 10
918.02114777468137
 20
-1301.299717255255
 30
0.0
 41
1.0
 10
918.0179649526915
 20
-1301.3011569298155
 30
0.0
 41
1.0
 10
917.89062896641133
 20
-1301.358754363999
 30
0.0
 41
0.9991322885918852
 10
917.76852838235311
 20
-1301.4267496961818
 30
0.0
 41
1.0
 10
917.75092637131252
 20
-1301.4365518981697
 30
0.0
 41
1.0
 10
917.73332436027181
 20
-1301.4463541001576
 30
0.0
 41
1.0
 10
917.63114767921422
 20
-1301.5032542159386
 30
0.0
 41
0.9993860037849677
 10
917.53320667513856
 20
-1301.5671702315283
 30
0.0
 41
1.0
 10
917.52758836228486
 20
-1301.5708367262241
 30
0.0
 41
1.0
 10
917.52197004943127
 20
-1301.57450322092
 30
0.0
 41
1.0
 10
917.43526567106369
 20
-1301.6310862471178
 30
0.0
 41
0.9998821494954229
 10
917.3503392952523
 20
-1301.6903044771936
 30
0.0
 41
1.0
 10
917.26541291943306
 20
-1301.749522707275
 30
0.0
 41
0.9997976482744193
 10
917.18293728902574
 20
-1301.8121091153198
 30
0.0
 41
1.0
 10
917.16830102422591
 20
-1301.823215805096
 30
0.0
 41
1.0
 10
917.15366475942608
 20
-1301.8343224948719
 30
0.0
 41
1.0
 10
917.04191659941591
 20
-1301.9191222824707
 30
0.0
 41
0.999809163079995
 10
916.93356632139182
 20
-1302.008222633169
 30
0.0
 41
1.0
 10
916.92056056891101
 20
-1302.0189177336179
 30
0.0
 41
1.0
 10
916.90755481643032
 20
-1302.0296128340667
 30
0.0
 41
1.0
 10
916.77319303344882
 20
-1302.1401033856594
 30
0.0
 41
0.9995035112317368
 10
916.64605715568439
 20
-1302.2588372026753
 30
0.0
 41
1.0
 10
916.63640984529616
 20
-1302.2678469488342
 30
0.0
 41
1.0
 10
916.62676253490781
 20
-1302.2768566949931
 30
0.0
 41
1.0
 10
916.50333947214381
 20
-1302.3921230667477
 30
0.0
 41
0.9994630424298896
 10
916.38773106636086
 20
-1302.515225809982
 30
0.0
 41
1.0
 10
916.38404822758696
 20
-1302.5191473894977
 30
0.0
 41
1.0
 10
916.38036538881306
 20
-1302.5230689690134
 30
0.0
 41
1.0
 10
916.27212266057575
 20
-1302.6383285532183
 30
0.0
 41
0.9995160693750037
 10
916.17125663104491
 20
-1302.7600959710896
 30
0.0
 41
1.0
 10
916.16932291096907
 20
-1302.7624303952919
 30
0.0
 41
1.0
 10
916.16738919089323
 20
-1302.7647648194941
 30
0.0
 41
1.0
 10
916.07039060151726
 20
-1302.8818633889568
 30
0.0
 41
0.9996561470514062
 10
915.97966438284709
 20
-1303.0038861514113
 30
0.0
 41
1.0
 10
915.97350671694562
 20
-1303.0121679404529
 30
0.0
 41
1.0
 10
915.96734905104415
 20
-1303.0204497294947
 30
0.0
 41
1.0
 10
915.88893816418272
 20
-1303.1259089138584
 30
0.0
 41
0.9998349055174737
 10
915.81441088224892
 20
-1303.234147497524
 30
0.0
 41
1.0
 10
915.73988360031308
 20
-1303.3423860811927
 30
0.0
 41
0.9999728109567211
 10
915.66696070440139
 20
-1303.4517120067505
 30
0.0
 41
1.0
 10
915.66564548899225
 20
-1303.4536837762491
 30
0.0
 41
1.0
 10
915.66433027358312
 20
-1303.4556555457477
 30
0.0
 41
1.0
 10
915.58877694686998
 20
-1303.5689250102769
 30
0.0
 41
0.9999972147328604
 10
915.513759136516
 20
-1303.6825498530823
 30
0.0
 41
1.0
 10
915.50878759387342
 20
-1303.6900799415853
 30
0.0
 41
1.0
 10
915.50381605123073
 20
-1303.6976100300883
 30
0.0
 41
1.0
 10
915.41885515560887
 20
-1303.8262950498734
 30
0.0
 41
0.9999371979009291
 10
915.33679980620764
 20
-1303.9568519636462
 30
0.0
 41
1.0
 10
915.33329092184567
 20
-1303.9624348917114
 30
0.0
 41
1.0
 10
915.32978203748371
 20
-1303.9680178197768
 30
0.0
 41
1.0
 10
915.24070891935617
 20
-1304.1097405896837
 30
0.0
 41
0.9998272025609815
 10
915.15696552847214
 20
-1304.2546764664294
 30
0.0
 41
1.0
 10
915.14175035644848
 20
-1304.2810095808854
 30
0.0
 41
1.0
 10
915.12653518442494
 20
-1304.3073426953413
 30
0.0
 41
1.0
 10
915.01236144949348
 20
-1304.5049448009993
 30
0.0
 41
0.9995217214838067
 10
914.91062175993716
 20
-1304.7092271288634
 30
0.0
 41
1.0
 10
914.90297819730256
 20
-1304.7245745785654
 30
0.0
 41
1.0
 10
914.89533463466796
 20
-1304.7399220282675
 30
0.0
 41
1.0
 10
914.80842934207919
 20
-1304.9144184863474
 30
0.0
 41
0.9998269762607098
 10
914.72807487580735
 20
-1305.0920267730701
 30
0.0
 41
1.0
 10
914.6477204095379
 20
-1305.269635059788
 30
0.0
 41
0.9998944747386387
 10
914.57255961497242
 20
-1305.4495027854184
 30
0.0
 41
1.0
 10
914.56760594538071
 20
-1305.4613574403372
 30
0.0
 41
1.0
 10
914.56265227578899
 20
-1305.473212095256
 30
0.0
 41
1.0
 10
914.4820052152379
 20
-1305.6662090352706
 30
0.0
 41
0.9999506734408705
 10
914.40520768633155
 20
-1305.8607698401329
 30
0.0
 41
1.0
 10
914.39060772106734
 20
-1305.8977577619221
 30
0.0
 41
1.0
 10
914.37600775580313
 20
-1305.9347456837111
 30
0.0
 41
1.0
 10
914.32841015743213
 20
-1306.0553306449783
 30
0.0
 41
0.9999912393913905
 10
914.2818237134054
 20
-1306.1763098476847
 30
0.0
 41
1.0
 10
914.23523726938538
 20
-1306.2972890503743
 30
0.0
 41
0.9999927113987479
 10
914.18957597499389
 20
-1306.4186204578689
 30
0.0
 41
1.0
 10
914.17560754359363
 20
-1306.4557374398746
 30
0.0
 41
1.0
 10
914.16163911219337
 20
-1306.4928544218803
 30
0.0
 41
1.0
 10
914.08804095500011
 20
-1306.6884197933894
 30
0.0
 41
0.9999487550949437
 10
914.01841733002937
 20
-1306.8854351585701
 30
0.0
 41
1.0
 10
913.99482372009481
 20
-1306.9521984688563
 30
0.0
 41
1.0
 10
913.97123011016026
 20
-1307.0189617791423
 30
0.0
 41
1.0
 10
913.87654447579212
 20
-1307.28689561396
 30
0.0
 41
0.9999808436944233
 10
913.78518288714622
 20
-1307.5559810452376
 30
0.0
 41
1.0
 10
913.69382129850874
 20
-1307.8250664764907
 30
0.0
 41
0.9999873932897971
 10
913.60516658978838
 20
-1308.0950558315105
 30
0.0
 41
1.0
 10
913.58507423291826
 20
-1308.1562451642658
 30
0.0
 41
1.0
 10
913.56498187604802
 20
-1308.2174344970213
 30
0.0
 41
1.0
 10
913.4361424535864
 20
-1308.6098025175547
 30
0.0
 41
0.9999794883028936
 10
913.31233966862237
 20
-1309.0037887238523
 30
0.0
 41
1.0
 10
913.3011874091826
 20
-1309.0392793340966
 30
0.0
 41
1.0
 10
913.29003514974283
 20
-1309.0747699443407
 30
0.0
 41
1.0
 10
913.14747698585484
 20
-1309.5284426963976
 30
0.0
 41
0.9999982761755453
 10
913.00660454584545
 20
-1309.9826417185018
 30
0.0
 41
1.0
 10
911.41846421327284
 20
-1315.031411449505
 30
0.0
 41
1.0
 10
909.83032388070023
 20
-1320.0801811805081
 30
0.0
 41
1.0
 10
908.88157326922385
 20
-1320.0801811805081
 30
0.0
 41
1.0
 10
907.93282265774747
 20
-1320.0801811805081
 30
0.0
 41
1.0
 10
911.1711071439006
 20
-1309.752858980562
 30
0.0
 41
1.0
 10
914.40939163005385
 20
-1299.4255367806159
 30
0.0
 41
1.0
  0
LWPOLYLINE
  5
54
100
AcDbEntity
  8
0
370
              15
390
0
  6
Continuous
 62
               7
100
AcDbPolyline
 90
      232
 70
             128
 10
888.7058458562268
 20
-1300.509879612131
 42
0.0004370800699103
 10
888.65296868214944
 20
-1300.5785462513943
 10
888.61368445102732
 20
-1300.629653364284
 42
0.0030481992175147
 10
888.48334573390105
 20
-1300.8013750566379
 10
888.44483406215772
 20
-1300.8527618404164
 42
0.0042058245756427
 10
888.24084901148842
 20
-1301.1297675854894
 10
888.18844388898719
 20
-1301.2022004322707
 42
0.0120948898742802
 10
887.89239997222728
 20
-1301.6329500368174
 10
887.79620747310128
 20
-1301.7804307720487
 42
0.0141601263946645
 10
887.49256342618185
 20
-1302.2761001087802
 10
887.45302615875369
 20
-1302.3449440762156
 42
0.0071131081300413
 10
887.24775383551741
 20
-1302.71444687505
 42
0.0068458791003143
 10
887.05287430867361
 20
-1303.0895384385276
 10
887.04606244621664
 20
-1303.1031001522497
 42
0.0064120880290782
 10
886.84792019617453
 20
-1303.5105246271639
 10
886.84038551065532
 20
-1303.5265364838897
 42
0.0058857236448189
 10
886.63763011878495
 20
-1303.9709125949216
 10
886.62945519248967
 20
-1303.9894027485586
 42
0.0053189741898584
 10
886.42075087981982
 20
-1304.4753662224823
 10
886.41200307414078
 20
-1304.4963481006728
 42
0.0047503650416841
 10
886.19602934799286
 20
-1305.0285475338751
 10
886.1867610996419
 20
-1305.0520239099903
 42
0.0042071762174507
 10
885.96221371590912
 20
-1305.6351175040736
 10
885.95246431356554
 20
-1305.6610836789298
 42
0.0036680086483142
 10
885.71800967024808
 20
-1306.299719063476
 10
885.70780189040568
 20
-1306.3281675978055
 42
0.0032573142628105
 10
885.46216960444247
 20
-1307.0270202575489
 10
885.3935190835989
 20
-1307.2264833416102
 42
0.0026133366648979
 10
885.04507388484035
 20
-1308.2563466252839
 10
884.98181709733899
 20
-1308.446577460679
 42
0.0020592950740036
 10
884.76795402837251
 20
-1309.09868111329
 10
884.76490223720145
 20
-1309.1081176017244
 42
0.0025609928535933
 10
884.56308173572359
 20
-1309.7432628240656
 10
884.56049036859486
 20
-1309.7515651650128
 42
0.0031362356240517
 10
884.37099958291992
 20
-1310.3723280211857
 10
884.36886853998783
 20
-1310.3794693274126
 42
0.0037229918028725
 10
884.1920681530662
 20
-1310.9884546293708
 10
884.19038956386373
 20
-1310.994401519531
 42
0.0043077623704947
 10
884.02664876179472
 20
-1311.5942202513143
 42
0.004765416182318
 10
883.87382003927507
 20
-1312.1969063402312
 10
883.83935543043958
 20
-1312.3384681173663
 42
0.0112969368447476
 10
883.64349107229611
 20
-1313.2301602779901
 10
883.61548468319938
 20
-1313.3729883240883
 42
0.0130056762570127
 10
883.41464743955271
 20
-1314.5599293957332
 10
883.39410768940604
 20
-1314.7040075092073
 42
0.0138721532143504
 10
883.29040468486778
 20
-1315.6108369950359
 10
883.27110919695963
 20
-1315.8343347169655
 42
0.00712546970072
 10
883.23776255103735
 20
-1316.2975217258083
 10
883.23280157687361
 20
-1316.3835257203768
 42
0.0028881799201155
 10
883.21766328358422
 20
-1316.6752674302111
 42
0.0060297297132223
 10
883.20773108380888
 20
-1316.9672163663174
 10
883.20666880214151
 20
-1317.0156087382591
 42
0.0229523164156336
 10
883.21439982992729
 20
-1317.3383635845425
 10
883.21862560344766
 20
-1317.3987671185589
 42
0.012367330066576
 10
883.23770424996599
 20
-1317.5998878437335
 42
0.0128577674466536
 10
883.26689964037178
 20
-1317.799785693657
 10
883.27402551375928
 20
-1317.8411145082573
 42
0.0285717853764694
 10
883.33851951545546
 20
-1318.1192306595722
 10
883.35218803912176
 20
-1318.1658854290488
 42
0.0316283099160481
 10
883.4679986190356
 20
-1318.4848999308738
 10
883.47104731079116
 20
-1318.4918863031994
 42
0.0338984824237989
 10
883.62047902175834
 20
-1318.7794522673885
 10
883.62278775112725
 20
-1318.7832432966629
 42
0.0350228718351553
 10
883.80514804180177
 20
-1319.0402952813413
 10
883.80603329357723
 20
-1319.0413743591059
 42
0.0347476747533169
 10
884.0204579808169
 20
-1319.2685594063253
 42
0.0331337701914209
 10
884.26370130656449
 20
-1319.4646880684036
 10
884.26480140507942
 20
-1319.4654607715752
 42
0.0305233319081927
 10
884.53334610065144
 20
-1319.6305889416658
 10
884.53657614515396
 20
-1319.6323129535292
 42
0.0273744481153333
 10
884.82912985672942
 20
-1319.76845109742
 10
884.83423439186583
 20
-1319.7704946818892
 42
0.0240964406194348
 10
885.14971146751225
 20
-1319.8794784081708
 10
885.15629479672157
 20
-1319.8814031478457
 42
0.0209636179818273
 10
885.49369494937935
 20
-1319.9648712957789
 10
885.50132740982281
 20
-1319.9664232087794
 42
0.0181388704690457
 10
885.85964980181791
 20
-1320.0258393019928
 10
885.86793065019947
 20
-1320.0269054858104
 42
0.0156086547586135
 10
886.24611801438834
 20
-1320.0636416723871
 10
886.28931326671898
 20
-1320.0664801748662
 42
0.0137148329025992
 10
886.61698641201417
 20
-1320.0790004301173
 10
886.66292260193802
 20
-1320.0794948632322
 42
0.0051057823879149
 10
886.8990681885324
 20
-1320.0796251176416
 42
0.0052256693316306
 10
887.13516547231768
 20
-1320.0748762931773
 10
887.20539225606046
 20
-1320.0727293271634
 42
0.0161507179051996
 10
887.58112933416817
 20
-1320.0490789568362
 10
887.60114229453484
 20
-1320.0471687615493
 42
0.0101216737830244
 10
888.01516951601809
 20
-1319.9991758311849
 10
888.04922280545225
 20
-1319.9945281343741
 42
0.0245291776401617
 10
888.52601246100596
 20
-1319.9054530562971
 10
888.6108357765288
 20
-1319.8852571359516
 42
0.0143509212555659
 10
888.96746688046699
 20
-1319.7894525021732
 42
0.0156557857046529
 10
889.31768294519964
 20
-1319.6724412863523
 10
889.32518415968889
 20
-1319.6696711246002
 42
0.0170137333627194
 10
889.68178015536739
 20
-1319.5240135097301
 10
889.68888407777774
 20
-1319.5208256741653
 42
0.0183105364407047
 10
890.04823374594264
 20
-1319.3434906323419
 10
890.05518051058277
 20
-1319.3397401974689
 42
0.0194899958155083
 10
890.41366125156662
 20
-1319.1277612155782
 10
890.42067513090342
 20
-1319.1232358732832
 42
0.0204869852951425
 10
890.77468943299857
 20
-1318.8737158581964
 10
890.78195504158441
 20
-1318.868135792849
 42
0.0212516938559158
 10
891.12794497269363
 20
-1318.5782317959533
 10
891.1744616667645
 20
-1318.5357644858641
 42
0.0215248918247757
 10
891.43448783565577
 20
-1318.2770002068662
 10
891.47951757004
 20
-1318.2281560855124
 42
0.0114578554962399
 10
891.63430972371361
 20
-1318.0523331520581
 10
891.64550425968991
 20
-1318.0390143885249
 42
0.0061531305139953
 10
891.77197890569471
 20
-1317.884724855207
 42
0.0006325587119861
 10
891.89635738983395
 20
-1317.7287214795467
 10
891.91939752489793
 20
-1317.6997479588717
 42
0.0041897761554819
 10
892.08785292887114
 20
-1317.4842285828095
 10
892.14631504876286
 20
-1317.4081272358248
 42
0.0092993880039275
 10
892.42292697598566
 20
-1317.0338484719423
 10
892.50532146918738
 20
-1316.9179114683698
 42
0.0159321727087159
 10
892.85192795182786
 20
-1316.3957372476164
 10
892.89628408721728
 20
-1316.3240576833659
 42
0.0085547317023322
 10
893.13079585254263
 20
-1315.9301827341417
 42
0.0084601156889033
 10
893.35177202998284
 20
-1315.5285558851133
 10
893.35988750381512
 20
-1315.5131962028365
 42
0.0081429654284694
 10
893.58313677424894
 20
-1315.0734746903031
 10
893.59199693843664
 20
-1315.0552958482763
 42
0.0076574581325605
 10
893.81840444900399
 20
-1314.5721129730218
 10
893.82788408972704
 20
-1314.5510484947201
 42
0.007068272420712
 10
894.05832899753818
 20
-1314.0190111899283
 10
894.06831928151553
 20
-1313.9950220009273
 42
0.0064559514447716
 10
894.30365248970043
 20
-1313.4087097344
 10
894.31406184786215
 20
-1313.3817748089662
 42
0.0058311413905184
 10
894.5551085846248
 20
-1312.735742714583
 10
894.56586366201248
 20
-1312.705858373422
 42
0.0052312425817399
 10
894.81344494005339
 20
-1311.9946559595874
 10
894.8244887764331
 20
-1311.9618292475177
 42
0.004668054479644
 10
895.07941720416284
 20
-1311.1800029317778
 10
895.12140935421678
 20
-1311.047019694453
 42
0.0041666856447755
 10
895.32469536660619
 20
-1310.3840509194652
 10
895.36235780725337
 20
-1310.2574698118674
 42
0.0015170975155765
 10
895.48354438568299
 20
-1309.8456014603178
 42
-0.0004887993113479
 10
895.60388415879743
 20
-1309.433483048306
 10
895.68036141630114
 20
-1309.1725256623347
 42
0.0002583378927313
 10
895.9535759863594
 20
-1308.2384689591765
 10
896.03534883591828
 20
-1307.9583696996544
 42
0.0006636169671316
 10
896.2292165959534
 20
-1307.2910167759858
 10
896.23431325032698
 20
-1307.2733851930138
 42
0.0010589131324638
 10
896.41576195121706
 20
-1306.6406538500569
 10
896.42074402168203
 20
-1306.6231409430916
 42
0.0015655524456785
 10
896.58901422888039
 20
-1306.0245242638359
 10
896.59384442929024
 20
-1306.0071321049184
 42
0.0021640440476869
 10
896.74813440128128
 20
-1305.4421050868818
 10
896.75276862071303
 20
-1305.4248403568813
 42
0.0028763871849204
 10
896.89228433876428
 20
-1304.8928724060409
 10
896.89667020292734
 20
-1304.8757484279029
 42
0.0037310511944171
 10
897.02062689476838
 20
-1304.3763008338626
 10
897.02470211505249
 20
-1304.3593405626373
 42
0.0047652197771362
 10
897.13232601556581
 20
-1303.8918627943121
 10
897.13601661489201
 20
-1303.875103239149
 42
0.0060276699304348
 10
897.2265467140428
 20
-1303.4390274440179
 10
897.22976540433103
 20
-1303.4225262297132
 42
0.0075824337756304
 10
897.30245471374747
 20
-1303.0172590652826
 10
897.30510009112709
 20
-1303.0011041178357
 42
0.0095130624605451
 10
897.35921532675889
 20
-1302.6260147647602
 10
897.36620155064213
 20
-1302.5700812066386
 42
0.0121054653225463
 10
897.39279288121941
 20
-1302.3051853781697
 10
897.39365937097898
 20
-1302.2937819352394
 42
0.0069050827384147
 10
897.40874818901671
 20
-1302.0508407083964
 10
897.40988348868518
 20
-1302.027314451354
 42
0.0169063976701573
 10
897.41271076766543
 20
-1301.8311217240509
 10
897.41154011613435
 20
-1301.7707859627058
 42
0.0052007732893807
 10
897.40928666754121
 20
-1301.6951925725498
 42
0.0054038123293951
 10
897.38932315570116
 20
-1301.5751742765328
 10
897.38423729983197
 20
-1301.5465157899587
 42
0.0112050460473438
 10
897.3488529377729
 20
-1301.3701893516175
 10
897.3310279757327
 20
-1301.2906477648987
 42
0.0240764468012659
 10
897.240130609586
 20
-1300.960410729396
 10
897.22157184677303
 20
-1300.9037905644032
 42
0.0256812331835495
 10
897.07820892658356
 20
-1300.5320663581463
 10
897.07279950076202
 20
-1300.5199350231562
 42
0.0268360501217302
 10
896.90337225991232
 20
-1300.1889418891355
 10
896.89783585227735
 20
-1300.1794222188232
 42
0.0274670231727482
 10
896.70563487586401
 20
-1299.8871348439061
 10
896.70025357590055
 20
-1299.8798556963634
 42
0.0275035967097596
 10
896.48868069633954
 20
-1299.6243398060608
 10
896.48361119537276
 20
-1299.6188607184301
 42
0.026955767352168
 10
896.25620765193344
 20
-1299.398218432468
 10
896.251464594151
 20
-1299.3940884780072
 42
0.0259124802209264
 10
896.01190976272005
 20
-1299.2063979508548
 10
896.00737891753715
 20
-1299.2032124485238
 42
0.0245162152998888
 10
895.75946256444331
 20
-1299.046479439414
 10
895.75493601811934
 20
-1299.0439192422132
 42
0.0229282588839785
 10
895.50251646129175
 20
-1298.9160510497143
 10
895.49773596745615
 20
-1298.9138987499528
 42
0.021298413569001
 10
895.24469801499322
 20
-1298.81269983271
 10
895.23939373002247
 20
-1298.8108362699495
 42
0.0197555462346039
 10
894.98961539230072
 20
-1298.7340208519852
 42
0.0183511896783171
 10
894.73468666683812
 20
-1298.6764379450199
 10
894.648321470116
 20
-1298.6602351546351
 42
0.0338057877144102
 10
894.3628141208543
 20
-1298.6264267494944
 10
894.27180871580811
 20
-1298.6218470942326
 42
0.0091990524499364
 10
894.16596160717836
 20
-1298.6184712383108
 42
0.0028333980782968
 10
894.0600476912
 20
-1298.6176431307942
 10
894.05913223813604
 20
-1298.6176411609702
 42
-0.0023619827818612
 10
893.95138622302863
 20
-1298.6169003198916
 10
893.91498105285427
 20
-1298.6164780134286
 42
0.0008824598481524
 10
893.7344250629975
 20
-1298.6147022351902
 10
893.69056363059849
 20
-1298.6143482736647
 42
0.0038132665768183
 10
893.42228073472222
 20
-1298.6142293375983
 10
893.40574707992619
 20
-1298.6143481037418
 42
0.0060665569337822
 10
893.10446658832382
 20
-1298.620168403163
 10
893.09021625630953
 20
-1298.6206167111302
 42
0.0080356953334416
 10
892.76075753998236
 20
-1298.6362844331964
 10
892.74868752488305
 20
-1298.6370530161375
 42
0.0098996399106731
 10
892.3959244402306
 20
-1298.6665382453359
 10
892.38587873085748
 20
-1298.6675785415339
 42
0.011774098137123
 10
892.01472187250374
 20
-1298.7148707890647
 10
892.00649917602618
 20
-1298.7161159056345
 42
0.0137435215129957
 10
891.62191035654735
 20
-1298.7852128791947
 10
891.61525331741768
 20
-1298.7865987754296
 42
0.0158359869385826
 10
891.22225622361395
 20
-1298.8814908639106
 10
891.21684303674806
 20
-1298.8829808047808
 42
0.0180554124026934
 10
890.8205279921367
 20
-1299.0076188210192
 10
890.81597120405229
 20
-1299.0092348572859
 42
0.0203657431283218
 10
890.4214936862395
 20
-1299.1674951988023
 10
890.41735014723361
 20
-1299.1693568202436
 42
0.022681968465632
 10
890.02991409103208
 20
-1299.3649993989134
 10
890.02571430001183
 20
-1299.3673649908344
 42
0.0248634984601582
 10
889.65053235882885
 20
-1299.6039916367827
 10
889.60233743004972
 20
-1299.637848678605
 42
0.0267044190880536
 10
889.32804473313013
 20
-1299.8532890544755
 42
0.0139303002198208
 10
889.07187756719236
 20
-1300.0905278953867
 10
889.0670241814704
 20
-1300.0952805582476
 42
0.0283460963444432
 10
888.82295158724196
 20
-1300.3630112186941
 10
888.78328308208665
 20
-1300.4118127961656
 42
0.0070695364826324
 10
888.7058458562268
 20
-1300.509879612131
 42
0.0070695364826324
  0
LWPOLYLINE
  5
55
100
AcDbEntity
  8
0
370
              15
390
0
  6
Continuous
 62
               7
100
AcDbPolyline
 90
      226
 70
             128
 10
885.17702541898041
 20
-1316.2314684183152
 42
-0.0026277636663066
 10
885.17694753518026
 20
-1316.1646964926038
 10
885.1771648934124
 20
-1316.111541275129
 42
-0.00886802967289
 10
885.18094150970535
 20
-1315.9385254927279
 10
885.18328786881784
 20
-1315.8792454672723
 42
-0.0077381705614213
 10
885.19933397958107
 20
-1315.5879849714729
 10
885.2002018907541
 20
-1315.575696737789
 42
-0.0068872530530403
 10
885.22683397050218
 20
-1315.260474985721
 10
885.22803819468834
 20
-1315.2482340067013
 42
-0.0062130021482338
 10
885.26563191151706
 20
-1314.9093643154552
 10
885.26713581505123
 20
-1314.8971904435462
 42
-0.0056726929668421
 10
885.31605767455437
 20
-1314.5349952214272
 10
885.31783112019798
 20
-1314.5229014211875
 42
-0.0052341884488577
 10
885.37844170645985
 20
-1314.1377081656581
 10
885.38045969523455
 20
-1314.1257032356773
 42
-0.0049768450164408
 10
885.45319837666136
 20
-1313.7178586682428
 10
885.47744739138273
 20
-1313.5893106852386
 42
-0.0089029805622685
 10
885.61452824318008
 20
-1312.9275352378045
 10
885.647273618496
 20
-1312.7825038072926
 42
-0.0080318257097129
 10
885.87682223283844
 20
-1311.8367941754323
 10
885.88880715928497
 20
-1311.7906635402489
 42
-0.0074265721317067
 10
886.17281869813746
 20
-1310.7605989618596
 10
886.1926982412549
 20
-1310.6924649012678
 42
-0.006971192270125
 10
886.52000281975825
 20
-1309.6261971609511
 10
886.57995476686096
 20
-1309.440175802589
 42
-0.0052070422895877
 10
886.80937999212301
 20
-1308.752903725549
 10
886.82666118429029
 20
-1308.7028764449462
 42
-0.000916700444915
 10
887.02975307158476
 20
-1308.1184205967779
 42
-0.0025162726942166
 10
887.23685070184729
 20
-1307.5353793326153
 10
887.27407531365304
 20
-1307.4322297867088
 42
-0.0028212681460804
 10
887.52225123261587
 20
-1306.7564991545389
 10
887.53208199535948
 20
-1306.730191709881
 42
-0.0031964916823477
 10
887.76837425302881
 20
-1306.1099869477353
 10
887.77800870703118
 20
-1306.0851769575834
 42
-0.0036281836451372
 10
888.003114668129
 20
-1305.5177362766988
 10
888.01255307828603
 20
-1305.494438845197
 42
-0.0041269166835019
 10
888.22717077494565
 20
-1304.9769979492175
 10
888.25980373136554
 20
-1304.9001195028584
 42
-0.0047472213056228
 10
888.41684853692004
 20
-1304.5396980349731
 10
888.42374261811483
 20
-1304.5242774376711
 42
-0.0025651659998615
 10
888.57210065197842
 20
-1304.1969493818926
 42
-0.0057144634986219
 10
888.72585034575593
 20
-1303.8721397085171
 10
888.75388105114826
 20
-1303.8146313261416
 42
-0.0065388068374253
 10
888.93734807889075
 20
-1303.4503988294709
 10
888.9458065346729
 20
-1303.4341392500944
 42
-0.0074510843019469
 10
889.1219887805471
 20
-1303.1074509689788
 10
889.1301684510737
 20
-1303.0928101917179
 42
-0.0084648979857813
 10
889.29980230417823
 20
-1302.800901180749
 10
889.30765843066342
 20
-1302.7878941891026
 42
-0.0095638542800957
 10
889.4714938782605
 20
-1302.5280053171196
 10
889.47896882192708
 20
-1302.516635955672
 42
-0.0107191626808229
 10
889.6377704023198
 20
-1302.2860247211199
 10
889.64478713605126
 20
-1302.2762886287546
 42
-0.0118458573902849
 10
889.79933523456339
 20
-1302.0722164334445
 42
-0.0129184518188082
 10
889.96378785817114
 20
-1301.8760559172672
 10
889.993932630529
 20
-1301.8419298383735
 42
-0.021774257963238
 10
890.17054495286334
 20
-1301.6587230681246
 10
890.18129049731795
 20
-1301.648506234927
 42
-0.009726656865134
 10
890.34734811617955
 20
-1301.4966586604842
 42
-0.0187720905721853
 10
890.52169569207047
 20
-1301.354589807094
 10
890.55240168274383
 20
-1301.3314307246983
 42
-0.0179428207519202
 10
890.78482240273934
 20
-1301.1688785475872
 10
890.78847472965572
 20
-1301.1665146126991
 42
-0.0170047877700368
 10
891.02423836718549
 20
-1301.025054098548
 10
891.02802135593299
 20
-1301.0229557935113
 42
-0.0160190788363576
 10
891.26492990356735
 20
-1300.9013044915237
 42
-0.0151102861493822
 10
891.50896168601264
 20
-1300.7946217154695
 10
891.56134818822579
 20
-1300.7735815825743
 42
-0.0271945441887082
 10
891.92001074728421
 20
-1300.6517167718682
 10
891.98907554777213
 20
-1300.6323672306019
 42
-0.0237596594022595
 10
892.40487239479467
 20
-1300.5369165186205
 10
892.47293524852466
 20
-1300.5246618304939
 42
-0.0213715440553152
 10
892.7588101799704
 20
-1300.485714798984
 10
892.81895734618365
 20
-1300.4801250842834
 42
-0.0101465655814086
 10
892.9864498781825
 20
-1300.4679815410188
 10
892.99579026437561
 20
-1300.4674946260218
 42
-0.0100375910884986
 10
893.14494436494329
 20
-1300.4627188080963
 10
893.15520363462974
 20
-1300.4625963690817
 42
-0.0103625633371942
 10
893.28391162927846
 20
-1300.4637278026084
 10
893.3061772805471
 20
-1300.4643851610733
 42
-0.0115689250234054
 10
893.39022801807334
 20
-1300.4688146673186
 42
-0.007243803741756
 10
893.47406629751526
 20
-1300.4764038670683
 10
893.49086680698531
 20
-1300.4781704097923
 42
-0.0217917313129742
 10
893.6074365702998
 20
-1300.4955903025134
 10
893.67303666086889
 20
-1300.5083369109282
 42
-0.0332943556754336
 10
893.87742882589396
 20
-1300.5623772022348
 10
893.90760139444183
 20
-1300.5725452793524
 42
-0.018482408479887
 10
894.04610645090952
 20
-1300.6249962947397
 42
-0.0198002050692705
 10
894.18018079140859
 20
-1300.6878803549389
 10
894.18206742878579
 20
-1300.6888581418189
 42
-0.0212242342982701
 10
894.31420637118765
 20
-1300.764620880612
 10
894.3160216667311
 20
-1300.7657666828204
 42
-0.0226090605791714
 10
894.44452556795341
 20
-1300.8552463263854
 10
894.44637000969033
 20
-1300.8566585793724
 42
-0.0238457052241961
 10
894.56955209098248
 20
-1300.9606544752339
 10
894.57150481954227
 20
-1300.9624693530009
 42
-0.0248160564145342
 10
894.687706326843
 20
-1301.0817439542097
 10
894.68980996024493
 20
-1301.084129287914
 42
-0.0254109591454057
 10
894.7974151781101
 20
-1301.2194176738774
 10
894.79966320002495
 20
-1301.222559222279
 42
-0.0255528488287237
 10
894.89710987882268
 20
-1301.374586276514
 10
894.89944097873831
 20
-1301.3786678881208
 42
-0.0252146793223499
 10
894.9852220047469
 20
-1301.5481701341166
 10
894.987524243905
 20
-1301.5533522160306
 42
-0.0244265635950688
 10
895.06017893766648
 20
-1301.7410987880771
 10
895.06942533913468
 20
-1301.7689642064145
 42
-0.0231319612895306
 10
895.11534811812692
 20
-1301.9322652532169
 42
-0.0112130424351739
 10
895.14998414066531
 20
-1302.0984688534054
 10
895.15118666577769
 20
-1302.1049654402927
 42
-0.0210527881236574
 10
895.17687314114812
 20
-1302.2860210857307
 10
895.18038373597028
 20
-1302.3214266342811
 42
-0.0190029892418757
 10
895.19582520951508
 20
-1302.5749624805583
 10
895.19663518595894
 20
-1302.6104380949225
 42
-0.0137974553656545
 10
895.19508633312341
 20
-1302.9354695016548
 10
895.1942408781681
 20
-1302.9615882462392
 42
-0.0081336634218579
 10
895.17938154294529
 20
-1303.2669357138479
 42
-0.0073526923571781
 10
895.15507300957051
 20
-1303.5716839581346
 10
895.15381158578793
 20
-1303.5850206327991
 42
-0.0066886138699081
 10
895.11807599974179
 20
-1303.915606676293
 10
895.11641891027148
 20
-1303.9292282952879
 42
-0.0061359187354533
 10
895.06856830822073
 20
-1304.2859922753871
 10
895.06653080714773
 20
-1304.2998870782171
 42
-0.0056698610060487
 10
895.00588047638018
 20
-1304.6831656470583
 10
895.00347504305773
 20
-1304.6973247662859
 42
-0.0052721077272364
 10
894.92934284225805
 20
-1305.1074521059638
 10
894.92657969341633
 20
-1305.1218687413498
 42
-0.0049289272174672
 10
894.83828557531569
 20
-1305.5591772524745
 10
894.83517308063369
 20
-1305.5738461052879
 42
-0.0047415956713474
 10
894.73193508910322
 20
-1306.0386428626903
 10
894.69716687874165
 20
-1306.1884499580817
 42
-0.0084404470901907
 10
894.50715043516811
 20
-1306.9486739826193
 10
894.50102374718415
 20
-1306.9715381067663
 42
-0.0039635940259743
 10
894.27957006290183
 20
-1307.7725269710079
 10
894.26619326772061
 20
-1307.8194585876056
 42
-0.0072475040837041
 10
893.99874637985658
 20
-1308.7086783039988
 10
893.92853405303492
 20
-1308.930418653953
 42
-0.0051345458829505
 10
893.64177468097125
 20
-1309.8047438417789
 10
893.62024841419657
 20
-1309.8681701089301
 42
-0.0019150016601091
 10
893.36471500733705
 20
-1310.6117192291349
 10
893.35824740295288
 20
-1310.6303066940216
 42
-0.0021524362752945
 10
893.10976935187705
 20
-1311.3346325157645
 10
893.10055893118238
 20
-1311.3603860940609
 42
-0.0024331286822724
 10
892.86430367214462
 20
-1312.0109854021841
 10
892.8552557195884
 20
-1312.0355287085538
 42
-0.0027449721788829
 10
892.63064114875863
 20
-1312.6346585874628
 10
892.62175114136926
 20
-1312.6579811773076
 42
-0.0031083229768579
 10
892.40820865475644
 20
-1313.2079052148947
 10
892.39947252307832
 20
-1313.2299949307589
 42
-0.0035311343280714
 10
892.196431337489
 20
-1313.7329780564826
 10
892.18784599834271
 20
-1313.7538207799894
 42
-0.0040245640951102
 10
891.99473419454694
 20
-1314.2121301025854
 10
891.98629808094495
 20
-1314.231709470655
 42
-0.0046015135852654
 10
891.80254178778011
 20
-1314.6476145002998
 10
891.794255609949
 20
-1314.6659116397582
 42
-0.0052768638272156
 10
891.6192780909962
 20
-1315.0416845240222
 10
891.61114588036503
 20
-1315.0586778625743
 42
-0.0060672675641859
 10
891.4443662676033
 20
-1315.3965934856797
 10
891.43639678711804
 20
-1315.4122587446843
 42
-0.0069904648864167
 10
891.27722839312037
 20
-1315.7145945513405
 10
891.26943699351204
 20
-1315.7289051005632
 42
-0.008063702276601
 10
891.1172851331637
 20
-1315.9979404037208
 10
891.10969610053405
 20
-1316.010868269319
 42
-0.0093006455670857
 10
890.96395542400091
 20
-1316.2488826678248
 10
890.95660475726459
 20
-1316.2604006369866
 42
-0.010706077805494
 10
890.81665621381876
 20
-1316.4696709543771
 10
890.8095944455406
 20
-1316.479756496941
 42
-0.0122723111413875
 10
890.67480072734111
 20
-1316.6625498264318
 10
890.6744745037887
 20
-1316.6629702142393
 42
-0.0141836319619011
 10
890.53089290081289
 20
-1316.837539972071
 10
890.52394514516277
 20
-1316.8455149723336
 42
-0.0175957477212366
 10
890.38403897712624
 20
-1316.9951358607407
 42
-0.0080466359683995
 10
890.23657521210737
 20
-1317.1374583888812
 10
890.1905406675786
 20
-1317.1804788269831
 42
-0.0269600260392789
 10
889.93726042159597
 20
-1317.3928020854921
 10
889.87069328529901
 20
-1317.4427535001159
 42
-0.0178362839753397
 10
889.63074879564283
 20
-1317.6097714263685
 10
889.62350382464388
 20
-1317.6144399385726
 42
-0.0174650732649914
 10
889.38716762720105
 20
-1317.7553009035325
 42
-0.0169240130162938
 10
889.14170138134273
 20
-1317.8795931633103
 10
889.09571522578563
 20
-1317.9009551188772
 42
-0.0318883036843224
 10
888.7453643701682
 20
-1318.0372934283864
 10
888.67699883500018
 20
-1318.0589940488628
 42
-0.0284435909903516
 10
888.30094870870983
 20
-1318.1552114843373
 10
888.26579054820911
 20
-1318.1621050801662
 42
-0.0243909341011018
 10
887.95234708729231
 20
-1318.2078261111958
 10
887.90206636052085
 20
-1318.2126716580974
 42
-0.0196639292932138
 10
887.68647078299387
 20
-1318.224919943611
 10
887.63464671182373
 20
-1318.2258232043478
 42
-0.0100501510680948
 10
887.52222343016615
 20
-1318.2255228059946
 10
887.49056356878873
 20
-1318.2248017341085
 42
-0.0019752031102329
 10
887.44147123214077
 20
-1318.2234895738998
 10
887.43871092890936
 20
-1318.2234048820733
 42
0.0065378752006095
 10
887.39513435416393
 20
-1318.2226379908586
 42
-0.016797469464936
 10
887.35160353123081
 20
-1318.2209780923324
 10
887.34752419197002
 20
-1318.2206850814375
 42
-0.0081283276287474
 10
887.29596439423608
 20
-1318.2161380877999
 10
887.28422482035285
 20
-1318.2149101702212
 42
-0.0126703440162013
 10
887.20950652455315
 20
-1318.2051753791488
 10
887.1867186568827
 20
-1318.2016171232344
 42
-0.0117852088446455
 10
887.06717967105624
 20
-1318.1800541280784
 10
887.01179921928724
 20
-1318.1687105878427
 42
-0.0251774592297466
 10
886.78495518028024
 20
-1318.11021257841
 10
886.74023599042414
 20
-1318.0962457590733
 42
-0.0146525199889624
 10
886.55384300288983
 20
-1318.0319792318764
 42
-0.0166929435856919
 10
886.37186534676323
 20
-1317.9561720988218
 10
886.36720871549005
 20
-1317.9540471982077
 42
-0.0191684358431127
 10
886.1820250842394
 20
-1317.8608111144172
 10
886.17869249848377
 20
-1317.8589698668645
 42
-0.0221181781814446
 10
885.99538219458168
 20
-1317.7468363684939
 10
885.99303239057315
 20
-1317.7452520705028
 42
-0.0254984685386438
 10
885.8167422401882
 20
-1317.6128409205335
 10
885.79426009248596
 20
-1317.5940886115968
 42
-0.0292492648805039
 10
885.66949115364287
 20
-1317.4769958119537
 42
-0.0159048957495922
 10
885.55565115619243
 20
-1317.3489758203543
 10
885.55433236561339
 20
-1317.3473942073347
 42
-0.03438133795696
 10
885.45169510398728
 20
-1317.2055228815655
 10
885.42020357262584
 20
-1317.1550194894701
 42
-0.0369117275701443
 10
885.33431107072909
 20
-1316.9915422485226
 42
-0.0191751379908107
 10
885.26711768517293
 20
-1316.8191376425191
 10
885.26535436141262
 20
-1316.8140442978417
 42
-0.037817804223757
 10
885.21555964262836
 20
-1316.6251035217608
 10
885.20956434689867
 20
-1316.5925429035667
 42
-0.0184846046487847
 10
885.18884714760361
 20
-1316.4507900830185
 42
-0.0179866351323746
 10
885.17851414252993
 20
-1316.3078992699363
 10
885.17845770008421
 20
-1316.3063415833249
 42
-0.0085497186124515
 10
885.17702541898041
 20
-1316.2314684183152
 42
-0.0085497186124515
  0
ENDBLK
  5
56
100
AcDbEntity
  8
template
390
0
100
AcDbBlockEnd
  0
BLOCK
  5
57
100
AcDbEntity
  8
notes
390
0
100
AcDbBlockBegin
  2
*D2
 70
               1
 10
0.0
 20
0.0
 30
0.0
  3
*D2
  1

  0
LINE
  5
58
100
AcDbEntity
  8
0
370
              -2
390
0
  6
Continuous
 62
               0
100
AcDbLine
 10
15078.392849425776
 20
5465.5657591470872
 30
0.0
 11
15078.392849425776
 21
5391.321379605969
 31
0.0
  0
LINE
  5
59
100
AcDbEntity
  8
0
370
              -2
390
0
  6
Continuous
 62
               0
100
AcDbLine
 10
14428.392849425776
 20
5465.5657591470872
 30
0.0
 11
14428.392849425776
 21
5391.321379605969
 31
0.0
  0
LINE
  5
5A
100
AcDbEntity
  8
0
370
              -2
390
0
  6
Continuous
 62
               0
100
AcDbLine
 10
15078.392849425776
 20
5391.321379605969
 30
0.0
 11
14428.392849425776
 21
5391.321379605969
 31
0.0
  0
CIRCLE
  5
5B
102
{ACAD_REACTORS
330
5C
102
}
100
AcDbEntity
  8
0
370
              -2
390
0
  6
Continuous
 62
               0
100
AcDbCircle
 10
15078.392849425776
 20
5391.321379605969
 30
0.0
 40
4.99969482421875
  0
HATCH
  5
5C
100
AcDbEntity
  8
0
370
              -2
390
0
  6
Continuous
 62
               0
100
AcDbHatch
 10
0.0
 20
0.0
 30
0.0
210
0.0
220
0.0
230
1.0
  2
SOLID
 70
               1
 71
               1
 91
        1
 92
        1
 93
        1
 72
               2
 10
15078.392849425776
 20
5391.321379605969
 40
4.99969482421875
 50
0.0
 51
360.0
 73
               0
 97
        1
330
5B
 75
               0
 76
               1
 98
        1
 10
0.0
 20
0.0
  0
CIRCLE
  5
5D
102
{ACAD_REACTORS
330
5E
102
}
100
AcDbEntity
  8
0
370
              -2
390
0
  6
Continuous
 62
               0
100
AcDbCircle
 10
14428.392849425776
 20
5391.321379605969
 30
0.0
 40
4.99969482421875
  0
HATCH
  5
5E
100
AcDbEntity
  8
0
370
              -2
390
0
  6
Continuous
 62
               0
100
AcDbHatch
 10
0.0
 20
0.0
 30
0.0
210
0.0
220
0.0
230
1.0
  2
SOLID
 70
               1
 71
               1
 91
        1
 92
        1
 93
        1
 72
               2
 10
14428.392849425776
 20
5391.321379605969
 40
4.99969482421875
 50
0.0
 51
360.0
 73
               0
 97
        1
330
5D
 75
               0
 76
               1
 98
        1
 10
0.0
 20
0.0
  0
MTEXT
  5
5F
100
AcDbEntity
  8
0
390
0
 62
               0
100
AcDbMText
 10
14729.5803477436
 20
5425.1989967934687
 30
0.0
 40
24.432617187500004
 41
0.0
 71
               1
 72
               1
  1
650
  7
ＭＳ ゴシック
 73
               1
 44
0.7828267384257843
  0
POINT
  5
60
100
AcDbEntity
  8
Defpoints
370
               0
390
0
 62
               0
100
AcDbPoint
 10
14428.392849425776
 20
5490.5657591470872
 30
0.0
  0
POINT
  5
61
100
AcDbEntity
  8
Defpoints
370
               0
390
0
 62
               0
100
AcDbPoint
 10
15078.392849425776
 20
5490.5657591470872
 30
0.0
  0
POINT
  5
62
100
AcDbEntity
  8
Defpoints
370
               0
390
0
 62
               0
100
AcDbPoint
 10
15078.392849425776
 20
5391.321379605969
 30
0.0
  0
ENDBLK
  5
63
100
AcDbEntity
  8
notes
390
0
100
AcDbBlockEnd
  0
BLOCK
  5
64
100
AcDbEntity
  8
notes
390
0
100
AcDbBlockBegin
  2
*D3
 70
               1
 10
0.0
 20
0.0
 30
0.0
  3
*D3
  1

  0
LINE
  5
65
100
AcDbEntity
  8
0
370
              -2
390
0
  6
Continuous
 62
               0
100
AcDbLine
 10
14253.396085242079
 20
5993.321379605969
 30
0.0
 11
14253.396085242079
 21
6121.321379605969
 31
0.0
  0
LINE
  5
66
100
AcDbEntity
  8
0
370
              -2
390
0
  6
Continuous
 62
               0
100
AcDbLine
 10
15253.389613568663
 20
5993.321379605969
 30
0.0
 11
15253.389613568663
 21
6121.321379605969
 31
0.0
  0
LINE
  5
67
100
AcDbEntity
  8
0
370
              -2
390
0
  6
Continuous
 62
               0
100
AcDbLine
 10
14253.396085242079
 20
6121.321379605969
 30
0.0
 11
15253.389613568663
 21
6121.321379605969
 31
0.0
  0
CIRCLE
  5
68
102
{ACAD_REACTORS
330
69
102
}
100
AcDbEntity
  8
0
370
              -2
390
0
  6
Continuous
 62
               0
100
AcDbCircle
 10
14253.396085242079
 20
6121.321379605969
 30
0.0
 40
4.99969482421875
  0
HATCH
  5
69
100
AcDbEntity
  8
0
370
              -2
390
0
  6
Continuous
 62
               0
100
AcDbHatch
 10
0.0
 20
0.0
 30
0.0
210
0.0
220
0.0
230
1.0
  2
SOLID
 70
               1
 71
               1
 91
        1
 92
        1
 93
        1
 72
               2
 10
14253.396085242079
 20
6121.321379605969
 40
4.99969482421875
 50
0.0
 51
360.0
 73
               0
 97
        1
330
68
 75
               0
 76
               1
 98
        1
 10
0.0
 20
0.0
  0
CIRCLE
  5
6A
102
{ACAD_REACTORS
330
6B
102
}
100
AcDbEntity
  8
0
370
              -2
390
0
  6
Continuous
 62
               0
100
AcDbCircle
 10
15253.389613568663
 20
6121.321379605969
 30
0.0
 40
4.99969482421875
  0
HATCH
  5
6B
100
AcDbEntity
  8
0
370
              -2
390
0
  6
Continuous
 62
               0
100
AcDbHatch
 10
0.0
 20
0.0
 30
0.0
210
0.0
220
0.0
230
1.0
  2
SOLID
 70
               1
 71
               1
 91
        1
 92
        1
 93
        1
 72
               2
 10
15253.389613568663
 20
6121.321379605969
 40
4.99969482421875
 50
0.0
 51
360.0
 73
               0
 97
        1
330
6A
 75
               0
 76
               1
 98
        1
 10
0.0
 20
0.0
  0
MTEXT
  5
6C
100
AcDbEntity
  8
0
390
0
 62
               0
100
AcDbMText
 10
14721.642849405371
 20
6155.1989967934687
 30
0.0
 40
24.432617187500004
 41
0.0
 71
               1
 72
               1
  1
1000
  7
ＭＳ ゴシック
 73
               1
 44
0.7828267384257843
  0
POINT
  5
6D
100
AcDbEntity
  8
Defpoints
370
               0
390
0
 62
               0
100
AcDbPoint
 10
15253.389613568663
 20
5968.321379605969
 30
0.0
  0
POINT
  5
6E
100
AcDbEntity
  8
Defpoints
370
               0
390
0
 62
               0
100
AcDbPoint
 10
14253.396085242079
 20
5968.321379605969
 30
0.0
  0
POINT
  5
6F
100
AcDbEntity
  8
Defpoints
370
               0
390
0
 62
               0
100
AcDbPoint
 10
14253.396085242079
 20
6121.321379605969
 30
0.0
  0
ENDBLK
  5
70
100
AcDbEntity
  8
notes
390
0
100
AcDbBlockEnd
  0
BLOCK
  5
71
100
AcDbEntity
  8
notes
390
0
100
AcDbBlockBegin
  2
*D4
 70
               1
 10
0.0
 20
0.0
 30
0.0
  3
*D4
  1

  0
LINE
  5
72
100
AcDbEntity
  8
0
370
              -2
390
0
  6
Continuous
 62
               0
100
AcDbLine
 10
15275.389613568663
 20
5971.321379605969
 30
0.0
 11
15353.389613568663
 21
5971.321379605969
 31
0.0
  0
LINE
  5
73
100
AcDbEntity
  8
0
370
              -2
390
0
  6
Continuous
 62
               0
100
AcDbLine
 10
15272.389613568663
 20
5491.321379605969
 30
0.0
 11
15353.389613568663
 21
5491.321379605969
 31
0.0
  0
LINE
  5
74
100
AcDbEntity
  8
0
370
              -2
390
0
  6
Continuous
 62
               0
100
AcDbLine
 10
15353.389613568663
 20
5971.321379605969
 30
0.0
 11
15353.389613568663
 21
5491.321379605969
 31
0.0
  0
CIRCLE
  5
75
102
{ACAD_REACTORS
330
76
102
}
100
AcDbEntity
  8
0
370
              -2
390
0
  6
Continuous
 62
               0
100
AcDbCircle
 10
15353.389613568663
 20
5971.321379605969
 30
0.0
 40
4.99969482421875
  0
HATCH
  5
76
100
AcDbEntity
  8
0
370
              -2
390
0
  6
Continuous
 62
               0
100
AcDbHatch
 10
0.0
 20
0.0
 30
0.0
210
0.0
220
0.0
230
1.0
  2
SOLID
 70
               1
 71
               1
 91
        1
 92
        1
 93
        1
 72
               2
 10
15353.389613568663
 20
5971.321379605969
 40
4.99969482421875
 50
0.0
 51
360.0
 73
               0
 97
        1
330
75
 75
               0
 76
               1
 98
        1
 10
0.0
 20
0.0
  0
CIRCLE
  5
77
102
{ACAD_REACTORS
330
78
102
}
100
AcDbEntity
  8
0
370
              -2
390
0
  6
Continuous
 62
               0
100
AcDbCircle
 10
15353.389613568663
 20
5491.321379605969
 30
0.0
 40
4.99969482421875
  0
HATCH
  5
78
100
AcDbEntity
  8
0
370
              -2
390
0
  6
Continuous
 62
               0
100
AcDbHatch
 10
0.0
 20
0.0
 30
0.0
210
0.0
220
0.0
230
1.0
  2
SOLID
 70
               1
 71
               1
 91
        1
 92
        1
 93
        1
 72
               2
 10
15353.389613568663
 20
5491.321379605969
 40
4.99969482421875
 50
0.0
 51
360.0
 73
               0
 97
        1
330
77
 75
               0
 76
               1
 98
        1
 10
0.0
 20
0.0
  0
MTEXT
  5
79
100
AcDbEntity
  8
0
390
0
 62
               0
100
AcDbMText
 10
15319.511996381163
 20
5707.5088779237931
 30
0.0
 40
24.432617187500004
 41
0.0
 71
               1
 72
               1
  1
480
  7
ＭＳ ゴシック
 11
0.0
 21
1.0
 31
0.0
 73
               1
 44
0.7828267384257843
  0
POINT
  5
7A
100
AcDbEntity
  8
Defpoints
370
               0
390
0
 62
               0
100
AcDbPoint
 10
15247.389613568663
 20
5491.321379605969
 30
0.0
  0
POINT
  5
7B
100
AcDbEntity
  8
Defpoints
370
               0
390
0
 62
               0
100
AcDbPoint
 10
15250.389613568663
 20
5971.321379605969
 30
0.0
  0
POINT
  5
7C
100
AcDbEntity
  8
Defpoints
370
               0
390
0
 62
               0
100
AcDbPoint
 10
15353.389613568663
 20
5971.321379605969
 30
0.0
  0
ENDBLK
  5
7D
100
AcDbEntity
  8
notes
390
0
100
AcDbBlockEnd
  0
BLOCK
  5
7E
100
AcDbEntity
  8
notes
390
0
100
AcDbBlockBegin
  2
*D5
 70
               1
 10
0.0
 20
0.0
 30
0.0
  3
*D5
  1

  0
LINE
  5
7F
100
AcDbEntity
  8
0
370
              -2
390
0
  6
Continuous
 62
               0
100
AcDbLine
 10
14613.392849405371
 20
5953.821379605969
 30
0.0
 11
14613.392849405371
 21
6071.321379605969
 31
0.0
  0
LINE
  5
80
100
AcDbEntity
  8
0
370
              -2
390
0
  6
Continuous
 62
               0
100
AcDbLine
 10
14753.392849405371
 20
5953.821379605969
 30
0.0
 11
14753.392849405371
 21
6071.321379605969
 31
0.0
  0
LINE
  5
81
100
AcDbEntity
  8
0
370
              -2
390
0
  6
Continuous
 62
               0
100
AcDbLine
 10
14613.392849405371
 20
6071.321379605969
 30
0.0
 11
14753.392849405371
 21
6071.321379605969
 31
0.0
  0
CIRCLE
  5
82
102
{ACAD_REACTORS
330
83
102
}
100
AcDbEntity
  8
0
370
              -2
390
0
  6
Continuous
 62
               0
100
AcDbCircle
 10
14613.392849405371
 20
6071.321379605969
 30
0.0
 40
4.99969482421875
  0
HATCH
  5
83
100
AcDbEntity
  8
0
370
              -2
390
0
  6
Continuous
 62
               0
100
AcDbHatch
 10
0.0
 20
0.0
 30
0.0
210
0.0
220
0.0
230
1.0
  2
SOLID
 70
               1
 71
               1
 91
        1
 92
        1
 93
        1
 72
               2
 10
14613.392849405371
 20
6071.321379605969
 40
4.99969482421875
 50
0.0
 51
360.0
 73
               0
 97
        1
330
82
 75
               0
 76
               1
 98
        1
 10
0.0
 20
0.0
  0
CIRCLE
  5
84
102
{ACAD_REACTORS
330
85
102
}
100
AcDbEntity
  8
0
370
              -2
390
0
  6
Continuous
 62
               0
100
AcDbCircle
 10
14753.392849405371
 20
6071.321379605969
 30
0.0
 40
4.99969482421875
  0
HATCH
  5
85
100
AcDbEntity
  8
0
370
              -2
390
0
  6
Continuous
 62
               0
100
AcDbHatch
 10
0.0
 20
0.0
 30
0.0
210
0.0
220
0.0
230
1.0
  2
SOLID
 70
               1
 71
               1
 91
        1
 92
        1
 93
        1
 72
               2
 10
14753.392849405371
 20
6071.321379605969
 40
4.99969482421875
 50
0.0
 51
360.0
 73
               0
 97
        1
330
84
 75
               0
 76
               1
 98
        1
 10
0.0
 20
0.0
  0
MTEXT
  5
86
100
AcDbEntity
  8
0
390
0
 62
               0
100
AcDbMText
 10
14659.580347723195
 20
6105.1989967934687
 30
0.0
 40
24.432617187500004
 41
0.0
 71
               1
 72
               1
  1
140
  7
ＭＳ ゴシック
 73
               1
 44
0.7828267384257843
  0
POINT
  5
87
100
AcDbEntity
  8
Defpoints
370
               0
390
0
 62
               0
100
AcDbPoint
 10
14753.392849405371
 20
5928.821379605969
 30
0.0
  0
POINT
  5
88
100
AcDbEntity
  8
Defpoints
370
               0
390
0
 62
               0
100
AcDbPoint
 10
14613.392849405371
 20
5928.821379605969
 30
0.0
  0
POINT
  5
89
100
AcDbEntity
  8
Defpoints
370
               0
390
0
 62
               0
100
AcDbPoint
 10
14613.392849405371
 20
6071.321379605969
 30
0.0
  0
ENDBLK
  5
8A
100
AcDbEntity
  8
notes
390
0
100
AcDbBlockEnd
  0
BLOCK
  5
8B
100
AcDbEntity
  8
notes
390
0
100
AcDbBlockBegin
  2
*D6
 70
               1
 10
0.0
 20
0.0
 30
0.0
  3
*D6
  1

  0
LINE
  5
8C
100
AcDbEntity
  8
0
370
              -2
390
0
  6
Continuous
 62
               0
100
AcDbLine
 10
14753.392849405371
 20
5953.821379605969
 30
0.0
 11
14753.392849405371
 21
6071.321379605969
 31
0.0
  0
LINE
  5
8D
100
AcDbEntity
  8
0
370
              -2
390
0
  6
Continuous
 62
               0
100
AcDbLine
 10
14893.392849405371
 20
5953.821379605969
 30
0.0
 11
14893.392849405371
 21
6071.321379605969
 31
0.0
  0
LINE
  5
8E
100
AcDbEntity
  8
0
370
              -2
390
0
  6
Continuous
 62
               0
100
AcDbLine
 10
14753.392849405371
 20
6071.321379605969
 30
0.0
 11
14893.392849405371
 21
6071.321379605969
 31
0.0
  0
CIRCLE
  5
8F
102
{ACAD_REACTORS
330
90
102
}
100
AcDbEntity
  8
0
370
              -2
390
0
  6
Continuous
 62
               0
100
AcDbCircle
 10
14753.392849405371
 20
6071.321379605969
 30
0.0
 40
4.99969482421875
  0
HATCH
  5
90
100
AcDbEntity
  8
0
370
              -2
390
0
  6
Continuous
 62
               0
100
AcDbHatch
 10
0.0
 20
0.0
 30
0.0
210
0.0
220
0.0
230
1.0
  2
SOLID
 70
               1
 71
               1
 91
        1
 92
        1
 93
        1
 72
               2
 10
14753.392849405371
 20
6071.321379605969
 40
4.99969482421875
 50
0.0
 51
360.0
 73
               0
 97
        1
330
8F
 75
               0
 76
               1
 98
        1
 10
0.0
 20
0.0
  0
CIRCLE
  5
91
102
{ACAD_REACTORS
330
92
102
}
100
AcDbEntity
  8
0
370
              -2
390
0
  6
Continuous
 62
               0
100
AcDbCircle
 10
14893.392849405371
 20
6071.321379605969
 30
0.0
 40
4.99969482421875
  0
HATCH
  5
92
100
AcDbEntity
  8
0
370
              -2
390
0
  6
Continuous
 62
               0
100
AcDbHatch
 10
0.0
 20
0.0
 30
0.0
210
0.0
220
0.0
230
1.0
  2
SOLID
 70
               1
 71
               1
 91
        1
 92
        1
 93
        1
 72
               2
 10
14893.392849405371
 20
6071.321379605969
 40
4.99969482421875
 50
0.0
 51
360.0
 73
               0
 97
        1
330
91
 75
               0
 76
               1
 98
        1
 10
0.0
 20
0.0
  0
MTEXT
  5
93
100
AcDbEntity
  8
0
390
0
 62
               0
100
AcDbMText
 10
14799.580347723195
 20
6105.1989967934687
 30
0.0
 40
24.432617187500004
 41
0.0
 71
               1
 72
               1
  1
140
  7
ＭＳ ゴシック
 73
               1
 44
0.7828267384257843
  0
POINT
  5
94
100
AcDbEntity
  8
Defpoints
370
               0
390
0
 62
               0
100
AcDbPoint
 10
14893.392849405371
 20
5928.821379605969
 30
0.0
  0
POINT
  5
95
100
AcDbEntity
  8
Defpoints
370
               0
390
0
 62
               0
100
AcDbPoint
 10
14753.392849405371
 20
5928.821379605969
 30
0.0
  0
POINT
  5
96
100
AcDbEntity
  8
Defpoints
370
               0
390
0
 62
               0
100
AcDbPoint
 10
14753.392849405371
 20
6071.321379605969
 30
0.0
  0
ENDBLK
  5
97
100
AcDbEntity
  8
notes
390
0
100
AcDbBlockEnd
  0
BLOCK
  5
98
100
AcDbEntity
  8
notes
390
0
100
AcDbBlockBegin
  2
*D7
 70
               1
 10
0.0
 20
0.0
 30
0.0
  3
*D7
  1

  0
LINE
  5
99
100
AcDbEntity
  8
0
370
              -2
390
0
  6
Continuous
 62
               0
100
AcDbLine
 10
14231.396085242079
 20
5971.321379605969
 30
0.0
 11
14153.396085242079
 21
5971.321379605969
 31
0.0
  0
LINE
  5
9A
100
AcDbEntity
  8
0
370
              -2
390
0
  6
Continuous
 62
               0
100
AcDbLine
 10
14228.396085242079
 20
5841.321379605969
 30
0.0
 11
14153.396085242079
 21
5841.321379605969
 31
0.0
  0
LINE
  5
9B
100
AcDbEntity
  8
0
370
              -2
390
0
  6
Continuous
 62
               0
100
AcDbLine
 10
14153.396085242079
 20
5971.321379605969
 30
0.0
 11
14153.396085242079
 21
5841.321379605969
 31
0.0
  0
CIRCLE
  5
9C
102
{ACAD_REACTORS
330
9D
102
}
100
AcDbEntity
  8
0
370
              -2
390
0
  6
Continuous
 62
               0
100
AcDbCircle
 10
14153.396085242079
 20
5971.321379605969
 30
0.0
 40
4.99969482421875
  0
HATCH
  5
9D
100
AcDbEntity
  8
0
370
              -2
390
0
  6
Continuous
 62
               0
100
AcDbHatch
 10
0.0
 20
0.0
 30
0.0
210
0.0
220
0.0
230
1.0
  2
SOLID
 70
               1
 71
               1
 91
        1
 92
        1
 93
        1
 72
               2
 10
14153.396085242079
 20
5971.321379605969
 40
4.99969482421875
 50
0.0
 51
360.0
 73
               0
 97
        1
330
9C
 75
               0
 76
               1
 98
        1
 10
0.0
 20
0.0
  0
CIRCLE
  5
9E
102
{ACAD_REACTORS
330
9F
102
}
100
AcDbEntity
  8
0
370
              -2
390
0
  6
Continuous
 62
               0
100
AcDbCircle
 10
14153.396085242079
 20
5841.321379605969
 30
0.0
 40
4.99969482421875
  0
HATCH
  5
9F
100
AcDbEntity
  8
0
370
              -2
390
0
  6
Continuous
 62
               0
100
AcDbHatch
 10
0.0
 20
0.0
 30
0.0
210
0.0
220
0.0
230
1.0
  2
SOLID
 70
               1
 71
               1
 91
        1
 92
        1
 93
        1
 72
               2
 10
14153.396085242079
 20
5841.321379605969
 40
4.99969482421875
 50
0.0
 51
360.0
 73
               0
 97
        1
330
9E
 75
               0
 76
               1
 98
        1
 10
0.0
 20
0.0
  0
MTEXT
  5
A0
100
AcDbEntity
  8
0
390
0
 62
               0
100
AcDbMText
 10
14119.518468054579
 20
5882.5088779237931
 30
0.0
 40
24.432617187500004
 41
0.0
 71
               1
 72
               1
  1
130
  7
ＭＳ ゴシック
 11
0.0
 21
1.0
 31
0.0
 73
               1
 44
0.7828267384257843
  0
POINT
  5
A1
100
AcDbEntity
  8
Defpoints
370
               0
390
0
 62
               0
100
AcDbPoint
 10
14253.396085242079
 20
5841.321379605969
 30
0.0
  0
POINT
  5
A2
100
AcDbEntity
  8
Defpoints
370
               0
390
0
 62
               0
100
AcDbPoint
 10
14256.396085242079
 20
5971.321379605969
 30
0.0
  0
POINT
  5
A3
100
AcDbEntity
  8
Defpoints
370
               0
390
0
 62
               0
100
AcDbPoint
 10
14153.396085242079
 20
5971.321379605969
 30
0.0
  0
ENDBLK
  5
A4
100
AcDbEntity
  8
notes
390
0
100
AcDbBlockEnd
  0
BLOCK
  5
A5
100
AcDbEntity
  8
notes
390
0
100
AcDbBlockBegin
  2
*D8
 70
               1
 10
0.0
 20
0.0
 30
0.0
  3
*D8
  1

  0
LINE
  5
A6
100
AcDbEntity
  8
0
370
              -2
390
0
  6
Continuous
 62
               0
100
AcDbLine
 10
14228.396085242079
 20
5841.321379605969
 30
0.0
 11
14153.396085242079
 21
5841.321379605969
 31
0.0
  0
LINE
  5
A7
100
AcDbEntity
  8
0
370
              -2
390
0
  6
Continuous
 62
               0
100
AcDbLine
 10
14228.396085242079
 20
5561.321379605969
 30
0.0
 11
14153.396085242079
 21
5561.321379605969
 31
0.0
  0
LINE
  5
A8
100
AcDbEntity
  8
0
370
              -2
390
0
  6
Continuous
 62
               0
100
AcDbLine
 10
14153.396085242079
 20
5841.321379605969
 30
0.0
 11
14153.396085242079
 21
5561.321379605969
 31
0.0
  0
CIRCLE
  5
A9
102
{ACAD_REACTORS
330
AA
102
}
100
AcDbEntity
  8
0
370
              -2
390
0
  6
Continuous
 62
               0
100
AcDbCircle
 10
14153.396085242079
 20
5841.321379605969
 30
0.0
 40
4.99969482421875
  0
HATCH
  5
AA
100
AcDbEntity
  8
0
370
              -2
390
0
  6
Continuous
 62
               0
100
AcDbHatch
 10
0.0
 20
0.0
 30
0.0
210
0.0
220
0.0
230
1.0
  2
SOLID
 70
               1
 71
               1
 91
        1
 92
        1
 93
        1
 72
               2
 10
14153.396085242079
 20
5841.321379605969
 40
4.99969482421875
 50
0.0
 51
360.0
 73
               0
 97
        1
330
A9
 75
               0
 76
               1
 98
        1
 10
0.0
 20
0.0
  0
CIRCLE
  5
AB
102
{ACAD_REACTORS
330
AC
102
}
100
AcDbEntity
  8
0
370
              -2
390
0
  6
Continuous
 62
               0
100
AcDbCircle
 10
14153.396085242079
 20
5561.321379605969
 30
0.0
 40
4.99969482421875
  0
HATCH
  5
AC
100
AcDbEntity
  8
0
370
              -2
390
0
  6
Continuous
 62
               0
100
AcDbHatch
 10
0.0
 20
0.0
 30
0.0
210
0.0
220
0.0
230
1.0
  2
SOLID
 70
               1
 71
               1
 91
        1
 92
        1
 93
        1
 72
               2
 10
14153.396085242079
 20
5561.321379605969
 40
4.99969482421875
 50
0.0
 51
360.0
 73
               0
 97
        1
330
AB
 75
               0
 76
               1
 98
        1
 10
0.0
 20
0.0
  0
MTEXT
  5
AD
100
AcDbEntity
  8
0
390
0
 62
               0
100
AcDbMText
 10
14119.518468054579
 20
5690.5064876651786
 30
0.0
 40
24.432617187500004
 41
0.0
 71
               1
 72
               1
  1
280
  7
ＭＳ ゴシック
 11
0.0
 21
1.0
 31
0.0
 73
               1
 44
0.7828267384257843
  0
POINT
  5
AE
100
AcDbEntity
  8
Defpoints
370
               0
390
0
 62
               0
100
AcDbPoint
 10
14253.396085242079
 20
5561.321379605969
 30
0.0
  0
POINT
  5
AF
100
AcDbEntity
  8
Defpoints
370
               0
390
0
 62
               0
100
AcDbPoint
 10
14253.396085242079
 20
5841.321379605969
 30
0.0
  0
POINT
  5
B0
100
AcDbEntity
  8
Defpoints
370
               0
390
0
 62
               0
100
AcDbPoint
 10
14153.396085242079
 20
5841.321379605969
 30
0.0
  0
ENDBLK
  5
B1
100
AcDbEntity
  8
notes
390
0
100
AcDbBlockEnd
  0
BLOCK
  5
B2
100
AcDbEntity
  8
notes
390
0
100
AcDbBlockBegin
  2
*D9
 70
               1
 10
0.0
 20
0.0
 30
0.0
  3
*D9
  1

  0
LINE
  5
B3
100
AcDbEntity
  8
0
370
              -2
390
0
  6
Continuous
 62
               0
100
AcDbLine
 10
15078.392849425776
 20
5440.5657591470872
 30
0.0
 11
15078.392849425776
 21
5391.321379605969
 31
0.0
  0
LINE
  5
B4
100
AcDbEntity
  8
0
370
              -2
390
0
  6
Continuous
 62
               0
100
AcDbLine
 10
15253.389613568663
 20
5472.321379605969
 30
0.0
 11
15253.389613568663
 21
5391.321379605969
 31
0.0
  0
LINE
  5
B5
100
AcDbEntity
  8
0
370
              -2
390
0
  6
Continuous
 62
               0
100
AcDbLine
 10
15078.392849425776
 20
5391.321379605969
 30
0.0
 11
15253.389613568663
 21
5391.321379605969
 31
0.0
  0
CIRCLE
  5
B6
102
{ACAD_REACTORS
330
B7
102
}
100
AcDbEntity
  8
0
370
              -2
390
0
  6
Continuous
 62
               0
100
AcDbCircle
 10
15078.392849425776
 20
5391.321379605969
 30
0.0
 40
4.99969482421875
  0
HATCH
  5
B7
100
AcDbEntity
  8
0
370
              -2
390
0
  6
Continuous
 62
               0
100
AcDbHatch
 10
0.0
 20
0.0
 30
0.0
210
0.0
220
0.0
230
1.0
  2
SOLID
 70
               1
 71
               1
 91
        1
 92
        1
 93
        1
 72
               2
 10
15078.392849425776
 20
5391.321379605969
 40
4.99969482421875
 50
0.0
 51
360.0
 73
               0
 97
        1
330
B6
 75
               0
 76
               1
 98
        1
 10
0.0
 20
0.0
  0
CIRCLE
  5
B8
102
{ACAD_REACTORS
330
B9
102
}
100
AcDbEntity
  8
0
370
              -2
390
0
  6
Continuous
 62
               0
100
AcDbCircle
 10
15253.389613568663
 20
5391.321379605969
 30
0.0
 40
4.99969482421875
  0
HATCH
  5
B9
100
AcDbEntity
  8
0
370
              -2
390
0
  6
Continuous
 62
               0
100
AcDbHatch
 10
0.0
 20
0.0
 30
0.0
210
0.0
220
0.0
230
1.0
  2
SOLID
 70
               1
 71
               1
 91
        1
 92
        1
 93
        1
 72
               2
 10
15253.389613568663
 20
5391.321379605969
 40
4.99969482421875
 50
0.0
 51
360.0
 73
               0
 97
        1
330
B8
 75
               0
 76
               1
 98
        1
 10
0.0
 20
0.0
  0
MTEXT
  5
BA
100
AcDbEntity
  8
0
390
0
 62
               0
100
AcDbMText
 10
15142.078729815043
 20
5425.1989967934687
 30
0.0
 40
24.432617187500004
 41
0.0
 71
               1
 72
               1
  1
175
  7
ＭＳ ゴシック
 73
               1
 44
0.7828267384257843
  0
POINT
  5
BB
100
AcDbEntity
  8
Defpoints
370
               0
390
0
 62
               0
100
AcDbPoint
 10
15253.389613568663
 20
5497.321379605969
 30
0.0
  0
POINT
  5
BC
100
AcDbEntity
  8
Defpoints
370
               0
390
0
 62
               0
100
AcDbPoint
 10
15078.392849425776
 20
5465.5657591470872
 30
0.0
  0
POINT
  5
BD
100
AcDbEntity
  8
Defpoints
370
               0
390
0
 62
               0
100
AcDbPoint
 10
15078.392849425776
 20
5391.321379605969
 30
0.0
  0
ENDBLK
  5
BE
100
AcDbEntity
  8
notes
390
0
100
AcDbBlockEnd
  0
BLOCK
  5
BF
100
AcDbEntity
  8
notes
390
0
100
AcDbBlockBegin
  2
*D10
 70
               1
 10
0.0
 20
0.0
 30
0.0
  3
*D10
  1

  0
LINE
  5
C0
100
AcDbEntity
  8
0
370
              -2
390
0
  6
Continuous
 62
               0
100
AcDbLine
 10
14613.392849405371
 20
4875.6225836505446
 30
0.0
 11
14613.392849405371
 21
4975.6225836505446
 31
0.0
  0
LINE
  5
C1
100
AcDbEntity
  8
0
370
              -2
390
0
  6
Continuous
 62
               0
100
AcDbLine
 10
14893.392849405371
 20
4875.6225836505446
 30
0.0
 11
14893.392849405371
 21
4975.6225836505446
 31
0.0
  0
LINE
  5
C2
100
AcDbEntity
  8
0
370
              -2
390
0
  6
Continuous
 62
               0
100
AcDbLine
 10
14613.392849405371
 20
4975.6225836505446
 30
0.0
 11
14893.392849405371
 21
4975.6225836505446
 31
0.0
  0
CIRCLE
  5
C3
102
{ACAD_REACTORS
330
C4
102
}
100
AcDbEntity
  8
0
370
              -2
390
0
  6
Continuous
 62
               0
100
AcDbCircle
 10
14613.392849405371
 20
4975.6225836505446
 30
0.0
 40
4.99969482421875
  0
HATCH
  5
C4
100
AcDbEntity
  8
0
370
              -2
390
0
  6
Continuous
 62
               0
100
AcDbHatch
 10
0.0
 20
0.0
 30
0.0
210
0.0
220
0.0
230
1.0
  2
SOLID
 70
               1
 71
               1
 91
        1
 92
        1
 93
        1
 72
               2
 10
14613.392849405371
 20
4975.6225836505446
 40
4.99969482421875
 50
0.0
 51
360.0
 73
               0
 97
        1
330
C3
 75
               0
 76
               1
 98
        1
 10
0.0
 20
0.0
  0
CIRCLE
  5
C5
102
{ACAD_REACTORS
330
C6
102
}
100
AcDbEntity
  8
0
370
              -2
390
0
  6
Continuous
 62
               0
100
AcDbCircle
 10
14893.392849405371
 20
4975.6225836505446
 30
0.0
 40
4.99969482421875
  0
HATCH
  5
C6
100
AcDbEntity
  8
0
370
              -2
390
0
  6
Continuous
 62
               0
100
AcDbHatch
 10
0.0
 20
0.0
 30
0.0
210
0.0
220
0.0
230
1.0
  2
SOLID
 70
               1
 71
               1
 91
        1
 92
        1
 93
        1
 72
               2
 10
14893.392849405371
 20
4975.6225836505446
 40
4.99969482421875
 50
0.0
 51
360.0
 73
               0
 97
        1
330
C5
 75
               0
 76
               1
 98
        1
 10
0.0
 20
0.0
  0
MTEXT
  5
C7
100
AcDbEntity
  8
0
390
0
 62
               0
100
AcDbMText
 10
14729.580347723195
 20
5009.5002008380443
 30
0.0
 40
24.432617187500004
 41
0.0
 71
               1
 72
               1
  1
280
  7
ＭＳ ゴシック
 73
               1
 44
0.7828267384257843
  0
POINT
  5
C8
100
AcDbEntity
  8
Defpoints
370
               0
390
0
 62
               0
100
AcDbPoint
 10
14893.392849405371
 20
4850.6225836505446
 30
0.0
  0
POINT
  5
C9
100
AcDbEntity
  8
Defpoints
370
               0
390
0
 62
               0
100
AcDbPoint
 10
14613.392849405371
 20
4850.6225836505446
 30
0.0
  0
POINT
  5
CA
100
AcDbEntity
  8
Defpoints
370
               0
390
0
 62
               0
100
AcDbPoint
 10
14613.392849405371
 20
4975.6225836505446
 30
0.0
  0
ENDBLK
  5
CB
100
AcDbEntity
  8
notes
390
0
100
AcDbBlockEnd
  0
BLOCK
  5
CC
100
AcDbEntity
  8
notes
390
0
100
AcDbBlockBegin
  2
*D11
 70
               1
 10
0.0
 20
0.0
 30
0.0
  3
*D11
  1

  0
LINE
  5
CD
100
AcDbEntity
  8
0
370
              -2
390
0
  6
Continuous
 62
               0
100
AcDbLine
 10
15944.070511375327
 20
4900.6225836505446
 30
0.0
 11
15944.070511375327
 21
4975.6225836505446
 31
0.0
  0
LINE
  5
CE
100
AcDbEntity
  8
0
370
              -2
390
0
  6
Continuous
 62
               0
100
AcDbLine
 10
16004.10716226622
 20
4897.5091984115215
 30
0.0
 11
16004.10716226622
 21
4975.6225836505446
 31
0.0
  0
LINE
  5
CF
100
AcDbEntity
  8
0
370
              -2
390
0
  6
Continuous
 62
               0
100
AcDbLine
 10
15944.070511375327
 20
4975.6225836505446
 30
0.0
 11
16004.10716226622
 21
4975.6225836505446
 31
0.0
  0
CIRCLE
  5
D0
102
{ACAD_REACTORS
330
D1
102
}
100
AcDbEntity
  8
0
370
              -2
390
0
  6
Continuous
 62
               0
100
AcDbCircle
 10
15944.070511375327
 20
4975.6225836505446
 30
0.0
 40
4.99969482421875
  0
HATCH
  5
D1
100
AcDbEntity
  8
0
370
              -2
390
0
  6
Continuous
 62
               0
100
AcDbHatch
 10
0.0
 20
0.0
 30
0.0
210
0.0
220
0.0
230
1.0
  2
SOLID
 70
               1
 71
               1
 91
        1
 92
        1
 93
        1
 72
               2
 10
15944.070511375327
 20
4975.6225836505446
 40
4.99969482421875
 50
0.0
 51
360.0
 73
               0
 97
        1
330
D0
 75
               0
 76
               1
 98
        1
 10
0.0
 20
0.0
  0
CIRCLE
  5
D2
102
{ACAD_REACTORS
330
D3
102
}
100
AcDbEntity
  8
0
370
              -2
390
0
  6
Continuous
 62
               0
100
AcDbCircle
 10
16004.10716226622
 20
4975.6225836505446
 30
0.0
 40
4.99969482421875
  0
HATCH
  5
D3
100
AcDbEntity
  8
0
370
              -2
390
0
  6
Continuous
 62
               0
100
AcDbHatch
 10
0.0
 20
0.0
 30
0.0
210
0.0
220
0.0
230
1.0
  2
SOLID
 70
               1
 71
               1
 91
        1
 92
        1
 93
        1
 72
               2
 10
16004.10716226622
 20
4975.6225836505446
 40
4.99969482421875
 50
0.0
 51
360.0
 73
               0
 97
        1
330
D2
 75
               0
 76
               1
 98
        1
 10
0.0
 20
0.0
  0
MTEXT
  5
D4
100
AcDbEntity
  8
0
390
0
 62
               0
100
AcDbMText
 10
15958.213836820774
 20
5009.5002008380443
 30
0.0
 40
24.432617187500004
 41
0.0
 71
               1
 72
               1
  1
60
  7
ＭＳ ゴシック
 73
               1
 44
0.7828267384257843
  0
POINT
  5
D5
100
AcDbEntity
  8
Defpoints
370
               0
390
0
 62
               0
100
AcDbPoint
 10
16004.10716226622
 20
4872.5091984115215
 30
0.0
  0
POINT
  5
D6
100
AcDbEntity
  8
Defpoints
370
               0
390
0
 62
               0
100
AcDbPoint
 10
15944.070511375327
 20
4875.6225836505446
 30
0.0
  0
POINT
  5
D7
100
AcDbEntity
  8
Defpoints
370
               0
390
0
 62
               0
100
AcDbPoint
 10
15944.070511375327
 20
4975.6225836505446
 30
0.0
  0
ENDBLK
  5
D8
100
AcDbEntity
  8
notes
390
0
100
AcDbBlockEnd
  0
BLOCK
  5
D9
100
AcDbEntity
  8
notes
390
0
100
AcDbBlockBegin
  2
*D12
 70
               1
 10
0.0
 20
0.0
 30
0.0
  3
*D12
  1

  0
LINE
  5
DA
100
AcDbEntity
  8
0
370
              -2
390
0
  6
Continuous
 62
               0
100
AcDbLine
 10
16004.10716226622
 20
4707.7101919501902
 30
0.0
 11
16004.10716226622
 21
4615.5816771409773
 31
0.0
  0
LINE
  5
DB
100
AcDbEntity
  8
0
370
              -2
390
0
  6
Continuous
 62
               0
100
AcDbLine
 10
15779.112651275176
 20
4690.5816771409773
 30
0.0
 11
15779.112651275176
 21
4615.5816771409773
 31
0.0
  0
LINE
  5
DC
100
AcDbEntity
  8
0
370
              -2
390
0
  6
Continuous
 62
               0
100
AcDbLine
 10
16004.10716226622
 20
4615.5816771409773
 30
0.0
 11
15779.112651275176
 21
4615.5816771409773
 31
0.0
  0
CIRCLE
  5
DD
102
{ACAD_REACTORS
330
DE
102
}
100
AcDbEntity
  8
0
370
              -2
390
0
  6
Continuous
 62
               0
100
AcDbCircle
 10
16004.10716226622
 20
4615.5816771409773
 30
0.0
 40
4.99969482421875
  0
HATCH
  5
DE
100
AcDbEntity
  8
0
370
              -2
390
0
  6
Continuous
 62
               0
100
AcDbHatch
 10
0.0
 20
0.0
 30
0.0
210
0.0
220
0.0
230
1.0
  2
SOLID
 70
               1
 71
               1
 91
        1
 92
        1
 93
        1
 72
               2
 10
16004.10716226622
 20
4615.5816771409773
 40
4.99969482421875
 50
0.0
 51
360.0
 73
               0
 97
        1
330
DD
 75
               0
 76
               1
 98
        1
 10
0.0
 20
0.0
  0
CIRCLE
  5
DF
102
{ACAD_REACTORS
330
E0
102
}
100
AcDbEntity
  8
0
370
              -2
390
0
  6
Continuous
 62
               0
100
AcDbCircle
 10
15779.112651275176
 20
4615.5816771409773
 30
0.0
 40
4.99969482421875
  0
HATCH
  5
E0
100
AcDbEntity
  8
0
370
              -2
390
0
  6
Continuous
 62
               0
100
AcDbHatch
 10
0.0
 20
0.0
 30
0.0
210
0.0
220
0.0
230
1.0
  2
SOLID
 70
               1
 71
               1
 91
        1
 92
        1
 93
        1
 72
               2
 10
15779.112651275176
 20
4615.5816771409773
 40
4.99969482421875
 50
0.0
 51
360.0
 73
               0
 97
        1
330
DF
 75
               0
 76
               1
 98
        1
 10
0.0
 20
0.0
  0
MTEXT
  5
E1
100
AcDbEntity
  8
0
390
0
 62
               0
100
AcDbMText
 10
15867.797405088522
 20
4649.4592943284779
 30
0.0
 40
24.432617187500004
 41
0.0
 71
               1
 72
               1
  1
225
  7
ＭＳ ゴシック
 73
               1
 44
0.7828267384257843
  0
POINT
  5
E2
100
AcDbEntity
  8
Defpoints
370
               0
390
0
 62
               0
100
AcDbPoint
 10
15779.112651275176
 20
4715.5816771409773
 30
0.0
  0
POINT
  5
E3
100
AcDbEntity
  8
Defpoints
370
               0
390
0
 62
               0
100
AcDbPoint
 10
16004.10716226622
 20
4732.7101919501902
 30
0.0
  0
POINT
  5
E4
100
AcDbEntity
  8
Defpoints
370
               0
390
0
 62
               0
100
AcDbPoint
 10
16004.10716226622
 20
4615.5816771409773
 30
0.0
  0
ENDBLK
  5
E5
100
AcDbEntity
  8
notes
390
0
100
AcDbBlockEnd
  0
BLOCK
  5
E6
100
AcDbEntity
  8
notes
390
0
100
AcDbBlockBegin
  2
*D13
 70
               1
 10
0.0
 20
0.0
 30
0.0
  3
*D13
  1

  0
LINE
  5
E7
100
AcDbEntity
  8
0
370
              -2
390
0
  6
Continuous
 62
               0
100
AcDbLine
 10
15504.791793442437
 20
4845.6225836505446
 30
0.0
 11
15426.049278543715
 21
4845.6225836505446
 31
0.0
  0
LINE
  5
E8
100
AcDbEntity
  8
0
370
              -2
390
0
  6
Continuous
 62
               0
100
AcDbLine
 10
15534.791793442437
 20
4875.6225836505446
 30
0.0
 11
15426.049278543715
 21
4875.6225836505446
 31
0.0
  0
LINE
  5
E9
100
AcDbEntity
  8
0
370
              -2
390
0
  6
Continuous
 62
               0
100
AcDbLine
 10
15426.049278543715
 20
4845.6225836505446
 30
0.0
 11
15426.049278543715
 21
4875.6225836505446
 31
0.0
  0
CIRCLE
  5
EA
102
{ACAD_REACTORS
330
EB
102
}
100
AcDbEntity
  8
0
370
              -2
390
0
  6
Continuous
 62
               0
100
AcDbCircle
 10
15426.049278543715
 20
4845.6225836505446
 30
0.0
 40
4.99969482421875
  0
HATCH
  5
EB
100
AcDbEntity
  8
0
370
              -2
390
0
  6
Continuous
 62
               0
100
AcDbHatch
 10
0.0
 20
0.0
 30
0.0
210
0.0
220
0.0
230
1.0
  2
SOLID
 70
               1
 71
               1
 91
        1
 92
        1
 93
        1
 72
               2
 10
15426.049278543715
 20
4845.6225836505446
 40
4.99969482421875
 50
0.0
 51
360.0
 73
               0
 97
        1
330
EA
 75
               0
 76
               1
 98
        1
 10
0.0
 20
0.0
  0
CIRCLE
  5
EC
102
{ACAD_REACTORS
330
ED
102
}
100
AcDbEntity
  8
0
370
              -2
390
0
  6
Continuous
 62
               0
100
AcDbCircle
 10
15426.049278543715
 20
4875.6225836505446
 30
0.0
 40
4.99969482421875
  0
HATCH
  5
ED
100
AcDbEntity
  8
0
370
              -2
390
0
  6
Continuous
 62
               0
100
AcDbHatch
 10
0.0
 20
0.0
 30
0.0
210
0.0
220
0.0
230
1.0
  2
SOLID
 70
               1
 71
               1
 91
        1
 92
        1
 93
        1
 72
               2
 10
15426.049278543715
 20
4875.6225836505446
 40
4.99969482421875
 50
0.0
 51
360.0
 73
               0
 97
        1
330
EC
 75
               0
 76
               1
 98
        1
 10
0.0
 20
0.0
  0
MTEXT
  5
EE
100
AcDbEntity
  8
0
390
0
 62
               0
100
AcDbMText
 10
15392.171661356215
 20
4844.7475836505446
 30
0.0
 40
24.432617187500004
 41
0.0
 71
               1
 72
               1
  1
30
  7
ＭＳ ゴシック
 11
0.0
 21
1.0
 31
0.0
 73
               1
 44
0.7828267384257843
  0
POINT
  5
EF
100
AcDbEntity
  8
Defpoints
370
               0
390
0
 62
               0
100
AcDbPoint
 10
15559.791793442437
 20
4875.6225836505446
 30
0.0
  0
POINT
  5
F0
100
AcDbEntity
  8
Defpoints
370
               0
390
0
 62
               0
100
AcDbPoint
 10
15529.791793442437
 20
4845.6225836505446
 30
0.0
  0
POINT
  5
F1
100
AcDbEntity
  8
Defpoints
370
               0
390
0
 62
               0
100
AcDbPoint
 10
15426.049278543715
 20
4845.6225836505446
 30
0.0
  0
ENDBLK
  5
F2
100
AcDbEntity
  8
notes
390
0
100
AcDbBlockEnd
  0
BLOCK
  5
F3
100
AcDbEntity
  8
notes
390
0
100
AcDbBlockBegin
  2
*D14
 70
               1
 10
0.0
 20
0.0
 30
0.0
  3
*D14
  1

  0
LINE
  5
F4
100
AcDbEntity
  8
0
370
              -2
390
0
  6
Continuous
 62
               0
100
AcDbLine
 10
14812.373916793982
 20
4705.5736113761095
 30
0.0
 11
15353.389613568663
 21
4705.5736113761095
 31
0.0
  0
LINE
  5
F5
100
AcDbEntity
  8
0
370
              -2
390
0
  6
Continuous
 62
               0
100
AcDbLine
 10
15273.404970880278
 20
4875.6225836505446
 30
0.0
 11
15353.389613568663
 21
4875.6225836505446
 31
0.0
  0
LINE
  5
F6
100
AcDbEntity
  8
0
370
              -2
390
0
  6
Continuous
 62
               0
100
AcDbLine
 10
15353.389613568663
 20
4705.5736113761095
 30
0.0
 11
15353.389613568663
 21
4875.6225836505446
 31
0.0
  0
CIRCLE
  5
F7
102
{ACAD_REACTORS
330
F8
102
}
100
AcDbEntity
  8
0
370
              -2
390
0
  6
Continuous
 62
               0
100
AcDbCircle
 10
15353.389613568663
 20
4705.5736113761095
 30
0.0
 40
4.99969482421875
  0
HATCH
  5
F8
100
AcDbEntity
  8
0
370
              -2
390
0
  6
Continuous
 62
               0
100
AcDbHatch
 10
0.0
 20
0.0
 30
0.0
210
0.0
220
0.0
230
1.0
  2
SOLID
 70
               1
 71
               1
 91
        1
 92
        1
 93
        1
 72
               2
 10
15353.389613568663
 20
4705.5736113761095
 40
4.99969482421875
 50
0.0
 51
360.0
 73
               0
 97
        1
330
F7
 75
               0
 76
               1
 98
        1
 10
0.0
 20
0.0
  0
CIRCLE
  5
F9
102
{ACAD_REACTORS
330
FA
102
}
100
AcDbEntity
  8
0
370
              -2
390
0
  6
Continuous
 62
               0
100
AcDbCircle
 10
15353.389613568663
 20
4875.6225836505446
 30
0.0
 40
4.99969482421875
  0
HATCH
  5
FA
100
AcDbEntity
  8
0
370
              -2
390
0
  6
Continuous
 62
               0
100
AcDbHatch
 10
0.0
 20
0.0
 30
0.0
210
0.0
220
0.0
230
1.0
  2
SOLID
 70
               1
 71
               1
 91
        1
 92
        1
 93
        1
 72
               2
 10
15353.389613568663
 20
4875.6225836505446
 40
4.99969482421875
 50
0.0
 51
360.0
 73
               0
 97
        1
330
F9
 75
               0
 76
               1
 98
        1
 10
0.0
 20
0.0
  0
MTEXT
  5
FB
100
AcDbEntity
  8
0
390
0
 62
               0
100
AcDbMText
 10
15319.511996381161
 20
4766.7855958311511
 30
0.0
 40
24.432617187500004
 41
0.0
 71
               1
 72
               1
  1
170
  7
ＭＳ ゴシック
 11
0.0
 21
1.0
 31
0.0
 73
               1
 44
0.7828267384257843
  0
POINT
  5
FC
100
AcDbEntity
  8
Defpoints
370
               0
390
0
 62
               0
100
AcDbPoint
 10
15248.404970880278
 20
4875.6225836505446
 30
0.0
  0
POINT
  5
FD
100
AcDbEntity
  8
Defpoints
370
               0
390
0
 62
               0
100
AcDbPoint
 10
14787.373916793982
 20
4705.5736113761095
 30
0.0
  0
POINT
  5
FE
100
AcDbEntity
  8
Defpoints
370
               0
390
0
 62
               0
100
AcDbPoint
 10
15353.389613568663
 20
4705.5736113761095
 30
0.0
  0
ENDBLK
  5
FF
100
AcDbEntity
  8
notes
390
0
100
AcDbBlockEnd
  0
BLOCK
  5
100
100
AcDbEntity
  8
notes
390
0
100
AcDbBlockBegin
  2
*D15
 70
               1
 10
0.0
 20
0.0
 30
0.0
  3
*D15
  1

  0
LINE
  5
101
100
AcDbEntity
  8
0
370
              -2
390
0
  6
Continuous
 62
               0
100
AcDbLine
 10
15803.898908506175
 20
4875.6225836505446
 30
0.0
 11
15782.023908506175
 21
4875.6225836505446
 31
0.0
  0
LINE
  5
102
100
AcDbEntity
  8
0
370
              -2
390
0
  6
Continuous
 62
               0
100
AcDbLine
 10
15803.898908506175
 20
4760.6225836505437
 30
0.0
 11
15782.023908506175
 21
4760.6225836505437
 31
0.0
  0
LINE
  5
103
100
AcDbEntity
  8
0
370
              -2
390
0
  6
Continuous
 62
               0
100
AcDbLine
 10
15782.023908506175
 20
4875.6225836505446
 30
0.0
 11
15782.023908506175
 21
5026.5083186355505
 31
0.0
  0
LINE
  5
104
100
AcDbEntity
  8
0
370
              -2
390
0
  6
Continuous
 62
               0
100
AcDbLine
 10
15782.023908506175
 20
4875.6225836505446
 30
0.0
 11
15782.023908506175
 21
4760.6225836505437
 31
0.0
  0
CIRCLE
  5
105
102
{ACAD_REACTORS
330
106
102
}
100
AcDbEntity
  8
0
370
              -2
390
0
  6
Continuous
 62
               0
100
AcDbCircle
 10
15782.023908506175
 20
4875.6225836505446
 30
0.0
 40
4.99969482421875
  0
HATCH
  5
106
100
AcDbEntity
  8
0
370
              -2
390
0
  6
Continuous
 62
               0
100
AcDbHatch
 10
0.0
 20
0.0
 30
0.0
210
0.0
220
0.0
230
1.0
  2
SOLID
 70
               1
 71
               1
 91
        1
 92
        1
 93
        1
 72
               2
 10
15782.023908506175
 20
4875.6225836505446
 40
4.99969482421875
 50
0.0
 51
360.0
 73
               0
 97
        1
330
105
 75
               0
 76
               1
 98
        1
 10
0.0
 20
0.0
  0
CIRCLE
  5
107
102
{ACAD_REACTORS
330
108
102
}
100
AcDbEntity
  8
0
370
              -2
390
0
  6
Continuous
 62
               0
100
AcDbCircle
 10
15782.023908506175
 20
4760.6225836505437
 30
0.0
 40
4.99969482421875
  0
HATCH
  5
108
100
AcDbEntity
  8
0
370
              -2
390
0
  6
Continuous
 62
               0
100
AcDbHatch
 10
0.0
 20
0.0
 30
0.0
210
0.0
220
0.0
230
1.0
  2
SOLID
 70
               1
 71
               1
 91
        1
 92
        1
 93
        1
 72
               2
 10
15782.023908506175
 20
4760.6225836505437
 40
4.99969482421875
 50
0.0
 51
360.0
 73
               0
 97
        1
330
107
 75
               0
 76
               1
 98
        1
 10
0.0
 20
0.0
  0
MTEXT
  5
109
100
AcDbEntity
  8
0
390
0
 62
               0
100
AcDbMText
 10
15748.146291318675
 20
4883.6333186355505
 30
0.0
 40
24.432617187500004
 41
0.0
 71
               1
 72
               1
  1
115(深さ)
  7
ＭＳ ゴシック
 11
0.0
 21
1.0
 31
0.0
 73
               1
 44
0.7828267384257843
  0
POINT
  5
10A
100
AcDbEntity
  8
Defpoints
370
               0
390
0
 62
               0
100
AcDbPoint
 10
15778.898908506175
 20
4760.6225836505437
 30
0.0
  0
POINT
  5
10B
100
AcDbEntity
  8
Defpoints
370
               0
390
0
 62
               0
100
AcDbPoint
 10
15778.898908506175
 20
4875.6225836505446
 30
0.0
  0
POINT
  5
10C
100
AcDbEntity
  8
Defpoints
370
               0
390
0
 62
               0
100
AcDbPoint
 10
15782.023908506175
 20
4875.6225836505446
 30
0.0
  0
ENDBLK
  5
10D
100
AcDbEntity
  8
notes
390
0
100
AcDbBlockEnd
  0
BLOCK
  5
10E
100
AcDbEntity
  8
notes
390
0
100
AcDbBlockBegin
  2
*D16
 70
               1
 10
0.0
 20
0.0
 30
0.0
  3
*D16
  1

  0
LINE
  5
10F
100
AcDbEntity
  8
0
370
              -2
390
0
  6
Continuous
 62
               0
100
AcDbLine
 10
14482.570677447677
 20
4830.6225836505446
 30
0.0
 11
14153.521085242079
 21
4830.6225836505446
 31
0.0
  0
LINE
  5
110
100
AcDbEntity
  8
0
370
              -2
390
0
  6
Continuous
 62
               0
100
AcDbLine
 10
14233.380727930464
 20
4875.6225836505446
 30
0.0
 11
14153.521085242079
 21
4875.6225836505446
 31
0.0
  0
LINE
  5
111
100
AcDbEntity
  8
0
370
              -2
390
0
  6
Continuous
 62
               0
100
AcDbLine
 10
14153.521085242079
 20
4830.6225836505446
 30
0.0
 11
14153.521085242079
 21
4875.6225836505446
 31
0.0
  0
CIRCLE
  5
112
102
{ACAD_REACTORS
330
113
102
}
100
AcDbEntity
  8
0
370
              -2
390
0
  6
Continuous
 62
               0
100
AcDbCircle
 10
14153.521085242079
 20
4830.6225836505446
 30
0.0
 40
4.99969482421875
  0
HATCH
  5
113
100
AcDbEntity
  8
0
370
              -2
390
0
  6
Continuous
 62
               0
100
AcDbHatch
 10
0.0
 20
0.0
 30
0.0
210
0.0
220
0.0
230
1.0
  2
SOLID
 70
               1
 71
               1
 91
        1
 92
        1
 93
        1
 72
               2
 10
14153.521085242079
 20
4830.6225836505446
 40
4.99969482421875
 50
0.0
 51
360.0
 73
               0
 97
        1
330
112
 75
               0
 76
               1
 98
        1
 10
0.0
 20
0.0
  0
CIRCLE
  5
114
102
{ACAD_REACTORS
330
115
102
}
100
AcDbEntity
  8
0
370
              -2
390
0
  6
Continuous
 62
               0
100
AcDbCircle
 10
14153.521085242079
 20
4875.6225836505446
 30
0.0
 40
4.99969482421875
  0
HATCH
  5
115
100
AcDbEntity
  8
0
370
              -2
390
0
  6
Continuous
 62
               0
100
AcDbHatch
 10
0.0
 20
0.0
 30
0.0
210
0.0
220
0.0
230
1.0
  2
SOLID
 70
               1
 71
               1
 91
        1
 92
        1
 93
        1
 72
               2
 10
14153.521085242079
 20
4875.6225836505446
 40
4.99969482421875
 50
0.0
 51
360.0
 73
               0
 97
        1
330
114
 75
               0
 76
               1
 98
        1
 10
0.0
 20
0.0
  0
MTEXT
  5
116
100
AcDbEntity
  8
0
390
0
 62
               0
100
AcDbMText
 10
14119.643468054579
 20
4836.125
 30
0.0
 40
24.432617187500004
 41
0.0
 71
               1
 72
               1
  1
45
  7
ＭＳ ゴシック
 11
0.0
 21
1.0
 31
0.0
 73
               1
 44
0.7828267384257843
  0
POINT
  5
117
100
AcDbEntity
  8
Defpoints
370
               0
390
0
 62
               0
100
AcDbPoint
 10
14258.380727930464
 20
4875.6225836505446
 30
0.0
  0
POINT
  5
118
100
AcDbEntity
  8
Defpoints
370
               0
390
0
 62
               0
100
AcDbPoint
 10
14507.570677447677
 20
4830.6225836505446
 30
0.0
  0
POINT
  5
119
100
AcDbEntity
  8
Defpoints
370
               0
390
0
 62
               0
100
AcDbPoint
 10
14153.521085242079
 20
4830.6225836505446
 30
0.0
  0
ENDBLK
  5
11A
100
AcDbEntity
  8
notes
390
0
100
AcDbBlockEnd
  0
BLOCK
  5
11B
100
AcDbEntity
  8
notes
390
0
100
AcDbBlockBegin
  2
*D17
 70
               1
 10
0.0
 20
0.0
 30
0.0
  3
*D17
  1

  0
LINE
  5
11C
100
AcDbEntity
  8
0
370
              -2
390
0
  6
Continuous
 62
               0
100
AcDbLine
 10
14428.392849425776
 20
5466.321379605969
 30
0.0
 11
14428.392849425776
 21
5391.321379605969
 31
0.0
  0
LINE
  5
11D
100
AcDbEntity
  8
0
370
              -2
390
0
  6
Continuous
 62
               0
100
AcDbLine
 10
14253.396085242079
 20
5466.321379605969
 30
0.0
 11
14253.396085242079
 21
5391.321379605969
 31
0.0
  0
LINE
  5
11E
100
AcDbEntity
  8
0
370
              -2
390
0
  6
Continuous
 62
               0
100
AcDbLine
 10
14428.392849425776
 20
5391.321379605969
 30
0.0
 11
14253.396085242079
 21
5391.321379605969
 31
0.0
  0
CIRCLE
  5
11F
102
{ACAD_REACTORS
330
120
102
}
100
AcDbEntity
  8
0
370
              -2
390
0
  6
Continuous
 62
               0
100
AcDbCircle
 10
14428.392849425776
 20
5391.321379605969
 30
0.0
 40
4.99969482421875
  0
HATCH
  5
120
100
AcDbEntity
  8
0
370
              -2
390
0
  6
Continuous
 62
               0
100
AcDbHatch
 10
0.0
 20
0.0
 30
0.0
210
0.0
220
0.0
230
1.0
  2
SOLID
 70
               1
 71
               1
 91
        1
 92
        1
 93
        1
 72
               2
 10
14428.392849425776
 20
5391.321379605969
 40
4.99969482421875
 50
0.0
 51
360.0
 73
               0
 97
        1
330
11F
 75
               0
 76
               1
 98
        1
 10
0.0
 20
0.0
  0
CIRCLE
  5
121
102
{ACAD_REACTORS
330
122
102
}
100
AcDbEntity
  8
0
370
              -2
390
0
  6
Continuous
 62
               0
100
AcDbCircle
 10
14253.396085242079
 20
5391.321379605969
 30
0.0
 40
4.99969482421875
  0
HATCH
  5
122
100
AcDbEntity
  8
0
370
              -2
390
0
  6
Continuous
 62
               0
100
AcDbHatch
 10
0.0
 20
0.0
 30
0.0
210
0.0
220
0.0
230
1.0
  2
SOLID
 70
               1
 71
               1
 91
        1
 92
        1
 93
        1
 72
               2
 10
14253.396085242079
 20
5391.321379605969
 40
4.99969482421875
 50
0.0
 51
360.0
 73
               0
 97
        1
330
121
 75
               0
 76
               1
 98
        1
 10
0.0
 20
0.0
  0
MTEXT
  5
123
100
AcDbEntity
  8
0
390
0
 62
               0
100
AcDbMText
 10
14317.081965651752
 20
5425.1989967934687
 30
0.0
 40
24.432617187500004
 41
0.0
 71
               1
 72
               1
  1
175
  7
ＭＳ ゴシック
 73
               1
 44
0.7828267384257843
  0
POINT
  5
124
100
AcDbEntity
  8
Defpoints
370
               0
390
0
 62
               0
100
AcDbPoint
 10
14253.396085242079
 20
5491.321379605969
 30
0.0
  0
POINT
  5
125
100
AcDbEntity
  8
Defpoints
370
               0
390
0
 62
               0
100
AcDbPoint
 10
14428.392849425776
 20
5491.321379605969
 30
0.0
  0
POINT
  5
126
100
AcDbEntity
  8
Defpoints
370
               0
390
0
 62
               0
100
AcDbPoint
 10
14428.392849425776
 20
5391.321379605969
 30
0.0
  0
ENDBLK
  5
127
100
AcDbEntity
  8
notes
390
0
100
AcDbBlockEnd
  0
ENDSEC
  0
SECTION
  2
ENTITIES
  0
MTEXT
  5
128
100
AcDbEntity
  8
template
390
0
 62
               7
100
AcDbMText
 10
14104.929353303665
 20
4034.410267490437
 30
0.0
 40
16.288411458333332
 41
0.0
 71
               1
 72
               1
  1
品名
  7
ＭＳ ゴシック
 73
               1
 44
0.7828267384257843
  0
MTEXT
  5
129
100
AcDbEntity
  8
template
390
0
 62
               7
100
AcDbMText
 10
14104.929353303665
 20
3949.410267490437
 30
0.0
 40
16.288411458333332
 41
0.0
 71
               1
 72
               1
  1
仕様
  7
ＭＳ ゴシック
 73
               1
 44
0.7828267384257843
  0
MTEXT
  5
12A
100
AcDbEntity
  8
template
390
0
 62
               7
100
AcDbMText
 10
14157.929353303665
 20
4005.8278065529366
 30
0.0
 40
24.432617187500004
 41
0.0
 71
               1
 72
               1
  1
洗面器 -CATALANO,Sfera-
  7
ＭＳ ゴシック
 73
               1
 44
0.7828267384257843
  0
LINE
  5
12B
100
AcDbEntity
  8
template
370
               5
390
0
  6
Continuous
 62
               7
100
AcDbLine
 10
16047.929353303181
 20
3957.8251893654369
 30
0.0
 11
14097.929353303181
 21
3957.8251893654369
 31
0.0
  0
LWPOLYLINE
  5
12C
100
AcDbEntity
  8
template
370
               5
390
0
  6
Continuous
 62
               7
100
AcDbPolyline
 90
        5
 70
             128
 10
16047.929353303665
 20
6587.8251893654369
 10
14097.929353303665
 20
6587.8251893654369
 10
14097.929353303665
 20
3787.8251893654369
 10
16047.929353303665
 20
3787.8251893654369
 10
16047.929353303665
 20
6587.8251893654369
  0
LINE
  5
12D
100
AcDbEntity
  8
template
370
               5
390
0
  6
Continuous
 62
               7
100
AcDbLine
 10
16047.929353303181
 20
4042.8251893654369
 30
0.0
 11
14097.929353303181
 21
4042.8251893654369
 31
0.0
  0
LINE
  5
12E
100
AcDbEntity
  8
template
370
               5
390
0
  6
Continuous
 62
               7
100
AcDbLine
 10
16047.929353303665
 20
3872.8251893654369
 30
0.0
 11
15294.929353303665
 21
3872.8251893654369
 31
0.0
  0
MTEXT
  5
12F
100
AcDbEntity
  8
template
390
0
 62
               7
100
AcDbMText
 10
14097.929353303867
 20
3775.9713673085798
 30
0.0
 40
21.717881944444446
 41
0.0
 71
               1
 72
               1
  1
120411SO
  7
ＭＳ ゴシック
 73
               1
 44
0.7828267384257843
  0
MTEXT
  5
130
100
AcDbEntity
  8
template
390
0
 62
               7
100
AcDbMText
 10
15324.800759555925
 20
3842.9147948921291
 30
0.0
 40
24.432617187500004
 41
0.0
 71
               1
 72
               1
  1
大洋金物株式会社 ティーフォルム事業部
  7
ＭＳ ゴシック
 73
               1
 44
0.7828267384257843
  0
INSERT
  5
131
100
AcDbEntity
  8
template
390
0
 62
               7
100
AcDbBlockReference
  2
グループ
 10
15088.819833322181
 20
5136.970005113606
 30
0.0
  0
MTEXT
  5
132
100
AcDbEntity
  8
template
390
0
 62
               7
100
AcDbMText
 10
15856.929353303924
 20
3920.8278065529366
 30
0.0
 40
24.432617187500004
 41
0.0
 71
               1
 72
               1
  1
1:10
  7
ＭＳ ゴシック
 73
               1
 44
0.7828267384257843
  0
MTEXT
  5
133
100
AcDbEntity
  8
template
390
0
 62
               7
100
AcDbMText
 10
15803.929353303924
 20
3949.410267490437
 30
0.0
 40
16.288411458333332
 41
0.0
 71
               1
 72
               1
  1
縮尺
  7
ＭＳ ゴシック
 73
               1
 44
0.7828267384257843
  0
LINE
  5
134
100
AcDbEntity
  8
template
370
               5
390
0
  6
Continuous
 62
               7
100
AcDbLine
 10
15796.929353303924
 20
3872.8251893654369
 30
0.0
 11
15796.929353303924
 21
3957.8251893654369
 31
0.0
  0
MTEXT
  5
135
100
AcDbEntity
  8
template
390
0
 62
               7
100
AcDbMText
 10
15552.929353303924
 20
3949.410267490437
 30
0.0
 40
16.288411458333332
 41
0.0
 71
               1
 72
               1
  1
容量
  7
ＭＳ ゴシック
 73
               1
 44
0.7828267384257843
  0
MTEXT
  5
136
100
AcDbEntity
  8
template
390
0
 62
               7
100
AcDbMText
 10
15605.929353303924
 20
3920.8278065529366
 30
0.0
 40
24.432617187500004
 41
0.0
 71
               1
 72
               1
  1
2L
  7
ＭＳ ゴシック
 73
               1
 44
0.7828267384257843
  0
LINE
  5
137
100
AcDbEntity
  8
template
370
               5
390
0
  6
Continuous
 62
               7
100
AcDbLine
 10
15545.929353303924
 20
3872.8251893654369
 30
0.0
 11
15545.929353303924
 21
3957.8251893654369
 31
0.0
  0
MTEXT
  5
138
100
AcDbEntity
  8
template
390
0
 62
               7
100
AcDbMText
 10
15301.929353303924
 20
4034.410267490437
 30
0.0
 40
16.288411458333332
 41
0.0
 71
               1
 72
               1
  1
品番
  7
ＭＳ ゴシック
 73
               1
 44
0.7828267384257843
  0
MTEXT
  5
139
100
AcDbEntity
  8
template
390
0
 62
               7
100
AcDbMText
 10
15301.929353303924
 20
3949.410267490437
 30
0.0
 40
16.288411458333332
 41
0.0
 71
               1
 72
               1
  1
重量
  7
ＭＳ ゴシック
 73
               1
 44
0.7828267384257843
  0
MTEXT
  5
13A
100
AcDbEntity
  8
template
390
0
 62
               7
100
AcDbMText
 10
15354.929353303924
 20
4005.8278065529366
 30
0.0
 40
24.432617187500004
 41
0.0
 71
               1
 72
               1
  1
ADF70-0702
  7
ＭＳ ゴシック
 73
               1
 44
0.7828267384257843
  0
MTEXT
  5
13B
100
AcDbEntity
  8
template
390
0
 62
               7
100
AcDbMText
 10
15354.929353303924
 20
3920.8278065529366
 30
0.0
 40
24.432617187500004
 41
0.0
 71
               1
 72
               1
  1
25kg
  7
ＭＳ ゴシック
 73
               1
 44
0.7828267384257843
  0
LINE
  5
13C
100
AcDbEntity
  8
template
370
               5
390
0
  6
Continuous
 62
               7
100
AcDbLine
 10
15294.929353303924
 20
3787.8251893654369
 30
0.0
 11
15294.929353303924
 21
4042.8251893654369
 31
0.0
  0
MTEXT
  5
13D
100
AcDbEntity
  8
template
390
0
 62
               7
100
AcDbMText
 10
14157.929353303663
 20
3920.8278065529366
 30
0.0
 40
24.432617187500004
 41
0.0
 71
               1
 72
               1
  1
壁掛け/オーバーフロー付き/壁取付ボルト付属/\P陶器/ホワイト
  7
ＭＳ ゴシック
 73
               1
 44
1.3047112307096407
  0
MTEXT
  5
13E
100
AcDbEntity
  8
notes
390
0
 62
               7
100
AcDbMText
 10
14404.387313101517
 20
5309.1199213718837
 30
0.0
 40
24.253472222222221
 41
836.66157930359611
 71
               1
 72
               1
  1
＝φ30もしくはφ35の水栓取付用穴あけ加工を承ります。\P   必要な場合、ご注文の際にご指示ください。
  7
MS UI Gothic
 73
               1
 44
1.0514786418400877
  0
CIRCLE
  5
13F
100
AcDbEntity
  8
notes
370
               5
390
0
  6
STYLE_12
 62
               7
100
AcDbCircle
 10
14381.548892405113
 20
5298.3089328316591
 30
0.0
 40
17.500000000000028
  0
DIMENSION
  5
140
100
AcDbEntity
  8
notes
370
               5
390
0
  6
Continuous
 62
               7
100
AcDbDimension
  2
*D2
 10
15078.392849425776
 20
5391.321379605969
 30
0.0
 11
14753.392849425776
 21
5391.321379605969
 31
0.0
 71
               5
 72
               1
 41
1.0
 42
0.0
  3
tform線あり
100
AcDbAlignedDimension
 13
14428.392849425776
 23
5490.5657591470872
 33
0.0
 14
15078.392849425776
 24
5490.5657591470872
 34
0.0
100
AcDbRotatedDimension
1001
ACAD
1000
DSTYLE
1002
{
1070
             279
1070
               2
1070
             340
1005
35
1070
             147
1040
5.0
1002
}
  0
DIMENSION
  5
141
100
AcDbEntity
  8
notes
370
               5
390
0
  6
Continuous
 62
               7
100
AcDbDimension
  2
*D3
 10
14253.396085242079
 20
6121.321379605969
 30
0.0
 11
14753.392849405371
 21
6121.321379605969
 31
0.0
 71
               5
 72
               1
 41
1.0
 42
0.0
  3
tform線あり
100
AcDbAlignedDimension
 13
15253.389613568663
 23
5968.321379605969
 33
0.0
 14
14253.396085242079
 24
5968.321379605969
 34
0.0
100
AcDbRotatedDimension
1001
ACAD
1000
DSTYLE
1002
{
1070
             279
1070
               2
1070
             340
1005
35
1070
             147
1040
5.0
1002
}
  0
DIMENSION
  5
142
100
AcDbEntity
  8
notes
370
               5
390
0
  6
Continuous
 62
               7
100
AcDbDimension
  2
*D4
 10
15353.389613568663
 20
5971.321379605969
 30
0.0
 11
15353.389613568663
 21
5731.321379605969
 31
0.0
 71
               5
 72
               1
 41
1.0
 42
0.0
  3
tform線あり
100
AcDbAlignedDimension
 13
15247.389613568663
 23
5491.321379605969
 33
0.0
 14
15250.389613568663
 24
5971.321379605969
 34
0.0
 50
90.0
100
AcDbRotatedDimension
1001
ACAD
1000
DSTYLE
1002
{
1070
             279
1070
               2
1070
             340
1005
35
1070
             147
1040
5.0
1002
}
  0
DIMENSION
  5
143
100
AcDbEntity
  8
notes
370
               5
390
0
  6
Continuous
 62
               7
100
AcDbDimension
  2
*D5
 10
14613.392849405371
 20
6071.321379605969
 30
0.0
 11
14683.392849405371
 21
6071.321379605969
 31
0.0
 71
               5
 72
               1
 41
1.0
 42
0.0
  3
tform線あり
100
AcDbAlignedDimension
 13
14753.392849405371
 23
5928.821379605969
 33
0.0
 14
14613.392849405371
 24
5928.821379605969
 34
0.0
100
AcDbRotatedDimension
1001
ACAD
1000
DSTYLE
1002
{
1070
             279
1070
               2
1070
             340
1005
35
1070
             147
1040
5.0
1002
}
  0
DIMENSION
  5
144
100
AcDbEntity
  8
notes
370
               5
390
0
  6
Continuous
 62
               7
100
AcDbDimension
  2
*D6
 10
14753.392849405371
 20
6071.321379605969
 30
0.0
 11
14823.392849405371
 21
6071.321379605969
 31
0.0
 71
               5
 72
               1
 41
1.0
 42
0.0
  3
tform線あり
100
AcDbAlignedDimension
 13
14893.392849405371
 23
5928.821379605969
 33
0.0
 14
14753.392849405371
 24
5928.821379605969
 34
0.0
100
AcDbRotatedDimension
1001
ACAD
1000
DSTYLE
1002
{
1070
             279
1070
               2
1070
             340
1005
35
1070
             147
1040
5.0
1002
}
  0
DIMENSION
  5
145
100
AcDbEntity
  8
notes
370
               5
390
0
  6
Continuous
 62
               7
100
AcDbDimension
  2
*D7
 10
14153.396085242079
 20
5971.321379605969
 30
0.0
 11
14148.396085242079
 21
5906.321379605969
 31
0.0
 70
             128
 71
               5
 72
               1
 41
1.0
 42
0.0
  3
tform線あり
100
AcDbAlignedDimension
 13
14253.396085242079
 23
5841.321379605969
 33
0.0
 14
14256.396085242079
 24
5971.321379605969
 34
0.0
 50
90.0
100
AcDbRotatedDimension
1001
ACAD
1000
DSTYLE
1002
{
1070
             279
1070
               2
1070
             340
1005
35
1070
             147
1040
5.0
1002
}
  0
DIMENSION
  5
146
100
AcDbEntity
  8
notes
370
               5
390
0
  6
Continuous
 62
               7
100
AcDbDimension
  2
*D8
 10
14153.396085242079
 20
5841.321379605969
 30
0.0
 11
14148.396085242079
 21
5714.3189893473545
 31
0.0
 70
             128
 71
               5
 72
               1
 41
1.0
 42
0.0
  3
tform線あり
100
AcDbAlignedDimension
 13
14253.396085242079
 23
5561.321379605969
 33
0.0
 14
14253.396085242079
 24
5841.321379605969
 34
0.0
 50
90.0
100
AcDbRotatedDimension
1001
ACAD
1000
DSTYLE
1002
{
1070
             279
1070
               2
1070
             340
1005
35
1070
             147
1040
5.0
1002
}
  0
DIMENSION
  5
147
100
AcDbEntity
  8
notes
370
               5
390
0
  6
Continuous
 62
               7
100
AcDbDimension
  2
*D9
 10
15078.392849425776
 20
5391.321379605969
 30
0.0
 11
15165.891231497219
 21
5391.321379605969
 31
0.0
 71
               5
 72
               1
 41
1.0
 42
0.0
  3
tform線あり
100
AcDbAlignedDimension
 13
15253.389613568663
 23
5497.321379605969
 33
0.0
 14
15078.392849425776
 24
5465.5657591470872
 34
0.0
100
AcDbRotatedDimension
1001
ACAD
1000
DSTYLE
1002
{
1070
             279
1070
               2
1070
             340
1005
35
1070
             147
1040
5.0
1002
}
  0
DIMENSION
  5
148
100
AcDbEntity
  8
notes
370
               5
390
0
  6
Continuous
 62
               7
100
AcDbDimension
  2
*D10
 10
14613.392849405371
 20
4975.6225836505446
 30
0.0
 11
14753.392849405371
 21
4975.6225836505446
 31
0.0
 71
               5
 72
               1
 41
1.0
 42
0.0
  3
tform線あり
100
AcDbAlignedDimension
 13
14893.392849405371
 23
4850.6225836505446
 33
0.0
 14
14613.392849405371
 24
4850.6225836505446
 34
0.0
100
AcDbRotatedDimension
1001
ACAD
1000
DSTYLE
1002
{
1070
             279
1070
               2
1070
             340
1005
35
1070
             147
1040
5.0
1002
}
  0
DIMENSION
  5
149
100
AcDbEntity
  8
notes
370
               5
390
0
  6
Continuous
 62
               7
100
AcDbDimension
  2
*D11
 10
15944.070511375327
 20
4975.6225836505446
 30
0.0
 11
15974.088836820774
 21
4980.6225836505446
 31
0.0
 70
             128
 71
               5
 72
               1
 41
1.0
 42
0.0
  3
tform線あり
100
AcDbAlignedDimension
 13
16004.10716226622
 23
4872.5091984115215
 33
0.0
 14
15944.070511375327
 24
4875.6225836505446
 34
0.0
100
AcDbRotatedDimension
1001
ACAD
1000
DSTYLE
1002
{
1070
             279
1070
               2
1070
             340
1005
35
1070
             147
1040
5.0
1002
}
  0
DIMENSION
  5
14A
100
AcDbEntity
  8
notes
370
               5
390
0
  6
Continuous
 62
               7
100
AcDbDimension
  2
*D12
 10
16004.10716226622
 20
4615.5816771409773
 30
0.0
 11
15891.609906770698
 21
4615.5816771409773
 31
0.0
 71
               5
 72
               1
 41
1.0
 42
0.0
  3
tform線あり
100
AcDbAlignedDimension
 13
15779.112651275176
 23
4715.5816771409773
 33
0.0
 14
16004.10716226622
 24
4732.7101919501902
 34
0.0
100
AcDbRotatedDimension
1001
ACAD
1000
DSTYLE
1002
{
1070
             279
1070
               2
1070
             340
1005
35
1070
             147
1040
5.0
1002
}
  0
DIMENSION
  5
14B
100
AcDbEntity
  8
notes
370
               5
390
0
  6
Continuous
 62
               7
100
AcDbDimension
  2
*D13
 10
15426.049278543715
 20
4845.6225836505446
 30
0.0
 11
15426.049278543715
 21
4860.6225836505446
 31
0.0
 71
               5
 72
               1
 41
1.0
 42
0.0
  3
tform線あり
100
AcDbAlignedDimension
 13
15559.791793442437
 23
4875.6225836505446
 33
0.0
 14
15529.791793442437
 24
4845.6225836505446
 34
0.0
 50
90.0
100
AcDbRotatedDimension
1001
ACAD
1000
DSTYLE
1002
{
1070
             279
1070
               2
1070
             340
1005
35
1070
             147
1040
5.0
1002
}
  0
DIMENSION
  5
14C
100
AcDbEntity
  8
notes
370
               5
390
0
  6
Continuous
 62
               7
100
AcDbDimension
  2
*D14
 10
15353.389613568663
 20
4705.5736113761095
 30
0.0
 11
15353.389613568663
 21
4790.598097513327
 31
0.0
 71
               5
 72
               1
 41
1.0
 42
0.0
  3
tform線あり
100
AcDbAlignedDimension
 13
15248.404970880278
 23
4875.6225836505446
 33
0.0
 14
14787.373916793982
 24
4705.5736113761095
 34
0.0
 50
90.0
100
AcDbRotatedDimension
1001
ACAD
1000
DSTYLE
1002
{
1070
             279
1070
               2
1070
             340
1005
35
1070
             147
1040
5.0
1002
}
  0
DIMENSION
  5
14D
100
AcDbEntity
  8
notes
370
               5
390
0
  6
Continuous
 62
               7
100
AcDbDimension
  2
*D15
 10
15782.023908506175
 20
4875.6225836505446
 30
0.0
 11
15787.023908506175
 21
4883.6333186355505
 31
0.0
 70
             128
 71
               5
 72
               1
 41
1.0
 42
0.0
  3
tform線あり
100
AcDbAlignedDimension
 13
15778.898908506175
 23
4760.6225836505437
 33
0.0
 14
15778.898908506175
 24
4875.6225836505446
 34
0.0
 50
90.0
100
AcDbRotatedDimension
1001
ACAD
1000
DSTYLE
1002
{
1070
             279
1070
               2
1070
             340
1005
35
1070
               3
1000
<>(深さ)
1070
             174
1070
               0
1070
             147
1040
5.0
1002
}
  0
DIMENSION
  5
14E
100
AcDbEntity
  8
notes
370
               5
390
0
  6
Continuous
 62
               7
100
AcDbDimension
  2
*D16
 10
14153.521085242079
 20
4830.6225836505446
 30
0.0
 11
14148.521085242079
 21
4852.0
 31
0.0
 70
             128
 71
               5
 72
               1
 41
1.0
 42
0.0
  3
tform線あり
100
AcDbAlignedDimension
 13
14258.380727930464
 23
4875.6225836505446
 33
0.0
 14
14507.570677447677
 24
4830.6225836505446
 34
0.0
 50
90.0
100
AcDbRotatedDimension
1001
ACAD
1000
DSTYLE
1002
{
1070
             279
1070
               2
1070
             340
1005
35
1070
             147
1040
5.0
1002
}
  0
MTEXT
  5
14F
100
AcDbEntity
  8
notes
390
0
 62
               7
100
AcDbMText
 10
14975.440083313595
 20
4959.876254127762
 30
0.0
 40
24.432617187500004
 41
0.0
 71
               1
 72
               1
  1
壁取付ボルト穴(2ヶ所）
  7
ＭＳ ゴシック
 73
               1
 44
0.7828267384257843
  0
LINE
  5
150
100
AcDbEntity
  8
notes
370
               5
390
0
  6
Continuous
 62
               7
100
AcDbLine
 10
14893.971925875898
 20
4830.4367872659177
 30
0.0
 11
14991.307967629704
 21
4927.7728290197228
 31
0.0
  0
LINE
  5
151
100
AcDbEntity
  8
notes
370
              15
390
0
  6
Continuous
 62
               7
100
AcDbLine
 10
15594.690996027524
 20
4830.9301805173172
 30
0.0
 11
16004.10716226622
 21
4830.9301805173172
 31
0.0
  0
ARC
  5
152
100
AcDbEntity
  8
notes
370
              15
390
0
  6
Continuous
 62
               7
100
AcDbCircle
 10
15594.959596798884
 20
4835.9301805173172
 30
0.0
 40
4.9999999999998845
100
AcDbArc
 50
208.09504237519604
 51
270.00000000000131
  0
LINE
  5
153
100
AcDbEntity
  8
notes
370
              15
390
0
  6
Continuous
 62
               7
100
AcDbLine
 10
15712.238390076254
 20
4730.9651552188125
 30
0.0
 11
15997.105053774514
 21
4725.710192267743
 31
0.0
  0
ARC
  5
154
100
AcDbEntity
  8
notes
370
              15
390
0
  6
Continuous
 62
               7
100
AcDbCircle
 10
15997.10716226622
 20
4732.7101919501902
 30
0.0
 40
6.9999999999998668
100
AcDbArc
 50
269.98274176031327
 51
0.0000000000018758
  0
LINE
  5
155
100
AcDbEntity
  8
notes
370
              15
390
0
  6
Continuous
 62
               7
100
AcDbLine
 10
15029.496797258091
 20
4830.6298181966713
 30
0.0
 11
15166.570677447677
 21
4830.6298181966713
 31
0.0
  0
DIMENSION
  5
156
100
AcDbEntity
  8
notes
370
               5
390
0
  6
Continuous
 62
               7
100
AcDbDimension
  2
*D17
 10
14428.392849425776
 20
5391.321379605969
 30
0.0
 11
14340.894467333928
 21
5391.321379605969
 31
0.0
 71
               5
 72
               1
 41
1.0
 42
0.0
  3
tform線あり
100
AcDbAlignedDimension
 13
14253.396085242079
 23
5491.321379605969
 33
0.0
 14
14428.392849425776
 24
5491.321379605969
 34
0.0
100
AcDbRotatedDimension
1001
ACAD
1000
DSTYLE
1002
{
1070
             279
1070
               2
1070
             340
1005
35
1070
             147
1040
5.0
1002
}
  0
LINE
  5
157
100
AcDbEntity
  8
notes
370
              15
390
0
  6
Continuous
 62
               7
100
AcDbLine
 10
14345.496797258091
 20
4830.6298181966713
 30
0.0
 11
14482.570677447677
 21
4830.6298181966713
 31
0.0
  0
LINE
  5
158
100
AcDbEntity
  8
ADF70-0702
370
              15
390
0
  6
Continuous
 62
               7
100
AcDbLine
 10
14256.396085242079
 20
5971.321379605969
 30
0.0
 11
15250.389613568663
 21
5971.321379605969
 31
0.0
  0
LWPOLYLINE
  5
159
100
AcDbEntity
  8
ADF70-0702
370
              15
390
0
  6
Continuous
 62
               7
100
AcDbPolyline
 90
       11
 70
             128
 10
14753.489638583787
 20
5839.3332033070801
 10
14748.714705781967
 20
5839.1275263029484
 10
14744.972190883245
 20
5838.7081065298162
 10
14742.286291182225
 20
5838.0870426349848
 10
14741.649095757657
 20
5837.6676228618526
 10
14741.447451635961
 20
5837.2603017360207
 10
14741.649095757657
 20
5836.8408819628885
 10
14742.286291182225
 20
5836.4214621897563
 10
14744.972190883245
 20
5835.5947212907931
 10
14748.714705781967
 20
5834.965591631094
 10
14753.489638583787
 20
5834.767980391829
  0
LWPOLYLINE
  5
15A
100
AcDbEntity
  8
ADF70-0702
370
              15
390
0
  6
Continuous
 62
               7
100
AcDbPolyline
 90
       11
 70
             128
 10
14753.489638583787
 20
5839.3332033070801
 10
14758.070993028774
 20
5839.1275263029484
 10
14761.813507927494
 20
5838.7081065298162
 10
14764.515539158252
 20
5838.0870426349848
 10
14765.136603053084
 20
5837.6676228618526
 10
14765.354378704516
 20
5837.2603017360207
 10
14765.136603053084
 20
5836.8408819628885
 10
14764.515539158252
 20
5836.4214621897563
 10
14761.813507927494
 20
5835.5947212907931
 10
14758.070993028774
 20
5834.965591631094
 10
14753.489638583787
 20
5834.767980391829
  0
LINE
  5
15B
100
AcDbEntity
  8
ADF70-0702
370
              15
390
0
  6
Continuous
 62
               7
100
AcDbLine
 10
14568.392849405371
 20
5841.321379605969
 30
0.0
 11
14938.392849405371
 21
5841.321379605969
 31
0.0
  0
LINE
  5
15C
100
AcDbEntity
  8
ADF70-0702
370
              15
390
0
  6
Continuous
 62
               7
100
AcDbLine
 10
14568.392849405371
 20
5561.321379605969
 30
0.0
 11
14938.392849405371
 21
5561.321379605969
 31
0.0
  0
LINE
  5
15D
100
AcDbEntity
  8
ADF70-0702
370
              15
390
0
  6
Continuous
 62
               7
100
AcDbLine
 10
15756.141352931296
 20
4715.5816771409773
 30
0.0
 11
15802.083949619053
 21
4715.5816771409773
 31
0.0
  0
LINE
  5
15E
100
AcDbEntity
  8
ADF70-0702
370
              15
390
0
  6
Continuous
 62
               7
100
AcDbLine
 10
15813.101784428654
 20
4715.5816771409773
 30
0.0
 11
15802.075883854186
 21
4715.5816771409773
 31
0.0
  0
LINE
  5
15F
100
AcDbEntity
  8
ADF70-0702
370
              15
390
0
  6
Continuous
 62
               7
100
AcDbLine
 10
15745.131583886563
 20
4715.7913870275434
 30
0.0
 11
15745.34129377313
 21
4715.589742905845
 31
0.0
  0
LINE
  5
160
100
AcDbEntity
  8
ADF70-0702
370
              15
390
0
  6
Continuous
 62
               7
100
AcDbLine
 10
15756.141352931296
 20
4715.5816771409773
 30
0.0
 11
15745.34489377305
 21
4715.5816771409773
 31
0.0
  0
LWPOLYLINE
  5
161
100
AcDbEntity
  8
ADF70-0702
370
              15
390
0
  6
Continuous
 62
               7
100
AcDbPolyline
 90
        4
 70
             128
 10
15586.115029515226
 20
4875.6225836505446
 10
15588.187931086286
 20
4875.6225836505446
 10
15878.571597861681
 20
4875.6225836505446
 10
15878.781307748248
 20
4875.6225836505446
  0
LWPOLYLINE
  5
162
100
AcDbEntity
  8
ADF70-0702
370
              15
390
0
  6
STYLE_12
 62
               7
100
AcDbPolyline
 90
        4
 70
             128
 10
15590.486674073647
 20
4873.130262306353
 10
15589.454256170551
 20
4874.3885216257504
 10
15587.784642842889
 20
4875.219295407147
 10
15586.115029515226
 20
4875.6225836505446
  0
LWPOLYLINE
  5
163
100
AcDbEntity
  8
ADF70-0702
370
              15
390
0
  6
STYLE_12
 62
               7
100
AcDbPolyline
 90
        5
 70
             128
 10
15878.781307748248
 20
4875.6225836505446
 10
15877.119760185455
 20
4875.2112296422802
 10
15875.442081092922
 20
4874.1707459743166
 10
15874.409663189826
 20
4872.7108425332199
 10
15873.796665059865
 20
4870.8476508487265
  0
LWPOLYLINE
  5
164
100
AcDbEntity
  8
ADF70-0702
370
              15
390
0
  6
Continuous
 62
               7
100
AcDbPolyline
 90
        3
 70
             128
 10
15743.671680445468
 20
4757.5081240326499
 10
15740.332453790143
 20
4759.5810256037093
 10
15736.598004656289
 20
4760.831219158239
  0
LWPOLYLINE
  5
165
100
AcDbEntity
  8
ADF70-0702
370
              15
390
0
  6
Continuous
 62
               7
100
AcDbPolyline
 90
        3
 70
             128
 10
15820.578748461228
 20
4760.831219158239
 10
15817.667007343905
 20
4759.5890913685771
 10
15814.964976113146
 20
4757.927543805783
  0
LINE
  5
166
100
AcDbEntity
  8
ADF70-0702
370
              15
390
0
  6
STYLE_12
 62
               7
100
AcDbLine
 10
15872.748115627031
 20
4858.5876882494667
 30
0.0
 11
15873.788599294996
 21
4870.8476508487265
 31
0.0
  0
LINE
  5
167
100
AcDbEntity
  8
ADF70-0702
370
              15
390
0
  6
STYLE_12
 62
               7
100
AcDbLine
 10
15590.486674073647
 20
4873.130262306353
 30
0.0
 11
15599.625185669018
 21
4858.5876882494667
 31
0.0
  0
LINE
  5
168
100
AcDbEntity
  8
ADF70-0702
370
              15
390
0
  6
STYLE_12
 62
               7
100
AcDbLine
 10
15755.520289036465
 20
4747.7404827775808
 30
0.0
 11
15802.713079278752
 21
4747.7404827775808
 31
0.0
  0
LWPOLYLINE
  5
169
100
AcDbEntity
  8
ADF70-0702
370
              15
390
0
  6
Continuous
 62
               7
100
AcDbPolyline
 90
        5
 70
             128
 10
15533.122954332895
 20
4845.6225836505446
 10
15534.784501895689
 20
4846.0500691885454
 10
15536.228273807046
 20
4846.8727772050743
 10
15537.470401596711
 20
4848.1149049947371
 10
15537.768743081106
 20
4849.2801255092627
  0
LWPOLYLINE
  5
16A
100
AcDbEntity
  8
ADF70-0702
370
              15
390
0
  6
Continuous
 62
               7
100
AcDbPolyline
 90
        5
 70
             128
 10
15525.008794875752
 20
4851.5140124602876
 10
15525.008794875752
 20
4849.3812300790032
 10
15526.041212778846
 20
4847.4938410999057
 10
15527.710826106508
 20
4846.243647545376
 10
15529.783727677568
 20
4845.6306494154132
  0
LWPOLYLINE
  5
16B
100
AcDbEntity
  8
ADF70-0702
370
              15
390
0
  6
Continuous
 62
               7
100
AcDbPolyline
 90
        7
 70
             128
 10
15553.690654746129
 20
4862.5237815050186
 10
15550.165915498839
 20
4862.1124274967533
 10
15546.625044721817
 20
4860.8702997070923
 10
15543.503593717924
 20
4858.9990422577312
 10
15541.011272373735
 20
4856.2889452621048
 10
15539.140014924373
 20
4853.167494258214
 10
15537.765149708044
 20
4849.2660910144768
  0
LINE
  5
16C
100
AcDbEntity
  8
ADF70-0702
370
              15
390
0
  6
Continuous
 62
               7
100
AcDbLine
 10
15533.114888568025
 20
4845.6225836505446
 30
0.0
 11
15529.791793442437
 21
4845.6225836505446
 31
0.0
  0
LINE
  5
16D
100
AcDbEntity
  8
ADF70-0702
370
              15
390
0
  6
STYLE_12
 62
               7
100
AcDbLine
 10
15755.520289036465
 20
4747.7404827775808
 30
0.0
 11
15743.663614680601
 21
4757.5161897975177
 31
0.0
  0
LINE
  5
16E
100
AcDbEntity
  8
ADF70-0702
370
              15
390
0
  6
STYLE_12
 62
               7
100
AcDbLine
 10
15814.964976113146
 20
4757.927543805783
 30
0.0
 11
15802.705013513885
 21
4747.7404827775808
 31
0.0
  0
LINE
  5
16F
100
AcDbEntity
  8
ADF70-0702
370
              15
390
0
  6
Continuous
 62
               7
100
AcDbLine
 10
15813.303428550353
 20
4717.0254490523375
 30
0.0
 11
15813.093718663786
 21
4715.5978086707137
 31
0.0
  0
LWPOLYLINE
  5
170
100
AcDbEntity
  8
ADF70-0702
370
              15
390
0
  6
Continuous
 62
               7
100
AcDbPolyline
 90
        4
 70
             128
 10
15816.844299327375
 20
4721.3970936107589
 10
15815.174685999713
 20
4720.5582540644937
 10
15813.924492445183
 20
4718.9047722665664
 10
15813.303428550353
 20
4717.0254490523375
  0
LINE
  5
171
100
AcDbEntity
  8
ADF70-0702
370
              15
390
0
  6
STYLE_12
 62
               7
100
AcDbLine
 10
15756.149418696165
 20
4715.5816771409773
 30
0.0
 11
15755.623110085242
 21
4747.7404827775808
 31
0.0
  0
LWPOLYLINE
  5
172
100
AcDbEntity
  8
ADF70-0702
370
              15
390
0
  6
Continuous
 62
               7
100
AcDbPolyline
 90
        4
 70
             128
 10
15581.412772783791
 20
4859.6201061525626
 10
15579.960935107561
 20
4861.2816537153558
 10
15578.089677658201
 20
4862.3140716184516
 10
15576.218420208839
 20
4862.5318472698864
  0
LINE
  5
173
100
AcDbEntity
  8
ADF70-0702
370
              15
390
0
  6
Continuous
 62
               7
100
AcDbLine
 10
15581.412772783791
 20
4859.6201061525626
 30
0.0
 11
15590.548758709374
 21
4833.5755027584455
 31
0.0
  0
LINE
  5
174
100
AcDbEntity
  8
ADF70-0702
370
              15
390
0
  6
Continuous
 62
               7
100
AcDbLine
 10
16004.10716226622
 20
4732.7101919501902
 30
0.0
 11
16004.10716226622
 21
4872.5091984115215
 31
0.0
  0
LINE
  5
175
100
AcDbEntity
  8
ADF70-0702
370
              15
390
0
  6
Continuous
 62
               7
100
AcDbLine
 10
15553.690654746129
 20
4862.5237815050186
 30
0.0
 11
16004.10716226622
 21
4862.5237815050186
 31
0.0
  0
LINE
  5
176
100
AcDbEntity
  8
ADF70-0702
370
              15
390
0
  6
Continuous
 62
               7
100
AcDbLine
 10
15553.489010624429
 20
4875.6225836505446
 30
0.0
 11
15586.123095280092
 21
4875.6225836505446
 31
0.0
  0
LINE
  5
177
100
AcDbEntity
  8
ADF70-0702
370
              15
390
0
  6
Continuous
 62
               7
100
AcDbLine
 10
15878.781307748248
 20
4875.6225836505446
 30
0.0
 11
16001.211552678635
 21
4875.6225836505446
 31
0.0
  0
LWPOLYLINE
  5
178
100
AcDbEntity
  8
ADF70-0702
370
              15
390
0
  6
Continuous
 62
               7
100
AcDbPolyline
 90
        4
 70
             128
 10
16004.10716226622
 20
4872.5091984115215
 10
16003.695808257957
 20
4874.1707459743166
 10
16002.663390354863
 20
4875.2112296422802
 10
16001.203486913766
 20
4875.6145178856768
  0
LWPOLYLINE
  5
179
100
AcDbEntity
  8
ADF70-0702
370
              15
390
0
  6
STYLE_12
 62
               7
100
AcDbPolyline
 90
        9
 70
             128
 10
15736.606070421156
 20
4760.831219158239
 10
15737.428778437688
 20
4760.831219158239
 10
15738.390717971884
 20
4760.821759115559
 42
0.001255344732931
 10
15759.338233302358
 20
4760.6683506556092
 42
0.0012331391823194
 10
15780.286255016992
 20
4760.6191987159136
 10
15784.724894340463
 20
4760.6197309319205
 42
0.0025509238193769
 10
15814.549521368308
 20
4760.7754688486657
 10
15819.949618801529
 20
4760.831219158239
 10
15820.578748461228
 20
4760.831219158239
  0
LWPOLYLINE
  5
17A
100
AcDbEntity
  8
ADF70-0702
370
              15
390
0
  6
STYLE_12
 62
               7
100
AcDbPolyline
 90
       35
 70
             128
 10
15736.606070421156
 20
4760.831219158239
 10
15725.168815838428
 20
4763.2794411354798
 42
-0.0016072714896236
 10
15723.765061312826
 20
4763.6160683898961
 10
15722.030800766875
 20
4764.0378526253444
 42
-0.0101147365042042
 10
15717.185558960718
 20
4765.3205875088115
 10
15714.83202400655
 20
4765.9948923593092
 42
-0.014025977265419
 10
15705.38967648514
 20
4768.9891920831988
 10
15704.728156060426
 20
4769.2195798583289
 42
-0.0145102627071675
 10
15694.489148595409
 20
4773.1221755864108
 10
15694.432395122865
 20
4773.1457149517064
 42
-0.014858103572574
 10
15684.552332668854
 20
4777.5920987136133
 10
15684.520473750677
 20
4777.6075905323569
 42
-0.0150511958475963
 10
15674.986717113883
 20
4782.6037073745883
 10
15674.978792130365
 20
4782.6081694421364
 42
-0.01508890070619
 10
15665.778898174807
 20
4788.1601118518147
 10
15664.657656695505
 20
4788.8837840782871
 42
-0.0149352288376261
 10
15658.004698307082
 20
4793.4648490822801
 42
-0.0073910353637437
 10
15651.560676929137
 20
4798.3399465200037
 10
15651.545260883182
 20
4798.3519716043138
 42
-0.0144323690563645
 10
15645.291880041283
 20
4803.5269201998535
 10
15645.271222928817
 20
4803.5450442755109
 42
-0.0070720267070164
 10
15639.203411354905
 20
4809.0226085714721
 10
15639.169199844109
 20
4809.0543817725911
 42
-0.013637306402843
 10
15633.268336512418
 20
4814.8422939142047
 10
15633.240140506467
 20
4814.8715008914596
 42
-0.0066211260785762
 10
15627.521334178004
 20
4820.954533882973
 10
15627.472690149903
 20
4821.0076686693483
 42
-0.0126291721008795
 10
15621.89897909936
 20
4827.4135095991987
 10
15621.865677697642
 20
4827.4537936258721
 42
-0.0060784993103186
 10
15616.468558313056
 20
4834.1466229764019
 10
15615.750234459139
 20
4835.0598996386016
 42
-0.0115088010688439
 10
15611.758531427076
 20
4840.3826289085373
 10
15610.258300458256
 20
4842.4820924135875
 42
-0.0013279475189764
 10
15609.392826924088
 20
4843.7000848878661
 10
15599.625185669018
 20
4858.5876882494667
  0
LWPOLYLINE
  5
17B
100
AcDbEntity
  8
ADF70-0702
370
              15
390
0
  6
Continuous
 62
               7
100
AcDbPolyline
 90
       28
 70
             128
 10
15712.238390076254
 20
4730.9651552188125
 10
15703.753041073001
 20
4735.0422974842468
 42
-0.0015391448674479
 10
15702.769420083914
 20
4735.55037171808
 10
15701.540421052983
 20
4736.1899924414938
 42
-0.0088687016937945
 10
15698.133196683444
 20
4738.0407760666412
 10
15696.447665596097
 20
4738.9954444433433
 42
-0.0113032405571057
 10
15689.791992464628
 20
4742.9664854636503
 10
15689.32333498924
 20
4743.260669769028
 42
-0.0107403279315531
 10
15681.923049912861
 20
4748.1307155960976
 42
-0.0102075755490356
 10
15674.730458995105
 20
4753.3084778783659
 42
-0.0097049113968236
 10
15667.749272019591
 20
4758.7687995498272
 42
-0.009234403170615
 10
15660.983207984518
 20
4764.4865619571538
 10
15660.977370510904
 20
4764.4916827496208
 42
-0.0087903339219352
 10
15654.435998991066
 20
4770.4366563195072
 10
15654.426885139348
 20
4770.4452365759935
 42
-0.0083851474003843
 10
15648.111389502017
 20
4776.5939803706733
 10
15648.098702207984
 20
4776.6067540357099
 42
-0.0080155658214834
 10
15642.013135035235
 20
4782.9334354682242
 10
15641.996678835456
 20
4782.9511019559795
 42
-0.0076819996583026
 10
15636.145000959987
 20
4789.429925690697
 10
15636.124665842231
 20
4789.4531476888533
 42
-0.0073843149425285
 10
15630.510759859444
 20
4796.058352128859
 42
-0.0071462724876708
 10
15625.091111356336
 20
4802.823935315726
 10
15622.964944918871
 20
4805.5572822128497
 42
-0.01194159914782
 10
15618.228648210499
 20
4811.9557668059415
 10
15616.239939169667
 20
4814.7810818975786
 42
-0.0008066548755812
 10
15615.635289230007
 20
4815.6430458422719
 10
15605.60006525575
 20
4830.5107607441842
  0
SPLINE
  5
17C
100
AcDbEntity
  8
ADF70-0702
370
              15
390
0
  6
STYLE_12
 62
               7
100
AcDbSpline
210
0.0
220
0.0
230
1.0
 70
              12
 71
               2
 72
              84
 73
              81
 74
               0
 42
0.000001
 43
0.000001
 40
0.0
 40
0.0
 40
0.0
 40
1.0
 40
1.0
 40
2.0
 40
2.0
 40
3.0
 40
3.0
 40
4.0
 40
4.0
 40
5.0
 40
5.0
 40
6.0
 40
6.0
 40
7.0
 40
7.0
 40
8.0
 40
8.0
 40
9.0
 40
9.0
 40
10.0
 40
10.0
 40
11.0
 40
11.0
 40
12.0
 40
12.0
 40
13.0
 40
13.0
 40
14.0
 40
14.0
 40
15.0
 40
15.0
 40
16.0
 40
16.0
 40
17.0
 40
17.0
 40
18.0
 40
18.0
 40
19.0
 40
19.0
 40
20.0
 40
20.0
 40
21.0
 40
21.0
 40
22.0
 40
22.0
 40
23.0
 40
23.0
 40
24.0
 40
24.0
 40
25.0
 40
25.0
 40
26.0
 40
26.0
 40
27.0
 40
27.0
 40
28.0
 40
28.0
 40
29.0
 40
29.0
 40
30.0
 40
30.0
 40
31.0
 40
31.0
 40
32.0
 40
32.0
 40
33.0
 40
33.0
 40
34.0
 40
34.0
 40
35.0
 40
35.0
 40
36.0
 40
36.0
 40
37.0
 40
37.0
 40
38.0
 40
38.0
 40
39.0
 40
39.0
 40
40.0
 40
40.0
 40
40.0
 10
15867.553763052083
 20
4828.8572789462569
 30
0.0
 41
1.0
 10
15866.097642472716
 20
4823.3647123210949
 30
0.0
 41
1.0
 10
15864.641521893351
 20
4817.8721456959329
 30
0.0
 41
1.0
 10
15864.570337872885
 20
4817.6250002007564
 30
0.0
 41
1.0
 10
15864.022137650463
 20
4815.7451468334375
 30
0.0
 41
1.0
 10
15863.473937428042
 20
4813.8652934661213
 30
0.0
 41
0.9996824260728605
 10
15862.83171842804
 20
4812.0154483584138
 30
0.0
 41
1.0
 10
15862.555674943576
 20
4811.2203337802848
 30
0.0
 41
1.0
 10
15862.279631459111
 20
4810.4252192021559
 30
0.0
 41
1.0
 10
15861.579858690751
 20
4808.4095964441003
 30
0.0
 41
0.999881321322979
 10
15860.818320302185
 20
4806.4164892435538
 30
0.0
 41
1.0
 10
15860.056781913619
 20
4804.4233820430081
 30
0.0
 41
0.9998670598360853
 10
15859.230660692005
 20
4802.4561655431435
 30
0.0
 41
1.0
 10
15859.228105284539
 20
4802.4500804316631
 30
0.0
 41
1.0
 10
15859.225549877076
 20
4802.4439953201836
 30
0.0
 41
1.0
 10
15858.394317840532
 20
4800.4646085973618
 30
0.0
 41
0.9998484349179565
 10
15857.494678012559
 20
4798.5153608765759
 30
0.0
 41
1.0
 10
15857.493470487143
 20
4798.5127445337957
 30
0.0
 41
1.0
 10
15857.492262961725
 20
4798.5101281910156
 30
0.0
 41
1.0
 10
15856.590459330344
 20
4796.5561426354661
 30
0.0
 41
0.9998250223382653
 10
15855.616196036795
 20
4794.637257444605
 30
0.0
 41
1.0
 10
15855.493303915677
 20
4794.3952121239508
 30
0.0
 41
1.0
 10
15855.370411794558
 20
4794.1531668032958
 30
0.0
 41
1.0
 10
15854.642183990672
 20
4792.7188671045369
 30
0.0
 41
0.9997947521870704
 10
15853.856449096926
 20
4791.315246059894
 30
0.0
 41
1.0
 10
15853.855107711439
 20
4791.312849835781
 30
0.0
 41
1.0
 10
15853.853766325952
 20
4791.310453611668
 30
0.0
 41
1.0
 10
15853.070714203181
 20
4789.9116250152547
 30
0.0
 41
0.999943106425559
 10
15852.257999494528
 20
4788.5298193590643
 30
0.0
 41
1.0
 10
15852.255685704762
 20
4788.5258853736786
 30
0.0
 41
1.0
 10
15852.253371914994
 20
4788.521951388293
 30
0.0
 41
1.0
 10
15851.445284785877
 20
4787.1480137028775
 30
0.0
 41
0.999737720042763
 10
15850.575130618403
 20
4785.8125207989369
 30
0.0
 41
1.0
 10
15850.572424929909
 20
4785.8083681695298
 30
0.0
 41
1.0
 10
15850.569719241414
 20
4785.8042155401217
 30
0.0
 41
1.0
 10
15849.704976450927
 20
4784.4770278949909
 30
0.0
 41
0.9999265836312498
 10
15848.808326272421
 20
4783.1711850267748
 30
0.0
 41
1.0
 10
15848.804991687375
 20
4783.1663286801122
 30
0.0
 41
1.0
 10
15848.801657102327
 20
4783.1614723334487
 30
0.0
 41
1.0
 10
15847.911676093914
 20
4781.8653421585541
 30
0.0
 41
0.9996598501113315
 10
15846.955321755488
 20
4780.6173814199965
 30
0.0
 41
1.0
 10
15846.951585074019
 20
4780.6125053697951
 30
0.0
 41
1.0
 10
15846.947848392552
 20
4780.6076293195929
 30
0.0
 41
1.0
 10
15845.998967417063
 20
4779.3694206814416
 30
0.0
 41
0.9999043296416276
 10
15845.016198359654
 20
4778.1579336955319
 30
0.0
 41
1.0
 10
15845.012006759964
 20
4778.1527665930125
 30
0.0
 41
1.0
 10
15845.007815160276
 20
4778.1475994904931
 30
0.0
 41
1.0
 10
15844.033429302244
 20
4776.946446709625
 30
0.0
 41
0.9995561938781231
 10
15842.989241053712
 20
4775.8054529739056
 30
0.0
 41
1.0
 10
15842.985145667439
 20
4775.8009779090989
 30
0.0
 41
1.0
 10
15842.981050281167
 20
4775.7965028442923
 30
0.0
 41
1.0
 10
15841.94505280518
 20
4774.6644592381854
 30
0.0
 41
0.9998749918701045
 10
15840.873779396972
 20
4773.5657387181063
 30
0.0
 41
1.0
 10
15840.869132829099
 20
4773.560973100447
 30
0.0
 41
1.0
 10
15840.864486261224
 20
4773.5562074827885
 30
0.0
 41
1.0
 10
15839.802505988764
 20
4772.4670181980255
 30
0.0
 41
0.9994231100173691
 10
15838.66903522656
 20
4771.4524348212826
 30
0.0
 41
1.0
 10
15838.665712235306
 20
4771.4494603716557
 30
0.0
 41
1.0
 10
15838.662389244055
 20
4771.4464859220298
 30
0.0
 41
1.0
 10
15837.535564464353
 20
4770.4378514445389
 30
0.0
 41
0.9998380095000889
 10
15836.373167340736
 20
4769.4704267599518
 30
0.0
 41
1.0
 10
15836.368813370405
 20
4769.4668030944358
 30
0.0
 41
1.0
 10
15836.364459400076
 20
4769.4631794289198
 30
0.0
 41
1.0
 10
15835.210770217118
 20
4768.5030020753638
 30
0.0
 41
0.9992624179791526
 10
15833.986794810702
 20
4767.6341962940487
 30
0.0
 41
1.0
 10
15833.985900887539
 20
4767.633561766911
 30
0.0
 41
1.0
 10
15833.985006964378
 20
4767.6329272397734
 30
0.0
 41
1.0
 10
15832.762819404286
 20
4766.7653905127336
 30
0.0
 41
0.9997948182800575
 10
15831.506495710086
 20
4765.9480697799781
 30
0.0
 41
1.0
 10
15830.250172015885
 20
4765.1307490472218
 30
0.0
 41
0.9990875463958017
 10
15828.928681072586
 20
4764.4236252309211
 30
0.0
 41
1.0
 10
15828.436666255735
 20
4764.160350331661
 30
0.0
 41
1.0
 10
15827.944651438884
 20
4763.8970754324018
 30
0.0
 41
1.0
 10
15827.177384314571
 20
4763.4865142705439
 30
0.0
 41
0.9994298855831633
 10
15826.384159106232
 20
4763.1286692251279
 30
0.0
 41
1.0
 10
15826.101144589933
 20
4763.0009938293215
 30
0.0
 41
1.0
 10
15825.818130073634
 20
4762.873318433516
 30
0.0
 41
1.0
 10
15825.590933897889
 20
4762.7708241797118
 30
0.0
 41
0.9999833054035129
 10
15825.362568425571
 20
4762.670962348222
 30
0.0
 41
1.0
 10
15822.970658443399
 20
4761.7510907532305
 30
0.0
 41
1.0
 10
15820.578748461228
 20
4760.831219158239
 30
0.0
 41
1.0
  0
SPLINE
  5
17D
100
AcDbEntity
  8
ADF70-0702
370
              15
390
0
  6
STYLE_12
 62
               7
100
AcDbSpline
210
0.0
220
0.0
230
1.0
 70
              12
 71
               2
 72
              54
 73
              51
 74
               0
 42
0.000001
 43
0.000001
 40
0.0
 40
0.0
 40
0.0
 40
1.0
 40
1.0
 40
2.0
 40
2.0
 40
3.0
 40
3.0
 40
4.0
 40
4.0
 40
5.0
 40
5.0
 40
6.0
 40
6.0
 40
7.0
 40
7.0
 40
8.0
 40
8.0
 40
9.0
 40
9.0
 40
10.0
 40
10.0
 40
11.0
 40
11.0
 40
12.0
 40
12.0
 40
13.0
 40
13.0
 40
14.0
 40
14.0
 40
15.0
 40
15.0
 40
16.0
 40
16.0
 40
17.0
 40
17.0
 40
18.0
 40
18.0
 40
19.0
 40
19.0
 40
20.0
 40
20.0
 40
21.0
 40
21.0
 40
22.0
 40
22.0
 40
23.0
 40
23.0
 40
24.0
 40
24.0
 40
25.0
 40
25.0
 40
25.0
 10
15872.127051732203
 20
4852.3447862416851
 30
0.0
 41
1.0
 10
15872.127051732203
 20
4852.2399312984016
 30
0.0
 41
1.0
 10
15872.127051732203
 20
4852.1350763551181
 30
0.0
 41
1.0
 10
15872.121541410064
 20
4852.1073022497258
 30
0.0
 41
1.0
 10
15872.116031087924
 20
4852.0795281443334
 30
0.0
 41
1.0
 10
15871.945657852739
 20
4851.2207826715776
 30
0.0
 41
0.9999880180892619
 10
15871.78370026566
 20
4850.3604103299567
 30
0.0
 41
1.0
 10
15871.767642228737
 20
4850.2751047195252
 30
0.0
 41
1.0
 10
15871.751584191814
 20
4850.1897991090937
 30
0.0
 41
1.0
 10
15871.621742678582
 20
4849.500037988335
 30
0.0
 41
0.9999918393517027
 10
15871.497478565474
 20
4848.8092502839982
 30
0.0
 41
1.0
 10
15871.373214452364
 20
4848.1184625796395
 30
0.0
 41
0.9999988378099135
 10
15871.251057252739
 20
4847.4272991830048
 30
0.0
 41
1.0
 10
15871.250891302918
 20
4847.4263602416868
 30
0.0
 41
1.0
 10
15871.250725353097
 20
4847.4254213003696
 30
0.0
 41
1.0
 10
15871.128236253826
 20
4846.7323800210679
 30
0.0
 41
0.9999982474016766
 10
15871.008343054822
 20
4846.03888494894
 30
0.0
 41
1.0
 10
15870.988226953143
 20
4845.9225279119973
 30
0.0
 41
1.0
 10
15870.968110851463
 20
4845.8061708750547
 30
0.0
 41
1.0
 10
15870.807985449097
 20
4844.8799617290297
 30
0.0
 41
1.0
 10
15870.648280879779
 20
4843.9519314320587
 30
0.0
 41
1.0
 10
15870.628381996486
 20
4843.8363006354557
 30
0.0
 41
1.0
 10
15870.608483113194
 20
4843.7206698388536
 30
0.0
 41
1.0
 10
15870.488576310463
 20
4843.0239011351068
 30
0.0
 41
0.9999993297776372
 10
15870.367056410856
 20
4842.3274119522321
 30
0.0
 41
1.0
 10
15870.245536511255
 20
4841.6309227693773
 30
0.0
 41
1.0
 10
15870.122425253663
 20
4840.9340363846522
 30
0.0
 41
1.0
 10
15869.999295404397
 20
4840.2370487145554
 30
0.0
 41
0.9999944212161264
 10
15869.87151204496
 20
4839.5408991723652
 30
0.0
 41
1.0
 10
15869.74369218703
 20
4838.8445531089092
 30
0.0
 41
0.9999976684150187
 10
15869.612866098252
 20
4838.1487655762176
 30
0.0
 41
1.0
 10
15869.482022753098
 20
4837.4528860673681
 30
0.0
 41
0.999984613142394
 10
15869.343466956621
 20
4836.7585010422745
 30
0.0
 41
1.0
 10
15869.204927368921
 20
4836.0641946793667
 30
0.0
 41
0.9999946673230813
 10
15869.061855855653
 20
4835.3708080015231
 30
0.0
 41
1.0
 10
15868.918815368328
 20
4834.6775662161253
 30
0.0
 41
0.99996982518653
 10
15868.765021651123
 20
4833.9866304401075
 30
0.0
 41
1.0
 10
15868.611278908833
 20
4833.2959173353092
 30
0.0
 41
0.9999904044954789
 10
15868.451490451249
 20
4832.6065777435424
 30
0.0
 41
1.0
 10
15868.291757969049
 20
4831.9174722410953
 30
0.0
 41
0.9999499679261479
 10
15868.118271785415
 20
4831.2317001189867
 30
0.0
 41
1.0
 10
15868.089346395762
 20
4831.1173611818413
 30
0.0
 41
1.0
 10
15868.060421006106
 20
4831.0030222446958
 30
0.0
 41
1.0
 10
15867.944806069861
 20
4830.546008904982
 30
0.0
 41
0.9999844200462364
 10
15867.824096244223
 20
4830.0903147705521
 30
0.0
 41
1.0
 10
15867.703386418587
 20
4829.6346206361304
 30
0.0
 41
0.9999819275812467
 10
15867.577206123766
 20
4829.1804108395017
 30
0.0
 41
1.0
 10
15867.561451705491
 20
4829.1236998361619
 30
0.0
 41
1.0
 10
15867.545697287216
 20
4829.066988832823
 30
0.0
 41
1.0
 10
15867.545697287216
 20
4828.9621338895404
 30
0.0
 41
1.0
 10
15867.545697287216
 20
4828.8572789462569
 30
0.0
 41
1.0
  0
SPLINE
  5
17E
100
AcDbEntity
  8
ADF70-0702
370
              15
390
0
  6
Continuous
 62
               7
100
AcDbSpline
210
0.0
220
0.0
230
1.0
 70
              12
 71
               2
 72
              64
 73
              61
 74
               0
 42
0.000001
 43
0.000001
 40
0.0
 40
0.0
 40
0.0
 40
1.0
 40
1.0
 40
2.0
 40
2.0
 40
3.0
 40
3.0
 40
4.0
 40
4.0
 40
5.0
 40
5.0
 40
6.0
 40
6.0
 40
7.0
 40
7.0
 40
8.0
 40
8.0
 40
9.0
 40
9.0
 40
10.0
 40
10.0
 40
11.0
 40
11.0
 40
12.0
 40
12.0
 40
13.0
 40
13.0
 40
14.0
 40
14.0
 40
15.0
 40
15.0
 40
16.0
 40
16.0
 40
17.0
 40
17.0
 40
18.0
 40
18.0
 40
19.0
 40
19.0
 40
20.0
 40
20.0
 40
21.0
 40
21.0
 40
22.0
 40
22.0
 40
23.0
 40
23.0
 40
24.0
 40
24.0
 40
25.0
 40
25.0
 40
26.0
 40
26.0
 40
27.0
 40
27.0
 40
28.0
 40
28.0
 40
29.0
 40
29.0
 40
30.0
 40
30.0
 40
30.0
 10
15553.489010624429
 20
4875.6225836505446
 30
0.0
 41
1.0
 10
15551.303188345219
 20
4875.4169066464128
 30
0.0
 41
1.0
 10
15549.117366066008
 20
4875.2112296422802
 30
0.0
 41
1.0
 10
15549.025601201562
 20
4875.1992755986357
 30
0.0
 41
1.0
 10
15548.704993474472
 20
4875.1551413022407
 30
0.0
 41
1.0
 10
15548.38438574738
 20
4875.1110070058448
 30
0.0
 41
0.9997693083294473
 10
15548.065969280447
 20
4875.0531441993617
 30
0.0
 41
1.0
 10
15547.907122740731
 20
4875.0242785232977
 30
0.0
 41
1.0
 10
15547.748276201015
 20
4874.9954128472327
 30
0.0
 41
1.0
 10
15547.11216665465
 20
4874.8798186886206
 30
0.0
 41
0.999603969145596
 10
15546.483567833468
 20
4874.728620519013
 30
0.0
 41
1.0
 10
15546.438821522339
 20
4874.7178575966027
 30
0.0
 41
1.0
 10
15546.394075211208
 20
4874.7070946741924
 30
0.0
 41
1.0
 10
15545.677547536563
 20
4874.5347467962947
 30
0.0
 41
0.9996190501870752
 10
15544.971621442626
 20
4874.3231243744021
 30
0.0
 41
1.0
 10
15544.26587805051
 20
4874.1115567228353
 30
0.0
 41
0.9996332133325359
 10
15543.572625076564
 20
4873.8620874445305
 30
0.0
 41
1.0
 10
15542.879590044542
 20
4873.6126856183737
 30
0.0
 41
0.9996457168536701
 10
15542.200808690206
 20
4873.3267578311561
 30
0.0
 41
1.0
 10
15541.522004479326
 20
4873.0408182531219
 30
0.0
 41
0.9996567851456792
 10
15540.859108705203
 20
4872.7197173474224
 30
0.0
 41
1.0
 10
15540.196048391104
 20
4872.3985404094565
 30
0.0
 41
0.9996662702127585
 10
15539.550461504572
 20
4872.0435457932272
 30
0.0
 41
1.0
 10
15538.904648306305
 20
4871.6884337055562
 30
0.0
 41
0.9996740627106563
 10
15538.277802887927
 20
4871.3008203630006
 30
0.0
 41
1.0
 10
15537.650732701295
 20
4870.9130762446011
 30
0.0
 41
0.9996801125422233
 10
15537.044071933928
 20
4870.4941189273804
 30
0.0
 41
1.0
 10
15536.437225139343
 20
4870.0750407209316
 30
0.0
 41
0.9996843221408549
 10
15535.852196368915
 20
4869.626007411488
 30
0.0
 41
1.0
 10
15535.267051288527
 20
4869.1768910731553
 30
0.0
 41
0.9996867647074647
 10
15534.705112663321
 20
4868.6990571773686
 30
0.0
 41
1.0
 10
15534.143148871073
 20
4868.221204794374
 30
0.0
 41
0.9996873302147177
 10
15533.605777574041
 20
4867.7158551205257
 30
0.0
 41
1.0
 10
15533.068459161404
 20
4867.2105542775516
 30
0.0
 41
0.9996860391871674
 10
15532.557129517947
 20
4866.6789698400544
 30
0.0
 41
1.0
 10
15532.04591283168
 20
4866.1474985822142
 30
0.0
 41
0.9996829048676497
 10
15531.562102074764
 20
4865.5909634532954
 30
0.0
 41
1.0
 10
15531.078443791876
 20
4865.0345959605138
 30
0.0
 41
0.9996779268561697
 10
15530.62363838829
 20
4864.4544044692811
 30
0.0
 41
1.0
 10
15530.168992491303
 20
4863.8744061331863
 30
0.0
 41
0.9996711239602436
 10
15529.744682415978
 20
4863.2718599345471
 30
0.0
 41
1.0
 10
15529.320502152103
 20
4862.6694869453322
 30
0.0
 41
0.9996625330476183
 10
15528.928179863029
 20
4862.0458962655657
 30
0.0
 41
1.0
 10
15528.535919465694
 20
4861.4223950363503
 30
0.0
 41
0.9996522166381198
 10
15528.177078306328
 20
4860.7790793871591
 30
0.0
 41
1.0
 10
15527.818194971107
 20
4860.135686256418
 30
0.0
 41
0.9996402734267469
 10
15527.494327407303
 20
4859.473975012671
 30
0.0
 41
1.0
 10
15527.170283546558
 20
4858.8119164364107
 30
0.0
 41
0.9996268521223037
 10
15526.882879170391
 20
4858.1331493875277
 30
0.0
 41
1.0
 10
15526.847026317068
 20
4858.0484801508846
 30
0.0
 41
1.0
 10
15526.811173463746
 20
4857.9638109142415
 30
0.0
 41
1.0
 10
15526.595349874342
 20
4857.4541271130738
 30
0.0
 41
0.9996122275770738
 10
15526.408235189163
 20
4856.933218778041
 30
0.0
 41
1.0
 10
15526.353691410945
 20
4856.7813744229561
 30
0.0
 41
1.0
 10
15526.299147632726
 20
4856.6295300678712
 30
0.0
 41
1.0
 10
15526.221120503984
 20
4856.4123104430109
 30
0.0
 41
0.9999001022600544
 10
15526.149264542431
 20
4856.1929720764783
 30
0.0
 41
1.0
 10
15526.077408580879
 20
4855.9736337099475
 30
0.0
 41
1.0
 10
15526.049278543715
 20
4855.8856570187081
 30
0.0
 41
1.0
 10
15525.529036709733
 20
4853.6998347394974
 30
0.0
 41
1.0
 10
15525.008794875752
 20
4851.5140124602876
 30
0.0
 41
1.0
  0
LINE
  5
17F
100
AcDbEntity
  8
ADF70-0702
370
              15
390
0
  6
Continuous
 62
               7
100
AcDbLine
 10
14258.800147703594
 20
4845.6225836505446
 30
0.0
 11
15248.189301454457
 21
4845.6225836505446
 31
0.0
  0
LINE
  5
180
100
AcDbEntity
  8
ADF70-0702
370
              15
390
0
  6
Continuous
 62
               7
100
AcDbLine
 10
14719.419847781626
 20
4705.5736113761095
 30
0.0
 11
14787.373916793982
 21
4705.5736113761095
 31
0.0
  0
LWPOLYLINE
  5
181
100
AcDbEntity
  8
ADF70-0702
370
              15
390
0
  6
Continuous
 62
               7
100
AcDbPolyline
 90
       45
 70
             128
 10
14676.380926446325
 20
4725.7606724043117
 10
14675.767928316363
 20
4725.7606724043117
 10
14653.0950632726
 20
4727.4222199671067
 42
-0.0011779711083835
 10
14651.121820302775
 20
4727.635825252125
 10
14648.658456494131
 20
4727.9083596046703
 42
-0.0072533434015148
 10
14641.771512485742
 20
4728.7715944438769
 10
14638.342318502197
 20
4729.2520447233846
 42
-0.0099715818765519
 10
14624.653330871979
 20
4731.4491209876851
 10
14623.678564555716
 20
4731.6255772633194
 42
-0.0103110313718512
 10
14608.206744989448
 20
4734.7571371572922
 10
14608.195649501671
 20
4734.7596221392059
 42
-0.0106567986138821
 10
14592.891009288713
 20
4738.5315408152665
 42
-0.0110123281085404
 10
14577.770637790716
 20
4742.9607568977426
 42
-0.0113583139322044
 10
14562.870374697024
 20
4748.0594157080568
 42
-0.0116966292171853
 10
14548.214982029976
 20
4753.8421507759322
 42
-0.0120332477405017
 10
14533.844055052037
 20
4760.3164907295095
 10
14533.829244725133
 20
4760.3235965658196
 42
-0.0123453630949932
 10
14519.761886349772
 20
4767.5054423666325
 10
14516.698001839255
 20
4769.1662549557232
 42
-0.0126311448204367
 10
14508.952749625951
 20
4773.6213655718548
 10
14505.986389070971
 20
4775.4288498441674
 42
-0.0016061835966351
 10
14504.289767224065
 20
4776.470136129019
 10
14465.622490447186
 20
4799.9495776595786
 10
14455.63707354068
 20
4805.3617058859627
 42
0.0009109856768537
 10
14454.702063570296
 20
4805.8279859768709
 10
14453.09294000595
 20
4806.626782188062
 42
0.0082075438195075
 10
14448.906108707743
 20
4808.620219305838
 10
14447.23404780033
 20
4809.3829119932552
 42
0.0087378349897854
 10
14439.969606994513
 20
4812.5443454696624
 42
0.0091019655711456
 10
14432.597113415928
 20
4815.444598797576
 10
14430.823861016142
 20
4816.105162025533
 42
0.0186565668204754
 10
14419.861369803317
 20
4819.7292761425379
 10
14418.021250209966
 20
4820.2623428991901
 42
0.0091501558807296
 10
14410.566894057834
 20
4822.2747077143385
 42
0.0087640419167527
 10
14403.045135116246
 20
4824.0187919167402
 10
14402.999488688767
 20
4824.0285362759678
 42
0.0082211776448429
 10
14395.331106379188
 20
4825.5341622592696
 10
14394.842123585815
 20
4825.6218464838139
 42
0.0075316459460475
 10
14387.816045934182
 20
4826.772809330605
 10
14386.082678423332
 20
4827.0300110603539
 42
0.0051367770978929
 10
14382.500923081026
 20
4827.5239302565669
 10
14381.224901759944
 20
4827.6865518496897
 42
0.0007894990914704
 10
14380.189908966016
 20
4827.8167952782933
 10
14357.742885338554
 20
4829.8896968493536
 10
14335.287795946224
 20
4830.5107607441842
  0
LWPOLYLINE
  5
182
100
AcDbEntity
  8
ADF70-0702
370
              15
390
0
  6
Continuous
 62
               7
100
AcDbPolyline
 90
        5
 70
             128
 10
14323.027833346963
 20
4845.488886103939
 10
14330.085377606405
 20
4833.632211748075
 10
14331.351702690672
 20
4831.9706641852808
 10
14333.214894375164
 20
4830.9301805173172
 10
14335.287795946224
 20
4830.5107607441842
  0
LINE
  5
183
100
AcDbEntity
  8
ADF70-0702
370
              15
390
0
  6
Continuous
 62
               7
100
AcDbLine
 10
14719.419847781626
 20
4705.5736113761095
 30
0.0
 11
14718.379364113664
 21
4727.8335739753711
 31
0.0
  0
LINE
  5
184
100
AcDbEntity
  8
ADF70-0702
370
              15
390
0
  6
Continuous
 62
               7
100
AcDbLine
 10
14677.219765992591
 20
4725.7606724043117
 30
0.0
 11
14676.372860681457
 21
4725.7606724043117
 31
0.0
  0
LWPOLYLINE
  5
185
100
AcDbEntity
  8
ADF70-0702
370
              15
390
0
  6
Continuous
 62
               7
100
AcDbPolyline
 90
       15
 70
             128
 10
14753.489638583787
 20
4728.4627036350694
 10
14738.737354640332
 20
4728.2529937485033
 10
14738.515672863816
 20
4728.2463529348697
 42
-0.0001206731061969
 10
14731.758456867305
 20
4728.0455625675231
 42
0.0000911161486666
 10
14725.001228928328
 20
4727.8451716435029
 10
14724.771071550822
 20
4727.8383041657244
 42
0.0003265331500222
 10
14717.550375141947
 20
4727.6181318258868
 42
0.0005619496771364
 10
14710.325423587081
 20
4727.3849829622795
 42
0.0007980154999407
 10
14703.100467329967
 20
4727.1321633188463
 42
0.0010353977084147
 10
14695.879756574133
 20
4726.8529771115864
 42
0.0012542856866057
 10
14688.663014153033
 20
4726.5408299297051
 10
14687.768630614852
 20
4726.4998969124426
 42
0.002387275344284
 10
14678.766077074191
 20
4726.0447965609374
 10
14677.42141011429
 20
4725.9703822908778
 10
14677.211700227723
 20
4725.7606724043117
  0
LWPOLYLINE
  5
186
100
AcDbEntity
  8
ADF70-0702
370
              15
390
0
  6
Continuous
 62
               7
100
AcDbPolyline
 90
        5
 70
             128
 10
15253.389613568661
 20
4870.4282310755943
 10
15253.187969446963
 20
4872.5011326466538
 10
15251.937775892433
 20
4874.1707459743166
 10
15250.268162564769
 20
4875.2031638774124
 10
15248.404970880278
 20
4875.6225836505446
  0
LINE
  5
187
100
AcDbEntity
  8
ADF70-0702
370
              15
390
0
  6
Continuous
 62
               7
100
AcDbLine
 10
15253.389613568661
 20
4870.4282310755943
 30
0.0
 11
15253.189046397962
 21
4850.5720811763676
 31
0.0
  0
LWPOLYLINE
  5
188
100
AcDbEntity
  8
ADF70-0702
370
              15
390
0
  6
Continuous
 62
               7
100
AcDbPolyline
 90
       45
 70
             128
 10
14830.404772364414
 20
4725.7606724043117
 10
14831.025836259243
 20
4725.7606724043117
 10
14853.69063553814
 20
4727.4222199671067
 42
0.0011780997943461
 10
14855.663582725396
 20
4727.6358257693901
 10
14858.126615789641
 20
4727.9083648106707
 42
0.0072536043910836
 10
14865.012602028424
 20
4728.7715990556599
 10
14868.441454016798
 20
4729.252062956718
 42
0.0099710996948297
 10
14882.128802153878
 20
4731.4491096665697
 10
14883.103374853094
 20
4731.6255466676612
 42
0.0103094488945277
 10
14898.574568123848
 20
4734.757181241117
 10
14898.585279538847
 20
4734.7595803099321
 42
0.0106538958353392
 10
14913.8900897647
 20
4738.5315983343326
 42
0.010998942834303
 10
14929.011103071814
 20
4742.9608289169291
 42
0.0113518016849669
 10
14943.912960167019
 20
4748.0595027384798
 42
0.0116995228474104
 10
14958.570995433913
 20
4753.8422526297436
 42
0.0120228802848042
 10
14972.945252622241
 20
4760.3163890985106
 10
14972.960520475563
 20
4760.3237122110595
 42
0.0123326854772752
 10
14987.032451190124
 20
4767.5053270107574
 10
14990.097888829157
 20
4769.1663074183743
 42
0.0126159985929907
 10
14997.84675841567
 20
4773.6214337968304
 10
15000.814553303097
 20
4775.4288539272766
 42
0.0016039642381448
 10
15002.51206311641
 20
4776.470136129019
 10
15041.171274128423
 20
4799.9495776595786
 10
15051.140559505191
 20
4805.3617058859627
 42
-0.0009119599044357
 10
15052.075879855223
 20
4805.8279877556806
 10
15053.685587851074
 20
4806.6268073325155
 42
-0.0082109485235113
 10
15057.87391276686
 20
4808.6202375271432
 10
15059.546548180315
 20
4809.3828961023019
 42
-0.0087378574438812
 10
15066.813974315475
 20
4812.5443614533997
 42
-0.0090992764995759
 10
15074.189437683332
 20
4815.444579764785
 10
15075.963549928763
 20
4816.1051887239246
 42
-0.0186440913649484
 10
15086.929860530237
 20
4819.7292155920368
 10
15088.770951502591
 20
4820.2623920718506
 42
-0.0091423499628072
 10
15096.227057423894
 20
4822.2746659426484
 42
-0.0087565462050364
 10
15103.750508236664
 20
4824.0188267650856
 10
15103.795779821727
 20
4824.0284899296885
 42
-0.0082145396971724
 10
15111.465060902146
 20
4825.5342003577398
 10
15111.953994625894
 20
4825.621876651956
 42
-0.007526392190219
 10
15118.979127334729
 20
4826.7727729173148
 10
15120.712407979367
 20
4827.0300020322966
 42
-0.0051338861309906
 10
15124.293376111014
 20
4827.5239167348091
 10
15125.56914185307
 20
4827.6865502242517
 42
-0.0007891719710826
 10
15126.603855609592
 20
4827.8167952782933
 10
15149.050879237053
 20
4829.8896968493536
 10
15171.505968629383
 20
4830.5107607441842
  0
LINE
  5
189
100
AcDbEntity
  8
ADF70-0702
370
              15
390
0
  6
Continuous
 62
               7
100
AcDbLine
 10
15183.757865463776
 20
4845.488886103939
 30
0.0
 11
15176.692255439468
 21
4833.632211748075
 31
0.0
  0
LWPOLYLINE
  5
18A
100
AcDbEntity
  8
ADF70-0702
370
              15
390
0
  6
Continuous
 62
               7
100
AcDbPolyline
 90
        4
 70
             128
 10
15171.505968629383
 20
4830.5107607441842
 10
15173.578870200445
 20
4830.9301805173172
 10
15175.442061884936
 20
4831.9706641852808
 10
15176.700321204336
 20
4833.632211748075
  0
LINE
  5
18B
100
AcDbEntity
  8
ADF70-0702
370
              15
390
0
  6
Continuous
 62
               7
100
AcDbLine
 10
14787.373916793982
 20
4705.5736113761095
 30
0.0
 11
14788.414400461943
 21
4727.8335739753711
 31
0.0
  0
LINE
  5
18C
100
AcDbEntity
  8
ADF70-0702
370
              15
390
0
  6
Continuous
 62
               7
100
AcDbLine
 10
14829.573998583017
 20
4725.7606724043117
 30
0.0
 11
14830.396706599546
 21
4725.7606724043117
 31
0.0
  0
LWPOLYLINE
  5
18D
100
AcDbEntity
  8
ADF70-0702
370
              15
390
0
  6
Continuous
 62
               7
100
AcDbPolyline
 90
       15
 70
             128
 10
14753.489638583787
 20
4728.4627036350694
 10
14768.048344170409
 20
4728.2529937485033
 10
14769.395443136547
 20
4728.212793368577
 42
0.0000742418570626
 10
14778.406821855788
 20
4727.9452133438808
 10
14779.302776205641
 20
4727.9187424100392
 42
-0.0002526819491784
 10
14786.522176318658
 20
4727.7017938715926
 42
-0.0004734098801601
 10
14793.743409786106
 20
4727.4742896548478
 42
-0.0007085183025532
 10
14800.96675865904
 20
4727.2296241096974
 42
-0.000944857279148
 10
14808.188681883705
 20
4726.9610997198515
 42
-0.0011818909023289
 10
14815.405638235728
 20
4726.6620278377259
 10
14815.634668272238
 20
4726.651994433967
 42
-0.0014244269116965
 10
14822.38929780577
 20
4726.3368036460324
 42
-0.0014572488377384
 10
14829.141997336794
 20
4725.9826890980012
 10
14829.36428869645
 20
4725.9703822908778
 10
14829.573998583017
 20
4725.7606724043117
  0
CIRCLE
  5
18E
100
AcDbEntity
  8
ADF70-0702
370
              15
390
0
  6
STYLE_12
 62
               7
100
AcDbCircle
 10
14753.392849405371
 20
5911.321379605969
 30
0.0
 40
17.5
  0
CIRCLE
  5
18F
100
AcDbEntity
  8
ADF70-0702
370
              15
390
0
  6
STYLE_12
 62
               7
100
AcDbCircle
 10
14893.392849405371
 20
5911.321379605969
 30
0.0
 40
17.5
  0
CIRCLE
  5
190
100
AcDbEntity
  8
ADF70-0702
370
              15
390
0
  6
STYLE_12
 62
               7
100
AcDbCircle
 10
14613.392849405371
 20
5911.321379605969
 30
0.0
 40
17.5
  0
CIRCLE
  5
191
100
AcDbEntity
  8
ADF70-0702
370
              15
390
0
  6
Continuous
 62
               7
100
AcDbCircle
 10
14753.392849405371
 20
5746.321379605969
 30
0.0
 40
23.600000000000023
  0
CIRCLE
  5
192
100
AcDbEntity
  8
ADF70-0702
370
              15
390
0
  6
Continuous
 62
               7
100
AcDbCircle
 10
14753.392849405371
 20
5746.321379605969
 30
0.0
 40
35.650000000000091
  0
ARC
  5
193
100
AcDbEntity
  8
ADF70-0702
370
              15
390
0
  6
Continuous
 62
               7
100
AcDbCircle
 10
14938.392849405371
 20
5701.321379605969
 30
0.0
 40
140.00000000000006
100
AcDbArc
 50
270.0
 51
90.0
  0
ARC
  5
194
100
AcDbEntity
  8
ADF70-0702
370
              15
390
0
  6
Continuous
 62
               7
100
AcDbCircle
 10
14568.392849405371
 20
5701.321379605969
 30
0.0
 40
140.0
100
AcDbArc
 50
90.0
 51
270.0
  0
LINE
  5
195
100
AcDbEntity
  8
ADF70-0702
370
              15
390
0
  6
Continuous
 62
               7
100
AcDbLine
 10
14259.396085242079
 20
5491.321379605969
 30
0.0
 11
15247.389613568663
 21
5491.321379605969
 31
0.0
  0
LINE
  5
196
100
AcDbEntity
  8
ADF70-0702
370
              15
390
0
  6
Continuous
 62
               7
100
AcDbLine
 10
15253.389613568663
 20
5968.321379605969
 30
0.0
 11
15253.389613568663
 21
5497.321379605969
 31
0.0
  0
ARC
  5
197
100
AcDbEntity
  8
ADF70-0702
370
              15
390
0
  6
Continuous
 62
               7
100
AcDbCircle
 10
15247.389613568663
 20
5497.321379605969
 30
0.0
 40
6.0
100
AcDbArc
 50
270.0
 51
0.0
  0
LINE
  5
198
100
AcDbEntity
  8
ADF70-0702
370
              15
390
0
  6
Continuous
 62
               7
100
AcDbLine
 10
14253.396085242079
 20
5968.321379605969
 30
0.0
 11
14253.396085242079
 21
5497.321379605969
 31
0.0
  0
ARC
  5
199
100
AcDbEntity
  8
ADF70-0702
370
              15
390
0
  6
Continuous
 62
               7
100
AcDbCircle
 10
14259.396085242079
 20
5497.321379605969
 30
0.0
 40
6.0
100
AcDbArc
 50
180.0
 51
270.0
  0
ARC
  5
19A
100
AcDbEntity
  8
ADF70-0702
370
              15
390
0
  6
Continuous
 62
               7
100
AcDbCircle
 10
14256.396085242079
 20
5968.321379605969
 30
0.0
 40
3.0
100
AcDbArc
 50
90.0
 51
180.0
  0
ARC
  5
19B
100
AcDbEntity
  8
ADF70-0702
370
              15
390
0
  6
Continuous
 62
               7
100
AcDbCircle
 10
15250.389613568663
 20
5968.321379605969
 30
0.0
 40
3.0
100
AcDbArc
 50
0.0
 51
90.0
  0
ARC
  5
19C
100
AcDbEntity
  8
ADF70-0702
370
              15
390
0
  6
Continuous
 62
               7
100
AcDbCircle
 10
15248.189301454457
 20
4850.6225836505446
 30
0.0
 40
4.9999999999997726
100
AcDbArc
 50
270.0
 51
359.42127443439608
  0
LWPOLYLINE
  5
19D
100
AcDbEntity
  8
ADF70-0702
370
              15
390
0
  6
Continuous
 62
               7
100
AcDbPolyline
 90
        5
 70
             128
 10
14253.396085242081
 20
4870.4282310755943
 10
14253.597729363779
 20
4872.5011326466538
 10
14254.847922918309
 20
4874.1707459743166
 10
14256.517536245972
 20
4875.2031638774124
 10
14258.380727930464
 20
4875.6225836505446
  0
LINE
  5
19E
100
AcDbEntity
  8
ADF70-0702
370
              15
390
0
  6
Continuous
 62
               7
100
AcDbLine
 10
14253.396085242081
 20
4870.4282310755943
 30
0.0
 11
14253.59665241278
 21
4850.5720811763676
 31
0.0
  0
ARC
  5
19F
100
AcDbEntity
  8
ADF70-0702
370
              15
390
0
  6
Continuous
 62
               7
100
AcDbCircle
 10
14258.596397356285
 20
4850.6225836505446
 30
0.0
 40
4.9999999999999414
100
AcDbArc
 50
180.57872556560395
 51
270.0
  0
LINE
  5
1A0
100
AcDbEntity
  8
ADF70-0702
370
              15
390
0
  6
Continuous
 62
               7
100
AcDbLine
 10
14258.380727930464
 20
4875.6225836505446
 30
0.0
 11
15248.404970880278
 21
4875.6225836505446
 31
0.0
  0
CIRCLE
  5
1A1
100
AcDbEntity
  8
ADF70-0702
370
              15
390
0
  6
STYLE_12
 62
               7
100
AcDbCircle
 10
14893.392849405371
 20
4830.6225836505446
 30
0.0
 40
10.0
  0
LINE
  5
1A2
100
AcDbEntity
  8
ADF70-0702
370
              15
390
0
  6
STYLE_12
 62
               7
100
AcDbLine
 10
14873.392849405371
 20
4830.6225836505446
 30
0.0
 11
14913.392849405371
 21
4830.6225836505446
 31
0.0
  0
LINE
  5
1A3
100
AcDbEntity
  8
ADF70-0702
370
              15
390
0
  6
STYLE_12
 62
               7
100
AcDbLine
 10
14893.392849405371
 20
4810.6225836505446
 30
0.0
 11
14893.392849405371
 21
4850.6225836505446
 31
0.0
  0
CIRCLE
  5
1A4
100
AcDbEntity
  8
ADF70-0702
370
              15
390
0
  6
STYLE_12
 62
               7
100
AcDbCircle
 10
14613.392849405371
 20
4830.6225836505446
 30
0.0
 40
10.0
  0
LINE
  5
1A5
100
AcDbEntity
  8
ADF70-0702
370
              15
390
0
  6
STYLE_12
 62
               7
100
AcDbLine
 10
14593.392849405371
 20
4830.6225836505446
 30
0.0
 11
14633.392849405371
 21
4830.6225836505446
 31
0.0
  0
LINE
  5
1A6
100
AcDbEntity
  8
ADF70-0702
370
              15
390
0
  6
STYLE_12
 62
               7
100
AcDbLine
 10
14613.392849405371
 20
4810.6225836505446
 30
0.0
 11
14613.392849405371
 21
4850.6225836505446
 31
0.0
  0
LINE
  5
1A7
100
AcDbEntity
  8
ADF70-0702
370
              15
390
0
  6
Continuous
 62
               7
100
AcDbLine
 10
15744.0911002186
 20
4730.2884105618396
 30
0.0
 11
15745.131583886563
 21
4715.7913870275434
 31
0.0
  0
LINE
  5
1A8
100
AcDbEntity
  8
ADF70-0702
370
              15
390
0
  6
Continuous
 62
               7
100
AcDbLine
 10
15816.844299327375
 20
4721.3970936107589
 30
0.0
 11
15832.690996027524
 21
4728.6852196779109
 31
0.0
  0
LINE
  5
1A9
100
AcDbEntity
  8
ADF70-0702
370
              15
390
0
  6
Continuous
 62
               7
100
AcDbLine
 10
15961.570511375327
 20
4875.6225836505446
 30
0.0
 11
15961.570511375327
 21
4860.6225836505446
 31
0.0
  0
LINE
  5
1AA
100
AcDbEntity
  8
ADF70-0702
370
              15
390
0
  6
Continuous
 62
               7
100
AcDbLine
 10
15926.570511375327
 20
4875.6225836505446
 30
0.0
 11
15926.570511375327
 21
4860.6225836505446
 31
0.0
  0
LINE
  5
1AB
100
AcDbEntity
  8
ADF70-0702
370
              15
390
0
  6
STYLE_12
 62
               7
100
AcDbLine
 10
15802.083949619053
 20
4715.5816771409773
 30
0.0
 11
15802.713079278752
 21
4747.7404827775808
 31
0.0
  0
LWPOLYLINE
  5
1AC
100
AcDbEntity
  8
ADF70-0702
370
              15
390
0
  6
Continuous
 62
               7
100
AcDbPolyline
 90
        3
 70
             128
 10
14717.951878575663
 20
4753.7907537566252
 10
14714.612651920337
 20
4755.8636553276838
 10
14710.878202786484
 20
4757.1138488822135
  0
LWPOLYLINE
  5
1AD
100
AcDbEntity
  8
ADF70-0702
370
              15
390
0
  6
Continuous
 62
               7
100
AcDbPolyline
 90
        3
 70
             128
 10
14794.858946591423
 20
4757.1138488822135
 10
14791.9472054741
 20
4755.8717210925524
 10
14789.245174243342
 20
4754.2101735297583
  0
LINE
  5
1AE
100
AcDbEntity
  8
ADF70-0702
370
              15
390
0
  6
STYLE_12
 62
               7
100
AcDbLine
 10
14729.80048716666
 20
4744.0231125015562
 30
0.0
 11
14776.993277408947
 21
4744.0231125015562
 31
0.0
  0
LINE
  5
1AF
100
AcDbEntity
  8
ADF70-0702
370
              15
390
0
  6
STYLE_12
 62
               7
100
AcDbLine
 10
14729.80048716666
 20
4744.0231125015562
 30
0.0
 11
14717.943812810796
 21
4753.798819521493
 31
0.0
  0
LINE
  5
1B0
100
AcDbEntity
  8
ADF70-0702
370
              15
390
0
  6
STYLE_12
 62
               7
100
AcDbLine
 10
14789.245174243342
 20
4754.2101735297583
 30
0.0
 11
14776.98521164408
 21
4744.0231125015562
 31
0.0
  0
LINE
  5
1B1
100
AcDbEntity
  8
ADF70-0702
370
              15
390
0
  6
STYLE_12
 62
               7
100
AcDbLine
 10
14730.429616826359
 20
4705.5736113761095
 30
0.0
 11
14729.80048716666
 21
4744.0150467366884
 31
0.0
  0
LWPOLYLINE
  5
1B2
100
AcDbEntity
  8
ADF70-0702
370
              15
390
0
  6
STYLE_12
 62
               7
100
AcDbPolyline
 90
        9
 70
             128
 10
14710.886268551352
 20
4757.1138488822135
 10
14711.708976567883
 20
4757.1138488822135
 10
14712.670916102104
 20
4757.1043888395334
 42
0.0012553447329476
 10
14733.618431432553
 20
4756.9509803795836
 42
0.0012331391823251
 10
14754.566453147181
 20
4756.901828439889
 10
14759.005092470659
 20
4756.9023606558958
 42
0.0025509238193769
 10
14788.829719498499
 20
4757.0580985726401
 10
14794.229816931726
 20
4757.1138488822135
 10
14794.858946591423
 20
4757.1138488822135
  0
LINE
  5
1B3
100
AcDbEntity
  8
ADF70-0702
370
              15
390
0
  6
STYLE_12
 62
               7
100
AcDbLine
 10
14776.364147749249
 20
4705.5736113761095
 30
0.0
 11
14776.993277408947
 21
4744.0150467366884
 31
0.0
  0
SPLINE
  5
1B4
100
AcDbEntity
  8
ADF70-0702
370
              15
390
0
  6
STYLE_12
 62
               7
100
AcDbSpline
210
0.0
220
0.0
230
1.0
 70
               8
 71
               2
 72
               6
 73
               3
 74
               0
 42
0.000001
 43
0.000001
 40
0.0
 40
0.0
 40
0.0
 40
1.0
 40
1.0
 40
1.0
 10
14636.0
 20
4808.0
 30
0.0
 10
14593.514908327697
 20
4866.2858422888703
 30
0.0
 10
14428.717994019584
 20
4875.6225836505446
 30
0.0
  0
SPLINE
  5
1B5
100
AcDbEntity
  8
ADF70-0702
370
              15
390
0
  6
STYLE_12
 62
               7
100
AcDbSpline
210
0.0
220
0.0
230
1.0
 70
               8
 71
               2
 72
               6
 73
               3
 74
               0
 42
0.000001
 43
0.000001
 40
0.0
 40
0.0
 40
0.0
 40
1.0
 40
1.0
 40
1.0
 10
14636.0
 20
4808.0
 30
0.0
 10
14665.618060136891
 20
4761.3882725415824
 30
0.0
 10
14712.800094105252
 20
4757.3111551437632
 30
0.0
  0
LWPOLYLINE
  5
1B6
100
AcDbEntity
  8
ADF70-0702
370
              15
390
0
  6
STYLE_12
 62
               7
100
AcDbPolyline
 90
        9
 70
             128
 10
15736.606070421156
 20
4760.831219158239
 10
15737.428778437688
 20
4760.831219158239
 10
15738.390717971884
 20
4760.821759115559
 42
0.001255344732931
 10
15759.338233302358
 20
4760.6683506556092
 42
0.0012331391823194
 10
15780.286255016992
 20
4760.6191987159136
 10
15784.724894340463
 20
4760.6197309319205
 42
0.0025509238193769
 10
15814.549521368308
 20
4760.7754688486657
 10
15819.949618801529
 20
4760.831219158239
 10
15820.578748461228
 20
4760.831219158239
  0
SPLINE
  5
1B7
100
AcDbEntity
  8
ADF70-0702
370
              15
390
0
  6
STYLE_12
 62
               7
100
AcDbSpline
210
0.0
220
0.0
230
1.0
 70
               8
 71
               2
 72
               6
 73
               3
 74
               0
 42
0.000001
 43
0.000001
 40
0.0
 40
0.0
 40
0.0
 40
1.0
 40
1.0
 40
1.0
 10
14867.61332476311
 20
4808.0
 30
0.0
 10
14910.098416435412
 20
4866.2858422888703
 30
0.0
 10
15074.895330743526
 20
4875.6225836505446
 30
0.0
  0
SPLINE
  5
1B8
100
AcDbEntity
  8
ADF70-0702
370
              15
390
0
  6
STYLE_12
 62
               7
100
AcDbSpline
210
0.0
220
0.0
230
1.0
 70
               8
 71
               2
 72
               6
 73
               3
 74
               0
 42
0.000001
 43
0.000001
 40
0.0
 40
0.0
 40
0.0
 40
1.0
 40
1.0
 40
1.0
 10
14867.61332476311
 20
4808.0
 30
0.0
 10
14837.995264626219
 20
4761.3882725415824
 30
0.0
 10
14790.813230657857
 20
4757.3111551437632
 30
0.0
  0
ENDSEC
  0
SECTION
  2
OBJECTS
  0
DICTIONARY
  5
19
100
AcDbDictionary
280
               0
281
               1
  3
ACAD_GROUP
350
1A
  3
ACAD_MLINESTYLE
350
1B
  3
ACAD_LAYOUT
350
1E
  3
ACAD_PLOTSETTINGS
350
22
  3
ACAD_PLOTSTYLENAME
350
1F
  0
DICTIONARY
  5
1A
102
{ACAD_REACTORS
330
19
102
}
100
AcDbDictionary
280
               0
281
               1
  0
DICTIONARY
  5
1B
102
{ACAD_REACTORS
330
19
102
}
100
AcDbDictionary
280
               0
281
               1
  3
Standard
350
1C
  0
MLINESTYLE
  5
1C
102
{ACAD_REACTORS
330
1B
102
}
100
AcDbMlineStyle
  2
Standard
 70
               0
  3

 62
               0
 51
90.0
 52
90.0
 71
               2
 49
0.5
 62
             256
  6
ByLayer
 49
-0.5
 62
             256
  6
ByLayer
  0
ACDBDICTIONARYWDFLT
  5
1F
102
{ACAD_REACTORS
330
19
102
}
100
AcDbDictionary
281
               1
  3
Normal
350
1D
100
AcDbDictionaryWithDefault
340
1D
  0
ACDBPLACEHOLDER
  5
1D
102
{ACAD_REACTORS
330
1F
102
}
  0
LAYOUT
  5
20
102
{ACAD_REACTORS
330
1E
102
}
100
AcDbPlotSettings
  1

  2

  4

  6

 40
0.0
 41
0.0
 42
0.0
 43
0.0
 44
0.0
 45
0.0
 46
0.0
 47
0.0
 48
0.0
 49
0.0
140
0.0
141
0.0
142
1.0
143
1.0
 70
            1024
 72
               0
 73
               0
 74
               0
  7

 75
               0
147
1.0
148
0.0
149
0.0
100
AcDbLayout
  1
Model
 70
               0
 71
               0
 10
0.0
 20
0.0
 11
0.0
 21
0.0
 12
0.0
 22
0.0
 32
0.0
 14
0.0
 24
0.0
 34
0.0
 15
0.0
 25
0.0
 35
0.0
146
0.0
 13
0.0
 23
0.0
 33
0.0
 16
0.0
 26
0.0
 36
0.0
 17
0.0
 27
0.0
 37
0.0
 76
               0
330
A
331
0
345
0
346
0
  0
LAYOUT
  5
21
102
{ACAD_REACTORS
330
1E
102
}
100
AcDbPlotSettings
  1

  2

  4

  6

 40
0.0
 41
0.0
 42
0.0
 43
0.0
 44
0.0
 45
0.0
 46
0.0
 47
0.0
 48
0.0
 49
0.0
140
0.0
141
0.0
142
1.0
143
1.0
 70
               0
 72
               0
 73
               0
 74
               0
  7

 75
               0
147
1.0
148
0.0
149
0.0
100
AcDbLayout
  1
Layout1
 70
               0
 71
               0
 10
0.0
 20
0.0
 11
0.0
 21
0.0
 12
0.0
 22
0.0
 32
0.0
 14
0.0
 24
0.0
 34
0.0
 15
0.0
 25
0.0
 35
0.0
146
0.0
 13
0.0
 23
0.0
 33
0.0
 16
0.0
 26
0.0
 36
0.0
 17
0.0
 27
0.0
 37
0.0
 76
               0
330
B
331
0
345
0
346
0
  0
DICTIONARY
  5
1E
102
{ACAD_REACTORS
330
19
102
}
100
AcDbDictionary
280
               0
281
               1
  3
Layout1
350
21
  3
Model
350
20
  0
DICTIONARY
  5
22
102
{ACAD_REACTORS
330
19
102
}
100
AcDbDictionary
280
               0
281
               1
  0
ENDSEC
  0
EOF
