  0
SECTION
  2
HEADER
  9
$ACADVER
  1
AC1015
  9
$ACADMAINTVER
 70
               6
  9
$DWGCODEPAGE
  3
ANSI_932
  9
$INSBASE
 10
0.0
 20
0.0
 30
0.0
  9
$EXTMIN
 10
-975.00000000024102
 20
-1431.5255224711129
 30
-14.834305555555556
  9
$EXTMAX
 10
975.00000000024102
 20
1405.9972926412993
 30
14.834305555555556
  9
$LIMMIN
 10
0.0
 20
0.0
  9
$LIMMAX
 10
0.0
 20
0.0
  9
$ORTHOMODE
 70
               0
  9
$REGENMODE
 70
               1
  9
$FILLMODE
 70
               1
  9
$QTEXTMODE
 70
               0
  9
$MIRRTEXT
 70
               1
  9
$LTSCALE
 40
50.799999999999997
  9
$ATTMODE
 70
               1
  9
$TEXTSIZE
 40
0.2
  9
$TRACEWID
 40
1.0
  9
$TEXTSTYLE
  7
Standard
  9
$CLAYER
  8
notes
  9
$CELTYPE
  6
Continuous
  9
$CECOLOR
 62
             256
  9
$CELTSCALE
 40
1.0
  9
$DISPSILH
 70
               0
  9
$DIMSCALE
 40
1.0
  9
$DIMASZ
 40
31.75
  9
$DIMEXO
 40
0.0
  9
$DIMDLI
 40
6.9999999999999396
  9
$DIMRND
 40
0.0
  9
$DIMDLE
 40
0.0
  9
$DIMEXE
 40
19.999999999996199
  9
$DIMTP
 40
0.0
  9
$DIMTM
 40
0.0
  9
$DIMTXT
 40
24.432617187500004
  9
$DIMCEN
 40
0.0
  9
$DIMTSZ
 40
0.0
  9
$DIMTOL
 70
               0
  9
$DIMLIM
 70
               0
  9
$DIMTIH
 70
               0
  9
$DIMTOH
 70
               0
  9
$DIMSE1
 70
               0
  9
$DIMSE2
 70
               0
  9
$DIMTAD
 70
               1
  9
$DIMZIN
 70
              11
  9
$DIMBLK
  1
VW_FILLEDARROW
  9
$DIMASO
 70
               1
  9
$DIMSHO
 70
               1
  9
$DIMPOST
  1
<>
  9
$DIMAPOST
  1
[]
  9
$DIMALT
 70
               0
  9
$DIMALTD
 70
               1
  9
$DIMALTF
 40
1.0
  9
$DIMLFAC
 40
1.0
  9
$DIMTOFL
 70
               0
  9
$DIMTVP
 40
0.0
  9
$DIMTIX
 70
               1
  9
$DIMSOXD
 70
               0
  9
$DIMSAH
 70
               0
  9
$DIMBLK1
  1

  9
$DIMBLK2
  1

  9
$DIMSTYLE
  2
JIS
  9
$DIMCLRD
 70
               0
  9
$DIMCLRE
 70
               0
  9
$DIMCLRT
 70
               0
  9
$DIMTFAC
 40
1.0
  9
$DIMGAP
 40
1.00000000000108
  9
$DIMJUST
 70
               0
  9
$DIMSD1
 70
               0
  9
$DIMSD2
 70
               0
  9
$DIMTOLJ
 70
               1
  9
$DIMTZIN
 70
              11
  9
$DIMALTZ
 70
              11
  9
$DIMALTTZ
 70
              11
  9
$DIMUPT
 70
               0
  9
$DIMDEC
 70
               1
  9
$DIMTDEC
 70
               1
  9
$DIMALTU
 70
               2
  9
$DIMALTTD
 70
               2
  9
$DIMTXSTY
  7
ＭＳゴシック
  9
$DIMAUNIT
 70
               0
  9
$DIMADEC
 70
               2
  9
$DIMALTRND
 40
0.0
  9
$DIMAZIN
 70
               0
  9
$DIMDSEP
 70
              46
  9
$DIMATFIT
 70
               0
  9
$DIMFRAC
 70
               2
  9
$DIMLDRBLK
  1

  9
$DIMLUNIT
 70
               2
  9
$DIMLWD
 70
              -2
  9
$DIMLWE
 70
              -2
  9
$DIMTMOVE
 70
               0
  9
$LUNITS
 70
               2
  9
$LUPREC
 70
               4
  9
$SKETCHINC
 40
0.1
  9
$FILLETRAD
 40
0.0
  9
$AUNITS
 70
               0
  9
$AUPREC
 70
               0
  9
$MENU
  1
acad
  9
$ELEVATION
 40
0.0
  9
$PELEVATION
 40
0.0
  9
$THICKNESS
 40
0.0
  9
$LIMCHECK
 70
               0
  9
$CHAMFERA
 40
0.0
  9
$CHAMFERB
 40
0.0
  9
$CHAMFERC
 40
0.0
  9
$CHAMFERD
 40
0.0
  9
$SKPOLY
 70
               0
  9
$TDCREATE
 40
2456041.589976852
  9
$TDUCREATE
 40
0.000000000
  9
$TDUPDATE
 40
2456041.589976852
  9
$TDUUPDATE
 40
0.000000000
  9
$TDINDWG
 40
0.0000000000
  9
$TDUSRTIMER
 40
0.0000000000
  9
$USRTIMER
 70
               1
  9
$ANGBASE
 50
0.0
  9
$ANGDIR
 70
               0
  9
$PDMODE
 70
               1
  9
$PDSIZE
 40
-2.0
  9
$PLINEWID
 40
0.0
  9
$SPLFRAME
 70
               0
  9
$SPLINETYPE
 70
               6
  9
$SPLINESEGS
 70
               8
  9
$HANDSEED
  5
1D5
  9
$SURFTAB1
 70
               6
  9
$SURFTAB2
 70
               6
  9
$SURFTYPE
 70
               6
  9
$SURFU
 70
               6
  9
$SURFV
 70
               6
  9
$UCSBASE
  2

  9
$UCSNAME
  2

  9
$UCSORG
 10
0.0
 20
0.0
 30
0.0
  9
$UCSXDIR
 10
1.0
 20
0.0
 30
0.0
  9
$UCSYDIR
 10
0.0
 20
1.0
 30
0.0
  9
$UCSORTHOREF
  2

  9
$UCSORTHOVIEW
 70
               0
  9
$UCSORGTOP
 10
0.0
 20
0.0
 30
0.0
  9
$UCSORGBOTTOM
 10
0.0
 20
0.0
 30
0.0
  9
$UCSORGLEFT
 10
0.0
 20
0.0
 30
0.0
  9
$UCSORGRIGHT
 10
0.0
 20
0.0
 30
0.0
  9
$UCSORGFRONT
 10
0.0
 20
0.0
 30
0.0
  9
$UCSORGBACK
 10
0.0
 20
0.0
 30
0.0
  9
$PUCSBASE
  2

  9
$PUCSNAME
  2

  9
$PUCSORG
 10
0.0
 20
0.0
 30
0.0
  9
$PUCSXDIR
 10
1.0
 20
0.0
 30
0.0
  9
$PUCSYDIR
 10
0.0
 20
1.0
 30
0.0
  9
$PUCSORTHOREF
  2

  9
$PUCSORTHOVIEW
 70
               0
  9
$PUCSORGTOP
 10
0.0
 20
0.0
 30
0.0
  9
$PUCSORGBOTTOM
 10
0.0
 20
0.0
 30
0.0
  9
$PUCSORGLEFT
 10
0.0
 20
0.0
 30
0.0
  9
$PUCSORGRIGHT
 10
0.0
 20
0.0
 30
0.0
  9
$PUCSORGFRONT
 10
0.0
 20
0.0
 30
0.0
  9
$PUCSORGBACK
 10
0.0
 20
0.0
 30
0.0
  9
$USERI1
 70
               0
  9
$USERI2
 70
               0
  9
$USERI3
 70
               0
  9
$USERI4
 70
               0
  9
$USERI5
 70
               0
  9
$USERR1
 40
0.0
  9
$USERR2
 40
0.0
  9
$USERR3
 40
0.0
  9
$USERR4
 40
0.0
  9
$USERR5
 40
0.0
  9
$WORLDVIEW
 70
               1
  9
$SHADEDGE
 70
               3
  9
$SHADEDIF
 70
              70
  9
$TILEMODE
 70
               1
  9
$MAXACTVP
 70
              64
  9
$PINSBASE
 10
0.0
 20
0.0
 30
0.0
  9
$PLIMCHECK
 70
               0
  9
$PEXTMIN
 10
1.0000000000000000E+20
 20
1.0000000000000000E+20
 30
1.0000000000000000E+20
  9
$PEXTMAX
 10
-1.0000000000000000E+20
 20
-1.0000000000000000E+20
 30
-1.0000000000000000E+20
  9
$PLIMMIN
 10
0.0
 20
0.0
  9
$PLIMMAX
 10
12.0
 20
9.0
  9
$UNITMODE
 70
               0
  9
$VISRETAIN
 70
               0
  9
$PLINEGEN
 70
               1
  9
$PSLTSCALE
 70
               0
  9
$TREEDEPTH
 70
            3020
  9
$CMLSTYLE
  2
Standard
  9
$CMLJUST
 70
               0
  9
$CMLSCALE
 40
1.0
  9
$PROXYGRAPHICS
 70
               0
  9
$MEASUREMENT
 70
               1
  9
$CELWEIGHT
370
               0
  9
$ENDCAPS
280
               0
  9
$JOINSTYLE
280
               0
  9
$LWDISPLAY
290
               1
  9
$INSUNITS
 70
               4
  9
$HYPERLINKBASE
  1

  9
$STYLESHEET
  1

  9
$XEDIT
290
               1
  9
$CEPSNTYPE
380
               0
  9
$PSTYLEMODE
290
               1
  9
$FINGERPRINTGUID
  2

  9
$VERSIONGUID
  2

  9
$EXTNAMES
290
               1
  9
$PSVPSCALE
 40
0.0
  0
ENDSEC
  0
SECTION
  2
CLASSES
  0
CLASS
  1
LWPOLYLINE
  2
AcDbPolyline
  3
AutoCAD 2000
 90
        0
280
               0
281
               1
  0
CLASS
  1
IMAGE
  2
AcDbRasterImage
  3
ISM
 90
      127
280
               0
281
               1
  0
CLASS
  1
OLE2FRAME
  2
AcDbOle2Frame
  3
AutoCAD 2000
 90
        0
280
               0
281
               1
  0
CLASS
  1
HATCH
  2
AcDbHatch
  3
AutoCAD 2000
 90
        0
280
               0
281
               1
  0
CLASS
  1
DICTIONARYVAR
  2
AcDbDictionaryVar
  3
AutoCAD 2000
 90
        0
280
               0
281
               0
  0
CLASS
  1
RASTERVARIABLES
  2
AcDbRasterVariables
  3
ISM
 90
        0
280
               0
281
               0
  0
CLASS
  1
IMAGEDEF
  2
AcDbRasterImageDef
  3
ISM
 90
        0
280
               0
281
               0
  0
CLASS
  1
IMAGEDEF_REACTOR
  2
AcDbRasterImageDefReactor
  3
ISM
 90
        1
280
               0
281
               0
  0
CLASS
  1
IDBUFFER
  2
AcDbIdBuffer
  3
AutoCAD 2000
 90
        0
280
               0
281
               0
  0
CLASS
  1
SPATIAL_FILTER
  2
AcDbSpatialFilter
  3
AutoCAD 2000
 90
        0
280
               0
281
               0
  0
CLASS
  1
XRECORD
  2
AcDbXrecord
  3
AutoCAD 2000
 90
        0
280
               0
281
               0
  0
CLASS
  1
SORTENTSTABLE
  2
AcDbSortentsTable
  3
AutoCAD 2000
 90
        0
280
               0
281
               0
  0
CLASS
  1
LAYER_INDEX
  2
AcDbLayerIndex
  3
AutoCAD 2000
 90
        0
280
               0
281
               0
  0
CLASS
  1
SPATIAL_INDEX
  2
AcDbSpatialIndex
  3
AutoCAD 2000
 90
        0
280
               0
281
               0
  0
CLASS
  1
OBJECT_PTR
  2
CAseDLPNTableRecord
  3
"ASE-LPNTableRecord"
 90
        1
280
               0
281
               0
  0
CLASS
  1
LAYOUT
  2
AcDbLayout
  3
AutoCAD 2000
 90
        0
280
               0
281
               0
  0
CLASS
  1
PLOTSETTINGS
  2
AcDbPlotSettings
  3
AutoCAD 2000
 90
        0
280
               0
281
               0
  0
CLASS
  1
ACDBDICTIONARYWDFLT
  2
AcDbDictionaryWithDefault
  3
AutoCAD 2000
 90
        0
280
               0
281
               0
  0
CLASS
  1
ACDBPLACEHOLDER
  2
AcDbPlaceHolder
  3
AutoCAD 2000
 90
        0
280
               0
281
               0
  0
ENDSEC
  0
SECTION
  2
TABLES
  0
TABLE
  2
VPORT
  5
7
100
AcDbSymbolTable
 70
               1
  0
VPORT
  5
15
100
AcDbSymbolTableRecord
100
AcDbViewportTableRecord
  2
*ACTIVE
 70
               0
 10
0.0
 20
0.0
 11
1.0
 21
1.0
 12
0.0
 22
-12.764114914906941
 13
0.0
 23
0.0
 14
1.0
 24
1.0
 15
0.0
 25
0.0
 16
0.0
 26
0.0
 36
1.0
 17
0.0
 27
0.0
 37
0.0
 40
2837.522815112412
 41
0.688564
 42
50.0
 43
0.0
 44
0.0
 50
0.0
 51
0.0
 71
               0
 72
            2000
 73
               1
 74
               1
 75
               0
 76
               0
 77
               0
 78
               0
281
               0
 65
               0
110
0.0
120
0.0
130
0.0
111
1.0
121
0.0
131
0.0
112
0.0
122
1.0
132
0.0
345
0
346
0
 79
               0
146
0.0
  0
ENDTAB
  0
TABLE
  2
LTYPE
  5
4
100
AcDbSymbolTable
 70
              15
  0
LTYPE
  5
11
100
AcDbSymbolTableRecord
100
AcDbLinetypeTableRecord
  2
ByBlock
 70
              64
  3

 72
              65
 73
               0
 40
0.0
  0
LTYPE
  5
12
100
AcDbSymbolTableRecord
100
AcDbLinetypeTableRecord
  2
ByLayer
 70
              64
  3

 72
              65
 73
               0
 40
0.0
  0
LTYPE
  5
13
100
AcDbSymbolTableRecord
100
AcDbLinetypeTableRecord
  2
Continuous
 70
              64
  3
Solid line
 72
              65
 73
               0
 40
0.0
  0
LTYPE
  5
38
100
AcDbSymbolTableRecord
100
AcDbLinetypeTableRecord
  2
STYLE_01
 70
               0
  3

 72
              65
 73
               2
 40
0.375
 49
0.25
 74
               0
 49
-0.125
 74
               0
  0
LTYPE
  5
39
100
AcDbSymbolTableRecord
100
AcDbLinetypeTableRecord
  2
STYLE_02
 70
               0
  3

 72
              65
 73
               4
 40
0.0393700787401575
 49
0.0196850393700787
 74
               0
 49
-0.0098425196850394
 74
               0
 49
0.0005
 74
               0
 49
-0.0093425196850394
 74
               0
  0
LTYPE
  5
3A
100
AcDbSymbolTableRecord
100
AcDbLinetypeTableRecord
  2
STYLE_03
 70
               0
  3

 72
              65
 73
               2
 40
1.25
 49
1.0416400000000001
 74
               0
 49
-0.2083599999999999
 74
               0
  0
LTYPE
  5
3B
100
AcDbSymbolTableRecord
100
AcDbLinetypeTableRecord
  2
STYLE_04
 70
               0
  3

 72
              65
 73
               2
 40
1.5277099999999999
 49
1.3194249999999998
 74
               0
 49
-0.208285
 74
               0
  0
LTYPE
  5
3C
100
AcDbSymbolTableRecord
100
AcDbLinetypeTableRecord
  2
STYLE_05
 70
               0
  3

 72
              65
 73
               2
 40
0.20828
 49
0.069425
 74
               0
 49
-0.138855
 74
               0
  0
LTYPE
  5
3D
100
AcDbSymbolTableRecord
100
AcDbLinetypeTableRecord
  2
STYLE_06
 70
               0
  3

 72
              65
 73
               4
 40
1.0416400000000001
 49
0.625
 74
               0
 49
-0.20828
 74
               0
 49
0.06943
 74
               0
 49
-0.13893
 74
               0
  0
LTYPE
  5
3E
100
AcDbSymbolTableRecord
100
AcDbLinetypeTableRecord
  2
STYLE_07
 70
               0
  3

 72
              65
 73
               6
 40
1.875
 49
0.625
 74
               0
 49
-0.20828
 74
               0
 49
0.6250000000000001
 74
               0
 49
-0.2083599999999999
 74
               0
 49
0.06943
 74
               0
 49
-0.1389299999999999
 74
               0
  0
LTYPE
  5
3F
100
AcDbSymbolTableRecord
100
AcDbLinetypeTableRecord
  2
STYLE_08
 70
               0
  3

 72
              65
 73
               6
 40
1.25
 49
0.625
 74
               0
 49
-0.20828
 74
               0
 49
0.06943
 74
               0
 49
-0.13893
 74
               0
 49
0.0694299999999999
 74
               0
 49
-0.13893
 74
               0
  0
LTYPE
  5
40
100
AcDbSymbolTableRecord
100
AcDbLinetypeTableRecord
  2
STYLE_09
 70
               0
  3

 72
              65
 73
               4
 40
5.0
 49
3.75
 74
               0
 49
-0.2777849999999998
 74
               0
 49
0.6944300000000003
 74
               0
 49
-0.2777849999999998
 74
               0
  0
LTYPE
  5
41
100
AcDbSymbolTableRecord
100
AcDbLinetypeTableRecord
  2
STYLE_10
 70
               0
  3

 72
              65
 73
               6
 40
5.9375
 49
3.75
 74
               0
 49
-0.2777849999999998
 74
               0
 49
0.6944300000000003
 74
               0
 49
-0.2777849999999998
 74
               0
 49
0.625
 74
               0
 49
-0.3125
 74
               0
  0
LTYPE
  5
42
100
AcDbSymbolTableRecord
100
AcDbLinetypeTableRecord
  2
STYLE_11
 70
               0
  3

 72
              65
 73
               2
 40
0.0694444881889764
 49
0.0347222440944882
 74
               0
 49
-0.0347222440944882
 74
               0
  0
LTYPE
  5
43
100
AcDbSymbolTableRecord
100
AcDbLinetypeTableRecord
  2
STYLE_12
 70
               0
  3

 72
              65
 73
               2
 40
0.3937007874015748
 49
0.1968503937007874
 74
               0
 49
-0.1968503937007874
 74
               0
  0
ENDTAB
  0
TABLE
  2
LAYER
  5
2
100
AcDbSymbolTable
 70
               5
  0
LAYER
  5
14
100
AcDbSymbolTableRecord
100
AcDbLayerTableRecord
  2
0
 70
               0
 62
               7
  6
Continuous
290
               1
370
              -3
390
1D
  0
LAYER
  5
44
100
AcDbSymbolTableRecord
100
AcDbLayerTableRecord
  2
Defpoints
 70
               0
 62
               7
  6
Continuous
290
               0
370
              -3
390
1D
  0
LAYER
  5
45
100
AcDbSymbolTableRecord
100
AcDbLayerTableRecord
  2
template
 70
               0
 62
               7
  6
Continuous
290
               1
370
              -3
390
1D
  0
LAYER
  5
46
100
AcDbSymbolTableRecord
100
AcDbLayerTableRecord
  2
notes
 70
               0
 62
               7
  6
Continuous
290
               1
370
              -3
390
1D
  0
LAYER
  5
47
100
AcDbSymbolTableRecord
100
AcDbLayerTableRecord
  2
ADF70-1103
 70
               0
 62
               7
  6
Continuous
290
               1
370
              -3
390
1D
  0
ENDTAB
  0
TABLE
  2
STYLE
  5
3
100
AcDbSymbolTable
 70
               3
  0
STYLE
  5
17
100
AcDbSymbolTableRecord
100
AcDbTextStyleTableRecord
  2
Standard
 70
               0
 40
0.0
 41
1.0
 50
0.0
 71
               0
 42
0.0
  3
txt
  4
BIGFONT.SHX
  0
STYLE
  5
36
100
AcDbSymbolTableRecord
100
AcDbTextStyleTableRecord
  2
ＭＳ ゴシック
 70
               0
 40
0.0
 41
1.0
 50
0.0
 71
               0
 42
0.0
  3

  4
ＭＳ ゴシック
1001
ACAD
1000
ＭＳ ゴシック
1071
        0
  0
STYLE
  5
37
100
AcDbSymbolTableRecord
100
AcDbTextStyleTableRecord
  2
ＭＳゴシック
 70
               0
 40
0.0
 41
1.0
 50
0.0
 71
               0
 42
0.0
  3

  4
ＭＳゴシック
1001
ACAD
1000
ＭＳゴシック
1071
        0
  0
ENDTAB
  0
TABLE
  2
VIEW
  5
5
100
AcDbSymbolTable
 70
               0
  0
ENDTAB
  0
TABLE
  2
UCS
  5
6
100
AcDbSymbolTable
 70
               0
  0
ENDTAB
  0
TABLE
  2
APPID
  5
8
100
AcDbSymbolTable
 70
               1
  0
APPID
  5
16
100
AcDbSymbolTableRecord
100
AcDbRegAppTableRecord
  2
ACAD
 70
               0
  0
ENDTAB
  0
TABLE
  2
DIMSTYLE
  5
9
100
AcDbSymbolTable
 70
               3
100
AcDbDimStyleTable
 71
               0
  0
DIMSTYLE
105
18
100
AcDbSymbolTableRecord
100
AcDbDimStyleTableRecord
  2
Standard
 70
               0
  3

  4

 40
1.0
 41
0.18
 42
0.0625
 43
0.38
 44
0.18
 45
0.0
 46
0.0
 47
0.0
 48
0.0
 71
               0
 72
               0
 73
               1
 74
               1
 75
               0
 76
               0
 77
               0
 78
               0
 79
               0
140
0.18
141
0.09
142
0.0
143
25.399999999999999
144
1.0
145
0.0
146
1.0
147
0.09
148
0.0
170
               0
171
               2
172
               0
173
               0
174
               0
175
               0
176
               0
177
               0
178
               0
179
               0
271
               4
272
               4
273
               2
274
               2
275
               0
276
               0
277
               2
278
              46
279
               0
280
               0
281
               0
282
               0
283
               1
284
               0
285
               0
286
               0
288
               0
289
               3
340
17
341
0
342
0
343
0
344
0
371
              -2
372
              -2
  0
DIMSTYLE
105
50
100
AcDbSymbolTableRecord
100
AcDbDimStyleTableRecord
  2
tform線あり
 70
               0
  3
<>
  4
[]
 40
1.0
 41
9.9993896484374982
 42
24.999999999999996
 43
0.9999999999999999
 44
0.0
 45
0.0
 46
0.0
 47
0.0
 48
0.0
 71
               0
 72
               0
 73
               0
 74
               0
 75
               0
 76
               0
 77
               1
 78
              11
 79
               0
140
24.432617187500004
141
0.0
142
0.0
143
1.0
144
1.0
145
0.0
146
1.0
147
0.4999999999999999
148
0.0
170
               0
171
               1
172
               0
173
               0
174
               1
175
               0
176
               0
177
               0
178
               0
179
               2
271
               1
272
               1
273
               2
274
               2
275
               0
276
               2
277
               2
278
              46
279
               0
280
               0
281
               0
282
               0
283
               1
284
              11
285
              11
286
              11
288
               0
289
               0
340
37
341
48
342
48
343
0
344
0
371
              -2
372
              -2
  0
DIMSTYLE
105
55
100
AcDbSymbolTableRecord
100
AcDbDimStyleTableRecord
  2
JIS
 70
               0
  3
<>
  4
[]
 40
1.0
 41
31.75
 42
0.0
 43
6.9999999999999396
 44
19.999999999996199
 45
0.0
 46
0.0
 47
0.0
 48
0.0
 71
               0
 72
               0
 73
               0
 74
               0
 75
               0
 76
               0
 77
               1
 78
              11
 79
               0
140
24.432617187500004
141
0.0
142
0.0
143
1.0
144
1.0
145
0.0
146
1.0
147
1.00000000000108
148
0.0
170
               0
171
               1
172
               0
173
               0
174
               1
175
               0
176
               0
177
               0
178
               0
179
               2
271
               1
272
               1
273
               2
274
               2
275
               0
276
               2
277
               2
278
              46
279
               0
280
               0
281
               0
282
               0
283
               1
284
              11
285
              11
286
              11
288
               0
289
               0
340
37
341
51
342
51
343
0
344
0
371
              -2
372
              -2
  0
ENDTAB
  0
TABLE
  2
BLOCK_RECORD
  5
1
100
AcDbSymbolTable
 70
              21
  0
BLOCK_RECORD
  5
A
100
AcDbSymbolTableRecord
100
AcDbBlockTableRecord
  2
*MODEL_SPACE
340
20
  0
BLOCK_RECORD
  5
B
100
AcDbSymbolTableRecord
100
AcDbBlockTableRecord
  2
*PAPER_SPACE
340
21
  0
BLOCK_RECORD
  5
48
100
AcDbSymbolTableRecord
100
AcDbBlockTableRecord
  2
_DOT
340
0
  0
BLOCK_RECORD
  5
51
100
AcDbSymbolTableRecord
100
AcDbBlockTableRecord
  2
VW_FILLEDARROW
340
0
  0
BLOCK_RECORD
  5
23
100
AcDbSymbolTableRecord
100
AcDbBlockTableRecord
  2
グループ
340
0
102
{BLKREFS
331
142
102
}
  0
BLOCK_RECORD
  5
24
100
AcDbSymbolTableRecord
100
AcDbBlockTableRecord
  2
*D3
340
0
  0
BLOCK_RECORD
  5
25
100
AcDbSymbolTableRecord
100
AcDbBlockTableRecord
  2
*D4
340
0
  0
BLOCK_RECORD
  5
26
100
AcDbSymbolTableRecord
100
AcDbBlockTableRecord
  2
*D5
340
0
  0
BLOCK_RECORD
  5
27
100
AcDbSymbolTableRecord
100
AcDbBlockTableRecord
  2
*D6
340
0
  0
BLOCK_RECORD
  5
28
100
AcDbSymbolTableRecord
100
AcDbBlockTableRecord
  2
*D7
340
0
  0
BLOCK_RECORD
  5
29
100
AcDbSymbolTableRecord
100
AcDbBlockTableRecord
  2
*D8
340
0
  0
BLOCK_RECORD
  5
2A
100
AcDbSymbolTableRecord
100
AcDbBlockTableRecord
  2
*D9
340
0
  0
BLOCK_RECORD
  5
2B
100
AcDbSymbolTableRecord
100
AcDbBlockTableRecord
  2
*D10
340
0
  0
BLOCK_RECORD
  5
2C
100
AcDbSymbolTableRecord
100
AcDbBlockTableRecord
  2
*D11
340
0
  0
BLOCK_RECORD
  5
2D
100
AcDbSymbolTableRecord
100
AcDbBlockTableRecord
  2
*D12
340
0
  0
BLOCK_RECORD
  5
2E
100
AcDbSymbolTableRecord
100
AcDbBlockTableRecord
  2
*D13
340
0
  0
BLOCK_RECORD
  5
2F
100
AcDbSymbolTableRecord
100
AcDbBlockTableRecord
  2
*D14
340
0
  0
BLOCK_RECORD
  5
30
100
AcDbSymbolTableRecord
100
AcDbBlockTableRecord
  2
*D15
340
0
  0
BLOCK_RECORD
  5
31
100
AcDbSymbolTableRecord
100
AcDbBlockTableRecord
  2
*D16
340
0
  0
BLOCK_RECORD
  5
32
100
AcDbSymbolTableRecord
100
AcDbBlockTableRecord
  2
グループ-1
340
0
102
{BLKREFS
331
162
102
}
  0
BLOCK_RECORD
  5
33
100
AcDbSymbolTableRecord
100
AcDbBlockTableRecord
  2
*D18
340
0
  0
BLOCK_RECORD
  5
34
100
AcDbSymbolTableRecord
100
AcDbBlockTableRecord
  2
*D19
340
0
  0
BLOCK_RECORD
  5
35
100
AcDbSymbolTableRecord
100
AcDbBlockTableRecord
  2
グループ-2
340
0
102
{BLKREFS
331
1CE
102
}
  0
ENDTAB
  0
ENDSEC
  0
SECTION
  2
BLOCKS
  0
BLOCK
  5
D
100
AcDbEntity
  8
0
390
0
100
AcDbBlockBegin
  2
*MODEL_SPACE
 70
               0
 10
0.0
 20
0.0
 30
0.0
  3
*MODEL_SPACE
  1

  0
ENDBLK
  5
E
100
AcDbEntity
  8
0
390
0
100
AcDbBlockEnd
  0
BLOCK
  5
F
100
AcDbEntity
 67
               1
  8
0
390
0
100
AcDbBlockBegin
  2
*PAPER_SPACE
 70
               0
 10
0.0
 20
0.0
 30
0.0
  3
*PAPER_SPACE
  1

  0
ENDBLK
  5
10
100
AcDbEntity
 67
               1
  8
0
390
0
100
AcDbBlockEnd
  0
BLOCK
  5
49
100
AcDbEntity
  8
0
390
0
100
AcDbBlockBegin
  2
_DOT
 70
               0
 10
0.0
 20
0.0
 30
0.0
  3
_DOT
  1

  0
POLYLINE
  5
4A
100
AcDbEntity
  8
0
370
              -2
390
0
  6
ByBlock
 62
               0
100
AcDb2dPolyline
 66
               1
 10
0.0
 20
0.0
 30
0.0
 70
               1
 40
0.5
 41
0.5
  0
VERTEX
  5
4B
100
AcDbEntity
  8
0
370
              -2
390
0
  6
ByBlock
 62
               0
100
AcDbVertex
100
AcDb2dVertex
 10
-0.25
 20
0.0
 30
0.0
 42
1.0
  0
VERTEX
  5
4C
100
AcDbEntity
  8
0
370
              -2
390
0
  6
ByBlock
 62
               0
100
AcDbVertex
100
AcDb2dVertex
 10
0.25
 20
0.0
 30
0.0
 42
1.0
  0
SEQEND
  5
4D
100
AcDbEntity
  8
0
390
0
  0
LINE
  5
4E
100
AcDbEntity
  8
0
370
              -2
390
0
  6
ByBlock
 62
               0
100
AcDbLine
 10
-0.5
 20
0.0
 30
0.0
 11
-1.0
 21
0.0
 31
0.0
  0
ENDBLK
  5
4F
100
AcDbEntity
  8
0
390
0
100
AcDbBlockEnd
  0
BLOCK
  5
52
100
AcDbEntity
  8
0
370
              -2
390
0
  6
ByBlock
 62
               0
100
AcDbBlockBegin
  2
VW_FILLEDARROW
 70
               0
 10
0.0
 20
0.0
 30
0.0
  3
VW_FILLEDARROW
  1

  0
SOLID
  5
53
100
AcDbEntity
  8
0
370
              -2
390
0
 62
               0
100
AcDbTrace
 10
0.0
 20
0.0
 30
0.0
 11
-0.9921874999999999
 21
-0.2658558393652545
 31
0.0
 12
-0.9921874999999999
 22
0.2658558393652548
 32
0.0
 13
-0.9921874999999999
 23
0.2658558393652548
 33
0.0
  0
ENDBLK
  5
54
100
AcDbEntity
  8
0
390
0
100
AcDbBlockEnd
  0
BLOCK
  5
56
100
AcDbEntity
  8
template
390
0
100
AcDbBlockBegin
  2
グループ
 70
               0
 10
0.0
 20
0.0
 30
0.0
  3
グループ
  1

  0
LWPOLYLINE
  5
57
100
AcDbEntity
  8
0
370
              15
390
0
  6
Continuous
 62
               7
100
AcDbPolyline
 90
        8
 70
             129
 10
-4354.6749866247646
 20
233.34295714539712
 10
-4354.6749866247646
 20
227.34556845182124
 10
-4364.1761835427687
 20
227.34556845182124
 10
-4364.1761835427687
 20
202.89460518831243
 10
-4372.5315608045512
 20
202.89460518831243
 10
-4372.5315608045512
 20
227.34556845182124
 10
-4381.8645177508606
 20
227.34556845182124
 10
-4381.8645177508606
 20
233.34295714539712
  0
LWPOLYLINE
  5
58
100
AcDbEntity
  8
0
370
              15
390
0
  6
Continuous
 62
               7
100
AcDbPolyline
 90
      101
 70
             128
 10
-4341.9466947942083
 20
232.61470865246065
 10
-4341.9313447654222
 20
232.61906940914602
 42
-0.0222221607813247
 10
-4341.6413401887521
 20
232.68769387439033
 10
-4341.625546424757
 20
232.69069729748767
 42
-0.0146883565573388
 10
-4341.3628437195339
 20
232.73270048443669
 42
-0.0127458844165948
 10
-4341.0982047523812
 20
232.76023745250913
 10
-4341.035749674068
 20
232.76513087509738
 42
-0.0198099018572433
 10
-4340.6449005645954
 20
232.78021603249402
 10
-4340.5930890951477
 20
232.78016225682893
 42
-0.0147617382756411
 10
-4340.0984656341743
 20
232.76504223158412
 10
-4340.0257741792975
 20
232.76066962469631
 42
-0.0162624548992055
 10
-4339.6356205498341
 20
232.72443674942406
 10
-4339.5140881585776
 20
232.70915019042781
 42
-0.0080020874667013
 10
-4339.3685091274838
 20
232.68846734315912
 10
-4339.3301896568928
 20
232.68239606534874
 42
-0.0053821929709907
 10
-4339.2617055515739
 20
232.67078854152646
 10
-4339.9881112507719
 20
230.48986008581255
 42
0.0108667757421852
 10
-4340.055428320904
 20
230.50304720103256
 10
-4340.0928963440929
 20
230.50954494362691
 42
0.0170663203300372
 10
-4340.2361131310099
 20
230.52937454091887
 10
-4340.303988463691
 20
230.53642171150614
 42
0.0220162375259725
 10
-4340.5843678715455
 20
230.55310407227626
 10
-4340.6622234385986
 20
230.55430343954276
 42
0.0282606915782198
 10
-4340.9978597621766
 20
230.54050016257372
 10
-4341.0417730359504
 20
230.53620017256995
 42
0.0169677213677273
 10
-4341.2876975309082
 20
230.5036631230181
 42
0.0190576269866439
 10
-4341.5306054934899
 20
230.45351625091124
 10
-4341.5368646815987
 20
230.45197327680239
 42
0.0213685642833959
 10
-4341.7872491660737
 20
230.3787729916983
 10
-4341.7927390609921
 20
230.37690999563858
 42
0.0237595297592908
 10
-4342.0462339458927
 20
230.27722547374196
 10
-4342.0513360199202
 20
230.27493369826482
 42
0.0261857468832347
 10
-4342.3035067961564
 20
230.14539736088739
 10
-4342.3139329852374
 20
230.13933188642218
 42
0.0272553062019862
 10
-4342.5503627604758
 20
229.9839596804776
 10
-4342.585125773986
 20
229.95829853238521
 42
0.0325996893207757
 10
-4342.735281117637
 20
229.83155065941401
 10
-4342.7589905467739
 20
229.80873263088824
 42
0.0138050960677731
 10
-4342.8508737029706
 20
229.71528296934946
 42
0.012528010382919
 10
-4342.9377162358096
 20
229.61711964274292
 10
-4342.9613966807119
 20
229.58896114456206
 42
0.0205218024759534
 10
-4343.0864967562302
 20
229.42716783032662
 10
-4343.1089630967126
 20
229.39550810050605
 42
0.0163110129590967
 10
-4343.2646734759637
 20
229.160177665437
 10
-4343.2673973720157
 20
229.15575390345066
 42
0.0131897341883458
 10
-4343.4141978929219
 20
228.90262181108466
 10
-4343.4158979882877
 20
228.8995035719505
 42
0.0107895576089938
 10
-4343.5536746905118
 20
228.63328836228786
 10
-4343.5544075800235
 20
228.63179412966883
 42
0.009137150720356
 10
-4343.6828875286637
 20
228.35726893192975
 10
-4343.7126331600821
 20
228.29056242475042
 42
0.0135418326351221
 10
-4343.8843470991605
 20
227.875624639466
 10
-4343.9179519075988
 20
227.78775849717542
 42
0.0092834542412389
 10
-4344.0891809675095
 20
227.31385999889505
 10
-4344.1147980952373
 20
227.23861892907161
 42
0.0054261043585239
 10
-4344.22243624352
 20
226.91085495603659
 10
-4344.2399622297453
 20
226.85546679365493
 42
0.0008225090827307
 10
-4344.308632281527
 20
226.63719803565732
 10
-4345.2933214134609
 20
223.61230674240073
 10
-4342.0606975733863
 20
223.61230674240073
 10
-4342.5648900032402
 20
221.70782844404835
 10
-4345.8209462852237
 20
221.70782844404835
 10
-4351.6500953175773
 20
202.89460537804348
 10
-4353.4751929278873
 20
202.89460537804348
 10
-4347.6405148923868
 20
221.70782844404835
 10
-4350.0456312614269
 20
221.70782844404835
 10
-4349.5414388315739
 20
223.61230674240073
 10
-4347.112890020624
 20
223.61230674240073
 10
-4346.2527351024346
 20
226.24871974309963
 42
-0.0005863560645055
 10
-4346.2160004242041
 20
226.36554616347706
 10
-4346.1399125905709
 20
226.60653846277683
 42
-0.0087522378928406
 10
-4345.9404444471229
 20
227.20181454990049
 10
-4345.8481801716962
 20
227.46195471845127
 42
-0.0077400953830428
 10
-4345.5902465125691
 20
228.15495939598452
 10
-4345.5744815409935
 20
228.1953902793623
 42
-0.0082369946334385
 10
-4345.3273970703785
 20
228.79946934556631
 42
-0.0085725238361558
 10
-4345.0601509743801
 20
229.39489538484469
 10
-4344.9585213733635
 20
229.61131648684974
 42
-0.0168109410594482
 10
-4344.6715769446382
 20
230.17252401294286
 10
-4344.5457335541805
 20
230.39948804593774
 42
-0.0007817726906755
 10
-4344.4914492041225
 20
230.49703229097133
 10
-4344.4913208981034
 20
230.49726199971133
 42
-0.0036626142173474
 10
-4344.436433034085
 20
230.5938598796763
 42
-0.0080221150655298
 10
-4344.3793087786798
 20
230.68913911442522
 10
-4344.3486088273166
 20
230.73853006355137
 42
-0.0202139325566282
 10
-4344.2209530875043
 20
230.92651166424062
 10
-4344.1668856223223
 20
230.99959052847362
 42
-0.0249323791807007
 10
-4343.9077228286133
 20
231.31563577061669
 10
-4343.8835830144762
 20
231.3422500435405
 42
-0.0242132121534052
 10
-4343.5439022729388
 20
231.68213352974004
 10
-4343.4959907001848
 20
231.72564266592954
 42
-0.0251017527872682
 10
-4343.2120089995424
 20
231.95863541169535
 10
-4343.210563522739
 20
231.95970466926696
 42
-0.0130868069033939
 10
-4342.9123028727718
 20
232.16848513781679
 10
-4342.9107410536253
 20
232.16951857809428
 42
-0.0290329526379864
 10
-4342.5996299122353
 20
232.35034407972114
 10
-4342.5697843502503
 20
232.36544646256024
 42
-0.0160250190060822
 10
-4342.3038799364849
 20
232.48946257277396
 42
-0.0267600374785164
 10
-4342.0286038590184
 20
232.59021089332185
 10
-4342.0018679394952
 20
232.5984034521482
 42
-0.0049981587629442
 10
-4341.9466947942083
 20
232.61470865246065
 42
-0.0049981587629442
  0
LWPOLYLINE
  5
59
100
AcDbEntity
  8
0
370
              15
390
0
  6
Continuous
 62
               7
100
AcDbPolyline
 90
      118
 70
             128
 10
-4322.1323272297614
 20
223.53832341457337
 10
-4320.2572053052618
 20
223.53832341457337
 10
-4321.0952442108619
 20
220.85675688817332
 42
-0.0010587229340144
 10
-4321.0637883953477
 20
220.89366142146025
 10
-4321.0055943046573
 20
220.96164367770439
 42
-0.00718747404045
 10
-4320.8552190865648
 20
221.13228436972807
 10
-4320.7134963132976
 20
221.28852051104661
 42
-0.0148118053518515
 10
-4320.2633670205851
 20
221.75613435705876
 10
-4320.1761446856726
 20
221.84153167792306
 42
-0.0086273358683627
 10
-4319.8405958846743
 20
222.15890731192962
 10
-4319.7967621684456
 20
222.19895695626556
 42
-0.0103138323120188
 10
-4319.5387384662154
 20
222.42512009360098
 10
-4319.4929640598812
 20
222.4636021408667
 42
-0.0060206748557553
 10
-4319.3201159957753
 20
222.60539679161559
 10
-4319.3180848648853
 20
222.60702249724997
 42
-0.0067069027326095
 10
-4319.1457920502271
 20
222.74117313104182
 10
-4319.1432432842967
 20
222.74310330092041
 42
-0.0076184352052914
 10
-4318.9723380184296
 20
222.86847817616092
 42
-0.0089652861660732
 10
-4318.7973770556982
 20
222.98811143649172
 10
-4318.7610253355542
 20
223.01202264997414
 42
-0.0156916245930139
 10
-4318.5650658383911
 20
223.13228513645083
 42
-0.0023299011060252
 10
-4318.3648037943594
 20
223.24546307602034
 10
-4318.3494196620304
 20
223.25406307105641
 42
-0.0107669341481236
 10
-4318.1151828369439
 20
223.37846320439871
 10
-4318.0929180358544
 20
223.38967995435587
 42
-0.0078058045885994
 10
-4317.8093279178875
 20
223.52704141000092
 10
-4317.7994208301925
 20
223.53165053786279
 42
-0.0181829330481449
 10
-4317.4891114255788
 20
223.66251427895776
 10
-4317.4350559830127
 20
223.68302939890097
 42
-0.0208411536038763
 10
-4317.0859710155601
 20
223.79911986139507
 10
-4317.0716149154341
 20
223.80323830634822
 42
-0.0222799817139177
 10
-4316.7428951215152
 20
223.88187987248887
 10
-4316.7340061582736
 20
223.88359188307481
 42
-0.0215509523875065
 10
-4316.4175351899994
 20
223.93050757160825
 10
-4316.3750532289505
 20
223.93494509839908
 42
-0.0182545924883532
 10
-4316.1409444496439
 20
223.95078892379001
 10
-4316.1015434332967
 20
223.95201346886918
 42
-0.0072962856527732
 10
-4315.9456205536071
 20
223.95458279739137
 10
-4315.9165208830391
 20
223.95463763279511
 42
-0.0059227516264729
 10
-4315.8187713838906
 20
223.9536639210047
 10
-4315.7895291663999
 20
223.95302615440099
 42
-0.0011833111820051
 10
-4315.7502778826856
 20
223.95207715009133
 10
-4316.5456644782935
 20
221.41334320499232
 42
0.0143932051680954
 10
-4316.572065860646
 20
221.42354217503862
 10
-4316.5793378330609
 20
221.42611339389498
 42
0.0234388603555826
 10
-4316.6211686989936
 20
221.43873262961046
 10
-4316.6298503619055
 20
221.4409135916153
 42
0.0199162742910444
 10
-4316.6901391959873
 20
221.45353032695064
 10
-4316.7109531337919
 20
221.45702752637885
 42
0.0293643550707582
 10
-4316.8140279925519
 20
221.46817757203203
 10
-4316.8387131732716
 20
221.46938918905062
 42
0.0214606686895067
 10
-4316.9918540892204
 20
221.47032774946817
 10
-4317.0012260000422
 20
221.46998283792379
 42
0.0167564054168948
 10
-4317.172746191156
 20
221.45790579555535
 10
-4317.1812059839103
 20
221.45702445512859
 42
0.0137677553217075
 10
-4317.3685592971769
 20
221.43227514658486
 10
-4317.3759110366827
 20
221.43109722661711
 42
0.0118497261471965
 10
-4317.5764088007818
 20
221.39407987642841
 10
-4317.5825588080306
 20
221.39279301370789
 42
0.010642114387433
 10
-4317.7934396953224
 20
221.34396063813148
 10
-4317.7983485037048
 20
221.34271329544799
 42
0.0099746379696022
 10
-4318.0168069728707
 20
221.28253876713251
 10
-4318.0783550130382
 20
221.26425688850259
 42
0.0191613675862133
 10
-4318.4143394755538
 20
221.15027950821539
 10
-4318.5023992482966
 20
221.11659259789215
 42
0.0205274080138985
 10
-4318.8877060201994
 20
220.950764190065
 10
-4318.9453553021804
 20
220.92309622549294
 42
0.0181256912196957
 10
-4319.2036322428485
 20
220.78741240651482
 10
-4319.2565876261706
 20
220.75709479329541
 42
0.0140709242425585
 10
-4319.4015425607904
 20
220.66860011986569
 10
-4319.4277914294053
 20
220.6515433011528
 42
0.0086667884398278
 10
-4319.5167175909519
 20
220.59154063326741
 42
0.0036408192035083
 10
-4319.6041508289572
 20
220.52935977549515
 10
-4319.6393777034536
 20
220.50391882956228
 42
0.0052260781286397
 10
-4319.795606400844
 20
220.38858644292853
 10
-4319.8118132571044
 20
220.37635833230991
 42
0.0050024435882765
 10
-4319.9978166001638
 20
220.23307576404719
 10
-4320.0131347566785
 20
220.22102974160191
 42
0.0136138710280591
 10
-4320.223576024996
 20
220.04606323669495
 10
-4320.2572439007972
 20
220.01648426397435
 42
0.0172815186900398
 10
-4320.5216474424469
 20
219.76748759136328
 10
-4320.524209788302
 20
219.76490177420385
 42
0.0189403857983754
 10
-4320.7747915868813
 20
219.49209650939937
 10
-4320.8074230804241
 20
219.45375257789371
 42
0.018504419951253
 10
-4320.9993795193968
 20
219.21050399677949
 42
0.0088565243920551
 10
-4321.1778396260261
 20
218.95698757662879
 10
-4321.1870176056746
 20
218.94344619686944
 42
0.0157195347215661
 10
-4321.3702382120082
 20
218.65392398755407
 10
-4321.4163211539308
 20
218.57577179054724
 42
0.0095451879782491
 10
-4321.5814067040774
 20
218.28317714817638
 10
-4321.5925546230128
 20
218.26250647603342
 42
0.0100351706254358
 10
-4321.7245983721659
 20
218.00545091555364
 42
0.00869359154097
 10
-4321.8469295239493
 20
217.74361777017401
 10
-4321.8502502653746
 20
217.7361754471774
 42
0.0072580174865866
 10
-4321.970596717334
 20
217.45558345556
 10
-4321.973858350626
 20
217.44766342957644
 42
0.0060005122585673
 10
-4322.09305901896
 20
217.1480537589926
 10
-4322.0962699973097
 20
217.13969223106653
 42
0.0049017786983825
 10
-4322.2151701561534
 20
216.82076325050053
 10
-4322.2183359625578
 20
216.81201031323178
 42
0.0039415167596737
 10
-4322.3377722406067
 20
216.47346825084207
 10
-4322.3409033432672
 20
216.46436504994244
 42
0.003103583875611
 10
-4322.4617081289352
 20
216.10592518824325
 10
-4322.4648181734901
 20
216.09650456679412
 42
0.0025070747139063
 10
-4322.5877195247804
 20
215.71785734992997
 10
-4322.6250134212314
 20
215.60096568459721
 42
0.0029081910284501
 10
-4322.8170317190461
 20
214.98680202629143
 10
-4322.857834887559
 20
214.85357878402965
 42
0.0009266453734736
 10
-4323.1262522618563
 20
213.97135432416195
 10
-4323.1471397345085
 20
213.90224244488721
 42
-0.0005809993664158
 10
-4323.4244764151053
 20
212.98843433823129
 10
-4323.4907582134047
 20
212.77094940598354
 42
-0.0012018708160296
 10
-4323.6377425228075
 20
212.29278674155091
 10
-4323.6900623742977
 20
212.12402760092806
 42
-0.0002691059627794
 10
-4323.7336318555417
 20
211.98375998034317
 10
-4326.5665877538304
 20
202.89460537804348
 10
-4328.3845766458089
 20
202.89460537804348
 10
-4322.1323272297614
 20
223.53832341457337
  0
SPLINE
  5
5A
100
AcDbEntity
  8
0
370
              15
390
0
  6
Continuous
 62
               7
100
AcDbSpline
210
0.0
220
0.0
230
1.0
 70
              13
 71
               2
 72
             782
 73
             779
 74
               0
 42
0.000001
 43
0.000001
 40
0.0
 40
0.0
 40
0.0
 40
1.0
 40
1.0
 40
2.0
 40
2.0
 40
3.0
 40
3.0
 40
4.0
 40
4.0
 40
5.0
 40
5.0
 40
6.0
 40
6.0
 40
7.0
 40
7.0
 40
8.0
 40
8.0
 40
9.0
 40
9.0
 40
10.0
 40
10.0
 40
11.0
 40
11.0
 40
12.0
 40
12.0
 40
13.0
 40
13.0
 40
14.0
 40
14.0
 40
15.0
 40
15.0
 40
16.0
 40
16.0
 40
17.0
 40
17.0
 40
18.0
 40
18.0
 40
19.0
 40
19.0
 40
20.0
 40
20.0
 40
21.0
 40
21.0
 40
22.0
 40
22.0
 40
23.0
 40
23.0
 40
24.0
 40
24.0
 40
25.0
 40
25.0
 40
26.0
 40
26.0
 40
27.0
 40
27.0
 40
28.0
 40
28.0
 40
29.0
 40
29.0
 40
30.0
 40
30.0
 40
31.0
 40
31.0
 40
32.0
 40
32.0
 40
33.0
 40
33.0
 40
34.0
 40
34.0
 40
35.0
 40
35.0
 40
36.0
 40
36.0
 40
37.0
 40
37.0
 40
38.0
 40
38.0
 40
39.0
 40
39.0
 40
40.0
 40
40.0
 40
41.0
 40
41.0
 40
42.0
 40
42.0
 40
43.0
 40
43.0
 40
44.0
 40
44.0
 40
45.0
 40
45.0
 40
46.0
 40
46.0
 40
47.0
 40
47.0
 40
48.0
 40
48.0
 40
49.0
 40
49.0
 40
50.0
 40
50.0
 40
51.0
 40
51.0
 40
52.0
 40
52.0
 40
53.0
 40
53.0
 40
54.0
 40
54.0
 40
55.0
 40
55.0
 40
56.0
 40
56.0
 40
57.0
 40
57.0
 40
58.0
 40
58.0
 40
59.0
 40
59.0
 40
60.0
 40
60.0
 40
61.0
 40
61.0
 40
62.0
 40
62.0
 40
63.0
 40
63.0
 40
64.0
 40
64.0
 40
65.0
 40
65.0
 40
66.0
 40
66.0
 40
67.0
 40
67.0
 40
68.0
 40
68.0
 40
69.0
 40
69.0
 40
70.0
 40
70.0
 40
71.0
 40
71.0
 40
72.0
 40
72.0
 40
73.0
 40
73.0
 40
74.0
 40
74.0
 40
75.0
 40
75.0
 40
76.0
 40
76.0
 40
77.0
 40
77.0
 40
78.0
 40
78.0
 40
79.0
 40
79.0
 40
80.0
 40
80.0
 40
81.0
 40
81.0
 40
82.0
 40
82.0
 40
83.0
 40
83.0
 40
84.0
 40
84.0
 40
85.0
 40
85.0
 40
86.0
 40
86.0
 40
87.0
 40
87.0
 40
88.0
 40
88.0
 40
89.0
 40
89.0
 40
90.0
 40
90.0
 40
91.0
 40
91.0
 40
92.0
 40
92.0
 40
93.0
 40
93.0
 40
94.0
 40
94.0
 40
95.0
 40
95.0
 40
96.0
 40
96.0
 40
97.0
 40
97.0
 40
98.0
 40
98.0
 40
99.0
 40
99.0
 40
100.0
 40
100.0
 40
101.0
 40
101.0
 40
102.0
 40
102.0
 40
103.0
 40
103.0
 40
104.0
 40
104.0
 40
105.0
 40
105.0
 40
106.0
 40
106.0
 40
107.0
 40
107.0
 40
108.0
 40
108.0
 40
109.0
 40
109.0
 40
110.0
 40
110.0
 40
111.0
 40
111.0
 40
112.0
 40
112.0
 40
113.0
 40
113.0
 40
114.0
 40
114.0
 40
115.0
 40
115.0
 40
116.0
 40
116.0
 40
117.0
 40
117.0
 40
118.0
 40
118.0
 40
119.0
 40
119.0
 40
120.0
 40
120.0
 40
121.0
 40
121.0
 40
122.0
 40
122.0
 40
123.0
 40
123.0
 40
124.0
 40
124.0
 40
125.0
 40
125.0
 40
126.0
 40
126.0
 40
127.0
 40
127.0
 40
128.0
 40
128.0
 40
129.0
 40
129.0
 40
130.0
 40
130.0
 40
131.0
 40
131.0
 40
132.0
 40
132.0
 40
133.0
 40
133.0
 40
134.0
 40
134.0
 40
135.0
 40
135.0
 40
136.0
 40
136.0
 40
137.0
 40
137.0
 40
138.0
 40
138.0
 40
139.0
 40
139.0
 40
140.0
 40
140.0
 40
141.0
 40
141.0
 40
142.0
 40
142.0
 40
143.0
 40
143.0
 40
144.0
 40
144.0
 40
145.0
 40
145.0
 40
146.0
 40
146.0
 40
147.0
 40
147.0
 40
148.0
 40
148.0
 40
149.0
 40
149.0
 40
150.0
 40
150.0
 40
151.0
 40
151.0
 40
152.0
 40
152.0
 40
153.0
 40
153.0
 40
154.0
 40
154.0
 40
155.0
 40
155.0
 40
156.0
 40
156.0
 40
157.0
 40
157.0
 40
158.0
 40
158.0
 40
159.0
 40
159.0
 40
160.0
 40
160.0
 40
161.0
 40
161.0
 40
162.0
 40
162.0
 40
163.0
 40
163.0
 40
164.0
 40
164.0
 40
165.0
 40
165.0
 40
166.0
 40
166.0
 40
167.0
 40
167.0
 40
168.0
 40
168.0
 40
169.0
 40
169.0
 40
170.0
 40
170.0
 40
171.0
 40
171.0
 40
172.0
 40
172.0
 40
173.0
 40
173.0
 40
174.0
 40
174.0
 40
175.0
 40
175.0
 40
176.0
 40
176.0
 40
177.0
 40
177.0
 40
178.0
 40
178.0
 40
179.0
 40
179.0
 40
180.0
 40
180.0
 40
181.0
 40
181.0
 40
182.0
 40
182.0
 40
183.0
 40
183.0
 40
184.0
 40
184.0
 40
185.0
 40
185.0
 40
186.0
 40
186.0
 40
187.0
 40
187.0
 40
188.0
 40
188.0
 40
189.0
 40
189.0
 40
190.0
 40
190.0
 40
191.0
 40
191.0
 40
192.0
 40
192.0
 40
193.0
 40
193.0
 40
194.0
 40
194.0
 40
195.0
 40
195.0
 40
196.0
 40
196.0
 40
197.0
 40
197.0
 40
198.0
 40
198.0
 40
199.0
 40
199.0
 40
200.0
 40
200.0
 40
201.0
 40
201.0
 40
202.0
 40
202.0
 40
203.0
 40
203.0
 40
204.0
 40
204.0
 40
205.0
 40
205.0
 40
206.0
 40
206.0
 40
207.0
 40
207.0
 40
208.0
 40
208.0
 40
209.0
 40
209.0
 40
210.0
 40
210.0
 40
211.0
 40
211.0
 40
212.0
 40
212.0
 40
213.0
 40
213.0
 40
214.0
 40
214.0
 40
215.0
 40
215.0
 40
216.0
 40
216.0
 40
217.0
 40
217.0
 40
218.0
 40
218.0
 40
219.0
 40
219.0
 40
220.0
 40
220.0
 40
221.0
 40
221.0
 40
222.0
 40
222.0
 40
223.0
 40
223.0
 40
224.0
 40
224.0
 40
225.0
 40
225.0
 40
226.0
 40
226.0
 40
227.0
 40
227.0
 40
228.0
 40
228.0
 40
229.0
 40
229.0
 40
230.0
 40
230.0
 40
231.0
 40
231.0
 40
232.0
 40
232.0
 40
233.0
 40
233.0
 40
234.0
 40
234.0
 40
235.0
 40
235.0
 40
236.0
 40
236.0
 40
237.0
 40
237.0
 40
238.0
 40
238.0
 40
239.0
 40
239.0
 40
240.0
 40
240.0
 40
241.0
 40
241.0
 40
242.0
 40
242.0
 40
243.0
 40
243.0
 40
244.0
 40
244.0
 40
245.0
 40
245.0
 40
246.0
 40
246.0
 40
247.0
 40
247.0
 40
248.0
 40
248.0
 40
249.0
 40
249.0
 40
250.0
 40
250.0
 40
251.0
 40
251.0
 40
252.0
 40
252.0
 40
253.0
 40
253.0
 40
254.0
 40
254.0
 40
255.0
 40
255.0
 40
256.0
 40
256.0
 40
257.0
 40
257.0
 40
258.0
 40
258.0
 40
259.0
 40
259.0
 40
260.0
 40
260.0
 40
261.0
 40
261.0
 40
262.0
 40
262.0
 40
263.0
 40
263.0
 40
264.0
 40
264.0
 40
265.0
 40
265.0
 40
266.0
 40
266.0
 40
267.0
 40
267.0
 40
268.0
 40
268.0
 40
269.0
 40
269.0
 40
270.0
 40
270.0
 40
271.0
 40
271.0
 40
272.0
 40
272.0
 40
273.0
 40
273.0
 40
274.0
 40
274.0
 40
275.0
 40
275.0
 40
276.0
 40
276.0
 40
277.0
 40
277.0
 40
278.0
 40
278.0
 40
279.0
 40
279.0
 40
280.0
 40
280.0
 40
281.0
 40
281.0
 40
282.0
 40
282.0
 40
283.0
 40
283.0
 40
284.0
 40
284.0
 40
285.0
 40
285.0
 40
286.0
 40
286.0
 40
287.0
 40
287.0
 40
288.0
 40
288.0
 40
289.0
 40
289.0
 40
290.0
 40
290.0
 40
291.0
 40
291.0
 40
292.0
 40
292.0
 40
293.0
 40
293.0
 40
294.0
 40
294.0
 40
295.0
 40
295.0
 40
296.0
 40
296.0
 40
297.0
 40
297.0
 40
298.0
 40
298.0
 40
299.0
 40
299.0
 40
300.0
 40
300.0
 40
301.0
 40
301.0
 40
302.0
 40
302.0
 40
303.0
 40
303.0
 40
304.0
 40
304.0
 40
305.0
 40
305.0
 40
306.0
 40
306.0
 40
307.0
 40
307.0
 40
308.0
 40
308.0
 40
309.0
 40
309.0
 40
310.0
 40
310.0
 40
311.0
 40
311.0
 40
312.0
 40
312.0
 40
313.0
 40
313.0
 40
314.0
 40
314.0
 40
315.0
 40
315.0
 40
316.0
 40
316.0
 40
317.0
 40
317.0
 40
318.0
 40
318.0
 40
319.0
 40
319.0
 40
320.0
 40
320.0
 40
321.0
 40
321.0
 40
322.0
 40
322.0
 40
323.0
 40
323.0
 40
324.0
 40
324.0
 40
325.0
 40
325.0
 40
326.0
 40
326.0
 40
327.0
 40
327.0
 40
328.0
 40
328.0
 40
329.0
 40
329.0
 40
330.0
 40
330.0
 40
331.0
 40
331.0
 40
332.0
 40
332.0
 40
333.0
 40
333.0
 40
334.0
 40
334.0
 40
335.0
 40
335.0
 40
336.0
 40
336.0
 40
337.0
 40
337.0
 40
338.0
 40
338.0
 40
339.0
 40
339.0
 40
340.0
 40
340.0
 40
341.0
 40
341.0
 40
342.0
 40
342.0
 40
343.0
 40
343.0
 40
344.0
 40
344.0
 40
345.0
 40
345.0
 40
346.0
 40
346.0
 40
347.0
 40
347.0
 40
348.0
 40
348.0
 40
349.0
 40
349.0
 40
350.0
 40
350.0
 40
351.0
 40
351.0
 40
352.0
 40
352.0
 40
353.0
 40
353.0
 40
354.0
 40
354.0
 40
355.0
 40
355.0
 40
356.0
 40
356.0
 40
357.0
 40
357.0
 40
358.0
 40
358.0
 40
359.0
 40
359.0
 40
360.0
 40
360.0
 40
361.0
 40
361.0
 40
362.0
 40
362.0
 40
363.0
 40
363.0
 40
364.0
 40
364.0
 40
365.0
 40
365.0
 40
366.0
 40
366.0
 40
367.0
 40
367.0
 40
368.0
 40
368.0
 40
369.0
 40
369.0
 40
370.0
 40
370.0
 40
371.0
 40
371.0
 40
372.0
 40
372.0
 40
373.0
 40
373.0
 40
374.0
 40
374.0
 40
375.0
 40
375.0
 40
376.0
 40
376.0
 40
377.0
 40
377.0
 40
378.0
 40
378.0
 40
379.0
 40
379.0
 40
380.0
 40
380.0
 40
381.0
 40
381.0
 40
382.0
 40
382.0
 40
383.0
 40
383.0
 40
384.0
 40
384.0
 40
385.0
 40
385.0
 40
386.0
 40
386.0
 40
387.0
 40
387.0
 40
388.0
 40
388.0
 40
389.0
 40
389.0
 40
389.0
 10
-4311.803622779029
 20
223.54924977793576
 30
0.0
 41
1.0
 10
-4310.9851986703088
 20
223.54924977793576
 30
0.0
 41
1.0
 10
-4310.1667745615878
 20
223.54924977793576
 30
0.0
 41
1.0
 10
-4310.580528297105
 20
222.20662351368605
 30
0.0
 41
1.0
 10
-4310.9942820326214
 20
220.86399724943635
 30
0.0
 41
1.0
 10
-4310.9759425374932
 20
220.89269802228728
 30
0.0
 41
0.9999957264373026
 10
-4310.957435540703
 20
220.92129107237432
 30
0.0
 41
1.0
 10
-4310.9270062165251
 20
220.96830395081224
 30
0.0
 41
1.0
 10
-4310.8965768923481
 20
221.0153168292502
 30
0.0
 41
1.0
 10
-4310.817211247243
 20
221.13793563615141
 30
0.0
 41
0.9995394069081781
 10
-4310.730552855689
 20
221.25551369789707
 30
0.0
 41
1.0
 10
-4310.6947959934278
 20
221.30402859049303
 30
0.0
 41
1.0
 10
-4310.6590391311656
 20
221.35254348308902
 30
0.0
 41
1.0
 10
-4310.5253124633473
 20
221.53398375821439
 30
0.0
 41
0.9994460617144055
 10
-4310.379811982064
 20
221.70612615585867
 30
0.0
 41
1.0
 10
-4310.3754238010861
 20
221.71131783624543
 30
0.0
 41
1.0
 10
-4310.3710356201072
 20
221.71650951663221
 30
0.0
 41
1.0
 10
-4310.2343115007698
 20
221.87826855351528
 30
0.0
 41
0.9994359394934429
 10
-4310.0870372704248
 20
222.0304847546729
 30
0.0
 41
1.0
 10
-4310.0846539164722
 20
222.03294808504489
 30
0.0
 41
1.0
 10
-4310.0822705625205
 20
222.03541141541689
 30
0.0
 41
1.0
 10
-4309.9397630400772
 20
222.18270095583452
 30
0.0
 41
0.9995293688567036
 10
-4309.7884913590915
 20
222.32097416800173
 30
0.0
 41
1.0
 10
-4309.7691975998314
 20
222.33861005364975
 30
0.0
 41
1.0
 10
-4309.7499038405722
 20
222.35624593929779
 30
0.0
 41
1.0
 10
-4309.6372196781167
 20
222.45924738015992
 30
0.0
 41
0.9997087614802886
 10
-4309.5196967891543
 20
222.55669166096368
 30
0.0
 41
1.0
 10
-4309.5005307159727
 20
222.57258323947661
 30
0.0
 41
1.0
 10
-4309.481364642791
 20
222.58847481798958
 30
0.0
 41
1.0
 10
-4309.4021739002019
 20
222.65413594175899
 30
0.0
 41
0.9999595338699341
 10
-4309.3218146293439
 20
222.71836167241656
 30
0.0
 41
1.0
 10
-4309.241455358494
 20
222.78258740306762
 30
0.0
 41
0.9999749417503469
 10
-4309.1601948241396
 20
222.8456689570225
 30
0.0
 41
1.0
 10
-4309.1392086779852
 20
222.86196024431825
 30
0.0
 41
1.0
 10
-4309.1182225318298
 20
222.87825153161401
 30
0.0
 41
1.0
 10
-4309.0336546465369
 20
222.94390054144887
 30
0.0
 41
0.9999792037129042
 10
-4308.9482470467428
 20
223.00845332311053
 30
0.0
 41
1.0
 10
-4308.9274222206996
 20
223.02419314546785
 30
0.0
 41
1.0
 10
-4308.9065973946563
 20
223.03993296782517
 30
0.0
 41
1.0
 10
-4308.8628394467487
 20
223.07300610492416
 30
0.0
 41
0.9999993373784358
 10
-4308.8191577608304
 20
223.10617990017818
 30
0.0
 41
1.0
 10
-4308.7754760746911
 20
223.1393536955994
 30
0.0
 41
0.9999160953816727
 10
-4308.7309496637536
 20
223.1713847608103
 30
0.0
 41
1.0
 10
-4308.6981277763407
 20
223.19499591639027
 30
0.0
 41
1.0
 10
-4308.6653058889278
 20
223.21860707197027
 30
0.0
 41
1.0
 10
-4308.5551357031691
 20
223.29786044833887
 30
0.0
 41
0.9980964527230682
 10
-4308.4360467096703
 20
223.36294792119369
 30
0.0
 41
1.0
 10
-4308.3990141027425
 20
223.38318790078674
 30
0.0
 41
1.0
 10
-4308.3619814958147
 20
223.40342788037978
 30
0.0
 41
1.0
 10
-4308.1826544825426
 20
223.50143813108045
 30
0.0
 41
0.9984572810573184
 10
-4307.9935659161811
 20
223.57896039242803
 30
0.0
 41
1.0
 10
-4307.989919646785
 20
223.58045528476589
 30
0.0
 41
1.0
 10
-4307.9862733773898
 20
223.58195017710375
 30
0.0
 41
1.0
 10
-4307.8044773498232
 20
223.65648265377467
 30
0.0
 41
0.99878385280327
 10
-4307.6162246912627
 20
223.71274829394019
 30
0.0
 41
1.0
 10
-4307.6119867420648
 20
223.71401494763023
 30
0.0
 41
1.0
 10
-4307.6077487928669
 20
223.71528160132024
 30
0.0
 41
1.0
 10
-4307.4279720327013
 20
223.7690139341062
 30
0.0
 41
0.9990652816207756
 10
-4307.2442261009874
 20
223.80701761364799
 30
0.0
 41
1.0
 10
-4307.2390376999556
 20
223.80809071675452
 30
0.0
 41
1.0
 10
-4307.2338492989238
 20
223.80916381986108
 30
0.0
 41
1.0
 10
-4307.0604801692762
 20
223.84502129318918
 30
0.0
 41
0.9992909934270476
 10
-4306.8849044028138
 20
223.86773172565654
 30
0.0
 41
1.0
 10
-4306.7093286363543
 20
223.89044215812342
 30
0.0
 41
0.9994553539448009
 10
-4306.5326372032632
 20
223.90152146232924
 30
0.0
 41
1.0
 10
-4306.4972027954664
 20
223.90374335037711
 30
0.0
 41
1.0
 10
-4306.4617683876704
 20
223.90596523842495
 30
0.0
 41
1.0
 10
-4306.2955426211001
 20
223.91638830083693
 30
0.0
 41
0.9990928098292318
 10
-4306.1290328291989
 20
223.91262865960209
 30
0.0
 41
1.0
 10
-4306.0904709939277
 20
223.91175796806914
 30
0.0
 41
1.0
 10
-4306.0519091586557
 20
223.91088727653616
 30
0.0
 41
1.0
 10
-4305.9625230372922
 20
223.90886901836765
 30
0.0
 41
0.9998382089206301
 10
-4305.8732673545101
 20
223.90363689183948
 30
0.0
 41
1.0
 10
-4305.8728374482898
 20
223.9036116909372
 30
0.0
 41
1.0
 10
-4305.8724075420696
 20
223.90358649003491
 30
0.0
 41
1.0
 10
-4305.7840116717298
 20
223.89840476531216
 30
0.0
 41
0.9997558016757498
 10
-4305.6959310945231
 20
223.88932224994494
 30
0.0
 41
1.0
 10
-4305.6954549560942
 20
223.88927315246252
 30
0.0
 41
1.0
 10
-4305.6949788176662
 20
223.88922405498008
 30
0.0
 41
1.0
 10
-4305.6078505173164
 20
223.88023973457712
 30
0.0
 41
0.9996565144182659
 10
-4305.5213126639801
 20
223.86670242788944
 30
0.0
 41
1.0
 10
-4305.5208467386019
 20
223.86662954215802
 30
0.0
 41
1.0
 10
-4305.5203808132246
 20
223.86655665642661
 30
0.0
 41
1.0
 10
-4305.4347748106411
 20
223.85316512120099
 30
0.0
 41
0.9995321806867548
 10
-4305.3501477303098
 20
223.83456463277116
 30
0.0
 41
1.0
 10
-4305.3497585357381
 20
223.83447909030534
 30
0.0
 41
1.0
 10
-4305.3493693411665
 20
223.83439354783951
 30
0.0
 41
1.0
 10
-4305.2655206499876
 20
223.81596414434367
 30
0.0
 41
0.9993819199218506
 10
-4305.1831741157857
 20
223.79168876108122
 30
0.0
 41
1.0
 10
-4305.1829356822882
 20
223.79161847197207
 30
0.0
 41
1.0
 10
-4305.1826972487906
 20
223.79154818286293
 30
0.0
 41
1.0
 10
-4305.1008275815893
 20
223.76741337782073
 30
0.0
 41
0.9992088568504357
 10
-4305.0211350626014
 20
223.73684814202613
 30
0.0
 41
1.0
 10
-4304.9414540717207
 20
223.70628854129183
 30
0.0
 41
0.999022610177384
 10
-4304.8647834018157
 20
223.66881110967836
 30
0.0
 41
1.0
 10
-4304.788124260017
 20
223.63133931312495
 30
0.0
 41
0.9988424273970715
 10
-4304.7154206328032
 20
223.58667453787075
 30
0.0
 41
1.0
 10
-4304.7151529244247
 20
223.58651007379916
 30
0.0
 41
1.0
 10
-4304.7148852160462
 20
223.58634560972757
 30
0.0
 41
1.0
 10
-4304.6416461720764
 20
223.54135190633096
 30
0.0
 41
0.9986928844492888
 10
-4304.5733833053637
 20
223.48911617204931
 30
0.0
 41
1.0
 10
-4304.5728020131419
 20
223.48867135882205
 30
0.0
 41
1.0
 10
-4304.5722207209201
 20
223.48822654559478
 30
0.0
 41
1.0
 10
-4304.5027952697646
 20
223.43510118485895
 30
0.0
 41
0.9986007262279246
 10
-4304.4393691000014
 20
223.37494041516919
 30
0.0
 41
1.0
 10
-4304.4384746845426
 20
223.37409204733243
 30
0.0
 41
1.0
 10
-4304.4375802690829
 20
223.37324367949566
 30
0.0
 41
1.0
 10
-4304.3723652684002
 20
223.31138617412924
 30
0.0
 41
0.998558149138236
 10
-4304.3141576566977
 20
223.24289368385647
 30
0.0
 41
1.0
 10
-4304.3048992031036
 20
223.23199932615665
 30
0.0
 41
1.0
 10
-4304.2956407495094
 20
223.22110496845687
 30
0.0
 41
1.0
 10
-4304.2189162306158
 20
223.13082376278118
 30
0.0
 41
0.9970460233522036
 10
-4304.1569243294562
 20
223.02985667860003
 30
0.0
 41
1.0
 10
-4304.1424549643743
 20
223.00629021951625
 30
0.0
 41
1.0
 10
-4304.1279855992934
 20
222.98272376043246
 30
0.0
 41
1.0
 10
-4304.0882488992829
 20
222.91800403640076
 30
0.0
 41
0.9988468816640278
 10
-4304.0549025285336
 20
222.84977158397828
 30
0.0
 41
1.0
 10
-4304.0478665060364
 20
222.83537466282962
 30
0.0
 41
1.0
 10
-4304.04083048354
 20
222.82097774168093
 30
0.0
 41
1.0
 10
-4304.021556157777
 20
222.78153913153977
 30
0.0
 41
0.9998431189997425
 10
-4304.0036908302873
 20
222.74144257710986
 30
0.0
 41
1.0
 10
-4303.9858255028394
 20
222.70134602277449
 30
0.0
 41
0.9999989989850486
 10
-4303.9678467794274
 20
222.66130018521272
 30
0.0
 41
1.0
 10
-4303.9616744678042
 20
222.64755196833639
 30
0.0
 41
1.0
 10
-4303.9555021561819
 20
222.63380375146005
 30
0.0
 41
1.0
 10
-4303.9251788095644
 20
222.56626148023412
 30
0.0
 41
0.9998790356323662
 10
-4303.8969709294179
 20
222.49780872827728
 30
0.0
 41
1.0
 10
-4303.8901357481336
 20
222.48122162685021
 30
0.0
 41
1.0
 10
-4303.8833005668494
 20
222.46463452542315
 30
0.0
 41
1.0
 10
-4303.8597429044767
 20
222.40746657055377
 30
0.0
 41
0.999822757456362
 10
-4303.8383541560943
 20
222.34945226229604
 30
0.0
 41
1.0
 10
-4303.8169654077092
 20
222.29143795403064
 30
0.0
 41
0.9996797971042082
 10
-4303.7985391227548
 20
222.23241583492876
 30
0.0
 41
1.0
 10
-4303.794635320025
 20
222.21991137674567
 30
0.0
 41
1.0
 10
-4303.7907315172952
 20
222.20740691856258
 30
0.0
 41
1.0
 10
-4303.7644976268839
 20
222.12337588309995
 30
0.0
 41
0.9979274938736724
 10
-4303.7492731034035
 20
222.03667152443353
 30
0.0
 41
1.0
 10
-4303.7470494161416
 20
222.02400752360717
 30
0.0
 41
1.0
 10
-4303.7448257288797
 20
222.01134352278083
 30
0.0
 41
1.0
 10
-4303.7338957891834
 20
221.9490970155012
 30
0.0
 41
0.9994985982140351
 10
-4303.7269276240077
 20
221.88628351437171
 30
0.0
 41
1.0
 10
-4303.7199594588319
 20
221.82347001323825
 30
0.0
 41
0.9996372611201086
 10
-4303.7163835930642
 20
221.76037243456327
 30
0.0
 41
1.0
 10
-4303.7162150155746
 20
221.75739781747319
 30
0.0
 41
1.0
 10
-4303.716046438085
 20
221.75442320038314
 30
0.0
 41
1.0
 10
-4303.7121334173389
 20
221.68537638754046
 30
0.0
 41
0.9997730630735838
 10
-4303.7111651038513
 20
221.61622556351037
 30
0.0
 41
1.0
 10
-4303.7111079974329
 20
221.61214738436479
 30
0.0
 41
1.0
 10
-4303.7110508910146
 20
221.60806920521918
 30
0.0
 41
1.0
 10
-4303.7099683646902
 20
221.53076202291416
 30
0.0
 41
0.9998772614068405
 10
-4303.7113084514222
 20
221.45345887636279
 30
0.0
 41
1.0
 10
-4303.7113977146209
 20
221.44830971251491
 30
0.0
 41
1.0
 10
-4303.7114869778197
 20
221.44316054866704
 30
0.0
 41
1.0
 10
-4303.7130055909483
 20
221.35555907443634
 30
0.0
 41
0.9999415567324165
 10
-4303.7164179011943
 20
221.26801091276505
 30
0.0
 41
1.0
 10
-4303.7166592218691
 20
221.26181945302403
 30
0.0
 41
1.0
 10
-4303.7169005425449
 20
221.25562799328304
 30
0.0
 41
1.0
 10
-4303.7207954941414
 20
221.15569691213096
 30
0.0
 41
0.9999716810433048
 10
-4303.7261940772596
 20
221.05583577390007
 30
0.0
 41
1.0
 10
-4303.7294068760493
 20
220.99640652421635
 30
0.0
 41
1.0
 10
-4303.73261967484
 20
220.93697727453261
 30
0.0
 41
1.0
 10
-4303.7406935839917
 20
220.78762887328165
 30
0.0
 41
0.9999819129909127
 10
-4303.7505633756064
 20
220.63838839559753
 30
0.0
 41
1.0
 10
-4303.7604331672237
 20
220.48914791788616
 30
0.0
 41
1.0
 10
-4303.7628724877877
 20
220.45195487203682
 30
0.0
 41
1.0
 10
-4303.7401742540324
 20
220.49069586923824
 30
0.0
 41
0.9999982128118978
 10
-4303.7173296952933
 20
220.52935076316962
 30
0.0
 41
1.0
 10
-4303.6904201353627
 20
220.57488397730225
 30
0.0
 41
1.0
 10
-4303.6635105754322
 20
220.62041719143485
 30
0.0
 41
1.0
 10
-4303.5868468969147
 20
220.75013851349135
 30
0.0
 41
0.9998609190056902
 10
-4303.5058995840536
 20
220.8772308954197
 30
0.0
 41
1.0
 10
-4303.476251262573
 20
220.92378062837409
 30
0.0
 41
1.0
 10
-4303.4466029410933
 20
220.97033036132848
 30
0.0
 41
1.0
 10
-4303.3643307208486
 20
221.09950293133591
 30
0.0
 41
0.9999067609732888
 10
-4303.2785617113786
 20
221.22638062078465
 30
0.0
 41
1.0
 10
-4303.2761570081802
 20
221.22993788683482
 30
0.0
 41
1.0
 10
-4303.2737523049827
 20
221.23349515288501
 30
0.0
 41
1.0
 10
-4303.1927927019215
 20
221.35325831021714
 30
0.0
 41
0.9998784952149425
 10
-4303.1081390922336
 20
221.47043952693468
 30
0.0
 41
1.0
 10
-4303.023485482543
 20
221.58762074365518
 30
0.0
 41
0.9998532968281727
 10
-4302.9348678617207
 20
221.7018336521256
 30
0.0
 41
1.0
 10
-4302.9149060727359
 20
221.72756097313757
 30
0.0
 41
1.0
 10
-4302.8949442837511
 20
221.75328829414954
 30
0.0
 41
1.0
 10
-4302.7764602339885
 20
221.90599390512205
 30
0.0
 41
0.999155197579586
 10
-4302.6458357843649
 20
222.04845346720617
 30
0.0
 41
1.0
 10
-4302.6423261683813
 20
222.0522810688347
 30
0.0
 41
1.0
 10
-4302.6388165523977
 20
222.0561086704632
 30
0.0
 41
1.0
 10
-4302.5152113347413
 20
222.19091302928996
 30
0.0
 41
0.9997418144181323
 10
-4302.3856091950411
 20
222.31996243990216
 30
0.0
 41
1.0
 10
-4302.2560070553418
 20
222.44901185051407
 30
0.0
 41
0.9989238204632207
 10
-4302.1150045070935
 20
222.56549681255021
 30
0.0
 41
1.0
 10
-4302.0697568289506
 20
222.60287680416133
 30
0.0
 41
1.0
 10
-4302.0245091508086
 20
222.64025679577242
 30
0.0
 41
1.0
 10
-4301.884269093588
 20
222.75611184906248
 30
0.0
 41
0.9990825084097356
 10
-4301.7346291609847
 20
222.8595408468949
 30
0.0
 41
1.0
 10
-4301.7245837969276
 20
222.86648405997448
 30
0.0
 41
1.0
 10
-4301.7145384328705
 20
222.87342727305403
 30
0.0
 41
1.0
 10
-4301.5849892283759
 20
222.96296984473071
 30
0.0
 41
0.9998164899827099
 10
-4301.4521050250041
 20
223.04748408624425
 30
0.0
 41
1.0
 10
-4301.4402594644816
 20
223.05501785276775
 30
0.0
 41
1.0
 10
-4301.4284139039592
 20
223.06255161929124
 30
0.0
 41
1.0
 10
-4301.3192208216342
 20
223.13199832775726
 30
0.0
 41
0.9997473449130448
 10
-4301.2070168643786
 20
223.19646728557632
 30
0.0
 41
1.0
 10
-4301.0948129071303
 20
223.26093624339103
 30
0.0
 41
0.9999327861143792
 10
-4300.9811442963373
 20
223.32278623508887
 30
0.0
 41
1.0
 10
-4300.9805922937903
 20
223.32308659376031
 30
0.0
 41
1.0
 10
-4300.9800402912442
 20
223.32338695243175
 30
0.0
 41
1.0
 10
-4300.8652676753663
 20
223.38583766146863
 30
0.0
 41
0.9996956420482737
 10
-4300.7475543495366
 20
223.44255112843794
 30
0.0
 41
1.0
 10
-4300.7171139446327
 20
223.45721710517361
 30
0.0
 41
1.0
 10
-4300.686673539728
 20
223.47188308190928
 30
0.0
 41
1.0
 10
-4300.5836964329901
 20
223.52149674034996
 30
0.0
 41
0.9998070570176575
 10
-4300.47885004405
 20
223.56702732725068
 30
0.0
 41
1.0
 10
-4300.3740036551053
 20
223.61255791415314
 30
0.0
 41
0.9997827436147483
 10
-4300.2673507185009
 20
223.65367908546258
 30
0.0
 41
1.0
 10
-4300.2481278688683
 20
223.66109065909546
 30
0.0
 41
1.0
 10
-4300.2289050192358
 20
223.66850223272831
 30
0.0
 41
1.0
 10
-4300.0838063833608
 20
223.72444655130585
 30
0.0
 41
0.9988031841977098
 10
-4299.9339360207578
 20
223.76594661547304
 30
0.0
 41
1.0
 10
-4299.9090187723959
 20
223.77284636127962
 30
0.0
 41
1.0
 10
-4299.8841015240332
 20
223.77974610708623
 30
0.0
 41
1.0
 10
-4299.7168314983828
 20
223.82606424949341
 30
0.0
 41
0.9984748040551142
 10
-4299.5454745897359
 20
223.8536584817582
 30
0.0
 41
1.0
 10
-4299.5407354534873
 20
223.85442164227157
 30
0.0
 41
1.0
 10
-4299.5359963172386
 20
223.85518480278495
 30
0.0
 41
1.0
 10
-4299.3741176810872
 20
223.88125271402282
 30
0.0
 41
0.9984436495480491
 10
-4299.2103429373619
 20
223.88913066784175
 30
0.0
 41
1.0
 10
-4299.1886457292294
 20
223.89017435504147
 30
0.0
 41
1.0
 10
-4299.1669485210978
 20
223.89121804224118
 30
0.0
 41
1.0
 10
-4299.0465681936357
 20
223.89700862166032
 30
0.0
 41
0.9987954789335899
 10
-4298.926199948728
 20
223.89097209391821
 30
0.0
 41
1.0
 10
-4298.9062351562334
 20
223.88997084957961
 30
0.0
 41
1.0
 10
-4298.8862703637378
 20
223.88896960524102
 30
0.0
 41
1.0
 10
-4298.8058317038167
 20
223.88493556617587
 30
0.0
 41
0.9997941595876602
 10
-4298.7256229257237
 20
223.87764150025487
 30
0.0
 41
1.0
 10
-4298.6454141476424
 20
223.87034743433509
 30
0.0
 41
0.9998589466236986
 10
-4298.5654956007775
 20
223.86036357988414
 30
0.0
 41
1.0
 10
-4298.5330893989667
 20
223.85631522296472
 30
0.0
 41
1.0
 10
-4298.5006831971568
 20
223.85226686604528
 30
0.0
 41
1.0
 10
-4298.355952246683
 20
223.83418629775647
 30
0.0
 41
0.99934950632492
 10
-4298.2129010029203
 20
223.80572058801516
 30
0.0
 41
1.0
 10
-4298.1799673057676
 20
223.79916712480022
 30
0.0
 41
1.0
 10
-4298.1470336086149
 20
223.79261366158528
 30
0.0
 41
1.0
 10
-4298.0377397854045
 20
223.77086532744809
 30
0.0
 41
0.9996788715562432
 10
-4297.9296882134549
 20
223.74360752808707
 30
0.0
 41
1.0
 10
-4297.9276252109148
 20
223.74308710151385
 30
0.0
 41
1.0
 10
-4297.9255622083747
 20
223.74256667494063
 30
0.0
 41
1.0
 10
-4297.8216366415018
 20
223.71634972872462
 30
0.0
 41
0.9995480654493505
 10
-4297.719474406269
 20
223.68393477209963
 30
0.0
 41
1.0
 10
-4297.7177847641415
 20
223.68339866718622
 30
0.0
 41
1.0
 10
-4297.7160951220139
 20
223.68286256227279
 30
0.0
 41
1.0
 10
-4297.6173121710372
 20
223.65151981547379
 30
0.0
 41
0.9993867959457303
 10
-4297.520965012598
 20
223.61334044618548
 30
0.0
 41
1.0
 10
-4297.5197220635146
 20
223.61284790428982
 30
0.0
 41
1.0
 10
-4297.5184791144311
 20
223.61235536239417
 30
0.0
 41
1.0
 10
-4297.424617854158
 20
223.5751610768975
 30
0.0
 41
0.9992050256520501
 10
-4297.3340181791218
 20
223.53060717765698
 30
0.0
 41
1.0
 10
-4297.3332834964112
 20
223.53024588519685
 30
0.0
 41
1.0
 10
-4297.3325488136998
 20
223.52988459273675
 30
0.0
 41
1.0
 10
-4297.2434185040865
 20
223.48605327841739
 30
0.0
 41
0.9990222350740216
 10
-4297.1585084426952
 20
223.43452001071989
 30
0.0
 41
1.0
 10
-4297.1583245574147
 20
223.43440840781614
 30
0.0
 41
1.0
 10
-4297.1581406721334
 20
223.43429680491241
 30
0.0
 41
1.0
 10
-4297.0735983813011
 20
223.38298674302152
 30
0.0
 41
0.9988642743803687
 10
-4296.9943238466822
 20
223.32386255549636
 30
0.0
 41
1.0
 10
-4296.9150493120578
 20
223.26473836796657
 30
0.0
 41
0.9987681233311045
 10
-4296.8420255277824
 20
223.19804767656566
 30
0.0
 41
1.0
 10
-4296.8416965998185
 20
223.19774727535383
 30
0.0
 41
1.0
 10
-4296.8413676718556
 20
223.19744687414197
 30
0.0
 41
1.0
 10
-4296.7676860316451
 20
223.13015538030916
 30
0.0
 41
0.9987496570900688
 10
-4296.7010922263171
 20
223.05584256622237
 30
0.0
 41
1.0
 10
-4296.7003200565578
 20
223.05498089286635
 30
0.0
 41
1.0
 10
-4296.6995478867993
 20
223.05411921951031
 30
0.0
 41
1.0
 10
-4296.6314097419508
 20
222.97808305870802
 30
0.0
 41
0.998814766982687
 10
-4296.5709874877257
 20
222.89578205186507
 30
0.0
 41
1.0
 10
-4296.5698681616486
 20
222.89425742051273
 30
0.0
 41
1.0
 10
-4296.5687488355707
 20
222.89273278916039
 30
0.0
 41
1.0
 10
-4296.5060879291923
 20
222.80738251961648
 30
0.0
 41
0.9989452636214546
 10
-4296.4515210162326
 20
222.71664383045982
 30
0.0
 41
1.0
 10
-4296.4501722901459
 20
222.71440104943127
 30
0.0
 41
1.0
 10
-4296.4488235640583
 20
222.71215826840273
 30
0.0
 41
1.0
 10
-4296.391559198928
 20
222.61693401719839
 30
0.0
 41
0.9991046436069109
 10
-4296.3425499856094
 20
222.5172095841786
 30
0.0
 41
1.0
 10
-4296.3410861240163
 20
222.51423090410034
 30
0.0
 41
1.0
 10
-4296.3396222624233
 20
222.51125222402209
 30
0.0
 41
1.0
 10
-4296.2876853259186
 20
222.40557043084502
 30
0.0
 41
0.999276383110263
 10
-4296.2439321973598
 20
222.29624636888138
 30
0.0
 41
1.0
 10
-4296.2424529276996
 20
222.29255018135495
 30
0.0
 41
1.0
 10
-4296.2409736580394
 20
222.28885399382852
 30
0.0
 41
1.0
 10
-4296.1942619901583
 20
222.17213755680703
 30
0.0
 41
0.9994163472884908
 10
-4296.1556289589689
 20
222.05250396834424
 30
0.0
 41
1.0
 10
-4296.1543908067215
 20
222.04866982455815
 30
0.0
 41
1.0
 10
-4296.1531526544732
 20
222.04483568077202
 30
0.0
 41
1.0
 10
-4296.1132690934564
 20
221.92132961929448
 30
0.0
 41
0.9997268055891129
 10
-4296.0792010375453
 20
221.79609458734672
 30
0.0
 41
1.0
 10
-4296.0782708572733
 20
221.79267522123126
 30
0.0
 41
1.0
 10
-4296.0773406770022
 20
221.78925585511581
 30
0.0
 41
1.0
 10
-4296.0451329816315
 20
221.67085955538889
 30
0.0
 41
0.9996701319000428
 10
-4296.0190473648636
 20
221.55096560213258
 30
0.0
 41
1.0
 10
-4295.9929617480921
 20
221.43107164886504
 30
0.0
 41
0.9995785451109304
 10
-4295.973878170752
 20
221.30986588782937
 30
0.0
 41
1.0
 10
-4295.9696583885798
 20
221.28306473307538
 30
0.0
 41
1.0
 10
-4295.9654386064085
 20
221.25626357832135
 30
0.0
 41
1.0
 10
-4295.9388636304666
 20
221.08747760461154
 30
0.0
 41
0.9979925101212324
 10
-4295.9338380445406
 20
220.91668627651279
 30
0.0
 41
1.0
 10
-4295.9330132321156
 20
220.88865555303801
 30
0.0
 41
1.0
 10
-4295.9321884196916
 20
220.86062482956322
 30
0.0
 41
1.0
 10
-4295.9288124586146
 20
220.74589494842803
 30
0.0
 41
0.9995314902263323
 10
-4295.9324626507532
 20
220.63117346466913
 30
0.0
 41
1.0
 10
-4295.9361128428918
 20
220.51645198090401
 30
0.0
 41
0.9996245486944314
 10
-4295.9460419380239
 20
220.40210270976627
 30
0.0
 41
1.0
 10
-4295.9462049860176
 20
220.40022495364451
 30
0.0
 41
1.0
 10
-4295.9463680340104
 20
220.39834719752275
 30
0.0
 41
1.0
 10
-4295.9566232251291
 20
220.28024241413749
 30
0.0
 41
0.9997286095000475
 10
-4295.9723685486988
 20
220.16274350525268
 30
0.0
 41
1.0
 10
-4295.9727620413505
 20
220.15980708054127
 30
0.0
 41
1.0
 10
-4295.9731555340022
 20
220.15687065582983
 30
0.0
 41
1.0
 10
-4295.9896878428744
 20
220.03349889753076
 30
0.0
 41
0.9998265533968778
 10
-4296.0108033016077
 20
219.91082842274039
 30
0.0
 41
1.0
 10
-4296.0114798437444
 20
219.90689804423417
 30
0.0
 41
1.0
 10
-4296.0121563858811
 20
219.90296766572794
 30
0.0
 41
1.0
 10
-4296.0346249288887
 20
219.77243643392032
 30
0.0
 41
0.9999022530850882
 10
-4296.0607343934989
 20
219.64258446527748
 30
0.0
 41
1.0
 10
-4296.0617130346636
 20
219.63771732289447
 30
0.0
 41
1.0
 10
-4296.0626916758283
 20
219.63285018051147
 30
0.0
 41
1.0
 10
-4296.0907584227716
 20
219.49326392708943
 30
0.0
 41
0.9999524761935608
 10
-4296.121541391607
 20
219.35425143392172
 30
0.0
 41
1.0
 10
-4296.1228174987809
 20
219.34848867462534
 30
0.0
 41
1.0
 10
-4296.1240936059548
 20
219.34272591532897
 30
0.0
 41
1.0
 10
-4296.1574287891453
 20
219.19218790353955
 30
0.0
 41
0.9999813588724146
 10
-4296.1925997899489
 20
219.04206819084791
 30
0.0
 41
1.0
 10
-4296.1941537153989
 20
219.03543560045352
 30
0.0
 41
1.0
 10
-4296.1957076408489
 20
219.02880301005916
 30
0.0
 41
1.0
 10
-4296.2339864925698
 20
218.86541811650829
 30
0.0
 41
0.999995523766731
 10
-4296.2732423705556
 20
218.70226521288308
 30
0.0
 41
1.0
 10
-4296.2855240061817
 20
218.65122102239445
 30
0.0
 41
1.0
 10
-4296.2978056418078
 20
218.60017683190586
 30
0.0
 41
1.0
 10
-4296.3616247911232
 20
218.33493554698441
 30
0.0
 41
0.9999993604479217
 10
-4296.4260437383518
 20
218.06983929604837
 30
0.0
 41
1.0
 10
-4296.4307625738356
 20
218.05042038826844
 30
0.0
 41
1.0
 10
-4296.4354814093194
 20
218.0310014804885
 30
0.0
 41
1.0
 10
-4296.5093380275803
 20
217.72706741372849
 30
0.0
 41
0.9999659914730078
 10
-4296.588197623465
 20
217.42439286716979
 30
0.0
 41
1.0
 10
-4296.5931503123957
 20
217.40538372998759
 30
0.0
 41
1.0
 10
-4296.5981030013263
 20
217.3863745928054
 30
0.0
 41
1.0
 10
-4296.6868679750778
 20
217.0456817718638
 30
0.0
 41
0.999944197602333
 10
-4296.78281100805
 20
216.706940346533
 30
0.0
 41
1.0
 10
-4296.7995115264675
 20
216.64797663403243
 30
0.0
 41
1.0
 10
-4296.816212044886
 20
216.58901292153189
 30
0.0
 41
1.0
 10
-4296.945556114696
 20
216.13234407119319
 30
0.0
 41
0.999962512073669
 10
-4297.0827888820113
 20
215.67798353722378
 30
0.0
 41
1.0
 10
-4297.1185788251059
 20
215.55948751055945
 30
0.0
 41
1.0
 10
-4297.1543687681997
 20
215.44099148389512
 30
0.0
 41
1.0
 10
-4297.2288889722367
 20
215.19426440580895
 30
0.0
 41
0.999979338630961
 10
-4297.3065749953694
 20
214.94851576658925
 30
0.0
 41
1.0
 10
-4297.3842610185065
 20
214.70276712735313
 30
0.0
 41
1.0
 10
-4297.3950405773767
 20
214.66874922297848
 30
0.0
 41
1.0
 10
-4299.245413630646
 20
208.78167730051098
 30
0.0
 41
1.0
 10
-4301.0957866839153
 20
202.89460537804348
 30
0.0
 41
1.0
 10
-4302.0570433739395
 20
202.89460537804348
 30
0.0
 41
1.0
 10
-4303.0183000639627
 20
202.89460537804348
 30
0.0
 41
1.0
 10
-4301.3993552852844
 20
208.04263387983292
 30
0.0
 41
1.0
 10
-4299.7804105066052
 20
213.19066238162236
 30
0.0
 41
1.0
 10
-4299.7352446834284
 20
213.33469360389972
 30
0.0
 41
1.0
 10
-4299.6900788602525
 20
213.47872482617711
 30
0.0
 41
1.0
 10
-4299.5197744428915
 20
214.02181585533572
 30
0.0
 41
0.9999911657920063
 10
-4299.3540416312135
 20
214.56631938668829
 30
0.0
 41
1.0
 10
-4299.3243456877408
 20
214.66388332664673
 30
0.0
 41
1.0
 10
-4299.294649744269
 20
214.76144726660516
 30
0.0
 41
1.0
 10
-4299.1883088195682
 20
215.11082291793946
 30
0.0
 41
0.9999952428142171
 10
-4299.0841252302089
 20
215.46084794240153
 30
0.0
 41
1.0
 10
-4299.0790657598773
 20
215.47784621667313
 30
0.0
 41
1.0
 10
-4299.0740062895466
 20
215.4948444909447
 30
0.0
 41
1.0
 10
-4298.9799416408823
 20
215.81087296675656
 30
0.0
 41
0.9999931687499917
 10
-4298.8882158030101
 20
216.12758818002158
 30
0.0
 41
1.0
 10
-4298.88328053855
 20
216.14462888929447
 30
0.0
 41
1.0
 10
-4298.87834527409
 20
216.16166959856736
 30
0.0
 41
1.0
 10
-4298.7964899651352
 20
216.44430339329423
 30
0.0
 41
0.9999893840787391
 10
-4298.7172427386795
 20
216.72767952253866
 30
0.0
 41
1.0
 10
-4298.6379955122302
 20
217.01105565176039
 30
0.0
 41
0.9999833980059217
 10
-4298.5620192714914
 20
217.29532623477203
 30
0.0
 41
1.0
 10
-4298.55301533477
 20
217.32901511324707
 30
0.0
 41
1.0
 10
-4298.5440113980485
 20
217.36270399172213
 30
0.0
 41
1.0
 10
-4298.4750468491775
 20
217.62073982403967
 30
0.0
 41
0.9999233658065297
 10
-4298.4124918779489
 20
217.88040398279168
 30
0.0
 41
1.0
 10
-4298.3499369067285
 20
218.14006814151412
 30
0.0
 41
1.0
 10
-4298.3104534878712
 20
218.30387480594027
 30
0.0
 41
1.0
 10
-4298.3054748838858
 20
218.32452976784481
 30
0.0
 41
1.0
 10
-4298.3004962799005
 20
218.34518472974938
 30
0.0
 41
1.0
 10
-4298.2709700690057
 20
218.46768147040177
 30
0.0
 41
0.9999868670842551
 10
-4298.242700985018
 20
218.59047441601183
 30
0.0
 41
1.0
 10
-4298.2388034978694
 20
218.60740400338878
 30
0.0
 41
1.0
 10
-4298.2349060107208
 20
218.62433359076573
 30
0.0
 41
1.0
 10
-4298.2144319010304
 20
218.71326736161882
 30
0.0
 41
0.9999778173353875
 10
-4298.1951443029066
 20
218.80246597888777
 30
0.0
 41
1.0
 10
-4298.1758567047909
 20
218.89166459611934
 30
0.0
 41
0.9999602692868853
 10
-4298.1581623461607
 20
218.98119288454225
 30
0.0
 41
1.0
 10
-4298.1549585140829
 20
218.99740333942907
 30
0.0
 41
1.0
 10
-4298.151754682005
 20
219.01361379431592
 30
0.0
 41
1.0
 10
-4298.1276526592192
 20
219.13556299250689
 30
0.0
 41
0.9995617985319749
 10
-4298.1108093120019
 20
219.25872474020343
 30
0.0
 41
1.0
 10
-4298.1083448220961
 20
219.27674555756988
 30
0.0
 41
1.0
 10
-4298.1058803321894
 20
219.29476637493633
 30
0.0
 41
1.0
 10
-4298.08559707114
 20
219.44308142464405
 30
0.0
 41
0.9991121410640643
 10
-4298.0778717175508
 20
219.59257752345832
 30
0.0
 41
1.0
 10
-4298.0769529275267
 20
219.61035736002572
 30
0.0
 41
1.0
 10
-4298.0760341375026
 20
219.62813719659314
 30
0.0
 41
1.0
 10
-4298.0701463639634
 20
219.74207362225573
 30
0.0
 41
0.9989792494907606
 10
-4298.0745654560797
 20
219.85607645816287
 30
0.0
 41
1.0
 10
-4298.0752134279483
 20
219.87279270407814
 30
0.0
 41
1.0
 10
-4298.0758613998159
 20
219.8895089499934
 30
0.0
 41
1.0
 10
-4298.0789845481977
 20
219.97007929404953
 30
0.0
 41
0.9997820295395751
 10
-4298.0854685455733
 20
220.05044901580527
 30
0.0
 41
1.0
 10
-4298.091952542949
 20
220.13081873754672
 30
0.0
 41
0.9998335105973831
 10
-4298.1013647384598
 20
220.21089835399525
 30
0.0
 41
1.0
 10
-4298.1029596631361
 20
220.22446808448035
 30
0.0
 41
1.0
 10
-4298.1045545878133
 20
220.23803781496542
 30
0.0
 41
1.0
 10
-4298.1171566326775
 20
220.34525689238325
 30
0.0
 41
0.9996876457879125
 10
-4298.1351005454762
 20
220.45171232009881
 30
0.0
 41
1.0
 10
-4298.1373322086201
 20
220.46495205533091
 30
0.0
 41
1.0
 10
-4298.1395638717631
 20
220.47819179056302
 30
0.0
 41
1.0
 10
-4298.1533596931858
 20
220.56003793453024
 30
0.0
 41
0.9995547496495787
 10
-4298.1720130150807
 20
220.64091543173072
 30
0.0
 41
1.0
 10
-4298.1723869719517
 20
220.64253684243619
 30
0.0
 41
1.0
 10
-4298.1727609288237
 20
220.64415825314168
 30
0.0
 41
1.0
 10
-4298.1906663369728
 20
220.72179292892105
 30
0.0
 41
0.999489942717523
 10
-4298.2134912456513
 20
220.79812621175631
 30
0.0
 41
1.0
 10
-4298.2139497723929
 20
220.79965966154933
 30
0.0
 41
1.0
 10
-4298.2144082991354
 20
220.80119311134234
 30
0.0
 41
1.0
 10
-4298.2363161543326
 20
220.87445949459638
 30
0.0
 41
0.9993784877588822
 10
-4298.2633317894379
 20
220.94600019974973
 30
0.0
 41
1.0
 10
-4298.2638634804116
 20
220.94740818246203
 30
0.0
 41
1.0
 10
-4298.2643951713853
 20
220.94881616517429
 30
0.0
 41
1.0
 10
-4298.2903474245422
 20
221.01754090490206
 30
0.0
 41
0.9992430832258733
 10
-4298.3215639597038
 20
221.08404005697707
 30
0.0
 41
1.0
 10
-4298.3221460757577
 20
221.0852801120883
 30
0.0
 41
1.0
 10
-4298.3227281918116
 20
221.08652016719952
 30
0.0
 41
1.0
 10
-4298.3527804948608
 20
221.15053920903881
 30
0.0
 41
0.9990789632802561
 10
-4298.3882111216399
 20
221.21174582079493
 30
0.0
 41
1.0
 10
-4298.3888068278229
 20
221.21277490665676
 30
0.0
 41
1.0
 10
-4298.3894025340069
 20
221.21380399251862
 30
0.0
 41
1.0
 10
-4298.423641748419
 20
221.27295243254972
 30
0.0
 41
0.9988874801117647
 10
-4298.4633010244488
 20
221.32861214496245
 30
0.0
 41
1.0
 10
-4298.4638565505129
 20
221.32939179663717
 30
0.0
 41
1.0
 10
-4298.464412076577
 20
221.33017144831189
 30
0.0
 41
1.0
 10
-4298.5029603004796
 20
221.38427185737933
 30
0.0
 41
0.9986762060694475
 10
-4298.5468627717564
 20
221.43412557181944
 30
0.0
 41
1.0
 10
-4298.5473067320909
 20
221.43462971363797
 30
0.0
 41
1.0
 10
-4298.5477506924244
 20
221.43513385545651
 30
0.0
 41
1.0
 10
-4298.5907652430351
 20
221.48397928626085
 30
0.0
 41
0.9984621642485114
 10
-4298.6389227998116
 20
221.52776258672975
 30
0.0
 41
1.0
 10
-4298.6391694343265
 20
221.52798681889166
 30
0.0
 41
1.0
 10
-4298.6394160688415
 20
221.52821105105357
 30
0.0
 41
1.0
 10
-4298.6870803565889
 20
221.57154588720152
 30
0.0
 41
0.9982724693846952
 10
-4298.7394989884306
 20
221.60899023771856
 30
0.0
 41
1.0
 10
-4298.7919176202695
 20
221.64643458823531
 30
0.0
 41
0.9981399180156224
 10
-4298.8485036836646
 20
221.67722110767974
 30
0.0
 41
1.0
 10
-4298.8485493457429
 20
221.67724595083689
 30
0.0
 41
1.0
 10
-4298.8485950078211
 20
221.67727079399401
 30
0.0
 41
1.0
 10
-4298.9052723953746
 20
221.70810699975334
 30
0.0
 41
0.9980927086837385
 10
-4298.9653177464406
 20
221.73172380860515
 30
0.0
 41
1.0
 10
-4298.9657579161512
 20
221.73189693447972
 30
0.0
 41
1.0
 10
-4298.9661980858618
 20
221.73207006035432
 30
0.0
 41
1.0
 10
-4299.0271237763482
 20
221.75603312095589
 30
0.0
 41
0.9981411356561465
 10
-4299.090512297751
 20
221.77240576246257
 30
0.0
 41
1.0
 10
-4299.0913944144522
 20
221.77263360466793
 30
0.0
 41
1.0
 10
-4299.0922765311534
 20
221.77286144687332
 30
0.0
 41
1.0
 10
-4299.1574292859559
 20
221.7896897727897
 30
0.0
 41
0.9983031812937208
 10
-4299.224096714951
 20
221.79882913396608
 30
0.0
 41
1.0
 10
-4299.2329677403541
 20
221.80004525263735
 30
0.0
 41
1.0
 10
-4299.2418387657581
 20
221.80126137130861
 30
0.0
 41
1.0
 10
-4299.2961884082652
 20
221.80871210130047
 30
0.0
 41
0.99838877082586
 10
-4299.3510322575557
 20
221.80995677493308
 30
0.0
 41
1.0
 10
-4299.3590956627722
 20
221.81013977280793
 30
0.0
 41
1.0
 10
-4299.3671590679896
 20
221.81032277068275
 30
0.0
 41
1.0
 10
-4299.4058761068527
 20
221.81120144856632
 30
0.0
 41
0.9998869563080348
 10
-4299.4446020600517
 20
221.81091557920672
 30
0.0
 41
1.0
 10
-4299.4833280132352
 20
221.81062970984718
 30
0.0
 41
0.9999972320116435
 10
-4299.5220521924621
 20
221.81016161031803
 30
0.0
 41
1.0
 10
-4299.5414052090437
 20
221.8099276702286
 30
0.0
 41
1.0
 10
-4299.5607582256243
 20
221.8096937301392
 30
0.0
 41
1.0
 10
-4299.6381884379916
 20
221.80875775043154
 30
0.0
 41
0.9997304945087926
 10
-4299.7154917442331
 20
221.80422865664534
 30
0.0
 41
1.0
 10
-4299.7245413859373
 20
221.80369845065542
 30
0.0
 41
1.0
 10
-4299.7335910276415
 20
221.80316824466547
 30
0.0
 41
1.0
 10
-4299.8289936172941
 20
221.79757873889929
 30
0.0
 41
0.999788830641491
 10
-4299.9240859531319
 20
221.78807377441021
 30
0.0
 41
1.0
 10
-4299.9328070147039
 20
221.78720205977822
 30
0.0
 41
1.0
 10
-4299.9415280762751
 20
221.78633034514621
 30
0.0
 41
1.0
 10
-4300.0540625352678
 20
221.77508195139214
 30
0.0
 41
0.9984170238191189
 10
-4300.1646216826184
 20
221.75126586945649
 30
0.0
 41
1.0
 10
-4300.2010028136019
 20
221.74342883365091
 30
0.0
 41
1.0
 10
-4300.2373839445854
 20
221.73559179784533
 30
0.0
 41
1.0
 10
-4300.3525750130066
 20
221.71077793133583
 30
0.0
 41
0.997659285420093
 10
-4300.4633031794147
 20
221.67047925418808
 30
0.0
 41
1.0
 10
-4300.5740313458209
 20
221.63018057704099
 30
0.0
 41
0.9993255074351051
 10
-4300.681503144604
 20
221.58186367855137
 30
0.0
 41
1.0
 10
-4300.6861283235303
 20
221.57978430235022
 30
0.0
 41
1.0
 10
-4300.6907535024566
 20
221.57770492614907
 30
0.0
 41
1.0
 10
-4300.8074756590941
 20
221.52522927525683
 30
0.0
 41
0.9976475078277456
 10
-4300.9159230034102
 20
221.4572812855958
 30
0.0
 41
1.0
 10
-4300.9342653975473
 20
221.44578880677975
 30
0.0
 41
1.0
 10
-4300.9526077916835
 20
221.43429632796369
 30
0.0
 41
1.0
 10
-4301.0368099832276
 20
221.38153920720021
 30
0.0
 41
0.9995131336407197
 10
-4301.1175576981841
 20
221.32363299524809
 30
0.0
 41
1.0
 10
-4301.1983054131397
 20
221.26572678329632
 30
0.0
 41
0.9995810107606491
 10
-4301.2755670608758
 20
221.20324510082423
 30
0.0
 41
1.0
 10
-4301.2785370920828
 20
221.20084322936208
 30
0.0
 41
1.0
 10
-4301.2815071232899
 20
221.19844135789992
 30
0.0
 41
1.0
 10
-4301.3647088334428
 20
221.13115593250168
 30
0.0
 41
0.9996617837953984
 10
-4301.4442995205736
 20
221.05963547694503
 30
0.0
 41
1.0
 10
-4301.4564302714543
 20
221.04873474395106
 30
0.0
 41
1.0
 10
-4301.4685610223351
 20
221.03783401095711
 30
0.0
 41
1.0
 10
-4301.5368365497261
 20
220.97648139549031
 30
0.0
 41
0.9997267750051959
 10
-4301.6021700580095
 20
220.91200485896513
 30
0.0
 41
1.0
 10
-4301.6675035663266
 20
220.84752832240761
 30
0.0
 41
0.9999667288968259
 10
-4301.7317765094922
 20
220.78199451549301
 30
0.0
 41
1.0
 10
-4301.800603957241
 20
220.71181685676095
 30
0.0
 41
1.0
 10
-4301.8694314049899
 20
220.64163919802888
 30
0.0
 41
1.0
 10
-4302.0713592436805
 20
220.43575007362443
 30
0.0
 41
0.9988205335175643
 10
-4302.2523648606584
 20
220.21124584156797
 30
0.0
 41
1.0
 10
-4302.2830048255673
 20
220.17324259113278
 30
0.0
 41
1.0
 10
-4302.3136447904762
 20
220.13523934069758
 30
0.0
 41
1.0
 10
-4302.5559303372584
 20
219.83472860778468
 30
0.0
 41
0.9997077826755638
 10
-4302.7834082883537
 20
219.5228588135833
 30
0.0
 41
1.0
 10
-4302.7851317034929
 20
219.52049603019248
 30
0.0
 41
1.0
 10
-4302.7868551186311
 20
219.51813324680165
 30
0.0
 41
1.0
 10
-4303.0177798999948
 20
219.20153788582982
 30
0.0
 41
0.9989147567078411
 10
-4303.2182434028755
 20
218.86482842464906
 30
0.0
 41
1.0
 10
-4303.2429845481802
 20
218.82327184409962
 30
0.0
 41
1.0
 10
-4303.2677256934858
 20
218.78171526355015
 30
0.0
 41
1.0
 10
-4303.4229369921268
 20
218.52101387909102
 30
0.0
 41
0.9997476598181853
 10
-4303.5662819796416
 20
218.25360413050134
 30
0.0
 41
1.0
 10
-4303.7096269671429
 20
217.98619438193305
 30
0.0
 41
0.9996258967109986
 10
-4303.838135219069
 20
217.71134644532245
 30
0.0
 41
1.0
 10
-4303.8513351285201
 20
217.68311504522399
 30
0.0
 41
1.0
 10
-4303.8645350379711
 20
217.65488364512549
 30
0.0
 41
1.0
 10
-4304.0047437589765
 20
217.3550112471616
 30
0.0
 41
0.9998735413944767
 10
-4304.1353451057021
 20
217.05083164768246
 30
0.0
 41
1.0
 10
-4304.1387879337672
 20
217.04281306220679
 30
0.0
 41
1.0
 10
-4304.1422307618323
 20
217.03479447673112
 30
0.0
 41
1.0
 10
-4304.2659464524259
 20
216.74665204820658
 30
0.0
 41
0.9999377418858985
 10
-4304.3832012545972
 20
216.45582058053981
 30
0.0
 41
1.0
 10
-4304.500456056775
 20
216.16498911285814
 30
0.0
 41
0.999950829950555
 10
-4304.6119200001503
 20
215.87188943604212
 30
0.0
 41
1.0
 10
-4304.6150007688129
 20
215.86378841007843
 30
0.0
 41
1.0
 10
-4304.6180815374755
 20
215.85568738411473
 30
0.0
 41
1.0
 10
-4304.7357070181697
 20
215.54638565538704
 30
0.0
 41
0.9999609228437251
 10
-4304.8478456210369
 20
215.23505263939057
 30
0.0
 41
1.0
 10
-4304.8508016313936
 20
215.22684579896088
 30
0.0
 41
1.0
 10
-4304.8537576417511
 20
215.21863895853119
 30
0.0
 41
1.0
 10
-4304.9718082653289
 20
214.89089226168164
 30
0.0
 41
0.9999674607394866
 10
-4305.0845557914035
 20
214.56128364166747
 30
0.0
 41
1.0
 10
-4305.1359541819547
 20
214.41102444600975
 30
0.0
 41
1.0
 10
-4305.1873525725059
 20
214.26076525035202
 30
0.0
 41
1.0
 10
-4305.3033631792687
 20
213.92161726783584
 30
0.0
 41
0.9999287532308301
 10
-4305.4112445832461
 20
213.57979652883898
 30
0.0
 41
1.0
 10
-4305.4577218394497
 20
213.43253398426253
 30
0.0
 41
1.0
 10
-4305.5041990956543
 20
213.28527143968606
 30
0.0
 41
1.0
 10
-4305.5191259872881
 20
213.23797578963581
 30
0.0
 41
0.9999998224460734
 10
-4305.5339964959467
 20
213.19066238162236
 30
0.0
 41
1.0
 10
-4307.154652632742
 20
208.04263387983292
 30
0.0
 41
1.0
 10
-4308.7753087695382
 20
202.89460537804348
 30
0.0
 41
1.0
 10
-4309.6806172134293
 20
202.89460537804348
 30
0.0
 41
1.0
 10
-4310.5859256573194
 20
202.89460537804348
 30
0.0
 41
1.0
 10
-4308.7338412459339
 20
208.78167730051098
 30
0.0
 41
1.0
 10
-4306.8817568345476
 20
214.66874922297848
 30
0.0
 41
1.0
 10
-4306.8716350762452
 20
214.70079243642817
 30
0.0
 41
1.0
 10
-4306.7990274073954
 20
214.93109197825402
 30
0.0
 41
1.0
 10
-4306.7264197385284
 20
215.1613915201346
 30
0.0
 41
0.9999825681968396
 10
-4306.6565366992972
 20
215.39253241526464
 30
0.0
 41
1.0
 10
-4306.6082456371496
 20
215.55225699871693
 30
0.0
 41
1.0
 10
-4306.5599545750028
 20
215.71198158216922
 30
0.0
 41
1.0
 10
-4306.4628022216903
 20
216.03331680392927
 30
0.0
 41
0.9999672528967398
 10
-4306.370863416073
 20
216.35618234949482
 30
0.0
 41
1.0
 10
-4306.3680745324073
 20
216.36597619487293
 30
0.0
 41
1.0
 10
-4306.3652856487406
 20
216.37577004025101
 30
0.0
 41
1.0
 10
-4306.2789246104476
 20
216.67904789508546
 30
0.0
 41
0.9999899749145773
 10
-4306.195283000915
 20
216.98308698353355
 30
0.0
 41
1.0
 10
-4306.185177081903
 20
217.01982222119378
 30
0.0
 41
1.0
 10
-4306.1750711628902
 20
217.056557458854
 30
0.0
 41
1.0
 10
-4306.111641391386
 20
217.28712607196644
 30
0.0
 41
0.999921420050467
 10
-4306.0540119630023
 20
217.51921241419529
 30
0.0
 41
1.0
 10
-4306.0412461108144
 20
217.57062329962176
 30
0.0
 41
1.0
 10
-4306.0284802586266
 20
217.62203418504822
 30
0.0
 41
1.0
 10
-4305.9963825346158
 20
217.75129875644069
 30
0.0
 41
0.9999828681669011
 10
-4305.9658002826291
 20
217.88093023087208
 30
0.0
 41
1.0
 10
-4305.9352180306332
 20
218.01056170534378
 30
0.0
 41
0.9999389844476058
 10
-4305.9075070418439
 20
218.1408371612433
 30
0.0
 41
1.0
 10
-4305.9003692981241
 20
218.17439326507889
 30
0.0
 41
1.0
 10
-4305.8932315544043
 20
218.20794936891446
 30
0.0
 41
1.0
 10
-4305.8512450781727
 20
218.40533703249696
 30
0.0
 41
0.9998933699439098
 10
-4305.815040813769
 20
218.60386664026586
 30
0.0
 41
1.0
 10
-4305.8136679885538
 20
218.61139466095352
 30
0.0
 41
1.0
 10
-4305.8122951633395
 20
218.61892268164115
 30
0.0
 41
1.0
 10
-4305.7733452485027
 20
218.83250833080115
 30
0.0
 41
0.9996850305193088
 10
-4305.7451615722439
 20
219.04777933624575
 30
0.0
 41
1.0
 10
-4305.7431665388767
 20
219.06301769035352
 30
0.0
 41
1.0
 10
-4305.7411715055096
 20
219.07825604446128
 30
0.0
 41
1.0
 10
-4305.7137636430498
 20
219.28760127162275
 30
0.0
 41
0.9994697936706684
 10
-4305.7000390838293
 20
219.4982864669588
 30
0.0
 41
1.0
 10
-4305.6995620145808
 20
219.50560993915275
 30
0.0
 41
1.0
 10
-4305.6990849453323
 20
219.51293341134667
 30
0.0
 41
1.0
 10
-4305.6863145246098
 20
219.70897166227221
 30
0.0
 41
0.9991804893137604
 10
-4305.6894428408814
 20
219.90540051226299
 30
0.0
 41
1.0
 10
-4305.6895267197033
 20
219.91066731367943
 30
0.0
 41
1.0
 10
-4305.6896105985261
 20
219.91593411509584
 30
0.0
 41
1.0
 10
-4305.6925711571548
 20
220.10182936224001
 30
0.0
 41
0.9988448329321163
 10
-4305.7133627027788
 20
220.28658195206981
 30
0.0
 41
1.0
 10
-4305.7149567764827
 20
220.30074680784924
 30
0.0
 41
1.0
 10
-4305.7165508501866
 20
220.31491166362864
 30
0.0
 41
1.0
 10
-4305.7341542484037
 20
220.47133454191098
 30
0.0
 41
0.9985503209458073
 10
-4305.7684705207021
 20
220.62495872599243
 30
0.0
 41
1.0
 10
-4305.7760565127737
 20
220.65891905339583
 30
0.0
 41
1.0
 10
-4305.7836425048463
 20
220.69287938079927
 30
0.0
 41
1.0
 10
-4305.8027867930023
 20
220.77858291008627
 30
0.0
 41
0.9991036781368448
 10
-4305.8291116546525
 20
220.86235999740666
 30
0.0
 41
1.0
 10
-4305.8330938801091
 20
220.87503315991995
 30
0.0
 41
1.0
 10
-4305.8370761055658
 20
220.88770632243322
 30
0.0
 41
1.0
 10
-4305.8554365163054
 20
220.94613708473616
 30
0.0
 41
0.9998874504368854
 10
-4305.8755417239827
 20
221.00399068695492
 30
0.0
 41
1.0
 10
-4305.8956469316618
 20
221.06184428918067
 30
0.0
 41
0.9994041637544827
 10
-4305.9196955445968
 20
221.11817299307376
 30
0.0
 41
1.0
 10
-4305.9238923288176
 20
221.12800305754877
 30
0.0
 41
1.0
 10
-4305.9280891130393
 20
221.13783312202375
 30
0.0
 41
1.0
 10
-4305.9559679440354
 20
221.20313328799392
 30
0.0
 41
0.9991846840704248
 10
-4305.9890243007303
 20
221.26597131927929
 30
0.0
 41
1.0
 10
-4305.9901609071276
 20
221.26813193573872
 30
0.0
 41
1.0
 10
-4305.9912975135258
 20
221.27029255219819
 30
0.0
 41
1.0
 10
-4306.0220806574262
 20
221.32880935056474
 30
0.0
 41
0.9989253167917557
 10
-4306.0581500814787
 20
221.38422427894977
 30
0.0
 41
1.0
 10
-4306.0592042061526
 20
221.385843773712
 30
0.0
 41
1.0
 10
-4306.0602583308273
 20
221.38746326847425
 30
0.0
 41
1.0
 10
-4306.0942195055341
 20
221.43963920734029
 30
0.0
 41
0.9986467172838341
 10
-4306.133416658171
 20
221.48800524096953
 30
0.0
 41
1.0
 10
-4306.1342907868693
 20
221.48908384324497
 30
0.0
 41
1.0
 10
-4306.1351649155677
 20
221.49016244552041
 30
0.0
 41
1.0
 10
-4306.172613810807
 20
221.53637127459672
 30
0.0
 41
0.9984001104271838
 10
-4306.2150405413258
 20
221.57805638196794
 30
0.0
 41
1.0
 10
-4306.2156276794358
 20
221.57863325684923
 30
0.0
 41
1.0
 10
-4306.2162148175448
 20
221.57921013173055
 30
0.0
 41
1.0
 10
-4306.257467271842
 20
221.61974148933626
 30
0.0
 41
0.9982442159080154
 10
-4306.3032233731783
 20
221.65511005059693
 30
0.0
 41
1.0
 10
-4306.3034381686412
 20
221.65527608324135
 30
0.0
 41
1.0
 10
-4306.3036529641049
 20
221.65544211588573
 30
0.0
 41
1.0
 10
-4306.3489794745137
 20
221.69047861185675
 30
0.0
 41
0.9982450060836686
 10
-4306.3981304535855
 20
221.71991039489069
 30
0.0
 41
1.0
 10
-4306.4472814326591
 20
221.74934217792591
 30
0.0
 41
0.9983922639629533
 10
-4306.4994477388227
 20
221.77302181257841
 30
0.0
 41
1.0
 10
-4306.4996746161469
 20
221.7731247980598
 30
0.0
 41
1.0
 10
-4306.499901493471
 20
221.77322778354119
 30
0.0
 41
1.0
 10
-4306.5525215542839
 20
221.79711338915726
 30
0.0
 41
0.9986517147152704
 10
-4306.6073345271525
 20
221.8154145082797
 30
0.0
 41
1.0
 10
-4306.6080124485807
 20
221.81564085471121
 30
0.0
 41
1.0
 10
-4306.6086903700088
 20
221.81586720114274
 30
0.0
 41
1.0
 10
-4306.6648591857274
 20
221.83462101312577
 30
0.0
 41
0.9989435598959054
 10
-4306.7225125728792
 20
221.8481387153609
 30
0.0
 41
1.0
 10
-4306.7235926924632
 20
221.84839196561441
 30
0.0
 41
1.0
 10
-4306.7246728120472
 20
221.84864521586792
 30
0.0
 41
1.0
 10
-4306.7844864383569
 20
221.86266941860666
 30
0.0
 41
0.9992249241245087
 10
-4306.8452179472597
 20
221.8719447613237
 30
0.0
 41
1.0
 10
-4306.8466316355507
 20
221.8721606697315
 30
0.0
 41
1.0
 10
-4306.8480453238417
 20
221.87237657813932
 30
0.0
 41
1.0
 10
-4306.9116042093174
 20
221.88208373766983
 30
0.0
 41
0.999439659783378
 10
-4306.9756701458573
 20
221.88751666001588
 30
0.0
 41
1.0
 10
-4306.9948108133358
 20
221.88913982773454
 30
0.0
 41
1.0
 10
-4307.0139514808134
 20
221.8907629954532
 30
0.0
 41
1.0
 10
-4307.1162987523085
 20
221.89944225323657
 30
0.0
 41
0.998769340312016
 10
-4307.2190023758922
 20
221.89793918978356
 30
0.0
 41
1.0
 10
-4307.2292567101194
 20
221.89778911800937
 30
0.0
 41
1.0
 10
-4307.2395110443467
 20
221.89763904623516
 30
0.0
 41
1.0
 10
-4307.349066810526
 20
221.89603570194805
 30
0.0
 41
0.9989753644965227
 10
-4307.4580288105426
 20
221.88453269502259
 30
0.0
 41
1.0
 10
-4307.5669908105629
 20
221.87302968809666
 30
0.0
 41
0.9983190067307017
 10
-4307.6738896215247
 20
221.84899469631077
 30
0.0
 41
1.0
 10
-4307.6827905731316
 20
221.84699341774802
 30
0.0
 41
1.0
 10
-4307.6916915247384
 20
221.84499213918525
 30
0.0
 41
1.0
 10
-4307.8163922389112
 20
221.81695459027455
 30
0.0
 41
0.9985539388303109
 10
-4307.9373619925891
 20
221.77569091422922
 30
0.0
 41
1.0
 10
-4307.9397074235512
 20
221.77489087041255
 30
0.0
 41
1.0
 10
-4307.9420528545143
 20
221.77409082659585
 30
0.0
 41
1.0
 10
-4308.0677134701145
 20
221.73122706291832
 30
0.0
 41
0.9988468746492145
 10
-4308.1886838124146
 20
221.67650897785552
 30
0.0
 41
1.0
 10
-4308.1918666344027
 20
221.67506930329591
 30
0.0
 41
1.0
 10
-4308.1950494563907
 20
221.67362962873631
 30
0.0
 41
1.0
 10
-4308.3223854426651
 20
221.61603219455611
 30
0.0
 41
0.9991322885918108
 10
-4308.444486026724
 20
221.54803686237273
 30
0.0
 41
1.0
 10
-4308.4620880377679
 20
221.53823466038273
 30
0.0
 41
1.0
 10
-4308.4796900488127
 20
221.52843245839273
 30
0.0
 41
1.0
 10
-4308.5818667298745
 20
221.47153234260944
 30
0.0
 41
0.999386003784946
 10
-4308.6798077339436
 20
221.40761632702333
 30
0.0
 41
1.0
 10
-4308.6854260468026
 20
221.40394983232432
 30
0.0
 41
1.0
 10
-4308.6910443596607
 20
221.40028333762527
 30
0.0
 41
1.0
 10
-4308.7777487380272
 20
221.34370031142836
 30
0.0
 41
0.9998821494953252
 10
-4308.8626751138299
 20
221.28448208135808
 30
0.0
 41
1.0
 10
-4308.9476014896518
 20
221.22526385127495
 30
0.0
 41
0.9997976482744843
 10
-4309.0300771200518
 20
221.16267744323571
 30
0.0
 41
1.0
 10
-4309.0447133848538
 20
221.1515707534578
 30
0.0
 41
1.0
 10
-4309.0593496496567
 20
221.14046406367993
 30
0.0
 41
1.0
 10
-4309.1710978096744
 20
221.05566427607502
 30
0.0
 41
0.9998091630801015
 10
-4309.2794480877074
 20
220.96656392536869
 30
0.0
 41
1.0
 10
-4309.2924538401794
 20
220.95586882492685
 30
0.0
 41
1.0
 10
-4309.3054595926515
 20
220.94517372448502
 30
0.0
 41
1.0
 10
-4309.4398213756376
 20
220.83468317288899
 30
0.0
 41
0.9995035112316395
 10
-4309.5669572534052
 20
220.71594935586978
 30
0.0
 41
1.0
 10
-4309.5766045637902
 20
220.70693960971411
 30
0.0
 41
1.0
 10
-4309.5862518741751
 20
220.69792986355844
 30
0.0
 41
1.0
 10
-4309.7096749369412
 20
220.58266349180107
 30
0.0
 41
0.999463042429966
 10
-4309.8252833427214
 20
220.45956074856986
 30
0.0
 41
1.0
 10
-4309.8289661814906
 20
220.45563916905854
 30
0.0
 41
1.0
 10
-4309.8326490202608
 20
220.45171758954726
 30
0.0
 41
1.0
 10
-4309.9408917485061
 20
220.33645800533384
 30
0.0
 41
0.9995160693749007
 10
-4310.0417577780372
 20
220.21469058746209
 30
0.0
 41
1.0
 10
-4310.0436914981155
 20
220.21235616325706
 30
0.0
 41
1.0
 10
-4310.0456252181939
 20
220.21002173905202
 30
0.0
 41
1.0
 10
-4310.1426238075665
 20
220.09292316959323
 30
0.0
 41
0.9996561470515238
 10
-4310.2333500262357
 20
219.97090040714033
 30
0.0
 41
1.0
 10
-4310.2395076921366
 20
219.96261861809859
 30
0.0
 41
1.0
 10
-4310.2456653580384
 20
219.95433682905684
 30
0.0
 41
1.0
 10
-4310.3240762449032
 20
219.84887764468832
 30
0.0
 41
0.9998349055173859
 10
-4310.3986035268335
 20
219.74063906102776
 30
0.0
 41
1.0
 10
-4310.4731308087676
 20
219.63240047736224
 30
0.0
 41
0.9999728109566656
 10
-4310.5460537046674
 20
219.52307455182233
 30
0.0
 41
1.0
 10
-4310.5473689200835
 20
219.52110278231322
 30
0.0
 41
1.0
 10
-4310.5486841354996
 20
219.51913101280411
 30
0.0
 41
1.0
 10
-4310.6242374622225
 20
219.40586154825883
 30
0.0
 41
0.9999972147450803
 10
-4310.6992552726024
 20
219.29223670541532
 30
0.0
 41
1.0
 10
-4310.7042268152272
 20
219.28470661693939
 30
0.0
 41
1.0
 10
-4310.7091983578521
 20
219.27717652846343
 30
0.0
 41
1.0
 10
-4310.7941592534798
 20
219.14849150866939
 30
0.0
 41
0.9999371979002367
 10
-4310.8762146028967
 20
219.01793459487078
 30
0.0
 41
1.0
 10
-4310.8797234872472
 20
219.01235166682278
 30
0.0
 41
1.0
 10
-4310.8832323715988
 20
219.00676873877478
 30
0.0
 41
1.0
 10
-4310.9723054897313
 20
218.86504596885965
 30
0.0
 41
0.9998272025612246
 10
-4311.0560488806195
 20
218.72011009210664
 30
0.0
 41
1.0
 10
-4311.0712640526381
 20
218.69377697765856
 30
0.0
 41
1.0
 10
-4311.0864792246575
 20
218.66744386321045
 30
0.0
 41
1.0
 10
-4311.2006529595901
 20
218.46984175755045
 30
0.0
 41
0.9995217214837123
 10
-4311.3023926491478
 20
218.26555942968253
 30
0.0
 41
1.0
 10
-4311.3100362117875
 20
218.25021197996989
 30
0.0
 41
1.0
 10
-4311.3176797744272
 20
218.23486453025728
 30
0.0
 41
1.0
 10
-4311.4045850670109
 20
218.06036807218908
 30
0.0
 41
0.9998269762607489
 10
-4311.4849395332749
 20
217.88275978548177
 30
0.0
 41
1.0
 10
-4311.5652939995443
 20
217.70515149876474
 30
0.0
 41
0.999894474738953
 10
-4311.6404547941065
 20
217.52528377314252
 30
0.0
 41
1.0
 10
-4311.6454084636998
 20
217.51342911822019
 30
0.0
 41
1.0
 10
-4311.6503621332931
 20
217.50157446329789
 30
0.0
 41
1.0
 10
-4311.7310091938452
 20
217.30857752327995
 30
0.0
 41
0.9999506734408148
 10
-4311.8078067227507
 20
217.11401671841884
 30
0.0
 41
1.0
 10
-4311.8224066880393
 20
217.07702879656864
 30
0.0
 41
1.0
 10
-4311.8370066533271
 20
217.04004087471844
 30
0.0
 41
1.0
 10
-4311.8846042516789
 20
216.91945591350239
 30
0.0
 41
0.9999912393939049
 10
-4311.9311906956773
 20
216.79847671086691
 30
0.0
 41
1.0
 10
-4311.9777771396757
 20
216.67749750823413
 30
0.0
 41
0.9999927113959268
 10
-4312.0234384340529
 20
216.556166100778
 30
0.0
 41
1.0
 10
-4312.037406865471
 20
216.51904911872464
 30
0.0
 41
1.0
 10
-4312.0513752968891
 20
216.48193213667128
 30
0.0
 41
1.0
 10
-4312.124973454077
 20
216.28636676517829
 30
0.0
 41
0.9999487550951614
 10
-4312.1945970790484
 20
216.08935139999605
 30
0.0
 41
1.0
 10
-4312.2181906889791
 20
216.02258808972155
 30
0.0
 41
1.0
 10
-4312.2417842989098
 20
215.95582477944706
 30
0.0
 41
1.0
 10
-4312.3364699332869
 20
215.68789094460109
 30
0.0
 41
0.9999808436942301
 10
-4312.4278315219362
 20
215.41880551331406
 30
0.0
 41
1.0
 10
-4312.5191931105728
 20
215.14972008206377
 30
0.0
 41
0.9999873932893636
 10
-4312.6078478192931
 20
214.8797307270425
 30
0.0
 41
1.0
 10
-4312.627940176164
 20
214.81854139428643
 30
0.0
 41
1.0
 10
-4312.648032533034
 20
214.75735206153036
 30
0.0
 41
1.0
 10
-4312.7768719555024
 20
214.36498404097836
 30
0.0
 41
0.9999794883024183
 10
-4312.9006747404746
 20
213.97099783465418
 30
0.0
 41
1.0
 10
-4312.9118269999108
 20
213.93550722442231
 30
0.0
 41
1.0
 10
-4312.9229792593469
 20
213.90001661419043
 30
0.0
 41
1.0
 10
-4313.065537423231
 20
213.44634386214383
 30
0.0
 41
0.9999982761745307
 10
-4313.2064098632372
 20
212.99214484005006
 30
0.0
 41
1.0
 10
-4314.7945501958093
 20
207.94337510904677
 30
0.0
 41
1.0
 10
-4316.3826905283822
 20
202.89460537804348
 30
0.0
 41
1.0
 10
-4317.3314411398587
 20
202.89460537804348
 30
0.0
 41
1.0
 10
-4318.2801917513352
 20
202.89460537804348
 30
0.0
 41
1.0
 10
-4315.0419072651821
 20
213.22192757798962
 30
0.0
 41
1.0
 10
-4311.803622779029
 20
223.54924977793576
 30
0.0
 41
1.0
  0
LWPOLYLINE
  5
5B
100
AcDbEntity
  8
0
370
              15
390
0
  6
Continuous
 62
               7
100
AcDbPolyline
 90
      232
 70
             128
 10
-4337.5071685528555
 20
222.46490694642057
 42
0.0004370800779274
 10
-4337.5600457269102
 20
222.39624030718682
 10
-4337.599329958055
 20
222.34513319426776
 42
0.0030481992188897
 10
-4337.729668675197
 20
222.17341150189333
 10
-4337.768180346925
 20
222.12202471813544
 42
0.004205824575179
 10
-4337.9721653975848
 20
221.8450189730753
 10
-4338.0245705200959
 20
221.772586126281
 42
0.0120948898733973
 10
-4338.3206144368605
 20
221.34183652172669
 10
-4338.4168069359766
 20
221.19435578651024
 42
0.0141601263947592
 10
-4338.7204509829007
 20
220.69868644977169
 10
-4338.7599882503355
 20
220.6298424823238
 42
0.007113108131577
 10
-4338.9652605735646
 20
220.2603396835018
 42
0.0068458791002231
 10
-4339.1601401003863
 20
219.88524812006847
 10
-4339.1669519628658
 20
219.87168640630205
 42
0.0064120880286626
 10
-4339.3650942129107
 20
219.46426193138208
 10
-4339.3726288984271
 20
219.44825007466193
 42
0.0058857236439605
 10
-4339.5753842903032
 20
219.00387396361819
 10
-4339.5835592165931
 20
218.98538380999298
 42
0.0053189741902211
 10
-4339.7922635292725
 20
218.49942033604327
 10
-4339.801011334941
 20
218.47843845787895
 42
0.0047503650415015
 10
-4340.0169850610837
 20
217.94623902469257
 10
-4340.026253309441
 20
217.92276264856139
 42
0.0042071762179885
 10
-4340.2508006931967
 20
217.33966905441625
 10
-4340.2605500955169
 20
217.31370287962193
 42
0.0036680086478394
 10
-4340.4950047388311
 20
216.67506749508578
 10
-4340.5052125186767
 20
216.6466189607462
 42
0.0032573142630768
 10
-4340.7508448046437
 20
215.94776630099233
 10
-4340.8194953254906
 20
215.7483032169217
 42
0.0026133366645846
 10
-4341.1679405242421
 20
214.71843993326797
 10
-4341.2311973117676
 20
214.52820909780078
 42
0.0020592950742867
 10
-4341.4450603807099
 20
213.87610544526183
 10
-4341.4481121718518
 20
213.86666895691837
 42
0.0025609928526802
 10
-4341.6499326733592
 20
213.23152373448625
 10
-4341.652524040469
 20
213.22322139359909
 42
0.0031362356234433
 10
-4341.842014826163
 20
212.60245853736615
 10
-4341.8441458690959
 20
212.59531723113645
 42
0.0037229918034167
 10
-4342.020946256016
 20
211.98633192918089
 10
-4342.0226248452454
 20
211.98038503892633
 42
0.0043077623717029
 10
-4342.1863656472879
 20
211.38056630723747
 42
0.0047654161826661
 10
-4342.3391943698061
 20
210.77788021832521
 10
-4342.3736589786422
 20
210.63631844118538
 42
0.011296936844758
 10
-4342.569523336786
 20
209.74462628056176
 10
-4342.5975297258829
 20
209.60179823446333
 42
0.0130056762571328
 10
-4342.7983669695295
 20
208.41485716281841
 10
-4342.8189067196772
 20
208.27077904933674
 42
0.0138721532144851
 10
-4342.9226097242145
 20
207.36394956351569
 10
-4342.9419052121266
 20
207.14045184154369
 42
0.007125469701919
 10
-4342.9752518580444
 20
206.67726483274339
 10
-4342.9802128322081
 20
206.59126083817964
 42
0.0028881799203125
 10
-4342.995351125498
 20
206.29951912834065
 42
0.0060297297126192
 10
-4343.005283325273
 20
206.00757019225725
 10
-4343.0063456069411
 20
205.95917782029386
 42
0.0229523164148235
 10
-4342.9986145791554
 20
205.63642297400918
 10
-4342.9943888056368
 20
205.57601944001038
 42
0.0123673300650709
 10
-4342.9753101591168
 20
205.37489871481819
 42
0.0128577674484648
 10
-4342.9461147687089
 20
205.17500086488502
 10
-4342.9389888953228
 20
205.13367205029442
 42
0.0285717853764133
 10
-4342.8744948936283
 20
204.85555589898235
 10
-4342.8608263699589
 20
204.8089011294945
 42
0.0316283099161506
 10
-4342.7450157900466
 20
204.48988662767806
 10
-4342.7419670982945
 20
204.48290025535954
 42
0.033898482421709
 10
-4342.5925353873245
 20
204.19533429116336
 10
-4342.5902266579596
 20
204.19154326189567
 42
0.0350228718335056
 10
-4342.4078663672808
 20
203.93449127721055
 10
-4342.4069811155086
 20
203.93341219944955
 42
0.034747674751164
 10
-4342.1925564282656
 20
203.70622715222646
 42
0.0331337701902276
 10
-4341.9493131025183
 20
203.51009849014849
 10
-4341.9482130040033
 20
203.50932578697655
 42
0.0305233319081388
 10
-4341.6796683084303
 20
203.34419761688568
 10
-4341.6764382639285
 20
203.34247360502252
 42
0.0273744481139154
 10
-4341.3838845523605
 20
203.20633546113461
 10
-4341.3787800172167
 20
203.20429187666241
 42
0.0240964406202901
 10
-4341.0633029415667
 20
203.09530815037985
 10
-4341.0567196123611
 20
203.093383410706
 42
0.0209636179807245
 10
-4340.7193194597048
 20
203.00991526277326
 10
-4340.7116869992597
 20
203.00836334977248
 42
0.0181388704680072
 10
-4340.353364607261
 20
202.9489472565586
 10
-4340.3450837588825
 20
202.94788107274144
 42
0.0156086547575184
 10
-4339.9668963946951
 20
202.91114488616483
 10
-4339.9237011423666
 20
202.90830638368581
 42
0.0137148329025273
 10
-4339.5960279970677
 20
202.89578612843445
 10
-4339.5500918071257
 20
202.89529169531923
 42
0.0051057823911538
 10
-4339.31394622055
 20
202.8951614409101
 42
0.0052256693320144
 10
-4339.0778489367631
 20
202.89991026537447
 10
-4339.0076221530217
 20
202.90205723138843
 42
0.0161507179043296
 10
-4338.6318850749185
 20
202.92570760171526
 10
-4338.6118721145485
 20
202.92761779700254
 42
0.0101216737823708
 10
-4338.1978448930613
 20
202.9756107273675
 10
-4338.1637916036307
 20
202.98025842417769
 42
0.0245291776398257
 10
-4337.6870019480757
 20
203.06933350225472
 10
-4337.6021786325528
 20
203.08952942260046
 42
0.0143509212572794
 10
-4337.2455475286151
 20
203.18533405637857
 42
0.0156557857042975
 10
-4336.8953314638929
 20
203.30234527219591
 10
-4336.887830249394
 20
203.30511543395153
 42
0.0170137333642436
 10
-4336.5312342537045
 20
203.45077304882616
 10
-4336.5241303313051
 20
203.45396088438633
 42
0.0183105364425705
 10
-4336.1647806631408
 20
203.63129592620962
 10
-4336.1578338985
 20
203.6350463610828
 42
0.0194899958151871
 10
-4335.7993531575103
 20
203.84702534297725
 10
-4335.7923392781795
 20
203.85155068526853
 42
0.0204869852956521
 10
-4335.4383249760849
 20
204.10107070035437
 10
-4335.4310593674982
 20
204.10665076570274
 42
0.0212516938557205
 10
-4335.0850694363844
 20
204.39655476260262
 10
-4335.038552742305
 20
204.43902207270031
 42
0.0215248918267542
 10
-4334.7785265734274
 20
204.69778635168552
 10
-4334.7334968390333
 20
204.74663047305032
 42
0.0114578554994324
 10
-4334.5787046853693
 20
204.92245340649367
 10
-4334.5675101493925
 20
204.93577217002743
 42
0.0061531305135261
 10
-4334.4410355033879
 20
205.09006170334476
 42
0.000632558711646
 10
-4334.3166570191815
 20
205.24606507908868
 10
-4334.2936168841843
 20
205.27503859967987
 42
0.0041897761529081
 10
-4334.1251614802295
 20
205.49055797571901
 10
-4334.0666993603199
 20
205.56665932272688
 42
0.009299388004144
 10
-4333.7900874330917
 20
205.94093808661736
 10
-4333.7076929399018
 20
206.05687509017349
 42
0.0159321727095286
 10
-4333.3610864572547
 20
206.57904931093549
 10
-4333.3167303218725
 20
206.6507288751742
 42
0.008554731700888
 10
-4333.0822185565394
 20
207.04460382441016
 42
0.0084601156880903
 10
-4332.8612423791019
 20
207.44623067343355
 10
-4332.8531269052673
 20
207.46159035571532
 42
0.0081429654286791
 10
-4332.6298776348121
 20
207.90131186829211
 10
-4332.6210174706457
 20
207.91949071027545
 42
0.0076574581339753
 10
-4332.3946099600698
 20
208.40267358554831
 10
-4332.3851303193551
 20
208.42373806383159
 42
0.0070682724196722
 10
-4332.1546854115604
 20
208.95577536858417
 10
-4332.1446951275666
 20
208.97976455762443
 42
0.0064559514446866
 10
-4331.9093619193773
 20
209.56607682416234
 10
-4331.8989525612196
 20
209.59301174958557
 42
0.0058311413910969
 10
-4331.6579058244406
 20
210.23904384401814
 10
-4331.6471507470706
 20
210.26892818512977
 42
0.0052312425823183
 10
-4331.3995694690348
 20
210.98013059894862
 10
-4331.3885256326494
 20
211.01295731103403
 42
0.0046680544796277
 10
-4331.1335972049346
 20
211.79478362672774
 10
-4331.0916050548649
 20
211.92776686410375
 42
0.004166685645425
 10
-4330.8883190424767
 20
212.59073563908646
 10
-4330.8506566017759
 20
212.71731674686464
 42
0.0015170975169807
 10
-4330.7294700233997
 20
213.12918509823385
 42
-0.0004887993107091
 10
-4330.6091302501691
 20
213.54130351063898
 10
-4330.5326529927806
 20
213.80226089621692
 42
0.0002583378925433
 10
-4330.2594384228605
 20
214.73631759890591
 10
-4330.1776655731082
 20
215.0164168590909
 42
0.0006636169671525
 10
-4329.9837978131291
 20
215.68376978256606
 10
-4329.9787011587568
 20
215.70140136553195
 42
0.0010589131323459
 10
-4329.7972524578654
 20
216.33413270849496
 10
-4329.7922703874183
 20
216.35164561539645
 42
0.0015655524448186
 10
-4329.6240001802016
 20
216.95026229471591
 10
-4329.6191699797819
 20
216.96765445366816
 42
0.0021640440480108
 10
-4329.4648800078012
 20
217.53268147166989
 10
-4329.4602457883848
 20
217.54994620161204
 42
0.0028763871849927
 10
-4329.3207300703179
 20
218.08191415251076
 10
-4329.3163442061505
 20
218.09903813066711
 42
0.0037310511945473
 10
-4329.1923875143139
 20
218.59848572468911
 10
-4329.1883122940353
 20
218.61544599589124
 42
0.00476521977719
 10
-4329.0806883935165
 20
219.08292376423969
 10
-4329.0769977941936
 20
219.09968331938572
 42
0.0060276699293606
 10
-4328.9864676950401
 20
219.5357591145339
 10
-4328.9832490047556
 20
219.55226032881808
 42
0.0075824337757439
 10
-4328.910559695335
 20
219.95752749326925
 10
-4328.9079143179542
 20
219.97368244072263
 42
0.0095130624614885
 10
-4328.8537990823243
 20
220.34877179379157
 10
-4328.8468128584464
 20
220.40470535187086
 42
0.0121054653213705
 10
-4328.8202215278634
 20
220.66960118038196
 10
-4328.8193550381038
 20
220.68100462330992
 42
0.0069050827385947
 10
-4328.804266220066
 20
220.92394585015529
 10
-4328.8031309203971
 20
220.94747210719891
 42
0.0169063976697685
 10
-4328.8003036414175
 20
221.14366483450078
 10
-4328.8014742929481
 20
221.20400059583969
 42
0.0052007732911634
 10
-4328.8037277415415
 20
221.27959398600206
 42
0.0054038123299242
 10
-4328.8236912533757
 20
221.39961228198456
 10
-4328.828777109251
 20
221.42827076859317
 42
0.0112050460493165
 10
-4328.8641614713106
 20
221.60459720694055
 10
-4328.8819864333491
 20
221.68413879365301
 42
0.0240764467985551
 10
-4328.9728837994908
 20
222.01437582913942
 10
-4328.991442562311
 20
222.07099599415557
 42
0.0256812331845868
 10
-4329.1348054824994
 20
222.44272020040535
 10
-4329.1402149083169
 20
222.45485153538624
 42
0.026836050120791
 10
-4329.30964214917
 20
222.78584466941606
 10
-4329.315178556807
 20
222.79536433973209
 42
0.0274670231726002
 10
-4329.5073795332191
 20
223.08765171464563
 10
-4329.5127608331832
 20
223.09493086218913
 42
0.0275035967109175
 10
-4329.7243337127429
 20
223.35044675249105
 10
-4329.7294032137088
 20
223.35592584012119
 42
0.0269557673516124
 10
-4329.956806757149
 20
223.57656812608377
 10
-4329.9615498149342
 20
223.58069808054685
 42
0.0259124802209079
 10
-4330.2011046463631
 20
223.76838860769692
 10
-4330.2056354915421
 20
223.77157411002491
 42
0.0245162153009786
 10
-4330.4535518446392
 20
223.92830711913768
 10
-4330.4580783909669
 20
223.93086731634045
 42
0.0229282588836549
 10
-4330.7104979477899
 20
224.05873550883746
 10
-4330.7152784416267
 20
224.06088780859952
 42
0.0212984135694005
 10
-4330.968316394089
 20
224.16208672584173
 10
-4330.9736206790558
 20
224.16395028860086
 42
0.01975554623207
 10
-4331.2233990167815
 20
224.24076570656655
 42
0.0183511896767356
 10
-4331.4783277422439
 20
224.29834861353194
 10
-4331.5646929389686
 20
224.31455140391731
 42
0.0338057877158115
 10
-4331.8502002882287
 20
224.34835980905734
 10
-4331.9412056932724
 20
224.35293946431892
 42
0.0091990524481889
 10
-4332.0470528019041
 20
224.35631532024081
 42
0.0028333980787156
 10
-4332.1529667178938
 20
224.35714342775753
 10
-4332.1538821709464
 20
224.35714539758158
 42
-0.0023619827819494
 10
-4332.2616281860664
 20
224.35788623866023
 10
-4332.2980333562282
 20
224.35830854512312
 42
0.0008824598462731
 10
-4332.4785893460621
 20
224.36008432336124
 10
-4332.5224507784842
 20
224.36043828488698
 42
0.0038132665768747
 10
-4332.790733674361
 20
224.36055722095361
 10
-4332.8072673291563
 20
224.36043845481004
 42
0.0060665569320536
 10
-4333.1085478207533
 20
224.35461815538906
 10
-4333.1227981527736
 20
224.35416984742164
 42
0.0080356953325727
 10
-4333.4522568691118
 20
224.33850212535478
 10
-4333.4643268841992
 20
224.3377335424143
 42
0.0098996399122395
 10
-4333.8170899688475
 20
224.30824831321641
 10
-4333.8271356782252
 20
224.30720801701796
 42
0.0117740981365628
 10
-4334.1982925365728
 20
224.25991576948817
 10
-4334.2065152330561
 20
224.25867065291732
 42
0.0137435215120003
 10
-4334.5911040525416
 20
224.18957367935548
 10
-4334.5977610916643
 20
224.18818778312209
 42
0.015835986939723
 10
-4334.9907581854713
 20
224.09329569464006
 10
-4334.9961713723342
 20
224.09180575377081
 42
0.0180554124028192
 10
-4335.3924864169485
 20
223.96716773753153
 10
-4335.3970432050301
 20
223.96555170126578
 42
0.0203657431282976
 10
-4335.7915207228389
 20
223.80729135975099
 10
-4335.7956642618483
 20
223.80542973830813
 42
0.0226819684661513
 10
-4336.1831003180578
 20
223.60978715963412
 10
-4336.1873001090707
 20
223.60742156771732
 42
0.0248634984606898
 10
-4336.5624820502544
 20
223.37079492176895
 10
-4336.6106769790322
 20
223.33693787994773
 42
0.0267044190876664
 10
-4336.8849696759526
 20
223.12149750407627
 42
0.0139303002204569
 10
-4337.1411368419103
 20
222.88425866314572
 10
-4337.1459902276119
 20
222.87950600030422
 42
0.0283460963444272
 10
-4337.3900628218389
 20
222.61177533985975
 10
-4337.4297313269963
 20
222.56297376238604
 42
0.0070695364840648
 10
-4337.5071685528555
 20
222.46490694642057
 42
0.0070695364840648
  0
LWPOLYLINE
  5
5C
100
AcDbEntity
  8
0
370
              15
390
0
  6
Continuous
 62
               7
100
AcDbPolyline
 90
      226
 70
             128
 10
-4341.0359889901019
 20
206.74331814023662
 42
-0.0026277636770647
 10
-4341.0360668739022
 20
206.81009006574521
 10
-4341.0358495156706
 20
206.86324528342277
 42
-0.0088680296722325
 10
-4341.0320728993765
 20
207.03626106583951
 10
-4341.0297265402642
 20
207.09554109127942
 42
-0.0077381705619693
 10
-4341.0136804295025
 20
207.38680158706183
 10
-4341.0128125183282
 20
207.3990898207627
 42
-0.0068872530541881
 10
-4340.9861804385846
 20
207.71431157278823
 10
-4340.984976214394
 20
207.72655255185043
 42
-0.0062130021474664
 10
-4340.9473824975676
 20
208.06542224308322
 10
-4340.9458785940315
 20
208.07759611500546
 42
-0.0056726929666219
 10
-4340.8969567345302
 20
208.43979133710761
 10
-4340.8951832888843
 20
208.45188513736423
 42
-0.0052341884496028
 10
-4340.8345727026272
 20
208.83707839286387
 10
-4340.8325547138475
 20
208.84908332287455
 42
-0.0049768450173666
 10
-4340.7598160324287
 20
209.2569278902663
 10
-4340.7355670176994
 20
209.38547587331311
 42
-0.0089029805620432
 10
-4340.5984861659008
 20
210.04725132075546
 10
-4340.5657407905865
 20
210.19228275125897
 42
-0.0080318257097069
 10
-4340.3361921762407
 20
211.13799238313425
 10
-4340.3242072497978
 20
211.18412301830278
 42
-0.0074265721319674
 10
-4340.0401957109498
 20
212.2141875966779
 10
-4340.0203161678264
 20
212.28232165729051
 42
-0.0069711922698781
 10
-4339.6930115893247
 20
213.34858939760068
 10
-4339.6330596422285
 20
213.53461075594154
 42
-0.0052070422885988
 10
-4339.4036344169599
 20
214.22188283300261
 10
-4339.3863532247206
 20
214.27191011381316
 42
-0.0009167004445062
 10
-4339.1832613374982
 20
214.8563659617738
 42
-0.0025162726950191
 10
-4338.9761637072279
 20
215.43940722595551
 10
-4338.938939095473
 20
215.54255677172014
 42
-0.0028212681470741
 10
-4338.6907631764661
 20
216.21828740401281
 10
-4338.6809324137384
 20
216.24459484862825
 42
-0.003196491683114
 10
-4338.4446401560535
 20
216.86479961081659
 10
-4338.4350057020592
 20
216.88960960094866
 42
-0.0036281836443645
 10
-4338.2098997409539
 20
217.45705028185296
 10
-4338.2004613308172
 20
217.48034771330379
 42
-0.0041269166844687
 10
-4337.9858436341365
 20
217.99778860933407
 10
-4337.9532106777197
 20
218.07466705568697
 42
-0.0047472213054313
 10
-4337.7961658721624
 20
218.43508852357854
 10
-4337.7892717909381
 20
218.45050912094652
 42
-0.0025651659984765
 10
-4337.6409137571045
 20
218.77783717665898
 42
-0.0057144634998825
 10
-4337.487164063361
 20
219.10264684996372
 10
-4337.4591333579338
 20
219.16015523241177
 42
-0.0065388068362981
 10
-4337.2756663301916
 20
219.52438772908067
 10
-4337.2672078744408
 20
219.54064730839758
 42
-0.0074510843037735
 10
-4337.0910256285351
 20
219.86733558957292
 10
-4337.0828459579898
 20
219.88197636686709
 42
-0.0084648979863503
 10
-4336.9132121049042
 20
220.17388537780289
 10
-4336.9053559784134
 20
220.18689236945906
 42
-0.0095638542809927
 10
-4336.7415205308225
 20
220.44678124143229
 10
-4336.7340455871372
 20
220.45815060290792
 42
-0.0107191626790795
 10
-4336.5752440067627
 20
220.6887618374318
 10
-4336.5682272730337
 20
220.69849792979414
 42
-0.0118458573901665
 10
-4336.4136791745186
 20
220.9025701251071
 42
-0.0129184518209334
 10
-4336.24922655092
 20
221.09873064127379
 10
-4336.2190817785568
 20
221.13285672017395
 42
-0.0217742579633606
 10
-4336.0424694562189
 20
221.31606349042715
 10
-4336.0317239117558
 20
221.326280323633
 42
-0.0097266568664443
 10
-4335.8656662929025
 20
221.47812789806744
 42
-0.0187720905729542
 10
-4335.6913187170067
 20
221.62019675146175
 10
-4335.6606127263458
 20
221.64335583384803
 42
-0.0179428207538091
 10
-4335.4281920063431
 20
221.80590801096446
 10
-4335.4245396794249
 20
221.80827194585373
 42
-0.0170047877687115
 10
-4335.1887760418967
 20
221.9497324600037
 10
-4335.1849930531507
 20
221.95183076503969
 42
-0.0160190788367791
 10
-4334.948084505515
 20
222.07348206702807
 42
-0.0151102861483039
 10
-4334.7040527230674
 20
222.18016484308319
 10
-4334.6516662208569
 20
222.20120497597736
 42
-0.0271945441894634
 10
-4334.2930036617981
 20
222.32306978668331
 10
-4334.2239388613098
 20
222.34241932794964
 42
-0.0237596594029626
 10
-4333.808142014288
 20
222.43787003993123
 10
-4333.7400791605605
 20
222.45012472805749
 42
-0.0213715440563951
 10
-4333.4542042291123
 20
222.48907175956788
 10
-4333.3940570628947
 20
222.49466147426875
 42
-0.0101465655789908
 10
-4333.2265645308999
 20
222.50680501753288
 10
-4333.2172241446988
 20
222.50729193253028
 42
-0.0100375910916467
 10
-4333.0680700441389
 20
222.51206775045534
 10
-4333.0578107744568
 20
222.51219018946981
 42
-0.0103625633365799
 10
-4332.9291027798045
 20
222.51105875594317
 10
-4332.9068371285375
 20
222.51040139747826
 42
-0.0115689250262433
 10
-4332.8227863910088
 20
222.50597189123312
 42
-0.0072438037389325
 10
-4332.7389481115688
 20
222.49838269148373
 10
-4332.7221476020968
 20
222.49661614875959
 42
-0.0217917313149228
 10
-4332.6055778387836
 20
222.47919625603851
 10
-4332.5399777482144
 20
222.4664496476237
 42
-0.0332943556773289
 10
-4332.3355855831887
 20
222.41240935631697
 10
-4332.3054130146338
 20
222.40224127919709
 42
-0.0184824084772637
 10
-4332.1669079581734
 20
222.349790263812
 42
-0.0198002050659539
 10
-4332.0328336176754
 20
222.28690620361363
 10
-4332.0309469802969
 20
222.28592841673276
 42
-0.0212242342999339
 10
-4331.8988080378922
 20
222.21016567793797
 10
-4331.8969927423514
 20
222.20901987573131
 42
-0.0226090605778709
 10
-4331.7684888411295
 20
222.11954023216697
 10
-4331.7666443993921
 20
222.11812797917935
 42
-0.023845705225533
 10
-4331.6434623180994
 20
222.01413208331741
 10
-4331.64150958954
 20
222.01231720555086
 42
-0.0248160564143599
 10
-4331.5253080822376
 20
221.89304260434045
 10
-4331.5232044488366
 20
221.89065727063769
 42
-0.0254109591425688
 10
-4331.4155992309661
 20
221.75536888466621
 10
-4331.4133512090575
 20
221.75222733627277
 42
-0.0255528488291849
 10
-4331.31590453026
 20
221.60020028203834
 10
-4331.3135734303441
 20
221.59611867043088
 42
-0.025214679322793
 10
-4331.2277924043365
 20
221.42661642443696
 10
-4331.2254901651777
 20
221.42143434252102
 42
-0.0244265635937919
 10
-4331.1528354714146
 20
221.23368777047114
 10
-4331.1435890699513
 20
221.2058223521486
 42
-0.0231319612918212
 10
-4331.0976662909561
 20
221.04252130533496
 42
-0.011213042437682
 10
-4331.0630302684167
 20
220.8763177051415
 10
-4331.061827743305
 20
220.86982111825898
 42
-0.021052788120868
 10
-4331.0361412679331
 20
220.68876547281207
 10
-4331.0326306731122
 20
220.65335992427049
 42
-0.0190029892417701
 10
-4331.0171891995669
 20
220.39982407798931
 10
-4331.0163792231233
 20
220.3643484636292
 42
-0.0137974553632715
 10
-4331.0179280759621
 20
220.0393170568108
 10
-4331.0187735309128
 20
220.01319831237208
 42
-0.008133663424441
 10
-4331.0336328661369
 20
219.70785084470367
 42
-0.0073526923595002
 10
-4331.0579413995101
 20
219.40310260044399
 10
-4331.059202823295
 20
219.3897659257525
 42
-0.0066886138717354
 10
-4331.0949384093319
 20
219.05917988233452
 10
-4331.0965954988114
 20
219.04555826326384
 42
-0.0061359187362405
 10
-4331.1444461008614
 20
218.68879428316586
 10
-4331.146483601935
 20
218.6748994803346
 42
-0.0056698610074538
 10
-4331.2071339327003
 20
218.29162091150374
 10
-4331.2095393660247
 20
218.27746179226585
 42
-0.0052721077269441
 10
-4331.2836715668263
 20
217.8673344525784
 10
-4331.2864347156665
 20
217.85291781720196
 42
-0.0049289272193609
 10
-4331.3747288337554
 20
217.41560930612931
 10
-4331.377841328449
 20
217.40094045326373
 42
-0.0047415956716825
 10
-4331.4810793199649
 20
216.93614369592075
 10
-4331.5158475303406
 20
216.78633660046989
 42
-0.0084404470903223
 10
-4331.7058639739216
 20
216.02611257590462
 10
-4331.7119906618982
 20
216.00324845178534
 42
-0.0039635940255576
 10
-4331.9334443461776
 20
215.20225958755506
 10
-4331.9468211413623
 20
215.15532797094613
 42
-0.00724750408357
 10
-4332.2142680292263
 20
214.26610825454887
 10
-4332.2844803560529
 20
214.04436790458067
 42
-0.0051345458821044
 10
-4332.5712397281113
 20
213.17004271677274
 10
-4332.5927659948757
 20
213.10661644965208
 42
-0.0019150016602033
 10
-4332.848299401745
 20
212.36306732941671
 10
-4332.8547670061735
 20
212.34447986440165
 42
-0.0021524362742468
 10
-4333.1032450572056
 20
211.64015404278723
 10
-4333.1124554778798
 20
211.61440046454834
 42
-0.0024331286828798
 10
-4333.3487107369383
 20
210.96380115636759
 10
-4333.3577586894789
 20
210.93925785004046
 42
-0.0027449721795452
 10
-4333.5823732603239
 20
210.3401279710888
 10
-4333.5912632677109
 20
210.31680538125042
 42
-0.0031083229767887
 10
-4333.8048057543265
 20
209.76688134365691
 10
-4333.8135418859993
 20
209.74479162780662
 42
-0.0035311343288948
 10
-4334.0165830715941
 20
209.24180850206903
 10
-4334.0251684107552
 20
209.22096577852673
 42
-0.0040245640959792
 10
-4334.2182802145362
 20
208.76265645596629
 10
-4334.2267163281631
 20
208.74307708783934
 42
-0.0046015135847767
 10
-4334.4104726213027
 20
208.32717205825202
 10
-4334.4187587991391
 20
208.30887491878192
 42
-0.0052768638267869
 10
-4334.5937363180865
 20
207.93310203452961
 10
-4334.6018685286754
 20
207.91610869606524
 42
-0.0060672675654087
 10
-4334.7686481414794
 20
207.57819307287218
 10
-4334.7766176219484
 20
207.56252781389887
 42
-0.0069904648874939
 10
-4334.9357860159625
 20
207.26019200721123
 10
-4334.9435774155645
 20
207.24588145800075
 42
-0.0080637022781073
 10
-4335.0957292759194
 20
206.97684615483081
 10
-4335.1033183085556
 20
206.96391828922216
 42
-0.0093006455674932
 10
-4335.2490589850813
 20
206.72590389072695
 10
-4335.2564096518163
 20
206.71438592156696
 42
-0.0107060778055368
 10
-4335.396358195263
 20
206.50511560417476
 10
-4335.4034199635425
 20
206.49503006160882
 42
-0.0122723111412738
 10
-4335.5382136817416
 20
206.31223673211991
 10
-4335.5385399052993
 20
206.31181634430575
 42
-0.0141836319618208
 10
-4335.6821215082691
 20
206.13724658648073
 10
-4335.6890692639226
 20
206.1292715862142
 42
-0.017595747718526
 10
-4335.8289754319558
 20
205.97965069781117
 42
-0.0080466359691102
 10
-4335.9764391969693
 20
205.83732816967685
 10
-4336.0224737415047
 20
205.79430773156878
 42
-0.0269600260392056
 10
-4336.2757539874883
 20
205.58198447305887
 10
-4336.3423211237787
 20
205.53203305843945
 42
-0.0178362839763334
 10
-4336.5822656134396
 20
205.36501513218332
 10
-4336.5895105844356
 20
205.36034661998153
 42
-0.0174650732658292
 10
-4336.8258467818814
 20
205.2194856550193
 42
-0.0169240130160069
 10
-4337.0713130277491
 20
205.09519339523726
 10
-4337.1172991832973
 20
205.07383143967468
 42
-0.031888303684286
 10
-4337.4676500389114
 20
204.93749313016599
 10
-4337.53601557408
 20
204.9157925096894
 42
-0.0284435909903785
 10
-4337.9120657003723
 20
204.81957507421441
 10
-4337.9472238608723
 20
204.81268147838574
 42
-0.0243909341016507
 10
-4338.2606673217906
 20
204.76696044735581
 10
-4338.3109480485628
 20
204.76211490045407
 42
-0.0196639292901133
 10
-4338.5265436260888
 20
204.74986661494063
 10
-4338.5783676972505
 20
204.74896335420394
 42
-0.0100501510713432
 10
-4338.690790978917
 20
204.749263752557
 10
-4338.7224508402596
 20
204.74998482444229
 42
-0.0019752031196198
 10
-4338.771543176942
 20
204.75129698465196
 10
-4338.7743034801661
 20
204.75138167647833
 42
0.0065378752047611
 10
-4338.8178800549194
 20
204.75214856769321
 42
-0.0167974694679914
 10
-4338.8614108778493
 20
204.7538084662192
 10
-4338.8654902171129
 20
204.7541014771142
 42
-0.0081283276325045
 10
-4338.9170500148457
 20
204.75864847075158
 10
-4338.9287895887292
 20
204.75987638833044
 42
-0.0126703440220282
 10
-4339.003507884524
 20
204.76961117940212
 10
-4339.0262957521991
 20
204.77316943531719
 42
-0.0117852088448517
 10
-4339.1458347380312
 20
204.7947324304742
 10
-4339.2012151897952
 20
204.80607597070889
 42
-0.0251774592303506
 10
-4339.4280592288014
 20
204.86457398014161
 10
-4339.472778418648
 20
204.87854079947516
 42
-0.0146525199880931
 10
-4339.6591714061924
 20
204.94280732667528
 42
-0.0166929435829524
 10
-4339.8411490623175
 20
205.01861445972892
 10
-4339.8458056935924
 20
205.0207393603439
 42
-0.0191684358442184
 10
-4340.0309893248468
 20
205.11397544413643
 10
-4340.0343219105989
 20
205.1158166916872
 42
-0.0221181781821487
 10
-4340.2176322144969
 20
205.22795019005483
 10
-4340.2199820185097
 20
205.22953448804901
 42
-0.0254984685367746
 10
-4340.3962721688949
 20
205.36194563801857
 10
-4340.4187543165945
 20
205.38069794695315
 42
-0.0292492648819367
 10
-4340.5435232554391
 20
205.49779074659796
 42
-0.0159048957490564
 10
-4340.6573632528944
 20
205.62581073820186
 10
-4340.6586820434695
 20
205.62739235121705
 42
-0.0343813379600453
 10
-4340.761319305092
 20
205.76926367698175
 10
-4340.7928108364576
 20
205.81976706908378
 42
-0.0369117275697557
 10
-4340.8787033383533
 20
205.98324431002902
 42
-0.0191751379862433
 10
-4340.9458967239188
 20
206.15564891605854
 10
-4340.9476600476701
 20
206.16074226070987
 42
-0.0378178042195038
 10
-4340.9974547664542
 20
206.34968303679062
 10
-4341.0034500621832
 20
206.38224365498084
 42
-0.0184846046472221
 10
-4341.0241672614793
 20
206.52399647553307
 42
-0.0179866351291514
 10
-4341.0345002665526
 20
206.66688728861482
 10
-4341.034556708998
 20
206.66844497522675
 42
-0.0085497186139063
 10
-4341.0359889901019
 20
206.74331814023662
 42
-0.0085497186139063
  0
ENDBLK
  5
5D
100
AcDbEntity
  8
template
390
0
100
AcDbBlockEnd
  0
BLOCK
  5
5E
100
AcDbEntity
  8
notes
390
0
100
AcDbBlockBegin
  2
*D3
 70
               1
 10
0.0
 20
0.0
 30
0.0
  3
*D3
  1

  0
LINE
  5
5F
100
AcDbEntity
  8
0
370
              -2
390
0
  6
Continuous
 62
               0
100
AcDbLine
 10
-670.47299228437805
 20
875.1291401667113
 30
0.0
 11
-670.47299228437805
 21
956.1291401667113
 31
0.0
  0
LINE
  5
60
100
AcDbEntity
  8
0
370
              -2
390
0
  6
Continuous
 62
               0
100
AcDbLine
 10
-220.42530663209436
 20
875.1291401667113
 30
0.0
 11
-220.42530663209436
 21
956.1291401667113
 31
0.0
  0
LINE
  5
61
100
AcDbEntity
  8
0
370
              -2
390
0
  6
Continuous
 62
               0
100
AcDbLine
 10
-670.47299228437805
 20
956.1291401667113
 30
0.0
 11
-220.42530663209436
 21
956.1291401667113
 31
0.0
  0
CIRCLE
  5
62
102
{ACAD_REACTORS
330
63
102
}
100
AcDbEntity
  8
0
370
              -2
390
0
  6
Continuous
 62
               0
100
AcDbCircle
 10
-670.47299228437805
 20
956.1291401667113
 30
0.0
 40
4.99969482421875
  0
HATCH
  5
63
100
AcDbEntity
  8
0
370
              -2
390
0
  6
Continuous
 62
               0
100
AcDbHatch
 10
0.0
 20
0.0
 30
0.0
210
0.0
220
0.0
230
1.0
  2
SOLID
 70
               1
 71
               1
 91
        1
 92
        1
 93
        1
 72
               2
 10
-670.47299228437805
 20
956.1291401667113
 40
4.99969482421875
 50
0.0
 51
360.0
 73
               0
 97
        1
330
62
 75
               0
 76
               1
 98
        1
 10
0.0
 20
0.0
  0
CIRCLE
  5
64
102
{ACAD_REACTORS
330
65
102
}
100
AcDbEntity
  8
0
370
              -2
390
0
  6
Continuous
 62
               0
100
AcDbCircle
 10
-220.42530663209436
 20
956.1291401667113
 30
0.0
 40
4.99969482421875
  0
HATCH
  5
65
100
AcDbEntity
  8
0
370
              -2
390
0
  6
Continuous
 62
               0
100
AcDbHatch
 10
0.0
 20
0.0
 30
0.0
210
0.0
220
0.0
230
1.0
  2
SOLID
 70
               1
 71
               1
 91
        1
 92
        1
 93
        1
 72
               2
 10
-220.42530663209436
 20
956.1291401667113
 40
4.99969482421875
 50
0.0
 51
360.0
 73
               0
 97
        1
330
64
 75
               0
 76
               1
 98
        1
 10
0.0
 20
0.0
  0
MTEXT
  5
66
100
AcDbEntity
  8
0
390
0
 62
               0
100
AcDbMText
 10
-469.26165114041214
 20
990.00675735421146
 30
0.0
 40
24.432617187500004
 41
0.0
 71
               1
 72
               1
  1
450
  7
ＭＳゴシック
 73
               1
 44
0.7828267384257843
  0
POINT
  5
67
100
AcDbEntity
  8
Defpoints
370
               0
390
0
 62
               0
100
AcDbPoint
 10
-220.42530663209436
 20
850.1291401667113
 30
0.0
  0
POINT
  5
68
100
AcDbEntity
  8
Defpoints
370
               0
390
0
 62
               0
100
AcDbPoint
 10
-670.47299228437805
 20
850.1291401667113
 30
0.0
  0
POINT
  5
69
100
AcDbEntity
  8
Defpoints
370
               0
390
0
 62
               0
100
AcDbPoint
 10
-670.47299228437805
 20
956.1291401667113
 30
0.0
  0
ENDBLK
  5
6A
100
AcDbEntity
  8
notes
390
0
100
AcDbBlockEnd
  0
BLOCK
  5
6B
100
AcDbEntity
  8
notes
390
0
100
AcDbBlockBegin
  2
*D4
 70
               1
 10
0.0
 20
0.0
 30
0.0
  3
*D4
  1

  0
LINE
  5
6C
100
AcDbEntity
  8
0
370
              -2
390
0
  6
Continuous
 62
               0
100
AcDbLine
 10
-515.47299228437896
 20
-354.77289183146445
 30
0.0
 11
-515.47299228437896
 21
-241.00927491066341
 31
0.0
  0
LINE
  5
6D
100
AcDbEntity
  8
0
370
              -2
390
0
  6
Continuous
 62
               0
100
AcDbLine
 10
-375.47299228437896
 20
-354.78650875226572
 30
0.0
 11
-375.47299228437896
 21
-241.00927491066341
 31
0.0
  0
LINE
  5
6E
100
AcDbEntity
  8
0
370
              -2
390
0
  6
Continuous
 62
               0
100
AcDbLine
 10
-515.47299228437896
 20
-241.00927491066341
 30
0.0
 11
-375.47299228437896
 21
-241.00927491066341
 31
0.0
  0
CIRCLE
  5
6F
102
{ACAD_REACTORS
330
70
102
}
100
AcDbEntity
  8
0
370
              -2
390
0
  6
Continuous
 62
               0
100
AcDbCircle
 10
-515.47299228437896
 20
-241.00927491066341
 30
0.0
 40
4.99969482421875
  0
HATCH
  5
70
100
AcDbEntity
  8
0
370
              -2
390
0
  6
Continuous
 62
               0
100
AcDbHatch
 10
0.0
 20
0.0
 30
0.0
210
0.0
220
0.0
230
1.0
  2
SOLID
 70
               1
 71
               1
 91
        1
 92
        1
 93
        1
 72
               2
 10
-515.47299228437896
 20
-241.00927491066341
 40
4.99969482421875
 50
0.0
 51
360.0
 73
               0
 97
        1
330
6F
 75
               0
 76
               1
 98
        1
 10
0.0
 20
0.0
  0
CIRCLE
  5
71
102
{ACAD_REACTORS
330
72
102
}
100
AcDbEntity
  8
0
370
              -2
390
0
  6
Continuous
 62
               0
100
AcDbCircle
 10
-375.47299228437896
 20
-241.00927491066341
 30
0.0
 40
4.99969482421875
  0
HATCH
  5
72
100
AcDbEntity
  8
0
370
              -2
390
0
  6
Continuous
 62
               0
100
AcDbHatch
 10
0.0
 20
0.0
 30
0.0
210
0.0
220
0.0
230
1.0
  2
SOLID
 70
               1
 71
               1
 91
        1
 92
        1
 93
        1
 72
               2
 10
-375.47299228437896
 20
-241.00927491066341
 40
4.99969482421875
 50
0.0
 51
360.0
 73
               0
 97
        1
330
71
 75
               0
 76
               1
 98
        1
 10
0.0
 20
0.0
  0
MTEXT
  5
73
100
AcDbEntity
  8
0
390
0
 62
               0
100
AcDbMText
 10
-469.2854939665549
 20
-207.13165772316347
 30
0.0
 40
24.432617187500004
 41
0.0
 71
               1
 72
               1
  1
140
  7
ＭＳゴシック
 73
               1
 44
0.7828267384257843
  0
POINT
  5
74
100
AcDbEntity
  8
Defpoints
370
               0
390
0
 62
               0
100
AcDbPoint
 10
-375.47299228437896
 20
-379.78650875226572
 30
0.0
  0
POINT
  5
75
100
AcDbEntity
  8
Defpoints
370
               0
390
0
 62
               0
100
AcDbPoint
 10
-515.47299228437896
 20
-379.77289183146445
 30
0.0
  0
POINT
  5
76
100
AcDbEntity
  8
Defpoints
370
               0
390
0
 62
               0
100
AcDbPoint
 10
-515.47299228437896
 20
-241.00927491066341
 30
0.0
  0
ENDBLK
  5
77
100
AcDbEntity
  8
notes
390
0
100
AcDbBlockEnd
  0
BLOCK
  5
78
100
AcDbEntity
  8
notes
390
0
100
AcDbBlockBegin
  2
*D5
 70
               1
 10
0.0
 20
0.0
 30
0.0
  3
*D5
  1

  0
LINE
  5
79
100
AcDbEntity
  8
0
370
              -2
390
0
  6
Continuous
 62
               0
100
AcDbLine
 10
-590.42530663209436
 20
-399.79305771683835
 30
0.0
 11
-765.47299228437805
 21
-399.79305771683835
 31
0.0
  0
LINE
  5
7A
100
AcDbEntity
  8
0
370
              -2
390
0
  6
Continuous
 62
               0
100
AcDbLine
 10
-685.87530662988047
 20
-359.79305771683653
 30
0.0
 11
-765.47299228437805
 21
-359.79305771683653
 31
0.0
  0
LINE
  5
7B
100
AcDbEntity
  8
0
370
              -2
390
0
  6
Continuous
 62
               0
100
AcDbLine
 10
-765.47299228437805
 20
-399.79305771683835
 30
0.0
 11
-765.47299228437805
 21
-359.79305771683653
 31
0.0
  0
CIRCLE
  5
7C
102
{ACAD_REACTORS
330
7D
102
}
100
AcDbEntity
  8
0
370
              -2
390
0
  6
Continuous
 62
               0
100
AcDbCircle
 10
-765.47299228437805
 20
-399.79305771683835
 30
0.0
 40
4.99969482421875
  0
HATCH
  5
7D
100
AcDbEntity
  8
0
370
              -2
390
0
  6
Continuous
 62
               0
100
AcDbHatch
 10
0.0
 20
0.0
 30
0.0
210
0.0
220
0.0
230
1.0
  2
SOLID
 70
               1
 71
               1
 91
        1
 92
        1
 93
        1
 72
               2
 10
-765.47299228437805
 20
-399.79305771683835
 40
4.99969482421875
 50
0.0
 51
360.0
 73
               0
 97
        1
330
7C
 75
               0
 76
               1
 98
        1
 10
0.0
 20
0.0
  0
CIRCLE
  5
7E
102
{ACAD_REACTORS
330
7F
102
}
100
AcDbEntity
  8
0
370
              -2
390
0
  6
Continuous
 62
               0
100
AcDbCircle
 10
-765.47299228437805
 20
-359.79305771683653
 30
0.0
 40
4.99969482421875
  0
HATCH
  5
7F
100
AcDbEntity
  8
0
370
              -2
390
0
  6
Continuous
 62
               0
100
AcDbHatch
 10
0.0
 20
0.0
 30
0.0
210
0.0
220
0.0
230
1.0
  2
SOLID
 70
               1
 71
               1
 91
        1
 92
        1
 93
        1
 72
               2
 10
-765.47299228437805
 20
-359.79305771683653
 40
4.99969482421875
 50
0.0
 51
360.0
 73
               0
 97
        1
330
7E
 75
               0
 76
               1
 98
        1
 10
0.0
 20
0.0
  0
MTEXT
  5
80
100
AcDbEntity
  8
0
390
0
 62
               0
100
AcDbMText
 10
-799.35060947187776
 20
-395.66805771683744
 30
0.0
 40
24.432617187500004
 41
0.0
 71
               1
 72
               1
  1
40
  7
ＭＳゴシック
 11
0.0
 21
1.0
 31
0.0
 73
               1
 44
0.7828267384257843
  0
POINT
  5
81
100
AcDbEntity
  8
Defpoints
370
               0
390
0
 62
               0
100
AcDbPoint
 10
-660.87530662988047
 20
-359.79305771683653
 30
0.0
  0
POINT
  5
82
100
AcDbEntity
  8
Defpoints
370
               0
390
0
 62
               0
100
AcDbPoint
 10
-565.42530663209436
 20
-399.79305771683835
 30
0.0
  0
POINT
  5
83
100
AcDbEntity
  8
Defpoints
370
               0
390
0
 62
               0
100
AcDbPoint
 10
-765.47299228437805
 20
-399.79305771683835
 30
0.0
  0
ENDBLK
  5
84
100
AcDbEntity
  8
notes
390
0
100
AcDbBlockEnd
  0
BLOCK
  5
85
100
AcDbEntity
  8
notes
390
0
100
AcDbBlockBegin
  2
*D6
 70
               1
 10
0.0
 20
0.0
 30
0.0
  3
*D6
  1

  0
LINE
  5
86
100
AcDbEntity
  8
0
370
              -2
390
0
  6
Continuous
 62
               0
100
AcDbLine
 10
-206.47299228437896
 20
856.1291401667113
 30
0.0
 11
-125.47299228437896
 21
856.1291401667113
 31
0.0
  0
LINE
  5
87
100
AcDbEntity
  8
0
370
              -2
390
0
  6
Continuous
 62
               0
100
AcDbLine
 10
-370.47299228437896
 20
306.1291401667138
 30
0.0
 11
-125.47299228437896
 21
306.1291401667138
 31
0.0
  0
LINE
  5
88
100
AcDbEntity
  8
0
370
              -2
390
0
  6
Continuous
 62
               0
100
AcDbLine
 10
-125.47299228437896
 20
856.1291401667113
 30
0.0
 11
-125.47299228437896
 21
306.1291401667138
 31
0.0
  0
CIRCLE
  5
89
102
{ACAD_REACTORS
330
8A
102
}
100
AcDbEntity
  8
0
370
              -2
390
0
  6
Continuous
 62
               0
100
AcDbCircle
 10
-125.47299228437896
 20
856.1291401667113
 30
0.0
 40
4.99969482421875
  0
HATCH
  5
8A
100
AcDbEntity
  8
0
370
              -2
390
0
  6
Continuous
 62
               0
100
AcDbHatch
 10
0.0
 20
0.0
 30
0.0
210
0.0
220
0.0
230
1.0
  2
SOLID
 70
               1
 71
               1
 91
        1
 92
        1
 93
        1
 72
               2
 10
-125.47299228437896
 20
856.1291401667113
 40
4.99969482421875
 50
0.0
 51
360.0
 73
               0
 97
        1
330
89
 75
               0
 76
               1
 98
        1
 10
0.0
 20
0.0
  0
CIRCLE
  5
8B
102
{ACAD_REACTORS
330
8C
102
}
100
AcDbEntity
  8
0
370
              -2
390
0
  6
Continuous
 62
               0
100
AcDbCircle
 10
-125.47299228437896
 20
306.1291401667138
 30
0.0
 40
4.99969482421875
  0
HATCH
  5
8C
100
AcDbEntity
  8
0
370
              -2
390
0
  6
Continuous
 62
               0
100
AcDbHatch
 10
0.0
 20
0.0
 30
0.0
210
0.0
220
0.0
230
1.0
  2
SOLID
 70
               1
 71
               1
 91
        1
 92
        1
 93
        1
 72
               2
 10
-125.47299228437896
 20
306.1291401667138
 40
4.99969482421875
 50
0.0
 51
360.0
 73
               0
 97
        1
330
8B
 75
               0
 76
               1
 98
        1
 10
0.0
 20
0.0
  0
MTEXT
  5
8D
100
AcDbEntity
  8
0
390
0
 62
               0
100
AcDbMText
 10
-159.35060947187867
 20
557.31663848453718
 30
0.0
 40
24.432617187500004
 41
0.0
 71
               1
 72
               1
  1
550
  7
ＭＳゴシック
 11
0.0
 21
1.0
 31
0.0
 73
               1
 44
0.7828267384257843
  0
POINT
  5
8E
100
AcDbEntity
  8
Defpoints
370
               0
390
0
 62
               0
100
AcDbPoint
 10
-395.47299228437896
 20
306.1291401667138
 30
0.0
  0
POINT
  5
8F
100
AcDbEntity
  8
Defpoints
370
               0
390
0
 62
               0
100
AcDbPoint
 10
-231.47299228437896
 20
856.1291401667113
 30
0.0
  0
POINT
  5
90
100
AcDbEntity
  8
Defpoints
370
               0
390
0
 62
               0
100
AcDbPoint
 10
-125.47299228437896
 20
856.1291401667113
 30
0.0
  0
ENDBLK
  5
91
100
AcDbEntity
  8
notes
390
0
100
AcDbBlockEnd
  0
BLOCK
  5
92
100
AcDbEntity
  8
notes
390
0
100
AcDbBlockBegin
  2
*D7
 70
               1
 10
0.0
 20
0.0
 30
0.0
  3
*D7
  1

  0
LINE
  5
93
100
AcDbEntity
  8
0
370
              -2
390
0
  6
Continuous
 62
               0
100
AcDbLine
 10
-205.47299228659176
 20
-359.79305771683562
 30
0.0
 11
-125.47299228437896
 21
-359.79305771683562
 31
0.0
  0
LINE
  5
94
100
AcDbEntity
  8
0
370
              -2
390
0
  6
Continuous
 62
               0
100
AcDbLine
 10
-392.27892938841887
 20
-559.793057716833
 30
0.0
 11
-125.47299228437896
 21
-559.793057716833
 31
0.0
  0
LINE
  5
95
100
AcDbEntity
  8
0
370
              -2
390
0
  6
Continuous
 62
               0
100
AcDbLine
 10
-125.47299228437896
 20
-359.79305771683562
 30
0.0
 11
-125.47299228437896
 21
-559.793057716833
 31
0.0
  0
CIRCLE
  5
96
102
{ACAD_REACTORS
330
97
102
}
100
AcDbEntity
  8
0
370
              -2
390
0
  6
Continuous
 62
               0
100
AcDbCircle
 10
-125.47299228437896
 20
-359.79305771683562
 30
0.0
 40
4.99969482421875
  0
HATCH
  5
97
100
AcDbEntity
  8
0
370
              -2
390
0
  6
Continuous
 62
               0
100
AcDbHatch
 10
0.0
 20
0.0
 30
0.0
210
0.0
220
0.0
230
1.0
  2
SOLID
 70
               1
 71
               1
 91
        1
 92
        1
 93
        1
 72
               2
 10
-125.47299228437896
 20
-359.79305771683562
 40
4.99969482421875
 50
0.0
 51
360.0
 73
               0
 97
        1
330
96
 75
               0
 76
               1
 98
        1
 10
0.0
 20
0.0
  0
CIRCLE
  5
98
102
{ACAD_REACTORS
330
99
102
}
100
AcDbEntity
  8
0
370
              -2
390
0
  6
Continuous
 62
               0
100
AcDbCircle
 10
-125.47299228437896
 20
-559.793057716833
 30
0.0
 40
4.99969482421875
  0
HATCH
  5
99
100
AcDbEntity
  8
0
370
              -2
390
0
  6
Continuous
 62
               0
100
AcDbHatch
 10
0.0
 20
0.0
 30
0.0
210
0.0
220
0.0
230
1.0
  2
SOLID
 70
               1
 71
               1
 91
        1
 92
        1
 93
        1
 72
               2
 10
-125.47299228437896
 20
-559.793057716833
 40
4.99969482421875
 50
0.0
 51
360.0
 73
               0
 97
        1
330
98
 75
               0
 76
               1
 98
        1
 10
0.0
 20
0.0
  0
MTEXT
  5
9A
100
AcDbEntity
  8
0
390
0
 62
               0
100
AcDbMText
 10
-159.35060947187867
 20
-483.60555939900973
 30
0.0
 40
24.432617187500004
 41
0.0
 71
               1
 72
               1
  1
200
  7
ＭＳゴシック
 11
0.0
 21
1.0
 31
0.0
 73
               1
 44
0.7828267384257843
  0
POINT
  5
9B
100
AcDbEntity
  8
Defpoints
370
               0
390
0
 62
               0
100
AcDbPoint
 10
-417.27892938841887
 20
-559.793057716833
 30
0.0
  0
POINT
  5
9C
100
AcDbEntity
  8
Defpoints
370
               0
390
0
 62
               0
100
AcDbPoint
 10
-230.47299228659176
 20
-359.79305771683562
 30
0.0
  0
POINT
  5
9D
100
AcDbEntity
  8
Defpoints
370
               0
390
0
 62
               0
100
AcDbPoint
 10
-125.47299228437896
 20
-359.79305771683562
 30
0.0
  0
ENDBLK
  5
9E
100
AcDbEntity
  8
notes
390
0
100
AcDbBlockEnd
  0
BLOCK
  5
9F
100
AcDbEntity
  8
notes
390
0
100
AcDbBlockBegin
  2
*D8
 70
               1
 10
0.0
 20
0.0
 30
0.0
  3
*D8
  1

  0
LINE
  5
A0
100
AcDbEntity
  8
0
370
              -2
390
0
  6
Continuous
 62
               0
100
AcDbLine
 10
812.90679287140574
 20
-560.79305771683767
 30
0.0
 11
812.90679287140574
 21
-639.98650875226576
 31
0.0
  0
LINE
  5
A1
100
AcDbEntity
  8
0
370
              -2
390
0
  6
Continuous
 62
               0
100
AcDbLine
 10
487.90679287140574
 20
-584.79305771683664
 30
0.0
 11
487.90679287140574
 21
-639.98650875226576
 31
0.0
  0
LINE
  5
A2
100
AcDbEntity
  8
0
370
              -2
390
0
  6
Continuous
 62
               0
100
AcDbLine
 10
812.90679287140574
 20
-639.98650875226576
 30
0.0
 11
487.90679287140574
 21
-639.98650875226576
 31
0.0
  0
CIRCLE
  5
A3
102
{ACAD_REACTORS
330
A4
102
}
100
AcDbEntity
  8
0
370
              -2
390
0
  6
Continuous
 62
               0
100
AcDbCircle
 10
812.90679287140574
 20
-639.98650875226576
 30
0.0
 40
4.99969482421875
  0
HATCH
  5
A4
100
AcDbEntity
  8
0
370
              -2
390
0
  6
Continuous
 62
               0
100
AcDbHatch
 10
0.0
 20
0.0
 30
0.0
210
0.0
220
0.0
230
1.0
  2
SOLID
 70
               1
 71
               1
 91
        1
 92
        1
 93
        1
 72
               2
 10
812.90679287140574
 20
-639.98650875226576
 40
4.99969482421875
 50
0.0
 51
360.0
 73
               0
 97
        1
330
A3
 75
               0
 76
               1
 98
        1
 10
0.0
 20
0.0
  0
CIRCLE
  5
A5
102
{ACAD_REACTORS
330
A6
102
}
100
AcDbEntity
  8
0
370
              -2
390
0
  6
Continuous
 62
               0
100
AcDbCircle
 10
487.90679287140574
 20
-639.98650875226576
 30
0.0
 40
4.99969482421875
  0
HATCH
  5
A6
100
AcDbEntity
  8
0
370
              -2
390
0
  6
Continuous
 62
               0
100
AcDbHatch
 10
0.0
 20
0.0
 30
0.0
210
0.0
220
0.0
230
1.0
  2
SOLID
 70
               1
 71
               1
 91
        1
 92
        1
 93
        1
 72
               2
 10
487.90679287140574
 20
-639.98650875226576
 40
4.99969482421875
 50
0.0
 51
360.0
 73
               0
 97
        1
330
A5
 75
               0
 76
               1
 98
        1
 10
0.0
 20
0.0
  0
MTEXT
  5
A7
100
AcDbEntity
  8
0
390
0
 62
               0
100
AcDbMText
 10
626.59429118922981
 20
-606.10889156476571
 30
0.0
 40
24.432617187500004
 41
0.0
 71
               1
 72
               1
  1
325
  7
ＭＳゴシック
 73
               1
 44
0.7828267384257843
  0
POINT
  5
A8
100
AcDbEntity
  8
Defpoints
370
               0
390
0
 62
               0
100
AcDbPoint
 10
487.90679287140574
 20
-559.79305771683664
 30
0.0
  0
POINT
  5
A9
100
AcDbEntity
  8
Defpoints
370
               0
390
0
 62
               0
100
AcDbPoint
 10
812.90679287140574
 20
-535.79305771683767
 30
0.0
  0
POINT
  5
AA
100
AcDbEntity
  8
Defpoints
370
               0
390
0
 62
               0
100
AcDbPoint
 10
812.90679287140574
 20
-639.98650875226576
 30
0.0
  0
ENDBLK
  5
AB
100
AcDbEntity
  8
notes
390
0
100
AcDbBlockEnd
  0
BLOCK
  5
AC
100
AcDbEntity
  8
notes
390
0
100
AcDbBlockBegin
  2
*D9
 70
               1
 10
0.0
 20
0.0
 30
0.0
  3
*D9
  1

  0
LINE
  5
AD
100
AcDbEntity
  8
0
370
              -2
390
0
  6
Continuous
 62
               0
100
AcDbLine
 10
812.90679287140483
 20
-339.79305771683744
 30
0.0
 11
812.90679287140483
 21
-259.79305771683835
 31
0.0
  0
LINE
  5
AE
100
AcDbEntity
  8
0
370
              -2
390
0
  6
Continuous
 62
               0
100
AcDbLine
 10
742.90621098296378
 20
-334.79305771683789
 30
0.0
 11
742.90621098296378
 21
-259.79305771683835
 31
0.0
  0
LINE
  5
AF
100
AcDbEntity
  8
0
370
              -2
390
0
  6
Continuous
 62
               0
100
AcDbLine
 10
812.90679287140483
 20
-259.79305771683835
 30
0.0
 11
742.90621098296378
 21
-259.79305771683835
 31
0.0
  0
CIRCLE
  5
B0
102
{ACAD_REACTORS
330
B1
102
}
100
AcDbEntity
  8
0
370
              -2
390
0
  6
Continuous
 62
               0
100
AcDbCircle
 10
812.90679287140483
 20
-259.79305771683835
 30
0.0
 40
4.99969482421875
  0
HATCH
  5
B1
100
AcDbEntity
  8
0
370
              -2
390
0
  6
Continuous
 62
               0
100
AcDbHatch
 10
0.0
 20
0.0
 30
0.0
210
0.0
220
0.0
230
1.0
  2
SOLID
 70
               1
 71
               1
 91
        1
 92
        1
 93
        1
 72
               2
 10
812.90679287140483
 20
-259.79305771683835
 40
4.99969482421875
 50
0.0
 51
360.0
 73
               0
 97
        1
330
B0
 75
               0
 76
               1
 98
        1
 10
0.0
 20
0.0
  0
CIRCLE
  5
B2
102
{ACAD_REACTORS
330
B3
102
}
100
AcDbEntity
  8
0
370
              -2
390
0
  6
Continuous
 62
               0
100
AcDbCircle
 10
742.90621098296378
 20
-259.79305771683835
 30
0.0
 40
4.99969482421875
  0
HATCH
  5
B3
100
AcDbEntity
  8
0
370
              -2
390
0
  6
Continuous
 62
               0
100
AcDbHatch
 10
0.0
 20
0.0
 30
0.0
210
0.0
220
0.0
230
1.0
  2
SOLID
 70
               1
 71
               1
 91
        1
 92
        1
 93
        1
 72
               2
 10
742.90621098296378
 20
-259.79305771683835
 40
4.99969482421875
 50
0.0
 51
360.0
 73
               0
 97
        1
330
B2
 75
               0
 76
               1
 98
        1
 10
0.0
 20
0.0
  0
MTEXT
  5
B4
100
AcDbEntity
  8
0
390
0
 62
               0
100
AcDbMText
 10
762.03150192718385
 20
-225.91544052933841
 30
0.0
 40
24.432617187500004
 41
0.0
 71
               1
 72
               1
  1
70
  7
ＭＳゴシック
 73
               1
 44
0.7828267384257843
  0
POINT
  5
B5
100
AcDbEntity
  8
Defpoints
370
               0
390
0
 62
               0
100
AcDbPoint
 10
742.90621098296378
 20
-359.79305771683789
 30
0.0
  0
POINT
  5
B6
100
AcDbEntity
  8
Defpoints
370
               0
390
0
 62
               0
100
AcDbPoint
 10
812.90679287140483
 20
-364.79305771683744
 30
0.0
  0
POINT
  5
B7
100
AcDbEntity
  8
Defpoints
370
               0
390
0
 62
               0
100
AcDbPoint
 10
812.90679287140483
 20
-259.79305771683835
 30
0.0
  0
ENDBLK
  5
B8
100
AcDbEntity
  8
notes
390
0
100
AcDbBlockEnd
  0
BLOCK
  5
B9
100
AcDbEntity
  8
notes
390
0
100
AcDbBlockBegin
  2
*D10
 70
               1
 10
0.0
 20
0.0
 30
0.0
  3
*D10
  1

  0
LINE
  5
BA
100
AcDbEntity
  8
0
370
              -2
390
0
  6
Continuous
 62
               0
100
AcDbLine
 10
507.99326396059041
 20
-359.79305771684017
 30
0.0
 11
482.99326396059041
 21
-359.79305771684017
 31
0.0
  0
LINE
  5
BB
100
AcDbEntity
  8
0
370
              -2
390
0
  6
Continuous
 62
               0
100
AcDbLine
 10
507.99326396059041
 20
-509.79305771684039
 30
0.0
 11
482.99326396059041
 21
-509.79305771684039
 31
0.0
  0
LINE
  5
BC
100
AcDbEntity
  8
0
370
              -2
390
0
  6
Continuous
 62
               0
100
AcDbLine
 10
482.99326396059041
 20
-359.79305771684017
 30
0.0
 11
482.99326396059041
 21
-201.48230629444924
 31
0.0
  0
LINE
  5
BD
100
AcDbEntity
  8
0
370
              -2
390
0
  6
Continuous
 62
               0
100
AcDbLine
 10
482.99326396059041
 20
-359.79305771684017
 30
0.0
 11
482.99326396059041
 21
-509.79305771684039
 31
0.0
  0
CIRCLE
  5
BE
102
{ACAD_REACTORS
330
BF
102
}
100
AcDbEntity
  8
0
370
              -2
390
0
  6
Continuous
 62
               0
100
AcDbCircle
 10
482.99326396059041
 20
-359.79305771684017
 30
0.0
 40
4.99969482421875
  0
HATCH
  5
BF
100
AcDbEntity
  8
0
370
              -2
390
0
  6
Continuous
 62
               0
100
AcDbHatch
 10
0.0
 20
0.0
 30
0.0
210
0.0
220
0.0
230
1.0
  2
SOLID
 70
               1
 71
               1
 91
        1
 92
        1
 93
        1
 72
               2
 10
482.99326396059041
 20
-359.79305771684017
 40
4.99969482421875
 50
0.0
 51
360.0
 73
               0
 97
        1
330
BE
 75
               0
 76
               1
 98
        1
 10
0.0
 20
0.0
  0
CIRCLE
  5
C0
102
{ACAD_REACTORS
330
C1
102
}
100
AcDbEntity
  8
0
370
              -2
390
0
  6
Continuous
 62
               0
100
AcDbCircle
 10
482.99326396059041
 20
-509.79305771684039
 30
0.0
 40
4.99969482421875
  0
HATCH
  5
C1
100
AcDbEntity
  8
0
370
              -2
390
0
  6
Continuous
 62
               0
100
AcDbHatch
 10
0.0
 20
0.0
 30
0.0
210
0.0
220
0.0
230
1.0
  2
SOLID
 70
               1
 71
               1
 91
        1
 92
        1
 93
        1
 72
               2
 10
482.99326396059041
 20
-509.79305771684039
 40
4.99969482421875
 50
0.0
 51
360.0
 73
               0
 97
        1
330
C0
 75
               0
 76
               1
 98
        1
 10
0.0
 20
0.0
  0
MTEXT
  5
C2
100
AcDbEntity
  8
0
390
0
 62
               0
100
AcDbMText
 10
449.1156467730907
 20
-344.35730629444924
 30
0.0
 40
24.432617187500004
 41
0.0
 71
               1
 72
               1
  1
150(深さ)
  7
ＭＳゴシック
 11
0.0
 21
1.0
 31
0.0
 73
               1
 44
0.7828267384257843
  0
POINT
  5
C3
100
AcDbEntity
  8
Defpoints
370
               0
390
0
 62
               0
100
AcDbPoint
 10
482.99326396059041
 20
-509.79305771684039
 30
0.0
  0
POINT
  5
C4
100
AcDbEntity
  8
Defpoints
370
               0
390
0
 62
               0
100
AcDbPoint
 10
482.99326396059041
 20
-359.79305771684017
 30
0.0
  0
POINT
  5
C5
100
AcDbEntity
  8
Defpoints
370
               0
390
0
 62
               0
100
AcDbPoint
 10
482.99326396059041
 20
-359.79305771684017
 30
0.0
  0
ENDBLK
  5
C6
100
AcDbEntity
  8
notes
390
0
100
AcDbBlockEnd
  0
BLOCK
  5
C7
100
AcDbEntity
  8
notes
390
0
100
AcDbBlockBegin
  2
*D11
 70
               1
 10
0.0
 20
0.0
 30
0.0
  3
*D11
  1

  0
LINE
  5
C8
100
AcDbEntity
  8
0
370
              -2
390
0
  6
Continuous
 62
               0
100
AcDbLine
 10
242.99326396280321
 20
-359.79305771684017
 30
0.0
 11
162.90679287140392
 21
-359.79305771684017
 31
0.0
  0
LINE
  5
C9
100
AcDbEntity
  8
0
370
              -2
390
0
  6
Continuous
 62
               0
100
AcDbLine
 10
315.66339450225769
 20
-539.7930577168413
 30
0.0
 11
162.90679287140392
 21
-539.7930577168413
 31
0.0
  0
LINE
  5
CA
100
AcDbEntity
  8
0
370
              -2
390
0
  6
Continuous
 62
               0
100
AcDbLine
 10
162.90679287140392
 20
-359.79305771684017
 30
0.0
 11
162.90679287140392
 21
-539.7930577168413
 31
0.0
  0
CIRCLE
  5
CB
102
{ACAD_REACTORS
330
CC
102
}
100
AcDbEntity
  8
0
370
              -2
390
0
  6
Continuous
 62
               0
100
AcDbCircle
 10
162.90679287140392
 20
-359.79305771684017
 30
0.0
 40
4.99969482421875
  0
HATCH
  5
CC
100
AcDbEntity
  8
0
370
              -2
390
0
  6
Continuous
 62
               0
100
AcDbHatch
 10
0.0
 20
0.0
 30
0.0
210
0.0
220
0.0
230
1.0
  2
SOLID
 70
               1
 71
               1
 91
        1
 92
        1
 93
        1
 72
               2
 10
162.90679287140392
 20
-359.79305771684017
 40
4.99969482421875
 50
0.0
 51
360.0
 73
               0
 97
        1
330
CB
 75
               0
 76
               1
 98
        1
 10
0.0
 20
0.0
  0
CIRCLE
  5
CD
102
{ACAD_REACTORS
330
CE
102
}
100
AcDbEntity
  8
0
370
              -2
390
0
  6
Continuous
 62
               0
100
AcDbCircle
 10
162.90679287140392
 20
-539.7930577168413
 30
0.0
 40
4.99969482421875
  0
HATCH
  5
CE
100
AcDbEntity
  8
0
370
              -2
390
0
  6
Continuous
 62
               0
100
AcDbHatch
 10
0.0
 20
0.0
 30
0.0
210
0.0
220
0.0
230
1.0
  2
SOLID
 70
               1
 71
               1
 91
        1
 92
        1
 93
        1
 72
               2
 10
162.90679287140392
 20
-539.7930577168413
 40
4.99969482421875
 50
0.0
 51
360.0
 73
               0
 97
        1
330
CD
 75
               0
 76
               1
 98
        1
 10
0.0
 20
0.0
  0
MTEXT
  5
CF
100
AcDbEntity
  8
0
390
0
 62
               0
100
AcDbMText
 10
129.02917568390421
 20
-473.60555939901633
 30
0.0
 40
24.432617187500004
 41
0.0
 71
               1
 72
               1
  1
180
  7
ＭＳゴシック
 11
0.0
 21
1.0
 31
0.0
 73
               1
 44
0.7828267384257843
  0
POINT
  5
D0
100
AcDbEntity
  8
Defpoints
370
               0
390
0
 62
               0
100
AcDbPoint
 10
340.66339450225769
 20
-539.7930577168413
 30
0.0
  0
POINT
  5
D1
100
AcDbEntity
  8
Defpoints
370
               0
390
0
 62
               0
100
AcDbPoint
 10
267.99326396280321
 20
-359.79305771684017
 30
0.0
  0
POINT
  5
D2
100
AcDbEntity
  8
Defpoints
370
               0
390
0
 62
               0
100
AcDbPoint
 10
162.90679287140392
 20
-359.79305771684017
 30
0.0
  0
ENDBLK
  5
D3
100
AcDbEntity
  8
notes
390
0
100
AcDbBlockEnd
  0
BLOCK
  5
D4
100
AcDbEntity
  8
notes
390
0
100
AcDbBlockBegin
  2
*D12
 70
               1
 10
0.0
 20
0.0
 30
0.0
  3
*D12
  1

  0
LINE
  5
D5
100
AcDbEntity
  8
0
370
              -2
390
0
  6
Continuous
 62
               0
100
AcDbLine
 10
315.66339450225769
 20
-539.7930577168413
 30
0.0
 11
162.90679287140392
 21
-539.7930577168413
 31
0.0
  0
LINE
  5
D6
100
AcDbEntity
  8
0
370
              -2
390
0
  6
Continuous
 62
               0
100
AcDbLine
 10
429.79920106463032
 20
-559.79305771683664
 30
0.0
 11
162.90679287140392
 21
-559.79305771683664
 31
0.0
  0
LINE
  5
D7
100
AcDbEntity
  8
0
370
              -2
390
0
  6
Continuous
 62
               0
100
AcDbLine
 10
162.90679287140392
 20
-559.79305771683664
 30
0.0
 11
162.90679287140392
 21
-597.41805771683892
 31
0.0
  0
LINE
  5
D8
100
AcDbEntity
  8
0
370
              -2
390
0
  6
Continuous
 62
               0
100
AcDbLine
 10
162.90679287140392
 20
-539.7930577168413
 30
0.0
 11
162.90679287140392
 21
-559.79305771683664
 31
0.0
  0
CIRCLE
  5
D9
102
{ACAD_REACTORS
330
DA
102
}
100
AcDbEntity
  8
0
370
              -2
390
0
  6
Continuous
 62
               0
100
AcDbCircle
 10
162.90679287140392
 20
-539.7930577168413
 30
0.0
 40
4.99969482421875
  0
HATCH
  5
DA
100
AcDbEntity
  8
0
370
              -2
390
0
  6
Continuous
 62
               0
100
AcDbHatch
 10
0.0
 20
0.0
 30
0.0
210
0.0
220
0.0
230
1.0
  2
SOLID
 70
               1
 71
               1
 91
        1
 92
        1
 93
        1
 72
               2
 10
162.90679287140392
 20
-539.7930577168413
 40
4.99969482421875
 50
0.0
 51
360.0
 73
               0
 97
        1
330
D9
 75
               0
 76
               1
 98
        1
 10
0.0
 20
0.0
  0
CIRCLE
  5
DB
102
{ACAD_REACTORS
330
DC
102
}
100
AcDbEntity
  8
0
370
              -2
390
0
  6
Continuous
 62
               0
100
AcDbCircle
 10
162.90679287140392
 20
-559.79305771683664
 30
0.0
 40
4.99969482421875
  0
HATCH
  5
DC
100
AcDbEntity
  8
0
370
              -2
390
0
  6
Continuous
 62
               0
100
AcDbHatch
 10
0.0
 20
0.0
 30
0.0
210
0.0
220
0.0
230
1.0
  2
SOLID
 70
               1
 71
               1
 91
        1
 92
        1
 93
        1
 72
               2
 10
162.90679287140392
 20
-559.79305771683664
 40
4.99969482421875
 50
0.0
 51
360.0
 73
               0
 97
        1
330
DB
 75
               0
 76
               1
 98
        1
 10
0.0
 20
0.0
  0
MTEXT
  5
DD
100
AcDbEntity
  8
0
390
0
 62
               0
100
AcDbMText
 10
129.02917568390421
 20
-597.41805771683892
 30
0.0
 40
24.432617187500004
 41
0.0
 71
               1
 72
               1
  1
20
  7
ＭＳゴシック
 11
0.0
 21
1.0
 31
0.0
 73
               1
 44
0.7828267384257843
  0
POINT
  5
DE
100
AcDbEntity
  8
Defpoints
370
               0
390
0
 62
               0
100
AcDbPoint
 10
454.79920106463032
 20
-559.79305771683664
 30
0.0
  0
POINT
  5
DF
100
AcDbEntity
  8
Defpoints
370
               0
390
0
 62
               0
100
AcDbPoint
 10
340.66339450225769
 20
-539.7930577168413
 30
0.0
  0
POINT
  5
E0
100
AcDbEntity
  8
Defpoints
370
               0
390
0
 62
               0
100
AcDbPoint
 10
162.90679287140392
 20
-539.7930577168413
 30
0.0
  0
ENDBLK
  5
E1
100
AcDbEntity
  8
notes
390
0
100
AcDbBlockEnd
  0
BLOCK
  5
E2
100
AcDbEntity
  8
notes
390
0
100
AcDbBlockBegin
  2
*D13
 70
               1
 10
0.0
 20
0.0
 30
0.0
  3
*D13
  1

  0
LINE
  5
E3
100
AcDbEntity
  8
0
370
              -2
390
0
  6
Continuous
 62
               0
100
AcDbLine
 10
-689.47299228437805
 20
856.1291401667113
 30
0.0
 11
-765.47299228437896
 21
856.1291401667113
 31
0.0
  0
LINE
  5
E4
100
AcDbEntity
  8
0
370
              -2
390
0
  6
Continuous
 62
               0
100
AcDbLine
 10
-689.47299228437805
 20
726.09862221189223
 30
0.0
 11
-765.47299228437896
 21
726.09862221189223
 31
0.0
  0
LINE
  5
E5
100
AcDbEntity
  8
0
370
              -2
390
0
  6
Continuous
 62
               0
100
AcDbLine
 10
-765.47299228437896
 20
856.1291401667113
 30
0.0
 11
-765.47299228437896
 21
726.09862221189223
 31
0.0
  0
CIRCLE
  5
E6
102
{ACAD_REACTORS
330
E7
102
}
100
AcDbEntity
  8
0
370
              -2
390
0
  6
Continuous
 62
               0
100
AcDbCircle
 10
-765.47299228437896
 20
856.1291401667113
 30
0.0
 40
4.99969482421875
  0
HATCH
  5
E7
100
AcDbEntity
  8
0
370
              -2
390
0
  6
Continuous
 62
               0
100
AcDbHatch
 10
0.0
 20
0.0
 30
0.0
210
0.0
220
0.0
230
1.0
  2
SOLID
 70
               1
 71
               1
 91
        1
 92
        1
 93
        1
 72
               2
 10
-765.47299228437896
 20
856.1291401667113
 40
4.99969482421875
 50
0.0
 51
360.0
 73
               0
 97
        1
330
E6
 75
               0
 76
               1
 98
        1
 10
0.0
 20
0.0
  0
CIRCLE
  5
E8
102
{ACAD_REACTORS
330
E9
102
}
100
AcDbEntity
  8
0
370
              -2
390
0
  6
Continuous
 62
               0
100
AcDbCircle
 10
-765.47299228437896
 20
726.09862221189223
 30
0.0
 40
4.99969482421875
  0
HATCH
  5
E9
100
AcDbEntity
  8
0
370
              -2
390
0
  6
Continuous
 62
               0
100
AcDbHatch
 10
0.0
 20
0.0
 30
0.0
210
0.0
220
0.0
230
1.0
  2
SOLID
 70
               1
 71
               1
 91
        1
 92
        1
 93
        1
 72
               2
 10
-765.47299228437896
 20
726.09862221189223
 40
4.99969482421875
 50
0.0
 51
360.0
 73
               0
 97
        1
330
E8
 75
               0
 76
               1
 98
        1
 10
0.0
 20
0.0
  0
MTEXT
  5
EA
100
AcDbEntity
  8
0
390
0
 62
               0
100
AcDbMText
 10
-799.35060947187867
 20
767.30137950712606
 30
0.0
 40
24.432617187500004
 41
0.0
 71
               1
 72
               1
  1
130
  7
ＭＳゴシック
 11
0.0
 21
1.0
 31
0.0
 73
               1
 44
0.7828267384257843
  0
POINT
  5
EB
100
AcDbEntity
  8
Defpoints
370
               0
390
0
 62
               0
100
AcDbPoint
 10
-664.47299228437805
 20
726.09862221189223
 30
0.0
  0
POINT
  5
EC
100
AcDbEntity
  8
Defpoints
370
               0
390
0
 62
               0
100
AcDbPoint
 10
-664.47299228437805
 20
856.1291401667113
 30
0.0
  0
POINT
  5
ED
100
AcDbEntity
  8
Defpoints
370
               0
390
0
 62
               0
100
AcDbPoint
 10
-765.47299228437896
 20
856.1291401667113
 30
0.0
  0
ENDBLK
  5
EE
100
AcDbEntity
  8
notes
390
0
100
AcDbBlockEnd
  0
BLOCK
  5
EF
100
AcDbEntity
  8
notes
390
0
100
AcDbBlockBegin
  2
*D14
 70
               1
 10
0.0
 20
0.0
 30
0.0
  3
*D14
  1

  0
LINE
  5
F0
100
AcDbEntity
  8
0
370
              -2
390
0
  6
Continuous
 62
               0
100
AcDbLine
 10
-695.47299228437896
 20
726.09862221189223
 30
0.0
 11
-765.47299228437896
 21
726.09862221189223
 31
0.0
  0
LINE
  5
F1
100
AcDbEntity
  8
0
370
              -2
390
0
  6
Continuous
 62
               0
100
AcDbLine
 10
-582.72271388759691
 20
336.09862221189474
 30
0.0
 11
-765.47299228437896
 21
336.09862221189474
 31
0.0
  0
LINE
  5
F2
100
AcDbEntity
  8
0
370
              -2
390
0
  6
Continuous
 62
               0
100
AcDbLine
 10
-765.47299228437896
 20
726.09862221189223
 30
0.0
 11
-765.47299228437896
 21
336.09862221189474
 31
0.0
  0
CIRCLE
  5
F3
102
{ACAD_REACTORS
330
F4
102
}
100
AcDbEntity
  8
0
370
              -2
390
0
  6
Continuous
 62
               0
100
AcDbCircle
 10
-765.47299228437896
 20
726.09862221189223
 30
0.0
 40
4.99969482421875
  0
HATCH
  5
F4
100
AcDbEntity
  8
0
370
              -2
390
0
  6
Continuous
 62
               0
100
AcDbHatch
 10
0.0
 20
0.0
 30
0.0
210
0.0
220
0.0
230
1.0
  2
SOLID
 70
               1
 71
               1
 91
        1
 92
        1
 93
        1
 72
               2
 10
-765.47299228437896
 20
726.09862221189223
 40
4.99969482421875
 50
0.0
 51
360.0
 73
               0
 97
        1
330
F3
 75
               0
 76
               1
 98
        1
 10
0.0
 20
0.0
  0
CIRCLE
  5
F5
102
{ACAD_REACTORS
330
F6
102
}
100
AcDbEntity
  8
0
370
              -2
390
0
  6
Continuous
 62
               0
100
AcDbCircle
 10
-765.47299228437896
 20
336.09862221189474
 30
0.0
 40
4.99969482421875
  0
HATCH
  5
F6
100
AcDbEntity
  8
0
370
              -2
390
0
  6
Continuous
 62
               0
100
AcDbHatch
 10
0.0
 20
0.0
 30
0.0
210
0.0
220
0.0
230
1.0
  2
SOLID
 70
               1
 71
               1
 91
        1
 92
        1
 93
        1
 72
               2
 10
-765.47299228437896
 20
336.09862221189474
 40
4.99969482421875
 50
0.0
 51
360.0
 73
               0
 97
        1
330
F5
 75
               0
 76
               1
 98
        1
 10
0.0
 20
0.0
  0
MTEXT
  5
F7
100
AcDbEntity
  8
0
390
0
 62
               0
100
AcDbMText
 10
-799.35060947187867
 20
502.28612052971812
 30
0.0
 40
24.432617187500004
 41
0.0
 71
               1
 72
               1
  1
390
  7
ＭＳゴシック
 11
0.0
 21
1.0
 31
0.0
 73
               1
 44
0.7828267384257843
  0
POINT
  5
F8
100
AcDbEntity
  8
Defpoints
370
               0
390
0
 62
               0
100
AcDbPoint
 10
-557.72271388759691
 20
336.09862221189474
 30
0.0
  0
POINT
  5
F9
100
AcDbEntity
  8
Defpoints
370
               0
390
0
 62
               0
100
AcDbPoint
 10
-670.47299228437896
 20
726.09862221189223
 30
0.0
  0
POINT
  5
FA
100
AcDbEntity
  8
Defpoints
370
               0
390
0
 62
               0
100
AcDbPoint
 10
-765.47299228437896
 20
726.09862221189223
 30
0.0
  0
ENDBLK
  5
FB
100
AcDbEntity
  8
notes
390
0
100
AcDbBlockEnd
  0
BLOCK
  5
FC
100
AcDbEntity
  8
notes
390
0
100
AcDbBlockBegin
  2
*D15
 70
               1
 10
0.0
 20
0.0
 30
0.0
  3
*D15
  1

  0
LINE
  5
FD
100
AcDbEntity
  8
0
370
              -2
390
0
  6
Continuous
 62
               0
100
AcDbLine
 10
-587.97299228437896
 20
-564.79305771683767
 30
0.0
 11
-587.97299228437896
 21
-639.79305771683767
 31
0.0
  0
LINE
  5
FE
100
AcDbEntity
  8
0
370
              -2
390
0
  6
Continuous
 62
               0
100
AcDbLine
 10
-302.97299228437896
 20
-564.79305771683767
 30
0.0
 11
-302.97299228437896
 21
-639.79305771683767
 31
0.0
  0
LINE
  5
FF
100
AcDbEntity
  8
0
370
              -2
390
0
  6
Continuous
 62
               0
100
AcDbLine
 10
-587.97299228437896
 20
-639.79305771683767
 30
0.0
 11
-302.97299228437896
 21
-639.79305771683767
 31
0.0
  0
CIRCLE
  5
100
102
{ACAD_REACTORS
330
101
102
}
100
AcDbEntity
  8
0
370
              -2
390
0
  6
Continuous
 62
               0
100
AcDbCircle
 10
-587.97299228437896
 20
-639.79305771683767
 30
0.0
 40
4.99969482421875
  0
HATCH
  5
101
100
AcDbEntity
  8
0
370
              -2
390
0
  6
Continuous
 62
               0
100
AcDbHatch
 10
0.0
 20
0.0
 30
0.0
210
0.0
220
0.0
230
1.0
  2
SOLID
 70
               1
 71
               1
 91
        1
 92
        1
 93
        1
 72
               2
 10
-587.97299228437896
 20
-639.79305771683767
 40
4.99969482421875
 50
0.0
 51
360.0
 73
               0
 97
        1
330
100
 75
               0
 76
               1
 98
        1
 10
0.0
 20
0.0
  0
CIRCLE
  5
102
102
{ACAD_REACTORS
330
103
102
}
100
AcDbEntity
  8
0
370
              -2
390
0
  6
Continuous
 62
               0
100
AcDbCircle
 10
-302.97299228437896
 20
-639.79305771683767
 30
0.0
 40
4.99969482421875
  0
HATCH
  5
103
100
AcDbEntity
  8
0
370
              -2
390
0
  6
Continuous
 62
               0
100
AcDbHatch
 10
0.0
 20
0.0
 30
0.0
210
0.0
220
0.0
230
1.0
  2
SOLID
 70
               1
 71
               1
 91
        1
 92
        1
 93
        1
 72
               2
 10
-302.97299228437896
 20
-639.79305771683767
 40
4.99969482421875
 50
0.0
 51
360.0
 73
               0
 97
        1
330
102
 75
               0
 76
               1
 98
        1
 10
0.0
 20
0.0
  0
MTEXT
  5
104
100
AcDbEntity
  8
0
390
0
 62
               0
100
AcDbMText
 10
-469.2854939665549
 20
-605.91544052933762
 30
0.0
 40
24.432617187500004
 41
0.0
 71
               1
 72
               1
  1
285
  7
ＭＳゴシック
 73
               1
 44
0.7828267384257843
  0
POINT
  5
105
100
AcDbEntity
  8
Defpoints
370
               0
390
0
 62
               0
100
AcDbPoint
 10
-302.97299228437896
 20
-539.79305771683767
 30
0.0
  0
POINT
  5
106
100
AcDbEntity
  8
Defpoints
370
               0
390
0
 62
               0
100
AcDbPoint
 10
-587.97299228437896
 20
-539.79305771683767
 30
0.0
  0
POINT
  5
107
100
AcDbEntity
  8
Defpoints
370
               0
390
0
 62
               0
100
AcDbPoint
 10
-587.97299228437896
 20
-639.79305771683767
 30
0.0
  0
ENDBLK
  5
108
100
AcDbEntity
  8
notes
390
0
100
AcDbBlockEnd
  0
BLOCK
  5
109
100
AcDbEntity
  8
notes
390
0
100
AcDbBlockBegin
  2
*D16
 70
               1
 10
0.0
 20
0.0
 30
0.0
  3
*D16
  1

  0
LINE
  5
10A
100
AcDbEntity
  8
0
370
              -2
390
0
  6
Continuous
 62
               0
100
AcDbLine
 10
812.90679287140483
 20
-560.79305771683767
 30
0.0
 11
812.90679287140483
 21
-689.98650875226576
 31
0.0
  0
LINE
  5
10B
100
AcDbEntity
  8
0
370
              -2
390
0
  6
Continuous
 62
               0
100
AcDbLine
 10
342.90679287140483
 20
-560.79305771683767
 30
0.0
 11
342.90679287140483
 21
-689.98650875226576
 31
0.0
  0
LINE
  5
10C
100
AcDbEntity
  8
0
370
              -2
390
0
  6
Continuous
 62
               0
100
AcDbLine
 10
812.90679287140483
 20
-689.98650875226576
 30
0.0
 11
342.90679287140483
 21
-689.98650875226576
 31
0.0
  0
CIRCLE
  5
10D
102
{ACAD_REACTORS
330
10E
102
}
100
AcDbEntity
  8
0
370
              -2
390
0
  6
Continuous
 62
               0
100
AcDbCircle
 10
812.90679287140483
 20
-689.98650875226576
 30
0.0
 40
4.99969482421875
  0
HATCH
  5
10E
100
AcDbEntity
  8
0
370
              -2
390
0
  6
Continuous
 62
               0
100
AcDbHatch
 10
0.0
 20
0.0
 30
0.0
210
0.0
220
0.0
230
1.0
  2
SOLID
 70
               1
 71
               1
 91
        1
 92
        1
 93
        1
 72
               2
 10
812.90679287140483
 20
-689.98650875226576
 40
4.99969482421875
 50
0.0
 51
360.0
 73
               0
 97
        1
330
10D
 75
               0
 76
               1
 98
        1
 10
0.0
 20
0.0
  0
CIRCLE
  5
10F
102
{ACAD_REACTORS
330
110
102
}
100
AcDbEntity
  8
0
370
              -2
390
0
  6
Continuous
 62
               0
100
AcDbCircle
 10
342.90679287140483
 20
-689.98650875226576
 30
0.0
 40
4.99969482421875
  0
HATCH
  5
110
100
AcDbEntity
  8
0
370
              -2
390
0
  6
Continuous
 62
               0
100
AcDbHatch
 10
0.0
 20
0.0
 30
0.0
210
0.0
220
0.0
230
1.0
  2
SOLID
 70
               1
 71
               1
 91
        1
 92
        1
 93
        1
 72
               2
 10
342.90679287140483
 20
-689.98650875226576
 40
4.99969482421875
 50
0.0
 51
360.0
 73
               0
 97
        1
330
10F
 75
               0
 76
               1
 98
        1
 10
0.0
 20
0.0
  0
MTEXT
  5
111
100
AcDbEntity
  8
0
390
0
 62
               0
100
AcDbMText
 10
554.0942911892289
 20
-656.10889156476571
 30
0.0
 40
24.432617187500004
 41
0.0
 71
               1
 72
               1
  1
470
  7
ＭＳゴシック
 73
               1
 44
0.7828267384257843
  0
POINT
  5
112
100
AcDbEntity
  8
Defpoints
370
               0
390
0
 62
               0
100
AcDbPoint
 10
342.90679287140483
 20
-535.79305771683767
 30
0.0
  0
POINT
  5
113
100
AcDbEntity
  8
Defpoints
370
               0
390
0
 62
               0
100
AcDbPoint
 10
812.90679287140483
 20
-535.79305771683767
 30
0.0
  0
POINT
  5
114
100
AcDbEntity
  8
Defpoints
370
               0
390
0
 62
               0
100
AcDbPoint
 10
812.90679287140483
 20
-689.98650875226576
 30
0.0
  0
ENDBLK
  5
115
100
AcDbEntity
  8
notes
390
0
100
AcDbBlockEnd
  0
BLOCK
  5
116
100
AcDbEntity
  8
notes
390
0
100
AcDbBlockBegin
  2
グループ-1
 70
               0
 10
0.0
 20
0.0
 30
0.0
  3
グループ-1
  1

  0
MTEXT
  5
117
100
AcDbEntity
  8
0
390
0
 62
               7
100
AcDbMText
 10
-5138.144724865816
 20
1623.8596593065629
 30
0.0
 40
24.432617187500004
 41
0.0
 71
               1
 72
               1
  1
※カウンター置きの場合も壁固定が必要です。\P
  7
ＭＳ ゴシック
 73
               1
 44
0.7828267384257843
  0
MTEXT
  5
118
100
AcDbEntity
  8
0
390
0
 62
               7
100
AcDbMText
 10
-5138.144724865816
 20
1768.885767999496
 30
0.0
 40
24.432617187500004
 41
764.7717154610109
 71
               1
 72
               1
  1
※陶器製品には寸法公差があります。\P  洗面器の収め方をご確認の上、必ず現物を合わせて\P  カウンターに切込を行ってください。
  7
ＭＳゴシック
 73
               1
 44
1.0437689845677123
  0
ENDBLK
  5
119
100
AcDbEntity
  8
notes
390
0
100
AcDbBlockEnd
  0
BLOCK
  5
11A
100
AcDbEntity
  8
notes
390
0
100
AcDbBlockBegin
  2
*D18
 70
               1
 10
0.0
 20
0.0
 30
0.0
  3
*D18
  1

  0
LINE
  5
11B
100
AcDbEntity
  8
0
370
              -2
390
0
  6
Continuous
 62
               0
100
AcDbLine
 10
648.55294890364348
 20
855.77421331210917
 30
0.0
 11
808.55294890364348
 21
855.77421331210917
 31
0.0
  0
LINE
  5
11C
100
AcDbEntity
  8
0
370
              -2
390
0
  6
Continuous
 62
               0
100
AcDbLine
 10
648.55294890364348
 20
475.77421331210962
 30
0.0
 11
808.55294890364348
 21
475.77421331210962
 31
0.0
  0
LINE
  5
11D
100
AcDbEntity
  8
0
370
              -2
390
0
  6
Continuous
 62
               0
100
AcDbLine
 10
808.55294890364348
 20
855.77421331210917
 30
0.0
 11
808.55294890364348
 21
475.77421331210962
 31
0.0
  0
CIRCLE
  5
11E
102
{ACAD_REACTORS
330
11F
102
}
100
AcDbEntity
  8
0
370
              -2
390
0
  6
Continuous
 62
               0
100
AcDbCircle
 10
808.55294890364348
 20
855.77421331210917
 30
0.0
 40
4.99969482421875
  0
HATCH
  5
11F
100
AcDbEntity
  8
0
370
              -2
390
0
  6
Continuous
 62
               0
100
AcDbHatch
 10
0.0
 20
0.0
 30
0.0
210
0.0
220
0.0
230
1.0
  2
SOLID
 70
               1
 71
               1
 91
        1
 92
        1
 93
        1
 72
               2
 10
808.55294890364348
 20
855.77421331210917
 40
4.99969482421875
 50
0.0
 51
360.0
 73
               0
 97
        1
330
11E
 75
               0
 76
               1
 98
        1
 10
0.0
 20
0.0
  0
CIRCLE
  5
120
102
{ACAD_REACTORS
330
121
102
}
100
AcDbEntity
  8
0
370
              -2
390
0
  6
Continuous
 62
               0
100
AcDbCircle
 10
808.55294890364348
 20
475.77421331210962
 30
0.0
 40
4.99969482421875
  0
HATCH
  5
121
100
AcDbEntity
  8
0
370
              -2
390
0
  6
Continuous
 62
               0
100
AcDbHatch
 10
0.0
 20
0.0
 30
0.0
210
0.0
220
0.0
230
1.0
  2
SOLID
 70
               1
 71
               1
 91
        1
 92
        1
 93
        1
 72
               2
 10
808.55294890364348
 20
475.77421331210962
 40
4.99969482421875
 50
0.0
 51
360.0
 73
               0
 97
        1
330
120
 75
               0
 76
               1
 98
        1
 10
0.0
 20
0.0
  0
MTEXT
  5
122
100
AcDbEntity
  8
0
390
0
 62
               0
100
AcDbMText
 10
774.67533171614377
 20
641.96171162993369
 30
0.0
 40
24.432617187500004
 41
0.0
 71
               1
 72
               1
  1
380
  7
ＭＳゴシック
 11
0.0
 21
1.0
 31
0.0
 73
               1
 44
0.7828267384257843
  0
POINT
  5
123
100
AcDbEntity
  8
Defpoints
370
               0
390
0
 62
               0
100
AcDbPoint
 10
623.55294890364348
 20
475.77421331210962
 30
0.0
  0
POINT
  5
124
100
AcDbEntity
  8
Defpoints
370
               0
390
0
 62
               0
100
AcDbPoint
 10
623.55294890364348
 20
855.77421331210917
 30
0.0
  0
POINT
  5
125
100
AcDbEntity
  8
Defpoints
370
               0
390
0
 62
               0
100
AcDbPoint
 10
808.55294890364348
 20
855.77421331210917
 30
0.0
  0
ENDBLK
  5
126
100
AcDbEntity
  8
notes
390
0
100
AcDbBlockEnd
  0
BLOCK
  5
127
100
AcDbEntity
  8
notes
390
0
100
AcDbBlockBegin
  2
*D19
 70
               1
 10
0.0
 20
0.0
 30
0.0
  3
*D19
  1

  0
LINE
  5
128
100
AcDbEntity
  8
0
370
              -2
390
0
  6
Continuous
 62
               0
100
AcDbLine
 10
413.55294890364348
 20
450.77421331210962
 30
0.0
 11
413.55294890364348
 21
375.77421331210962
 31
0.0
  0
LINE
  5
129
100
AcDbEntity
  8
0
370
              -2
390
0
  6
Continuous
 62
               0
100
AcDbLine
 10
623.55294890364348
 20
450.77421331210962
 30
0.0
 11
623.55294890364348
 21
375.77421331210962
 31
0.0
  0
LINE
  5
12A
100
AcDbEntity
  8
0
370
              -2
390
0
  6
Continuous
 62
               0
100
AcDbLine
 10
413.55294890364348
 20
375.77421331210962
 30
0.0
 11
623.55294890364348
 21
375.77421331210962
 31
0.0
  0
CIRCLE
  5
12B
102
{ACAD_REACTORS
330
12C
102
}
100
AcDbEntity
  8
0
370
              -2
390
0
  6
Continuous
 62
               0
100
AcDbCircle
 10
413.55294890364348
 20
375.77421331210962
 30
0.0
 40
4.99969482421875
  0
HATCH
  5
12C
100
AcDbEntity
  8
0
370
              -2
390
0
  6
Continuous
 62
               0
100
AcDbHatch
 10
0.0
 20
0.0
 30
0.0
210
0.0
220
0.0
230
1.0
  2
SOLID
 70
               1
 71
               1
 91
        1
 92
        1
 93
        1
 72
               2
 10
413.55294890364348
 20
375.77421331210962
 40
4.99969482421875
 50
0.0
 51
360.0
 73
               0
 97
        1
330
12B
 75
               0
 76
               1
 98
        1
 10
0.0
 20
0.0
  0
CIRCLE
  5
12D
102
{ACAD_REACTORS
330
12E
102
}
100
AcDbEntity
  8
0
370
              -2
390
0
  6
Continuous
 62
               0
100
AcDbCircle
 10
623.55294890364348
 20
375.77421331210962
 30
0.0
 40
4.99969482421875
  0
HATCH
  5
12E
100
AcDbEntity
  8
0
370
              -2
390
0
  6
Continuous
 62
               0
100
AcDbHatch
 10
0.0
 20
0.0
 30
0.0
210
0.0
220
0.0
230
1.0
  2
SOLID
 70
               1
 71
               1
 91
        1
 92
        1
 93
        1
 72
               2
 10
623.55294890364348
 20
375.77421331210962
 40
4.99969482421875
 50
0.0
 51
360.0
 73
               0
 97
        1
330
12D
 75
               0
 76
               1
 98
        1
 10
0.0
 20
0.0
  0
MTEXT
  5
12F
100
AcDbEntity
  8
0
390
0
 62
               0
100
AcDbMText
 10
494.74044722146755
 20
409.65183049960956
 30
0.0
 40
24.432617187500004
 41
0.0
 71
               1
 72
               1
  1
210
  7
ＭＳゴシック
 73
               1
 44
0.7828267384257843
  0
POINT
  5
130
100
AcDbEntity
  8
Defpoints
370
               0
390
0
 62
               0
100
AcDbPoint
 10
623.55294890364348
 20
475.77421331210962
 30
0.0
  0
POINT
  5
131
100
AcDbEntity
  8
Defpoints
370
               0
390
0
 62
               0
100
AcDbPoint
 10
413.55294890364348
 20
475.77421331210962
 30
0.0
  0
POINT
  5
132
100
AcDbEntity
  8
Defpoints
370
               0
390
0
 62
               0
100
AcDbPoint
 10
413.55294890364348
 20
375.77421331210962
 30
0.0
  0
ENDBLK
  5
133
100
AcDbEntity
  8
notes
390
0
100
AcDbBlockEnd
  0
BLOCK
  5
134
100
AcDbEntity
  8
ADF70-1103
390
0
100
AcDbBlockBegin
  2
グループ-2
 70
               0
 10
0.0
 20
0.0
 30
0.0
  3
グループ-2
  1

  0
LINE
  5
135
100
AcDbEntity
  8
0
370
               5
390
0
  6
Continuous
 62
               7
100
AcDbLine
 10
-4507.6034944278399
 20
2460.332678169083
 30
0.0
 11
-4544.6034944278399
 21
2423.332678169083
 31
0.0
  0
LINE
  5
136
100
AcDbEntity
  8
0
370
               5
390
0
  6
Continuous
 62
               7
100
AcDbLine
 10
-4527.6034944278399
 20
2460.332678169083
 30
0.0
 11
-4564.6034944278399
 21
2423.332678169083
 31
0.0
  0
LINE
  5
137
100
AcDbEntity
  8
0
370
               5
390
0
  6
Continuous
 62
               7
100
AcDbLine
 10
-4547.6034944278399
 20
2460.332678169083
 30
0.0
 11
-4584.6034944278399
 21
2423.332678169083
 31
0.0
  0
ENDBLK
  5
138
100
AcDbEntity
  8
ADF70-1103
390
0
100
AcDbBlockEnd
  0
ENDSEC
  0
SECTION
  2
ENTITIES
  0
MTEXT
  5
139
100
AcDbEntity
  8
template
390
0
 62
               7
100
AcDbMText
 10
-967.99999999975898
 20
-1147.4176292337006
 30
0.0
 40
16.288411458333332
 41
0.0
 71
               1
 72
               1
  1
品名
  7
ＭＳ ゴシック
 73
               1
 44
0.7828267384257843
  0
MTEXT
  5
13A
100
AcDbEntity
  8
template
390
0
 62
               7
100
AcDbMText
 10
-967.99999999975898
 20
-1232.4176292337006
 30
0.0
 40
16.288411458333332
 41
0.0
 71
               1
 72
               1
  1
仕様
  7
ＭＳ ゴシック
 73
               1
 44
0.7828267384257843
  0
MTEXT
  5
13B
100
AcDbEntity
  8
template
390
0
 62
               7
100
AcDbMText
 10
-914.99999999975898
 20
-1176.0000901712006
 30
0.0
 40
24.432617187500004
 41
0.0
 71
               1
 72
               1
  1
洗面器 -CATALANO,C-
  7
ＭＳ ゴシック
 73
               1
 44
0.7828267384257843
  0
LINE
  5
13C
100
AcDbEntity
  8
template
370
               5
390
0
  6
Continuous
 62
               7
100
AcDbLine
 10
974.99999999975898
 20
-1224.0027073587005
 30
0.0
 11
-975.00000000024102
 21
-1224.0027073587005
 31
0.0
  0
LWPOLYLINE
  5
13D
100
AcDbEntity
  8
template
370
               5
390
0
  6
Continuous
 62
               7
100
AcDbPolyline
 90
        5
 70
             128
 10
975.00000000024102
 20
1405.9972926412993
 10
-974.99999999975898
 20
1405.9972926412993
 10
-974.99999999975898
 20
-1394.0027073587005
 10
975.00000000024102
 20
-1394.0027073587005
 10
975.00000000024102
 20
1405.9972926412993
  0
LINE
  5
13E
100
AcDbEntity
  8
template
370
               5
390
0
  6
Continuous
 62
               7
100
AcDbLine
 10
974.99999999975898
 20
-1139.0027073587005
 30
0.0
 11
-975.00000000024102
 21
-1139.0027073587005
 31
0.0
  0
LINE
  5
13F
100
AcDbEntity
  8
template
370
               5
390
0
  6
Continuous
 62
               7
100
AcDbLine
 10
975.00000000024102
 20
-1309.0027073587005
 30
0.0
 11
222.00000000024102
 21
-1309.0027073587005
 31
0.0
  0
MTEXT
  5
140
100
AcDbEntity
  8
template
390
0
 62
               7
100
AcDbMText
 10
-974.99999999955617
 20
-1405.8565294155574
 30
0.0
 40
21.717881944444446
 41
0.0
 71
               1
 72
               1
  1
110928SH
  7
ＭＳ ゴシック
 73
               1
 44
0.7828267384257843
  0
MTEXT
  5
141
100
AcDbEntity
  8
template
390
0
 62
               7
100
AcDbMText
 10
251.87140625250049
 20
-1338.9131018320081
 30
0.0
 40
24.432617187500004
 41
0.0
 71
               1
 72
               1
  1
大洋金物株式会社 ティーフォルム事業部
  7
ＭＳ ゴシック
 73
               1
 44
0.7828267384257843
  0
INSERT
  5
142
100
AcDbEntity
  8
template
390
0
 62
               7
100
AcDbBlockReference
  2
グループ
 10
5242.1034944278399
 20
-1567.832678169083
 30
0.0
  0
MTEXT
  5
143
100
AcDbEntity
  8
template
390
0
 62
               7
100
AcDbMText
 10
784.00000000050022
 20
-1261.0000901712006
 30
0.0
 40
24.432617187500004
 41
0.0
 71
               1
 72
               1
  1
1:10
  7
ＭＳ ゴシック
 73
               1
 44
0.7828267384257843
  0
MTEXT
  5
144
100
AcDbEntity
  8
template
390
0
 62
               7
100
AcDbMText
 10
731.00000000050022
 20
-1232.4176292337006
 30
0.0
 40
16.288411458333332
 41
0.0
 71
               1
 72
               1
  1
縮尺
  7
ＭＳ ゴシック
 73
               1
 44
0.7828267384257843
  0
LINE
  5
145
100
AcDbEntity
  8
template
370
               5
390
0
  6
Continuous
 62
               7
100
AcDbLine
 10
724.00000000050022
 20
-1309.0027073587005
 30
0.0
 11
724.00000000050022
 21
-1224.0027073587005
 31
0.0
  0
MTEXT
  5
146
100
AcDbEntity
  8
template
390
0
 62
               7
100
AcDbMText
 10
480.00000000050022
 20
-1232.4176292337006
 30
0.0
 40
16.288411458333332
 41
0.0
 71
               1
 72
               1
  1
容量
  7
ＭＳ ゴシック
 73
               1
 44
0.7828267384257843
  0
MTEXT
  5
147
100
AcDbEntity
  8
template
390
0
 62
               7
100
AcDbMText
 10
533.00000000050022
 20
-1261.0000901712006
 30
0.0
 40
24.432617187500004
 41
0.0
 71
               1
 72
               1
  1
6.7L
  7
ＭＳ ゴシック
 73
               1
 44
0.7828267384257843
  0
LINE
  5
148
100
AcDbEntity
  8
template
370
               5
390
0
  6
Continuous
 62
               7
100
AcDbLine
 10
473.00000000050022
 20
-1309.0027073587005
 30
0.0
 11
473.00000000050022
 21
-1224.0027073587005
 31
0.0
  0
MTEXT
  5
149
100
AcDbEntity
  8
template
390
0
 62
               7
100
AcDbMText
 10
229.00000000050022
 20
-1147.4176292337006
 30
0.0
 40
16.288411458333332
 41
0.0
 71
               1
 72
               1
  1
品番
  7
ＭＳ ゴシック
 73
               1
 44
0.7828267384257843
  0
MTEXT
  5
14A
100
AcDbEntity
  8
template
390
0
 62
               7
100
AcDbMText
 10
229.00000000050022
 20
-1232.4176292337006
 30
0.0
 40
16.288411458333332
 41
0.0
 71
               1
 72
               1
  1
重量
  7
ＭＳ ゴシック
 73
               1
 44
0.7828267384257843
  0
MTEXT
  5
14B
100
AcDbEntity
  8
template
390
0
 62
               7
100
AcDbMText
 10
282.00000000050022
 20
-1176.0000901712006
 30
0.0
 40
24.432617187500004
 41
0.0
 71
               1
 72
               1
  1
ADF70-1103
  7
ＭＳ ゴシック
 73
               1
 44
0.7828267384257843
  0
MTEXT
  5
14C
100
AcDbEntity
  8
template
390
0
 62
               7
100
AcDbMText
 10
282.00000000050022
 20
-1261.0000901712006
 30
0.0
 40
24.432617187500004
 41
0.0
 71
               1
 72
               1
  1
16.5kg
  7
ＭＳ ゴシック
 73
               1
 44
0.7828267384257843
  0
LINE
  5
14D
100
AcDbEntity
  8
template
370
               5
390
0
  6
Continuous
 62
               7
100
AcDbLine
 10
222.00000000050022
 20
-1394.0027073587005
 30
0.0
 11
222.00000000050022
 21
-1139.0027073587005
 31
0.0
  0
MTEXT
  5
14E
100
AcDbEntity
  8
template
390
0
 62
               7
100
AcDbMText
 10
-914.99999999975989
 20
-1261.0000901712006
 30
0.0
 40
24.432617187500004
 41
0.0
 71
               1
 72
               1
  1
壁掛け,カウンタ ー置き/オーバーフロー付き/壁取付ボルト付属/\P陶器/ホワイト
  7
ＭＳ ゴシック
 73
               1
 44
1.3047112307096407
  0
MTEXT
  5
14F
100
AcDbEntity
  8
notes
390
0
 62
               7
100
AcDbMText
 10
-795.75391403134745
 20
238.86001994423918
 30
0.0
 40
24.432617187500004
 41
828.40732047546157
 71
               1
 72
               1
  1
＝φ30もしくはφ35の水栓取付用穴あけ加工を承ります。\P   必要な場合、ご注文の際にご指示ください。
  7
ＭＳゴシック
 73
               1
 44
1.0437689845677123
  0
MTEXT
  5
150
100
AcDbEntity
  8
notes
390
0
 62
               7
100
AcDbMText
 10
-246.95521107334207
 20
-271.0347656049023
 30
0.0
 40
24.432617187500004
 41
0.0
 71
               1
 72
               1
  1
壁取付ボルト穴(2ヶ所)
  7
ＭＳ ゴシック
 73
               1
 44
0.7828267384257843
  0
LINE
  5
151
100
AcDbEntity
  8
notes
370
               5
390
0
  6
Continuous
 62
               7
100
AcDbLine
 10
-375.47299228437896
 20
-399.78650875226572
 30
0.0
 11
-215.23217519697209
 21
-314.34700071071552
 31
0.0
  0
CIRCLE
  5
152
100
AcDbEntity
  8
notes
370
              15
390
0
  6
STYLE_12
 62
               7
100
AcDbCircle
 10
-815.83419967055852
 20
224.52928406848127
 30
0.0
 40
17.500000000000494
  0
DIMENSION
  5
153
100
AcDbEntity
  8
notes
370
               5
390
0
  6
Continuous
 62
               7
100
AcDbDimension
  2
*D3
 10
-670.47299228437805
 20
956.1291401667113
 30
0.0
 11
-445.44914945823621
 21
956.1291401667113
 31
0.0
 71
               5
 72
               1
 41
1.0
 42
0.0
  3
tform線あり
100
AcDbAlignedDimension
 13
-220.42530663209436
 23
850.1291401667113
 33
0.0
 14
-670.47299228437805
 24
850.1291401667113
 34
0.0
100
AcDbRotatedDimension
1001
ACAD
1000
DSTYLE
1002
{
1070
             279
1070
               2
1070
             340
1005
36
1070
             147
1040
5.0
1002
}
  0
DIMENSION
  5
154
100
AcDbEntity
  8
notes
370
               5
390
0
  6
Continuous
 62
               7
100
AcDbDimension
  2
*D4
 10
-515.47299228437896
 20
-241.00927491066341
 30
0.0
 11
-445.47299228437896
 21
-241.00927491066341
 31
0.0
 71
               5
 72
               1
 41
1.0
 42
0.0
  3
tform線あり
100
AcDbAlignedDimension
 13
-375.47299228437896
 23
-379.78650875226572
 33
0.0
 14
-515.47299228437896
 24
-379.77289183146445
 34
0.0
100
AcDbRotatedDimension
1001
ACAD
1000
DSTYLE
1002
{
1070
             279
1070
               2
1070
             340
1005
36
1070
             147
1040
5.0
1002
}
  0
DIMENSION
  5
155
100
AcDbEntity
  8
notes
370
               5
390
0
  6
Continuous
 62
               7
100
AcDbDimension
  2
*D5
 10
-765.47299228437805
 20
-399.79305771683835
 30
0.0
 11
-770.47299228437805
 21
-379.79305771683744
 31
0.0
 70
             128
 71
               5
 72
               1
 41
1.0
 42
0.0
  3
tform線あり
100
AcDbAlignedDimension
 13
-660.87530662988047
 23
-359.79305771683653
 33
0.0
 14
-565.42530663209436
 24
-399.79305771683835
 34
0.0
 50
90.0
100
AcDbRotatedDimension
1001
ACAD
1000
DSTYLE
1002
{
1070
             279
1070
               2
1070
             340
1005
36
1070
             147
1040
5.0
1002
}
  0
DIMENSION
  5
156
100
AcDbEntity
  8
notes
370
               5
390
0
  6
Continuous
 62
               7
100
AcDbDimension
  2
*D6
 10
-125.47299228437896
 20
856.1291401667113
 30
0.0
 11
-125.47299228437896
 21
581.12914016671266
 31
0.0
 71
               5
 72
               1
 41
1.0
 42
0.0
  3
tform線あり
100
AcDbAlignedDimension
 13
-395.47299228437896
 23
306.1291401667138
 33
0.0
 14
-231.47299228437896
 24
856.1291401667113
 34
0.0
 50
90.0
100
AcDbRotatedDimension
1001
ACAD
1000
DSTYLE
1002
{
1070
             279
1070
               2
1070
             340
1005
36
1070
             147
1040
5.0
1002
}
  0
DIMENSION
  5
157
100
AcDbEntity
  8
notes
370
               5
390
0
  6
Continuous
 62
               7
100
AcDbDimension
  2
*D7
 10
-125.47299228437896
 20
-359.79305771683562
 30
0.0
 11
-125.47299228437896
 21
-459.79305771683426
 31
0.0
 71
               5
 72
               1
 41
1.0
 42
0.0
  3
tform線あり
100
AcDbAlignedDimension
 13
-417.27892938841887
 23
-559.793057716833
 33
0.0
 14
-230.47299228659176
 24
-359.79305771683562
 34
0.0
 50
90.0
100
AcDbRotatedDimension
1001
ACAD
1000
DSTYLE
1002
{
1070
             279
1070
               2
1070
             340
1005
36
1070
             147
1040
5.0
1002
}
  0
DIMENSION
  5
158
100
AcDbEntity
  8
notes
370
               5
390
0
  6
Continuous
 62
               7
100
AcDbDimension
  2
*D8
 10
812.90679287140574
 20
-639.98650875226576
 30
0.0
 11
650.40679287140574
 21
-639.98650875226576
 31
0.0
 71
               5
 72
               1
 41
1.0
 42
0.0
  3
tform線あり
100
AcDbAlignedDimension
 13
487.90679287140574
 23
-559.79305771683664
 33
0.0
 14
812.90679287140574
 24
-535.79305771683767
 34
0.0
100
AcDbRotatedDimension
1001
ACAD
1000
DSTYLE
1002
{
1070
             279
1070
               2
1070
             340
1005
36
1070
             147
1040
5.0
1002
}
  0
DIMENSION
  5
159
100
AcDbEntity
  8
notes
370
               5
390
0
  6
Continuous
 62
               7
100
AcDbDimension
  2
*D9
 10
812.90679287140483
 20
-259.79305771683835
 30
0.0
 11
777.90650192718385
 21
-259.79305771683835
 31
0.0
 71
               5
 72
               1
 41
1.0
 42
0.0
  3
tform線あり
100
AcDbAlignedDimension
 13
742.90621098296378
 23
-359.79305771683789
 33
0.0
 14
812.90679287140483
 24
-364.79305771683744
 34
0.0
100
AcDbRotatedDimension
1001
ACAD
1000
DSTYLE
1002
{
1070
             279
1070
               2
1070
             340
1005
36
1070
             147
1040
5.0
1002
}
  0
DIMENSION
  5
15A
100
AcDbEntity
  8
notes
370
               5
390
0
  6
Continuous
 62
               7
100
AcDbDimension
  2
*D10
 10
482.99326396059041
 20
-359.79305771684017
 30
0.0
 11
482.99326396059041
 21
-344.35730629444924
 31
0.0
 70
             128
 71
               5
 72
               1
 41
1.0
 42
0.0
  3
tform線あり
100
AcDbAlignedDimension
 13
482.99326396059041
 23
-509.79305771684039
 33
0.0
 14
482.99326396059041
 24
-359.79305771684017
 34
0.0
 50
90.0
100
AcDbRotatedDimension
1001
ACAD
1000
DSTYLE
1002
{
1070
             279
1070
               2
1070
             340
1005
36
1070
               3
1000
<>(深さ)
1070
             174
1070
               0
1070
             147
1040
5.0
1002
}
  0
DIMENSION
  5
15B
100
AcDbEntity
  8
notes
370
               5
390
0
  6
Continuous
 62
               7
100
AcDbDimension
  2
*D11
 10
162.90679287140392
 20
-359.79305771684017
 30
0.0
 11
162.90679287140392
 21
-449.79305771684085
 31
0.0
 71
               5
 72
               1
 41
1.0
 42
0.0
  3
tform線あり
100
AcDbAlignedDimension
 13
340.66339450225769
 23
-539.7930577168413
 33
0.0
 14
267.99326396280321
 24
-359.79305771684017
 34
0.0
 50
90.0
100
AcDbRotatedDimension
1001
ACAD
1000
DSTYLE
1002
{
1070
             279
1070
               2
1070
             340
1005
36
1070
             147
1040
5.0
1002
}
  0
DIMENSION
  5
15C
100
AcDbEntity
  8
notes
370
               5
390
0
  6
Continuous
 62
               7
100
AcDbDimension
  2
*D12
 10
162.90679287140392
 20
-539.7930577168413
 30
0.0
 11
157.90679287140392
 21
-565.66805771683892
 31
0.0
 70
             128
 71
               5
 72
               1
 41
1.0
 42
0.0
  3
tform線あり
100
AcDbAlignedDimension
 13
454.79920106463032
 23
-559.79305771683664
 33
0.0
 14
340.66339450225769
 24
-539.7930577168413
 34
0.0
 50
90.0
100
AcDbRotatedDimension
1001
ACAD
1000
DSTYLE
1002
{
1070
             279
1070
               2
1070
             340
1005
36
1070
             174
1070
               0
1070
             147
1040
5.0
1002
}
  0
DIMENSION
  5
15D
100
AcDbEntity
  8
notes
370
               5
390
0
  6
Continuous
 62
               7
100
AcDbDimension
  2
*D13
 10
-765.47299228437896
 20
856.1291401667113
 30
0.0
 11
-770.47299228437896
 21
791.11388118930154
 31
0.0
 70
             128
 71
               5
 72
               1
 41
1.0
 42
0.0
  3
tform線あり
100
AcDbAlignedDimension
 13
-664.47299228437805
 23
726.09862221189223
 33
0.0
 14
-664.47299228437805
 24
856.1291401667113
 34
0.0
 50
90.0
100
AcDbRotatedDimension
1001
ACAD
1000
DSTYLE
1002
{
1070
             279
1070
               2
1070
             340
1005
36
1070
             147
1040
5.0
1002
}
  0
DIMENSION
  5
15E
100
AcDbEntity
  8
notes
370
               5
390
0
  6
Continuous
 62
               7
100
AcDbDimension
  2
*D14
 10
-765.47299228437896
 20
726.09862221189223
 30
0.0
 11
-770.47299228437896
 21
526.0986222118936
 31
0.0
 70
             128
 71
               5
 72
               1
 41
1.0
 42
0.0
  3
tform線あり
100
AcDbAlignedDimension
 13
-557.72271388759691
 23
336.09862221189474
 33
0.0
 14
-670.47299228437896
 24
726.09862221189223
 34
0.0
 50
90.0
100
AcDbRotatedDimension
1001
ACAD
1000
DSTYLE
1002
{
1070
             279
1070
               2
1070
             340
1005
36
1070
             147
1040
5.0
1002
}
  0
DIMENSION
  5
15F
100
AcDbEntity
  8
notes
370
               5
390
0
  6
Continuous
 62
               7
100
AcDbDimension
  2
*D15
 10
-587.97299228437896
 20
-639.79305771683767
 30
0.0
 11
-445.47299228437896
 21
-639.79305771683767
 31
0.0
 71
               5
 72
               1
 41
1.0
 42
0.0
  3
tform線あり
100
AcDbAlignedDimension
 13
-302.97299228437896
 23
-539.79305771683767
 33
0.0
 14
-587.97299228437896
 24
-539.79305771683767
 34
0.0
100
AcDbRotatedDimension
1001
ACAD
1000
DSTYLE
1002
{
1070
             279
1070
               2
1070
             340
1005
36
1070
             147
1040
5.0
1002
}
  0
DIMENSION
  5
160
100
AcDbEntity
  8
notes
370
               5
390
0
  6
Continuous
 62
               7
100
AcDbDimension
  2
*D16
 10
812.90679287140483
 20
-689.98650875226576
 30
0.0
 11
577.90679287140483
 21
-689.98650875226576
 31
0.0
 71
               5
 72
               1
 41
1.0
 42
0.0
  3
tform線あり
100
AcDbAlignedDimension
 13
342.90679287140483
 23
-535.79305771683767
 33
0.0
 14
812.90679287140483
 24
-535.79305771683767
 34
0.0
100
AcDbRotatedDimension
1001
ACAD
1000
DSTYLE
1002
{
1070
             279
1070
               2
1070
             340
1005
36
1070
             147
1040
5.0
1002
}
  0
MTEXT
  5
161
100
AcDbEntity
  8
notes
390
0
 62
               7
100
AcDbMText
 10
348.04273734345588
 20
1067.1276171875002
 30
0.0
 40
24.432617187500004
 41
0.0
 71
               1
 72
               1
  1
カウンター切込寸法
  7
ＭＳゴシック
 73
               1
 44
0.7828267384257843
  0
INSERT
  5
162
100
AcDbEntity
  8
notes
390
0
 62
               7
100
AcDbBlockReference
  2
グループ-1
 10
5242.1034944278399
 20
-1567.832678169083
 30
0.0
  0
DIMENSION
  5
163
100
AcDbEntity
  8
notes
370
               5
390
0
  6
Continuous
 62
               7
100
AcDbDimension
  2
*D18
 10
808.55294890364348
 20
855.77421331210917
 30
0.0
 11
813.55294890364348
 21
665.77421331210917
 31
0.0
 70
             128
 71
               5
 72
               1
 41
1.0
 42
0.0
  3
tform線あり
100
AcDbAlignedDimension
 13
623.55294890364348
 23
475.77421331210962
 33
0.0
 14
623.55294890364348
 24
855.77421331210917
 34
0.0
 50
90.0
100
AcDbRotatedDimension
1001
ACAD
1000
DSTYLE
1002
{
1070
             279
1070
               2
1070
             340
1005
36
1070
             147
1040
5.0
1002
}
  0
DIMENSION
  5
164
100
AcDbEntity
  8
notes
370
               5
390
0
  6
Continuous
 62
               7
100
AcDbDimension
  2
*D19
 10
413.55294890364348
 20
375.77421331210962
 30
0.0
 11
518.55294890364348
 21
375.77421331210962
 31
0.0
 71
               5
 72
               1
 41
1.0
 42
0.0
  3
tform線あり
100
AcDbAlignedDimension
 13
623.55294890364348
 23
475.77421331210962
 33
0.0
 14
413.55294890364348
 24
475.77421331210962
 34
0.0
100
AcDbRotatedDimension
1001
ACAD
1000
DSTYLE
1002
{
1070
             279
1070
               2
1070
             340
1005
36
1070
             147
1040
5.0
1002
}
  0
LINE
  5
165
100
AcDbEntity
  8
ADF70-1103
370
              15
390
0
  6
Continuous
 62
               7
100
AcDbLine
 10
812.90679287140483
 20
-364.79305771683744
 30
0.0
 11
812.90679287140665
 21
-453.73692468033119
 31
0.0
  0
ARC
  5
166
100
AcDbEntity
  8
ADF70-1103
370
              15
390
0
  6
Continuous
 62
               7
100
AcDbCircle
 10
512.94223824112123
 20
-359.79305771684017
 30
0.0
 40
249.99999999999912
100
AcDbArc
 50
181.16938280562681
 51
225.77441236628079
  0
ARC
  5
167
100
AcDbEntity
  8
ADF70-1103
370
              15
390
0
  6
STYLE_12
 62
               7
100
AcDbCircle
 10
450.18265271174187
 20
-357.50884244513804
 30
0.0
 40
152.27055053925983
100
AcDbArc
 50
182.65944870096087
 51
269.15967011626373
  0
ARC
  5
168
100
AcDbEntity
  8
ADF70-1103
370
              15
390
0
  6
Continuous
 62
               7
100
AcDbCircle
 10
522.59493938331798
 20
-355.98334625273606
 30
0.0
 40
189.59646210456427
100
AcDbArc
 50
273.93512624086708
 51
284.19223323907534
  0
LINE
  5
169
100
AcDbEntity
  8
ADF70-1103
370
              15
390
0
  6
STYLE_12
 62
               7
100
AcDbLine
 10
510.49326396059041
 20
-521.79305771683767
 30
0.0
 11
465.49326396059041
 21
-521.79305771683767
 31
0.0
  0
LINE
  5
16A
100
AcDbEntity
  8
ADF70-1103
370
              15
390
0
  6
STYLE_12
 62
               7
100
AcDbLine
 10
447.94945320307943
 20
-509.76301605454637
 30
0.0
 11
527.99326396059041
 21
-509.79305771683767
 31
0.0
  0
LINE
  5
16B
100
AcDbEntity
  8
ADF70-1103
370
              15
390
0
  6
Continuous
 62
               7
100
AcDbLine
 10
510.49326396059041
 20
-559.79305771683664
 30
0.0
 11
465.49326396059041
 21
-559.79305771683664
 31
0.0
  0
LINE
  5
16C
100
AcDbEntity
  8
ADF70-1103
370
              15
390
0
  6
Continuous
 62
               7
100
AcDbLine
 10
812.90679287140483
 20
-453.73692468033209
 30
0.0
 11
812.90679287140574
 21
-535.79305771683767
 31
0.0
  0
ARC
  5
16D
100
AcDbEntity
  8
ADF70-1103
370
              15
390
0
  6
Continuous
 62
               7
100
AcDbCircle
 10
808.90679287140483
 20
-535.79305771683767
 30
0.0
 40
4.0
100
AcDbArc
 50
270.0
 51
0.0
  0
LINE
  5
16E
100
AcDbEntity
  8
ADF70-1103
370
              15
390
0
  6
STYLE_12
 62
               7
100
AcDbLine
 10
527.99326396059041
 20
-509.79305771683767
 30
0.0
 11
510.49326396059041
 21
-521.79305771683767
 31
0.0
  0
LINE
  5
16F
100
AcDbEntity
  8
ADF70-1103
370
              15
390
0
  6
Continuous
 62
               7
100
AcDbLine
 10
516.1873268565505
 20
-559.79305771683664
 30
0.0
 11
510.49326396059041
 21
-559.79305771683664
 31
0.0
  0
ARC
  5
170
100
AcDbEntity
  8
ADF70-1103
370
              15
390
0
  6
Continuous
 62
               7
100
AcDbCircle
 10
516.18732685655232
 20
-554.79305771683482
 30
0.0
 40
5.0000000000011369
100
AcDbArc
 50
270.0
 51
351.46923439007145
  0
LINE
  5
171
100
AcDbEntity
  8
ADF70-1103
370
              15
390
0
  6
Continuous
 62
               7
100
AcDbLine
 10
522.2275414368105
 20
-547.46869388213088
 30
0.0
 11
521.13200862089434
 21
-555.53475998148531
 31
0.0
  0
ARC
  5
172
100
AcDbEntity
  8
ADF70-1103
370
              15
390
0
  6
Continuous
 62
               7
100
AcDbCircle
 10
524.20541414254694
 20
-547.76537478799253
 30
0.0
 40
2.0000000000009259
100
AcDbArc
 50
99.544009566367421
 51
171.46923439001839
  0
LINE
  5
173
100
AcDbEntity
  8
ADF70-1103
370
              15
390
0
  6
Continuous
 62
               7
100
AcDbLine
 10
524.15543006730513
 20
-545.79182939368764
 30
0.0
 11
523.87380387306439
 21
-545.79305771683573
 31
0.0
  0
ARC
  5
174
100
AcDbEntity
  8
ADF70-1103
370
              15
390
0
  6
Continuous
 62
               7
100
AcDbCircle
 10
523.68438852042345
 20
-437.79285662143889
 30
0.0
 40
107.99999999999913
100
AcDbArc
 50
270.2498960942707
 51
276.33771957368356
  0
LINE
  5
175
100
AcDbEntity
  8
ADF70-1103
370
              15
390
0
  6
STYLE_12
 62
               7
100
AcDbLine
 10
510.49326396059041
 20
-559.79305771683664
 30
0.0
 11
510.49326396059041
 21
-521.79305771683767
 31
0.0
  0
ARC
  5
176
100
AcDbEntity
  8
ADF70-1103
370
              15
390
0
  6
Continuous
 62
               7
100
AcDbCircle
 10
340.66339450225769
 20
-536.7930577168413
 30
0.0
 40
2.999999999999762
100
AcDbArc
 50
225.77441236627843
 51
270.0
  0
LINE
  5
177
100
AcDbEntity
  8
ADF70-1103
370
              15
390
0
  6
Continuous
 62
               7
100
AcDbLine
 10
808.90679287140483
 20
-539.79305771683767
 30
0.0
 11
340.66339450225769
 21
-539.7930577168413
 31
0.0
  0
LINE
  5
178
100
AcDbEntity
  8
ADF70-1103
370
              15
390
0
  6
Continuous
 62
               7
100
AcDbLine
 10
454.8545193002883
 20
-555.53475998148895
 30
0.0
 11
454.8545192839365
 21
-555.53475992687106
 31
0.0
  0
ARC
  5
179
100
AcDbEntity
  8
ADF70-1103
370
              15
390
0
  6
Continuous
 62
               7
100
AcDbCircle
 10
459.79920106463032
 20
-554.79305771683664
 30
0.0
 40
4.9999999999991598
100
AcDbArc
 50
188.53076560998315
 51
270.0
  0
LINE
  5
17A
100
AcDbEntity
  8
ADF70-1103
370
              15
390
0
  6
Continuous
 62
               7
100
AcDbLine
 10
454.8545193002883
 20
-555.53475998148895
 30
0.0
 11
452.49326396058859
 21
-539.7930577168413
 31
0.0
  0
LINE
  5
17B
100
AcDbEntity
  8
ADF70-1103
370
              15
390
0
  6
STYLE_12
 62
               7
100
AcDbLine
 10
465.49326396059041
 20
-521.79305771683767
 30
0.0
 11
465.49326396059041
 21
-559.79305771683664
 31
0.0
  0
LINE
  5
17C
100
AcDbEntity
  8
ADF70-1103
370
              15
390
0
  6
Continuous
 62
               7
100
AcDbLine
 10
465.49326396059041
 20
-559.79305771683664
 30
0.0
 11
459.79920106463032
 21
-559.79305771683664
 31
0.0
  0
LINE
  5
17D
100
AcDbEntity
  8
ADF70-1103
370
              15
390
0
  6
STYLE_12
 62
               7
100
AcDbLine
 10
447.94945320307943
 20
-509.76301605454637
 30
0.0
 11
465.49326396059041
 21
-521.79305771683767
 31
0.0
  0
CIRCLE
  5
17E
100
AcDbEntity
  8
ADF70-1103
370
              15
390
0
  6
Continuous
 62
               7
100
AcDbCircle
 10
-445.47299228437896
 20
531.09862221189314
 30
0.0
 40
22.499999999999826
  0
CIRCLE
  5
17F
100
AcDbEntity
  8
ADF70-1103
370
              15
390
0
  6
Continuous
 62
               7
100
AcDbCircle
 10
-445.47299228437896
 20
531.09862221189314
 30
0.0
 40
37.500000000000064
  0
LINE
  5
180
100
AcDbEntity
  8
ADF70-1103
370
              15
390
0
  6
Continuous
 62
               7
100
AcDbLine
 10
-220.42530663209436
 20
850.1291401667113
 30
0.0
 11
-220.42530663209436
 21
526.09862221189314
 31
0.0
  0
LINE
  5
181
100
AcDbEntity
  8
ADF70-1103
370
              15
390
0
  6
Continuous
 62
               7
100
AcDbLine
 10
677.90562909452092
 20
-359.79305771683835
 30
0.0
 11
288.08089882665809
 21
-359.79305771684199
 31
0.0
  0
LINE
  5
182
100
AcDbEntity
  8
ADF70-1103
370
              15
390
0
  6
Continuous
 62
               7
100
AcDbLine
 10
-670.47299228437896
 20
526.09862221189314
 30
0.0
 11
-670.47299228437805
 21
850.1291401667113
 31
0.0
  0
CIRCLE
  5
183
100
AcDbEntity
  8
ADF70-1103
370
              15
390
0
  6
Continuous
 62
               7
100
AcDbCircle
 10
-445.47299228437896
 20
536.09862221189269
 30
0.0
 40
194.9999999999998
  0
LINE
  5
184
100
AcDbEntity
  8
ADF70-1103
370
              15
390
0
  6
Continuous
 62
               7
100
AcDbLine
 10
-226.42530663209436
 20
856.1291401667113
 30
0.0
 11
-664.47299228437805
 21
856.1291401667113
 31
0.0
  0
LINE
  5
185
100
AcDbEntity
  8
ADF70-1103
370
              15
390
0
  6
Continuous
 62
               7
100
AcDbLine
 10
677.90562909452092
 20
-359.79305771683835
 30
0.0
 11
807.90679287140665
 21
-359.79305771683744
 31
0.0
  0
LINE
  5
186
100
AcDbEntity
  8
ADF70-1103
370
              15
390
0
  6
Continuous
 62
               7
100
AcDbLine
 10
760.43112035178183
 20
-359.79305771683835
 30
0.0
 11
760.43112035178183
 21
-374.79305771683835
 31
0.0
  0
ARC
  5
187
100
AcDbEntity
  8
ADF70-1103
370
              15
390
0
  6
Continuous
 62
               7
100
AcDbCircle
 10
807.90679287140574
 20
-364.79305771683653
 30
0.0
 40
4.9999999999990905
100
AcDbArc
 50
0.0
 51
90.0
  0
ARC
  5
188
100
AcDbEntity
  8
ADF70-1103
370
              15
390
0
  6
STYLE_12
 62
               7
100
AcDbCircle
 10
682.90562909452092
 20
-364.79305771683835
 30
0.0
 40
5.0
100
AcDbArc
 50
90.0
 51
177.49030380931069
  0
LINE
  5
189
100
AcDbEntity
  8
ADF70-1103
370
              15
390
0
  6
Continuous
 62
               7
100
AcDbLine
 10
725.38246539102784
 20
-374.79305771683835
 30
0.0
 11
725.38246539102784
 21
-359.79305771683835
 31
0.0
  0
ARC
  5
18A
100
AcDbEntity
  8
ADF70-1103
370
              15
390
0
  6
Continuous
 62
               7
100
AcDbCircle
 10
-664.47299228437805
 20
850.1291401667113
 30
0.0
 40
6.0
100
AcDbArc
 50
90.0
 51
180.0
  0
CIRCLE
  5
18B
100
AcDbEntity
  8
ADF70-1103
370
              15
390
0
  6
STYLE_12
 62
               7
100
AcDbCircle
 10
-445.47299228437896
 20
786.09862221189223
 30
0.0
 40
17.499999999999705
  0
ARC
  5
18C
100
AcDbEntity
  8
ADF70-1103
370
              15
390
0
  6
Continuous
 62
               7
100
AcDbCircle
 10
-226.42530663209436
 20
850.1291401667113
 30
0.0
 40
6.0
100
AcDbArc
 50
0.0
 51
90.0
  0
ARC
  5
18D
100
AcDbEntity
  8
ADF70-1103
370
              15
390
0
  6
Continuous
 62
               7
100
AcDbCircle
 10
-445.47299228437896
 20
531.09862221189269
 30
0.0
 40
225.0
100
AcDbArc
 50
180.0
 51
0.0
  0
LINE
  5
18E
100
AcDbEntity
  8
ADF70-1103
370
              15
390
0
  6
Continuous
 62
               7
100
AcDbLine
 10
267.99326396280321
 20
-359.79305771683926
 30
0.0
 11
288.08089882665809
 21
-359.79305771684199
 31
0.0
  0
ARC
  5
18F
100
AcDbEntity
  8
ADF70-1103
370
              15
390
0
  6
Continuous
 62
               7
100
AcDbCircle
 10
267.99326396280321
 20
-364.79305771684017
 30
0.0
 40
5.0
100
AcDbArc
 50
90.0
 51
181.1693828056269
  0
ARC
  5
190
100
AcDbEntity
  8
ADF70-1103
370
              15
390
0
  6
STYLE_12
 62
               7
100
AcDbCircle
 10
293.08089882665809
 20
-364.79305771684199
 30
0.0
 40
5.0000000000004983
100
AcDbArc
 50
2.50969619068887
 51
90.0
  0
ARC
  5
191
100
AcDbEntity
  8
ADF70-1103
370
              15
390
0
  6
STYLE_12
 62
               7
100
AcDbCircle
 10
525.75119793258455
 20
-357.48529395693572
 30
0.0
 40
152.32426517668441
100
AcDbArc
 50
270.84336897738484
 51
357.33262259767832
  0
ARC
  5
192
100
AcDbEntity
  8
ADF70-1103
370
              15
390
0
  6
Continuous
 62
               7
100
AcDbCircle
 10
-475.42196656490978
 20
-359.79305771683653
 30
0.0
 40
249.99999999999974
100
AcDbArc
 50
314.22558763371921
 51
358.83061719437325
  0
ARC
  5
193
100
AcDbEntity
  8
ADF70-1103
370
              15
390
0
  6
STYLE_12
 62
               7
100
AcDbCircle
 10
-407.66238103553042
 20
-357.50884244513441
 30
0.0
 40
152.27055053926003
100
AcDbArc
 50
270.84032988373633
 51
357.34055129903908
  0
LINE
  5
194
100
AcDbEntity
  8
ADF70-1103
370
              15
390
0
  6
STYLE_12
 62
               7
100
AcDbLine
 10
-445.47299228437805
 20
-521.79305771683403
 30
0.0
 11
-422.97299228437805
 21
-521.79305771683403
 31
0.0
  0
LINE
  5
195
100
AcDbEntity
  8
ADF70-1103
370
              15
390
0
  6
STYLE_12
 62
               7
100
AcDbLine
 10
-405.42918152686798
 20
-509.76301605454273
 30
0.0
 11
-445.45108690562301
 21
-509.77803688568838
 31
0.0
  0
LINE
  5
196
100
AcDbEntity
  8
ADF70-1103
370
              15
390
0
  6
Continuous
 62
               7
100
AcDbLine
 10
-445.47299228437896
 20
-559.793057716833
 30
0.0
 11
-422.97299228437896
 21
-559.793057716833
 31
0.0
  0
ARC
  5
197
100
AcDbEntity
  8
ADF70-1103
370
              15
390
0
  6
Continuous
 62
               7
100
AcDbCircle
 10
-303.14312282604624
 20
-536.79305771683767
 30
0.0
 40
3.0
100
AcDbArc
 50
270.0
 51
314.2255876337216
  0
LINE
  5
198
100
AcDbEntity
  8
ADF70-1103
370
              15
390
0
  6
Continuous
 62
               7
100
AcDbLine
 10
-481.37530663209509
 20
-539.79305771683767
 30
0.0
 11
-329.53321280764885
 21
-539.79305771683767
 31
0.0
  0
LINE
  5
199
100
AcDbEntity
  8
ADF70-1103
370
              15
390
0
  6
STYLE_12
 62
               7
100
AcDbLine
 10
-402.82456737020129
 20
-517.18721076876272
 30
0.0
 11
-402.8245673537549
 21
-517.18721071376103
 31
0.0
  0
LINE
  5
19A
100
AcDbEntity
  8
ADF70-1103
370
              15
390
0
  6
Continuous
 62
               7
100
AcDbLine
 10
-412.33424762407685
 20
-555.53475998148531
 30
0.0
 11
-412.33424760772505
 21
-555.53475992686742
 31
0.0
  0
ARC
  5
19B
100
AcDbEntity
  8
ADF70-1103
370
              15
390
0
  6
Continuous
 62
               7
100
AcDbCircle
 10
-417.27892938841887
 20
-554.793057716833
 30
0.0
 40
5.0
100
AcDbArc
 50
270.0
 51
351.46923439001847
  0
LINE
  5
19C
100
AcDbEntity
  8
ADF70-1103
370
              15
390
0
  6
Continuous
 62
               7
100
AcDbLine
 10
-412.33424762407685
 20
-555.53475998148531
 30
0.0
 11
-409.97299228437987
 21
-539.79305771683767
 31
0.0
  0
LINE
  5
19D
100
AcDbEntity
  8
ADF70-1103
370
              15
390
0
  6
STYLE_12
 62
               7
100
AcDbLine
 10
-422.97299228437805
 20
-521.79305771683403
 30
0.0
 11
-422.97299228437896
 21
-559.793057716833
 31
0.0
  0
LINE
  5
19E
100
AcDbEntity
  8
ADF70-1103
370
              15
390
0
  6
Continuous
 62
               7
100
AcDbLine
 10
-422.97299228437896
 20
-559.793057716833
 30
0.0
 11
-417.27892938841887
 21
-559.793057716833
 31
0.0
  0
LINE
  5
19F
100
AcDbEntity
  8
ADF70-1103
370
              15
390
0
  6
STYLE_12
 62
               7
100
AcDbLine
 10
-405.42918152686798
 20
-509.76301605454273
 30
0.0
 11
-422.97299228437805
 21
-521.79305771683403
 31
0.0
  0
LINE
  5
1A0
100
AcDbEntity
  8
ADF70-1103
370
              15
390
0
  6
Continuous
 62
               7
100
AcDbLine
 10
-308.40731969444369
 20
-539.79305771683767
 30
0.0
 11
-303.14312282604624
 21
-539.79305771683767
 31
0.0
  0
LINE
  5
1A1
100
AcDbEntity
  8
ADF70-1103
370
              15
390
0
  6
Continuous
 62
               7
100
AcDbLine
 10
-308.40731969444187
 20
-539.79305771683767
 30
0.0
 11
-308.40731967705051
 21
-539.79305766206153
 31
0.0
  0
LINE
  5
1A2
100
AcDbEntity
  8
ADF70-1103
370
              15
390
0
  6
Continuous
 62
               7
100
AcDbLine
 10
-310.90731969444187
 20
-537.29305771683767
 30
0.0
 11
-310.90731967707598
 21
-537.29305766203697
 31
0.0
  0
LINE
  5
1A3
100
AcDbEntity
  8
ADF70-1103
370
              15
390
0
  6
Continuous
 62
               7
100
AcDbLine
 10
-329.53321280764885
 20
-539.79305771683767
 30
0.0
 11
-324.40731969444369
 21
-539.79305771683767
 31
0.0
  0
LINE
  5
1A4
100
AcDbEntity
  8
ADF70-1103
370
              15
390
0
  6
Continuous
 62
               7
100
AcDbLine
 10
-308.40731969444369
 20
-539.79305771683767
 30
0.0
 11
-324.40731969444369
 21
-539.79305771683767
 31
0.0
  0
LINE
  5
1A5
100
AcDbEntity
  8
ADF70-1103
370
              15
390
0
  6
Continuous
 62
               7
100
AcDbLine
 10
-230.47299228659176
 20
-359.79305771683562
 30
0.0
 11
-250.56062715044663
 21
-359.79305771683835
 31
0.0
  0
ARC
  5
1A6
100
AcDbEntity
  8
ADF70-1103
370
              15
390
0
  6
Continuous
 62
               7
100
AcDbCircle
 10
-230.47299228659176
 20
-364.79305771683653
 30
0.0
 40
4.9999999999996181
100
AcDbArc
 50
358.83061719437308
 51
90.0
  0
ARC
  5
1A7
100
AcDbEntity
  8
ADF70-1103
370
              15
390
0
  6
STYLE_12
 62
               7
100
AcDbCircle
 10
-250.56062715044663
 20
-364.79305771683835
 30
0.0
 40
5.0
100
AcDbArc
 50
90.0
 51
177.49030380931111
  0
ARC
  5
1A8
100
AcDbEntity
  8
ADF70-1103
370
              15
390
0
  6
Continuous
 62
               7
100
AcDbCircle
 10
-415.92633235156245
 20
-359.79305771683653
 30
0.0
 40
250.00000000000003
100
AcDbArc
 50
181.16938280562681
 51
225.77441236628059
  0
ARC
  5
1A9
100
AcDbEntity
  8
ADF70-1103
370
              15
390
0
  6
STYLE_12
 62
               7
100
AcDbCircle
 10
-483.68591788094182
 20
-357.50884244513441
 30
0.0
 40
152.27055053926074
100
AcDbArc
 50
182.65944870096087
 51
269.15967011626373
  0
LINE
  5
1AA
100
AcDbEntity
  8
ADF70-1103
370
              15
390
0
  6
STYLE_12
 62
               7
100
AcDbLine
 10
-445.87530663209418
 20
-521.79305771683403
 30
0.0
 11
-468.37530663209418
 21
-521.79305771683403
 31
0.0
  0
LINE
  5
1AB
100
AcDbEntity
  8
ADF70-1103
370
              15
390
0
  6
STYLE_12
 62
               7
100
AcDbLine
 10
-485.91911738960425
 20
-509.76301605454273
 30
0.0
 11
-445.89721201084922
 21
-509.77803688568838
 31
0.0
  0
LINE
  5
1AC
100
AcDbEntity
  8
ADF70-1103
370
              15
390
0
  6
Continuous
 62
               7
100
AcDbLine
 10
-445.87530663209327
 20
-559.793057716833
 30
0.0
 11
-468.37530663209327
 21
-559.793057716833
 31
0.0
  0
ARC
  5
1AD
100
AcDbEntity
  8
ADF70-1103
370
              15
390
0
  6
Continuous
 62
               7
100
AcDbCircle
 10
-588.20517609042599
 20
-536.79305771683767
 30
0.0
 40
2.999999999999762
100
AcDbArc
 50
225.77441236627843
 51
270.0
  0
LINE
  5
1AE
100
AcDbEntity
  8
ADF70-1103
370
              15
390
0
  6
Continuous
 62
               7
100
AcDbLine
 10
-481.37530663209509
 20
-539.79305771683767
 30
0.0
 11
-561.81508610882338
 21
-539.79305771683767
 31
0.0
  0
LINE
  5
1AF
100
AcDbEntity
  8
ADF70-1103
370
              15
390
0
  6
STYLE_12
 62
               7
100
AcDbLine
 10
-488.52373154627094
 20
-517.18721076876272
 30
0.0
 11
-488.52373156271824
 21
-517.18721071376103
 31
0.0
  0
LINE
  5
1B0
100
AcDbEntity
  8
ADF70-1103
370
              15
390
0
  6
Continuous
 62
               7
100
AcDbLine
 10
-479.01405129239538
 20
-555.53475998148531
 30
0.0
 11
-479.01405130874809
 21
-555.53475992686742
 31
0.0
  0
ARC
  5
1B1
100
AcDbEntity
  8
ADF70-1103
370
              15
390
0
  6
Continuous
 62
               7
100
AcDbCircle
 10
-474.06936952805336
 20
-554.793057716833
 30
0.0
 40
5.0000000000000586
100
AcDbArc
 50
188.53076560998159
 51
270.0
  0
LINE
  5
1B2
100
AcDbEntity
  8
ADF70-1103
370
              15
390
0
  6
Continuous
 62
               7
100
AcDbLine
 10
-479.01405129239538
 20
-555.53475998148531
 30
0.0
 11
-481.37530663209327
 21
-539.79305771683767
 31
0.0
  0
LINE
  5
1B3
100
AcDbEntity
  8
ADF70-1103
370
              15
390
0
  6
STYLE_12
 62
               7
100
AcDbLine
 10
-468.37530663209418
 20
-521.79305771683403
 30
0.0
 11
-468.37530663209327
 21
-559.793057716833
 31
0.0
  0
LINE
  5
1B4
100
AcDbEntity
  8
ADF70-1103
370
              15
390
0
  6
Continuous
 62
               7
100
AcDbLine
 10
-468.37530663209327
 20
-559.793057716833
 30
0.0
 11
-474.06936952805336
 21
-559.793057716833
 31
0.0
  0
LINE
  5
1B5
100
AcDbEntity
  8
ADF70-1103
370
              15
390
0
  6
STYLE_12
 62
               7
100
AcDbLine
 10
-485.91911738960425
 20
-509.76301605454273
 30
0.0
 11
-468.37530663209418
 21
-521.79305771683403
 31
0.0
  0
LINE
  5
1B6
100
AcDbEntity
  8
ADF70-1103
370
              15
390
0
  6
Continuous
 62
               7
100
AcDbLine
 10
-582.94097922202855
 20
-539.79305771683767
 30
0.0
 11
-588.20517609042599
 21
-539.79305771683767
 31
0.0
  0
LINE
  5
1B7
100
AcDbEntity
  8
ADF70-1103
370
              15
390
0
  6
Continuous
 62
               7
100
AcDbLine
 10
-582.94097922203036
 20
-539.79305771683767
 30
0.0
 11
-582.94097923942172
 21
-539.79305766206153
 31
0.0
  0
LINE
  5
1B8
100
AcDbEntity
  8
ADF70-1103
370
              15
390
0
  6
Continuous
 62
               7
100
AcDbLine
 10
-580.44097922203036
 20
-537.29305771683767
 30
0.0
 11
-580.44097923939717
 21
-537.29305766203697
 31
0.0
  0
LINE
  5
1B9
100
AcDbEntity
  8
ADF70-1103
370
              15
390
0
  6
Continuous
 62
               7
100
AcDbLine
 10
-561.81508610882338
 20
-539.79305771683767
 30
0.0
 11
-566.94097922202855
 21
-539.79305771683767
 31
0.0
  0
LINE
  5
1BA
100
AcDbEntity
  8
ADF70-1103
370
              15
390
0
  6
Continuous
 62
               7
100
AcDbLine
 10
-582.94097922202855
 20
-539.79305771683767
 30
0.0
 11
-566.94097922202855
 21
-539.79305771683767
 31
0.0
  0
LINE
  5
1BB
100
AcDbEntity
  8
ADF70-1103
370
              15
390
0
  6
Continuous
 62
               7
100
AcDbLine
 10
-660.87530662988047
 20
-359.79305771683562
 30
0.0
 11
-640.7876717660256
 21
-359.79305771683835
 31
0.0
  0
ARC
  5
1BC
100
AcDbEntity
  8
ADF70-1103
370
              15
390
0
  6
Continuous
 62
               7
100
AcDbCircle
 10
-660.87530662988047
 20
-364.79305771683653
 30
0.0
 40
5.0
100
AcDbArc
 50
90.0
 51
181.1693828056267
  0
ARC
  5
1BD
100
AcDbEntity
  8
ADF70-1103
370
              15
390
0
  6
STYLE_12
 62
               7
100
AcDbCircle
 10
-640.7876717660256
 20
-364.79305771683835
 30
0.0
 40
4.9999999999995897
100
AcDbArc
 50
2.509696190689326
 51
90.0
  0
LINE
  5
1BE
100
AcDbEntity
  8
ADF70-1103
370
              15
390
0
  6
Continuous
 62
               7
100
AcDbLine
 10
-640.7876717660256
 20
-359.79305771683835
 30
0.0
 11
-250.56062707415276
 21
-359.79305771683835
 31
0.0
  0
LINE
  5
1BF
100
AcDbEntity
  8
ADF70-1103
370
              15
390
0
  6
STYLE_12
 62
               7
100
AcDbLine
 10
-515.47299228437896
 20
-419.77289183146445
 30
0.0
 11
-515.47299228437896
 21
-379.77289183146445
 31
0.0
  0
LINE
  5
1C0
100
AcDbEntity
  8
ADF70-1103
370
              15
390
0
  6
STYLE_12
 62
               7
100
AcDbLine
 10
-495.47299228437896
 20
-399.77289183146445
 30
0.0
 11
-535.47299228437896
 21
-399.77289183146445
 31
0.0
  0
CIRCLE
  5
1C1
100
AcDbEntity
  8
ADF70-1103
370
              15
390
0
  6
STYLE_12
 62
               7
100
AcDbCircle
 10
-515.47299228437896
 20
-399.77289183146445
 30
0.0
 40
10.0
  0
LINE
  5
1C2
100
AcDbEntity
  8
ADF70-1103
370
              15
390
0
  6
STYLE_12
 62
               7
100
AcDbLine
 10
-375.47299228437896
 20
-419.77289183146445
 30
0.0
 11
-375.47299228437896
 21
-379.77289183146445
 31
0.0
  0
LINE
  5
1C3
100
AcDbEntity
  8
ADF70-1103
370
              15
390
0
  6
STYLE_12
 62
               7
100
AcDbLine
 10
-355.47299228437896
 20
-399.77289183146445
 30
0.0
 11
-395.47299228437896
 21
-399.77289183146445
 31
0.0
  0
CIRCLE
  5
1C4
100
AcDbEntity
  8
ADF70-1103
370
              15
390
0
  6
STYLE_12
 62
               7
100
AcDbCircle
 10
-375.47299228437896
 20
-399.77289183146445
 30
0.0
 40
10.0
  0
LINE
  5
1C5
100
AcDbEntity
  8
ADF70-1103
370
              15
390
0
  6
STYLE_12
 62
               7
100
AcDbLine
 10
745.0
 20
850.1291401667113
 30
0.0
 11
745.0
 21
526.09862221189314
 31
0.0
  0
LINE
  5
1C6
100
AcDbEntity
  8
ADF70-1103
370
              15
390
0
  6
STYLE_12
 62
               7
100
AcDbLine
 10
294.9523143477154
 20
526.09862221189314
 30
0.0
 11
294.95231434771631
 21
850.1291401667113
 31
0.0
  0
LINE
  5
1C7
100
AcDbEntity
  8
ADF70-1103
370
              15
390
0
  6
STYLE_12
 62
               7
100
AcDbLine
 10
739.0
 20
856.1291401667113
 30
0.0
 11
300.95231434771631
 21
856.1291401667113
 31
0.0
  0
ARC
  5
1C8
100
AcDbEntity
  8
ADF70-1103
370
              15
390
0
  6
STYLE_12
 62
               7
100
AcDbCircle
 10
300.95231434771631
 20
850.1291401667113
 30
0.0
 40
6.0
100
AcDbArc
 50
90.0
 51
180.0
  0
CIRCLE
  5
1C9
100
AcDbEntity
  8
ADF70-1103
370
              15
390
0
  6
STYLE_12
 62
               7
100
AcDbCircle
 10
519.9523143477154
 20
786.09862221189223
 30
0.0
 40
17.499999999999705
  0
ARC
  5
1CA
100
AcDbEntity
  8
ADF70-1103
370
              15
390
0
  6
STYLE_12
 62
               7
100
AcDbCircle
 10
739.0
 20
850.1291401667113
 30
0.0
 40
6.0
100
AcDbArc
 50
0.0
 51
90.0
  0
ARC
  5
1CB
100
AcDbEntity
  8
ADF70-1103
370
              15
390
0
  6
STYLE_12
 62
               7
100
AcDbCircle
 10
519.9523143477154
 20
531.09862221189269
 30
0.0
 40
225.0
100
AcDbArc
 50
180.0
 51
0.0
  0
CIRCLE
  5
1CC
100
AcDbEntity
  8
ADF70-1103
370
              15
390
0
  6
STYLE_12
 62
               7
100
AcDbCircle
 10
520.46492510064127
 20
531.09862221189314
 30
0.0
 40
22.499999999999826
  0
LINE
  5
1CD
100
AcDbEntity
  8
ADF70-1103
370
               5
390
0
  6
Continuous
 62
               7
100
AcDbLine
 10
274.0
 20
856.1291401667113
 30
0.0
 11
780.0
 21
856.1291401667113
 31
0.0
  0
INSERT
  5
1CE
100
AcDbEntity
  8
ADF70-1103
390
0
 62
               7
100
AcDbBlockReference
  2
グループ-2
 10
5242.1034944278399
 20
-1567.832678169083
 30
0.0
  0
POLYLINE
  5
1CF
100
AcDbEntity
  8
ADF70-1103
370
               5
390
0
  6
Continuous
 62
               7
100
AcDb2dPolyline
 66
               1
 10
0.0
 20
0.0
 30
0.0
 70
               1
 75
               5
  0
VERTEX
  5
1D0
100
AcDbEntity
  8
ADF70-1103
370
               5
390
0
  6
Continuous
 62
               7
100
AcDbVertex
100
AcDb2dVertex
 10
413.55294890364348
 20
855.77421331210917
 30
0.0
  0
VERTEX
  5
1D1
100
AcDbEntity
  8
ADF70-1103
370
               5
390
0
  6
Continuous
 62
               7
100
AcDbVertex
100
AcDb2dVertex
 10
623.55294890364348
 20
855.77421331210917
 30
0.0
  0
VERTEX
  5
1D2
100
AcDbEntity
  8
ADF70-1103
370
               5
390
0
  6
Continuous
 62
               7
100
AcDbVertex
100
AcDb2dVertex
 10
623.55294890364348
 20
475.77421331210962
 30
0.0
  0
VERTEX
  5
1D3
100
AcDbEntity
  8
ADF70-1103
370
               5
390
0
  6
Continuous
 62
               7
100
AcDbVertex
100
AcDb2dVertex
 10
413.55294890364348
 20
475.77421331210962
 30
0.0
  0
SEQEND
  5
1D4
100
AcDbEntity
  8
ADF70-1103
370
               5
390
0
  6
Continuous
 62
               7
  0
ENDSEC
  0
SECTION
  2
OBJECTS
  0
DICTIONARY
  5
19
100
AcDbDictionary
280
               0
281
               1
  3
ACAD_GROUP
350
1A
  3
ACAD_MLINESTYLE
350
1B
  3
ACAD_LAYOUT
350
1E
  3
ACAD_PLOTSETTINGS
350
22
  3
ACAD_PLOTSTYLENAME
350
1F
  0
DICTIONARY
  5
1A
102
{ACAD_REACTORS
330
19
102
}
100
AcDbDictionary
280
               0
281
               1
  0
DICTIONARY
  5
1B
102
{ACAD_REACTORS
330
19
102
}
100
AcDbDictionary
280
               0
281
               1
  3
Standard
350
1C
  0
MLINESTYLE
  5
1C
102
{ACAD_REACTORS
330
1B
102
}
100
AcDbMlineStyle
  2
Standard
 70
               0
  3

 62
               0
 51
90.0
 52
90.0
 71
               2
 49
0.5
 62
             256
  6
ByLayer
 49
-0.5
 62
             256
  6
ByLayer
  0
ACDBDICTIONARYWDFLT
  5
1F
102
{ACAD_REACTORS
330
19
102
}
100
AcDbDictionary
281
               1
  3
Normal
350
1D
100
AcDbDictionaryWithDefault
340
1D
  0
ACDBPLACEHOLDER
  5
1D
102
{ACAD_REACTORS
330
1F
102
}
  0
LAYOUT
  5
20
102
{ACAD_REACTORS
330
1E
102
}
100
AcDbPlotSettings
  1

  2

  4

  6

 40
0.0
 41
0.0
 42
0.0
 43
0.0
 44
0.0
 45
0.0
 46
0.0
 47
0.0
 48
0.0
 49
0.0
140
0.0
141
0.0
142
1.0
143
1.0
 70
            1024
 72
               0
 73
               0
 74
               0
  7

 75
               0
147
1.0
148
0.0
149
0.0
100
AcDbLayout
  1
Model
 70
               0
 71
               0
 10
0.0
 20
0.0
 11
0.0
 21
0.0
 12
0.0
 22
0.0
 32
0.0
 14
0.0
 24
0.0
 34
0.0
 15
0.0
 25
0.0
 35
0.0
146
0.0
 13
0.0
 23
0.0
 33
0.0
 16
0.0
 26
0.0
 36
0.0
 17
0.0
 27
0.0
 37
0.0
 76
               0
330
A
331
0
345
0
346
0
  0
LAYOUT
  5
21
102
{ACAD_REACTORS
330
1E
102
}
100
AcDbPlotSettings
  1

  2

  4

  6

 40
0.0
 41
0.0
 42
0.0
 43
0.0
 44
0.0
 45
0.0
 46
0.0
 47
0.0
 48
0.0
 49
0.0
140
0.0
141
0.0
142
1.0
143
1.0
 70
               0
 72
               0
 73
               0
 74
               0
  7

 75
               0
147
1.0
148
0.0
149
0.0
100
AcDbLayout
  1
Layout1
 70
               0
 71
               0
 10
0.0
 20
0.0
 11
0.0
 21
0.0
 12
0.0
 22
0.0
 32
0.0
 14
0.0
 24
0.0
 34
0.0
 15
0.0
 25
0.0
 35
0.0
146
0.0
 13
0.0
 23
0.0
 33
0.0
 16
0.0
 26
0.0
 36
0.0
 17
0.0
 27
0.0
 37
0.0
 76
               0
330
B
331
0
345
0
346
0
  0
DICTIONARY
  5
1E
102
{ACAD_REACTORS
330
19
102
}
100
AcDbDictionary
280
               0
281
               1
  3
Layout1
350
21
  3
Model
350
20
  0
DICTIONARY
  5
22
102
{ACAD_REACTORS
330
19
102
}
100
AcDbDictionary
280
               0
281
               1
  0
ENDSEC
  0
EOF
