  0
SECTION
  2
HEADER
  9
$ACADVER
  1
AC1015
  9
$ACADMAINTVER
 70
               6
  9
$DWGCODEPAGE
  3
ANSI_932
  9
$INSBASE
 10
0.0
 20
0.0
 30
0.0
  9
$EXTMIN
 10
-975.00000000024193
 20
-1431.5255224711129
 30
-14.834305555555554
  9
$EXTMAX
 10
975.00000000024102
 20
1405.9972926412995
 30
14.834305555555554
  9
$LIMMIN
 10
0.0
 20
0.0
  9
$LIMMAX
 10
0.0
 20
0.0
  9
$ORTHOMODE
 70
               0
  9
$REGENMODE
 70
               1
  9
$FILLMODE
 70
               1
  9
$QTEXTMODE
 70
               0
  9
$MIRRTEXT
 70
               1
  9
$LTSCALE
 40
50.799999999999997
  9
$ATTMODE
 70
               1
  9
$TEXTSIZE
 40
0.2
  9
$TRACEWID
 40
1.0
  9
$TEXTSTYLE
  7
Standard
  9
$CLAYER
  8
notes
  9
$CELTYPE
  6
Continuous
  9
$CECOLOR
 62
             256
  9
$CELTSCALE
 40
1.0
  9
$DISPSILH
 70
               0
  9
$DIMSCALE
 40
1.0
  9
$DIMASZ
 40
9.9993896484374982
  9
$DIMEXO
 40
24.999999999999996
  9
$DIMDLI
 40
0.9999999999999999
  9
$DIMRND
 40
0.0
  9
$DIMDLE
 40
0.0
  9
$DIMEXE
 40
0.0
  9
$DIMTP
 40
0.0
  9
$DIMTM
 40
0.0
  9
$DIMTXT
 40
21.828125
  9
$DIMCEN
 40
0.0
  9
$DIMTSZ
 40
0.0
  9
$DIMTOL
 70
               0
  9
$DIMLIM
 70
               0
  9
$DIMTIH
 70
               0
  9
$DIMTOH
 70
               0
  9
$DIMSE1
 70
               0
  9
$DIMSE2
 70
               0
  9
$DIMTAD
 70
               1
  9
$DIMZIN
 70
              11
  9
$DIMBLK
  1
_DOT
  9
$DIMASO
 70
               1
  9
$DIMSHO
 70
               1
  9
$DIMPOST
  1
<>
  9
$DIMAPOST
  1
[]
  9
$DIMALT
 70
               0
  9
$DIMALTD
 70
               1
  9
$DIMALTF
 40
1.0
  9
$DIMLFAC
 40
1.0
  9
$DIMTOFL
 70
               0
  9
$DIMTVP
 40
0.0
  9
$DIMTIX
 70
               1
  9
$DIMSOXD
 70
               0
  9
$DIMSAH
 70
               0
  9
$DIMBLK1
  1

  9
$DIMBLK2
  1

  9
$DIMSTYLE
  2
tform線あり
  9
$DIMCLRD
 70
               0
  9
$DIMCLRE
 70
               0
  9
$DIMCLRT
 70
               0
  9
$DIMTFAC
 40
1.0
  9
$DIMGAP
 40
0.4999999999999999
  9
$DIMJUST
 70
               0
  9
$DIMSD1
 70
               0
  9
$DIMSD2
 70
               0
  9
$DIMTOLJ
 70
               1
  9
$DIMTZIN
 70
              11
  9
$DIMALTZ
 70
              11
  9
$DIMALTTZ
 70
              11
  9
$DIMUPT
 70
               0
  9
$DIMDEC
 70
               1
  9
$DIMTDEC
 70
               1
  9
$DIMALTU
 70
               2
  9
$DIMALTTD
 70
               2
  9
$DIMTXSTY
  7
MS UI Gothic
  9
$DIMAUNIT
 70
               0
  9
$DIMADEC
 70
               2
  9
$DIMALTRND
 40
0.0
  9
$DIMAZIN
 70
               0
  9
$DIMDSEP
 70
              46
  9
$DIMATFIT
 70
               0
  9
$DIMFRAC
 70
               2
  9
$DIMLDRBLK
  1

  9
$DIMLUNIT
 70
               2
  9
$DIMLWD
 70
              -2
  9
$DIMLWE
 70
              -2
  9
$DIMTMOVE
 70
               0
  9
$LUNITS
 70
               2
  9
$LUPREC
 70
               4
  9
$SKETCHINC
 40
0.1
  9
$FILLETRAD
 40
0.0
  9
$AUNITS
 70
               0
  9
$AUPREC
 70
               0
  9
$MENU
  1
acad
  9
$ELEVATION
 40
0.0
  9
$PELEVATION
 40
0.0
  9
$THICKNESS
 40
0.0
  9
$LIMCHECK
 70
               0
  9
$CHAMFERA
 40
0.0
  9
$CHAMFERB
 40
0.0
  9
$CHAMFERC
 40
0.0
  9
$CHAMFERD
 40
0.0
  9
$SKPOLY
 70
               0
  9
$TDCREATE
 40
2456041.702893518
  9
$TDUCREATE
 40
0.000000000
  9
$TDUPDATE
 40
2456041.702893518
  9
$TDUUPDATE
 40
0.000000000
  9
$TDINDWG
 40
0.0000000000
  9
$TDUSRTIMER
 40
0.0000000000
  9
$USRTIMER
 70
               1
  9
$ANGBASE
 50
0.0
  9
$ANGDIR
 70
               0
  9
$PDMODE
 70
               1
  9
$PDSIZE
 40
-2.0
  9
$PLINEWID
 40
0.0
  9
$SPLFRAME
 70
               0
  9
$SPLINETYPE
 70
               6
  9
$SPLINESEGS
 70
               8
  9
$HANDSEED
  5
1D0
  9
$SURFTAB1
 70
               6
  9
$SURFTAB2
 70
               6
  9
$SURFTYPE
 70
               6
  9
$SURFU
 70
               6
  9
$SURFV
 70
               6
  9
$UCSBASE
  2

  9
$UCSNAME
  2

  9
$UCSORG
 10
0.0
 20
0.0
 30
0.0
  9
$UCSXDIR
 10
1.0
 20
0.0
 30
0.0
  9
$UCSYDIR
 10
0.0
 20
1.0
 30
0.0
  9
$UCSORTHOREF
  2

  9
$UCSORTHOVIEW
 70
               0
  9
$UCSORGTOP
 10
0.0
 20
0.0
 30
0.0
  9
$UCSORGBOTTOM
 10
0.0
 20
0.0
 30
0.0
  9
$UCSORGLEFT
 10
0.0
 20
0.0
 30
0.0
  9
$UCSORGRIGHT
 10
0.0
 20
0.0
 30
0.0
  9
$UCSORGFRONT
 10
0.0
 20
0.0
 30
0.0
  9
$UCSORGBACK
 10
0.0
 20
0.0
 30
0.0
  9
$PUCSBASE
  2

  9
$PUCSNAME
  2

  9
$PUCSORG
 10
0.0
 20
0.0
 30
0.0
  9
$PUCSXDIR
 10
1.0
 20
0.0
 30
0.0
  9
$PUCSYDIR
 10
0.0
 20
1.0
 30
0.0
  9
$PUCSORTHOREF
  2

  9
$PUCSORTHOVIEW
 70
               0
  9
$PUCSORGTOP
 10
0.0
 20
0.0
 30
0.0
  9
$PUCSORGBOTTOM
 10
0.0
 20
0.0
 30
0.0
  9
$PUCSORGLEFT
 10
0.0
 20
0.0
 30
0.0
  9
$PUCSORGRIGHT
 10
0.0
 20
0.0
 30
0.0
  9
$PUCSORGFRONT
 10
0.0
 20
0.0
 30
0.0
  9
$PUCSORGBACK
 10
0.0
 20
0.0
 30
0.0
  9
$USERI1
 70
               0
  9
$USERI2
 70
               0
  9
$USERI3
 70
               0
  9
$USERI4
 70
               0
  9
$USERI5
 70
               0
  9
$USERR1
 40
0.0
  9
$USERR2
 40
0.0
  9
$USERR3
 40
0.0
  9
$USERR4
 40
0.0
  9
$USERR5
 40
0.0
  9
$WORLDVIEW
 70
               1
  9
$SHADEDGE
 70
               3
  9
$SHADEDIF
 70
              70
  9
$TILEMODE
 70
               1
  9
$MAXACTVP
 70
              64
  9
$PINSBASE
 10
0.0
 20
0.0
 30
0.0
  9
$PLIMCHECK
 70
               0
  9
$PEXTMIN
 10
1.0000000000000000E+20
 20
1.0000000000000000E+20
 30
1.0000000000000000E+20
  9
$PEXTMAX
 10
-1.0000000000000000E+20
 20
-1.0000000000000000E+20
 30
-1.0000000000000000E+20
  9
$PLIMMIN
 10
0.0
 20
0.0
  9
$PLIMMAX
 10
12.0
 20
9.0
  9
$UNITMODE
 70
               0
  9
$VISRETAIN
 70
               0
  9
$PLINEGEN
 70
               1
  9
$PSLTSCALE
 70
               0
  9
$TREEDEPTH
 70
            3020
  9
$CMLSTYLE
  2
Standard
  9
$CMLJUST
 70
               0
  9
$CMLSCALE
 40
1.0
  9
$PROXYGRAPHICS
 70
               0
  9
$MEASUREMENT
 70
               1
  9
$CELWEIGHT
370
               0
  9
$ENDCAPS
280
               0
  9
$JOINSTYLE
280
               0
  9
$LWDISPLAY
290
               1
  9
$INSUNITS
 70
               4
  9
$HYPERLINKBASE
  1

  9
$STYLESHEET
  1

  9
$XEDIT
290
               1
  9
$CEPSNTYPE
380
               0
  9
$PSTYLEMODE
290
               1
  9
$FINGERPRINTGUID
  2

  9
$VERSIONGUID
  2

  9
$EXTNAMES
290
               1
  9
$PSVPSCALE
 40
0.0
  0
ENDSEC
  0
SECTION
  2
CLASSES
  0
CLASS
  1
LWPOLYLINE
  2
AcDbPolyline
  3
AutoCAD 2000
 90
        0
280
               0
281
               1
  0
CLASS
  1
IMAGE
  2
AcDbRasterImage
  3
ISM
 90
      127
280
               0
281
               1
  0
CLASS
  1
OLE2FRAME
  2
AcDbOle2Frame
  3
AutoCAD 2000
 90
        0
280
               0
281
               1
  0
CLASS
  1
HATCH
  2
AcDbHatch
  3
AutoCAD 2000
 90
        0
280
               0
281
               1
  0
CLASS
  1
DICTIONARYVAR
  2
AcDbDictionaryVar
  3
AutoCAD 2000
 90
        0
280
               0
281
               0
  0
CLASS
  1
RASTERVARIABLES
  2
AcDbRasterVariables
  3
ISM
 90
        0
280
               0
281
               0
  0
CLASS
  1
IMAGEDEF
  2
AcDbRasterImageDef
  3
ISM
 90
        0
280
               0
281
               0
  0
CLASS
  1
IMAGEDEF_REACTOR
  2
AcDbRasterImageDefReactor
  3
ISM
 90
        1
280
               0
281
               0
  0
CLASS
  1
IDBUFFER
  2
AcDbIdBuffer
  3
AutoCAD 2000
 90
        0
280
               0
281
               0
  0
CLASS
  1
SPATIAL_FILTER
  2
AcDbSpatialFilter
  3
AutoCAD 2000
 90
        0
280
               0
281
               0
  0
CLASS
  1
XRECORD
  2
AcDbXrecord
  3
AutoCAD 2000
 90
        0
280
               0
281
               0
  0
CLASS
  1
SORTENTSTABLE
  2
AcDbSortentsTable
  3
AutoCAD 2000
 90
        0
280
               0
281
               0
  0
CLASS
  1
LAYER_INDEX
  2
AcDbLayerIndex
  3
AutoCAD 2000
 90
        0
280
               0
281
               0
  0
CLASS
  1
SPATIAL_INDEX
  2
AcDbSpatialIndex
  3
AutoCAD 2000
 90
        0
280
               0
281
               0
  0
CLASS
  1
OBJECT_PTR
  2
CAseDLPNTableRecord
  3
"ASE-LPNTableRecord"
 90
        1
280
               0
281
               0
  0
CLASS
  1
LAYOUT
  2
AcDbLayout
  3
AutoCAD 2000
 90
        0
280
               0
281
               0
  0
CLASS
  1
PLOTSETTINGS
  2
AcDbPlotSettings
  3
AutoCAD 2000
 90
        0
280
               0
281
               0
  0
CLASS
  1
ACDBDICTIONARYWDFLT
  2
AcDbDictionaryWithDefault
  3
AutoCAD 2000
 90
        0
280
               0
281
               0
  0
CLASS
  1
ACDBPLACEHOLDER
  2
AcDbPlaceHolder
  3
AutoCAD 2000
 90
        0
280
               0
281
               0
  0
ENDSEC
  0
SECTION
  2
TABLES
  0
TABLE
  2
VPORT
  5
7
100
AcDbSymbolTable
 70
               1
  0
VPORT
  5
15
100
AcDbSymbolTableRecord
100
AcDbViewportTableRecord
  2
*ACTIVE
 70
               0
 10
0.0
 20
0.0
 11
1.0
 21
1.0
 12
-0.0000000000004547
 22
-12.764114914906713
 13
0.0
 23
0.0
 14
1.0
 24
1.0
 15
0.0
 25
0.0
 16
0.0
 26
0.0
 36
1.0
 17
0.0
 27
0.0
 37
0.0
 40
2837.5228151124124
 41
0.688564
 42
50.0
 43
0.0
 44
0.0
 50
0.0
 51
0.0
 71
               0
 72
            2000
 73
               1
 74
               1
 75
               0
 76
               0
 77
               0
 78
               0
281
               0
 65
               0
110
0.0
120
0.0
130
0.0
111
1.0
121
0.0
131
0.0
112
0.0
122
1.0
132
0.0
345
0
346
0
 79
               0
146
0.0
  0
ENDTAB
  0
TABLE
  2
LTYPE
  5
4
100
AcDbSymbolTable
 70
              15
  0
LTYPE
  5
11
100
AcDbSymbolTableRecord
100
AcDbLinetypeTableRecord
  2
ByBlock
 70
              64
  3

 72
              65
 73
               0
 40
0.0
  0
LTYPE
  5
12
100
AcDbSymbolTableRecord
100
AcDbLinetypeTableRecord
  2
ByLayer
 70
              64
  3

 72
              65
 73
               0
 40
0.0
  0
LTYPE
  5
13
100
AcDbSymbolTableRecord
100
AcDbLinetypeTableRecord
  2
Continuous
 70
              64
  3
Solid line
 72
              65
 73
               0
 40
0.0
  0
LTYPE
  5
38
100
AcDbSymbolTableRecord
100
AcDbLinetypeTableRecord
  2
STYLE_01
 70
               0
  3

 72
              65
 73
               2
 40
9.375
 49
6.25
 74
               0
 49
-3.125
 74
               0
  0
LTYPE
  5
39
100
AcDbSymbolTableRecord
100
AcDbLinetypeTableRecord
  2
STYLE_02
 70
               0
  3

 72
              65
 73
               4
 40
0.984251968503937
 49
0.4921259842519685
 74
               0
 49
-0.2460629921259843
 74
               0
 49
0.0004999999999999
 74
               0
 49
-0.2455629921259843
 74
               0
  0
LTYPE
  5
3A
100
AcDbSymbolTableRecord
100
AcDbLinetypeTableRecord
  2
STYLE_03
 70
               0
  3

 72
              65
 73
               2
 40
1.25
 49
1.0416400000000001
 74
               0
 49
-0.2083599999999999
 74
               0
  0
LTYPE
  5
3B
100
AcDbSymbolTableRecord
100
AcDbLinetypeTableRecord
  2
STYLE_04
 70
               0
  3

 72
              65
 73
               2
 40
1.5277099999999999
 49
1.3194249999999998
 74
               0
 49
-0.208285
 74
               0
  0
LTYPE
  5
3C
100
AcDbSymbolTableRecord
100
AcDbLinetypeTableRecord
  2
STYLE_05
 70
               0
  3

 72
              65
 73
               2
 40
0.20828
 49
0.069425
 74
               0
 49
-0.138855
 74
               0
  0
LTYPE
  5
3D
100
AcDbSymbolTableRecord
100
AcDbLinetypeTableRecord
  2
STYLE_06
 70
               0
  3

 72
              65
 73
               4
 40
1.0416400000000001
 49
0.625
 74
               0
 49
-0.20828
 74
               0
 49
0.06943
 74
               0
 49
-0.13893
 74
               0
  0
LTYPE
  5
3E
100
AcDbSymbolTableRecord
100
AcDbLinetypeTableRecord
  2
STYLE_07
 70
               0
  3

 72
              65
 73
               6
 40
1.875
 49
0.625
 74
               0
 49
-0.20828
 74
               0
 49
0.6250000000000001
 74
               0
 49
-0.2083599999999999
 74
               0
 49
0.06943
 74
               0
 49
-0.1389299999999999
 74
               0
  0
LTYPE
  5
3F
100
AcDbSymbolTableRecord
100
AcDbLinetypeTableRecord
  2
STYLE_08
 70
               0
  3

 72
              65
 73
               6
 40
1.25
 49
0.625
 74
               0
 49
-0.20828
 74
               0
 49
0.06943
 74
               0
 49
-0.13893
 74
               0
 49
0.0694299999999999
 74
               0
 49
-0.13893
 74
               0
  0
LTYPE
  5
40
100
AcDbSymbolTableRecord
100
AcDbLinetypeTableRecord
  2
STYLE_09
 70
               0
  3

 72
              65
 73
               4
 40
5.0
 49
3.75
 74
               0
 49
-0.2777849999999998
 74
               0
 49
0.6944300000000003
 74
               0
 49
-0.2777849999999998
 74
               0
  0
LTYPE
  5
41
100
AcDbSymbolTableRecord
100
AcDbLinetypeTableRecord
  2
STYLE_10
 70
               0
  3

 72
              65
 73
               6
 40
5.9375
 49
3.75
 74
               0
 49
-0.2777849999999998
 74
               0
 49
0.6944300000000003
 74
               0
 49
-0.2777849999999998
 74
               0
 49
0.625
 74
               0
 49
-0.3125
 74
               0
  0
LTYPE
  5
42
100
AcDbSymbolTableRecord
100
AcDbLinetypeTableRecord
  2
STYLE_11
 70
               0
  3

 72
              65
 73
               2
 40
0.0694444881889764
 49
0.0347222440944882
 74
               0
 49
-0.0347222440944882
 74
               0
  0
LTYPE
  5
43
100
AcDbSymbolTableRecord
100
AcDbLinetypeTableRecord
  2
STYLE_12
 70
               0
  3

 72
              65
 73
               2
 40
0.3937007874015748
 49
0.1968503937007874
 74
               0
 49
-0.1968503937007874
 74
               0
  0
ENDTAB
  0
TABLE
  2
LAYER
  5
2
100
AcDbSymbolTable
 70
               5
  0
LAYER
  5
14
100
AcDbSymbolTableRecord
100
AcDbLayerTableRecord
  2
0
 70
               0
 62
               7
  6
Continuous
290
               1
370
              -3
390
1D
  0
LAYER
  5
44
100
AcDbSymbolTableRecord
100
AcDbLayerTableRecord
  2
Defpoints
 70
               0
 62
               7
  6
Continuous
290
               0
370
              -3
390
1D
  0
LAYER
  5
45
100
AcDbSymbolTableRecord
100
AcDbLayerTableRecord
  2
template
 70
               0
 62
               7
  6
Continuous
290
               1
370
              -3
390
1D
  0
LAYER
  5
46
100
AcDbSymbolTableRecord
100
AcDbLayerTableRecord
  2
notes
 70
               0
 62
               7
  6
Continuous
290
               1
370
              -3
390
1D
  0
LAYER
  5
47
100
AcDbSymbolTableRecord
100
AcDbLayerTableRecord
  2
ADF70-1204
 70
               0
 62
               7
  6
Continuous
290
               1
370
              -3
390
1D
  0
ENDTAB
  0
TABLE
  2
STYLE
  5
3
100
AcDbSymbolTable
 70
               3
  0
STYLE
  5
17
100
AcDbSymbolTableRecord
100
AcDbTextStyleTableRecord
  2
Standard
 70
               0
 40
0.0
 41
1.0
 50
0.0
 71
               0
 42
0.0
  3
txt
  4
BIGFONT.SHX
  0
STYLE
  5
36
100
AcDbSymbolTableRecord
100
AcDbTextStyleTableRecord
  2
MS UI Gothic
 70
               0
 40
0.0
 41
1.0
 50
0.0
 71
               0
 42
0.0
  3

  4
MS UI Gothic
1001
ACAD
1000
MS UI Gothic
1071
        0
  0
STYLE
  5
37
100
AcDbSymbolTableRecord
100
AcDbTextStyleTableRecord
  2
ＭＳ ゴシック
 70
               0
 40
0.0
 41
1.0
 50
0.0
 71
               0
 42
0.0
  3

  4
ＭＳ ゴシック
1001
ACAD
1000
ＭＳ ゴシック
1071
        0
  0
ENDTAB
  0
TABLE
  2
VIEW
  5
5
100
AcDbSymbolTable
 70
               0
  0
ENDTAB
  0
TABLE
  2
UCS
  5
6
100
AcDbSymbolTable
 70
               0
  0
ENDTAB
  0
TABLE
  2
APPID
  5
8
100
AcDbSymbolTable
 70
               1
  0
APPID
  5
16
100
AcDbSymbolTableRecord
100
AcDbRegAppTableRecord
  2
ACAD
 70
               0
  0
ENDTAB
  0
TABLE
  2
DIMSTYLE
  5
9
100
AcDbSymbolTable
 70
               2
100
AcDbDimStyleTable
 71
               0
  0
DIMSTYLE
105
18
100
AcDbSymbolTableRecord
100
AcDbDimStyleTableRecord
  2
Standard
 70
               0
  3

  4

 40
1.0
 41
0.18
 42
0.0625
 43
0.38
 44
0.18
 45
0.0
 46
0.0
 47
0.0
 48
0.0
 71
               0
 72
               0
 73
               1
 74
               1
 75
               0
 76
               0
 77
               0
 78
               0
 79
               0
140
0.18
141
0.09
142
0.0
143
25.399999999999999
144
1.0
145
0.0
146
1.0
147
0.09
148
0.0
170
               0
171
               2
172
               0
173
               0
174
               0
175
               0
176
               0
177
               0
178
               0
179
               0
271
               4
272
               4
273
               2
274
               2
275
               0
276
               0
277
               2
278
              46
279
               0
280
               0
281
               0
282
               0
283
               1
284
               0
285
               0
286
               0
288
               0
289
               3
340
17
341
0
342
0
343
0
344
0
371
              -2
372
              -2
  0
DIMSTYLE
105
50
100
AcDbSymbolTableRecord
100
AcDbDimStyleTableRecord
  2
tform線あり
 70
               0
  3
<>
  4
[]
 40
1.0
 41
9.9993896484374982
 42
24.999999999999996
 43
0.9999999999999999
 44
0.0
 45
0.0
 46
0.0
 47
0.0
 48
0.0
 71
               0
 72
               0
 73
               0
 74
               0
 75
               0
 76
               0
 77
               1
 78
              11
 79
               0
140
21.828125
141
0.0
142
0.0
143
1.0
144
1.0
145
0.0
146
1.0
147
0.4999999999999999
148
0.0
170
               0
171
               1
172
               0
173
               0
174
               1
175
               0
176
               0
177
               0
178
               0
179
               2
271
               1
272
               1
273
               2
274
               2
275
               0
276
               2
277
               2
278
              46
279
               0
280
               0
281
               0
282
               0
283
               1
284
              11
285
              11
286
              11
288
               0
289
               0
340
36
341
48
342
48
343
0
344
0
371
              -2
372
              -2
  0
ENDTAB
  0
TABLE
  2
BLOCK_RECORD
  5
1
100
AcDbSymbolTable
 70
              20
  0
BLOCK_RECORD
  5
A
100
AcDbSymbolTableRecord
100
AcDbBlockTableRecord
  2
*MODEL_SPACE
340
20
  0
BLOCK_RECORD
  5
B
100
AcDbSymbolTableRecord
100
AcDbBlockTableRecord
  2
*PAPER_SPACE
340
21
  0
BLOCK_RECORD
  5
48
100
AcDbSymbolTableRecord
100
AcDbBlockTableRecord
  2
_DOT
340
0
  0
BLOCK_RECORD
  5
23
100
AcDbSymbolTableRecord
100
AcDbBlockTableRecord
  2
グループ
340
0
102
{BLKREFS
331
14D
102
}
  0
BLOCK_RECORD
  5
24
100
AcDbSymbolTableRecord
100
AcDbBlockTableRecord
  2
*D2
340
0
  0
BLOCK_RECORD
  5
25
100
AcDbSymbolTableRecord
100
AcDbBlockTableRecord
  2
*D3
340
0
  0
BLOCK_RECORD
  5
26
100
AcDbSymbolTableRecord
100
AcDbBlockTableRecord
  2
*D4
340
0
  0
BLOCK_RECORD
  5
27
100
AcDbSymbolTableRecord
100
AcDbBlockTableRecord
  2
*D5
340
0
  0
BLOCK_RECORD
  5
28
100
AcDbSymbolTableRecord
100
AcDbBlockTableRecord
  2
*D6
340
0
  0
BLOCK_RECORD
  5
29
100
AcDbSymbolTableRecord
100
AcDbBlockTableRecord
  2
*D7
340
0
  0
BLOCK_RECORD
  5
2A
100
AcDbSymbolTableRecord
100
AcDbBlockTableRecord
  2
*D8
340
0
  0
BLOCK_RECORD
  5
2B
100
AcDbSymbolTableRecord
100
AcDbBlockTableRecord
  2
*D9
340
0
  0
BLOCK_RECORD
  5
2C
100
AcDbSymbolTableRecord
100
AcDbBlockTableRecord
  2
*D10
340
0
  0
BLOCK_RECORD
  5
2D
100
AcDbSymbolTableRecord
100
AcDbBlockTableRecord
  2
*D11
340
0
  0
BLOCK_RECORD
  5
2E
100
AcDbSymbolTableRecord
100
AcDbBlockTableRecord
  2
*D12
340
0
  0
BLOCK_RECORD
  5
2F
100
AcDbSymbolTableRecord
100
AcDbBlockTableRecord
  2
*D13
340
0
  0
BLOCK_RECORD
  5
30
100
AcDbSymbolTableRecord
100
AcDbBlockTableRecord
  2
*D14
340
0
  0
BLOCK_RECORD
  5
31
100
AcDbSymbolTableRecord
100
AcDbBlockTableRecord
  2
*D15
340
0
  0
BLOCK_RECORD
  5
32
100
AcDbSymbolTableRecord
100
AcDbBlockTableRecord
  2
*D16
340
0
  0
BLOCK_RECORD
  5
33
100
AcDbSymbolTableRecord
100
AcDbBlockTableRecord
  2
*D17
340
0
  0
BLOCK_RECORD
  5
34
100
AcDbSymbolTableRecord
100
AcDbBlockTableRecord
  2
*D18
340
0
  0
BLOCK_RECORD
  5
35
100
AcDbSymbolTableRecord
100
AcDbBlockTableRecord
  2
*D19
340
0
  0
ENDTAB
  0
ENDSEC
  0
SECTION
  2
BLOCKS
  0
BLOCK
  5
D
100
AcDbEntity
  8
0
390
0
100
AcDbBlockBegin
  2
*MODEL_SPACE
 70
               0
 10
0.0
 20
0.0
 30
0.0
  3
*MODEL_SPACE
  1

  0
ENDBLK
  5
E
100
AcDbEntity
  8
0
390
0
100
AcDbBlockEnd
  0
BLOCK
  5
F
100
AcDbEntity
 67
               1
  8
0
390
0
100
AcDbBlockBegin
  2
*PAPER_SPACE
 70
               0
 10
0.0
 20
0.0
 30
0.0
  3
*PAPER_SPACE
  1

  0
ENDBLK
  5
10
100
AcDbEntity
 67
               1
  8
0
390
0
100
AcDbBlockEnd
  0
BLOCK
  5
49
100
AcDbEntity
  8
0
390
0
100
AcDbBlockBegin
  2
_DOT
 70
               0
 10
0.0
 20
0.0
 30
0.0
  3
_DOT
  1

  0
POLYLINE
  5
4A
100
AcDbEntity
  8
0
370
              -2
390
0
  6
ByBlock
 62
               0
100
AcDb2dPolyline
 66
               1
 10
0.0
 20
0.0
 30
0.0
 70
               1
 40
0.5
 41
0.5
  0
VERTEX
  5
4B
100
AcDbEntity
  8
0
370
              -2
390
0
  6
ByBlock
 62
               0
100
AcDbVertex
100
AcDb2dVertex
 10
-0.25
 20
0.0
 30
0.0
 42
1.0
  0
VERTEX
  5
4C
100
AcDbEntity
  8
0
370
              -2
390
0
  6
ByBlock
 62
               0
100
AcDbVertex
100
AcDb2dVertex
 10
0.25
 20
0.0
 30
0.0
 42
1.0
  0
SEQEND
  5
4D
100
AcDbEntity
  8
0
390
0
  0
LINE
  5
4E
100
AcDbEntity
  8
0
370
              -2
390
0
  6
ByBlock
 62
               0
100
AcDbLine
 10
-0.5
 20
0.0
 30
0.0
 11
-1.0
 21
0.0
 31
0.0
  0
ENDBLK
  5
4F
100
AcDbEntity
  8
0
390
0
100
AcDbBlockEnd
  0
BLOCK
  5
51
100
AcDbEntity
  8
template
390
0
100
AcDbBlockBegin
  2
グループ
 70
               0
 10
0.0
 20
0.0
 30
0.0
  3
グループ
  1

  0
LWPOLYLINE
  5
52
100
AcDbEntity
  8
0
370
              15
390
0
  6
Continuous
 62
               7
100
AcDbPolyline
 90
        8
 70
             129
 10
-6591.3908684911457
 20
669.34956242067642
 10
-6591.3908684911457
 20
663.35217372710053
 10
-6600.8920654091498
 20
663.35217372710053
 10
-6600.8920654091498
 20
638.90121046359172
 10
-6609.2474426709323
 20
638.90121046359172
 10
-6609.2474426709323
 20
663.35217372710053
 10
-6618.5803996172417
 20
663.35217372710053
 10
-6618.5803996172417
 20
669.34956242067642
  0
LWPOLYLINE
  5
53
100
AcDbEntity
  8
0
370
              15
390
0
  6
Continuous
 62
               7
100
AcDbPolyline
 90
      101
 70
             128
 10
-6578.6625766605894
 20
668.62131392773995
 10
-6578.6472266318106
 20
668.6256746844233
 42
-0.0222221607816304
 10
-6578.3572220551332
 20
668.69429914966963
 10
-6578.341428291149
 20
668.6973025727649
 42
-0.014688356557552
 10
-6578.078725585915
 20
668.73930575971599
 42
-0.0127458844163366
 10
-6577.8140866187496
 20
668.76684272778948
 10
-6577.7516315404491
 20
668.77173615037668
 42
-0.0198099018573914
 10
-6577.3607824309784
 20
668.78682130777338
 10
-6577.3089709615288
 20
668.78676753210823
 42
-0.0147617382770863
 10
-6576.8143475005518
 20
668.77164750686325
 10
-6576.7416560456804
 20
668.76727489997575
 42
-0.0162624548995233
 10
-6576.3515024162152
 20
668.73104202470336
 10
-6576.2299700249532
 20
668.71575546570637
 42
-0.0080020874640489
 10
-6576.0843909938649
 20
668.69507261843842
 10
-6576.0460715232703
 20
668.68900134062756
 42
-0.0053821929665101
 10
-6575.977587417955
 20
668.67739381680576
 10
-6576.703993117153
 20
666.49646536109185
 42
0.0108667757410129
 10
-6576.7713101872796
 20
666.50965247631098
 10
-6576.808778210474
 20
666.5161502189062
 42
0.017066320332151
 10
-6576.9519949973892
 20
666.53597981619794
 10
-6577.0198703300721
 20
666.54302698678543
 42
0.0220162375259829
 10
-6577.3002497379266
 20
666.55970934755555
 10
-6577.3781053049797
 20
666.56090871482206
 42
0.0282606915780964
 10
-6577.7137416285577
 20
666.54710543785302
 10
-6577.7576549023352
 20
666.54280544784888
 42
0.0169677213690563
 10
-6578.0035793972893
 20
666.5102683982974
 42
0.0190576269861491
 10
-6578.2464873598674
 20
666.46012152619141
 10
-6578.2527465479798
 20
666.45857855208169
 42
0.0213685642833289
 10
-6578.5031310324548
 20
666.38537826697757
 10
-6578.5086209273732
 20
666.38351527091788
 42
0.0237595297576311
 10
-6578.7621158122738
 20
666.28383074902138
 10
-6578.7672178863013
 20
666.28153897354412
 42
0.0261857468817403
 10
-6579.019388662532
 20
666.15200263616998
 10
-6579.0298148516213
 20
666.14593716170009
 42
0.0272553062012955
 10
-6579.2662446268569
 20
665.99056495575689
 10
-6579.3010076403689
 20
665.96490380766272
 42
0.0325996893228472
 10
-6579.4511629840181
 20
665.8381559346933
 10
-6579.4748724131441
 20
665.815337906178
 42
0.0138050960627389
 10
-6579.5667555693517
 20
665.72188824462876
 42
0.0125280103823094
 10
-6579.6535981021925
 20
665.62372491802
 10
-6579.677278547093
 20
665.59556641984136
 42
0.020521802476498
 10
-6579.8023786226131
 20
665.43377310560356
 10
-6579.8248449630937
 20
665.40211337578535
 42
0.0163110129573447
 10
-6579.980555342343
 20
665.16678294072074
 10
-6579.9832792383968
 20
665.16235917872996
 42
0.0131897341885885
 10
-6580.130079759304
 20
664.90922708636219
 10
-6580.1317798546688
 20
664.9061088472298
 42
0.010789557608878
 10
-6580.2695565568911
 20
664.63989363757048
 10
-6580.2702894464046
 20
664.63839940494813
 42
0.0091371507209964
 10
-6580.3987693950512
 20
664.36387420719382
 10
-6580.4285150264632
 20
664.29716770002972
 42
0.0135418326345771
 10
-6580.6002289655316
 20
663.88222991477073
 10
-6580.6338337739589
 20
663.79436377250863
 42
0.0092834542405443
 10
-6580.8050628338906
 20
663.32046527417435
 10
-6580.8306799616139
 20
663.24522420436472
 42
0.0054261043581607
 10
-6580.938318109901
 20
662.91746023131589
 10
-6580.9558440961955
 20
662.86207206871597
 42
0.0008225090834478
 10
-6581.0245141479081
 20
662.64380331093662
 10
-6582.009203279842
 20
659.61891201768003
 10
-6578.7765794397674
 20
659.61891201768003
 10
-6579.2807718696213
 20
657.71443371932764
 10
-6582.5368281516048
 20
657.71443371932764
 10
-6588.3659771839584
 20
638.90121065332278
 10
-6590.1910747942684
 20
638.90121065332278
 10
-6584.3563967587679
 20
657.71443371932764
 10
-6586.761513127808
 20
657.71443371932764
 10
-6586.257320697955
 20
659.61891201768003
 10
-6583.8287718870051
 20
659.61891201768003
 10
-6582.9686169688157
 20
662.25532501837893
 42
-0.0005863560636653
 10
-6582.9318822905543
 20
662.37215143885419
 10
-6582.855794456952
 20
662.61314373805612
 42
-0.0087522378924274
 10
-6582.6563263134967
 20
663.20841982520062
 10
-6582.5640620380927
 20
663.4685599936862
 42
-0.0077400953837449
 10
-6582.3061283789502
 20
664.16156467126382
 10
-6582.2903634073627
 20
664.20199555467082
 42
-0.0082369946333804
 10
-6582.0432789367596
 20
664.80607462084561
 42
-0.0085725238360529
 10
-6581.7760328407439
 20
665.40150066015974
 10
-6581.6744032397364
 20
665.61792176214487
 42
-0.016810941059309
 10
-6581.3874588110193
 20
666.17912928822216
 10
-6581.2616154203652
 20
666.40609332157283
 42
-0.0007817726849772
 10
-6581.2073310705036
 20
666.50363756625063
 10
-6581.2072027645099
 20
666.50386727494538
 42
-0.0036626142187646
 10
-6581.1523149004661
 20
666.6004651549556
 42
-0.0080221150700539
 10
-6581.0951906450773
 20
666.69574438967857
 10
-6581.0644906936977
 20
666.74513533883066
 42
-0.0202139325575841
 10
-6580.9368349539018
 20
666.93311693949772
 10
-6580.8827674887034
 20
667.00619580375292
 42
-0.0249323791798559
 10
-6580.6236046949825
 20
667.32224104590921
 10
-6580.5994648808573
 20
667.3488553188198
 42
-0.0242132121525837
 10
-6580.2597841393144
 20
667.68873880502429
 10
-6580.2118725665696
 20
667.73224794120563
 42
-0.0251017527869395
 10
-6579.9278908659235
 20
667.96524068697465
 10
-6579.9264453891246
 20
667.96630994454256
 42
-0.0130868069038555
 10
-6579.6281847391529
 20
668.17509041309609
 10
-6579.6266229200119
 20
668.17612385337009
 42
-0.0290329526387478
 10
-6579.3155117786164
 20
668.35694935500044
 10
-6579.2856662166223
 20
668.37205173784389
 42
-0.0160250190056479
 10
-6579.019761802866
 20
668.49606784805326
 42
-0.0267600374783703
 10
-6578.7444857253995
 20
668.59681616860121
 10
-6578.7177498058763
 20
668.6050087274275
 42
-0.0049981587630067
 10
-6578.6625766605894
 20
668.62131392773995
 42
-0.0049981587630067
  0
LWPOLYLINE
  5
54
100
AcDbEntity
  8
0
370
              15
390
0
  6
Continuous
 62
               7
100
AcDbPolyline
 90
      118
 70
             128
 10
-6558.8482090961425
 20
659.54492868985267
 10
-6556.9730871716429
 20
659.54492868985267
 10
-6557.811126077243
 20
656.86336216345262
 42
-0.001058722920867
 10
-6557.7796702616015
 20
656.90026669688962
 10
-6557.7214761710384
 20
656.96824895298369
 42
-0.0071874740407088
 10
-6557.5711009529177
 20
657.13888964503769
 10
-6557.4293781796787
 20
657.29512578632591
 42
-0.014811805351957
 10
-6556.979248886968
 20
657.76273963233598
 10
-6556.8920265520337
 20
657.84813695322191
 42
-0.0086273358675058
 10
-6556.5564777510554
 20
658.16551258720892
 10
-6556.5126440348395
 20
658.20556223153335
 42
-0.0103138323117563
 10
-6556.2546203325965
 20
658.43172536888028
 10
-6556.2088459262914
 20
658.47020741612221
 42
-0.0060206748553369
 10
-6556.0359978621564
 20
658.61200206689489
 10
-6556.0339667312301
 20
658.61362777255852
 42
-0.0067069027312312
 10
-6555.8616739166082
 20
658.74777840632112
 10
-6555.8591251506741
 20
658.74970857620224
 42
-0.0076184352052677
 10
-6555.6882198848107
 20
658.87508345144022
 42
-0.0089652861646935
 10
-6555.5132589220675
 20
658.99471671177912
 10
-6555.4769072019371
 20
659.01862792525253
 42
-0.0156916245926607
 10
-6555.2809477047722
 20
659.13889041173013
 42
-0.0023299011056857
 10
-6555.0806856607524
 20
659.25206835129291
 10
-6555.0653015284115
 20
659.26066834633571
 42
-0.0107669341487619
 10
-6554.8310647033204
 20
659.38506847967994
 10
-6554.8087999022355
 20
659.39628522963517
 42
-0.0078058045920546
 10
-6554.525209784314
 20
659.53364668525899
 10
-6554.5153026965736
 20
659.53825581314209
 42
-0.0181829330477436
 10
-6554.2049932919526
 20
659.66911955423984
 10
-6554.1509378493975
 20
659.68963467417893
 42
-0.0208411536046567
 10
-6553.8018528819412
 20
659.80572513667437
 10
-6553.7874967818116
 20
659.80984358162857
 42
-0.0222799817140038
 10
-6553.4587769878963
 20
659.88848514776817
 10
-6553.4498880246583
 20
659.89019715835343
 42
-0.0215509523868542
 10
-6553.1334170563805
 20
659.93711284688754
 10
-6553.0909350953316
 20
659.94155037367841
 42
-0.0182545924884853
 10
-6552.856826316025
 20
659.95739419906931
 10
-6552.8174252996778
 20
659.95861874414845
 42
-0.0072962856527951
 10
-6552.6615024199882
 20
659.96118807267067
 10
-6552.632402749422
 20
659.96124290807438
 42
-0.0059227516267307
 10
-6552.5346532502717
 20
659.960269196284
 10
-6552.5054110327883
 20
659.95963142968048
 42
-0.0011833111726521
 10
-6552.4661597490667
 20
659.95868242537063
 10
-6553.2615463446746
 20
657.41994848027161
 42
0.0143932051680308
 10
-6553.2879477270271
 20
657.43014745031792
 10
-6553.295219699442
 20
657.43271866917428
 42
0.0234388603538416
 10
-6553.3370505653711
 20
657.44533790488879
 10
-6553.3457322282866
 20
657.4475188668946
 42
0.0199162742944792
 10
-6553.4060210623702
 20
657.46013560223025
 10
-6553.426835000173
 20
657.46363280165815
 42
0.029364355069197
 10
-6553.5299098589312
 20
657.4747828473113
 10
-6553.5545950396527
 20
657.47599446432991
 42
0.0214606686887315
 10
-6553.7077359556033
 20
657.47693302474738
 10
-6553.7171078664232
 20
657.47658811320309
 42
0.0167564054172484
 10
-6553.8886280575352
 20
657.46451107083487
 10
-6553.8970878502914
 20
657.46362973040789
 42
0.0137677553213403
 10
-6554.0844411635526
 20
657.43888042186506
 10
-6554.0917929030638
 20
657.43770250189641
 42
0.011849726147445
 10
-6554.2922906671574
 20
657.40068515170879
 10
-6554.2984406744117
 20
657.39939828898719
 42
0.0106421143879522
 10
-6554.5093215617144
 20
657.35056591340799
 10
-6554.5142303700859
 20
657.34931857072729
 42
0.0099746379687322
 10
-6554.7326888392499
 20
657.28914404241243
 10
-6554.7942368794193
 20
657.27086216378189
 42
0.0191613675860864
 10
-6555.1302213419403
 20
657.15688478349261
 10
-6555.2182811146949
 20
657.12319787316517
 42
0.0205274080145506
 10
-6555.6035878865805
 20
656.9573694653443
 10
-6555.6612371685596
 20
656.92970150077326
 42
0.0181256912194293
 10
-6555.9195141092296
 20
656.79401768179412
 10
-6555.9724694925517
 20
656.76370006857417
 42
0.0140709242425674
 10
-6556.1174244271715
 20
656.67520539514499
 10
-6556.1436732957936
 20
656.65814857642681
 42
0.0086667884434333
 10
-6556.232599457333
 20
656.59814590854671
 42
0.0036408192034892
 10
-6556.3200326953038
 20
656.53596505079895
 10
-6556.3552595698347
 20
656.51052410484158
 42
0.0052260781292293
 10
-6556.5114882672506
 20
656.39519171818847
 10
-6556.5276951234855
 20
656.3829636075892
 42
0.005002443590743
 10
-6556.7136984665949
 20
656.23968103928701
 10
-6556.7290166230596
 20
656.22763501688121
 42
0.0136138710273684
 10
-6556.9394578913898
 20
656.05266851196393
 10
-6556.9731257671783
 20
656.02308953925365
 42
0.0172815186915128
 10
-6557.2375293088526
 20
655.77409286661816
 10
-6557.2400916546831
 20
655.77150704948315
 42
0.0189403857975686
 10
-6557.4906734532524
 20
655.49870178469007
 10
-6557.5233049468134
 20
655.46035785316303
 42
0.018504419952437
 10
-6557.7152613857779
 20
655.21710927205879
 42
0.0088565243934046
 10
-6557.8937214924317
 20
654.96359285187191
 10
-6557.9028994720557
 20
654.95005147214874
 42
0.0157195347212409
 10
-6558.0861200783838
 20
654.66052926284215
 10
-6558.1322030203009
 20
654.58237706584589
 42
0.0095451879757839
 10
-6558.2972885704585
 20
654.28978242345568
 10
-6558.3084364894021
 20
654.26911175129806
 42
0.0100351706255458
 10
-6558.440480238547
 20
654.01205619083294
 42
0.0086935915411137
 10
-6558.5628113903285
 20
653.75022304545666
 10
-6558.5661321317557
 20
653.7427807224567
 42
0.0072580174853913
 10
-6558.6864785836933
 20
653.46218873089265
 10
-6558.6897402170071
 20
653.45426870485574
 42
0.0060005122603033
 10
-6558.8089408853548
 20
653.1546590342349
 10
-6558.8121518636908
 20
653.14629750634583
 42
0.0049017786988157
 10
-6558.9310520225599
 20
652.82736852571077
 10
-6558.9342178289389
 20
652.81861558851108
 42
0.0039415167584783
 10
-6559.0536541069723
 20
652.48007352616776
 10
-6559.0567852096483
 20
652.47097032522174
 42
0.0031035838747547
 10
-6559.1775899953109
 20
652.11253046354022
 10
-6559.1807000398712
 20
652.10310984207342
 42
0.0025070747153815
 10
-6559.3036013912042
 20
651.72446262507412
 10
-6559.3408952876125
 20
651.60757095987651
 42
0.0029081910290132
 10
-6559.5329135854699
 20
650.99340730143172
 10
-6559.5737167539401
 20
650.86018405930895
 42
0.000926645373571
 10
-6559.8421341282638
 20
649.97795959935377
 10
-6559.8630216011634
 20
649.90884771926005
 42
-0.0005809993657112
 10
-6560.1403582814864
 20
648.99503961351058
 10
-6560.2066400796502
 20
648.77755468170983
 42
-0.0012018708176981
 10
-6560.3536243891886
 20
648.29939201683021
 10
-6560.4059442409107
 20
648.13063287545742
 42
-0.0002691059590406
 10
-6560.4495137219228
 20
647.99036525562246
 10
-6563.2824696202115
 20
638.90121065332278
 10
-6565.10045851219
 20
638.90121065332278
 10
-6558.8482090961425
 20
659.54492868985267
  0
SPLINE
  5
55
100
AcDbEntity
  8
0
370
              15
390
0
  6
Continuous
 62
               7
100
AcDbSpline
210
0.0
220
0.0
230
1.0
 70
              13
 71
               2
 72
             782
 73
             779
 74
               0
 42
0.000001
 43
0.000001
 40
0.0
 40
0.0
 40
0.0
 40
1.0
 40
1.0
 40
2.0
 40
2.0
 40
3.0
 40
3.0
 40
4.0
 40
4.0
 40
5.0
 40
5.0
 40
6.0
 40
6.0
 40
7.0
 40
7.0
 40
8.0
 40
8.0
 40
9.0
 40
9.0
 40
10.0
 40
10.0
 40
11.0
 40
11.0
 40
12.0
 40
12.0
 40
13.0
 40
13.0
 40
14.0
 40
14.0
 40
15.0
 40
15.0
 40
16.0
 40
16.0
 40
17.0
 40
17.0
 40
18.0
 40
18.0
 40
19.0
 40
19.0
 40
20.0
 40
20.0
 40
21.0
 40
21.0
 40
22.0
 40
22.0
 40
23.0
 40
23.0
 40
24.0
 40
24.0
 40
25.0
 40
25.0
 40
26.0
 40
26.0
 40
27.0
 40
27.0
 40
28.0
 40
28.0
 40
29.0
 40
29.0
 40
30.0
 40
30.0
 40
31.0
 40
31.0
 40
32.0
 40
32.0
 40
33.0
 40
33.0
 40
34.0
 40
34.0
 40
35.0
 40
35.0
 40
36.0
 40
36.0
 40
37.0
 40
37.0
 40
38.0
 40
38.0
 40
39.0
 40
39.0
 40
40.0
 40
40.0
 40
41.0
 40
41.0
 40
42.0
 40
42.0
 40
43.0
 40
43.0
 40
44.0
 40
44.0
 40
45.0
 40
45.0
 40
46.0
 40
46.0
 40
47.0
 40
47.0
 40
48.0
 40
48.0
 40
49.0
 40
49.0
 40
50.0
 40
50.0
 40
51.0
 40
51.0
 40
52.0
 40
52.0
 40
53.0
 40
53.0
 40
54.0
 40
54.0
 40
55.0
 40
55.0
 40
56.0
 40
56.0
 40
57.0
 40
57.0
 40
58.0
 40
58.0
 40
59.0
 40
59.0
 40
60.0
 40
60.0
 40
61.0
 40
61.0
 40
62.0
 40
62.0
 40
63.0
 40
63.0
 40
64.0
 40
64.0
 40
65.0
 40
65.0
 40
66.0
 40
66.0
 40
67.0
 40
67.0
 40
68.0
 40
68.0
 40
69.0
 40
69.0
 40
70.0
 40
70.0
 40
71.0
 40
71.0
 40
72.0
 40
72.0
 40
73.0
 40
73.0
 40
74.0
 40
74.0
 40
75.0
 40
75.0
 40
76.0
 40
76.0
 40
77.0
 40
77.0
 40
78.0
 40
78.0
 40
79.0
 40
79.0
 40
80.0
 40
80.0
 40
81.0
 40
81.0
 40
82.0
 40
82.0
 40
83.0
 40
83.0
 40
84.0
 40
84.0
 40
85.0
 40
85.0
 40
86.0
 40
86.0
 40
87.0
 40
87.0
 40
88.0
 40
88.0
 40
89.0
 40
89.0
 40
90.0
 40
90.0
 40
91.0
 40
91.0
 40
92.0
 40
92.0
 40
93.0
 40
93.0
 40
94.0
 40
94.0
 40
95.0
 40
95.0
 40
96.0
 40
96.0
 40
97.0
 40
97.0
 40
98.0
 40
98.0
 40
99.0
 40
99.0
 40
100.0
 40
100.0
 40
101.0
 40
101.0
 40
102.0
 40
102.0
 40
103.0
 40
103.0
 40
104.0
 40
104.0
 40
105.0
 40
105.0
 40
106.0
 40
106.0
 40
107.0
 40
107.0
 40
108.0
 40
108.0
 40
109.0
 40
109.0
 40
110.0
 40
110.0
 40
111.0
 40
111.0
 40
112.0
 40
112.0
 40
113.0
 40
113.0
 40
114.0
 40
114.0
 40
115.0
 40
115.0
 40
116.0
 40
116.0
 40
117.0
 40
117.0
 40
118.0
 40
118.0
 40
119.0
 40
119.0
 40
120.0
 40
120.0
 40
121.0
 40
121.0
 40
122.0
 40
122.0
 40
123.0
 40
123.0
 40
124.0
 40
124.0
 40
125.0
 40
125.0
 40
126.0
 40
126.0
 40
127.0
 40
127.0
 40
128.0
 40
128.0
 40
129.0
 40
129.0
 40
130.0
 40
130.0
 40
131.0
 40
131.0
 40
132.0
 40
132.0
 40
133.0
 40
133.0
 40
134.0
 40
134.0
 40
135.0
 40
135.0
 40
136.0
 40
136.0
 40
137.0
 40
137.0
 40
138.0
 40
138.0
 40
139.0
 40
139.0
 40
140.0
 40
140.0
 40
141.0
 40
141.0
 40
142.0
 40
142.0
 40
143.0
 40
143.0
 40
144.0
 40
144.0
 40
145.0
 40
145.0
 40
146.0
 40
146.0
 40
147.0
 40
147.0
 40
148.0
 40
148.0
 40
149.0
 40
149.0
 40
150.0
 40
150.0
 40
151.0
 40
151.0
 40
152.0
 40
152.0
 40
153.0
 40
153.0
 40
154.0
 40
154.0
 40
155.0
 40
155.0
 40
156.0
 40
156.0
 40
157.0
 40
157.0
 40
158.0
 40
158.0
 40
159.0
 40
159.0
 40
160.0
 40
160.0
 40
161.0
 40
161.0
 40
162.0
 40
162.0
 40
163.0
 40
163.0
 40
164.0
 40
164.0
 40
165.0
 40
165.0
 40
166.0
 40
166.0
 40
167.0
 40
167.0
 40
168.0
 40
168.0
 40
169.0
 40
169.0
 40
170.0
 40
170.0
 40
171.0
 40
171.0
 40
172.0
 40
172.0
 40
173.0
 40
173.0
 40
174.0
 40
174.0
 40
175.0
 40
175.0
 40
176.0
 40
176.0
 40
177.0
 40
177.0
 40
178.0
 40
178.0
 40
179.0
 40
179.0
 40
180.0
 40
180.0
 40
181.0
 40
181.0
 40
182.0
 40
182.0
 40
183.0
 40
183.0
 40
184.0
 40
184.0
 40
185.0
 40
185.0
 40
186.0
 40
186.0
 40
187.0
 40
187.0
 40
188.0
 40
188.0
 40
189.0
 40
189.0
 40
190.0
 40
190.0
 40
191.0
 40
191.0
 40
192.0
 40
192.0
 40
193.0
 40
193.0
 40
194.0
 40
194.0
 40
195.0
 40
195.0
 40
196.0
 40
196.0
 40
197.0
 40
197.0
 40
198.0
 40
198.0
 40
199.0
 40
199.0
 40
200.0
 40
200.0
 40
201.0
 40
201.0
 40
202.0
 40
202.0
 40
203.0
 40
203.0
 40
204.0
 40
204.0
 40
205.0
 40
205.0
 40
206.0
 40
206.0
 40
207.0
 40
207.0
 40
208.0
 40
208.0
 40
209.0
 40
209.0
 40
210.0
 40
210.0
 40
211.0
 40
211.0
 40
212.0
 40
212.0
 40
213.0
 40
213.0
 40
214.0
 40
214.0
 40
215.0
 40
215.0
 40
216.0
 40
216.0
 40
217.0
 40
217.0
 40
218.0
 40
218.0
 40
219.0
 40
219.0
 40
220.0
 40
220.0
 40
221.0
 40
221.0
 40
222.0
 40
222.0
 40
223.0
 40
223.0
 40
224.0
 40
224.0
 40
225.0
 40
225.0
 40
226.0
 40
226.0
 40
227.0
 40
227.0
 40
228.0
 40
228.0
 40
229.0
 40
229.0
 40
230.0
 40
230.0
 40
231.0
 40
231.0
 40
232.0
 40
232.0
 40
233.0
 40
233.0
 40
234.0
 40
234.0
 40
235.0
 40
235.0
 40
236.0
 40
236.0
 40
237.0
 40
237.0
 40
238.0
 40
238.0
 40
239.0
 40
239.0
 40
240.0
 40
240.0
 40
241.0
 40
241.0
 40
242.0
 40
242.0
 40
243.0
 40
243.0
 40
244.0
 40
244.0
 40
245.0
 40
245.0
 40
246.0
 40
246.0
 40
247.0
 40
247.0
 40
248.0
 40
248.0
 40
249.0
 40
249.0
 40
250.0
 40
250.0
 40
251.0
 40
251.0
 40
252.0
 40
252.0
 40
253.0
 40
253.0
 40
254.0
 40
254.0
 40
255.0
 40
255.0
 40
256.0
 40
256.0
 40
257.0
 40
257.0
 40
258.0
 40
258.0
 40
259.0
 40
259.0
 40
260.0
 40
260.0
 40
261.0
 40
261.0
 40
262.0
 40
262.0
 40
263.0
 40
263.0
 40
264.0
 40
264.0
 40
265.0
 40
265.0
 40
266.0
 40
266.0
 40
267.0
 40
267.0
 40
268.0
 40
268.0
 40
269.0
 40
269.0
 40
270.0
 40
270.0
 40
271.0
 40
271.0
 40
272.0
 40
272.0
 40
273.0
 40
273.0
 40
274.0
 40
274.0
 40
275.0
 40
275.0
 40
276.0
 40
276.0
 40
277.0
 40
277.0
 40
278.0
 40
278.0
 40
279.0
 40
279.0
 40
280.0
 40
280.0
 40
281.0
 40
281.0
 40
282.0
 40
282.0
 40
283.0
 40
283.0
 40
284.0
 40
284.0
 40
285.0
 40
285.0
 40
286.0
 40
286.0
 40
287.0
 40
287.0
 40
288.0
 40
288.0
 40
289.0
 40
289.0
 40
290.0
 40
290.0
 40
291.0
 40
291.0
 40
292.0
 40
292.0
 40
293.0
 40
293.0
 40
294.0
 40
294.0
 40
295.0
 40
295.0
 40
296.0
 40
296.0
 40
297.0
 40
297.0
 40
298.0
 40
298.0
 40
299.0
 40
299.0
 40
300.0
 40
300.0
 40
301.0
 40
301.0
 40
302.0
 40
302.0
 40
303.0
 40
303.0
 40
304.0
 40
304.0
 40
305.0
 40
305.0
 40
306.0
 40
306.0
 40
307.0
 40
307.0
 40
308.0
 40
308.0
 40
309.0
 40
309.0
 40
310.0
 40
310.0
 40
311.0
 40
311.0
 40
312.0
 40
312.0
 40
313.0
 40
313.0
 40
314.0
 40
314.0
 40
315.0
 40
315.0
 40
316.0
 40
316.0
 40
317.0
 40
317.0
 40
318.0
 40
318.0
 40
319.0
 40
319.0
 40
320.0
 40
320.0
 40
321.0
 40
321.0
 40
322.0
 40
322.0
 40
323.0
 40
323.0
 40
324.0
 40
324.0
 40
325.0
 40
325.0
 40
326.0
 40
326.0
 40
327.0
 40
327.0
 40
328.0
 40
328.0
 40
329.0
 40
329.0
 40
330.0
 40
330.0
 40
331.0
 40
331.0
 40
332.0
 40
332.0
 40
333.0
 40
333.0
 40
334.0
 40
334.0
 40
335.0
 40
335.0
 40
336.0
 40
336.0
 40
337.0
 40
337.0
 40
338.0
 40
338.0
 40
339.0
 40
339.0
 40
340.0
 40
340.0
 40
341.0
 40
341.0
 40
342.0
 40
342.0
 40
343.0
 40
343.0
 40
344.0
 40
344.0
 40
345.0
 40
345.0
 40
346.0
 40
346.0
 40
347.0
 40
347.0
 40
348.0
 40
348.0
 40
349.0
 40
349.0
 40
350.0
 40
350.0
 40
351.0
 40
351.0
 40
352.0
 40
352.0
 40
353.0
 40
353.0
 40
354.0
 40
354.0
 40
355.0
 40
355.0
 40
356.0
 40
356.0
 40
357.0
 40
357.0
 40
358.0
 40
358.0
 40
359.0
 40
359.0
 40
360.0
 40
360.0
 40
361.0
 40
361.0
 40
362.0
 40
362.0
 40
363.0
 40
363.0
 40
364.0
 40
364.0
 40
365.0
 40
365.0
 40
366.0
 40
366.0
 40
367.0
 40
367.0
 40
368.0
 40
368.0
 40
369.0
 40
369.0
 40
370.0
 40
370.0
 40
371.0
 40
371.0
 40
372.0
 40
372.0
 40
373.0
 40
373.0
 40
374.0
 40
374.0
 40
375.0
 40
375.0
 40
376.0
 40
376.0
 40
377.0
 40
377.0
 40
378.0
 40
378.0
 40
379.0
 40
379.0
 40
380.0
 40
380.0
 40
381.0
 40
381.0
 40
382.0
 40
382.0
 40
383.0
 40
383.0
 40
384.0
 40
384.0
 40
385.0
 40
385.0
 40
386.0
 40
386.0
 40
387.0
 40
387.0
 40
388.0
 40
388.0
 40
389.0
 40
389.0
 40
389.0
 10
-6548.5195046454101
 20
659.55585505321505
 30
0.0
 41
1.0
 10
-6547.7010805366899
 20
659.55585505321505
 30
0.0
 41
1.0
 10
-6546.8826564279689
 20
659.55585505321505
 30
0.0
 41
1.0
 10
-6547.2964101634861
 20
658.21322878896535
 30
0.0
 41
1.0
 10
-6547.7101638990025
 20
656.87060252471565
 30
0.0
 41
1.0
 10
-6547.6918244037934
 20
656.89930329769186
 30
0.0
 41
0.9999957264321203
 10
-6547.6733174069304
 20
656.92789634789108
 30
0.0
 41
1.0
 10
-6547.6428880828298
 20
656.97490922621023
 30
0.0
 41
1.0
 10
-6547.6124587587292
 20
657.02192210452949
 30
0.0
 41
1.0
 10
-6547.5330931136177
 20
657.14454091143841
 30
0.0
 41
0.9995394069082717
 10
-6547.446434722061
 20
657.26211897318933
 30
0.0
 41
1.0
 10
-6547.4106778598134
 20
657.31063386576602
 30
0.0
 41
1.0
 10
-6547.3749209975658
 20
657.35914875834283
 30
0.0
 41
1.0
 10
-6547.2411943297393
 20
657.54058903348073
 30
0.0
 41
0.999446061714347
 10
-6547.0956938484451
 20
657.71273143113797
 30
0.0
 41
1.0
 10
-6547.0913056674708
 20
657.71792311151967
 30
0.0
 41
1.0
 10
-6547.0869174864965
 20
657.72311479190148
 30
0.0
 41
1.0
 10
-6546.9501933671618
 20
657.8848738287835
 30
0.0
 41
0.9994359394933654
 10
-6546.8029191368059
 20
658.0370900299522
 30
0.0
 41
1.0
 10
-6546.8005357828515
 20
658.03955336032664
 30
0.0
 41
1.0
 10
-6546.7981524288971
 20
658.04201669070108
 30
0.0
 41
1.0
 10
-6546.655644906451
 20
658.18930623112033
 30
0.0
 41
0.9995293688567554
 10
-6546.5043732254726
 20
658.32757944328102
 30
0.0
 41
1.0
 10
-6546.4850794662125
 20
658.3452153289287
 30
0.0
 41
1.0
 10
-6546.4657857069533
 20
658.36285121457638
 30
0.0
 41
1.0
 10
-6546.3531015444896
 20
658.46585265544604
 30
0.0
 41
0.9997087614802317
 10
-6546.2355786555354
 20
658.56329693624298
 30
0.0
 41
1.0
 10
-6546.2164125823729
 20
658.57918851474039
 30
0.0
 41
1.0
 10
-6546.1972465092094
 20
658.59508009323781
 30
0.0
 41
1.0
 10
-6546.1180557665966
 20
658.66074121702752
 30
0.0
 41
0.9999595338697944
 10
-6546.037696495725
 20
658.72496694769586
 30
0.0
 41
1.0
 10
-6545.9573372248506
 20
658.78919267836591
 30
0.0
 41
0.9999749417501727
 10
-6545.8760766904652
 20
658.85227423234448
 30
0.0
 41
1.0
 10
-6545.8550905443535
 20
658.86856551960705
 30
0.0
 41
1.0
 10
-6545.8341043982409
 20
658.88485680686961
 30
0.0
 41
1.0
 10
-6545.7495365129298
 20
658.95050581671876
 30
0.0
 41
0.9999792037112536
 10
-6545.6641289131239
 20
659.01505859838983
 30
0.0
 41
1.0
 10
-6545.6433040872389
 20
659.03079842062766
 30
0.0
 41
1.0
 10
-6545.6224792613539
 20
659.04653824286549
 30
0.0
 41
1.0
 10
-6545.5787213134809
 20
659.0796113799388
 30
0.0
 41
0.9999993374067105
 10
-6545.5350396272115
 20
659.11278517545747
 30
0.0
 41
1.0
 10
-6545.4913579410613
 20
659.14595897088657
 30
0.0
 41
0.99991609538144
 10
-6545.4468315301192
 20
659.1779900361006
 30
0.0
 41
1.0
 10
-6545.4140096427145
 20
659.20160119167508
 30
0.0
 41
1.0
 10
-6545.3811877553089
 20
659.22521234724957
 30
0.0
 41
1.0
 10
-6545.2710175695483
 20
659.30446572361916
 30
0.0
 41
0.9980964527232018
 10
-6545.1519285760451
 20
659.36955319647643
 30
0.0
 41
1.0
 10
-6545.1148959691218
 20
659.38979317606731
 30
0.0
 41
1.0
 10
-6545.0778633621976
 20
659.41003315565808
 30
0.0
 41
1.0
 10
-6544.8985363489237
 20
659.50804340635966
 30
0.0
 41
0.9984572810573018
 10
-6544.7094477825622
 20
659.58556566770733
 30
0.0
 41
1.0
 10
-6544.7058015131606
 20
659.58706056004735
 30
0.0
 41
1.0
 10
-6544.70215524376
 20
659.58855545238748
 30
0.0
 41
1.0
 10
-6544.5203592161979
 20
659.66308792905579
 30
0.0
 41
0.9987838528033316
 10
-6544.3321065576438
 20
659.71935356921949
 30
0.0
 41
1.0
 10
-6544.3278686084432
 20
659.72062022291038
 30
0.0
 41
1.0
 10
-6544.3236306592426
 20
659.72188687660116
 30
0.0
 41
1.0
 10
-6544.1438538990787
 20
659.77561920938638
 30
0.0
 41
0.9990652816208386
 10
-6543.9601079673685
 20
659.81362288892728
 30
0.0
 41
1.0
 10
-6543.9549195663367
 20
659.81469599203399
 30
0.0
 41
1.0
 10
-6543.949731165304
 20
659.81576909514069
 30
0.0
 41
1.0
 10
-6543.7763620356491
 20
659.85162656846956
 30
0.0
 41
0.9992909934271111
 10
-6543.6007862691949
 20
659.87433700093584
 30
0.0
 41
1.0
 10
-6543.4252105027381
 20
659.89704743340246
 30
0.0
 41
0.9994553539447757
 10
-6543.2485190696461
 20
659.90812673760843
 30
0.0
 41
1.0
 10
-6543.2130846618493
 20
659.9103486256563
 30
0.0
 41
1.0
 10
-6543.1776502540515
 20
659.91257051370428
 30
0.0
 41
1.0
 10
-6543.0114244874831
 20
659.92299357611637
 30
0.0
 41
0.9990928098292118
 10
-6542.84491469558
 20
659.91923393488139
 30
0.0
 41
1.0
 10
-6542.8063528603107
 20
659.91836324334849
 30
0.0
 41
1.0
 10
-6542.7677910250422
 20
659.9174925518156
 30
0.0
 41
1.0
 10
-6542.6784049036814
 20
659.91547429364743
 30
0.0
 41
0.9998382089204648
 10
-6542.5891492208912
 20
659.91024216711878
 30
0.0
 41
1.0
 10
-6542.58871931467
 20
659.91021696621647
 30
0.0
 41
1.0
 10
-6542.5882894084489
 20
659.91019176531415
 30
0.0
 41
1.0
 10
-6542.49989353811
 20
659.90501004059138
 30
0.0
 41
0.9997558016757919
 10
-6542.4118129609042
 20
659.89592752522424
 30
0.0
 41
1.0
 10
-6542.4113368224753
 20
659.89587842774176
 30
0.0
 41
1.0
 10
-6542.4108606840473
 20
659.8958293302594
 30
0.0
 41
1.0
 10
-6542.3237323836984
 20
659.88684500985664
 30
0.0
 41
0.9996565144183761
 10
-6542.2371945303612
 20
659.87330770316873
 30
0.0
 41
1.0
 10
-6542.2367286049821
 20
659.87323481743715
 30
0.0
 41
1.0
 10
-6542.236262679603
 20
659.87316193170557
 30
0.0
 41
1.0
 10
-6542.1506566770149
 20
659.85977039647867
 30
0.0
 41
0.9995321806868369
 10
-6542.0660295966909
 20
659.84116990805046
 30
0.0
 41
1.0
 10
-6542.0656404021192
 20
659.84108436558472
 30
0.0
 41
1.0
 10
-6542.0652512075476
 20
659.84099882311887
 30
0.0
 41
1.0
 10
-6541.9814025163687
 20
659.82256941962294
 30
0.0
 41
0.9993819199218371
 10
-6541.8990559821668
 20
659.79829403636052
 30
0.0
 41
1.0
 10
-6541.8988175486675
 20
659.79822374725086
 30
0.0
 41
1.0
 10
-6541.8985791151681
 20
659.79815345814109
 30
0.0
 41
1.0
 10
-6541.816709447965
 20
659.77401865309821
 30
0.0
 41
0.9992088568505051
 10
-6541.7370169289825
 20
659.74345341730543
 30
0.0
 41
1.0
 10
-6541.6573359381018
 20
659.7128938165713
 30
0.0
 41
0.9990226101773675
 10
-6541.5806652681968
 20
659.67541638495766
 30
0.0
 41
1.0
 10
-6541.5040061263981
 20
659.63794458840448
 30
0.0
 41
0.998842427396972
 10
-6541.4313024991889
 20
659.59327981315312
 30
0.0
 41
1.0
 10
-6541.4310347908086
 20
659.59311534907999
 30
0.0
 41
1.0
 10
-6541.4307670824273
 20
659.59295088500687
 30
0.0
 41
1.0
 10
-6541.357528038453
 20
659.54795718160642
 30
0.0
 41
0.9986928844494976
 10
-6541.2892651717448
 20
659.49572144732849
 30
0.0
 41
1.0
 10
-6541.288683879523
 20
659.49527663410129
 30
0.0
 41
1.0
 10
-6541.2881025873012
 20
659.49483182087408
 30
0.0
 41
1.0
 10
-6541.2186771361467
 20
659.44170646013947
 30
0.0
 41
0.9986007262277526
 10
-6541.155250966377
 20
659.38154569044343
 30
0.0
 41
1.0
 10
-6541.1543565509201
 20
659.38069732260919
 30
0.0
 41
1.0
 10
-6541.153462135464
 20
659.37984895477496
 30
0.0
 41
1.0
 10
-6541.0882471347832
 20
659.31799144941124
 30
0.0
 41
0.9985581491380875
 10
-6541.0300395230843
 20
659.24949895914244
 30
0.0
 41
1.0
 10
-6541.0207810694874
 20
659.23860460143931
 30
0.0
 41
1.0
 10
-6541.0115226158905
 20
659.22771024373617
 30
0.0
 41
1.0
 10
-6540.9347980970006
 20
659.13742903806701
 30
0.0
 41
0.9970460233517891
 10
-6540.8728061958427
 20
659.03646195388887
 30
0.0
 41
1.0
 10
-6540.8583368307609
 20
659.01289549480293
 30
0.0
 41
1.0
 10
-6540.8438674656782
 20
658.98932903571699
 30
0.0
 41
1.0
 10
-6540.8041307656667
 20
658.92460931168637
 30
0.0
 41
0.9988468816636899
 10
-6540.7707843949147
 20
658.85637685925758
 30
0.0
 41
1.0
 10
-6540.7637483724238
 20
658.84197993812154
 30
0.0
 41
1.0
 10
-6540.756712349933
 20
658.82758301698539
 30
0.0
 41
1.0
 10
-6540.7374380241627
 20
658.788144406828
 30
0.0
 41
0.9998431189998032
 10
-6540.7195726966684
 20
658.74804785238916
 30
0.0
 41
1.0
 10
-6540.701707369295
 20
658.70795129822272
 30
0.0
 41
0.999998998971817
 10
-6540.6837286459941
 20
658.66790546090556
 30
0.0
 41
1.0
 10
-6540.6775563342781
 20
658.65415724382251
 30
0.0
 41
1.0
 10
-6540.671384022563
 20
658.64040902673935
 30
0.0
 41
1.0
 10
-6540.6410606759518
 20
658.57286675552928
 30
0.0
 41
0.9998790356324155
 10
-6540.6128527958108
 20
658.50441400358557
 30
0.0
 41
1.0
 10
-6540.6060176145356
 20
658.48782690218002
 30
0.0
 41
1.0
 10
-6540.5991824332605
 20
658.47123980077447
 30
0.0
 41
1.0
 10
-6540.5756247708723
 20
658.41407184587126
 30
0.0
 41
0.9998227574560171
 10
-6540.5542360224754
 20
658.35605753757534
 30
0.0
 41
1.0
 10
-6540.5328472740839
 20
658.29804322928919
 30
0.0
 41
0.9996797971042788
 10
-6540.5144209891232
 20
658.23902111016423
 30
0.0
 41
1.0
 10
-6540.5105171863997
 20
658.22651665200306
 30
0.0
 41
1.0
 10
-6540.5066133836763
 20
658.21401219384188
 30
0.0
 41
1.0
 10
-6540.480379493265
 20
658.12998115838195
 30
0.0
 41
0.9979274938733602
 10
-6540.4651549697855
 20
658.04327679971584
 30
0.0
 41
1.0
 10
-6540.4629312825291
 20
658.03061279892586
 30
0.0
 41
1.0
 10
-6540.4607075952736
 20
658.01794879813576
 30
0.0
 41
1.0
 10
-6540.4497776555691
 20
657.95570229081898
 30
0.0
 41
0.9994985982135238
 10
-6540.4428094903888
 20
657.89288878965101
 30
0.0
 41
1.0
 10
-6540.4358413252121
 20
657.83007528850408
 30
0.0
 41
0.9996372611201148
 10
-6540.4322654594444
 20
657.7669777098165
 30
0.0
 41
1.0
 10
-6540.4320968819557
 20
657.76400309273947
 30
0.0
 41
1.0
 10
-6540.4319283044661
 20
657.76102847566244
 30
0.0
 41
1.0
 10
-6540.42801528372
 20
657.69198166282172
 30
0.0
 41
0.999773063073633
 10
-6540.4270469702324
 20
657.62283083879288
 30
0.0
 41
1.0
 10
-6540.426989863814
 20
657.61875265964568
 30
0.0
 41
1.0
 10
-6540.4269327573957
 20
657.61467448049848
 30
0.0
 41
1.0
 10
-6540.4258502310695
 20
657.5373672982679
 30
0.0
 41
0.9998772614065947
 10
-6540.4271903178005
 20
657.46006415179079
 30
0.0
 41
1.0
 10
-6540.4272795810011
 20
657.45491498786851
 30
0.0
 41
1.0
 10
-6540.4273688442008
 20
657.44976582394634
 30
0.0
 41
1.0
 10
-6540.4288874573313
 20
657.36216434967309
 30
0.0
 41
0.9999415567329469
 10
-6540.4322997675781
 20
657.27461618796031
 30
0.0
 41
1.0
 10
-6540.432541088252
 20
657.26842472826138
 30
0.0
 41
1.0
 10
-6540.432782408926
 20
657.26223326856234
 30
0.0
 41
1.0
 10
-6540.4366773605207
 20
657.1623021874392
 30
0.0
 41
0.9999716810432567
 10
-6540.442075943638
 20
657.06244104924065
 30
0.0
 41
1.0
 10
-6540.4452887424286
 20
657.00301179955704
 30
0.0
 41
1.0
 10
-6540.4485015412183
 20
656.94358254987333
 30
0.0
 41
1.0
 10
-6540.456575450371
 20
656.79423414858888
 30
0.0
 41
0.9999819129907707
 10
-6540.4664452419875
 20
656.64499367087683
 30
0.0
 41
1.0
 10
-6540.4763150336048
 20
656.49575319316546
 30
0.0
 41
1.0
 10
-6540.4787543541688
 20
656.45856014731612
 30
0.0
 41
1.0
 10
-6540.456056120277
 20
656.49730114474903
 30
0.0
 41
0.9999982128120757
 10
-6540.433211561467
 20
656.53595603879955
 30
0.0
 41
1.0
 10
-6540.4063020016401
 20
656.58148925275691
 30
0.0
 41
1.0
 10
-6540.3793924418133
 20
656.62702246671415
 30
0.0
 41
1.0
 10
-6540.3027287632831
 20
656.75674378879023
 30
0.0
 41
0.9998609190057671
 10
-6540.2217814504165
 20
656.88383617072759
 30
0.0
 41
1.0
 10
-6540.1921331289432
 20
656.93038590367132
 30
0.0
 41
1.0
 10
-6540.1624848074698
 20
656.97693563661505
 30
0.0
 41
1.0
 10
-6540.0802125872269
 20
657.10610820661907
 30
0.0
 41
0.9999067609732026
 10
-6539.9944435777597
 20
657.23298589606395
 30
0.0
 41
1.0
 10
-6539.9920388745486
 20
657.23654316213447
 30
0.0
 41
1.0
 10
-6539.9896341713365
 20
657.24010042820498
 30
0.0
 41
1.0
 10
-6539.9086745682862
 20
657.35986358551975
 30
0.0
 41
0.9998784952150978
 10
-6539.8240209586147
 20
657.47704480221398
 30
0.0
 41
1.0
 10
-6539.7393673489332
 20
657.59422601892209
 30
0.0
 41
0.9998532968284247
 10
-6539.6507497281145
 20
657.70843892738822
 30
0.0
 41
1.0
 10
-6539.6307879391206
 20
657.73416624841195
 30
0.0
 41
1.0
 10
-6539.6108261501267
 20
657.75989356943569
 30
0.0
 41
1.0
 10
-6539.4923421003696
 20
657.91259918040146
 30
0.0
 41
0.9991551975796029
 10
-6539.361717650746
 20
658.05505874248547
 30
0.0
 41
1.0
 10
-6539.3582080347715
 20
658.05888634410348
 30
0.0
 41
1.0
 10
-6539.3546984187979
 20
658.06271394572138
 30
0.0
 41
1.0
 10
-6539.2310932011296
 20
658.19751830456198
 30
0.0
 41
0.9997418144180883
 10
-6539.1014910614222
 20
658.32656771518145
 30
0.0
 41
1.0
 10
-6538.9718889217211
 20
658.45561712579422
 30
0.0
 41
0.9989238204632678
 10
-6538.8308863734692
 20
658.57210208783374
 30
0.0
 41
1.0
 10
-6538.7856386953317
 20
658.6094820794408
 30
0.0
 41
1.0
 10
-6538.7403910171952
 20
658.64686207104785
 30
0.0
 41
1.0
 10
-6538.600150959971
 20
658.76271712434038
 30
0.0
 41
0.9990825084097768
 10
-6538.4505110273658
 20
658.8661461221742
 30
0.0
 41
1.0
 10
-6538.4404656633287
 20
658.87308933524025
 30
0.0
 41
1.0
 10
-6538.4304202992907
 20
658.8800325483063
 30
0.0
 41
1.0
 10
-6538.3008710947825
 20
658.96957511999403
 30
0.0
 41
0.9998164899826634
 10
-6538.1679868913852
 20
659.05408936152355
 30
0.0
 41
1.0
 10
-6538.1561413308591
 20
659.06162312804929
 30
0.0
 41
1.0
 10
-6538.144295770333
 20
659.06915689457503
 30
0.0
 41
1.0
 10
-6538.0351026880098
 20
659.13860360303988
 30
0.0
 41
0.9997473449130313
 10
-6537.9228987307597
 20
659.20307256085562
 30
0.0
 41
1.0
 10
-6537.8106947735077
 20
659.26754151867249
 30
0.0
 41
0.9999327861142945
 10
-6537.697026162733
 20
659.32939151036032
 30
0.0
 41
1.0
 10
-6537.6964741601787
 20
659.32969186903574
 30
0.0
 41
1.0
 10
-6537.6959221576253
 20
659.32999222771105
 30
0.0
 41
1.0
 10
-6537.5811495417474
 20
659.39244293674756
 30
0.0
 41
0.9996956420483151
 10
-6537.4634362159104
 20
659.44915640372062
 30
0.0
 41
1.0
 10
-6537.4329958110047
 20
659.46382238045726
 30
0.0
 41
1.0
 10
-6537.4025554060981
 20
659.47848835719378
 30
0.0
 41
1.0
 10
-6537.2995782993603
 20
659.52810201563398
 30
0.0
 41
0.9998070570176588
 10
-6537.1947319104311
 20
659.57363260252998
 30
0.0
 41
1.0
 10
-6537.0898855214882
 20
659.61916318943167
 30
0.0
 41
0.9997827436148248
 10
-6536.9832325848711
 20
659.66028436074612
 30
0.0
 41
1.0
 10
-6536.964009735244
 20
659.66769593437687
 30
0.0
 41
1.0
 10
-6536.9447868856168
 20
659.67510750800761
 30
0.0
 41
1.0
 10
-6536.7996882497473
 20
659.73105182658333
 30
0.0
 41
0.9988031841976868
 10
-6536.6498178871461
 20
659.77255189075026
 30
0.0
 41
1.0
 10
-6536.6249006387789
 20
659.77945163655818
 30
0.0
 41
1.0
 10
-6536.5999833904125
 20
659.78635138236598
 30
0.0
 41
1.0
 10
-6536.4327133647676
 20
659.8326695247722
 30
0.0
 41
0.9984748040550721
 10
-6536.261356456117
 20
659.8602637570375
 30
0.0
 41
1.0
 10
-6536.2566173198693
 20
659.86102691755082
 30
0.0
 41
1.0
 10
-6536.2518781836216
 20
659.86179007806402
 30
0.0
 41
1.0
 10
-6536.0899995474683
 20
659.88785798930212
 30
0.0
 41
0.9984436495480477
 10
-6535.926224803743
 20
659.89573594312105
 30
0.0
 41
1.0
 10
-6535.9045275956123
 20
659.89677963032068
 30
0.0
 41
1.0
 10
-6535.8828303874807
 20
659.89782331752042
 30
0.0
 41
1.0
 10
-6535.7624500600177
 20
659.90361389693976
 30
0.0
 41
0.9987954789335656
 10
-6535.6420818151091
 20
659.89757736919751
 30
0.0
 41
1.0
 10
-6535.6221170226127
 20
659.89657612485894
 30
0.0
 41
1.0
 10
-6535.6021522301171
 20
659.89557488052026
 30
0.0
 41
1.0
 10
-6535.5217135701942
 20
659.89154084145491
 30
0.0
 41
0.9997941595875961
 10
-6535.4415047921048
 20
659.88424677553417
 30
0.0
 41
1.0
 10
-6535.3612960140117
 20
659.87695270961319
 30
0.0
 41
0.9998589466237887
 10
-6535.2813774671531
 20
659.86696885516278
 30
0.0
 41
1.0
 10
-6535.248971265346
 20
659.86292049824374
 30
0.0
 41
1.0
 10
-6535.2165650635379
 20
659.85887214132458
 30
0.0
 41
1.0
 10
-6535.0718341130723
 20
659.84079157303677
 30
0.0
 41
0.9993495063249368
 10
-6534.9287828693032
 20
659.81232586329486
 30
0.0
 41
1.0
 10
-6534.8958491721496
 20
659.80577240007972
 30
0.0
 41
1.0
 10
-6534.862915474996
 20
659.79921893686458
 30
0.0
 41
1.0
 10
-6534.7536216517856
 20
659.77747060272725
 30
0.0
 41
0.9996788715562083
 10
-6534.645570079836
 20
659.75021280336637
 30
0.0
 41
1.0
 10
-6534.6435070772968
 20
659.74969237679329
 30
0.0
 41
1.0
 10
-6534.6414440747576
 20
659.74917195022033
 30
0.0
 41
1.0
 10
-6534.5375185078756
 20
659.72295500400139
 30
0.0
 41
0.999548065449402
 10
-6534.4353562726501
 20
659.69054004737893
 30
0.0
 41
1.0
 10
-6534.4336666305244
 20
659.69000394246609
 30
0.0
 41
1.0
 10
-6534.4319769883987
 20
659.68946783755325
 30
0.0
 41
1.0
 10
-6534.3331940374219
 20
659.65812509075477
 30
0.0
 41
0.9993867959456906
 10
-6534.2368468789791
 20
659.61994572146477
 30
0.0
 41
1.0
 10
-6534.2356039298984
 20
659.6194531795702
 30
0.0
 41
1.0
 10
-6534.2343609808177
 20
659.61896063767563
 30
0.0
 41
1.0
 10
-6534.1404997205454
 20
659.58176635217978
 30
0.0
 41
0.9992050256519562
 10
-6534.0499000455029
 20
659.53721245293627
 30
0.0
 41
1.0
 10
-6534.0491653627923
 20
659.53685116047654
 30
0.0
 41
1.0
 10
-6534.0484306800827
 20
659.53648986801693
 30
0.0
 41
1.0
 10
-6533.9593003704758
 20
659.49265855370174
 30
0.0
 41
0.999022235073842
 10
-6533.8743903090763
 20
659.44112528599919
 30
0.0
 41
1.0
 10
-6533.8742064237967
 20
659.44101368309634
 30
0.0
 41
1.0
 10
-6533.8740225385172
 20
659.44090208019361
 30
0.0
 41
1.0
 10
-6533.789480247684
 20
659.3895920183021
 30
0.0
 41
0.9988642743803653
 10
-6533.7102057130633
 20
659.33046783077566
 30
0.0
 41
1.0
 10
-6533.6309311784453
 20
659.2713436432515
 30
0.0
 41
0.9987681233309266
 10
-6533.5579073941653
 20
659.20465295184692
 30
0.0
 41
1.0
 10
-6533.5575784662014
 20
659.2043525506341
 30
0.0
 41
1.0
 10
-6533.5572495382366
 20
659.20405214942127
 30
0.0
 41
1.0
 10
-6533.4835678980235
 20
659.13676065558559
 30
0.0
 41
0.9987496570903263
 10
-6533.4169740926909
 20
659.0624478414943
 30
0.0
 41
1.0
 10
-6533.4162019229352
 20
659.06158616814196
 30
0.0
 41
1.0
 10
-6533.4154297531804
 20
659.06072449478961
 30
0.0
 41
1.0
 10
-6533.3472916083338
 20
658.98468833398897
 30
0.0
 41
0.9988147669825379
 10
-6533.2868693541086
 20
658.90238732714613
 30
0.0
 41
1.0
 10
-6533.2857500280297
 20
658.90086269579297
 30
0.0
 41
1.0
 10
-6533.2846307019518
 20
658.89933806443969
 30
0.0
 41
1.0
 10
-6533.2219697955788
 20
658.81398779490405
 30
0.0
 41
0.9989452636213664
 10
-6533.1674028826219
 20
658.72324910575344
 30
0.0
 41
1.0
 10
-6533.1660541565307
 20
658.72100632471779
 30
0.0
 41
1.0
 10
-6533.1647054304394
 20
658.71876354368203
 30
0.0
 41
1.0
 10
-6533.1074410653064
 20
658.62353929247229
 30
0.0
 41
0.9991046436070762
 10
-6533.0584318519823
 20
658.52381485944295
 30
0.0
 41
1.0
 10
-6533.0569679903929
 20
658.52083617937217
 30
0.0
 41
1.0
 10
-6533.0555041288044
 20
658.51785749930139
 30
0.0
 41
1.0
 10
-6533.0035671922988
 20
658.41217570612093
 30
0.0
 41
0.9992763831102612
 10
-6532.9598140637381
 20
658.30285164415341
 30
0.0
 41
1.0
 10
-6532.9583347940788
 20
658.29915545663061
 30
0.0
 41
1.0
 10
-6532.9568555244205
 20
658.29545926910782
 30
0.0
 41
1.0
 10
-6532.9101438565358
 20
658.17874283207288
 30
0.0
 41
0.9994163472886666
 10
-6532.8715108253427
 20
658.05910924360126
 30
0.0
 41
1.0
 10
-6532.8702726731008
 20
658.05527509983312
 30
0.0
 41
1.0
 10
-6532.8690345208588
 20
658.05144095606511
 30
0.0
 41
1.0
 10
-6532.8291509598394
 20
657.92793489458199
 30
0.0
 41
0.9997268055889884
 10
-6532.7950829039264
 20
657.80269986262601
 30
0.0
 41
1.0
 10
-6532.794152723658
 20
657.79928049651949
 30
0.0
 41
1.0
 10
-6532.7932225433888
 20
657.79586113041296
 30
0.0
 41
1.0
 10
-6532.7610148480153
 20
657.67746483068015
 30
0.0
 41
0.9996701318999184
 10
-6532.7349292312447
 20
657.55757087741188
 30
0.0
 41
1.0
 10
-6532.7088436144732
 20
657.43767692413985
 30
0.0
 41
0.9995785451109684
 10
-6532.6897600371312
 20
657.31647116309728
 30
0.0
 41
1.0
 10
-6532.6855402549581
 20
657.28967000833609
 30
0.0
 41
1.0
 10
-6532.681320472785
 20
657.26286885357501
 30
0.0
 41
1.0
 10
-6532.6547454968477
 20
657.09408287987776
 30
0.0
 41
0.9979925101216252
 10
-6532.6497199109217
 20
656.92329155179209
 30
0.0
 41
1.0
 10
-6532.6488950984967
 20
656.89526082830434
 30
0.0
 41
1.0
 10
-6532.6480702860727
 20
656.8672301048166
 30
0.0
 41
1.0
 10
-6532.6446943249957
 20
656.75250022369426
 30
0.0
 41
0.999531490226321
 10
-6532.6483445171343
 20
656.63777873994843
 30
0.0
 41
1.0
 10
-6532.6519947092729
 20
656.52305725618544
 30
0.0
 41
0.9996245486944008
 10
-6532.661923804405
 20
656.40870798504875
 30
0.0
 41
1.0
 10
-6532.6620868523987
 20
656.4068302289254
 30
0.0
 41
1.0
 10
-6532.6622499003915
 20
656.40495247280205
 30
0.0
 41
1.0
 10
-6532.672505091512
 20
656.28684768939945
 30
0.0
 41
0.9997286095001637
 10
-6532.6882504150844
 20
656.16934878049892
 30
0.0
 41
1.0
 10
-6532.6886439077334
 20
656.16641235580403
 30
0.0
 41
1.0
 10
-6532.6890374003833
 20
656.16347593110913
 30
0.0
 41
1.0
 10
-6532.7055697092592
 20
656.04010417278766
 30
0.0
 41
0.9998265533970664
 10
-6532.7266851679951
 20
655.91743369797916
 30
0.0
 41
1.0
 10
-6532.7273617101291
 20
655.9135033194932
 30
0.0
 41
1.0
 10
-6532.7280382522622
 20
655.90957294100724
 30
0.0
 41
1.0
 10
-6532.7505067952616
 20
655.77904170923784
 30
0.0
 41
0.9999022530851673
 10
-6532.7766162598655
 20
655.64918974063232
 30
0.0
 41
1.0
 10
-6532.7775949010374
 20
655.6443225982116
 30
0.0
 41
1.0
 10
-6532.7785735422094
 20
655.63945545579077
 30
0.0
 41
1.0
 10
-6532.8066402891573
 20
655.49986920234858
 30
0.0
 41
0.9999524761937321
 10
-6532.8374232579999
 20
655.36085670914622
 30
0.0
 41
1.0
 10
-6532.8386993651675
 20
655.3550939498773
 30
0.0
 41
1.0
 10
-6532.8399754723359
 20
655.34933119060827
 30
0.0
 41
1.0
 10
-6532.8733106555255
 20
655.19879317882271
 30
0.0
 41
0.9999813588733926
 10
-6532.9084816563281
 20
655.04867346613719
 30
0.0
 41
1.0
 10
-6532.9100355817791
 20
655.04204087573783
 30
0.0
 41
1.0
 10
-6532.91158950723
 20
655.03540828533846
 30
0.0
 41
1.0
 10
-6532.9498683589172
 20
654.87202339192652
 30
0.0
 41
0.9999955237715601
 10
-6532.9891242368785
 20
654.70887048840564
 30
0.0
 41
1.0
 10
-6533.0014058725337
 20
654.6578262977954
 30
0.0
 41
1.0
 10
-6533.0136875081889
 20
654.60678210718515
 30
0.0
 41
1.0
 10
-6533.0775066573497
 20
654.3415408228982
 30
0.0
 41
0.9999993604349228
 10
-6533.1419256044246
 20
654.07644457259664
 30
0.0
 41
1.0
 10
-6533.146644440063
 20
654.05702566418222
 30
0.0
 41
1.0
 10
-6533.1513632757005
 20
654.0376067557678
 30
0.0
 41
1.0
 10
-6533.2252198939595
 20
653.73367268901393
 30
0.0
 41
0.9999659914722114
 10
-6533.3040794898416
 20
653.43099814246705
 30
0.0
 41
1.0
 10
-6533.3090321787749
 20
653.41198900527593
 30
0.0
 41
1.0
 10
-6533.3139848677074
 20
653.39297986808469
 30
0.0
 41
1.0
 10
-6533.4027498414544
 20
653.05228704715796
 30
0.0
 41
0.9999441976020246
 10
-6533.4986928744211
 20
652.71354562184843
 30
0.0
 41
1.0
 10
-6533.5153933928441
 20
652.65458190932986
 30
0.0
 41
1.0
 10
-6533.5320939112671
 20
652.59561819681119
 30
0.0
 41
1.0
 10
-6533.6614379810871
 20
652.1389493464394
 30
0.0
 41
0.9999625120734034
 10
-6533.7986707484124
 20
651.6845888124376
 30
0.0
 41
1.0
 10
-6533.834460691467
 20
651.56609278590213
 30
0.0
 41
1.0
 10
-6533.8702506345226
 20
651.44759675936677
 30
0.0
 41
1.0
 10
-6533.9447708385842
 20
651.20086968119369
 30
0.0
 41
0.9999793386316683
 10
-6534.0224568617505
 20
650.95512104186855
 30
0.0
 41
1.0
 10
-6534.1001428848876
 20
650.70937240263243
 30
0.0
 41
1.0
 10
-6534.1109224437578
 20
650.67535449825778
 30
0.0
 41
1.0
 10
-6535.9612954970271
 20
644.78828257579028
 30
0.0
 41
1.0
 10
-6537.8116685502964
 20
638.90121065332278
 30
0.0
 41
1.0
 10
-6538.7729252403205
 20
638.90121065332278
 30
0.0
 41
1.0
 10
-6539.7341819303438
 20
638.90121065332278
 30
0.0
 41
1.0
 10
-6538.1152371516655
 20
644.04923915511222
 30
0.0
 41
1.0
 10
-6536.4962923729863
 20
649.19726765690166
 30
0.0
 41
1.0
 10
-6536.451126549804
 20
649.34129887919721
 30
0.0
 41
1.0
 10
-6536.4059607266217
 20
649.48533010149265
 30
0.0
 41
1.0
 10
-6536.235656309269
 20
650.0284211306257
 30
0.0
 41
0.9999911657932282
 10
-6536.0699234975946
 20
650.57292466196759
 30
0.0
 41
1.0
 10
-6536.0402275540755
 20
650.67048860208024
 30
0.0
 41
1.0
 10
-6536.0105316105564
 20
650.768052542193
 30
0.0
 41
1.0
 10
-6535.9041906858965
 20
651.11742819338838
 30
0.0
 41
0.9999952428183274
 10
-6535.80000709659
 20
651.46745321768083
 30
0.0
 41
1.0
 10
-6535.7949476262656
 20
651.48445149192685
 30
0.0
 41
1.0
 10
-6535.7898881559422
 20
651.50144976617287
 30
0.0
 41
1.0
 10
-6535.6958235072743
 20
651.81747824199965
 30
0.0
 41
0.9999931687502881
 10
-6535.6040976693912
 20
652.13419345530087
 30
0.0
 41
1.0
 10
-6535.5991624049238
 20
652.15123416460074
 30
0.0
 41
1.0
 10
-6535.5942271404556
 20
652.16827487390049
 30
0.0
 41
1.0
 10
-6535.5123718315081
 20
652.45090866860414
 30
0.0
 41
0.9999893840827268
 10
-6535.4331246050606
 20
652.73428479781796
 30
0.0
 41
1.0
 10
-6535.3538773786058
 20
653.01766092705793
 30
0.0
 41
0.9999833980071312
 10
-6535.2779011378661
 20
653.30193151007654
 30
0.0
 41
1.0
 10
-6535.268897201131
 20
653.33562038860236
 30
0.0
 41
1.0
 10
-6535.2598932643959
 20
653.36930926712807
 30
0.0
 41
1.0
 10
-6535.1909287155404
 20
653.62734509938434
 30
0.0
 41
0.9999233658067311
 10
-6535.12837374433
 20
653.88700925807098
 30
0.0
 41
1.0
 10
-6535.0658187731096
 20
654.14667341679342
 30
0.0
 41
1.0
 10
-6535.0263353542523
 20
654.31048008121957
 30
0.0
 41
1.0
 10
-6535.0213567502851
 20
654.33113504304947
 30
0.0
 41
1.0
 10
-6535.016378146317
 20
654.35179000487938
 30
0.0
 41
1.0
 10
-6534.986851935405
 20
654.47428674560319
 30
0.0
 41
0.9999868670843266
 10
-6534.9585828513991
 20
654.59707969129113
 30
0.0
 41
1.0
 10
-6534.9546853642332
 20
654.61400927874251
 30
0.0
 41
1.0
 10
-6534.9507878770673
 20
654.63093886619379
 30
0.0
 41
1.0
 10
-6534.930313767396
 20
654.7198726369661
 30
0.0
 41
0.9999778173349735
 10
-6534.9110261692877
 20
654.80907125416707
 30
0.0
 41
1.0
 10
-6534.8917385711538
 20
654.89826987148035
 30
0.0
 41
0.9999602692857307
 10
-6534.874044212509
 20
654.98779815998523
 30
0.0
 41
1.0
 10
-6534.8708403804476
 20
655.00400861479022
 30
0.0
 41
1.0
 10
-6534.8676365483861
 20
655.02021906959521
 30
0.0
 41
1.0
 10
-6534.8435345256012
 20
655.14216826778272
 30
0.0
 41
0.9995617985321005
 10
-6534.826691178383
 20
655.26533001547875
 30
0.0
 41
1.0
 10
-6534.8242266884736
 20
655.2833508328705
 30
0.0
 41
1.0
 10
-6534.8217621985641
 20
655.30137165026224
 30
0.0
 41
1.0
 10
-6534.8014789375184
 20
655.44968669994694
 30
0.0
 41
0.9991121410637943
 10
-6534.7937535839319
 20
655.59918279873762
 30
0.0
 41
1.0
 10
-6534.7928347939078
 20
655.61696263530666
 30
0.0
 41
1.0
 10
-6534.7919160038837
 20
655.6347424718756
 30
0.0
 41
1.0
 10
-6534.7860282303436
 20
655.74867889753671
 30
0.0
 41
0.9989792494907037
 10
-6534.7904473224608
 20
655.86268173344217
 30
0.0
 41
1.0
 10
-6534.7910952943294
 20
655.87939797936633
 30
0.0
 41
1.0
 10
-6534.791743266198
 20
655.89611422529049
 30
0.0
 41
1.0
 10
-6534.7948664145788
 20
655.97668456933718
 30
0.0
 41
0.9997820295394727
 10
-6534.8013504119544
 20
656.05705429108457
 30
0.0
 41
1.0
 10
-6534.8078344093319
 20
656.13742401285026
 30
0.0
 41
0.9998335105972659
 10
-6534.8172466048463
 20
656.21750362932119
 30
0.0
 41
1.0
 10
-6534.8188415295208
 20
656.23107335978295
 30
0.0
 41
1.0
 10
-6534.8204364541944
 20
656.24464309024472
 30
0.0
 41
1.0
 10
-6534.8330384990604
 20
656.35186216767761
 30
0.0
 41
0.9996876457878045
 10
-6534.8509824118628
 20
656.45831759541034
 30
0.0
 41
1.0
 10
-6534.8532140750049
 20
656.47155733063153
 30
0.0
 41
1.0
 10
-6534.855445738146
 20
656.48479706585272
 30
0.0
 41
1.0
 10
-6534.8692415595688
 20
656.56664320981656
 30
0.0
 41
0.9995547496495382
 10
-6534.8878948814618
 20
656.64752070701002
 30
0.0
 41
1.0
 10
-6534.8882688383346
 20
656.6491421177243
 30
0.0
 41
1.0
 10
-6534.8886427952084
 20
656.65076352843857
 30
0.0
 41
1.0
 10
-6534.9065482033557
 20
656.7283982042112
 30
0.0
 41
0.9994899427174169
 10
-6534.9293731120324
 20
656.80473148703561
 30
0.0
 41
1.0
 10
-6534.929831638774
 20
656.80626493682814
 30
0.0
 41
1.0
 10
-6534.9302901655165
 20
656.80779838662068
 30
0.0
 41
1.0
 10
-6534.9521980207137
 20
656.88106476987514
 30
0.0
 41
0.9993784877588452
 10
-6534.979213655819
 20
656.95260547502903
 30
0.0
 41
1.0
 10
-6534.9797453468
 20
656.9540134577594
 30
0.0
 41
1.0
 10
-6534.9802770377801
 20
656.95542144048977
 30
0.0
 41
1.0
 10
-6535.0062292909306
 20
657.02414618020066
 30
0.0
 41
0.9992430832255019
 10
-6535.0374458260849
 20
657.09064533225637
 30
0.0
 41
1.0
 10
-6535.0380279421406
 20
657.09188538737226
 30
0.0
 41
1.0
 10
-6535.0386100581964
 20
657.09312544248803
 30
0.0
 41
1.0
 10
-6535.0686623612437
 20
657.15714448432186
 30
0.0
 41
0.9990789632802861
 10
-6535.104092988021
 20
657.21835109607423
 30
0.0
 41
1.0
 10
-6535.1046886941967
 20
657.21938018192327
 30
0.0
 41
1.0
 10
-6535.1052844003734
 20
657.22040926777231
 30
0.0
 41
1.0
 10
-6535.139523614791
 20
657.27955770781307
 30
0.0
 41
0.9988874801120229
 10
-6535.1791828908299
 20
657.33521742024175
 30
0.0
 41
1.0
 10
-6535.1797384168949
 20
657.33599707191843
 30
0.0
 41
1.0
 10
-6535.1802939429608
 20
657.33677672359499
 30
0.0
 41
1.0
 10
-6535.2188421668616
 20
657.39087713265974
 30
0.0
 41
0.9986762060693412
 10
-6535.2627446381375
 20
657.44073084709873
 30
0.0
 41
1.0
 10
-6535.2631885984665
 20
657.44123498891145
 30
0.0
 41
1.0
 10
-6535.2636325587946
 20
657.44173913072405
 30
0.0
 41
1.0
 10
-6535.3066471094107
 20
657.49058456153307
 30
0.0
 41
0.9984621642495761
 10
-6535.3548046661926
 20
657.53436786200905
 30
0.0
 41
1.0
 10
-6535.3550513007049
 20
657.53459209416849
 30
0.0
 41
1.0
 10
-6535.3552979352171
 20
657.53481632632793
 30
0.0
 41
1.0
 10
-6535.4029622229655
 20
657.57815116247559
 30
0.0
 41
0.9982724693853609
 10
-6535.4553808548117
 20
657.61559551299786
 30
0.0
 41
1.0
 10
-6535.507799486656
 20
657.6530398635183
 30
0.0
 41
0.9981399180153983
 10
-6535.5643855500466
 20
657.68382638295986
 30
0.0
 41
1.0
 10
-6535.564431212124
 20
657.68385122611653
 30
0.0
 41
1.0
 10
-6535.5644768742022
 20
657.68387606927331
 30
0.0
 41
1.0
 10
-6535.6211542617511
 20
657.71471227503002
 30
0.0
 41
0.9980927086839422
 10
-6535.6811996128145
 20
657.73832908388147
 30
0.0
 41
1.0
 10
-6535.6816397825287
 20
657.7385022097576
 30
0.0
 41
1.0
 10
-6535.6820799522429
 20
657.73867533563362
 30
0.0
 41
1.0
 10
-6535.7430056427302
 20
657.76263839623539
 30
0.0
 41
0.9981411356560801
 10
-6535.8063941641321
 20
657.77901103774184
 30
0.0
 41
1.0
 10
-6535.8072762808333
 20
657.77923887994723
 30
0.0
 41
1.0
 10
-6535.8081583975345
 20
657.77946672215262
 30
0.0
 41
1.0
 10
-6535.8733111523388
 20
657.79629504806928
 30
0.0
 41
0.9983031812936426
 10
-6535.9399785813339
 20
657.80543440924566
 30
0.0
 41
1.0
 10
-6535.9488496067352
 20
657.80665052791664
 30
0.0
 41
1.0
 10
-6535.9577206321374
 20
657.80786664658774
 30
0.0
 41
1.0
 10
-6536.0120702746372
 20
657.81531737657838
 30
0.0
 41
0.9983887708266322
 10
-6536.0669141239368
 20
657.81656205021238
 30
0.0
 41
1.0
 10
-6536.0749775291551
 20
657.81674504808723
 30
0.0
 41
1.0
 10
-6536.0830409343725
 20
657.81692804596207
 30
0.0
 41
1.0
 10
-6536.1217579732338
 20
657.81780672384571
 30
0.0
 41
0.9998869563082251
 10
-6536.1604839264328
 20
657.81752085448602
 30
0.0
 41
1.0
 10
-6536.1992098796072
 20
657.81723498512656
 30
0.0
 41
0.9999972320078173
 10
-6536.2379340588395
 20
657.8167668855973
 30
0.0
 41
1.0
 10
-6536.2572870754229
 20
657.8165329455079
 30
0.0
 41
1.0
 10
-6536.2766400920054
 20
657.8162990054185
 30
0.0
 41
1.0
 10
-6536.3540703043727
 20
657.81536302571089
 30
0.0
 41
0.99973049450867
 10
-6536.4313736106142
 20
657.81083393192466
 30
0.0
 41
1.0
 10
-6536.4404232523184
 20
657.81030372593477
 30
0.0
 41
1.0
 10
-6536.4494728940226
 20
657.80977351994477
 30
0.0
 41
1.0
 10
-6536.5448754836689
 20
657.80418401417899
 30
0.0
 41
0.9997888306416275
 10
-6536.6399678195148
 20
657.79467904968931
 30
0.0
 41
1.0
 10
-6536.648688881085
 20
657.79380733505741
 30
0.0
 41
1.0
 10
-6536.6574099426562
 20
657.79293562042551
 30
0.0
 41
1.0
 10
-6536.7699444016462
 20
657.78168722667169
 30
0.0
 41
0.9984170238192214
 10
-6536.8805035489959
 20
657.75787114473655
 30
0.0
 41
1.0
 10
-6536.9168846799794
 20
657.750034108931
 30
0.0
 41
1.0
 10
-6536.9532658109629
 20
657.74219707312545
 30
0.0
 41
1.0
 10
-6537.0684568793858
 20
657.7173832066153
 30
0.0
 41
0.9976592854202108
 10
-6537.1791850457957
 20
657.67708452946738
 30
0.0
 41
1.0
 10
-6537.2899132122075
 20
657.63678585231821
 30
0.0
 41
0.9993255074350417
 10
-6537.3973850109996
 20
657.58846895382419
 30
0.0
 41
1.0
 10
-6537.4020101899187
 20
657.58638957762628
 30
0.0
 41
1.0
 10
-6537.4066353688377
 20
657.58431020142837
 30
0.0
 41
1.0
 10
-6537.523357525477
 20
657.53183455053556
 30
0.0
 41
0.9976475078276621
 10
-6537.6318048697894
 20
657.46388656087618
 30
0.0
 41
1.0
 10
-6537.6501472639329
 20
657.452394082056
 30
0.0
 41
1.0
 10
-6537.6684896580764
 20
657.44090160323583
 30
0.0
 41
1.0
 10
-6537.7526918496133
 20
657.38814448247706
 30
0.0
 41
0.9995131336406473
 10
-6537.8334395645652
 20
657.33023827052739
 30
0.0
 41
1.0
 10
-6537.9141872795208
 20
657.27233205857544
 30
0.0
 41
0.9995810107605564
 10
-6537.9914489272587
 20
657.20985037610171
 30
0.0
 41
1.0
 10
-6537.9944189584648
 20
657.20744850464052
 30
0.0
 41
1.0
 10
-6537.997388989671
 20
657.20504663317922
 30
0.0
 41
1.0
 10
-6538.0805906998148
 20
657.13776120778823
 30
0.0
 41
0.9996617837954301
 10
-6538.1601813869493
 20
657.06624075222931
 30
0.0
 41
1.0
 10
-6538.1723121378318
 20
657.05534001923365
 30
0.0
 41
1.0
 10
-6538.1844428887143
 20
657.04443928623789
 30
0.0
 41
1.0
 10
-6538.2527184161099
 20
656.98308667076674
 30
0.0
 41
0.9997267750051154
 10
-6538.3180519243906
 20
656.91861013424443
 30
0.0
 41
1.0
 10
-6538.3833854326358
 20
656.85413359775794
 30
0.0
 41
0.9999667288966544
 10
-6538.4476583757651
 20
656.78859979088179
 30
0.0
 41
1.0
 10
-6538.5164858235676
 20
656.71842213209493
 30
0.0
 41
1.0
 10
-6538.585313271371
 20
656.64824447330818
 30
0.0
 41
1.0
 10
-6538.7872411100661
 20
656.44235534889992
 30
0.0
 41
0.9988205335174915
 10
-6538.9682467270441
 20
656.21785111684108
 30
0.0
 41
1.0
 10
-6538.9988866919502
 20
656.17984786640898
 30
0.0
 41
1.0
 10
-6539.0295266568573
 20
656.14184461597688
 30
0.0
 41
1.0
 10
-6539.2718122036449
 20
655.84133388305713
 30
0.0
 41
0.9997077826755032
 10
-6539.4992901547503
 20
655.52946408884145
 30
0.0
 41
1.0
 10
-6539.5010135698813
 20
655.5271013054612
 30
0.0
 41
1.0
 10
-6539.5027369850122
 20
655.52473852208095
 30
0.0
 41
1.0
 10
-6539.7336617663823
 20
655.20814316110136
 30
0.0
 41
0.9989147567077762
 10
-6539.9341252692684
 20
654.87143369990895
 30
0.0
 41
1.0
 10
-6539.9588664145758
 20
654.82987711935471
 30
0.0
 41
1.0
 10
-6539.9836075598841
 20
654.78832053880035
 30
0.0
 41
1.0
 10
-6540.138818858517
 20
654.52761915435553
 30
0.0
 41
0.9997476598181827
 10
-6540.2821638460227
 20
654.26020940578064
 30
0.0
 41
1.0
 10
-6540.425508833534
 20
653.99279965719359
 30
0.0
 41
0.9996258967110483
 10
-6540.5540170854683
 20
653.71795172056454
 30
0.0
 41
1.0
 10
-6540.5672169949139
 20
653.68972032047736
 30
0.0
 41
1.0
 10
-6540.5804169043595
 20
653.6614889203903
 30
0.0
 41
1.0
 10
-6540.7206256253603
 20
653.36161652243436
 30
0.0
 41
0.999873541394388
 10
-6540.8512269720832
 20
653.05743692296176
 30
0.0
 41
1.0
 10
-6540.8546698001428
 20
653.04941833750047
 30
0.0
 41
1.0
 10
-6540.8581126282015
 20
653.04139975203918
 30
0.0
 41
1.0
 10
-6540.9818283188033
 20
652.75325732349472
 30
0.0
 41
0.9999377418863534
 10
-6541.0990831209783
 20
652.46242585581911
 30
0.0
 41
1.0
 10
-6541.2163379231561
 20
652.17159438813769
 30
0.0
 41
0.9999508299507768
 10
-6541.3278018665405
 20
651.87849471129891
 30
0.0
 41
1.0
 10
-6541.3308826351986
 20
651.87039368534647
 30
0.0
 41
1.0
 10
-6541.3339634038566
 20
651.86229265939403
 30
0.0
 41
1.0
 10
-6541.4515888845899
 20
651.55299093056294
 30
0.0
 41
0.9999609228431918
 10
-6541.5637274874935
 20
651.2416579144616
 30
0.0
 41
1.0
 10
-6541.5666834978128
 20
651.23345107413604
 30
0.0
 41
1.0
 10
-6541.5696395081322
 20
651.22524423381049
 30
0.0
 41
1.0
 10
-6541.6876901316991
 20
650.89749753699152
 30
0.0
 41
0.9999674607408071
 10
-6541.8004376577574
 20
650.56788891702638
 30
0.0
 41
1.0
 10
-6541.8518360483249
 20
650.4176297213196
 30
0.0
 41
1.0
 10
-6541.9032344388925
 20
650.26737052561293
 30
0.0
 41
1.0
 10
-6542.0192450456534
 20
649.92822254310295
 30
0.0
 41
0.9999287532305199
 10
-6542.1271264496272
 20
649.58640180411828
 30
0.0
 41
1.0
 10
-6542.173603705829
 20
649.43913925954712
 30
0.0
 41
1.0
 10
-6542.2200809620317
 20
649.29187671497584
 30
0.0
 41
1.0
 10
-6542.2350078536983
 20
649.24458106482257
 30
0.0
 41
0.9999998223773842
 10
-6542.2498783623278
 20
649.19726765690166
 30
0.0
 41
1.0
 10
-6543.8705344991231
 20
644.04923915511222
 30
0.0
 41
1.0
 10
-6545.4911906359193
 20
638.90121065332278
 30
0.0
 41
1.0
 10
-6546.3964990798104
 20
638.90121065332278
 30
0.0
 41
1.0
 10
-6547.3018075237005
 20
638.90121065332278
 30
0.0
 41
1.0
 10
-6545.449723112315
 20
644.78828257579028
 30
0.0
 41
1.0
 10
-6543.5976387009287
 20
650.67535449825778
 30
0.0
 41
1.0
 10
-6543.5875169426263
 20
650.70739771170747
 30
0.0
 41
1.0
 10
-6543.5149092737765
 20
650.93769725353332
 30
0.0
 41
1.0
 10
-6543.4423016049386
 20
651.16799679532244
 30
0.0
 41
0.9999825681973529
 10
-6543.3724185657402
 20
651.39913769033978
 30
0.0
 41
1.0
 10
-6543.3241275035543
 20
651.55886227391738
 30
0.0
 41
1.0
 10
-6543.2758364413694
 20
651.71858685749498
 30
0.0
 41
1.0
 10
-6543.1786840880641
 20
652.03992207923375
 30
0.0
 41
0.999967252896944
 10
-6543.0867452824541
 20
652.36278762477411
 30
0.0
 41
1.0
 10
-6543.0839563987738
 20
652.372581470201
 30
0.0
 41
1.0
 10
-6543.0811675150935
 20
652.38237531562788
 30
0.0
 41
1.0
 10
-6542.9948064768214
 20
652.68565317039224
 30
0.0
 41
0.9999899749160016
 10
-6542.9111648672961
 20
652.98969225881285
 30
0.0
 41
1.0
 10
-6542.9010589482805
 20
653.02642749648567
 30
0.0
 41
1.0
 10
-6542.890953029264
 20
653.06316273415837
 30
0.0
 41
1.0
 10
-6542.8275232577653
 20
653.29373134725438
 30
0.0
 41
0.9999214200503717
 10
-6542.7698938293834
 20
653.52581768947459
 30
0.0
 41
1.0
 10
-6542.7571279772055
 20
653.57722857485896
 30
0.0
 41
1.0
 10
-6542.7443621250286
 20
653.62863946024322
 30
0.0
 41
1.0
 10
-6542.7122644010105
 20
653.75790403166593
 30
0.0
 41
0.9999828681674587
 10
-6542.6816821490102
 20
653.88753550615138
 30
0.0
 41
1.0
 10
-6542.6510998970225
 20
654.01716698058976
 30
0.0
 41
0.9999389844476763
 10
-6542.6233889082368
 20
654.14744243646771
 30
0.0
 41
1.0
 10
-6542.6162511645107
 20
654.18099854033073
 30
0.0
 41
1.0
 10
-6542.6091134207854
 20
654.21455464419375
 30
0.0
 41
1.0
 10
-6542.5671269445556
 20
654.41194230776989
 30
0.0
 41
0.9998933699439785
 10
-6542.5309226801537
 20
654.61047191552655
 30
0.0
 41
1.0
 10
-6542.5295498549367
 20
654.61799993622344
 30
0.0
 41
1.0
 10
-6542.5281770297206
 20
654.62552795692045
 30
0.0
 41
1.0
 10
-6542.4892271148883
 20
654.83911360605975
 30
0.0
 41
0.9996850305193993
 10
-6542.4610434386304
 20
655.05438461148435
 30
0.0
 41
1.0
 10
-6542.4590484052624
 20
655.06962296559959
 30
0.0
 41
1.0
 10
-6542.4570533718934
 20
655.08486131971483
 30
0.0
 41
1.0
 10
-6542.4296455094327
 20
655.29420654688886
 30
0.0
 41
0.9994697936708125
 10
-6542.4159209502104
 20
655.5048917422381
 30
0.0
 41
1.0
 10
-6542.415443880961
 20
655.51221521444813
 30
0.0
 41
1.0
 10
-6542.4149668117116
 20
655.51953868665817
 30
0.0
 41
1.0
 10
-6542.40219639099
 20
655.71557693756779
 30
0.0
 41
0.9991804893135841
 10
-6542.4053247072625
 20
655.91200578754228
 30
0.0
 41
1.0
 10
-6542.4054085860844
 20
655.91727258896037
 30
0.0
 41
1.0
 10
-6542.4054924649072
 20
655.92253939037846
 30
0.0
 41
1.0
 10
-6542.4084530235359
 20
656.10843463752121
 30
0.0
 41
0.99884483293211
 10
-6542.4292445691599
 20
656.29318722734911
 30
0.0
 41
1.0
 10
-6542.430838642862
 20
656.30735208311557
 30
0.0
 41
1.0
 10
-6542.432432716565
 20
656.32151693888193
 30
0.0
 41
1.0
 10
-6542.450036114783
 20
656.47793981717825
 30
0.0
 41
0.9985503209459737
 10
-6542.4843523870832
 20
656.63156400127173
 30
0.0
 41
1.0
 10
-6542.4919383791512
 20
656.66552432866035
 30
0.0
 41
1.0
 10
-6542.4995243712201
 20
656.69948465604898
 30
0.0
 41
1.0
 10
-6542.5186686593797
 20
656.7851881853494
 30
0.0
 41
0.9991036781373041
 10
-6542.5449935210336
 20
656.86896527268595
 30
0.0
 41
1.0
 10
-6542.5489757464966
 20
656.8816384352192
 30
0.0
 41
1.0
 10
-6542.5529579719605
 20
656.89431159775256
 30
0.0
 41
1.0
 10
-6542.571318382692
 20
656.95274236003524
 30
0.0
 41
0.9998874504367057
 10
-6542.5914235903638
 20
657.01059596223422
 30
0.0
 41
1.0
 10
-6542.6115287980474
 20
657.06844956447287
 30
0.0
 41
0.9994041637542139
 10
-6542.635577410987
 20
657.12477826837437
 30
0.0
 41
1.0
 10
-6542.6397741952087
 20
657.13460833285046
 30
0.0
 41
1.0
 10
-6542.6439709794304
 20
657.14443839732655
 30
0.0
 41
1.0
 10
-6542.671849810421
 20
657.20973856328601
 30
0.0
 41
0.9991846840699188
 10
-6542.7049061671114
 20
657.27257659455859
 30
0.0
 41
1.0
 10
-6542.7060427735069
 20
657.27473721101319
 30
0.0
 41
1.0
 10
-6542.7071793799014
 20
657.27689782746779
 30
0.0
 41
1.0
 10
-6542.7379625238036
 20
657.33541462583707
 30
0.0
 41
0.9989253167923088
 10
-6542.7740319478598
 20
657.39082955422907
 30
0.0
 41
1.0
 10
-6542.7750860725318
 20
657.39244904898806
 30
0.0
 41
1.0
 10
-6542.7761401972039
 20
657.39406854374693
 30
0.0
 41
1.0
 10
-6542.8101013719142
 20
657.44624448261754
 30
0.0
 41
0.998646717284136
 10
-6542.8492985245521
 20
657.49461051624883
 30
0.0
 41
1.0
 10
-6542.8501726532513
 20
657.49568911852521
 30
0.0
 41
1.0
 10
-6542.8510467819506
 20
657.49676772080147
 30
0.0
 41
1.0
 10
-6542.8884956771881
 20
657.54297654987658
 30
0.0
 41
0.998400110427044
 10
-6542.9309224077069
 20
657.58466165724724
 30
0.0
 41
1.0
 10
-6542.9315095458187
 20
657.58523853213023
 30
0.0
 41
1.0
 10
-6542.9320966839296
 20
657.58581540701323
 30
0.0
 41
1.0
 10
-6542.9733491382258
 20
657.62634676461812
 30
0.0
 41
0.9982442159078541
 10
-6543.0191052395594
 20
657.66171532587623
 30
0.0
 41
1.0
 10
-6543.0193200350177
 20
657.66188135851667
 30
0.0
 41
1.0
 10
-6543.019534830476
 20
657.66204739115722
 30
0.0
 41
1.0
 10
-6543.0648613408921
 20
657.6970838871348
 30
0.0
 41
0.9982450060834054
 10
-6543.1140123199666
 20
657.72651567016999
 30
0.0
 41
1.0
 10
-6543.1631632990393
 20
657.75594745320461
 30
0.0
 41
0.9983922639629997
 10
-6543.2153296052038
 20
657.77962708785776
 30
0.0
 41
1.0
 10
-6543.215556482528
 20
657.77973007333912
 30
0.0
 41
1.0
 10
-6543.2157833598521
 20
657.77983305882049
 30
0.0
 41
1.0
 10
-6543.2684034206741
 20
657.80371866444068
 30
0.0
 41
0.9986517147147932
 10
-6543.3232163935409
 20
657.82201978356147
 30
0.0
 41
1.0
 10
-6543.3238943149654
 20
657.82224612999175
 30
0.0
 41
1.0
 10
-6543.3245722363899
 20
657.82247247642204
 30
0.0
 41
1.0
 10
-6543.3807410521149
 20
657.84122628840714
 30
0.0
 41
0.9989435598956618
 10
-6543.4383944392621
 20
657.8547439906406
 30
0.0
 41
1.0
 10
-6543.4394745588452
 20
657.85499724089391
 30
0.0
 41
1.0
 10
-6543.4405546784283
 20
657.85525049114722
 30
0.0
 41
1.0
 10
-6543.500368304748
 20
657.86927469388843
 30
0.0
 41
0.9992249241242184
 10
-6543.5610998136408
 20
657.87855003660297
 30
0.0
 41
1.0
 10
-6543.5625135019318
 20
657.87876594501085
 30
0.0
 41
1.0
 10
-6543.5639271902228
 20
657.87898185341862
 30
0.0
 41
1.0
 10
-6543.6274860756948
 20
657.88868901294859
 30
0.0
 41
0.999439659783419
 10
-6543.6915520122366
 20
657.89412193529506
 30
0.0
 41
1.0
 10
-6543.7106926797151
 20
657.89574510301372
 30
0.0
 41
1.0
 10
-6543.7298333471945
 20
657.8973682707325
 30
0.0
 41
1.0
 10
-6543.8321806186914
 20
657.90604752851607
 30
0.0
 41
0.9987693403119605
 10
-6543.9348842422751
 20
657.90454446506283
 30
0.0
 41
1.0
 10
-6543.9451385765033
 20
657.90439439328861
 30
0.0
 41
1.0
 10
-6543.9553929107315
 20
657.9042443215144
 30
0.0
 41
1.0
 10
-6544.0649486769098
 20
657.90264097722718
 30
0.0
 41
0.9989753644964583
 10
-6544.1739106769237
 20
657.89113797030188
 30
0.0
 41
1.0
 10
-6544.282872676944
 20
657.87963496337602
 30
0.0
 41
0.9983190067307028
 10
-6544.3897714879058
 20
657.8555999715901
 30
0.0
 41
1.0
 10
-6544.3986724395127
 20
657.85359869302738
 30
0.0
 41
1.0
 10
-6544.4075733911195
 20
657.85159741446455
 30
0.0
 41
1.0
 10
-6544.5322741053014
 20
657.82355986555183
 30
0.0
 41
0.9985539388300873
 10
-6544.653243858982
 20
657.78229618950422
 30
0.0
 41
1.0
 10
-6544.6555892899387
 20
657.78149614568974
 30
0.0
 41
1.0
 10
-6544.6579347208954
 20
657.78069610187515
 30
0.0
 41
1.0
 10
-6544.7835953364893
 20
657.73783233819984
 30
0.0
 41
0.9988468746493323
 10
-6544.9045656787903
 20
657.68311425313721
 30
0.0
 41
1.0
 10
-6544.9077485007811
 20
657.68167457857635
 30
0.0
 41
1.0
 10
-6544.9109313227718
 20
657.68023490401561
 30
0.0
 41
1.0
 10
-6545.0382673090435
 20
657.62263746983649
 30
0.0
 41
0.999132288591855
 10
-6545.1603678931042
 20
657.55464213765276
 30
0.0
 41
1.0
 10
-6545.1779699041472
 20
657.5448399356635
 30
0.0
 41
1.0
 10
-6545.1955719151902
 20
657.53503773367413
 30
0.0
 41
1.0
 10
-6545.297748596251
 20
657.47813761789143
 30
0.0
 41
0.9993860037849602
 10
-6545.3956896003247
 20
657.41422160230263
 30
0.0
 41
1.0
 10
-6545.4013079131655
 20
657.41055510761555
 30
0.0
 41
1.0
 10
-6545.4069262260055
 20
657.40688861292847
 30
0.0
 41
1.0
 10
-6545.4936306043837
 20
657.35030558672315
 30
0.0
 41
0.9998821494955784
 10
-6545.578556980211
 20
657.29108735663738
 30
0.0
 41
1.0
 10
-6545.6634833560338
 20
657.23186912655353
 30
0.0
 41
0.9997976482744622
 10
-6545.7459589864438
 20
657.16928271850657
 30
0.0
 41
1.0
 10
-6545.7605952512404
 20
657.1581760287329
 30
0.0
 41
1.0
 10
-6545.7752315160378
 20
657.14706933895923
 30
0.0
 41
1.0
 10
-6545.88697967606
 20
657.06226955135048
 30
0.0
 41
0.999809163080053
 10
-6545.9953299540957
 20
656.97316920064168
 30
0.0
 41
1.0
 10
-6546.0083357065641
 20
656.96247410020305
 30
0.0
 41
1.0
 10
-6546.0213414590326
 20
656.95177899976431
 30
0.0
 41
1.0
 10
-6546.1557032420133
 20
656.84128844817258
 30
0.0
 41
0.9995035112316747
 10
-6546.2828391197672
 20
656.72255463116687
 30
0.0
 41
1.0
 10
-6546.2924864301558
 20
656.71354488500742
 30
0.0
 41
1.0
 10
-6546.3021337405444
 20
656.70453513884809
 30
0.0
 41
1.0
 10
-6546.4255568033141
 20
656.58926876708858
 30
0.0
 41
0.9994630424299299
 10
-6546.5411652091025
 20
656.46616602384915
 30
0.0
 41
1.0
 10
-6546.544848047879
 20
656.46224444433119
 30
0.0
 41
1.0
 10
-6546.5485308866546
 20
656.45832286481323
 30
0.0
 41
1.0
 10
-6546.6567736148918
 20
656.3430632806087
 30
0.0
 41
0.9995160693748544
 10
-6546.7576396444183
 20
656.22129586274139
 30
0.0
 41
1.0
 10
-6546.7595733644966
 20
656.21896143853621
 30
0.0
 41
1.0
 10
-6546.761507084575
 20
656.21662701433104
 30
0.0
 41
1.0
 10
-6546.8585056739494
 20
656.09952844486929
 30
0.0
 41
0.9996561470515605
 10
-6546.9492318926168
 20
655.97750568241963
 30
0.0
 41
1.0
 10
-6546.9553895585177
 20
655.96922389337794
 30
0.0
 41
1.0
 10
-6546.9615472244195
 20
655.96094210433625
 30
0.0
 41
1.0
 10
-6547.0399581112833
 20
655.85548291996963
 30
0.0
 41
0.9998349055174134
 10
-6547.1144853932146
 20
655.74724433630706
 30
0.0
 41
1.0
 10
-6547.1890126751223
 20
655.63900575267849
 30
0.0
 41
0.9999728109572884
 10
-6547.261935571004
 20
655.52967982716882
 30
0.0
 41
1.0
 10
-6547.2632507864419
 20
655.52770805762611
 30
0.0
 41
1.0
 10
-6547.2645660018807
 20
655.52573628808341
 30
0.0
 41
1.0
 10
-6547.3401193285563
 20
655.41246682360907
 30
0.0
 41
0.9999972147318627
 10
-6547.4151371389171
 20
655.29884198079537
 30
0.0
 41
1.0
 10
-6547.4201086815756
 20
655.29131189226905
 30
0.0
 41
1.0
 10
-6547.4250802242332
 20
655.28378180374273
 30
0.0
 41
1.0
 10
-6547.5100411198409
 20
655.15509678397837
 30
0.0
 41
0.9999371979002749
 10
-6547.5920964692286
 20
655.02453987022875
 30
0.0
 41
1.0
 10
-6547.5956053536047
 20
655.01895694214136
 30
0.0
 41
1.0
 10
-6547.5991142379798
 20
655.01337401405408
 30
0.0
 41
1.0
 10
-6547.6881873561097
 20
654.87165124414253
 30
0.0
 41
0.9998272025611313
 10
-6547.7719307469897
 20
654.72671536740461
 30
0.0
 41
1.0
 10
-6547.7871459190137
 20
654.70038225294718
 30
0.0
 41
1.0
 10
-6547.8023610910386
 20
654.67404913848975
 30
0.0
 41
1.0
 10
-6547.9165348259667
 20
654.47644703283822
 30
0.0
 41
0.9995217214837806
 10
-6548.0182745155207
 20
654.2721647049782
 30
0.0
 41
1.0
 10
-6548.0259180781613
 20
654.2568172552642
 30
0.0
 41
1.0
 10
-6548.033561640802
 20
654.24146980555008
 30
0.0
 41
1.0
 10
-6548.1204669333893
 20
654.06697334747309
 30
0.0
 41
0.9998269762607548
 10
-6548.200821399656
 20
653.88936506076107
 30
0.0
 41
1.0
 10
-6548.2811758659209
 20
653.71175677405267
 30
0.0
 41
0.9998944747388449
 10
-6548.3563366604776
 20
653.53188904844387
 30
0.0
 41
1.0
 10
-6548.3612903300955
 20
653.52003439346299
 30
0.0
 41
1.0
 10
-6548.3662439997133
 20
653.508179738482
 30
0.0
 41
1.0
 10
-6548.4468910602445
 20
653.31518279851707
 30
0.0
 41
0.9999506734414585
 10
-6548.5236885891318
 20
653.12062199369814
 30
0.0
 41
1.0
 10
-6548.5382885544659
 20
653.08363407173147
 30
0.0
 41
1.0
 10
-6548.5528885198
 20
653.0466461497648
 30
0.0
 41
1.0
 10
-6548.6004861181073
 20
652.92606118866115
 30
0.0
 41
0.9999912393948812
 10
-6548.6470725620584
 20
652.80508198614621
 30
0.0
 41
1.0
 10
-6548.6936590061223
 20
652.6841027833425
 30
0.0
 41
0.9999927113933077
 10
-6548.7393203005522
 20
652.56277137574386
 30
0.0
 41
1.0
 10
-6548.7532887319112
 20
652.52565439384716
 30
0.0
 41
1.0
 10
-6548.7672571632702
 20
652.48853741195057
 30
0.0
 41
1.0
 10
-6548.8408553204472
 20
652.29297204048612
 30
0.0
 41
0.9999487550947662
 10
-6548.9104789454059
 20
652.09595667534109
 30
0.0
 41
1.0
 10
-6548.934072555392
 20
652.02919336490822
 30
0.0
 41
1.0
 10
-6548.9576661653791
 20
651.96243005447536
 30
0.0
 41
1.0
 10
-6549.0523517997126
 20
651.69449621975491
 30
0.0
 41
0.9999808436931007
 10
-6549.1437133883173
 20
651.42541078859335
 30
0.0
 41
1.0
 10
-6549.2350749769303
 20
651.15632535741327
 30
0.0
 41
0.9999873932903873
 10
-6549.3237296856296
 20
650.88633600245635
 30
0.0
 41
1.0
 10
-6549.3438220425223
 20
650.825146669633
 30
0.0
 41
1.0
 10
-6549.3639143994151
 20
650.76395733680965
 30
0.0
 41
1.0
 10
-6549.4927538218981
 20
650.37158931621377
 30
0.0
 41
0.9999794883029052
 10
-6549.6165566068848
 20
649.97760310984154
 30
0.0
 41
1.0
 10
-6549.6277088662673
 20
649.94211249977911
 30
0.0
 41
1.0
 10
-6549.6388611256498
 20
649.9066218897168
 30
0.0
 41
1.0
 10
-6549.7814192895785
 20
649.45294913753128
 30
0.0
 41
0.9999982761761435
 10
-6549.9222917296183
 20
648.99875011532936
 30
0.0
 41
1.0
 10
-6551.5104320621904
 20
643.94998038432607
 30
0.0
 41
1.0
 10
-6553.0985723947633
 20
638.90121065332278
 30
0.0
 41
1.0
 10
-6554.0473230062398
 20
638.90121065332278
 30
0.0
 41
1.0
 10
-6554.9960736177163
 20
638.90121065332278
 30
0.0
 41
1.0
 10
-6551.7577891315632
 20
649.22853285326892
 30
0.0
 41
1.0
 10
-6548.5195046454101
 20
659.55585505321505
 30
0.0
 41
1.0
  0
LWPOLYLINE
  5
56
100
AcDbEntity
  8
0
370
              15
390
0
  6
Continuous
 62
               7
100
AcDbPolyline
 90
      232
 70
             128
 10
-6574.2230504192366
 20
658.47151222169987
 42
0.000437080070577
 10
-6574.2759275928993
 20
658.40284558297697
 10
-6574.3152118244361
 20
658.35173846954706
 42
0.0030481992196
 10
-6574.4455505415335
 20
658.18001677723123
 10
-6574.4840622133061
 20
658.12862999341473
 42
0.0042058245754975
 10
-6574.6880472640132
 20
657.85162424829014
 10
-6574.740452386477
 20
657.7791914015603
 42
0.0120948898732343
 10
-6575.0364963032243
 20
657.3484417970318
 10
-6575.1326888023586
 20
657.20096106178789
 42
0.0141601263949804
 10
-6575.4363328492818
 20
656.70529172505098
 10
-6575.4758701166875
 20
656.63644775765499
 42
0.0071131081298998
 10
-6575.6811424399457
 20
656.2669449587811
 42
0.0068458791006702
 10
-6575.8760219667902
 20
655.89185339530309
 10
-6575.8828338292469
 20
655.87829168158135
 42
0.0064120880288119
 10
-6576.0809760792863
 20
655.4708672066721
 10
-6576.0885107648082
 20
655.45485534994123
 42
0.0058857236442729
 10
-6576.2912661566661
 20
655.01047923893725
 10
-6576.2994410829742
 20
654.99198908527228
 42
0.0053189741901023
 10
-6576.5081453956464
 20
654.50602561134031
 10
-6576.5168932013221
 20
654.48504373315825
 42
0.0047503650424394
 10
-6576.7328669274939
 20
653.95284429989795
 10
-6576.7421351758221
 20
653.92936792384069
 42
0.0042071762186301
 10
-6576.9666825595968
 20
653.34627432964396
 10
-6576.976431961898
 20
653.32030815490123
 42
0.0036680086484012
 10
-6577.2108866052367
 20
652.6816727702959
 10
-6577.2210943850578
 20
652.65322423602549
 42
0.003257314263162
 10
-6577.4667266710567
 20
651.95437157617994
 10
-6577.5353771919135
 20
651.7549084920804
 42
0.0026133366648023
 10
-6577.8838223906232
 20
650.72504520854727
 10
-6577.9470791781259
 20
650.53481437314895
 42
0.0020592950743136
 10
-6578.160942247091
 20
649.88271072054113
 10
-6578.1639940382693
 20
649.87327423208501
 42
0.002560992853409
 10
-6578.3658145397403
 20
649.23812900976554
 10
-6578.3684059068582
 20
649.22982666885264
 42
0.0031362356232021
 10
-6578.5578966925441
 20
648.60906381264545
 10
-6578.5600277354688
 20
648.60192250644457
 42
0.0037229918026637
 10
-6578.7368281223971
 20
647.99293720446019
 10
-6578.7385067115883
 20
647.98699031433944
 42
0.0043077623706976
 10
-6578.902247513669
 20
647.38717158251677
 42
0.0047654161829194
 10
-6579.0550762361936
 20
646.78448549357836
 10
-6579.0895408450233
 20
646.64292371646468
 42
0.0112969368453062
 10
-6579.2854052031735
 20
645.75123155580775
 10
-6579.3134115922639
 20
645.60840350974263
 42
0.0130056762571318
 10
-6579.5142488359106
 20
644.42146243809771
 10
-6579.5347885860556
 20
644.27738432463366
 42
0.013872153214419
 10
-6579.6384915905955
 20
643.37055483879499
 10
-6579.6577870784995
 20
643.1470571169134
 42
0.0071254697008047
 10
-6579.6911337244255
 20
642.68387010802269
 10
-6579.6960946985855
 20
642.59786611352035
 42
0.0028881799200026
 10
-6579.7112329918791
 20
642.30612440361995
 42
0.0060297297125444
 10
-6579.721165191655
 20
642.01417546751054
 10
-6579.7222274733213
 20
641.96578309559095
 42
0.02295231641434
 10
-6579.7144964455365
 20
641.64302824928848
 10
-6579.7102706720161
 20
641.58262471527826
 42
0.0123673300685701
 10
-6579.6911920254979
 20
641.38150399009749
 42
0.0128577674449968
 10
-6579.6619966350981
 20
641.18160614021099
 10
-6579.6548707617039
 20
641.14027732557372
 42
0.0285717853767647
 10
-6579.5903767600066
 20
640.86216117425056
 10
-6579.5767082363463
 20
640.815506404796
 42
0.031628309914314
 10
-6579.4608976564277
 20
640.49649190295736
 10
-6579.457848964671
 20
640.48950553062878
 42
0.033898482423103
 10
-6579.3084172537056
 20
640.20193956644266
 10
-6579.3061085243371
 20
640.19814853716912
 42
0.0350228718346062
 10
-6579.1237482336619
 20
639.94109655248985
 10
-6579.1228629818888
 20
639.9400174747276
 42
0.0347476747525712
 10
-6578.9084382946467
 20
639.71283242750576
 42
0.0331337701900124
 10
-6578.6651949689031
 20
639.51670376543018
 10
-6578.6640948703844
 20
639.51593106225585
 42
0.0305233319065256
 10
-6578.3955501748178
 20
639.35080289216819
 10
-6578.3923201303096
 20
639.34907888030182
 42
0.0273744481160106
 10
-6578.0997664187289
 20
639.21294073640888
 10
-6578.0946618835978
 20
639.21089715194171
 42
0.0240964406202768
 10
-6577.7791848079478
 20
639.10191342565918
 10
-6577.7726014787422
 20
639.09998868598529
 42
0.0209636179803021
 10
-6577.4352013260914
 20
639.01652053805367
 10
-6577.4275688656408
 20
639.01496862505178
 42
0.0181388704680023
 10
-6577.0692464736421
 20
638.95555253183784
 10
-6577.0609656252636
 20
638.95448634802074
 42
0.0156086547575143
 10
-6576.6827782610762
 20
638.91775016144413
 10
-6576.6395830087495
 20
638.91491165896525
 42
0.0137148329022995
 10
-6576.3119098634488
 20
638.90239140371375
 10
-6576.2659736735086
 20
638.9018969705985
 42
0.0051057823872149
 10
-6576.029828086931
 20
638.9017667161894
 42
0.0052256693324102
 10
-6575.7937308031533
 20
638.90651554065357
 10
-6575.7235040194028
 20
638.90866250666772
 42
0.0161507179034832
 10
-6575.3477669413032
 20
638.93231287699427
 10
-6575.3277539809296
 20
638.93422307228184
 42
0.0101216737832191
 10
-6574.9137267594333
 20
638.9822160026481
 10
-6574.8796734700118
 20
638.98686369945699
 42
0.0245291776396292
 10
-6574.4028838144604
 20
639.07593877753322
 10
-6574.3180604989393
 20
639.09613469787848
 42
0.0143509212551458
 10
-6573.9614293949962
 20
639.19193933165786
 42
0.0156557857039142
 10
-6573.611213330284
 20
639.30895054747134
 10
-6573.6037121157751
 20
639.31172070923083
 42
0.017013733363625
 10
-6573.2471161200911
 20
639.45737832410305
 10
-6573.2400121976862
 20
639.46056615966563
 42
0.0183105364418704
 10
-6572.8806625295338
 20
639.63790120148246
 10
-6572.8737157648811
 20
639.6416516363621
 42
0.0194899958147938
 10
-6572.5152350238968
 20
639.85363061825285
 10
-6572.5082211445606
 20
639.85815596054783
 42
0.020486985296583
 10
-6572.1542068424596
 20
640.10767597563904
 10
-6572.1469412338793
 20
640.11325604098204
 42
0.021251693855345
 10
-6571.8009513027673
 20
640.40316003788041
 10
-6571.7544346087025
 20
640.44562734796421
 42
0.0215248918248358
 10
-6571.4944084398085
 20
640.70439162696482
 10
-6571.4493787054189
 20
640.75323574832441
 42
0.0114578554971312
 10
-6571.2945865517504
 20
640.92905868177297
 10
-6571.2833920157536
 20
640.94237744533018
 42
0.0061531305141385
 10
-6571.156917369769
 20
641.09666697862406
 42
0.0006325587144981
 10
-6571.032538885187
 20
641.2526703548408
 10
-6571.0094987505654
 20
641.28164387495917
 42
0.0041897761530472
 10
-6570.8410433466306
 20
641.49716325097233
 10
-6570.782581226701
 20
641.57326459800618
 42
0.0092993880037574
 10
-6570.5059692995019
 20
641.94754336185611
 10
-6570.4235748062865
 20
642.06348036544716
 42
0.0159321727083549
 10
-6570.0769683236358
 20
642.58565458621479
 10
-6570.0326121882244
 20
642.65733415050033
 42
0.0085547317020774
 10
-6569.7981004229205
 20
643.05120909968946
 42
0.0084601156885079
 10
-6569.5771242454784
 20
643.45283594872183
 10
-6569.5690087716484
 20
643.46819563099461
 42
0.0081429654283876
 10
-6569.3457595012133
 20
643.90791714353077
 10
-6569.3368993370268
 20
643.92609598555475
 42
0.0076574581332004
 10
-6569.1104918264637
 20
644.40927886079828
 10
-6569.1010121857362
 20
644.43034333911089
 42
0.0070682724196771
 10
-6568.8705672779415
 20
644.96238064386307
 10
-6568.8605769939477
 20
644.98636983290373
 42
0.0064559514452424
 10
-6568.6252437857474
 20
645.57268209947028
 10
-6568.6148344276007
 20
645.59961702486487
 42
0.0058311413906577
 10
-6568.3737876908499
 20
646.24564911921959
 10
-6568.3630326134517
 20
646.27553346040906
 42
0.0052312425819588
 10
-6568.1154513354359
 20
646.98673587416863
 10
-6568.1044074990305
 20
647.01956258631333
 42
0.0046680544797629
 10
-6567.8494790712994
 20
647.80138890205762
 10
-6567.8074869212969
 20
647.93437213921959
 42
0.0041666856438695
 10
-6567.6042009088578
 20
648.59734091436576
 10
-6567.5665384681852
 20
648.72392202204912
 42
0.0015170975169898
 10
-6567.4453518897808
 20
649.13579037351315
 42
-0.0004887993105955
 10
-6567.3250121164829
 20
649.54790878614745
 10
-6567.2485348591617
 20
649.80886617149622
 42
0.0002583378931611
 10
-6566.9753202884958
 20
650.74292287673916
 10
-6566.8935474393993
 20
651.02302213467578
 42
0.000663616967257
 10
-6566.6996796795102
 20
651.69037505784536
 10
-6566.6945830251034
 20
651.70800664093088
 42
0.0010589131328504
 10
-6566.5131343242465
 20
652.34073798377426
 10
-6566.5081522537939
 20
652.35825089069692
 42
0.0015655524452486
 10
-6566.3398820465827
 20
652.95686756999521
 10
-6566.3350518461757
 20
652.97425972890323
 42
0.0021640440479242
 10
-6566.1807618741823
 20
653.53928674694919
 10
-6566.1761276547459
 20
653.55655147696723
 42
0.0028763871860542
 10
-6566.036611936699
 20
654.08851942779006
 10
-6566.0322260724952
 20
654.10564340608789
 42
0.0037310511951313
 10
-6565.9082693806949
 20
654.60509099996841
 10
-6565.9041941604055
 20
654.62205127121695
 42
0.0047652197778963
 10
-6565.7965702598976
 20
655.08952903951899
 10
-6565.7928796605693
 20
655.10628859469
 42
0.0060276699300768
 10
-6565.7023495614212
 20
655.5423643898132
 10
-6565.6991308711513
 20
655.55886560402087
 42
0.0075824337738949
 10
-6565.6264415617161
 20
655.96413276854855
 10
-6565.6237961843462
 20
655.98028771593272
 42
0.0095130624592003
 10
-6565.5696809487054
 20
656.35537706907087
 10
-6565.5626947248229
 20
656.41131062718239
 42
0.0121054653217709
 10
-6565.5361033942445
 20
656.67620645566126
 10
-6565.5352369044786
 20
656.68760989867974
 42
0.006905082742019
 10
-6565.5201480864471
 20
656.93055112543459
 10
-6565.51901278678
 20
656.95407738245228
 42
0.0169063976690602
 10
-6565.5161855077986
 20
657.15027010978008
 10
-6565.517356159331
 20
657.21060587120951
 42
0.0052007732977898
 10
-6565.5196096079226
 20
657.28619926128135
 42
0.0054038123293514
 10
-6565.5395731197632
 20
657.40621755730319
 10
-6565.544658975632
 20
657.43487604387246
 42
0.0112050460478141
 10
-6565.5800433376889
 20
657.61120248220857
 10
-6565.5978682997302
 20
657.6907440689323
 42
0.0240764467985237
 10
-6565.6887656658746
 20
658.02098110442876
 10
-6565.7073244286858
 20
658.07760126941525
 42
0.0256812331827346
 10
-6565.8506873488805
 20
658.44932547568465
 10
-6565.8560967747007
 20
658.46145681067105
 42
0.0268360501216013
 10
-6566.0255240155511
 20
658.79244994469536
 10
-6566.0310604231854
 20
658.80196961500678
 42
0.0274670231720691
 10
-6566.2232613996002
 20
659.09425698992493
 10
-6566.228642699557
 20
659.10153613745786
 42
0.0275035967108087
 10
-6566.440215579124
 20
659.35705202777035
 10
-6566.4452850800953
 20
659.36253111540634
 42
0.0269557673536772
 10
-6566.6726886235301
 20
659.58317340136307
 10
-6566.6774316813244
 20
659.58730335583357
 42
0.0259124802225756
 10
-6566.9169865127442
 20
659.77499388297622
 10
-6566.9215173579332
 20
659.77817938531155
 42
0.0245162153016762
 10
-6567.1694337110202
 20
659.93491239441698
 10
-6567.1739602573443
 20
659.93747259161773
 42
0.022928258883069
 10
-6567.426379814171
 20
660.06534078411676
 10
-6567.4311603080005
 20
660.06749308387566
 42
0.0212984135662519
 10
-6567.6841982604701
 20
660.16869200112103
 10
-6567.6895025454387
 20
660.17055556388084
 42
0.0197555462349497
 10
-6567.9392808831626
 20
660.24737098184585
 42
0.0183511896772509
 10
-6568.1942096086304
 20
660.30495388881229
 10
-6568.280574805347
 20
660.32115667919595
 42
0.0338057877129027
 10
-6568.5660821546098
 20
660.35496508433664
 10
-6568.6570875596535
 20
660.35954473959816
 42
0.0091990524481942
 10
-6568.7629346682852
 20
660.36292059552011
 42
0.0028333980786299
 10
-6568.8688485842731
 20
660.36374870303689
 10
-6568.8697640373275
 20
660.36375067286087
 42
-0.0023619827821344
 10
-6568.9775100524457
 20
660.36449151393947
 10
-6569.0139152226093
 20
660.36491382040242
 42
0.0008824598462731
 10
-6569.1944712124432
 20
660.36668959864051
 10
-6569.2383326448653
 20
660.36704356016628
 42
0.0038132665768347
 10
-6569.5066155407385
 20
660.36716249623294
 10
-6569.5231491955374
 20
660.36704373008934
 42
0.0060665569333921
 10
-6569.8244296871399
 20
660.36122343066825
 10
-6569.8386800191547
 20
660.36077512270094
 42
0.0080356953335962
 10
-6570.1681387354984
 20
660.34510740063376
 10
-6570.1802087505803
 20
660.3443388176936
 42
0.0098996399115713
 10
-6570.5329718352341
 20
660.31485358849511
 10
-6570.5430175446063
 20
660.31381329229725
 42
0.0117740981362615
 10
-6570.9141744029484
 20
660.2665210447683
 10
-6570.9223970994371
 20
660.26527592819662
 42
0.0137435215129745
 10
-6571.3069859189281
 20
660.19617895463364
 10
-6571.3136429580454
 20
660.19479305840139
 42
0.0158359869391278
 10
-6571.7066400518543
 20
660.09990096991885
 10
-6571.7120532387153
 20
660.09841102905011
 42
0.0180554124027523
 10
-6572.1083682833296
 20
659.97377301281085
 10
-6572.1129250714112
 20
659.97215697654508
 42
0.0203657431286655
 10
-6572.5074025892236
 20
659.81389663502875
 10
-6572.5115461282294
 20
659.81203501358743
 42
0.0226819684661883
 10
-6572.8989821844352
 20
659.61639243491538
 10
-6572.9031819754518
 20
659.61402684299662
 42
0.0248634984597979
 10
-6573.2783639166282
 20
659.37740019705336
 10
-6573.3265588454133
 20
659.34354315522648
 42
0.0267044190889211
 10
-6573.6008515423337
 20
659.12810277935557
 42
0.013930300220601
 10
-6573.8570187082805
 20
658.89086393843513
 10
-6573.861872093993
 20
658.88611127558352
 42
0.0283460963444098
 10
-6574.10594468822
 20
658.61838061513879
 10
-6574.1456131933774
 20
658.56957903766533
 42
0.0070695364840795
 10
-6574.2230504192366
 20
658.47151222169987
 42
0.0070695364840795
  0
LWPOLYLINE
  5
57
100
AcDbEntity
  8
0
370
              15
390
0
  6
Continuous
 62
               7
100
AcDbPolyline
 90
      226
 70
             128
 10
-6577.751870856483
 20
642.74992341551592
 42
-0.0026277636639537
 10
-6577.7519487402842
 20
642.81669534111506
 10
-6577.7517313820517
 20
642.86985055870207
 42
-0.0088680296783635
 10
-6577.7479547657604
 20
643.04286634103471
 10
-6577.7456084066453
 20
643.10214636655871
 42
-0.0077381705625236
 10
-6577.7295622958854
 20
643.39340686231526
 10
-6577.7286943847093
 20
643.405695096042
 42
-0.0068872530541256
 10
-6577.7020623049621
 20
643.72091684809982
 10
-6577.7008580807751
 20
643.73315782712973
 42
-0.00621300214878
 10
-6577.6632643639532
 20
644.07202751832222
 10
-6577.6617604604126
 20
644.08420139028476
 42
-0.0056726929678355
 10
-6577.6128386009159
 20
644.44639661235362
 10
-6577.6110651552654
 20
644.45849041264353
 42
-0.0052341884502869
 10
-6577.5504545690201
 20
644.84368366807394
 10
-6577.5484365802286
 20
644.85568859815385
 42
-0.0049768450175395
 10
-6577.4756978988162
 20
645.26353316551251
 10
-6577.4514488840805
 20
645.39208114859241
 42
-0.0089029805629507
 10
-6577.3143680322974
 20
646.05385659596539
 10
-6577.2816226569676
 20
646.19888802653827
 42
-0.0080318257101355
 10
-6577.0520740426318
 20
647.14459765837341
 10
-6577.0400891161789
 20
647.19072829358208
 42
-0.0074265721320123
 10
-6576.7560775773372
 20
648.22079287193515
 10
-6576.7361980341993
 20
648.28892693259536
 42
-0.0069711922700393
 10
-6576.4088934557058
 20
649.35519467287997
 10
-6576.3489415085769
 20
649.54121603132228
 42
-0.0052070422879777
 10
-6576.119516283341
 20
650.22848810828191
 10
-6576.1022350912217
 20
650.27851538874631
 42
-0.0009167004447787
 10
-6575.8991432038792
 20
650.8629712370531
 42
-0.0025162726954217
 10
-6575.6920455736445
 20
651.44601250113647
 10
-6575.6548209618477
 20
651.54916204701749
 42
-0.0028212681468675
 10
-6575.4066450428472
 20
652.22489267929211
 10
-6575.3968142801687
 20
652.2512001237767
 42
-0.0031964916836633
 10
-6575.1605220224346
 20
652.87140488609589
 10
-6575.1508875684176
 20
652.89621487628551
 42
-0.0036281836443645
 10
-6574.925781607335
 20
653.46365555713226
 10
-6574.9163431971501
 20
653.48695298870291
 42
-0.0041269166831521
 10
-6574.7017255005176
 20
654.00439388461336
 10
-6574.6690925441035
 20
654.08127233095843
 42
-0.0047472213064122
 10
-6574.5120477385435
 20
654.44169379885784
 10
-6574.5051536572537
 20
654.45711439637171
 42
-0.0025651659978786
 10
-6574.3567956234856
 20
654.78444245193828
 42
-0.0057144635004678
 10
-6574.2030459297439
 20
655.10925212523898
 10
-6574.1750152243203
 20
655.16676050767978
 42
-0.0065388068368479
 10
-6573.9915481965727
 20
655.53099300435997
 10
-6573.9830897408228
 20
655.54725258367432
 42
-0.0074510843044376
 10
-6573.8069074949162
 20
655.87394086485222
 10
-6573.7987278244145
 20
655.88858164206931
 42
-0.0084648979879542
 10
-6573.6290939712853
 20
656.18049065308219
 10
-6573.6212378448108
 20
656.19349764471076
 42
-0.0095638542829038
 10
-6573.4574023972036
 20
656.45338651671159
 10
-6573.4499274535401
 20
656.46475587815451
 42
-0.0107191626800484
 10
-6573.2911258731438
 20
656.6953671127111
 10
-6573.2841091394048
 20
656.70510320508674
 42
-0.0118458573907386
 10
-6573.1295610408997
 20
656.9091754003864
 42
-0.0129184518185711
 10
-6572.9651084172892
 20
657.10533591656622
 10
-6572.9349636449315
 20
657.13946199545978
 42
-0.0217742579637769
 10
-6572.7583513226
 20
657.32266876570645
 10
-6572.7476057781241
 20
657.33288559892446
 42
-0.0097266568661068
 10
-6572.5815481592836
 20
657.48473317334674
 42
-0.0187720905743204
 10
-6572.4072005834023
 20
657.62680202672993
 10
-6572.3764945927142
 20
657.64996110913694
 42
-0.0179428207521344
 10
-6572.1440738727242
 20
657.81251328624376
 10
-6572.1404215457815
 20
657.81487722114912
 42
-0.0170047877661852
 10
-6571.9046579082778
 20
657.956337735283
 10
-6571.9008749195336
 20
657.95843604031791
 42
-0.0160190788381458
 10
-6571.6639663718961
 20
658.08008734230737
 42
-0.0151102861505267
 10
-6571.4199345894376
 20
658.18677011836689
 10
-6571.367548087238
 20
658.20781025125666
 42
-0.0271945441876904
 10
-6571.0088855281774
 20
658.32967506196314
 10
-6570.9398207276981
 20
658.34902460322701
 42
-0.0237596594030179
 10
-6570.5240238806691
 20
658.44447531521052
 10
-6570.4559610269453
 20
658.45673000333613
 42
-0.0213715440571881
 10
-6570.1700860954934
 20
658.49567703484718
 10
-6570.109938929274
 20
658.50126674954822
 42
-0.0101465655794916
 10
-6569.9424463972809
 20
658.51341029281218
 10
-6569.9331060110781
 20
658.51389720780969
 42
-0.0100375910918043
 10
-6569.78395191052
 20
658.51867302573464
 10
-6569.7736926408379
 20
658.51879546474913
 42
-0.0103625633365357
 10
-6569.6449846461855
 20
658.51766403122247
 10
-6569.6227189949186
 20
658.51700667275759
 42
-0.0115689250263471
 10
-6569.5386682573899
 20
658.51257716651241
 42
-0.0072438037402144
 10
-6569.4548299779517
 20
658.50498796676322
 10
-6569.4380294684779
 20
658.50322142403888
 42
-0.0217917313092292
 10
-6569.3214597051629
 20
658.48580153131752
 10
-6569.2558596145936
 20
658.47305492290263
 42
-0.0332943556761907
 10
-6569.0514674495698
 20
658.41901463159627
 10
-6569.0212948810167
 20
658.40884655447701
 42
-0.0184824084793915
 10
-6568.8827898245545
 20
658.3563955390913
 42
-0.0198002050667149
 10
-6568.7487154840601
 20
658.29351147889486
 10
-6568.746828846678
 20
658.29253369201206
 42
-0.0212242342967016
 10
-6568.6146899042769
 20
658.21677095321945
 10
-6568.6128746087325
 20
658.21562515101061
 42
-0.0226090605788175
 10
-6568.4843707075079
 20
658.12614550744365
 10
-6568.4825262657732
 20
658.12473325445865
 42
-0.0238457052235159
 10
-6568.3593441844841
 20
658.02073735859994
 10
-6568.3573914559211
 20
658.01892248083016
 42
-0.02481605641659
 10
-6568.2411899486196
 20
657.8996478796214
 10
-6568.2390863152177
 20
657.89726254591699
 42
-0.0254109591463086
 10
-6568.1314810973508
 20
657.76197415995057
 10
-6568.1292330754386
 20
657.75883261155207
 42
-0.0255528488304964
 10
-6568.0317863966411
 20
657.60680555731733
 10
-6568.0294552967252
 20
657.60272394571018
 42
-0.0252146793216795
 10
-6567.9436742707176
 20
657.43322169971589
 10
-6567.9413720315588
 20
657.42803961780032
 42
-0.0244265635932122
 10
-6567.8687173377948
 20
657.24029304574617
 10
-6567.8594709363242
 20
657.21242762740235
 42
-0.0231319612889525
 10
-6567.8135481573372
 20
657.04912658061426
 42
-0.0112130424382745
 10
-6567.7789121347996
 20
656.8829229804312
 10
-6567.7777096096861
 20
656.87642639353828
 42
-0.0210527881237531
 10
-6567.752023134316
 20
656.69537074810194
 10
-6567.7485125394933
 20
656.65996519954979
 42
-0.019002989239184
 10
-6567.7330710659471
 20
656.40642935324252
 10
-6567.7322610895044
 20
656.3709537389085
 42
-0.0137974553674644
 10
-6567.7338099423405
 20
656.04592233218045
 10
-6567.7346553972948
 20
656.01980358762546
 42
-0.0081336634238991
 10
-6567.749514732518
 20
655.71445611998297
 42
-0.0073526923603601
 10
-6567.7738232658867
 20
655.40970787576987
 10
-6567.7750846896761
 20
655.3963712010318
 42
-0.0066886138691144
 10
-6567.8108202757285
 20
655.06578515748618
 10
-6567.8124773651925
 20
655.05216353854314
 42
-0.006135918735943
 10
-6567.8603279672543
 20
654.69539955836842
 10
-6567.8623654683161
 20
654.6815047556139
 42
-0.0056698610060316
 10
-6567.9230157990905
 20
654.29822618672802
 10
-6567.9254212324058
 20
654.28406706754515
 42
-0.0052721077264137
 10
-6567.9995534332138
 20
653.87393972782434
 10
-6568.0023165820476
 20
653.85952309248125
 42
-0.0049289272181318
 10
-6568.0906107001592
 20
653.4222145813028
 10
-6568.0937231948301
 20
653.40754572854303
 42
-0.0047415956716635
 10
-6568.1969611863524
 20
652.94274897117418
 10
-6568.2317293967217
 20
652.79294187574919
 42
-0.0084404470905887
 10
-6568.4217458402891
 20
652.03271785123468
 10
-6568.4278725282793
 20
652.00985372706464
 42
-0.0039635940262369
 10
-6568.6493262125259
 20
651.20886486294978
 10
-6568.6627030077434
 20
651.16193324622543
 42
-0.0072475040844548
 10
-6568.9301498955838
 20
650.27271352990351
 10
-6569.0003622224385
 20
650.05097317984814
 42
-0.0051345458824477
 10
-6569.2871215944924
 20
649.17664799205204
 10
-6569.3086478611976
 20
649.11322172510575
 42
-0.0019150016607468
 10
-6569.564181268126
 20
648.36967260469601
 10
-6569.5706488725273
 20
648.35108513976093
 42
-0.0021524362748464
 10
-6569.8191269235867
 20
647.64675931806653
 10
-6569.8283373442628
 20
647.62100573982343
 42
-0.0024331286829968
 10
-6570.0645926033194
 20
646.97040643164689
 10
-6570.0736405559364
 20
646.94586312511206
 42
-0.0027449721785644
 10
-6570.298255126705
 20
646.3467332463681
 10
-6570.3071451341366
 20
646.32341065641253
 42
-0.0031083229760006
 10
-6570.5206876207076
 20
645.7734866189362
 10
-6570.5294237523613
 20
645.75139690313324
 42
-0.0035311343288987
 10
-6570.7324649379752
 20
645.24841377734833
 10
-6570.7410502771363
 20
645.22757105380504
 42
-0.0040245640956171
 10
-6570.9341620809173
 20
644.76926173124559
 10
-6570.9425981945333
 20
644.74968236314373
 42
-0.0046015135847149
 10
-6571.1263544876838
 20
644.33377733353132
 10
-6571.1346406655248
 20
644.31548019405045
 42
-0.0052768638262082
 10
-6571.3096181844676
 20
643.93970730980891
 10
-6571.3177503950974
 20
643.92271397125978
 42
-0.006067267564417
 10
-6571.4845300078605
 20
643.58479834815148
 10
-6571.4924994883122
 20
643.56913308921264
 42
-0.0069904648886932
 10
-6571.6516678823436
 20
643.26679728249053
 10
-6571.6594592819574
 20
643.25248673325757
 42
-0.0080637022766114
 10
-6571.8116111423005
 20
642.98345143011011
 10
-6571.8192001749321
 20
642.97052356450888
 42
-0.0093006455673514
 10
-6571.9649408514624
 20
642.73250916600625
 10
-6571.9722915182083
 20
642.72099119682935
 42
-0.0107060778054635
 10
-6572.1122400616441
 20
642.51172087945406
 10
-6572.1193018299155
 20
642.50163533689943
 42
-0.0122723111409853
 10
-6572.2540955481227
 20
642.31884200739921
 10
-6572.2544217716668
 20
642.31842161960208
 42
-0.0141836319614708
 10
-6572.3980033746502
 20
642.14385186176003
 10
-6572.4049511303074
 20
642.13587686148935
 42
-0.0175957477189737
 10
-6572.5448572983369
 20
641.98625597309046
 42
-0.0080466359690671
 10
-6572.6923210633413
 20
641.8439334449647
 10
-6572.7383556078858
 20
641.80091300684808
 42
-0.0269600260384937
 10
-6572.9916358538767
 20
641.58858974833254
 10
-6573.0582029901643
 20
641.53863833371588
 42
-0.0178362839755185
 10
-6573.2981474798207
 20
641.37162040746261
 10
-6573.3053924508304
 20
641.36695189525199
 42
-0.017465073264417
 10
-6573.5417286482625
 20
641.2260909302986
 42
-0.016924013016073
 10
-6573.7871948941065
 20
641.10179867052796
 10
-6573.8331810496784
 20
641.08043671495398
 42
-0.0318883036834701
 10
-6574.1835319053007
 20
640.94409840544279
 10
-6574.2518974404611
 20
640.92239778496867
 42
-0.0284435909903027
 10
-6574.6279475667534
 20
640.82618034949371
 10
-6574.6631057272516
 20
640.81928675366532
 42
-0.0243909341025755
 10
-6574.9765491881717
 20
640.77356572263511
 10
-6575.0268299149402
 20
640.76872017573362
 42
-0.01966392929158
 10
-6575.2424254924699
 20
640.75647189021993
 10
-6575.2942495636353
 20
640.75556862948315
 42
-0.0100501510713777
 10
-6575.4066728452981
 20
640.7558690278363
 10
-6575.438332706648
 20
640.75659009972185
 42
-0.0019752031176103
 10
-6575.4874250433231
 20
640.75790225993126
 10
-6575.4901853465508
 20
640.75798695175774
 42
0.0065378752064447
 10
-6575.5337619213005
 20
640.75875384297251
 42
-0.0167974694681378
 10
-6575.5772927442304
 20
640.7604137414985
 10
-6575.581372083494
 20
640.7607067523935
 42
-0.0081283276324968
 10
-6575.6329318812268
 20
640.76525374603091
 10
-6575.6446714551103
 20
640.76648166360974
 42
-0.0126703440120907
 10
-6575.7193897509087
 20
640.77621645468196
 10
-6575.7421776185802
 20
640.77977471059648
 42
-0.0117852088458544
 10
-6575.8617166044069
 20
640.80133770575242
 10
-6575.9170970561763
 20
640.81268124598819
 42
-0.0251774592305095
 10
-6576.1439410951898
 20
640.87117925542316
 10
-6576.1886602850363
 20
640.8851460747569
 42
-0.014652519986255
 10
-6576.3750532725735
 20
640.94941260195458
 42
-0.0166929435873785
 10
-6576.5570309286932
 20
641.02521973500575
 10
-6576.5616875599735
 20
641.02734463562319
 42
-0.0191684358446262
 10
-6576.7468711912261
 20
641.12058071941476
 10
-6576.75020377698
 20
641.1224219669665
 42
-0.0221181781820903
 10
-6576.9335140808853
 20
641.2345554653391
 10
-6576.9358638848908
 20
641.23613976332831
 42
-0.0254984685393185
 10
-6577.1121540352806
 20
641.36855091330187
 10
-6577.1346361829746
 20
641.38730322223148
 42
-0.0292492648816646
 10
-6577.2594051218202
 20
641.50439602187726
 42
-0.0159048957498717
 10
-6577.3732451192773
 20
641.63241601348398
 10
-6577.3745639098506
 20
641.63399762649635
 42
-0.0343813379580001
 10
-6577.4772011714758
 20
641.77586895226489
 10
-6577.5086927028424
 20
641.82637234436902
 42
-0.0369117275677737
 10
-6577.5945852047344
 20
641.98984958530832
 42
-0.0191751379925944
 10
-6577.6617785902854
 20
642.1622541912966
 10
-6577.6635419140512
 20
642.16734753598917
 42
-0.0378178042199464
 10
-6577.7133366328362
 20
642.3562883120768
 10
-6577.7193319285698
 20
642.38884893029206
 42
-0.0184846046444047
 10
-6577.7400491278604
 20
642.53060175081237
 42
-0.0179866351325747
 10
-6577.7503821329328
 20
642.67349256388275
 10
-6577.7504385753791
 20
642.67505025050605
 42
-0.0085497186139072
 10
-6577.751870856483
 20
642.74992341551592
 42
-0.0085497186139072
  0
ENDBLK
  5
58
100
AcDbEntity
  8
template
390
0
100
AcDbBlockEnd
  0
BLOCK
  5
59
100
AcDbEntity
  8
notes
390
0
100
AcDbBlockBegin
  2
*D2
 70
               1
 10
0.0
 20
0.0
 30
0.0
  3
*D2
  1

  0
LINE
  5
5A
100
AcDbEntity
  8
0
370
              -2
390
0
  6
Continuous
 62
               0
100
AcDbLine
 10
22.450748370901238
 20
824.05562658743679
 30
0.0
 11
22.450748370901238
 21
952.05562658743588
 31
0.0
  0
LINE
  5
5B
100
AcDbEntity
  8
0
370
              -2
390
0
  6
Continuous
 62
               0
100
AcDbLine
 10
-727.54925162909421
 20
824.05562658743679
 30
0.0
 11
-727.54925162909421
 21
952.05562658743588
 31
0.0
  0
LINE
  5
5C
100
AcDbEntity
  8
0
370
              -2
390
0
  6
Continuous
 62
               0
100
AcDbLine
 10
22.450748370901238
 20
952.05562658743588
 30
0.0
 11
-727.54925162909421
 21
952.05562658743588
 31
0.0
  0
CIRCLE
  5
5D
102
{ACAD_REACTORS
330
5E
102
}
100
AcDbEntity
  8
0
370
              -2
390
0
  6
Continuous
 62
               0
100
AcDbCircle
 10
22.450748370901238
 20
952.05562658743588
 30
0.0
 40
4.99969482421875
  0
HATCH
  5
5E
100
AcDbEntity
  8
0
370
              -2
390
0
  6
Continuous
 62
               0
100
AcDbHatch
 10
0.0
 20
0.0
 30
0.0
210
0.0
220
0.0
230
1.0
  2
SOLID
 70
               1
 71
               1
 91
        1
 92
        1
 93
        1
 72
               2
 10
22.450748370901238
 20
952.05562658743588
 40
4.99969482421875
 50
0.0
 51
360.0
 73
               0
 97
        1
330
5D
 75
               0
 76
               1
 98
        1
 10
0.0
 20
0.0
  0
CIRCLE
  5
5F
102
{ACAD_REACTORS
330
60
102
}
100
AcDbEntity
  8
0
370
              -2
390
0
  6
Continuous
 62
               0
100
AcDbCircle
 10
-727.54925162909421
 20
952.05562658743588
 30
0.0
 40
4.99969482421875
  0
HATCH
  5
60
100
AcDbEntity
  8
0
370
              -2
390
0
  6
Continuous
 62
               0
100
AcDbHatch
 10
0.0
 20
0.0
 30
0.0
210
0.0
220
0.0
230
1.0
  2
SOLID
 70
               1
 71
               1
 91
        1
 92
        1
 93
        1
 72
               2
 10
-727.54925162909421
 20
952.05562658743588
 40
4.99969482421875
 50
0.0
 51
360.0
 73
               0
 97
        1
330
5F
 75
               0
 76
               1
 98
        1
 10
0.0
 20
0.0
  0
MTEXT
  5
61
100
AcDbEntity
  8
0
390
0
 62
               0
100
AcDbMText
 10
-365.43208567359943
 20
983.32875158743605
 30
0.0
 40
21.828125
 41
0.0
 71
               1
 72
               1
  1
750
  7
MS UI Gothic
 73
               1
 44
0.8762322015334064
  0
POINT
  5
62
100
AcDbEntity
  8
Defpoints
370
               0
390
0
 62
               0
100
AcDbPoint
 10
-727.54925162909421
 20
799.05562658743679
 30
0.0
  0
POINT
  5
63
100
AcDbEntity
  8
Defpoints
370
               0
390
0
 62
               0
100
AcDbPoint
 10
22.450748370901238
 20
799.05562658743679
 30
0.0
  0
POINT
  5
64
100
AcDbEntity
  8
Defpoints
370
               0
390
0
 62
               0
100
AcDbPoint
 10
22.450748370901238
 20
952.05562658743588
 30
0.0
  0
ENDBLK
  5
65
100
AcDbEntity
  8
notes
390
0
100
AcDbBlockEnd
  0
BLOCK
  5
66
100
AcDbEntity
  8
notes
390
0
100
AcDbBlockBegin
  2
*D3
 70
               1
 10
0.0
 20
0.0
 30
0.0
  3
*D3
  1

  0
LINE
  5
67
100
AcDbEntity
  8
0
370
              -2
390
0
  6
Continuous
 62
               0
100
AcDbLine
 10
-727.54925162909421
 20
824.05562658743588
 30
0.0
 11
-727.54925162909421
 21
902.05562658743588
 31
0.0
  0
LINE
  5
68
100
AcDbEntity
  8
0
370
              -2
390
0
  6
Continuous
 62
               0
100
AcDbLine
 10
-627.57006692378218
 20
734.55229903782742
 30
0.0
 11
-627.57006692378218
 21
902.05562658743588
 31
0.0
  0
LINE
  5
69
100
AcDbEntity
  8
0
370
              -2
390
0
  6
Continuous
 62
               0
100
AcDbLine
 10
-727.54925162909421
 20
902.05562658743588
 30
0.0
 11
-627.57006692378218
 21
902.05562658743588
 31
0.0
  0
CIRCLE
  5
6A
102
{ACAD_REACTORS
330
6B
102
}
100
AcDbEntity
  8
0
370
              -2
390
0
  6
Continuous
 62
               0
100
AcDbCircle
 10
-727.54925162909421
 20
902.05562658743588
 30
0.0
 40
4.99969482421875
  0
HATCH
  5
6B
100
AcDbEntity
  8
0
370
              -2
390
0
  6
Continuous
 62
               0
100
AcDbHatch
 10
0.0
 20
0.0
 30
0.0
210
0.0
220
0.0
230
1.0
  2
SOLID
 70
               1
 71
               1
 91
        1
 92
        1
 93
        1
 72
               2
 10
-727.54925162909421
 20
902.05562658743588
 40
4.99969482421875
 50
0.0
 51
360.0
 73
               0
 97
        1
330
6A
 75
               0
 76
               1
 98
        1
 10
0.0
 20
0.0
  0
CIRCLE
  5
6C
102
{ACAD_REACTORS
330
6D
102
}
100
AcDbEntity
  8
0
370
              -2
390
0
  6
Continuous
 62
               0
100
AcDbCircle
 10
-627.57006692378218
 20
902.05562658743588
 30
0.0
 40
4.99969482421875
  0
HATCH
  5
6D
100
AcDbEntity
  8
0
370
              -2
390
0
  6
Continuous
 62
               0
100
AcDbHatch
 10
0.0
 20
0.0
 30
0.0
210
0.0
220
0.0
230
1.0
  2
SOLID
 70
               1
 71
               1
 91
        1
 92
        1
 93
        1
 72
               2
 10
-627.57006692378218
 20
902.05562658743588
 40
4.99969482421875
 50
0.0
 51
360.0
 73
               0
 97
        1
330
6C
 75
               0
 76
               1
 98
        1
 10
0.0
 20
0.0
  0
MTEXT
  5
6E
100
AcDbEntity
  8
0
390
0
 62
               0
100
AcDbMText
 10
-701.37216095861368
 20
933.32875158743605
 30
0.0
 40
21.828125
 41
0.0
 71
               1
 72
               1
  1
100
  7
MS UI Gothic
 73
               1
 44
0.8762322015334064
  0
POINT
  5
6F
100
AcDbEntity
  8
Defpoints
370
               0
390
0
 62
               0
100
AcDbPoint
 10
-627.57006692378218
 20
709.55229903782742
 30
0.0
  0
POINT
  5
70
100
AcDbEntity
  8
Defpoints
370
               0
390
0
 62
               0
100
AcDbPoint
 10
-727.54925162909421
 20
799.05562658743588
 30
0.0
  0
POINT
  5
71
100
AcDbEntity
  8
Defpoints
370
               0
390
0
 62
               0
100
AcDbPoint
 10
-727.54925162909421
 20
902.05562658743588
 30
0.0
  0
ENDBLK
  5
72
100
AcDbEntity
  8
notes
390
0
100
AcDbBlockEnd
  0
BLOCK
  5
73
100
AcDbEntity
  8
notes
390
0
100
AcDbBlockBegin
  2
*D4
 70
               1
 10
0.0
 20
0.0
 30
0.0
  3
*D4
  1

  0
LINE
  5
74
100
AcDbEntity
  8
0
370
              -2
390
0
  6
Continuous
 62
               0
100
AcDbLine
 10
-627.57006692378218
 20
734.55229903782742
 30
0.0
 11
-627.57006692378218
 21
902.05562658743588
 31
0.0
  0
LINE
  5
75
100
AcDbEntity
  8
0
370
              -2
390
0
  6
Continuous
 62
               0
100
AcDbLine
 10
-460.07006692378218
 20
774.55229903782742
 30
0.0
 11
-460.07006692378218
 21
902.05562658743588
 31
0.0
  0
LINE
  5
76
100
AcDbEntity
  8
0
370
              -2
390
0
  6
Continuous
 62
               0
100
AcDbLine
 10
-627.57006692378218
 20
902.05562658743588
 30
0.0
 11
-460.07006692378218
 21
902.05562658743588
 31
0.0
  0
CIRCLE
  5
77
102
{ACAD_REACTORS
330
78
102
}
100
AcDbEntity
  8
0
370
              -2
390
0
  6
Continuous
 62
               0
100
AcDbCircle
 10
-627.57006692378218
 20
902.05562658743588
 30
0.0
 40
4.99969482421875
  0
HATCH
  5
78
100
AcDbEntity
  8
0
370
              -2
390
0
  6
Continuous
 62
               0
100
AcDbHatch
 10
0.0
 20
0.0
 30
0.0
210
0.0
220
0.0
230
1.0
  2
SOLID
 70
               1
 71
               1
 91
        1
 92
        1
 93
        1
 72
               2
 10
-627.57006692378218
 20
902.05562658743588
 40
4.99969482421875
 50
0.0
 51
360.0
 73
               0
 97
        1
330
77
 75
               0
 76
               1
 98
        1
 10
0.0
 20
0.0
  0
CIRCLE
  5
79
102
{ACAD_REACTORS
330
7A
102
}
100
AcDbEntity
  8
0
370
              -2
390
0
  6
Continuous
 62
               0
100
AcDbCircle
 10
-460.07006692378218
 20
902.05562658743588
 30
0.0
 40
4.99969482421875
  0
HATCH
  5
7A
100
AcDbEntity
  8
0
370
              -2
390
0
  6
Continuous
 62
               0
100
AcDbHatch
 10
0.0
 20
0.0
 30
0.0
210
0.0
220
0.0
230
1.0
  2
SOLID
 70
               1
 71
               1
 91
        1
 92
        1
 93
        1
 72
               2
 10
-460.07006692378218
 20
902.05562658743588
 40
4.99969482421875
 50
0.0
 51
360.0
 73
               0
 97
        1
330
79
 75
               0
 76
               1
 98
        1
 10
0.0
 20
0.0
  0
MTEXT
  5
7B
100
AcDbEntity
  8
0
390
0
 62
               0
100
AcDbMText
 10
-578.74506894239312
 20
933.32875158743605
 30
0.0
 40
21.828125
 41
0.0
 71
               1
 72
               1
  1
167.5
  7
MS UI Gothic
 73
               1
 44
0.8762322015334064
  0
POINT
  5
7C
100
AcDbEntity
  8
Defpoints
370
               0
390
0
 62
               0
100
AcDbPoint
 10
-460.07006692378218
 20
749.55229903782742
 30
0.0
  0
POINT
  5
7D
100
AcDbEntity
  8
Defpoints
370
               0
390
0
 62
               0
100
AcDbPoint
 10
-627.57006692378218
 20
709.55229903782742
 30
0.0
  0
POINT
  5
7E
100
AcDbEntity
  8
Defpoints
370
               0
390
0
 62
               0
100
AcDbPoint
 10
-627.57006692378218
 20
902.05562658743588
 30
0.0
  0
ENDBLK
  5
7F
100
AcDbEntity
  8
notes
390
0
100
AcDbBlockEnd
  0
BLOCK
  5
80
100
AcDbEntity
  8
notes
390
0
100
AcDbBlockBegin
  2
*D5
 70
               1
 10
0.0
 20
0.0
 30
0.0
  3
*D5
  1

  0
LINE
  5
81
100
AcDbEntity
  8
0
370
              -2
390
0
  6
Continuous
 62
               0
100
AcDbLine
 10
-460.07006692378218
 20
774.55229903782742
 30
0.0
 11
-460.07006692378218
 21
902.05562658743588
 31
0.0
  0
LINE
  5
82
100
AcDbEntity
  8
0
370
              -2
390
0
  6
Continuous
 62
               0
100
AcDbLine
 10
-292.57006692378218
 20
734.55229903782742
 30
0.0
 11
-292.57006692378218
 21
902.05562658743588
 31
0.0
  0
LINE
  5
83
100
AcDbEntity
  8
0
370
              -2
390
0
  6
Continuous
 62
               0
100
AcDbLine
 10
-460.07006692378218
 20
902.05562658743588
 30
0.0
 11
-292.57006692378218
 21
902.05562658743588
 31
0.0
  0
CIRCLE
  5
84
102
{ACAD_REACTORS
330
85
102
}
100
AcDbEntity
  8
0
370
              -2
390
0
  6
Continuous
 62
               0
100
AcDbCircle
 10
-460.07006692378218
 20
902.05562658743588
 30
0.0
 40
4.99969482421875
  0
HATCH
  5
85
100
AcDbEntity
  8
0
370
              -2
390
0
  6
Continuous
 62
               0
100
AcDbHatch
 10
0.0
 20
0.0
 30
0.0
210
0.0
220
0.0
230
1.0
  2
SOLID
 70
               1
 71
               1
 91
        1
 92
        1
 93
        1
 72
               2
 10
-460.07006692378218
 20
902.05562658743588
 40
4.99969482421875
 50
0.0
 51
360.0
 73
               0
 97
        1
330
84
 75
               0
 76
               1
 98
        1
 10
0.0
 20
0.0
  0
CIRCLE
  5
86
102
{ACAD_REACTORS
330
87
102
}
100
AcDbEntity
  8
0
370
              -2
390
0
  6
Continuous
 62
               0
100
AcDbCircle
 10
-292.57006692378218
 20
902.05562658743588
 30
0.0
 40
4.99969482421875
  0
HATCH
  5
87
100
AcDbEntity
  8
0
370
              -2
390
0
  6
Continuous
 62
               0
100
AcDbHatch
 10
0.0
 20
0.0
 30
0.0
210
0.0
220
0.0
230
1.0
  2
SOLID
 70
               1
 71
               1
 91
        1
 92
        1
 93
        1
 72
               2
 10
-292.57006692378218
 20
902.05562658743588
 40
4.99969482421875
 50
0.0
 51
360.0
 73
               0
 97
        1
330
86
 75
               0
 76
               1
 98
        1
 10
0.0
 20
0.0
  0
MTEXT
  5
88
100
AcDbEntity
  8
0
390
0
 62
               0
100
AcDbMText
 10
-411.24506894239312
 20
933.32875158743605
 30
0.0
 40
21.828125
 41
0.0
 71
               1
 72
               1
  1
167.5
  7
MS UI Gothic
 73
               1
 44
0.8762322015334064
  0
POINT
  5
89
100
AcDbEntity
  8
Defpoints
370
               0
390
0
 62
               0
100
AcDbPoint
 10
-292.57006692378218
 20
709.55229903782742
 30
0.0
  0
POINT
  5
8A
100
AcDbEntity
  8
Defpoints
370
               0
390
0
 62
               0
100
AcDbPoint
 10
-460.07006692378218
 20
749.55229903782742
 30
0.0
  0
POINT
  5
8B
100
AcDbEntity
  8
Defpoints
370
               0
390
0
 62
               0
100
AcDbPoint
 10
-460.07006692378218
 20
902.05562658743588
 30
0.0
  0
ENDBLK
  5
8C
100
AcDbEntity
  8
notes
390
0
100
AcDbBlockEnd
  0
BLOCK
  5
8D
100
AcDbEntity
  8
notes
390
0
100
AcDbBlockBegin
  2
*D6
 70
               1
 10
0.0
 20
0.0
 30
0.0
  3
*D6
  1

  0
LINE
  5
8E
100
AcDbEntity
  8
0
370
              -2
390
0
  6
Continuous
 62
               0
100
AcDbLine
 10
-749.54925162909603
 20
802.05562658743588
 30
0.0
 11
-876.87006692378054
 21
802.05562658743588
 31
0.0
  0
LINE
  5
8F
100
AcDbEntity
  8
0
370
              -2
390
0
  6
Continuous
 62
               0
100
AcDbLine
 10
-746.54925162909785
 20
322.05562658743634
 30
0.0
 11
-876.87006692378054
 21
322.05562658743634
 31
0.0
  0
LINE
  5
90
100
AcDbEntity
  8
0
370
              -2
390
0
  6
Continuous
 62
               0
100
AcDbLine
 10
-876.87006692378054
 20
802.05562658743588
 30
0.0
 11
-876.87006692378054
 21
322.05562658743634
 31
0.0
  0
CIRCLE
  5
91
102
{ACAD_REACTORS
330
92
102
}
100
AcDbEntity
  8
0
370
              -2
390
0
  6
Continuous
 62
               0
100
AcDbCircle
 10
-876.87006692378054
 20
802.05562658743588
 30
0.0
 40
4.99969482421875
  0
HATCH
  5
92
100
AcDbEntity
  8
0
370
              -2
390
0
  6
Continuous
 62
               0
100
AcDbHatch
 10
0.0
 20
0.0
 30
0.0
210
0.0
220
0.0
230
1.0
  2
SOLID
 70
               1
 71
               1
 91
        1
 92
        1
 93
        1
 72
               2
 10
-876.87006692378054
 20
802.05562658743588
 40
4.99969482421875
 50
0.0
 51
360.0
 73
               0
 97
        1
330
91
 75
               0
 76
               1
 98
        1
 10
0.0
 20
0.0
  0
CIRCLE
  5
93
102
{ACAD_REACTORS
330
94
102
}
100
AcDbEntity
  8
0
370
              -2
390
0
  6
Continuous
 62
               0
100
AcDbCircle
 10
-876.87006692378054
 20
322.05562658743634
 30
0.0
 40
4.99969482421875
  0
HATCH
  5
94
100
AcDbEntity
  8
0
370
              -2
390
0
  6
Continuous
 62
               0
100
AcDbHatch
 10
0.0
 20
0.0
 30
0.0
210
0.0
220
0.0
230
1.0
  2
SOLID
 70
               1
 71
               1
 91
        1
 92
        1
 93
        1
 72
               2
 10
-876.87006692378054
 20
322.05562658743634
 40
4.99969482421875
 50
0.0
 51
360.0
 73
               0
 97
        1
330
93
 75
               0
 76
               1
 98
        1
 10
0.0
 20
0.0
  0
MTEXT
  5
95
100
AcDbEntity
  8
0
390
0
 62
               0
100
AcDbMText
 10
-908.14319192378025
 20
538.24312490526086
 30
0.0
 40
21.828125
 41
0.0
 71
               1
 72
               1
  1
480
  7
MS UI Gothic
 11
0.0
 21
1.0
 31
0.0
 73
               1
 44
0.8762322015334064
  0
POINT
  5
96
100
AcDbEntity
  8
Defpoints
370
               0
390
0
 62
               0
100
AcDbPoint
 10
-721.54925162909785
 20
322.05562658743634
 30
0.0
  0
POINT
  5
97
100
AcDbEntity
  8
Defpoints
370
               0
390
0
 62
               0
100
AcDbPoint
 10
-724.54925162909603
 20
802.05562658743588
 30
0.0
  0
POINT
  5
98
100
AcDbEntity
  8
Defpoints
370
               0
390
0
 62
               0
100
AcDbPoint
 10
-876.87006692378054
 20
802.05562658743588
 30
0.0
  0
ENDBLK
  5
99
100
AcDbEntity
  8
notes
390
0
100
AcDbBlockEnd
  0
BLOCK
  5
9A
100
AcDbEntity
  8
notes
390
0
100
AcDbBlockBegin
  2
*D7
 70
               1
 10
0.0
 20
0.0
 30
0.0
  3
*D7
  1

  0
LINE
  5
9B
100
AcDbEntity
  8
0
370
              -2
390
0
  6
Continuous
 62
               0
100
AcDbLine
 10
-752.54925162909603
 20
-413.86657129611717
 30
0.0
 11
-827.54925162909603
 21
-413.86657129611717
 31
0.0
  0
LINE
  5
9C
100
AcDbEntity
  8
0
370
              -2
390
0
  6
Continuous
 62
               0
100
AcDbLine
 10
-674.36540692851213
 20
-453.86657129611717
 30
0.0
 11
-827.54925162909603
 21
-453.86657129611717
 31
0.0
  0
LINE
  5
9D
100
AcDbEntity
  8
0
370
              -2
390
0
  6
Continuous
 62
               0
100
AcDbLine
 10
-827.54925162909603
 20
-413.86657129611717
 30
0.0
 11
-827.54925162909603
 21
-453.86657129611717
 31
0.0
  0
CIRCLE
  5
9E
102
{ACAD_REACTORS
330
9F
102
}
100
AcDbEntity
  8
0
370
              -2
390
0
  6
Continuous
 62
               0
100
AcDbCircle
 10
-827.54925162909603
 20
-413.86657129611717
 30
0.0
 40
4.99969482421875
  0
HATCH
  5
9F
100
AcDbEntity
  8
0
370
              -2
390
0
  6
Continuous
 62
               0
100
AcDbHatch
 10
0.0
 20
0.0
 30
0.0
210
0.0
220
0.0
230
1.0
  2
SOLID
 70
               1
 71
               1
 91
        1
 92
        1
 93
        1
 72
               2
 10
-827.54925162909603
 20
-413.86657129611717
 40
4.99969482421875
 50
0.0
 51
360.0
 73
               0
 97
        1
330
9E
 75
               0
 76
               1
 98
        1
 10
0.0
 20
0.0
  0
CIRCLE
  5
A0
102
{ACAD_REACTORS
330
A1
102
}
100
AcDbEntity
  8
0
370
              -2
390
0
  6
Continuous
 62
               0
100
AcDbCircle
 10
-827.54925162909603
 20
-453.86657129611717
 30
0.0
 40
4.99969482421875
  0
HATCH
  5
A1
100
AcDbEntity
  8
0
370
              -2
390
0
  6
Continuous
 62
               0
100
AcDbHatch
 10
0.0
 20
0.0
 30
0.0
210
0.0
220
0.0
230
1.0
  2
SOLID
 70
               1
 71
               1
 91
        1
 92
        1
 93
        1
 72
               2
 10
-827.54925162909603
 20
-453.86657129611717
 40
4.99969482421875
 50
0.0
 51
360.0
 73
               0
 97
        1
330
A0
 75
               0
 76
               1
 98
        1
 10
0.0
 20
0.0
  0
MTEXT
  5
A2
100
AcDbEntity
  8
0
390
0
 62
               0
100
AcDbMText
 10
-858.82237662909574
 20
-449.74157129611717
 30
0.0
 40
21.828125
 41
0.0
 71
               1
 72
               1
  1
40
  7
MS UI Gothic
 11
0.0
 21
1.0
 31
0.0
 73
               1
 44
0.8762322015334064
  0
POINT
  5
A3
100
AcDbEntity
  8
Defpoints
370
               0
390
0
 62
               0
100
AcDbPoint
 10
-649.36540692851213
 20
-453.86657129611717
 30
0.0
  0
POINT
  5
A4
100
AcDbEntity
  8
Defpoints
370
               0
390
0
 62
               0
100
AcDbPoint
 10
-727.54925162909603
 20
-413.86657129611717
 30
0.0
  0
POINT
  5
A5
100
AcDbEntity
  8
Defpoints
370
               0
390
0
 62
               0
100
AcDbPoint
 10
-827.54925162909603
 20
-413.86657129611717
 30
0.0
  0
ENDBLK
  5
A6
100
AcDbEntity
  8
notes
390
0
100
AcDbBlockEnd
  0
BLOCK
  5
A7
100
AcDbEntity
  8
notes
390
0
100
AcDbBlockBegin
  2
*D8
 70
               1
 10
0.0
 20
0.0
 30
0.0
  3
*D8
  1

  0
LINE
  5
A8
100
AcDbEntity
  8
0
370
              -2
390
0
  6
Continuous
 62
               0
100
AcDbLine
 10
-752.54925162909603
 20
672.05562658743634
 30
0.0
 11
-827.54925162909603
 21
672.05562658743634
 31
0.0
  0
LINE
  5
A9
100
AcDbEntity
  8
0
370
              -2
390
0
  6
Continuous
 62
               0
100
AcDbLine
 10
-749.54925162909603
 20
802.05562658743588
 30
0.0
 11
-827.54925162909603
 21
802.05562658743588
 31
0.0
  0
LINE
  5
AA
100
AcDbEntity
  8
0
370
              -2
390
0
  6
Continuous
 62
               0
100
AcDbLine
 10
-827.54925162909603
 20
672.05562658743634
 30
0.0
 11
-827.54925162909603
 21
802.05562658743588
 31
0.0
  0
CIRCLE
  5
AB
102
{ACAD_REACTORS
330
AC
102
}
100
AcDbEntity
  8
0
370
              -2
390
0
  6
Continuous
 62
               0
100
AcDbCircle
 10
-827.54925162909603
 20
672.05562658743634
 30
0.0
 40
4.99969482421875
  0
HATCH
  5
AC
100
AcDbEntity
  8
0
370
              -2
390
0
  6
Continuous
 62
               0
100
AcDbHatch
 10
0.0
 20
0.0
 30
0.0
210
0.0
220
0.0
230
1.0
  2
SOLID
 70
               1
 71
               1
 91
        1
 92
        1
 93
        1
 72
               2
 10
-827.54925162909603
 20
672.05562658743634
 40
4.99969482421875
 50
0.0
 51
360.0
 73
               0
 97
        1
330
AB
 75
               0
 76
               1
 98
        1
 10
0.0
 20
0.0
  0
CIRCLE
  5
AD
102
{ACAD_REACTORS
330
AE
102
}
100
AcDbEntity
  8
0
370
              -2
390
0
  6
Continuous
 62
               0
100
AcDbCircle
 10
-827.54925162909603
 20
802.05562658743588
 30
0.0
 40
4.99969482421875
  0
HATCH
  5
AE
100
AcDbEntity
  8
0
370
              -2
390
0
  6
Continuous
 62
               0
100
AcDbHatch
 10
0.0
 20
0.0
 30
0.0
210
0.0
220
0.0
230
1.0
  2
SOLID
 70
               1
 71
               1
 91
        1
 92
        1
 93
        1
 72
               2
 10
-827.54925162909603
 20
802.05562658743588
 40
4.99969482421875
 50
0.0
 51
360.0
 73
               0
 97
        1
330
AD
 75
               0
 76
               1
 98
        1
 10
0.0
 20
0.0
  0
MTEXT
  5
AF
100
AcDbEntity
  8
0
390
0
 62
               0
100
AcDbMText
 10
-861.42686881659574
 20
707.32092702170826
 30
0.0
 40
24.432617187500004
 41
0.0
 71
               1
 72
               1
  1
130
  7
ＭＳ ゴシック
 11
0.0
 21
1.0
 31
0.0
 73
               1
 44
0.7828267384257843
  0
POINT
  5
B0
100
AcDbEntity
  8
Defpoints
370
               0
390
0
 62
               0
100
AcDbPoint
 10
-724.54925162909603
 20
802.05562658743588
 30
0.0
  0
POINT
  5
B1
100
AcDbEntity
  8
Defpoints
370
               0
390
0
 62
               0
100
AcDbPoint
 10
-727.54925162909603
 20
672.05562658743634
 30
0.0
  0
POINT
  5
B2
100
AcDbEntity
  8
Defpoints
370
               0
390
0
 62
               0
100
AcDbPoint
 10
-827.54925162909603
 20
672.05562658743634
 30
0.0
  0
ENDBLK
  5
B3
100
AcDbEntity
  8
notes
390
0
100
AcDbBlockEnd
  0
BLOCK
  5
B4
100
AcDbEntity
  8
notes
390
0
100
AcDbBlockBegin
  2
*D9
 70
               1
 10
0.0
 20
0.0
 30
0.0
  3
*D9
  1

  0
LINE
  5
B5
100
AcDbEntity
  8
0
370
              -2
390
0
  6
Continuous
 62
               0
100
AcDbLine
 10
-752.54925162909603
 20
672.05562658743634
 30
0.0
 11
-827.54925162909603
 21
672.05562658743634
 31
0.0
  0
LINE
  5
B6
100
AcDbEntity
  8
0
370
              -2
390
0
  6
Continuous
 62
               0
100
AcDbLine
 10
-752.54925162909603
 20
347.05562658743634
 30
0.0
 11
-827.54925162909603
 21
347.05562658743634
 31
0.0
  0
LINE
  5
B7
100
AcDbEntity
  8
0
370
              -2
390
0
  6
Continuous
 62
               0
100
AcDbLine
 10
-827.54925162909603
 20
672.05562658743634
 30
0.0
 11
-827.54925162909603
 21
347.05562658743634
 31
0.0
  0
CIRCLE
  5
B8
102
{ACAD_REACTORS
330
B9
102
}
100
AcDbEntity
  8
0
370
              -2
390
0
  6
Continuous
 62
               0
100
AcDbCircle
 10
-827.54925162909603
 20
672.05562658743634
 30
0.0
 40
4.99969482421875
  0
HATCH
  5
B9
100
AcDbEntity
  8
0
370
              -2
390
0
  6
Continuous
 62
               0
100
AcDbHatch
 10
0.0
 20
0.0
 30
0.0
210
0.0
220
0.0
230
1.0
  2
SOLID
 70
               1
 71
               1
 91
        1
 92
        1
 93
        1
 72
               2
 10
-827.54925162909603
 20
672.05562658743634
 40
4.99969482421875
 50
0.0
 51
360.0
 73
               0
 97
        1
330
B8
 75
               0
 76
               1
 98
        1
 10
0.0
 20
0.0
  0
CIRCLE
  5
BA
102
{ACAD_REACTORS
330
BB
102
}
100
AcDbEntity
  8
0
370
              -2
390
0
  6
Continuous
 62
               0
100
AcDbCircle
 10
-827.54925162909603
 20
347.05562658743634
 30
0.0
 40
4.99969482421875
  0
HATCH
  5
BB
100
AcDbEntity
  8
0
370
              -2
390
0
  6
Continuous
 62
               0
100
AcDbHatch
 10
0.0
 20
0.0
 30
0.0
210
0.0
220
0.0
230
1.0
  2
SOLID
 70
               1
 71
               1
 91
        1
 92
        1
 93
        1
 72
               2
 10
-827.54925162909603
 20
347.05562658743634
 40
4.99969482421875
 50
0.0
 51
360.0
 73
               0
 97
        1
330
BA
 75
               0
 76
               1
 98
        1
 10
0.0
 20
0.0
  0
MTEXT
  5
BC
100
AcDbEntity
  8
0
390
0
 62
               0
100
AcDbMText
 10
-861.42686881659574
 20
475.32092702170826
 30
0.0
 40
24.432617187500004
 41
0.0
 71
               1
 72
               1
  1
325
  7
ＭＳ ゴシック
 11
0.0
 21
1.0
 31
0.0
 73
               1
 44
0.7828267384257843
  0
POINT
  5
BD
100
AcDbEntity
  8
Defpoints
370
               0
390
0
 62
               0
100
AcDbPoint
 10
-727.54925162909603
 20
347.05562658743634
 30
0.0
  0
POINT
  5
BE
100
AcDbEntity
  8
Defpoints
370
               0
390
0
 62
               0
100
AcDbPoint
 10
-727.54925162909603
 20
672.05562658743634
 30
0.0
  0
POINT
  5
BF
100
AcDbEntity
  8
Defpoints
370
               0
390
0
 62
               0
100
AcDbPoint
 10
-827.54925162909603
 20
672.05562658743634
 30
0.0
  0
ENDBLK
  5
C0
100
AcDbEntity
  8
notes
390
0
100
AcDbBlockEnd
  0
BLOCK
  5
C1
100
AcDbEntity
  8
notes
390
0
100
AcDbBlockBegin
  2
*D10
 70
               1
 10
0.0
 20
0.0
 30
0.0
  3
*D10
  1

  0
LINE
  5
C2
100
AcDbEntity
  8
0
370
              -2
390
0
  6
Continuous
 62
               0
100
AcDbLine
 10
-319.36540692851213
 20
-408.86657129611717
 30
0.0
 11
-319.36540692851213
 21
-313.86657129611717
 31
0.0
  0
LINE
  5
C3
100
AcDbEntity
  8
0
370
              -2
390
0
  6
Continuous
 62
               0
100
AcDbLine
 10
-599.36540692851213
 20
-408.86657129611717
 30
0.0
 11
-599.36540692851213
 21
-313.86657129611717
 31
0.0
  0
LINE
  5
C4
100
AcDbEntity
  8
0
370
              -2
390
0
  6
Continuous
 62
               0
100
AcDbLine
 10
-319.36540692851213
 20
-313.86657129611717
 30
0.0
 11
-599.36540692851213
 21
-313.86657129611717
 31
0.0
  0
CIRCLE
  5
C5
102
{ACAD_REACTORS
330
C6
102
}
100
AcDbEntity
  8
0
370
              -2
390
0
  6
Continuous
 62
               0
100
AcDbCircle
 10
-319.36540692851213
 20
-313.86657129611717
 30
0.0
 40
4.99969482421875
  0
HATCH
  5
C6
100
AcDbEntity
  8
0
370
              -2
390
0
  6
Continuous
 62
               0
100
AcDbHatch
 10
0.0
 20
0.0
 30
0.0
210
0.0
220
0.0
230
1.0
  2
SOLID
 70
               1
 71
               1
 91
        1
 92
        1
 93
        1
 72
               2
 10
-319.36540692851213
 20
-313.86657129611717
 40
4.99969482421875
 50
0.0
 51
360.0
 73
               0
 97
        1
330
C5
 75
               0
 76
               1
 98
        1
 10
0.0
 20
0.0
  0
CIRCLE
  5
C7
102
{ACAD_REACTORS
330
C8
102
}
100
AcDbEntity
  8
0
370
              -2
390
0
  6
Continuous
 62
               0
100
AcDbCircle
 10
-599.36540692851213
 20
-313.86657129611717
 30
0.0
 40
4.99969482421875
  0
HATCH
  5
C8
100
AcDbEntity
  8
0
370
              -2
390
0
  6
Continuous
 62
               0
100
AcDbHatch
 10
0.0
 20
0.0
 30
0.0
210
0.0
220
0.0
230
1.0
  2
SOLID
 70
               1
 71
               1
 91
        1
 92
        1
 93
        1
 72
               2
 10
-599.36540692851213
 20
-313.86657129611717
 40
4.99969482421875
 50
0.0
 51
360.0
 73
               0
 97
        1
330
C7
 75
               0
 76
               1
 98
        1
 10
0.0
 20
0.0
  0
MTEXT
  5
C9
100
AcDbEntity
  8
0
390
0
 62
               0
100
AcDbMText
 10
-483.17790861068806
 20
-282.59344629611724
 30
0.0
 40
21.828125
 41
0.0
 71
               1
 72
               1
  1
280
  7
MS UI Gothic
 73
               1
 44
0.8762322015334064
  0
POINT
  5
CA
100
AcDbEntity
  8
Defpoints
370
               0
390
0
 62
               0
100
AcDbPoint
 10
-599.36540692851213
 20
-433.86657129611717
 30
0.0
  0
POINT
  5
CB
100
AcDbEntity
  8
Defpoints
370
               0
390
0
 62
               0
100
AcDbPoint
 10
-319.36540692851213
 20
-433.86657129611717
 30
0.0
  0
POINT
  5
CC
100
AcDbEntity
  8
Defpoints
370
               0
390
0
 62
               0
100
AcDbPoint
 10
-319.36540692851213
 20
-313.86657129611717
 30
0.0
  0
ENDBLK
  5
CD
100
AcDbEntity
  8
notes
390
0
100
AcDbBlockEnd
  0
BLOCK
  5
CE
100
AcDbEntity
  8
notes
390
0
100
AcDbBlockBegin
  2
*D11
 70
               1
 10
0.0
 20
0.0
 30
0.0
  3
*D11
  1

  0
LINE
  5
CF
100
AcDbEntity
  8
0
370
              -2
390
0
  6
Continuous
 62
               0
100
AcDbLine
 10
44.450748370901238
 20
802.05562658743679
 30
0.0
 11
122.45074837090124
 21
802.05562658743679
 31
0.0
  0
LINE
  5
D0
100
AcDbEntity
  8
0
370
              -2
390
0
  6
Continuous
 62
               0
100
AcDbLine
 10
41.450748370901238
 20
472.05562658743634
 30
0.0
 11
122.45074837090124
 21
472.05562658743634
 31
0.0
  0
LINE
  5
D1
100
AcDbEntity
  8
0
370
              -2
390
0
  6
Continuous
 62
               0
100
AcDbLine
 10
122.45074837090124
 20
802.05562658743679
 30
0.0
 11
122.45074837090124
 21
472.05562658743634
 31
0.0
  0
CIRCLE
  5
D2
102
{ACAD_REACTORS
330
D3
102
}
100
AcDbEntity
  8
0
370
              -2
390
0
  6
Continuous
 62
               0
100
AcDbCircle
 10
122.45074837090124
 20
802.05562658743679
 30
0.0
 40
4.99969482421875
  0
HATCH
  5
D3
100
AcDbEntity
  8
0
370
              -2
390
0
  6
Continuous
 62
               0
100
AcDbHatch
 10
0.0
 20
0.0
 30
0.0
210
0.0
220
0.0
230
1.0
  2
SOLID
 70
               1
 71
               1
 91
        1
 92
        1
 93
        1
 72
               2
 10
122.45074837090124
 20
802.05562658743679
 40
4.99969482421875
 50
0.0
 51
360.0
 73
               0
 97
        1
330
D2
 75
               0
 76
               1
 98
        1
 10
0.0
 20
0.0
  0
CIRCLE
  5
D4
102
{ACAD_REACTORS
330
D5
102
}
100
AcDbEntity
  8
0
370
              -2
390
0
  6
Continuous
 62
               0
100
AcDbCircle
 10
122.45074837090124
 20
472.05562658743634
 30
0.0
 40
4.99969482421875
  0
HATCH
  5
D5
100
AcDbEntity
  8
0
370
              -2
390
0
  6
Continuous
 62
               0
100
AcDbHatch
 10
0.0
 20
0.0
 30
0.0
210
0.0
220
0.0
230
1.0
  2
SOLID
 70
               1
 71
               1
 91
        1
 92
        1
 93
        1
 72
               2
 10
122.45074837090124
 20
472.05562658743634
 40
4.99969482421875
 50
0.0
 51
360.0
 73
               0
 97
        1
330
D4
 75
               0
 76
               1
 98
        1
 10
0.0
 20
0.0
  0
MTEXT
  5
D6
100
AcDbEntity
  8
0
390
0
 62
               0
100
AcDbMText
 10
91.177623370901529
 20
613.24312490526086
 30
0.0
 40
21.828125
 41
0.0
 71
               1
 72
               1
  1
330
  7
MS UI Gothic
 11
0.0
 21
1.0
 31
0.0
 73
               1
 44
0.8762322015334064
  0
POINT
  5
D7
100
AcDbEntity
  8
Defpoints
370
               0
390
0
 62
               0
100
AcDbPoint
 10
16.450748370901238
 20
472.05562658743634
 30
0.0
  0
POINT
  5
D8
100
AcDbEntity
  8
Defpoints
370
               0
390
0
 62
               0
100
AcDbPoint
 10
19.450748370901238
 20
802.05562658743679
 30
0.0
  0
POINT
  5
D9
100
AcDbEntity
  8
Defpoints
370
               0
390
0
 62
               0
100
AcDbPoint
 10
122.45074837090124
 20
802.05562658743679
 30
0.0
  0
ENDBLK
  5
DA
100
AcDbEntity
  8
notes
390
0
100
AcDbBlockEnd
  0
BLOCK
  5
DB
100
AcDbEntity
  8
notes
390
0
100
AcDbBlockBegin
  2
*D12
 70
               1
 10
0.0
 20
0.0
 30
0.0
  3
*D12
  1

  0
LINE
  5
DC
100
AcDbEntity
  8
0
370
              -2
390
0
  6
Continuous
 62
               0
100
AcDbLine
 10
47.450748370901238
 20
-413.86657129611717
 30
0.0
 11
122.45074837090124
 21
-413.86657129611717
 31
0.0
  0
LINE
  5
DD
100
AcDbEntity
  8
0
370
              -2
390
0
  6
Continuous
 62
               0
100
AcDbLine
 10
47.450748370901238
 20
-463.86657129611717
 30
0.0
 11
122.45074837090124
 21
-463.86657129611717
 31
0.0
  0
LINE
  5
DE
100
AcDbEntity
  8
0
370
              -2
390
0
  6
Continuous
 62
               0
100
AcDbLine
 10
122.45074837090124
 20
-413.86657129611717
 30
0.0
 11
122.45074837090124
 21
-463.86657129611717
 31
0.0
  0
CIRCLE
  5
DF
102
{ACAD_REACTORS
330
E0
102
}
100
AcDbEntity
  8
0
370
              -2
390
0
  6
Continuous
 62
               0
100
AcDbCircle
 10
122.45074837090124
 20
-413.86657129611717
 30
0.0
 40
4.99969482421875
  0
HATCH
  5
E0
100
AcDbEntity
  8
0
370
              -2
390
0
  6
Continuous
 62
               0
100
AcDbHatch
 10
0.0
 20
0.0
 30
0.0
210
0.0
220
0.0
230
1.0
  2
SOLID
 70
               1
 71
               1
 91
        1
 92
        1
 93
        1
 72
               2
 10
122.45074837090124
 20
-413.86657129611717
 40
4.99969482421875
 50
0.0
 51
360.0
 73
               0
 97
        1
330
DF
 75
               0
 76
               1
 98
        1
 10
0.0
 20
0.0
  0
CIRCLE
  5
E1
102
{ACAD_REACTORS
330
E2
102
}
100
AcDbEntity
  8
0
370
              -2
390
0
  6
Continuous
 62
               0
100
AcDbCircle
 10
122.45074837090124
 20
-463.86657129611717
 30
0.0
 40
4.99969482421875
  0
HATCH
  5
E2
100
AcDbEntity
  8
0
370
              -2
390
0
  6
Continuous
 62
               0
100
AcDbHatch
 10
0.0
 20
0.0
 30
0.0
210
0.0
220
0.0
230
1.0
  2
SOLID
 70
               1
 71
               1
 91
        1
 92
        1
 93
        1
 72
               2
 10
122.45074837090124
 20
-463.86657129611717
 40
4.99969482421875
 50
0.0
 51
360.0
 73
               0
 97
        1
330
E1
 75
               0
 76
               1
 98
        1
 10
0.0
 20
0.0
  0
MTEXT
  5
E3
100
AcDbEntity
  8
0
390
0
 62
               0
100
AcDbMText
 10
91.177623370901529
 20
-454.74157129611717
 30
0.0
 40
21.828125
 41
0.0
 71
               1
 72
               1
  1
50
  7
MS UI Gothic
 11
0.0
 21
1.0
 31
0.0
 73
               1
 44
0.8762322015334064
  0
POINT
  5
E4
100
AcDbEntity
  8
Defpoints
370
               0
390
0
 62
               0
100
AcDbPoint
 10
22.450748370901238
 20
-463.86657129611717
 30
0.0
  0
POINT
  5
E5
100
AcDbEntity
  8
Defpoints
370
               0
390
0
 62
               0
100
AcDbPoint
 10
22.450748370901238
 20
-413.86657129611717
 30
0.0
  0
POINT
  5
E6
100
AcDbEntity
  8
Defpoints
370
               0
390
0
 62
               0
100
AcDbPoint
 10
122.45074837090124
 20
-413.86657129611717
 30
0.0
  0
ENDBLK
  5
E7
100
AcDbEntity
  8
notes
390
0
100
AcDbBlockEnd
  0
BLOCK
  5
E8
100
AcDbEntity
  8
notes
390
0
100
AcDbBlockBegin
  2
*D13
 70
               1
 10
0.0
 20
0.0
 30
0.0
  3
*D13
  1

  0
LINE
  5
E9
100
AcDbEntity
  8
0
370
              -2
390
0
  6
Continuous
 62
               0
100
AcDbLine
 10
47.450748370901238
 20
-463.86657129611717
 30
0.0
 11
122.45074837090124
 21
-463.86657129611717
 31
0.0
  0
LINE
  5
EA
100
AcDbEntity
  8
0
370
              -2
390
0
  6
Continuous
 62
               0
100
AcDbLine
 10
-300.87130124494524
 20
-603.86221981438189
 30
0.0
 11
122.45074837090124
 21
-603.86221981438189
 31
0.0
  0
LINE
  5
EB
100
AcDbEntity
  8
0
370
              -2
390
0
  6
Continuous
 62
               0
100
AcDbLine
 10
122.45074837090124
 20
-463.86657129611717
 30
0.0
 11
122.45074837090124
 21
-603.86221981438189
 31
0.0
  0
CIRCLE
  5
EC
102
{ACAD_REACTORS
330
ED
102
}
100
AcDbEntity
  8
0
370
              -2
390
0
  6
Continuous
 62
               0
100
AcDbCircle
 10
122.45074837090124
 20
-463.86657129611717
 30
0.0
 40
4.99969482421875
  0
HATCH
  5
ED
100
AcDbEntity
  8
0
370
              -2
390
0
  6
Continuous
 62
               0
100
AcDbHatch
 10
0.0
 20
0.0
 30
0.0
210
0.0
220
0.0
230
1.0
  2
SOLID
 70
               1
 71
               1
 91
        1
 92
        1
 93
        1
 72
               2
 10
122.45074837090124
 20
-463.86657129611717
 40
4.99969482421875
 50
0.0
 51
360.0
 73
               0
 97
        1
330
EC
 75
               0
 76
               1
 98
        1
 10
0.0
 20
0.0
  0
CIRCLE
  5
EE
102
{ACAD_REACTORS
330
EF
102
}
100
AcDbEntity
  8
0
370
              -2
390
0
  6
Continuous
 62
               0
100
AcDbCircle
 10
122.45074837090124
 20
-603.86221981438189
 30
0.0
 40
4.99969482421875
  0
HATCH
  5
EF
100
AcDbEntity
  8
0
370
              -2
390
0
  6
Continuous
 62
               0
100
AcDbHatch
 10
0.0
 20
0.0
 30
0.0
210
0.0
220
0.0
230
1.0
  2
SOLID
 70
               1
 71
               1
 91
        1
 92
        1
 93
        1
 72
               2
 10
122.45074837090124
 20
-603.86221981438189
 40
4.99969482421875
 50
0.0
 51
360.0
 73
               0
 97
        1
330
EE
 75
               0
 76
               1
 98
        1
 10
0.0
 20
0.0
  0
MTEXT
  5
F0
100
AcDbEntity
  8
0
390
0
 62
               0
100
AcDbMText
 10
91.177623370901529
 20
-557.67689723742501
 30
0.0
 40
21.828125
 41
0.0
 71
               1
 72
               1
  1
140
  7
MS UI Gothic
 11
0.0
 21
1.0
 31
0.0
 73
               1
 44
0.8762322015334064
  0
POINT
  5
F1
100
AcDbEntity
  8
Defpoints
370
               0
390
0
 62
               0
100
AcDbPoint
 10
-325.87130124494524
 20
-603.86221981438189
 30
0.0
  0
POINT
  5
F2
100
AcDbEntity
  8
Defpoints
370
               0
390
0
 62
               0
100
AcDbPoint
 10
22.450748370901238
 20
-463.86657129611717
 30
0.0
  0
POINT
  5
F3
100
AcDbEntity
  8
Defpoints
370
               0
390
0
 62
               0
100
AcDbPoint
 10
122.45074837090124
 20
-463.86657129611717
 30
0.0
  0
ENDBLK
  5
F4
100
AcDbEntity
  8
notes
390
0
100
AcDbBlockEnd
  0
BLOCK
  5
F5
100
AcDbEntity
  8
notes
390
0
100
AcDbBlockBegin
  2
*D14
 70
               1
 10
0.0
 20
0.0
 30
0.0
  3
*D14
  1

  0
LINE
  5
F6
100
AcDbEntity
  8
0
370
              -2
390
0
  6
Continuous
 62
               0
100
AcDbLine
 10
-250.07006692378218
 20
702.03342870388383
 30
0.0
 11
-175.07006692378218
 21
702.03342870388383
 31
0.0
  0
LINE
  5
F7
100
AcDbEntity
  8
0
370
              -2
390
0
  6
Continuous
 62
               0
100
AcDbLine
 10
-250.07006692378218
 20
802.05562658743588
 30
0.0
 11
-175.07006692378218
 21
802.05562658743588
 31
0.0
  0
LINE
  5
F8
100
AcDbEntity
  8
0
370
              -2
390
0
  6
Continuous
 62
               0
100
AcDbLine
 10
-175.07006692378218
 20
702.03342870388383
 30
0.0
 11
-175.07006692378218
 21
802.05562658743588
 31
0.0
  0
CIRCLE
  5
F9
102
{ACAD_REACTORS
330
FA
102
}
100
AcDbEntity
  8
0
370
              -2
390
0
  6
Continuous
 62
               0
100
AcDbCircle
 10
-175.07006692378218
 20
702.03342870388383
 30
0.0
 40
4.99969482421875
  0
HATCH
  5
FA
100
AcDbEntity
  8
0
370
              -2
390
0
  6
Continuous
 62
               0
100
AcDbHatch
 10
0.0
 20
0.0
 30
0.0
210
0.0
220
0.0
230
1.0
  2
SOLID
 70
               1
 71
               1
 91
        1
 92
        1
 93
        1
 72
               2
 10
-175.07006692378218
 20
702.03342870388383
 40
4.99969482421875
 50
0.0
 51
360.0
 73
               0
 97
        1
330
F9
 75
               0
 76
               1
 98
        1
 10
0.0
 20
0.0
  0
CIRCLE
  5
FB
102
{ACAD_REACTORS
330
FC
102
}
100
AcDbEntity
  8
0
370
              -2
390
0
  6
Continuous
 62
               0
100
AcDbCircle
 10
-175.07006692378218
 20
802.05562658743588
 30
0.0
 40
4.99969482421875
  0
HATCH
  5
FC
100
AcDbEntity
  8
0
370
              -2
390
0
  6
Continuous
 62
               0
100
AcDbHatch
 10
0.0
 20
0.0
 30
0.0
210
0.0
220
0.0
230
1.0
  2
SOLID
 70
               1
 71
               1
 91
        1
 92
        1
 93
        1
 72
               2
 10
-175.07006692378218
 20
802.05562658743588
 40
4.99969482421875
 50
0.0
 51
360.0
 73
               0
 97
        1
330
FB
 75
               0
 76
               1
 98
        1
 10
0.0
 20
0.0
  0
MTEXT
  5
FD
100
AcDbEntity
  8
0
390
0
 62
               0
100
AcDbMText
 10
-206.34319192378189
 20
728.2320259634846
 30
0.0
 40
21.828125
 41
0.0
 71
               1
 72
               1
  1
100
  7
MS UI Gothic
 11
0.0
 21
1.0
 31
0.0
 73
               1
 44
0.8762322015334064
  0
POINT
  5
FE
100
AcDbEntity
  8
Defpoints
370
               0
390
0
 62
               0
100
AcDbPoint
 10
-275.07006692378218
 20
802.05562658743588
 30
0.0
  0
POINT
  5
FF
100
AcDbEntity
  8
Defpoints
370
               0
390
0
 62
               0
100
AcDbPoint
 10
-275.07006692378218
 20
702.03342870388383
 30
0.0
  0
POINT
  5
100
100
AcDbEntity
  8
Defpoints
370
               0
390
0
 62
               0
100
AcDbPoint
 10
-175.07006692378218
 20
702.03342870388383
 30
0.0
  0
ENDBLK
  5
101
100
AcDbEntity
  8
notes
390
0
100
AcDbBlockEnd
  0
BLOCK
  5
102
100
AcDbEntity
  8
notes
390
0
100
AcDbBlockBegin
  2
*D15
 70
               1
 10
0.0
 20
0.0
 30
0.0
  3
*D15
  1

  0
LINE
  5
103
100
AcDbEntity
  8
0
370
              -2
390
0
  6
Continuous
 62
               0
100
AcDbLine
 10
-659.33884794408641
 20
297.05562658743634
 30
0.0
 11
-659.33884794408641
 21
222.05562658743634
 31
0.0
  0
LINE
  5
104
100
AcDbEntity
  8
0
370
              -2
390
0
  6
Continuous
 62
               0
100
AcDbLine
 10
-259.33884794408732
 20
391.0141919180885
 30
0.0
 11
-259.33884794408732
 21
222.05562658743634
 31
0.0
  0
LINE
  5
105
100
AcDbEntity
  8
0
370
              -2
390
0
  6
Continuous
 62
               0
100
AcDbLine
 10
-659.33884794408641
 20
222.05562658743634
 30
0.0
 11
-259.33884794408732
 21
222.05562658743634
 31
0.0
  0
CIRCLE
  5
106
102
{ACAD_REACTORS
330
107
102
}
100
AcDbEntity
  8
0
370
              -2
390
0
  6
Continuous
 62
               0
100
AcDbCircle
 10
-659.33884794408641
 20
222.05562658743634
 30
0.0
 40
4.99969482421875
  0
HATCH
  5
107
100
AcDbEntity
  8
0
370
              -2
390
0
  6
Continuous
 62
               0
100
AcDbHatch
 10
0.0
 20
0.0
 30
0.0
210
0.0
220
0.0
230
1.0
  2
SOLID
 70
               1
 71
               1
 91
        1
 92
        1
 93
        1
 72
               2
 10
-659.33884794408641
 20
222.05562658743634
 40
4.99969482421875
 50
0.0
 51
360.0
 73
               0
 97
        1
330
106
 75
               0
 76
               1
 98
        1
 10
0.0
 20
0.0
  0
CIRCLE
  5
108
102
{ACAD_REACTORS
330
109
102
}
100
AcDbEntity
  8
0
370
              -2
390
0
  6
Continuous
 62
               0
100
AcDbCircle
 10
-259.33884794408732
 20
222.05562658743634
 30
0.0
 40
4.99969482421875
  0
HATCH
  5
109
100
AcDbEntity
  8
0
370
              -2
390
0
  6
Continuous
 62
               0
100
AcDbHatch
 10
0.0
 20
0.0
 30
0.0
210
0.0
220
0.0
230
1.0
  2
SOLID
 70
               1
 71
               1
 91
        1
 92
        1
 93
        1
 72
               2
 10
-259.33884794408732
 20
222.05562658743634
 40
4.99969482421875
 50
0.0
 51
360.0
 73
               0
 97
        1
330
108
 75
               0
 76
               1
 98
        1
 10
0.0
 20
0.0
  0
MTEXT
  5
10A
100
AcDbEntity
  8
0
390
0
 62
               0
100
AcDbMText
 10
-483.15134962626325
 20
255.9332437749365
 30
0.0
 40
24.432617187500004
 41
0.0
 71
               1
 72
               1
  1
400
  7
ＭＳ ゴシック
 73
               1
 44
0.7828267384257843
  0
POINT
  5
10B
100
AcDbEntity
  8
Defpoints
370
               0
390
0
 62
               0
100
AcDbPoint
 10
-259.33884794408732
 20
416.0141919180885
 30
0.0
  0
POINT
  5
10C
100
AcDbEntity
  8
Defpoints
370
               0
390
0
 62
               0
100
AcDbPoint
 10
-659.33884794408641
 20
322.05562658743634
 30
0.0
  0
POINT
  5
10D
100
AcDbEntity
  8
Defpoints
370
               0
390
0
 62
               0
100
AcDbPoint
 10
-659.33884794408641
 20
222.05562658743634
 30
0.0
  0
ENDBLK
  5
10E
100
AcDbEntity
  8
notes
390
0
100
AcDbBlockEnd
  0
BLOCK
  5
10F
100
AcDbEntity
  8
notes
390
0
100
AcDbBlockBegin
  2
*D16
 70
               1
 10
0.0
 20
0.0
 30
0.0
  3
*D16
  1

  0
LINE
  5
110
100
AcDbEntity
  8
0
370
              -2
390
0
  6
Continuous
 62
               0
100
AcDbLine
 10
326.05102572168289
 20
-413.86657129611717
 30
0.0
 11
246.26235838475986
 21
-413.86657129611717
 31
0.0
  0
LINE
  5
111
100
AcDbEntity
  8
0
370
              -2
390
0
  6
Continuous
 62
               0
100
AcDbLine
 10
398.39667245039163
 20
-603.86221981438189
 30
0.0
 11
246.26235838475986
 21
-603.86221981438189
 31
0.0
  0
LINE
  5
112
100
AcDbEntity
  8
0
370
              -2
390
0
  6
Continuous
 62
               0
100
AcDbLine
 10
246.26235838475986
 20
-413.86657129611717
 30
0.0
 11
246.26235838475986
 21
-603.86221981438189
 31
0.0
  0
CIRCLE
  5
113
102
{ACAD_REACTORS
330
114
102
}
100
AcDbEntity
  8
0
370
              -2
390
0
  6
Continuous
 62
               0
100
AcDbCircle
 10
246.26235838475986
 20
-413.86657129611717
 30
0.0
 40
4.99969482421875
  0
HATCH
  5
114
100
AcDbEntity
  8
0
370
              -2
390
0
  6
Continuous
 62
               0
100
AcDbHatch
 10
0.0
 20
0.0
 30
0.0
210
0.0
220
0.0
230
1.0
  2
SOLID
 70
               1
 71
               1
 91
        1
 92
        1
 93
        1
 72
               2
 10
246.26235838475986
 20
-413.86657129611717
 40
4.99969482421875
 50
0.0
 51
360.0
 73
               0
 97
        1
330
113
 75
               0
 76
               1
 98
        1
 10
0.0
 20
0.0
  0
CIRCLE
  5
115
102
{ACAD_REACTORS
330
116
102
}
100
AcDbEntity
  8
0
370
              -2
390
0
  6
Continuous
 62
               0
100
AcDbCircle
 10
246.26235838475986
 20
-603.86221981438189
 30
0.0
 40
4.99969482421875
  0
HATCH
  5
116
100
AcDbEntity
  8
0
370
              -2
390
0
  6
Continuous
 62
               0
100
AcDbHatch
 10
0.0
 20
0.0
 30
0.0
210
0.0
220
0.0
230
1.0
  2
SOLID
 70
               1
 71
               1
 91
        1
 92
        1
 93
        1
 72
               2
 10
246.26235838475986
 20
-603.86221981438189
 40
4.99969482421875
 50
0.0
 51
360.0
 73
               0
 97
        1
330
115
 75
               0
 76
               1
 98
        1
 10
0.0
 20
0.0
  0
MTEXT
  5
117
100
AcDbEntity
  8
0
390
0
 62
               0
100
AcDbMText
 10
212.38474119726015
 20
-532.67689723742501
 30
0.0
 40
24.432617187500004
 41
0.0
 71
               1
 72
               1
  1
190
  7
ＭＳ ゴシック
 11
0.0
 21
1.0
 31
0.0
 73
               1
 44
0.7828267384257843
  0
POINT
  5
118
100
AcDbEntity
  8
Defpoints
370
               0
390
0
 62
               0
100
AcDbPoint
 10
423.39667245039163
 20
-603.86221981438189
 30
0.0
  0
POINT
  5
119
100
AcDbEntity
  8
Defpoints
370
               0
390
0
 62
               0
100
AcDbPoint
 10
351.05102572168289
 20
-413.86657129611717
 30
0.0
  0
POINT
  5
11A
100
AcDbEntity
  8
Defpoints
370
               0
390
0
 62
               0
100
AcDbPoint
 10
246.26235838475986
 20
-413.86657129611717
 30
0.0
  0
ENDBLK
  5
11B
100
AcDbEntity
  8
notes
390
0
100
AcDbBlockEnd
  0
BLOCK
  5
11C
100
AcDbEntity
  8
notes
390
0
100
AcDbBlockBegin
  2
*D17
 70
               1
 10
0.0
 20
0.0
 30
0.0
  3
*D17
  1

  0
LINE
  5
11D
100
AcDbEntity
  8
0
370
              -2
390
0
  6
Continuous
 62
               0
100
AcDbLine
 10
826.0
 20
-623.8283599140027
 30
0.0
 11
826.0
 21
-697.86657129611717
 31
0.0
  0
LINE
  5
11E
100
AcDbEntity
  8
0
370
              -2
390
0
  6
Continuous
 62
               0
100
AcDbLine
 10
531.00000000000091
 20
-627.04825307689839
 30
0.0
 11
531.00000000000091
 21
-697.86657129611717
 31
0.0
  0
LINE
  5
11F
100
AcDbEntity
  8
0
370
              -2
390
0
  6
Continuous
 62
               0
100
AcDbLine
 10
826.0
 20
-697.86657129611717
 30
0.0
 11
531.00000000000091
 21
-697.86657129611717
 31
0.0
  0
CIRCLE
  5
120
102
{ACAD_REACTORS
330
121
102
}
100
AcDbEntity
  8
0
370
              -2
390
0
  6
Continuous
 62
               0
100
AcDbCircle
 10
826.0
 20
-697.86657129611717
 30
0.0
 40
4.99969482421875
  0
HATCH
  5
121
100
AcDbEntity
  8
0
370
              -2
390
0
  6
Continuous
 62
               0
100
AcDbHatch
 10
0.0
 20
0.0
 30
0.0
210
0.0
220
0.0
230
1.0
  2
SOLID
 70
               1
 71
               1
 91
        1
 92
        1
 93
        1
 72
               2
 10
826.0
 20
-697.86657129611717
 40
4.99969482421875
 50
0.0
 51
360.0
 73
               0
 97
        1
330
120
 75
               0
 76
               1
 98
        1
 10
0.0
 20
0.0
  0
CIRCLE
  5
122
102
{ACAD_REACTORS
330
123
102
}
100
AcDbEntity
  8
0
370
              -2
390
0
  6
Continuous
 62
               0
100
AcDbCircle
 10
531.00000000000091
 20
-697.86657129611717
 30
0.0
 40
4.99969482421875
  0
HATCH
  5
123
100
AcDbEntity
  8
0
370
              -2
390
0
  6
Continuous
 62
               0
100
AcDbHatch
 10
0.0
 20
0.0
 30
0.0
210
0.0
220
0.0
230
1.0
  2
SOLID
 70
               1
 71
               1
 91
        1
 92
        1
 93
        1
 72
               2
 10
531.00000000000091
 20
-697.86657129611717
 40
4.99969482421875
 50
0.0
 51
360.0
 73
               0
 97
        1
330
122
 75
               0
 76
               1
 98
        1
 10
0.0
 20
0.0
  0
MTEXT
  5
124
100
AcDbEntity
  8
0
390
0
 62
               0
100
AcDbMText
 10
654.68749831782407
 20
-663.98895410861724
 30
0.0
 40
24.432617187500004
 41
0.0
 71
               1
 72
               1
  1
295
  7
ＭＳ ゴシック
 73
               1
 44
0.7828267384257843
  0
POINT
  5
125
100
AcDbEntity
  8
Defpoints
370
               0
390
0
 62
               0
100
AcDbPoint
 10
531.00000000000091
 20
-602.04825307689839
 30
0.0
  0
POINT
  5
126
100
AcDbEntity
  8
Defpoints
370
               0
390
0
 62
               0
100
AcDbPoint
 10
826.0
 20
-598.8283599140027
 30
0.0
  0
POINT
  5
127
100
AcDbEntity
  8
Defpoints
370
               0
390
0
 62
               0
100
AcDbPoint
 10
826.0
 20
-697.86657129611717
 30
0.0
  0
ENDBLK
  5
128
100
AcDbEntity
  8
notes
390
0
100
AcDbBlockEnd
  0
BLOCK
  5
129
100
AcDbEntity
  8
notes
390
0
100
AcDbBlockBegin
  2
*D18
 70
               1
 10
0.0
 20
0.0
 30
0.0
  3
*D18
  1

  0
LINE
  5
12A
100
AcDbEntity
  8
0
370
              -2
390
0
  6
Continuous
 62
               0
100
AcDbLine
 10
826.0
 20
-393.86657129611717
 30
0.0
 11
826.0
 21
-313.86657129611717
 31
0.0
  0
LINE
  5
12B
100
AcDbEntity
  8
0
370
              -2
390
0
  6
Continuous
 62
               0
100
AcDbLine
 10
756.0
 20
-388.86657129611717
 30
0.0
 11
756.0
 21
-313.86657129611717
 31
0.0
  0
LINE
  5
12C
100
AcDbEntity
  8
0
370
              -2
390
0
  6
Continuous
 62
               0
100
AcDbLine
 10
826.0
 20
-313.86657129611717
 30
0.0
 11
756.0
 21
-313.86657129611717
 31
0.0
  0
CIRCLE
  5
12D
102
{ACAD_REACTORS
330
12E
102
}
100
AcDbEntity
  8
0
370
              -2
390
0
  6
Continuous
 62
               0
100
AcDbCircle
 10
826.0
 20
-313.86657129611717
 30
0.0
 40
4.99969482421875
  0
HATCH
  5
12E
100
AcDbEntity
  8
0
370
              -2
390
0
  6
Continuous
 62
               0
100
AcDbHatch
 10
0.0
 20
0.0
 30
0.0
210
0.0
220
0.0
230
1.0
  2
SOLID
 70
               1
 71
               1
 91
        1
 92
        1
 93
        1
 72
               2
 10
826.0
 20
-313.86657129611717
 40
4.99969482421875
 50
0.0
 51
360.0
 73
               0
 97
        1
330
12D
 75
               0
 76
               1
 98
        1
 10
0.0
 20
0.0
  0
CIRCLE
  5
12F
102
{ACAD_REACTORS
330
130
102
}
100
AcDbEntity
  8
0
370
              -2
390
0
  6
Continuous
 62
               0
100
AcDbCircle
 10
756.0
 20
-313.86657129611717
 30
0.0
 40
4.99969482421875
  0
HATCH
  5
130
100
AcDbEntity
  8
0
370
              -2
390
0
  6
Continuous
 62
               0
100
AcDbHatch
 10
0.0
 20
0.0
 30
0.0
210
0.0
220
0.0
230
1.0
  2
SOLID
 70
               1
 71
               1
 91
        1
 92
        1
 93
        1
 72
               2
 10
756.0
 20
-313.86657129611717
 40
4.99969482421875
 50
0.0
 51
360.0
 73
               0
 97
        1
330
12F
 75
               0
 76
               1
 98
        1
 10
0.0
 20
0.0
  0
MTEXT
  5
131
100
AcDbEntity
  8
0
390
0
 62
               0
100
AcDbMText
 10
775.125
 20
-279.98895410861724
 30
0.0
 40
24.432617187500004
 41
0.0
 71
               1
 72
               1
  1
70
  7
ＭＳ ゴシック
 73
               1
 44
0.7828267384257843
  0
POINT
  5
132
100
AcDbEntity
  8
Defpoints
370
               0
390
0
 62
               0
100
AcDbPoint
 10
756.0
 20
-413.86657129611717
 30
0.0
  0
POINT
  5
133
100
AcDbEntity
  8
Defpoints
370
               0
390
0
 62
               0
100
AcDbPoint
 10
826.0
 20
-418.86657129611717
 30
0.0
  0
POINT
  5
134
100
AcDbEntity
  8
Defpoints
370
               0
390
0
 62
               0
100
AcDbPoint
 10
826.0
 20
-313.86657129611717
 30
0.0
  0
ENDBLK
  5
135
100
AcDbEntity
  8
notes
390
0
100
AcDbBlockEnd
  0
BLOCK
  5
136
100
AcDbEntity
  8
notes
390
0
100
AcDbBlockBegin
  2
*D19
 70
               1
 10
0.0
 20
0.0
 30
0.0
  3
*D19
  1

  0
LINE
  5
137
100
AcDbEntity
  8
0
370
              -2
390
0
  6
Continuous
 62
               0
100
AcDbLine
 10
554.63014357526936
 20
-413.86657129611717
 30
0.0
 11
521.33551130877549
 21
-413.86657129611717
 31
0.0
  0
LINE
  5
138
100
AcDbEntity
  8
0
370
              -2
390
0
  6
Continuous
 62
               0
100
AcDbLine
 10
542.38223482019839
 20
-553.86657129611717
 30
0.0
 11
521.33551130877549
 21
-553.86657129611717
 31
0.0
  0
LINE
  5
139
100
AcDbEntity
  8
0
370
              -2
390
0
  6
Continuous
 62
               0
100
AcDbLine
 10
521.33551130877549
 20
-413.86657129611717
 30
0.0
 11
521.33551130877549
 21
-264.80396181134324
 31
0.0
  0
LINE
  5
13A
100
AcDbEntity
  8
0
370
              -2
390
0
  6
Continuous
 62
               0
100
AcDbLine
 10
521.33551130877549
 20
-413.86657129611717
 30
0.0
 11
521.33551130877549
 21
-553.86657129611717
 31
0.0
  0
CIRCLE
  5
13B
102
{ACAD_REACTORS
330
13C
102
}
100
AcDbEntity
  8
0
370
              -2
390
0
  6
Continuous
 62
               0
100
AcDbCircle
 10
521.33551130877549
 20
-413.86657129611717
 30
0.0
 40
4.99969482421875
  0
HATCH
  5
13C
100
AcDbEntity
  8
0
370
              -2
390
0
  6
Continuous
 62
               0
100
AcDbHatch
 10
0.0
 20
0.0
 30
0.0
210
0.0
220
0.0
230
1.0
  2
SOLID
 70
               1
 71
               1
 91
        1
 92
        1
 93
        1
 72
               2
 10
521.33551130877549
 20
-413.86657129611717
 40
4.99969482421875
 50
0.0
 51
360.0
 73
               0
 97
        1
330
13B
 75
               0
 76
               1
 98
        1
 10
0.0
 20
0.0
  0
CIRCLE
  5
13D
102
{ACAD_REACTORS
330
13E
102
}
100
AcDbEntity
  8
0
370
              -2
390
0
  6
Continuous
 62
               0
100
AcDbCircle
 10
521.33551130877549
 20
-553.86657129611717
 30
0.0
 40
4.99969482421875
  0
HATCH
  5
13E
100
AcDbEntity
  8
0
370
              -2
390
0
  6
Continuous
 62
               0
100
AcDbHatch
 10
0.0
 20
0.0
 30
0.0
210
0.0
220
0.0
230
1.0
  2
SOLID
 70
               1
 71
               1
 91
        1
 92
        1
 93
        1
 72
               2
 10
521.33551130877549
 20
-553.86657129611717
 40
4.99969482421875
 50
0.0
 51
360.0
 73
               0
 97
        1
330
13D
 75
               0
 76
               1
 98
        1
 10
0.0
 20
0.0
  0
MTEXT
  5
13F
100
AcDbEntity
  8
0
390
0
 62
               0
100
AcDbMText
 10
487.45789412127579
 20
-407.67896181134324
 30
0.0
 40
24.432617187500004
 41
0.0
 71
               1
 72
               1
  1
140(深さ)
  7
ＭＳ ゴシック
 11
0.0
 21
1.0
 31
0.0
 73
               1
 44
0.7828267384257843
  0
POINT
  5
140
100
AcDbEntity
  8
Defpoints
370
               0
390
0
 62
               0
100
AcDbPoint
 10
567.38223482019839
 20
-553.86657129611717
 30
0.0
  0
POINT
  5
141
100
AcDbEntity
  8
Defpoints
370
               0
390
0
 62
               0
100
AcDbPoint
 10
579.63014357526936
 20
-413.86657129611717
 30
0.0
  0
POINT
  5
142
100
AcDbEntity
  8
Defpoints
370
               0
390
0
 62
               0
100
AcDbPoint
 10
521.33551130877549
 20
-413.86657129611717
 30
0.0
  0
ENDBLK
  5
143
100
AcDbEntity
  8
notes
390
0
100
AcDbBlockEnd
  0
ENDSEC
  0
SECTION
  2
ENTITIES
  0
MTEXT
  5
144
100
AcDbEntity
  8
template
390
0
 62
               7
100
AcDbMText
 10
-967.99999999975989
 20
-1147.4176292337006
 30
0.0
 40
16.288411458333332
 41
0.0
 71
               1
 72
               1
  1
品名
  7
ＭＳ ゴシック
 73
               1
 44
0.7828267384257843
  0
MTEXT
  5
145
100
AcDbEntity
  8
template
390
0
 62
               7
100
AcDbMText
 10
-967.99999999975989
 20
-1232.4176292337006
 30
0.0
 40
16.288411458333332
 41
0.0
 71
               1
 72
               1
  1
仕様
  7
ＭＳ ゴシック
 73
               1
 44
0.7828267384257843
  0
MTEXT
  5
146
100
AcDbEntity
  8
template
390
0
 62
               7
100
AcDbMText
 10
-914.99999999975989
 20
-1176.0000901712006
 30
0.0
 40
24.432617187500004
 41
0.0
 71
               1
 72
               1
  1
洗面器 -CATALANO,C-
  7
ＭＳ ゴシック
 73
               1
 44
0.7828267384257843
  0
LINE
  5
147
100
AcDbEntity
  8
template
370
               5
390
0
  6
Continuous
 62
               7
100
AcDbLine
 10
974.99999999975898
 20
-1224.0027073587005
 30
0.0
 11
-975.00000000024193
 21
-1224.0027073587005
 31
0.0
  0
LWPOLYLINE
  5
148
100
AcDbEntity
  8
template
370
               5
390
0
  6
Continuous
 62
               7
100
AcDbPolyline
 90
        5
 70
             128
 10
975.00000000024102
 20
1405.9972926412995
 10
-974.99999999975989
 20
1405.9972926412995
 10
-974.99999999975989
 20
-1394.0027073587005
 10
975.00000000024102
 20
-1394.0027073587005
 10
975.00000000024102
 20
1405.9972926412995
  0
LINE
  5
149
100
AcDbEntity
  8
template
370
               5
390
0
  6
Continuous
 62
               7
100
AcDbLine
 10
974.99999999975898
 20
-1139.0027073587005
 30
0.0
 11
-975.00000000024193
 21
-1139.0027073587005
 31
0.0
  0
LINE
  5
14A
100
AcDbEntity
  8
template
370
               5
390
0
  6
Continuous
 62
               7
100
AcDbLine
 10
975.00000000024102
 20
-1309.0027073587005
 30
0.0
 11
222.00000000024102
 21
-1309.0027073587005
 31
0.0
  0
MTEXT
  5
14B
100
AcDbEntity
  8
template
390
0
 62
               7
100
AcDbMText
 10
-974.99999999955617
 20
-1405.8565294155574
 30
0.0
 40
21.717881944444446
 41
0.0
 71
               1
 72
               1
  1
100707SH
  7
ＭＳ ゴシック
 73
               1
 44
0.7828267384257843
  0
MTEXT
  5
14C
100
AcDbEntity
  8
template
390
0
 62
               7
100
AcDbMText
 10
251.87140625250049
 20
-1338.9131018320081
 30
0.0
 40
24.432617187500004
 41
0.0
 71
               1
 72
               1
  1
大洋金物株式会社 ティーフォルム事業部
  7
ＭＳ ゴシック
 73
               1
 44
0.7828267384257843
  0
INSERT
  5
14D
100
AcDbEntity
  8
template
390
0
 62
               7
100
AcDbBlockReference
  2
グループ
 10
7478.819376294221
 20
-2003.8392834443623
 30
0.0
  0
MTEXT
  5
14E
100
AcDbEntity
  8
template
390
0
 62
               7
100
AcDbMText
 10
784.00000000050022
 20
-1261.0000901712006
 30
0.0
 40
24.432617187500004
 41
0.0
 71
               1
 72
               1
  1
1:10
  7
ＭＳ ゴシック
 73
               1
 44
0.7828267384257843
  0
MTEXT
  5
14F
100
AcDbEntity
  8
template
390
0
 62
               7
100
AcDbMText
 10
731.00000000050022
 20
-1232.4176292337006
 30
0.0
 40
16.288411458333332
 41
0.0
 71
               1
 72
               1
  1
縮尺
  7
ＭＳ ゴシック
 73
               1
 44
0.7828267384257843
  0
LINE
  5
150
100
AcDbEntity
  8
template
370
               5
390
0
  6
Continuous
 62
               7
100
AcDbLine
 10
724.00000000050022
 20
-1309.0027073587005
 30
0.0
 11
724.00000000050022
 21
-1224.0027073587005
 31
0.0
  0
MTEXT
  5
151
100
AcDbEntity
  8
template
390
0
 62
               7
100
AcDbMText
 10
480.00000000050022
 20
-1232.4176292337006
 30
0.0
 40
16.288411458333332
 41
0.0
 71
               1
 72
               1
  1
容量
  7
ＭＳ ゴシック
 73
               1
 44
0.7828267384257843
  0
MTEXT
  5
152
100
AcDbEntity
  8
template
390
0
 62
               7
100
AcDbMText
 10
533.00000000050022
 20
-1261.0000901712006
 30
0.0
 40
24.432617187500004
 41
0.0
 71
               1
 72
               1
  1
6L
  7
ＭＳ ゴシック
 73
               1
 44
0.7828267384257843
  0
LINE
  5
153
100
AcDbEntity
  8
template
370
               5
390
0
  6
Continuous
 62
               7
100
AcDbLine
 10
473.00000000050022
 20
-1309.0027073587005
 30
0.0
 11
473.00000000050022
 21
-1224.0027073587005
 31
0.0
  0
MTEXT
  5
154
100
AcDbEntity
  8
template
390
0
 62
               7
100
AcDbMText
 10
229.00000000050022
 20
-1147.4176292337006
 30
0.0
 40
16.288411458333332
 41
0.0
 71
               1
 72
               1
  1
品番
  7
ＭＳ ゴシック
 73
               1
 44
0.7828267384257843
  0
MTEXT
  5
155
100
AcDbEntity
  8
template
390
0
 62
               7
100
AcDbMText
 10
229.00000000050022
 20
-1232.4176292337006
 30
0.0
 40
16.288411458333332
 41
0.0
 71
               1
 72
               1
  1
重量
  7
ＭＳ ゴシック
 73
               1
 44
0.7828267384257843
  0
MTEXT
  5
156
100
AcDbEntity
  8
template
390
0
 62
               7
100
AcDbMText
 10
282.00000000050022
 20
-1176.0000901712006
 30
0.0
 40
24.432617187500004
 41
0.0
 71
               1
 72
               1
  1
ADF70-1204
  7
ＭＳ ゴシック
 73
               1
 44
0.7828267384257843
  0
MTEXT
  5
157
100
AcDbEntity
  8
template
390
0
 62
               7
100
AcDbMText
 10
282.00000000050022
 20
-1261.0000901712006
 30
0.0
 40
24.432617187500004
 41
0.0
 71
               1
 72
               1
  1
21kg
  7
ＭＳ ゴシック
 73
               1
 44
0.7828267384257843
  0
LINE
  5
158
100
AcDbEntity
  8
template
370
               5
390
0
  6
Continuous
 62
               7
100
AcDbLine
 10
222.00000000050022
 20
-1394.0027073587005
 30
0.0
 11
222.00000000050022
 21
-1139.0027073587005
 31
0.0
  0
MTEXT
  5
159
100
AcDbEntity
  8
template
390
0
 62
               7
100
AcDbMText
 10
-914.99999999975989
 20
-1261.0000901712006
 30
0.0
 40
24.432617187500004
 41
0.0
 71
               1
 72
               1
  1
壁掛け/オーバーフロー付き/壁取付ボルト付属/\P陶器/ホワイト
  7
ＭＳ ゴシック
 73
               1
 44
1.3047112307096407
  0
MTEXT
  5
15A
100
AcDbEntity
  8
notes
390
0
 62
               7
100
AcDbMText
 10
-792.48022448480151
 20
181.57347251079432
 30
0.0
 40
24.253472222222221
 41
860.86064049338654
 71
               1
 72
               1
  1
＝φ30もしくはφ35の水栓取付用穴あけ加工を承ります。\P   必要な場合、ご注文の際にご指示ください。
  7
MS UI Gothic
 73
               1
 44
1.0514786418400877
  0
MTEXT
  5
15B
100
AcDbEntity
  8
notes
390
0
 62
               7
100
AcDbMText
 10
-274.85083679119361
 20
-326.76997825434592
 30
0.0
 40
24.253472222222221
 41
0.0
 71
               1
 72
               1
  1
壁取付ボルト穴(2ヶ所)
  7
MS UI Gothic
 73
               1
 44
0.8762322015334064
  0
LINE
  5
15C
100
AcDbEntity
  8
notes
370
               5
390
0
  6
Continuous
 62
               7
100
AcDbLine
 10
-319.36540692851213
 20
-453.86657129611717
 30
0.0
 11
-264.44833717582787
 21
-366.86917950599286
 31
0.0
  0
DIMENSION
  5
15D
100
AcDbEntity
  8
notes
370
               5
390
0
  6
Continuous
 62
               7
100
AcDbDimension
  2
*D2
 10
22.450748370901238
 20
952.05562658743588
 30
0.0
 11
-341.6195839914235
 21
957.05562658743588
 31
0.0
 70
             129
 71
               5
 72
               1
 41
1.0
 42
0.0
  3
tform線あり
100
AcDbAlignedDimension
 13
-727.54925162909421
 23
799.05562658743679
 33
0.0
 14
22.450748370901238
 24
799.05562658743679
 34
0.0
1001
ACAD
1000
DSTYLE
1002
{
1070
             279
1070
               2
1070
             340
1005
36
1070
             147
1040
5.0
1002
}
  0
DIMENSION
  5
15E
100
AcDbEntity
  8
notes
370
               5
390
0
  6
Continuous
 62
               7
100
AcDbDimension
  2
*D3
 10
-727.54925162909421
 20
902.05562658743588
 30
0.0
 11
-677.55965927643774
 21
902.05562658743588
 31
0.0
 71
               5
 72
               1
 41
1.0
 42
0.0
  3
tform線あり
100
AcDbAlignedDimension
 13
-627.57006692378218
 23
709.55229903782742
 33
0.0
 14
-727.54925162909421
 24
799.05562658743588
 34
0.0
100
AcDbRotatedDimension
1001
ACAD
1000
DSTYLE
1002
{
1070
             279
1070
               2
1070
             340
1005
36
1070
             147
1040
5.0
1002
}
  0
DIMENSION
  5
15F
100
AcDbEntity
  8
notes
370
               5
390
0
  6
Continuous
 62
               7
100
AcDbDimension
  2
*D4
 10
-627.57006692378218
 20
902.05562658743588
 30
0.0
 11
-543.82006692378218
 21
902.05562658743588
 31
0.0
 71
               5
 72
               1
 41
1.0
 42
0.0
  3
tform線あり
100
AcDbAlignedDimension
 13
-460.07006692378218
 23
749.55229903782742
 33
0.0
 14
-627.57006692378218
 24
709.55229903782742
 34
0.0
100
AcDbRotatedDimension
1001
ACAD
1000
DSTYLE
1002
{
1070
             279
1070
               2
1070
             340
1005
36
1070
             147
1040
5.0
1002
}
  0
DIMENSION
  5
160
100
AcDbEntity
  8
notes
370
               5
390
0
  6
Continuous
 62
               7
100
AcDbDimension
  2
*D5
 10
-460.07006692378218
 20
902.05562658743588
 30
0.0
 11
-376.32006692378218
 21
902.05562658743588
 31
0.0
 71
               5
 72
               1
 41
1.0
 42
0.0
  3
tform線あり
100
AcDbAlignedDimension
 13
-292.57006692378218
 23
709.55229903782742
 33
0.0
 14
-460.07006692378218
 24
749.55229903782742
 34
0.0
100
AcDbRotatedDimension
1001
ACAD
1000
DSTYLE
1002
{
1070
             279
1070
               2
1070
             340
1005
36
1070
             147
1040
5.0
1002
}
  0
DIMENSION
  5
161
100
AcDbEntity
  8
notes
370
               5
390
0
  6
Continuous
 62
               7
100
AcDbDimension
  2
*D6
 10
-876.87006692378054
 20
802.05562658743588
 30
0.0
 11
-876.87006692378054
 21
562.05562658743634
 31
0.0
 71
               5
 72
               1
 41
1.0
 42
0.0
  3
tform線あり
100
AcDbAlignedDimension
 13
-721.54925162909785
 23
322.05562658743634
 33
0.0
 14
-724.54925162909603
 24
802.05562658743588
 34
0.0
 50
-90.0
100
AcDbRotatedDimension
1001
ACAD
1000
DSTYLE
1002
{
1070
             279
1070
               2
1070
             340
1005
36
1070
             147
1040
5.0
1002
}
  0
CIRCLE
  5
162
100
AcDbEntity
  8
notes
370
               5
390
0
  6
STYLE_12
 62
               7
100
AcDbCircle
 10
-814.48022448480151
 20
169.13342870388374
 30
0.0
 40
17.5
  0
DIMENSION
  5
163
100
AcDbEntity
  8
notes
370
               5
390
0
  6
Continuous
 62
               7
100
AcDbDimension
  2
*D7
 10
-827.54925162909603
 20
-413.86657129611717
 30
0.0
 11
-827.54925162909603
 21
-433.86657129611717
 31
0.0
 71
               5
 72
               1
 41
1.0
 42
0.0
  3
tform線あり
100
AcDbAlignedDimension
 13
-649.36540692851213
 23
-453.86657129611717
 33
0.0
 14
-727.54925162909603
 24
-413.86657129611717
 34
0.0
 50
90.0
100
AcDbRotatedDimension
1001
ACAD
1000
DSTYLE
1002
{
1070
             279
1070
               2
1070
             340
1005
36
1070
             147
1040
5.0
1002
}
  0
DIMENSION
  5
164
100
AcDbEntity
  8
notes
370
               5
390
0
  6
Continuous
 62
               7
100
AcDbDimension
  2
*D8
 10
-827.54925162909603
 20
672.05562658743634
 30
0.0
 11
-832.54925162909603
 21
731.13342870388374
 31
0.0
 70
             128
 71
               5
 72
               1
 41
1.0
 42
0.0
  3
tform線あり
100
AcDbAlignedDimension
 13
-724.54925162909603
 23
802.05562658743588
 33
0.0
 14
-727.54925162909603
 24
672.05562658743634
 34
0.0
 50
90.0
100
AcDbRotatedDimension
1001
ACAD
1000
DSTYLE
1002
{
1070
             279
1070
               2
1070
             340
1005
37
1070
             140
1040
24.432617187500004
1070
             147
1040
5.0
1002
}
  0
DIMENSION
  5
165
100
AcDbEntity
  8
notes
370
               5
390
0
  6
Continuous
 62
               7
100
AcDbDimension
  2
*D9
 10
-827.54925162909603
 20
672.05562658743634
 30
0.0
 11
-832.54925162909603
 21
499.13342870388374
 31
0.0
 70
             128
 71
               5
 72
               1
 41
1.0
 42
0.0
  3
tform線あり
100
AcDbAlignedDimension
 13
-727.54925162909603
 23
347.05562658743634
 33
0.0
 14
-727.54925162909603
 24
672.05562658743634
 34
0.0
 50
90.0
100
AcDbRotatedDimension
1001
ACAD
1000
DSTYLE
1002
{
1070
             279
1070
               2
1070
             340
1005
37
1070
             140
1040
24.432617187500004
1070
             147
1040
5.0
1002
}
  0
DIMENSION
  5
166
100
AcDbEntity
  8
notes
370
               5
390
0
  6
Continuous
 62
               7
100
AcDbDimension
  2
*D10
 10
-319.36540692851213
 20
-313.86657129611717
 30
0.0
 11
-459.36540692851213
 21
-313.86657129611717
 31
0.0
 70
               1
 71
               5
 72
               1
 41
1.0
 42
0.0
  3
tform線あり
100
AcDbAlignedDimension
 13
-599.36540692851213
 23
-433.86657129611717
 33
0.0
 14
-319.36540692851213
 24
-433.86657129611717
 34
0.0
1001
ACAD
1000
DSTYLE
1002
{
1070
             279
1070
               2
1070
             340
1005
36
1070
             147
1040
5.0
1002
}
  0
DIMENSION
  5
167
100
AcDbEntity
  8
notes
370
               5
390
0
  6
Continuous
 62
               7
100
AcDbDimension
  2
*D11
 10
122.45074837090124
 20
802.05562658743679
 30
0.0
 11
127.45074837090124
 21
637.05562658743634
 31
0.0
 70
             128
 71
               5
 72
               1
 41
1.0
 42
0.0
  3
tform線あり
100
AcDbAlignedDimension
 13
16.450748370901238
 23
472.05562658743634
 33
0.0
 14
19.450748370901238
 24
802.05562658743679
 34
0.0
 50
-90.0
100
AcDbRotatedDimension
1001
ACAD
1000
DSTYLE
1002
{
1070
             279
1070
               2
1070
             340
1005
36
1070
             147
1040
5.0
1002
}
  0
DIMENSION
  5
168
100
AcDbEntity
  8
notes
370
               5
390
0
  6
Continuous
 62
               7
100
AcDbDimension
  2
*D12
 10
122.45074837090124
 20
-413.86657129611717
 30
0.0
 11
122.45074837090124
 21
-438.86657129611717
 31
0.0
 71
               5
 72
               1
 41
1.0
 42
0.0
  3
tform線あり
100
AcDbAlignedDimension
 13
22.450748370901238
 23
-463.86657129611717
 33
0.0
 14
22.450748370901238
 24
-413.86657129611717
 34
0.0
 50
90.0
100
AcDbRotatedDimension
1001
ACAD
1000
DSTYLE
1002
{
1070
             279
1070
               2
1070
             340
1005
36
1070
             147
1040
5.0
1002
}
  0
DIMENSION
  5
169
100
AcDbEntity
  8
notes
370
               5
390
0
  6
Continuous
 62
               7
100
AcDbDimension
  2
*D13
 10
122.45074837090124
 20
-463.86657129611717
 30
0.0
 11
122.45074837090124
 21
-533.86439555524953
 31
0.0
 71
               5
 72
               1
 41
1.0
 42
0.0
  3
tform線あり
100
AcDbAlignedDimension
 13
-325.87130124494524
 23
-603.86221981438189
 33
0.0
 14
22.450748370901238
 24
-463.86657129611717
 34
0.0
 50
90.0
100
AcDbRotatedDimension
1001
ACAD
1000
DSTYLE
1002
{
1070
             279
1070
               2
1070
             340
1005
36
1070
             147
1040
5.0
1002
}
  0
DIMENSION
  5
16A
100
AcDbEntity
  8
notes
370
               5
390
0
  6
Continuous
 62
               7
100
AcDbDimension
  2
*D14
 10
-175.07006692378218
 20
702.03342870388383
 30
0.0
 11
-175.07006692378218
 21
752.04452764566008
 31
0.0
 71
               5
 72
               1
 41
1.0
 42
0.0
  3
tform線あり
100
AcDbAlignedDimension
 13
-275.07006692378218
 23
802.05562658743588
 33
0.0
 14
-275.07006692378218
 24
702.03342870388383
 34
0.0
 50
90.0
100
AcDbRotatedDimension
1001
ACAD
1000
DSTYLE
1002
{
1070
             279
1070
               2
1070
             340
1005
36
1070
             147
1040
5.0
1002
}
  0
DIMENSION
  5
16B
100
AcDbEntity
  8
notes
370
               5
390
0
  6
Continuous
 62
               7
100
AcDbDimension
  2
*D15
 10
-659.33884794408641
 20
222.05562658743634
 30
0.0
 11
-459.33884794408732
 21
222.05562658743634
 31
0.0
 71
               5
 72
               1
 41
1.0
 42
0.0
  3
tform線あり
100
AcDbAlignedDimension
 13
-259.33884794408732
 23
416.0141919180885
 33
0.0
 14
-659.33884794408641
 24
322.05562658743634
 34
0.0
100
AcDbRotatedDimension
1001
ACAD
1000
DSTYLE
1002
{
1070
             279
1070
               2
1070
             340
1005
37
1070
             140
1040
24.432617187500004
1070
             147
1040
5.0
1002
}
  0
DIMENSION
  5
16C
100
AcDbEntity
  8
notes
370
               5
390
0
  6
Continuous
 62
               7
100
AcDbDimension
  2
*D16
 10
246.26235838475986
 20
-413.86657129611717
 30
0.0
 11
246.26235838475986
 21
-508.86439555524953
 31
0.0
 71
               5
 72
               1
 41
1.0
 42
0.0
  3
tform線あり
100
AcDbAlignedDimension
 13
423.39667245039163
 23
-603.86221981438189
 33
0.0
 14
351.05102572168289
 24
-413.86657129611717
 34
0.0
 50
90.0
100
AcDbRotatedDimension
1001
ACAD
1000
DSTYLE
1002
{
1070
             279
1070
               2
1070
             340
1005
37
1070
             140
1040
24.432617187500004
1070
             147
1040
5.0
1002
}
  0
DIMENSION
  5
16D
100
AcDbEntity
  8
notes
370
               5
390
0
  6
Continuous
 62
               7
100
AcDbDimension
  2
*D17
 10
826.0
 20
-697.86657129611717
 30
0.0
 11
678.5
 21
-697.86657129611717
 31
0.0
 71
               5
 72
               1
 41
1.0
 42
0.0
  3
tform線あり
100
AcDbAlignedDimension
 13
531.00000000000091
 23
-602.04825307689839
 33
0.0
 14
826.0
 24
-598.8283599140027
 34
0.0
100
AcDbRotatedDimension
1001
ACAD
1000
DSTYLE
1002
{
1070
             279
1070
               2
1070
             340
1005
37
1070
             140
1040
24.432617187500004
1070
             147
1040
5.0
1002
}
  0
DIMENSION
  5
16E
100
AcDbEntity
  8
notes
370
               5
390
0
  6
Continuous
 62
               7
100
AcDbDimension
  2
*D18
 10
826.0
 20
-313.86657129611717
 30
0.0
 11
791.0
 21
-313.86657129611717
 31
0.0
 71
               5
 72
               1
 41
1.0
 42
0.0
  3
tform線あり
100
AcDbAlignedDimension
 13
756.0
 23
-413.86657129611717
 33
0.0
 14
826.0
 24
-418.86657129611717
 34
0.0
100
AcDbRotatedDimension
1001
ACAD
1000
DSTYLE
1002
{
1070
             279
1070
               2
1070
             340
1005
37
1070
             140
1040
24.432617187500004
1070
             147
1040
5.0
1002
}
  0
DIMENSION
  5
16F
100
AcDbEntity
  8
notes
370
               5
390
0
  6
Continuous
 62
               7
100
AcDbDimension
  2
*D19
 10
521.33551130877549
 20
-413.86657129611717
 30
0.0
 11
516.33551130877549
 21
-407.67896181134324
 31
0.0
 70
             128
 71
               5
 72
               1
 41
1.0
 42
0.0
  3
tform線あり
100
AcDbAlignedDimension
 13
567.38223482019839
 23
-553.86657129611717
 33
0.0
 14
579.63014357526936
 24
-413.86657129611717
 34
0.0
 50
90.0
100
AcDbRotatedDimension
1001
ACAD
1000
DSTYLE
1002
{
1070
             279
1070
               2
1070
             340
1005
37
1070
             140
1040
24.432617187500004
1070
               3
1000
<>(深さ)
1070
             174
1070
               0
1070
             147
1040
5.0
1002
}
  0
LINE
  5
170
100
AcDbEntity
  8
notes
370
              15
390
0
  6
Continuous
 62
               7
100
AcDbLine
 10
504.0
 20
-413.86657129611717
 30
0.0
 11
504.0
 21
-464.0
 31
0.0
  0
LWPOLYLINE
  5
171
100
AcDbEntity
  8
ADF70-1204
370
              15
390
0
  6
Continuous
 62
               7
100
AcDbPolyline
 90
        7
 70
             129
 10
-496.83884794408641
 20
347.05562658743634
 10
-421.83884794408732
 20
347.05562658743634
 42
0.414213562373095
 10
-259.33884794408732
 20
509.55562658743634
 42
0.414213562373095
 10
-421.83884794408732
 20
672.05562658743634
 10
-496.83884794408641
 20
672.05562658743634
 42
0.414213562373095
 10
-659.33884794408641
 20
509.55562658743634
 42
0.4142135623730966
 10
-496.83884794408641
 20
347.05562658743634
  0
CIRCLE
  5
172
100
AcDbEntity
  8
ADF70-1204
370
              15
390
0
  6
Continuous
 62
               7
100
AcDbCircle
 10
-459.33884794408641
 20
509.55562658743634
 30
0.0
 40
22.5
  0
CIRCLE
  5
173
100
AcDbEntity
  8
ADF70-1204
370
              15
390
0
  6
Continuous
 62
               7
100
AcDbCircle
 10
-459.33884794408641
 20
509.55562658743634
 30
0.0
 40
39.0
  0
LINE
  5
174
100
AcDbEntity
  8
ADF70-1204
370
              15
390
0
  6
Continuous
 62
               7
100
AcDbLine
 10
-727.54925162909603
 20
328.05562658743634
 30
0.0
 11
-727.54925162909421
 21
799.05562658743588
 31
0.0
  0
LINE
  5
175
100
AcDbEntity
  8
ADF70-1204
370
              15
390
0
  6
Continuous
 62
               7
100
AcDbLine
 10
-724.54925162909603
 20
802.05562658743588
 30
0.0
 11
19.450748370901238
 21
802.05562658743679
 31
0.0
  0
LINE
  5
176
100
AcDbEntity
  8
ADF70-1204
370
              15
390
0
  6
Continuous
 62
               7
100
AcDbLine
 10
22.450748370901238
 20
799.05562658743725
 30
0.0
 11
22.450748370901238
 21
478.05562658743634
 31
0.0
  0
LINE
  5
177
100
AcDbEntity
  8
ADF70-1204
370
              15
390
0
  6
Continuous
 62
               7
100
AcDbLine
 10
16.450748370901238
 20
472.05562658743634
 30
0.0
 11
-233.29177159443952
 21
472.05562658743634
 31
0.0
  0
ARC
  5
178
100
AcDbEntity
  8
ADF70-1204
370
              15
390
0
  6
Continuous
 62
               7
100
AcDbCircle
 10
-421.83884794408732
 20
509.55562658743634
 30
0.0
 40
187.5
100
AcDbArc
 50
270.0
 51
347.00851761731428
  0
LINE
  5
179
100
AcDbEntity
  8
ADF70-1204
370
              15
390
0
  6
Continuous
 62
               7
100
AcDbLine
 10
-421.83884794408732
 20
322.05562658743634
 30
0.0
 11
-721.54925162909785
 21
322.05562658743634
 31
0.0
  0
SPLINE
  5
17A
100
AcDbEntity
  8
ADF70-1204
370
              15
390
0
  6
Continuous
 62
               7
100
AcDbSpline
210
0.0
220
0.0
230
1.0
 70
              13
 71
               2
 72
              12
 73
               9
 74
               0
 42
0.000001
 43
0.000001
 40
0.0
 40
0.0
 40
0.0
 40
0.25
 40
0.25
 40
0.5
 40
0.5
 40
0.75
 40
0.75
 40
1.0
 40
1.0
 40
1.0
 10
-471.83884794408641
 20
660.05562658743634
 30
0.0
 41
1.0
 10
-471.83884794408641
 20
655.28212500769064
 30
0.0
 41
0.7071067811865476
 10
-459.33884794408641
 20
655.28212500769109
 30
0.0
 41
1.0
 10
-446.8388479440855
 20
655.28212500769064
 30
0.0
 41
0.7071067811865476
 10
-446.83884794408641
 20
660.05562658743634
 30
0.0
 41
1.0
 10
-446.8388479440855
 20
664.82912816718112
 30
0.0
 41
0.7071067811865476
 10
-459.33884794408641
 20
664.82912816718158
 30
0.0
 41
1.0
 10
-471.83884794408641
 20
664.82912816718112
 30
0.0
 41
0.7071067811865476
 10
-471.83884794408641
 20
660.05562658743634
 30
0.0
 41
1.0
  0
ARC
  5
17B
100
AcDbEntity
  8
ADF70-1204
370
              15
390
0
  6
Continuous
 62
               7
100
AcDbCircle
 10
-724.54925162909603
 20
799.05562658743588
 30
0.0
 40
3.0
100
AcDbArc
 50
90.0
 51
180.0
  0
ARC
  5
17C
100
AcDbEntity
  8
ADF70-1204
370
              15
390
0
  6
Continuous
 62
               7
100
AcDbCircle
 10
19.450748370901238
 20
799.05562658743679
 30
0.0
 40
3.0
100
AcDbArc
 50
0.0
 51
90.0
  0
ARC
  5
17D
100
AcDbEntity
  8
ADF70-1204
370
              15
390
0
  6
Continuous
 62
               7
100
AcDbCircle
 10
16.450748370901238
 20
478.05562658743634
 30
0.0
 40
6.0
100
AcDbArc
 50
270.0
 51
0.0
  0
ARC
  5
17E
100
AcDbEntity
  8
ADF70-1204
370
              15
390
0
  6
Continuous
 62
               7
100
AcDbCircle
 10
-233.29177159443952
 20
466.05562658743634
 30
0.0
 40
6.0
100
AcDbArc
 50
90.0
 51
167.00851761731462
  0
ARC
  5
17F
100
AcDbEntity
  8
ADF70-1204
370
              15
390
0
  6
Continuous
 62
               7
100
AcDbCircle
 10
-721.54925162909785
 20
328.05562658743634
 30
0.0
 40
5.999999999998181
100
AcDbArc
 50
180.0
 51
270.0
  0
POLYLINE
  5
180
100
AcDbEntity
  8
ADF70-1204
370
              15
390
0
  6
Continuous
 62
               7
100
AcDb2dPolyline
 66
               1
 10
0.0
 20
0.0
 30
0.0
 70
               1
 75
               5
  0
VERTEX
  5
181
100
AcDbEntity
  8
ADF70-1204
370
              15
390
0
  6
Continuous
 62
               7
100
AcDbVertex
100
AcDb2dVertex
 10
-727.54925162909603
 20
-413.86657129611717
 30
0.0
  0
VERTEX
  5
182
100
AcDbEntity
  8
ADF70-1204
370
              15
390
0
  6
Continuous
 62
               7
100
AcDbVertex
100
AcDb2dVertex
 10
22.450748370901238
 20
-413.86657129611717
 30
0.0
  0
VERTEX
  5
183
100
AcDbEntity
  8
ADF70-1204
370
              15
390
0
  6
Continuous
 62
               7
100
AcDbVertex
100
AcDb2dVertex
 10
22.450748370901238
 20
-463.86657129611717
 30
0.0
  0
VERTEX
  5
184
100
AcDbEntity
  8
ADF70-1204
370
              15
390
0
  6
Continuous
 62
               7
100
AcDbVertex
100
AcDb2dVertex
 10
-727.54925162909603
 20
-463.86657129611717
 30
0.0
  0
SEQEND
  5
185
100
AcDbEntity
  8
ADF70-1204
370
              15
390
0
  6
Continuous
 62
               7
  0
LINE
  5
186
100
AcDbEntity
  8
ADF70-1204
370
              15
390
0
  6
STYLE_12
 62
               7
100
AcDbLine
 10
-437.21228895966033
 20
-602.04825307689839
 30
0.0
 11
-481.83884794408641
 21
-602.04825307689839
 31
0.0
  0
LINE
  5
187
100
AcDbEntity
  8
ADF70-1204
370
              15
390
0
  6
STYLE_12
 62
               7
100
AcDbLine
 10
-459.33884794408641
 20
-552.04825307689839
 30
0.0
 11
-499.33884794408732
 21
-552.04825307689839
 31
0.0
  0
LINE
  5
188
100
AcDbEntity
  8
ADF70-1204
370
              15
390
0
  6
STYLE_12
 62
               7
100
AcDbLine
 10
-459.33884794408641
 20
-564.04825307689839
 30
0.0
 11
-481.83884794408641
 21
-564.04825307689839
 31
0.0
  0
LINE
  5
189
100
AcDbEntity
  8
ADF70-1204
370
              15
390
0
  6
Continuous
 62
               7
100
AcDbLine
 10
-592.75092392890747
 20
-603.86221981438189
 30
0.0
 11
-325.92677195926535
 21
-603.86221981438189
 31
0.0
  0
LINE
  5
18A
100
AcDbEntity
  8
ADF70-1204
370
              15
390
0
  6
Continuous
 62
               7
100
AcDbLine
 10
-592.80639464322758
 20
-603.86221981438189
 30
0.0
 11
-592.75092392890747
 21
-603.86221981438189
 31
0.0
  0
ARC
  5
18B
100
AcDbEntity
  8
ADF70-1204
370
              15
390
0
  6
Continuous
 62
               7
100
AcDbCircle
 10
-592.80639464322758
 20
-599.13574934461599
 30
0.0
 40
4.7264704697658537
100
AcDbArc
 50
223.21627884613412
 51
270.0
  0
LINE
  5
18C
100
AcDbEntity
  8
ADF70-1204
370
              15
390
0
  6
Continuous
 62
               7
100
AcDbLine
 10
-596.25092392890747
 20
-602.36221981438189
 30
0.0
 11
-596.25092392890747
 21
-602.3722198143812
 31
0.0
  0
LINE
  5
18D
100
AcDbEntity
  8
ADF70-1204
370
              15
390
0
  6
Continuous
 62
               7
100
AcDbLine
 10
-608.51563497923144
 20
-588.47669694503088
 30
0.0
 11
-596.25092392890747
 21
-602.36221981438189
 31
0.0
  0
ARC
  5
18E
100
AcDbEntity
  8
ADF70-1204
370
              15
390
0
  6
Continuous
 62
               7
100
AcDbCircle
 10
-430.9198065935625
 20
-424.16870001187363
 30
0.0
 40
249.99999999999918
100
AcDbArc
 50
189.13675666502181
 51
192.40329448789933
  0
ARC
  5
18F
100
AcDbEntity
  8
ADF70-1204
370
              15
390
0
  6
STYLE_12
 62
               7
100
AcDbCircle
 10
-660.79367564755285
 20
-418.86657129611672
 30
0.0
 40
5.000000000000254
100
AcDbArc
 50
5.2360077006431229
 51
90.0
  0
ARC
  5
190
100
AcDbEntity
  8
ADF70-1204
370
              15
390
0
  6
STYLE_12
 62
               7
100
AcDbCircle
 10
-510.4194926688815
 20
-406.1600207703957
 30
0.0
 40
145.91020681535517
100
AcDbArc
 50
184.81608059400486
 51
273.59659811678523
  0
ARC
  5
191
100
AcDbEntity
  8
ADF70-1204
370
              15
390
0
  6
STYLE_12
 62
               7
100
AcDbCircle
 10
-503.25011112215179
 20
-561.23536744350577
 30
0.0
 40
10.000000000002
100
AcDbArc
 50
55.561010691207059
 51
78.799397958568989
  0
LINE
  5
192
100
AcDbEntity
  8
ADF70-1204
370
              15
390
0
  6
STYLE_12
 62
               7
100
AcDbLine
 10
-481.46540692851249
 20
-564.04825307689839
 30
0.0
 11
-497.5948275666351
 21
-552.98807892504442
 31
0.0
  0
LINE
  5
193
100
AcDbEntity
  8
ADF70-1204
370
              15
390
0
  6
STYLE_12
 62
               7
100
AcDbLine
 10
-481.46540692851249
 20
-602.04825307689839
 30
0.0
 11
-481.46540692851249
 21
-564.04825307689839
 31
0.0
  0
ARC
  5
194
100
AcDbEntity
  8
ADF70-1204
370
              15
390
0
  6
Continuous
 62
               7
100
AcDbCircle
 10
-435.70501537564905
 20
-409.13612833855996
 30
0.0
 40
249.05129952655636
100
AcDbArc
 50
196.01976972025636
 51
226.06231544270574
  0
LINE
  5
195
100
AcDbEntity
  8
ADF70-1204
370
              15
390
0
  6
STYLE_12
 62
               7
100
AcDbLine
 10
-459.33884794408641
 20
-552.04825307689839
 30
0.0
 11
-419.3388479440855
 21
-552.04825307689839
 31
0.0
  0
LINE
  5
196
100
AcDbEntity
  8
ADF70-1204
370
              15
390
0
  6
STYLE_12
 62
               7
100
AcDbLine
 10
-459.33884794408641
 20
-564.04825307689839
 30
0.0
 11
-436.83884794408641
 21
-564.04825307689839
 31
0.0
  0
LINE
  5
197
100
AcDbEntity
  8
ADF70-1204
370
              15
390
0
  6
Continuous
 62
               7
100
AcDbLine
 10
-325.87130124494524
 20
-603.86221981438189
 30
0.0
 11
-325.92677195926535
 21
-603.86221981438189
 31
0.0
  0
ARC
  5
198
100
AcDbEntity
  8
ADF70-1204
370
              15
390
0
  6
Continuous
 62
               7
100
AcDbCircle
 10
-325.87130124494524
 20
-599.13574934461599
 30
0.0
 40
4.7264704697658999
100
AcDbArc
 50
270.0
 51
316.78372115386588
  0
LINE
  5
199
100
AcDbEntity
  8
ADF70-1204
370
              15
390
0
  6
Continuous
 62
               7
100
AcDbLine
 10
-322.42677195926535
 20
-602.36221981438189
 30
0.0
 11
-322.42677195926535
 21
-602.3722198143812
 31
0.0
  0
LINE
  5
19A
100
AcDbEntity
  8
ADF70-1204
370
              15
390
0
  6
Continuous
 62
               7
100
AcDbLine
 10
-310.16206090894138
 20
-588.47669694503088
 30
0.0
 11
-322.42677195926535
 21
-602.36221981438189
 31
0.0
  0
ARC
  5
19B
100
AcDbEntity
  8
ADF70-1204
370
              15
390
0
  6
Continuous
 62
               7
100
AcDbCircle
 10
-487.75788929461032
 20
-424.16870001187363
 30
0.0
 40
249.99999999999963
100
AcDbArc
 50
347.5967055121007
 51
350.86324333497822
  0
ARC
  5
19C
100
AcDbEntity
  8
ADF70-1204
370
              15
390
0
  6
STYLE_12
 62
               7
100
AcDbCircle
 10
-257.88402024061907
 20
-418.86657129611672
 30
0.0
 40
5.0000000000004547
100
AcDbArc
 50
90.0
 51
174.76399229935689
  0
ARC
  5
19D
100
AcDbEntity
  8
ADF70-1204
370
              15
390
0
  6
STYLE_12
 62
               7
100
AcDbCircle
 10
-408.25820321929132
 20
-406.1600207703957
 30
0.0
 40
145.91020681535574
100
AcDbArc
 50
266.40340188321471
 51
355.1839194059952
  0
ARC
  5
19E
100
AcDbEntity
  8
ADF70-1204
370
              15
390
0
  6
STYLE_12
 62
               7
100
AcDbCircle
 10
-415.42758476602103
 20
-561.23536744350577
 30
0.0
 40
10.000000000002311
100
AcDbArc
 50
101.20060204143103
 51
124.43898930879294
  0
LINE
  5
19F
100
AcDbEntity
  8
ADF70-1204
370
              15
390
0
  6
STYLE_12
 62
               7
100
AcDbLine
 10
-437.21228895966033
 20
-564.04825307689839
 30
0.0
 11
-421.08286832153772
 21
-552.98807892504442
 31
0.0
  0
LINE
  5
1A0
100
AcDbEntity
  8
ADF70-1204
370
              15
390
0
  6
STYLE_12
 62
               7
100
AcDbLine
 10
-437.21228895966033
 20
-602.04825307689839
 30
0.0
 11
-437.21228895966033
 21
-564.04825307689839
 31
0.0
  0
ARC
  5
1A1
100
AcDbEntity
  8
ADF70-1204
370
              15
390
0
  6
Continuous
 62
               7
100
AcDbCircle
 10
-482.97268051252377
 20
-409.13612833855996
 30
0.0
 40
249.05129952655608
100
AcDbArc
 50
313.93768455729423
 51
343.98023027974364
  0
LINE
  5
1A2
100
AcDbEntity
  8
ADF70-1204
370
              15
390
0
  6
Continuous
 62
               7
100
AcDbLine
 10
-233.29177159443952
 20
-463.86657129611717
 30
0.0
 11
-233.29177159443952
 21
-413.86657129611717
 31
0.0
  0
LINE
  5
1A3
100
AcDbEntity
  8
ADF70-1204
370
              15
390
0
  6
STYLE_12
 62
               7
100
AcDbLine
 10
-599.36540692851213
 20
-473.86657129611717
 30
0.0
 11
-599.36540692851213
 21
-433.86657129611717
 31
0.0
  0
CIRCLE
  5
1A4
100
AcDbEntity
  8
ADF70-1204
370
              15
390
0
  6
STYLE_12
 62
               7
100
AcDbCircle
 10
-460.07006692378218
 20
732.05229903782742
 30
0.0
 40
17.5
  0
CIRCLE
  5
1A5
100
AcDbEntity
  8
ADF70-1204
370
              15
390
0
  6
STYLE_12
 62
               7
100
AcDbCircle
 10
-627.57006692378218
 20
702.05562658743588
 30
0.0
 40
17.5
  0
CIRCLE
  5
1A6
100
AcDbEntity
  8
ADF70-1204
370
              15
390
0
  6
STYLE_12
 62
               7
100
AcDbCircle
 10
-292.57006692378218
 20
702.03342870388383
 30
0.0
 40
17.499999999999822
  0
LINE
  5
1A7
100
AcDbEntity
  8
ADF70-1204
370
              15
390
0
  6
STYLE_12
 62
               7
100
AcDbLine
 10
-579.36540692851213
 20
-453.86657129611717
 30
0.0
 11
-619.36540692851213
 21
-453.86657129611717
 31
0.0
  0
CIRCLE
  5
1A8
100
AcDbEntity
  8
ADF70-1204
370
              15
390
0
  6
STYLE_12
 62
               7
100
AcDbCircle
 10
-599.36540692851213
 20
-453.86657129611717
 30
0.0
 40
10.0
  0
LINE
  5
1A9
100
AcDbEntity
  8
ADF70-1204
370
              15
390
0
  6
STYLE_12
 62
               7
100
AcDbLine
 10
-319.36540692851213
 20
-473.86657129611717
 30
0.0
 11
-319.36540692851213
 21
-433.86657129611717
 31
0.0
  0
LINE
  5
1AA
100
AcDbEntity
  8
ADF70-1204
370
              15
390
0
  6
STYLE_12
 62
               7
100
AcDbLine
 10
-299.36540692851213
 20
-453.86657129611717
 30
0.0
 11
-339.36540692851213
 21
-453.86657129611717
 31
0.0
  0
CIRCLE
  5
1AB
100
AcDbEntity
  8
ADF70-1204
370
              15
390
0
  6
STYLE_12
 62
               7
100
AcDbCircle
 10
-319.36540692851213
 20
-453.86657129611717
 30
0.0
 40
10.0
  0
LINE
  5
1AC
100
AcDbEntity
  8
ADF70-1204
370
              15
390
0
  6
Continuous
 62
               7
100
AcDbLine
 10
773.5
 20
-413.86657129611717
 30
0.0
 11
773.5
 21
-428.86657129611717
 31
0.0
  0
LINE
  5
1AD
100
AcDbEntity
  8
ADF70-1204
370
              15
390
0
  6
Continuous
 62
               7
100
AcDbLine
 10
738.5
 20
-413.86657129611717
 30
0.0
 11
738.5
 21
-428.86657129611717
 31
0.0
  0
LINE
  5
1AE
100
AcDbEntity
  8
ADF70-1204
370
              15
390
0
  6
STYLE_12
 62
               7
100
AcDbLine
 10
496.1517140696933
 20
-553.86657129611717
 30
0.0
 11
570.84828593030579
 21
-553.86657129611717
 31
0.0
  0
LINE
  5
1AF
100
AcDbEntity
  8
ADF70-1204
370
              15
390
0
  6
Continuous
 62
               7
100
AcDbLine
 10
821.0
 20
-413.86657129611717
 30
0.0
 11
351.05102572168289
 21
-413.86657129611717
 31
0.0
  0
LINE
  5
1B0
100
AcDbEntity
  8
ADF70-1204
370
              15
390
0
  6
Continuous
 62
               7
100
AcDbLine
 10
826.0
 20
-418.86657129611717
 30
0.0
 11
826.0
 21
-537.72835991400257
 31
0.0
  0
LINE
  5
1B1
100
AcDbEntity
  8
ADF70-1204
370
              15
390
0
  6
Continuous
 62
               7
100
AcDbLine
 10
431.3332871654984
 20
-590.22835991400257
 30
0.0
 11
431.33328714427989
 21
-590.22835983484742
 31
0.0
  0
LINE
  5
1B2
100
AcDbEntity
  8
ADF70-1204
370
              15
390
0
  6
STYLE_12
 62
               7
100
AcDbLine
 10
556.0
 20
-602.04825307689839
 30
0.0
 11
511.00000000000091
 21
-602.04825307689839
 31
0.0
  0
LINE
  5
1B3
100
AcDbEntity
  8
ADF70-1204
370
              15
390
0
  6
STYLE_12
 62
               7
100
AcDbLine
 10
556.0
 20
-564.04825307689839
 30
0.0
 11
511.00000000000091
 21
-564.04825307689839
 31
0.0
  0
LINE
  5
1B4
100
AcDbEntity
  8
ADF70-1204
370
              15
390
0
  6
STYLE_12
 62
               7
100
AcDbLine
 10
556.0
 20
-564.04825307689839
 30
0.0
 11
556.0
 21
-602.04825307689839
 31
0.0
  0
LINE
  5
1B5
100
AcDbEntity
  8
ADF70-1204
370
              15
390
0
  6
STYLE_12
 62
               7
100
AcDbLine
 10
572.1294206381217
 20
-552.98807892504351
 30
0.0
 11
555.99999999999909
 21
-564.04825307689839
 31
0.0
  0
ARC
  5
1B6
100
AcDbEntity
  8
ADF70-1204
370
              15
390
0
  6
STYLE_12
 62
               7
100
AcDbCircle
 10
577.78470419363657
 20
-561.23536744350417
 30
0.0
 40
10.000000000000089
100
AcDbArc
 50
101.200602041407
 51
124.43898930880177
  0
ARC
  5
1B7
100
AcDbEntity
  8
ADF70-1204
370
              15
390
0
  6
Continuous
 62
               7
100
AcDbCircle
 10
821.0
 20
-418.86657129611717
 30
0.0
 40
5.0
100
AcDbArc
 50
0.0
 51
90.0
  0
LINE
  5
1B8
100
AcDbEntity
  8
ADF70-1204
370
              15
390
0
  6
Continuous
 62
               7
100
AcDbLine
 10
826.0
 20
-537.72835991400257
 30
0.0
 11
826.0
 21
-598.8283599140027
 31
0.0
  0
ARC
  5
1B9
100
AcDbEntity
  8
ADF70-1204
370
              15
390
0
  6
Continuous
 62
               7
100
AcDbCircle
 10
821.0
 20
-598.8283599140027
 30
0.0
 40
5.0
100
AcDbArc
 50
270.0
 51
0.0
  0
ARC
  5
1BA
100
AcDbEntity
  8
ADF70-1204
370
              15
390
0
  6
STYLE_12
 62
               7
100
AcDbCircle
 10
700.66357773217351
 20
-418.86657129611717
 30
0.0
 40
5.0
100
AcDbArc
 50
90.0
 51
174.76399229938025
  0
ARC
  5
1BB
100
AcDbEntity
  8
ADF70-1204
370
              15
390
0
  6
STYLE_12
 62
               7
100
AcDbCircle
 10
557.07397257710181
 20
-414.02178822054861
 30
0.0
 40
138.67992266925918
100
AcDbArc
 50
351.24719879993347
 51
358.18658686734335
  0
ARC
  5
1BC
100
AcDbEntity
  8
ADF70-1204
370
              15
390
0
  6
STYLE_12
 62
               7
100
AcDbCircle
 10
557.07397257718094
 20
-414.02178822056499
 30
0.0
 40
138.67992266917813
100
AcDbArc
 50
339.26601662022193
 51
351.24719879993324
  0
ARC
  5
1BD
100
AcDbEntity
  8
ADF70-1204
370
              15
390
0
  6
STYLE_12
 62
               7
100
AcDbCircle
 10
557.07397257710181
 20
-414.02178822054861
 30
0.0
 40
138.67992266925924
100
AcDbArc
 50
277.77800747342917
 51
339.26601662022165
  0
POLYLINE
  5
1BE
100
AcDbEntity
  8
ADF70-1204
370
              15
390
0
  6
Continuous
 62
               7
100
AcDb2dPolyline
 66
               1
 10
0.0
 20
0.0
 30
0.0
 75
               5
  0
VERTEX
  5
1BF
100
AcDbEntity
  8
ADF70-1204
370
              15
390
0
  6
Continuous
 62
               7
100
AcDbVertex
100
AcDb2dVertex
 10
423.34120173607243
 20
-603.86221981438189
 30
0.0
  0
VERTEX
  5
1C0
100
AcDbEntity
  8
ADF70-1204
370
              15
390
0
  6
Continuous
 62
               7
100
AcDbVertex
100
AcDb2dVertex
 10
423.39667245039163
 20
-603.86221981438189
 30
0.0
  0
VERTEX
  5
1C1
100
AcDbEntity
  8
ADF70-1204
370
              15
390
0
  6
Continuous
 62
               7
100
AcDbVertex
100
AcDb2dVertex
 10
428.79667245039218
 20
-603.86221981438189
 30
0.0
  0
SEQEND
  5
1C2
100
AcDbEntity
  8
ADF70-1204
370
              15
390
0
  6
Continuous
 62
               7
  0
ARC
  5
1C3
100
AcDbEntity
  8
ADF70-1204
370
              15
390
0
  6
Continuous
 62
               7
100
AcDbCircle
 10
423.34120173607334
 20
-599.13574934461349
 30
0.0
 40
4.7264704697688922
100
AcDbArc
 50
223.21627884614114
 51
269.99999999998897
  0
LINE
  5
1C4
100
AcDbEntity
  8
ADF70-1204
370
              15
390
0
  6
Continuous
 62
               7
100
AcDbLine
 10
419.89667245039163
 20
-602.36221981438189
 30
0.0
 11
419.89667245039163
 21
-602.3722198143812
 31
0.0
  0
LINE
  5
1C5
100
AcDbEntity
  8
ADF70-1204
370
              15
390
0
  6
Continuous
 62
               7
100
AcDbLine
 10
407.78820624733999
 20
-588.47669694502838
 30
0.0
 11
419.89667245039163
 21
-602.36221981438189
 31
0.0
  0
ARC
  5
1C6
100
AcDbEntity
  8
ADF70-1204
370
              15
390
0
  6
Continuous
 62
               7
100
AcDbCircle
 10
596.2102913218223
 20
-424.16870001187021
 30
0.0
 40
250.00000000000438
100
AcDbArc
 50
181.16938280561416
 51
221.08910854490802
  0
LINE
  5
1C7
100
AcDbEntity
  8
ADF70-1204
370
              15
390
0
  6
Continuous
 62
               7
100
AcDbLine
 10
346.05206706294211
 20
-418.968612112443
 30
0.0
 11
346.26235838475895
 21
-429.27074082819718
 31
0.0
  0
ARC
  5
1C8
100
AcDbEntity
  8
ADF70-1204
370
              15
390
0
  6
Continuous
 62
               7
100
AcDbCircle
 10
351.05102572168289
 20
-418.86657129611604
 30
0.0
 40
4.9999999999988631
100
AcDbArc
 50
90.0
 51
181.16938280561908
  0
ARC
  5
1C9
100
AcDbEntity
  8
ADF70-1204
370
              15
390
0
  6
STYLE_12
 62
               7
100
AcDbCircle
 10
366.3364222678274
 20
-418.86657129611694
 30
0.0
 40
5.0000000000011804
100
AcDbArc
 50
5.2360077006447669
 51
89.999999999989583
  0
ARC
  5
1CA
100
AcDbEntity
  8
ADF70-1204
370
              15
390
0
  6
STYLE_12
 62
               7
100
AcDbCircle
 10
509.92602742290001
 20
-414.02178822054725
 30
0.0
 40
138.67992266926066
100
AcDbArc
 50
181.81341313264551
 51
262.22199252657168
  0
ARC
  5
1CB
100
AcDbEntity
  8
ADF70-1204
370
              15
390
0
  6
STYLE_12
 62
               7
100
AcDbCircle
 10
489.21529580635979
 20
-561.23536744350668
 30
0.0
 40
10.00000000000364
100
AcDbArc
 50
55.561010691207187
 51
78.799397958570509
  0
LINE
  5
1CC
100
AcDbEntity
  8
ADF70-1204
370
              15
390
0
  6
STYLE_12
 62
               7
100
AcDbLine
 10
511.00000000000091
 20
-564.04825307689839
 30
0.0
 11
494.8705793618783
 21
-552.98807892504442
 31
0.0
  0
LINE
  5
1CD
100
AcDbEntity
  8
ADF70-1204
370
              15
390
0
  6
STYLE_12
 62
               7
100
AcDbLine
 10
511.00000000000091
 20
-602.04825307689839
 30
0.0
 11
511.00000000000091
 21
-564.04825307689839
 31
0.0
  0
LINE
  5
1CE
100
AcDbEntity
  8
ADF70-1204
370
              15
390
0
  6
Continuous
 62
               7
100
AcDbLine
 10
821.19667245039091
 20
-603.86657129611717
 30
0.0
 11
423.39667245039163
 21
-603.86221981438189
 31
0.0
  0
LINE
  5
1CF
100
AcDbEntity
  8
ADF70-1204
370
              15
390
0
  6
Continuous
 62
               7
100
AcDbLine
 10
504.0
 20
-463.86657129611717
 30
0.0
 11
826.0
 21
-463.86657129611717
 31
0.0
  0
ENDSEC
  0
SECTION
  2
OBJECTS
  0
DICTIONARY
  5
19
100
AcDbDictionary
280
               0
281
               1
  3
ACAD_GROUP
350
1A
  3
ACAD_MLINESTYLE
350
1B
  3
ACAD_LAYOUT
350
1E
  3
ACAD_PLOTSETTINGS
350
22
  3
ACAD_PLOTSTYLENAME
350
1F
  0
DICTIONARY
  5
1A
102
{ACAD_REACTORS
330
19
102
}
100
AcDbDictionary
280
               0
281
               1
  0
DICTIONARY
  5
1B
102
{ACAD_REACTORS
330
19
102
}
100
AcDbDictionary
280
               0
281
               1
  3
Standard
350
1C
  0
MLINESTYLE
  5
1C
102
{ACAD_REACTORS
330
1B
102
}
100
AcDbMlineStyle
  2
Standard
 70
               0
  3

 62
               0
 51
90.0
 52
90.0
 71
               2
 49
0.5
 62
             256
  6
ByLayer
 49
-0.5
 62
             256
  6
ByLayer
  0
ACDBDICTIONARYWDFLT
  5
1F
102
{ACAD_REACTORS
330
19
102
}
100
AcDbDictionary
281
               1
  3
Normal
350
1D
100
AcDbDictionaryWithDefault
340
1D
  0
ACDBPLACEHOLDER
  5
1D
102
{ACAD_REACTORS
330
1F
102
}
  0
LAYOUT
  5
20
102
{ACAD_REACTORS
330
1E
102
}
100
AcDbPlotSettings
  1

  2

  4

  6

 40
0.0
 41
0.0
 42
0.0
 43
0.0
 44
0.0
 45
0.0
 46
0.0
 47
0.0
 48
0.0
 49
0.0
140
0.0
141
0.0
142
1.0
143
1.0
 70
            1024
 72
               0
 73
               0
 74
               0
  7

 75
               0
147
1.0
148
0.0
149
0.0
100
AcDbLayout
  1
Model
 70
               0
 71
               0
 10
0.0
 20
0.0
 11
0.0
 21
0.0
 12
0.0
 22
0.0
 32
0.0
 14
0.0
 24
0.0
 34
0.0
 15
0.0
 25
0.0
 35
0.0
146
0.0
 13
0.0
 23
0.0
 33
0.0
 16
0.0
 26
0.0
 36
0.0
 17
0.0
 27
0.0
 37
0.0
 76
               0
330
A
331
0
345
0
346
0
  0
LAYOUT
  5
21
102
{ACAD_REACTORS
330
1E
102
}
100
AcDbPlotSettings
  1

  2

  4

  6

 40
0.0
 41
0.0
 42
0.0
 43
0.0
 44
0.0
 45
0.0
 46
0.0
 47
0.0
 48
0.0
 49
0.0
140
0.0
141
0.0
142
1.0
143
1.0
 70
               0
 72
               0
 73
               0
 74
               0
  7

 75
               0
147
1.0
148
0.0
149
0.0
100
AcDbLayout
  1
Layout1
 70
               0
 71
               0
 10
0.0
 20
0.0
 11
0.0
 21
0.0
 12
0.0
 22
0.0
 32
0.0
 14
0.0
 24
0.0
 34
0.0
 15
0.0
 25
0.0
 35
0.0
146
0.0
 13
0.0
 23
0.0
 33
0.0
 16
0.0
 26
0.0
 36
0.0
 17
0.0
 27
0.0
 37
0.0
 76
               0
330
B
331
0
345
0
346
0
  0
DICTIONARY
  5
1E
102
{ACAD_REACTORS
330
19
102
}
100
AcDbDictionary
280
               0
281
               1
  3
Layout1
350
21
  3
Model
350
20
  0
DICTIONARY
  5
22
102
{ACAD_REACTORS
330
19
102
}
100
AcDbDictionary
280
               0
281
               1
  0
ENDSEC
  0
EOF
