  0
SECTION
  2
HEADER
  9
$ACADVER
  1
AC1015
  9
$ACADMAINTVER
 70
               6
  9
$DWGCODEPAGE
  3
ANSI_932
  9
$INSBASE
 10
0.0
 20
0.0
 30
0.0
  9
$EXTMIN
 10
-975.00000000024193
 20
-1431.5255224711129
 30
-14.834305555555554
  9
$EXTMAX
 10
975.00000000024193
 20
1405.9972926412993
 30
14.834305555555554
  9
$LIMMIN
 10
0.0
 20
0.0
  9
$LIMMAX
 10
0.0
 20
0.0
  9
$ORTHOMODE
 70
               0
  9
$REGENMODE
 70
               1
  9
$FILLMODE
 70
               1
  9
$QTEXTMODE
 70
               0
  9
$MIRRTEXT
 70
               1
  9
$LTSCALE
 40
50.799999999999997
  9
$ATTMODE
 70
               1
  9
$TEXTSIZE
 40
0.2
  9
$TRACEWID
 40
1.0
  9
$TEXTSTYLE
  7
Standard
  9
$CLAYER
  8
notes
  9
$CELTYPE
  6
Continuous
  9
$CECOLOR
 62
             256
  9
$CELTSCALE
 40
1.0
  9
$DISPSILH
 70
               0
  9
$DIMSCALE
 40
1.0
  9
$DIMASZ
 40
31.75
  9
$DIMEXO
 40
0.0
  9
$DIMDLI
 40
6.9999999999999396
  9
$DIMRND
 40
0.0
  9
$DIMDLE
 40
0.0
  9
$DIMEXE
 40
19.999999999996199
  9
$DIMTP
 40
0.0
  9
$DIMTM
 40
0.0
  9
$DIMTXT
 40
24.432617187500004
  9
$DIMCEN
 40
0.0
  9
$DIMTSZ
 40
0.0
  9
$DIMTOL
 70
               0
  9
$DIMLIM
 70
               0
  9
$DIMTIH
 70
               0
  9
$DIMTOH
 70
               0
  9
$DIMSE1
 70
               0
  9
$DIMSE2
 70
               0
  9
$DIMTAD
 70
               1
  9
$DIMZIN
 70
              11
  9
$DIMBLK
  1
VW_FILLEDARROW
  9
$DIMASO
 70
               1
  9
$DIMSHO
 70
               1
  9
$DIMPOST
  1
<>
  9
$DIMAPOST
  1
[]
  9
$DIMALT
 70
               0
  9
$DIMALTD
 70
               1
  9
$DIMALTF
 40
1.0
  9
$DIMLFAC
 40
1.0
  9
$DIMTOFL
 70
               0
  9
$DIMTVP
 40
0.0
  9
$DIMTIX
 70
               1
  9
$DIMSOXD
 70
               0
  9
$DIMSAH
 70
               0
  9
$DIMBLK1
  1

  9
$DIMBLK2
  1

  9
$DIMSTYLE
  2
JIS
  9
$DIMCLRD
 70
               0
  9
$DIMCLRE
 70
               0
  9
$DIMCLRT
 70
               0
  9
$DIMTFAC
 40
1.0
  9
$DIMGAP
 40
1.00000000000108
  9
$DIMJUST
 70
               0
  9
$DIMSD1
 70
               0
  9
$DIMSD2
 70
               0
  9
$DIMTOLJ
 70
               1
  9
$DIMTZIN
 70
              11
  9
$DIMALTZ
 70
              11
  9
$DIMALTTZ
 70
              11
  9
$DIMUPT
 70
               0
  9
$DIMDEC
 70
               1
  9
$DIMTDEC
 70
               1
  9
$DIMALTU
 70
               2
  9
$DIMALTTD
 70
               2
  9
$DIMTXSTY
  7
ＭＳ ゴシック
  9
$DIMAUNIT
 70
               0
  9
$DIMADEC
 70
               2
  9
$DIMALTRND
 40
0.0
  9
$DIMAZIN
 70
               0
  9
$DIMDSEP
 70
              46
  9
$DIMATFIT
 70
               0
  9
$DIMFRAC
 70
               2
  9
$DIMLDRBLK
  1

  9
$DIMLUNIT
 70
               2
  9
$DIMLWD
 70
              -2
  9
$DIMLWE
 70
              -2
  9
$DIMTMOVE
 70
               0
  9
$LUNITS
 70
               2
  9
$LUPREC
 70
               4
  9
$SKETCHINC
 40
0.1
  9
$FILLETRAD
 40
0.0
  9
$AUNITS
 70
               0
  9
$AUPREC
 70
               0
  9
$MENU
  1
acad
  9
$ELEVATION
 40
0.0
  9
$PELEVATION
 40
0.0
  9
$THICKNESS
 40
0.0
  9
$LIMCHECK
 70
               0
  9
$CHAMFERA
 40
0.0
  9
$CHAMFERB
 40
0.0
  9
$CHAMFERC
 40
0.0
  9
$CHAMFERD
 40
0.0
  9
$SKPOLY
 70
               0
  9
$TDCREATE
 40
2456041.704976852
  9
$TDUCREATE
 40
0.000000000
  9
$TDUPDATE
 40
2456041.704976852
  9
$TDUUPDATE
 40
0.000000000
  9
$TDINDWG
 40
0.0000000000
  9
$TDUSRTIMER
 40
0.0000000000
  9
$USRTIMER
 70
               1
  9
$ANGBASE
 50
0.0
  9
$ANGDIR
 70
               0
  9
$PDMODE
 70
               1
  9
$PDSIZE
 40
-2.0
  9
$PLINEWID
 40
0.0
  9
$SPLFRAME
 70
               0
  9
$SPLINETYPE
 70
               6
  9
$SPLINESEGS
 70
               8
  9
$HANDSEED
  5
186
  9
$SURFTAB1
 70
               6
  9
$SURFTAB2
 70
               6
  9
$SURFTYPE
 70
               6
  9
$SURFU
 70
               6
  9
$SURFV
 70
               6
  9
$UCSBASE
  2

  9
$UCSNAME
  2

  9
$UCSORG
 10
0.0
 20
0.0
 30
0.0
  9
$UCSXDIR
 10
1.0
 20
0.0
 30
0.0
  9
$UCSYDIR
 10
0.0
 20
1.0
 30
0.0
  9
$UCSORTHOREF
  2

  9
$UCSORTHOVIEW
 70
               0
  9
$UCSORGTOP
 10
0.0
 20
0.0
 30
0.0
  9
$UCSORGBOTTOM
 10
0.0
 20
0.0
 30
0.0
  9
$UCSORGLEFT
 10
0.0
 20
0.0
 30
0.0
  9
$UCSORGRIGHT
 10
0.0
 20
0.0
 30
0.0
  9
$UCSORGFRONT
 10
0.0
 20
0.0
 30
0.0
  9
$UCSORGBACK
 10
0.0
 20
0.0
 30
0.0
  9
$PUCSBASE
  2

  9
$PUCSNAME
  2

  9
$PUCSORG
 10
0.0
 20
0.0
 30
0.0
  9
$PUCSXDIR
 10
1.0
 20
0.0
 30
0.0
  9
$PUCSYDIR
 10
0.0
 20
1.0
 30
0.0
  9
$PUCSORTHOREF
  2

  9
$PUCSORTHOVIEW
 70
               0
  9
$PUCSORGTOP
 10
0.0
 20
0.0
 30
0.0
  9
$PUCSORGBOTTOM
 10
0.0
 20
0.0
 30
0.0
  9
$PUCSORGLEFT
 10
0.0
 20
0.0
 30
0.0
  9
$PUCSORGRIGHT
 10
0.0
 20
0.0
 30
0.0
  9
$PUCSORGFRONT
 10
0.0
 20
0.0
 30
0.0
  9
$PUCSORGBACK
 10
0.0
 20
0.0
 30
0.0
  9
$USERI1
 70
               0
  9
$USERI2
 70
               0
  9
$USERI3
 70
               0
  9
$USERI4
 70
               0
  9
$USERI5
 70
               0
  9
$USERR1
 40
0.0
  9
$USERR2
 40
0.0
  9
$USERR3
 40
0.0
  9
$USERR4
 40
0.0
  9
$USERR5
 40
0.0
  9
$WORLDVIEW
 70
               1
  9
$SHADEDGE
 70
               3
  9
$SHADEDIF
 70
              70
  9
$TILEMODE
 70
               1
  9
$MAXACTVP
 70
              64
  9
$PINSBASE
 10
0.0
 20
0.0
 30
0.0
  9
$PLIMCHECK
 70
               0
  9
$PEXTMIN
 10
1.0000000000000000E+20
 20
1.0000000000000000E+20
 30
1.0000000000000000E+20
  9
$PEXTMAX
 10
-1.0000000000000000E+20
 20
-1.0000000000000000E+20
 30
-1.0000000000000000E+20
  9
$PLIMMIN
 10
0.0
 20
0.0
  9
$PLIMMAX
 10
12.0
 20
9.0
  9
$UNITMODE
 70
               0
  9
$VISRETAIN
 70
               0
  9
$PLINEGEN
 70
               1
  9
$PSLTSCALE
 70
               0
  9
$TREEDEPTH
 70
            3020
  9
$CMLSTYLE
  2
Standard
  9
$CMLJUST
 70
               0
  9
$CMLSCALE
 40
1.0
  9
$PROXYGRAPHICS
 70
               0
  9
$MEASUREMENT
 70
               1
  9
$CELWEIGHT
370
               0
  9
$ENDCAPS
280
               0
  9
$JOINSTYLE
280
               0
  9
$LWDISPLAY
290
               1
  9
$INSUNITS
 70
               4
  9
$HYPERLINKBASE
  1

  9
$STYLESHEET
  1

  9
$XEDIT
290
               1
  9
$CEPSNTYPE
380
               0
  9
$PSTYLEMODE
290
               1
  9
$FINGERPRINTGUID
  2

  9
$VERSIONGUID
  2

  9
$EXTNAMES
290
               1
  9
$PSVPSCALE
 40
0.0
  0
ENDSEC
  0
SECTION
  2
CLASSES
  0
CLASS
  1
LWPOLYLINE
  2
AcDbPolyline
  3
AutoCAD 2000
 90
        0
280
               0
281
               1
  0
CLASS
  1
IMAGE
  2
AcDbRasterImage
  3
ISM
 90
      127
280
               0
281
               1
  0
CLASS
  1
OLE2FRAME
  2
AcDbOle2Frame
  3
AutoCAD 2000
 90
        0
280
               0
281
               1
  0
CLASS
  1
HATCH
  2
AcDbHatch
  3
AutoCAD 2000
 90
        0
280
               0
281
               1
  0
CLASS
  1
DICTIONARYVAR
  2
AcDbDictionaryVar
  3
AutoCAD 2000
 90
        0
280
               0
281
               0
  0
CLASS
  1
RASTERVARIABLES
  2
AcDbRasterVariables
  3
ISM
 90
        0
280
               0
281
               0
  0
CLASS
  1
IMAGEDEF
  2
AcDbRasterImageDef
  3
ISM
 90
        0
280
               0
281
               0
  0
CLASS
  1
IMAGEDEF_REACTOR
  2
AcDbRasterImageDefReactor
  3
ISM
 90
        1
280
               0
281
               0
  0
CLASS
  1
IDBUFFER
  2
AcDbIdBuffer
  3
AutoCAD 2000
 90
        0
280
               0
281
               0
  0
CLASS
  1
SPATIAL_FILTER
  2
AcDbSpatialFilter
  3
AutoCAD 2000
 90
        0
280
               0
281
               0
  0
CLASS
  1
XRECORD
  2
AcDbXrecord
  3
AutoCAD 2000
 90
        0
280
               0
281
               0
  0
CLASS
  1
SORTENTSTABLE
  2
AcDbSortentsTable
  3
AutoCAD 2000
 90
        0
280
               0
281
               0
  0
CLASS
  1
LAYER_INDEX
  2
AcDbLayerIndex
  3
AutoCAD 2000
 90
        0
280
               0
281
               0
  0
CLASS
  1
SPATIAL_INDEX
  2
AcDbSpatialIndex
  3
AutoCAD 2000
 90
        0
280
               0
281
               0
  0
CLASS
  1
OBJECT_PTR
  2
CAseDLPNTableRecord
  3
"ASE-LPNTableRecord"
 90
        1
280
               0
281
               0
  0
CLASS
  1
LAYOUT
  2
AcDbLayout
  3
AutoCAD 2000
 90
        0
280
               0
281
               0
  0
CLASS
  1
PLOTSETTINGS
  2
AcDbPlotSettings
  3
AutoCAD 2000
 90
        0
280
               0
281
               0
  0
CLASS
  1
ACDBDICTIONARYWDFLT
  2
AcDbDictionaryWithDefault
  3
AutoCAD 2000
 90
        0
280
               0
281
               0
  0
CLASS
  1
ACDBPLACEHOLDER
  2
AcDbPlaceHolder
  3
AutoCAD 2000
 90
        0
280
               0
281
               0
  0
ENDSEC
  0
SECTION
  2
TABLES
  0
TABLE
  2
VPORT
  5
7
100
AcDbSymbolTable
 70
               1
  0
VPORT
  5
15
100
AcDbSymbolTableRecord
100
AcDbViewportTableRecord
  2
*ACTIVE
 70
               0
 10
0.0
 20
0.0
 11
1.0
 21
1.0
 12
0.0
 22
-12.764114914906941
 13
0.0
 23
0.0
 14
1.0
 24
1.0
 15
0.0
 25
0.0
 16
0.0
 26
0.0
 36
1.0
 17
0.0
 27
0.0
 37
0.0
 40
2837.522815112412
 41
0.688564
 42
50.0
 43
0.0
 44
0.0
 50
0.0
 51
0.0
 71
               0
 72
            2000
 73
               1
 74
               1
 75
               0
 76
               0
 77
               0
 78
               0
281
               0
 65
               0
110
0.0
120
0.0
130
0.0
111
1.0
121
0.0
131
0.0
112
0.0
122
1.0
132
0.0
345
0
346
0
 79
               0
146
0.0
  0
ENDTAB
  0
TABLE
  2
LTYPE
  5
4
100
AcDbSymbolTable
 70
              15
  0
LTYPE
  5
11
100
AcDbSymbolTableRecord
100
AcDbLinetypeTableRecord
  2
ByBlock
 70
              64
  3

 72
              65
 73
               0
 40
0.0
  0
LTYPE
  5
12
100
AcDbSymbolTableRecord
100
AcDbLinetypeTableRecord
  2
ByLayer
 70
              64
  3

 72
              65
 73
               0
 40
0.0
  0
LTYPE
  5
13
100
AcDbSymbolTableRecord
100
AcDbLinetypeTableRecord
  2
Continuous
 70
              64
  3
Solid line
 72
              65
 73
               0
 40
0.0
  0
LTYPE
  5
32
100
AcDbSymbolTableRecord
100
AcDbLinetypeTableRecord
  2
STYLE_01
 70
               0
  3

 72
              65
 73
               2
 40
0.375
 49
0.25
 74
               0
 49
-0.125
 74
               0
  0
LTYPE
  5
33
100
AcDbSymbolTableRecord
100
AcDbLinetypeTableRecord
  2
STYLE_02
 70
               0
  3

 72
              65
 73
               4
 40
0.0393700787401575
 49
0.0196850393700787
 74
               0
 49
-0.0098425196850394
 74
               0
 49
0.0005
 74
               0
 49
-0.0093425196850394
 74
               0
  0
LTYPE
  5
34
100
AcDbSymbolTableRecord
100
AcDbLinetypeTableRecord
  2
STYLE_03
 70
               0
  3

 72
              65
 73
               2
 40
1.25
 49
1.0416400000000001
 74
               0
 49
-0.2083599999999999
 74
               0
  0
LTYPE
  5
35
100
AcDbSymbolTableRecord
100
AcDbLinetypeTableRecord
  2
STYLE_04
 70
               0
  3

 72
              65
 73
               2
 40
1.5277099999999999
 49
1.3194249999999998
 74
               0
 49
-0.208285
 74
               0
  0
LTYPE
  5
36
100
AcDbSymbolTableRecord
100
AcDbLinetypeTableRecord
  2
STYLE_05
 70
               0
  3

 72
              65
 73
               2
 40
0.20828
 49
0.069425
 74
               0
 49
-0.138855
 74
               0
  0
LTYPE
  5
37
100
AcDbSymbolTableRecord
100
AcDbLinetypeTableRecord
  2
STYLE_06
 70
               0
  3

 72
              65
 73
               4
 40
1.0416400000000001
 49
0.625
 74
               0
 49
-0.20828
 74
               0
 49
0.06943
 74
               0
 49
-0.13893
 74
               0
  0
LTYPE
  5
38
100
AcDbSymbolTableRecord
100
AcDbLinetypeTableRecord
  2
STYLE_07
 70
               0
  3

 72
              65
 73
               6
 40
1.875
 49
0.625
 74
               0
 49
-0.20828
 74
               0
 49
0.6250000000000001
 74
               0
 49
-0.2083599999999999
 74
               0
 49
0.06943
 74
               0
 49
-0.1389299999999999
 74
               0
  0
LTYPE
  5
39
100
AcDbSymbolTableRecord
100
AcDbLinetypeTableRecord
  2
STYLE_08
 70
               0
  3

 72
              65
 73
               6
 40
1.25
 49
0.625
 74
               0
 49
-0.20828
 74
               0
 49
0.06943
 74
               0
 49
-0.13893
 74
               0
 49
0.0694299999999999
 74
               0
 49
-0.13893
 74
               0
  0
LTYPE
  5
3A
100
AcDbSymbolTableRecord
100
AcDbLinetypeTableRecord
  2
STYLE_09
 70
               0
  3

 72
              65
 73
               4
 40
5.0
 49
3.75
 74
               0
 49
-0.2777849999999998
 74
               0
 49
0.6944300000000003
 74
               0
 49
-0.2777849999999998
 74
               0
  0
LTYPE
  5
3B
100
AcDbSymbolTableRecord
100
AcDbLinetypeTableRecord
  2
STYLE_10
 70
               0
  3

 72
              65
 73
               6
 40
5.9375
 49
3.75
 74
               0
 49
-0.2777849999999998
 74
               0
 49
0.6944300000000003
 74
               0
 49
-0.2777849999999998
 74
               0
 49
0.625
 74
               0
 49
-0.3125
 74
               0
  0
LTYPE
  5
3C
100
AcDbSymbolTableRecord
100
AcDbLinetypeTableRecord
  2
STYLE_11
 70
               0
  3

 72
              65
 73
               2
 40
0.0694444881889764
 49
0.0347222440944882
 74
               0
 49
-0.0347222440944882
 74
               0
  0
LTYPE
  5
3D
100
AcDbSymbolTableRecord
100
AcDbLinetypeTableRecord
  2
STYLE_12
 70
               0
  3

 72
              65
 73
               2
 40
0.3937007874015748
 49
0.1968503937007874
 74
               0
 49
-0.1968503937007874
 74
               0
  0
ENDTAB
  0
TABLE
  2
LAYER
  5
2
100
AcDbSymbolTable
 70
               5
  0
LAYER
  5
14
100
AcDbSymbolTableRecord
100
AcDbLayerTableRecord
  2
0
 70
               0
 62
               7
  6
Continuous
290
               1
370
              -3
390
1D
  0
LAYER
  5
3E
100
AcDbSymbolTableRecord
100
AcDbLayerTableRecord
  2
Defpoints
 70
               0
 62
               7
  6
Continuous
290
               0
370
              -3
390
1D
  0
LAYER
  5
3F
100
AcDbSymbolTableRecord
100
AcDbLayerTableRecord
  2
template
 70
               0
 62
               7
  6
Continuous
290
               1
370
              -3
390
1D
  0
LAYER
  5
40
100
AcDbSymbolTableRecord
100
AcDbLayerTableRecord
  2
notes
 70
               0
 62
               7
  6
Continuous
290
               1
370
              -3
390
1D
  0
LAYER
  5
41
100
AcDbSymbolTableRecord
100
AcDbLayerTableRecord
  2
ADF70-1206
 70
               0
 62
               7
  6
Continuous
290
               1
370
              -3
390
1D
  0
ENDTAB
  0
TABLE
  2
STYLE
  5
3
100
AcDbSymbolTable
 70
               2
  0
STYLE
  5
17
100
AcDbSymbolTableRecord
100
AcDbTextStyleTableRecord
  2
Standard
 70
               0
 40
0.0
 41
1.0
 50
0.0
 71
               0
 42
0.0
  3
txt
  4
BIGFONT.SHX
  0
STYLE
  5
31
100
AcDbSymbolTableRecord
100
AcDbTextStyleTableRecord
  2
ＭＳ ゴシック
 70
               0
 40
0.0
 41
1.0
 50
0.0
 71
               0
 42
0.0
  3

  4
ＭＳ ゴシック
1001
ACAD
1000
ＭＳ ゴシック
1071
        0
  0
ENDTAB
  0
TABLE
  2
VIEW
  5
5
100
AcDbSymbolTable
 70
               0
  0
ENDTAB
  0
TABLE
  2
UCS
  5
6
100
AcDbSymbolTable
 70
               0
  0
ENDTAB
  0
TABLE
  2
APPID
  5
8
100
AcDbSymbolTable
 70
               1
  0
APPID
  5
16
100
AcDbSymbolTableRecord
100
AcDbRegAppTableRecord
  2
ACAD
 70
               0
  0
ENDTAB
  0
TABLE
  2
DIMSTYLE
  5
9
100
AcDbSymbolTable
 70
               3
100
AcDbDimStyleTable
 71
               0
  0
DIMSTYLE
105
18
100
AcDbSymbolTableRecord
100
AcDbDimStyleTableRecord
  2
Standard
 70
               0
  3

  4

 40
1.0
 41
0.18
 42
0.0625
 43
0.38
 44
0.18
 45
0.0
 46
0.0
 47
0.0
 48
0.0
 71
               0
 72
               0
 73
               1
 74
               1
 75
               0
 76
               0
 77
               0
 78
               0
 79
               0
140
0.18
141
0.09
142
0.0
143
25.399999999999999
144
1.0
145
0.0
146
1.0
147
0.09
148
0.0
170
               0
171
               2
172
               0
173
               0
174
               0
175
               0
176
               0
177
               0
178
               0
179
               0
271
               4
272
               4
273
               2
274
               2
275
               0
276
               0
277
               2
278
              46
279
               0
280
               0
281
               0
282
               0
283
               1
284
               0
285
               0
286
               0
288
               0
289
               3
340
17
341
0
342
0
343
0
344
0
371
              -2
372
              -2
  0
DIMSTYLE
105
4A
100
AcDbSymbolTableRecord
100
AcDbDimStyleTableRecord
  2
tform線あり
 70
               0
  3
<>
  4
[]
 40
1.0
 41
9.9993896484374982
 42
24.999999999999996
 43
0.9999999999999999
 44
0.0
 45
0.0
 46
0.0
 47
0.0
 48
0.0
 71
               0
 72
               0
 73
               0
 74
               0
 75
               0
 76
               0
 77
               1
 78
              11
 79
               0
140
24.432617187500004
141
0.0
142
0.0
143
1.0
144
1.0
145
0.0
146
1.0
147
0.4999999999999999
148
0.0
170
               0
171
               1
172
               0
173
               0
174
               1
175
               0
176
               0
177
               0
178
               0
179
               2
271
               1
272
               1
273
               2
274
               2
275
               0
276
               2
277
               2
278
              46
279
               0
280
               0
281
               0
282
               0
283
               1
284
              11
285
              11
286
              11
288
               0
289
               0
340
31
341
42
342
42
343
0
344
0
371
              -2
372
              -2
  0
DIMSTYLE
105
4F
100
AcDbSymbolTableRecord
100
AcDbDimStyleTableRecord
  2
JIS
 70
               0
  3
<>
  4
[]
 40
1.0
 41
31.75
 42
0.0
 43
6.9999999999999396
 44
19.999999999996199
 45
0.0
 46
0.0
 47
0.0
 48
0.0
 71
               0
 72
               0
 73
               0
 74
               0
 75
               0
 76
               0
 77
               1
 78
              11
 79
               0
140
24.432617187500004
141
0.0
142
0.0
143
1.0
144
1.0
145
0.0
146
1.0
147
1.00000000000108
148
0.0
170
               0
171
               1
172
               0
173
               0
174
               1
175
               0
176
               0
177
               0
178
               0
179
               2
271
               1
272
               1
273
               2
274
               2
275
               0
276
               2
277
               2
278
              46
279
               0
280
               0
281
               0
282
               0
283
               1
284
              11
285
              11
286
              11
288
               0
289
               0
340
31
341
4B
342
4B
343
0
344
0
371
              -2
372
              -2
  0
ENDTAB
  0
TABLE
  2
BLOCK_RECORD
  5
1
100
AcDbSymbolTable
 70
              16
  0
BLOCK_RECORD
  5
A
100
AcDbSymbolTableRecord
100
AcDbBlockTableRecord
  2
*MODEL_SPACE
340
20
  0
BLOCK_RECORD
  5
B
100
AcDbSymbolTableRecord
100
AcDbBlockTableRecord
  2
*PAPER_SPACE
340
21
  0
BLOCK_RECORD
  5
42
100
AcDbSymbolTableRecord
100
AcDbBlockTableRecord
  2
_DOT
340
0
  0
BLOCK_RECORD
  5
4B
100
AcDbSymbolTableRecord
100
AcDbBlockTableRecord
  2
VW_FILLEDARROW
340
0
  0
BLOCK_RECORD
  5
23
100
AcDbSymbolTableRecord
100
AcDbBlockTableRecord
  2
グループ
340
0
102
{BLKREFS
331
10B
102
}
  0
BLOCK_RECORD
  5
24
100
AcDbSymbolTableRecord
100
AcDbBlockTableRecord
  2
*D3
340
0
  0
BLOCK_RECORD
  5
25
100
AcDbSymbolTableRecord
100
AcDbBlockTableRecord
  2
*D4
340
0
  0
BLOCK_RECORD
  5
26
100
AcDbSymbolTableRecord
100
AcDbBlockTableRecord
  2
*D5
340
0
  0
BLOCK_RECORD
  5
27
100
AcDbSymbolTableRecord
100
AcDbBlockTableRecord
  2
*D6
340
0
  0
BLOCK_RECORD
  5
28
100
AcDbSymbolTableRecord
100
AcDbBlockTableRecord
  2
*D7
340
0
  0
BLOCK_RECORD
  5
29
100
AcDbSymbolTableRecord
100
AcDbBlockTableRecord
  2
*D8
340
0
  0
BLOCK_RECORD
  5
2A
100
AcDbSymbolTableRecord
100
AcDbBlockTableRecord
  2
*D9
340
0
  0
BLOCK_RECORD
  5
2B
100
AcDbSymbolTableRecord
100
AcDbBlockTableRecord
  2
*D10
340
0
  0
BLOCK_RECORD
  5
2C
100
AcDbSymbolTableRecord
100
AcDbBlockTableRecord
  2
*D11
340
0
  0
BLOCK_RECORD
  5
2D
100
AcDbSymbolTableRecord
100
AcDbBlockTableRecord
  2
*D12
340
0
  0
BLOCK_RECORD
  5
2E
100
AcDbSymbolTableRecord
100
AcDbBlockTableRecord
  2
*D13
340
0
  0
BLOCK_RECORD
  5
2F
100
AcDbSymbolTableRecord
100
AcDbBlockTableRecord
  2
*D14
340
0
  0
BLOCK_RECORD
  5
30
100
AcDbSymbolTableRecord
100
AcDbBlockTableRecord
  2
*D15
340
0
  0
ENDTAB
  0
ENDSEC
  0
SECTION
  2
BLOCKS
  0
BLOCK
  5
D
100
AcDbEntity
  8
0
390
0
100
AcDbBlockBegin
  2
*MODEL_SPACE
 70
               0
 10
0.0
 20
0.0
 30
0.0
  3
*MODEL_SPACE
  1

  0
ENDBLK
  5
E
100
AcDbEntity
  8
0
390
0
100
AcDbBlockEnd
  0
BLOCK
  5
F
100
AcDbEntity
 67
               1
  8
0
390
0
100
AcDbBlockBegin
  2
*PAPER_SPACE
 70
               0
 10
0.0
 20
0.0
 30
0.0
  3
*PAPER_SPACE
  1

  0
ENDBLK
  5
10
100
AcDbEntity
 67
               1
  8
0
390
0
100
AcDbBlockEnd
  0
BLOCK
  5
43
100
AcDbEntity
  8
0
390
0
100
AcDbBlockBegin
  2
_DOT
 70
               0
 10
0.0
 20
0.0
 30
0.0
  3
_DOT
  1

  0
POLYLINE
  5
44
100
AcDbEntity
  8
0
370
              -2
390
0
  6
ByBlock
 62
               0
100
AcDb2dPolyline
 66
               1
 10
0.0
 20
0.0
 30
0.0
 70
               1
 40
0.5
 41
0.5
  0
VERTEX
  5
45
100
AcDbEntity
  8
0
370
              -2
390
0
  6
ByBlock
 62
               0
100
AcDbVertex
100
AcDb2dVertex
 10
-0.25
 20
0.0
 30
0.0
 42
1.0
  0
VERTEX
  5
46
100
AcDbEntity
  8
0
370
              -2
390
0
  6
ByBlock
 62
               0
100
AcDbVertex
100
AcDb2dVertex
 10
0.25
 20
0.0
 30
0.0
 42
1.0
  0
SEQEND
  5
47
100
AcDbEntity
  8
0
390
0
  0
LINE
  5
48
100
AcDbEntity
  8
0
370
              -2
390
0
  6
ByBlock
 62
               0
100
AcDbLine
 10
-0.5
 20
0.0
 30
0.0
 11
-1.0
 21
0.0
 31
0.0
  0
ENDBLK
  5
49
100
AcDbEntity
  8
0
390
0
100
AcDbBlockEnd
  0
BLOCK
  5
4C
100
AcDbEntity
  8
0
370
              -2
390
0
  6
ByBlock
 62
               0
100
AcDbBlockBegin
  2
VW_FILLEDARROW
 70
               0
 10
0.0
 20
0.0
 30
0.0
  3
VW_FILLEDARROW
  1

  0
SOLID
  5
4D
100
AcDbEntity
  8
0
370
              -2
390
0
 62
               0
100
AcDbTrace
 10
0.0
 20
0.0
 30
0.0
 11
-0.9921874999999999
 21
-0.2658558393652545
 31
0.0
 12
-0.9921874999999999
 22
0.2658558393652548
 32
0.0
 13
-0.9921874999999999
 23
0.2658558393652548
 33
0.0
  0
ENDBLK
  5
4E
100
AcDbEntity
  8
0
390
0
100
AcDbBlockEnd
  0
BLOCK
  5
50
100
AcDbEntity
  8
template
390
0
100
AcDbBlockBegin
  2
グループ
 70
               0
 10
0.0
 20
0.0
 30
0.0
  3
グループ
  1

  0
LWPOLYLINE
  5
51
100
AcDbEntity
  8
0
370
              15
390
0
  6
Continuous
 62
               7
100
AcDbPolyline
 90
        8
 70
             129
 10
-8785.1406656386189
 20
-437.59990472112906
 10
-8785.1406656386189
 20
-443.59729341470495
 10
-8794.6418625566221
 20
-443.59729341470495
 10
-8794.6418625566221
 20
-468.04825667821376
 10
-8802.9972398184054
 20
-468.04825667821376
 10
-8802.9972398184054
 20
-443.59729341470495
 10
-8812.3301967647149
 20
-443.59729341470495
 10
-8812.3301967647149
 20
-437.59990472112906
  0
LWPOLYLINE
  5
52
100
AcDbEntity
  8
0
370
              15
390
0
  6
Continuous
 62
               7
100
AcDbPolyline
 90
      101
 70
             128
 10
-8772.4123738080616
 20
-438.32815321406554
 10
-8772.3970237792746
 20
-438.32379245738014
 42
-0.022222160782319
 10
-8772.1070192026054
 20
-438.25516799213585
 10
-8772.0912254386149
 20
-438.25216456903951
 42
-0.0146883565629417
 10
-8771.8285227333872
 20
-438.2101613820895
 42
-0.0127458844216594
 10
-8771.5638837662391
 20
-438.1826244140172
 10
-8771.5014286879232
 20
-438.1777309914288
 42
-0.0198099018572068
 10
-8771.1105795784479
 20
-438.16264583403216
 10
-8771.0587681090019
 20
-438.16269960969726
 42
-0.0147617382743162
 10
-8770.564144648024
 20
-438.17781963494247
 10
-8770.4914531931463
 20
-438.18219224183031
 42
-0.0162624548983474
 10
-8770.1012995636884
 20
-438.21842511710213
 10
-8769.9797671724464
 20
-438.23371167609639
 42
-0.0080020874644774
 10
-8769.8341881413362
 20
-438.25439452336707
 10
-8769.7958686707498
 20
-438.26046580117702
 42
-0.0053821929728165
 10
-8769.7273845654272
 20
-438.27207332499972
 10
-8770.4537902646262
 20
-440.45300178071363
 42
0.0108667757456605
 10
-8770.5211073347673
 20
-440.43981466549207
 10
-8770.5585753579471
 20
-440.43331692289928
 42
0.0170663203303404
 10
-8770.7017921448587
 20
-440.41348732560789
 10
-8770.7696674775452
 20
-440.40644015502005
 42
0.0220162375254148
 10
-8771.0500468853952
 20
-440.38975779424999
 10
-8771.127902452452
 20
-440.38855842698342
 42
0.0282606915767153
 10
-8771.4635387760318
 20
-440.40236170395247
 10
-8771.5074520498001
 20
-440.40666169395587
 42
0.0169677213648749
 10
-8771.7533765447624
 20
-440.43919874350809
 42
0.0190576269850381
 10
-8771.9962845073405
 20
-440.48934561561407
 10
-8772.0025436954529
 20
-440.4908885897238
 42
0.0213685642862691
 10
-8772.2529281799234
 20
-440.56408887482638
 10
-8772.2584180748454
 20
-440.5659518708876
 42
0.0237595297595042
 10
-8772.5119129597497
 20
-440.66563639278536
 10
-8772.5170150337744
 20
-440.66792816826137
 42
0.0261857468816125
 10
-8772.7691858100079
 20
-440.79746450563681
 10
-8772.779611999089
 20
-440.80352998010193
 42
0.0272553062025403
 10
-8773.01604177433
 20
-440.95890218604859
 10
-8773.0508047878429
 20
-440.98456333414333
 42
0.0325996893220405
 10
-8773.2009601314912
 20
-441.11131120711218
 10
-8773.22466956061
 20
-441.13412923562032
 42
0.0138050960660387
 10
-8773.3165527168239
 20
-441.22757889717673
 42
0.0125280103857411
 10
-8773.4033952496629
 20
-441.32574222378241
 10
-8773.4270756945662
 20
-441.35390072196412
 42
0.0205218024680042
 10
-8773.5521757700699
 20
-441.51569403617975
 10
-8773.5746421105669
 20
-441.54735376602014
 42
0.0163110129564938
 10
-8773.7303524898089
 20
-441.78268420107486
 10
-8773.7330763858699
 20
-441.78710796307553
 42
0.0131897341903669
 10
-8773.8798769067798
 20
-442.0402400554467
 10
-8773.8815770021429
 20
-442.04335829457568
 42
0.0107895575999912
 10
-8774.019353704336
 20
-442.30957350417384
 10
-8774.0200865938787
 20
-442.31106773685735
 42
0.0091371507194474
 10
-8774.1485665425025
 20
-442.58559293455983
 10
-8774.1783121739372
 20
-442.65229944177577
 42
0.0135418326355903
 10
-8774.3500261129957
 20
-443.06723722701236
 10
-8774.3836309214221
 20
-443.15510336927076
 42
0.0092834542404673
 10
-8774.5548599813628
 20
-443.62900186763113
 10
-8774.5804771090643
 20
-443.70424293737858
 42
0.0054261043602377
 10
-8774.6881152573733
 20
-444.0320069104896
 10
-8774.7056412436668
 20
-444.08739507308525
 42
0.0008225090842239
 10
-8774.7743112953813
 20
-444.30566383086887
 10
-8775.7590004273152
 20
-447.33055512412545
 10
-8772.5263765872405
 20
-447.33055512412545
 10
-8773.0305690170935
 20
-449.23503342247784
 10
-8776.2866252990771
 20
-449.23503342247784
 10
-8782.1157743314325
 20
-468.04825648848271
 10
-8783.9408719417424
 20
-468.04825648848271
 10
-8778.1061939062402
 20
-449.23503342247784
 10
-8780.5113102752821
 20
-449.23503342247784
 10
-8780.0071178454273
 20
-447.33055512412545
 10
-8777.5785690344783
 20
-447.33055512412545
 10
-8776.7184141162888
 20
-444.69414212342656
 42
-0.0005863560604583
 10
-8776.6816794380265
 20
-444.57731570294732
 10
-8776.6055916044243
 20
-444.33632340374936
 42
-0.0087522378934488
 10
-8776.4061234609489
 20
-443.74104731655018
 10
-8776.3138591855732
 20
-443.48090714814452
 42
-0.0077400953840032
 10
-8776.0559255264234
 20
-442.78790247054167
 10
-8776.0401605548632
 20
-442.74747158720487
 42
-0.0082369946349671
 10
-8775.7930760842319
 20
-442.14339252095988
 42
-0.0085725238374221
 10
-8775.525829988208
 20
-441.5479664816271
 10
-8775.4242003872259
 20
-441.33154537969313
 42
-0.0168109410598904
 10
-8775.1372559584925
 20
-440.77033785358333
 10
-8775.0114125681375
 20
-440.54337382077352
 42
-0.0007817726834683
 10
-8774.9571282179768
 20
-440.44582957555485
 10
-8774.9569999119722
 20
-440.44559986684186
 42
-0.0036626142281354
 10
-8774.9021120479374
 20
-440.34900198684988
 42
-0.0080221150727472
 10
-8774.844987792565
 20
-440.25372275215165
 10
-8774.8142878411709
 20
-440.20433180297482
 42
-0.0202139325523547
 10
-8774.6866321013549
 20
-440.01635020228144
 10
-8774.6325646361765
 20
-439.94327133805257
 42
-0.0249323791806722
 10
-8774.3734018424548
 20
-439.6272260958977
 10
-8774.3492620283287
 20
-439.60061182298568
 42
-0.0242132121535856
 10
-8774.0095812867803
 20
-439.26072833677432
 10
-8773.9616697140464
 20
-439.2172192006027
 42
-0.0251017527856889
 10
-8773.6776880133966
 20
-438.98422645483083
 10
-8773.6762425365978
 20
-438.98315719726338
 42
-0.013086806907109
 10
-8773.3779818866242
 20
-438.7743767287094
 10
-8773.3764200674905
 20
-438.77334328844006
 42
-0.0290329526406638
 10
-8773.0653089260886
 20
-438.59251778680505
 10
-8773.0354633640982
 20
-438.57741540396302
 42
-0.0160250190054871
 10
-8772.7695589503383
 20
-438.45339929375223
 42
-0.0267600374798635
 10
-8772.4942828728745
 20
-438.3526509732053
 10
-8772.4675469533486
 20
-438.34445841437798
 42
-0.0049981587639869
 10
-8772.4123738080616
 20
-438.32815321406554
 42
-0.0049981587639869
  0
LWPOLYLINE
  5
53
100
AcDbEntity
  8
0
370
              15
390
0
  6
Continuous
 62
               7
100
AcDbPolyline
 90
      118
 70
             128
 10
-8752.5980062436156
 20
-447.40453845195282
 10
-8750.7228843191151
 20
-447.40453845195282
 10
-8751.5609232247152
 20
-450.08610497835286
 42
-0.0010587229316025
 10
-8751.5294674092274
 20
-450.04920044509493
 10
-8751.4712733185115
 20
-449.9812181888218
 42
-0.0071874740424141
 10
-8751.3208981004755
 20
-449.81057749686278
 10
-8751.17917532715
 20
-449.65434135547957
 42
-0.0148118053526326
 10
-8750.7290460344466
 20
-449.18672750947451
 10
-8750.6418236995523
 20
-449.10133018862825
 42
-0.008627335868678
 10
-8750.3062748985285
 20
-448.78395455459656
 10
-8750.2624411822999
 20
-448.74390491026054
 42
-0.0103138323109957
 10
-8750.0044174800696
 20
-448.51774177292521
 10
-8749.9586430737072
 20
-448.4792597256349
 42
-0.0060206748559133
 10
-8749.7857950096295
 20
-448.3374650749106
 10
-8749.7837638787587
 20
-448.33583936929193
 42
-0.0067069027320363
 10
-8749.6114710640813
 20
-448.20168873548437
 10
-8749.6089222981573
 20
-448.19975856561001
 42
-0.0076184352043476
 10
-8749.4380170322838
 20
-448.07438369036527
 42
-0.0089652861675907
 10
-8749.2630560695743
 20
-447.95475043004916
 10
-8749.2267043493994
 20
-447.93083921654585
 42
-0.0156916245953174
 10
-8749.0307448522453
 20
-447.81057673007535
 42
-0.0023299011075918
 10
-8748.8304828084129
 20
-447.69739879061689
 10
-8748.8150986758847
 20
-447.68879879546978
 42
-0.0107669341533003
 10
-8748.5808618508108
 20
-447.56439866213407
 10
-8748.5585970497086
 20
-447.55318191217032
 42
-0.0078058045927553
 10
-8748.2750069317535
 20
-447.4158204565307
 10
-8748.2650998440477
 20
-447.4112113286634
 42
-0.0181829330501965
 10
-8747.9547904394349
 20
-447.28034758756945
 10
-8747.9007349968633
 20
-447.25983246762365
 42
-0.0208411536037679
 10
-8747.5516500294143
 20
-447.14374200513112
 10
-8747.5372939292902
 20
-447.13962356017851
 42
-0.0222799817128002
 10
-8747.2085741353694
 20
-447.06098199403732
 10
-8747.1996851721287
 20
-447.05926998345171
 42
-0.0215509523877604
 10
-8746.8832142038518
 20
-447.01235429491794
 10
-8746.8407322428029
 20
-447.00791676812707
 42
-0.0182545924845257
 10
-8746.6066234634982
 20
-446.99207294273617
 10
-8746.5672224471491
 20
-446.99084839765692
 42
-0.0072962856532022
 10
-8746.4112995674623
 20
-446.98827906913482
 10
-8746.382199896887
 20
-446.98822423373105
 42
-0.005922751635487
 10
-8746.2844503977449
 20
-446.98919794552148
 10
-8746.2552081802514
 20
-446.98983571212523
 42
-0.0011833111688229
 10
-8746.2159568965399
 20
-446.99078471643486
 10
-8747.0113434921477
 20
-449.52951866153387
 42
0.0143932051342127
 10
-8747.0377448745021
 20
-449.51931969148688
 10
-8747.0450168469142
 20
-449.51674847263121
 42
0.0234388603323441
 10
-8747.0868477128442
 20
-449.50412923691647
 10
-8747.0955293757597
 20
-449.50194827491089
 42
0.0199162743007084
 10
-8747.1558182098361
 20
-449.48933153957643
 10
-8747.1766321476462
 20
-449.48583434014733
 42
0.0293643550703985
 10
-8747.2797070064062
 20
-449.47468429449412
 10
-8747.3043921871249
 20
-449.47347267747557
 42
0.0214606686833546
 10
-8747.457533103081
 20
-449.47253411705827
 10
-8747.4669050138964
 20
-449.47287902860239
 42
0.0167564054199949
 10
-8747.6384252050084
 20
-449.48495607097067
 10
-8747.6468849977646
 20
-449.4858374113976
 42
0.0137677553254707
 10
-8747.8342383110266
 20
-449.51058671994099
 10
-8747.8415900505352
 20
-449.51176463990907
 42
0.0118497261477748
 10
-8748.042087814636
 20
-449.54878199009795
 10
-8748.048237821884
 20
-449.5500688528183
 42
0.0106421143923788
 10
-8748.2591187091839
 20
-449.59890122839698
 10
-8748.2640275175581
 20
-449.60014857107819
 42
0.0099746379696251
 10
-8748.4824859867094
 20
-449.66032309938964
 10
-8748.5440340268906
 20
-449.6786049780236
 42
0.019161367585826
 10
-8748.8800184894008
 20
-449.79258235830815
 10
-8748.9680782621435
 20
-449.82626926863111
 42
0.0205274080138544
 10
-8749.3533850340536
 20
-449.99209767646119
 10
-8749.4110343160228
 20
-450.01976564102767
 42
0.0181256912208311
 10
-8749.6693112567009
 20
-450.15544946001137
 10
-8749.722266640023
 20
-450.18576707323018
 42
0.0140709242424894
 10
-8749.8672215746446
 20
-450.2742617466605
 10
-8749.8934704432504
 20
-450.29131856536679
 42
0.0086667884310927
 10
-8749.9823966048061
 20
-450.35132123325877
 42
0.0036408191969403
 10
-8750.0698298428906
 20
-450.41350209108782
 10
-8750.1050567173079
 20
-450.43894303696391
 42
0.0052260781272945
 10
-8750.2612854147028
 20
-450.55427542360223
 10
-8750.2774922709577
 20
-450.56650353421628
 42
0.0050024435918681
 10
-8750.4634956139926
 20
-450.70978610245851
 10
-8750.4788137705327
 20
-450.72183212492428
 42
0.0136138710314924
 10
-8750.6892550388529
 20
-450.896798629834
 10
-8750.7229229146506
 20
-450.92637760255184
 42
0.01728151869063
 10
-8750.9873264563139
 20
-451.1753742751747
 10
-8750.9898888021562
 20
-451.17796009232234
 42
0.0189403857994551
 10
-8751.2404706007437
 20
-451.4507653571369
 10
-8751.273102094252
 20
-451.48910928860175
 42
0.0185044199500372
 10
-8751.4650585332511
 20
-451.73235786974669
 42
0.0088565243935049
 10
-8751.643518639903
 20
-451.98587428993392
 10
-8751.652696619527
 20
-451.99941566965674
 42
0.0157195347237718
 10
-8751.8359172258715
 20
-452.28893787898897
 10
-8751.8820001678014
 20
-452.36709007600547
 42
0.0095451879759918
 10
-8752.0470857179316
 20
-452.65968471834981
 10
-8752.0582336368698
 20
-452.68035539049839
 42
0.0100351706232935
 10
-8752.1902773860202
 20
-452.93741095097255
 42
0.008693591542447
 10
-8752.312608537839
 20
-453.19924409643488
 10
-8752.3159292792279
 20
-453.20668641934878
 42
0.007258017485988
 10
-8752.4362757311574
 20
-453.4872784108926
 10
-8752.4395373644802
 20
-453.49519843694975
 42
0.0060005122612008
 10
-8752.5587380328179
 20
-453.79480810754472
 10
-8752.561949011164
 20
-453.80316963545965
 42
0.0049017786988058
 10
-8752.6808491700504
 20
-454.12209861614235
 10
-8752.6840149764121
 20
-454.13085155329441
 42
0.0039415167622459
 10
-8752.8034512545055
 20
-454.46939361581553
 10
-8752.8065823571196
 20
-454.47849681658374
 42
0.0031035838781331
 10
-8752.9273871428613
 20
-454.83693667850179
 10
-8752.9304971873444
 20
-454.84635729973206
 42
0.0025070747163392
 10
-8753.0533985386483
 20
-455.22500451663979
 10
-8753.0906924350857
 20
-455.34189618192897
 42
0.0029081910277438
 10
-8753.2827107329249
 20
-455.95605984031084
 10
-8753.3235139014141
 20
-456.08928308249654
 42
0.000926645372298
 10
-8753.5919312756596
 20
-456.97150754219297
 10
-8753.6128187482173
 20
-457.04061942115823
 42
-0.0005809993669891
 10
-8753.8901554289587
 20
-457.9544275282949
 10
-8753.9564372273253
 20
-458.17191246076061
 42
-0.0012018708170919
 10
-8754.1034215366617
 20
-458.65007512497527
 10
-8754.1557413884129
 20
-458.81883426643878
 42
-0.0002691059538321
 10
-8754.199310869395
 20
-458.95910188618302
 10
-8757.0322667676846
 20
-468.04825648848271
 10
-8758.8502556596632
 20
-468.04825648848271
 10
-8752.5980062436156
 20
-447.40453845195282
  0
SPLINE
  5
54
100
AcDbEntity
  8
0
370
              15
390
0
  6
Continuous
 62
               7
100
AcDbSpline
210
0.0
220
0.0
230
1.0
 70
              13
 71
               2
 72
             782
 73
             779
 74
               0
 42
0.000001
 43
0.000001
 40
0.0
 40
0.0
 40
0.0
 40
1.0
 40
1.0
 40
2.0
 40
2.0
 40
3.0
 40
3.0
 40
4.0
 40
4.0
 40
5.0
 40
5.0
 40
6.0
 40
6.0
 40
7.0
 40
7.0
 40
8.0
 40
8.0
 40
9.0
 40
9.0
 40
10.0
 40
10.0
 40
11.0
 40
11.0
 40
12.0
 40
12.0
 40
13.0
 40
13.0
 40
14.0
 40
14.0
 40
15.0
 40
15.0
 40
16.0
 40
16.0
 40
17.0
 40
17.0
 40
18.0
 40
18.0
 40
19.0
 40
19.0
 40
20.0
 40
20.0
 40
21.0
 40
21.0
 40
22.0
 40
22.0
 40
23.0
 40
23.0
 40
24.0
 40
24.0
 40
25.0
 40
25.0
 40
26.0
 40
26.0
 40
27.0
 40
27.0
 40
28.0
 40
28.0
 40
29.0
 40
29.0
 40
30.0
 40
30.0
 40
31.0
 40
31.0
 40
32.0
 40
32.0
 40
33.0
 40
33.0
 40
34.0
 40
34.0
 40
35.0
 40
35.0
 40
36.0
 40
36.0
 40
37.0
 40
37.0
 40
38.0
 40
38.0
 40
39.0
 40
39.0
 40
40.0
 40
40.0
 40
41.0
 40
41.0
 40
42.0
 40
42.0
 40
43.0
 40
43.0
 40
44.0
 40
44.0
 40
45.0
 40
45.0
 40
46.0
 40
46.0
 40
47.0
 40
47.0
 40
48.0
 40
48.0
 40
49.0
 40
49.0
 40
50.0
 40
50.0
 40
51.0
 40
51.0
 40
52.0
 40
52.0
 40
53.0
 40
53.0
 40
54.0
 40
54.0
 40
55.0
 40
55.0
 40
56.0
 40
56.0
 40
57.0
 40
57.0
 40
58.0
 40
58.0
 40
59.0
 40
59.0
 40
60.0
 40
60.0
 40
61.0
 40
61.0
 40
62.0
 40
62.0
 40
63.0
 40
63.0
 40
64.0
 40
64.0
 40
65.0
 40
65.0
 40
66.0
 40
66.0
 40
67.0
 40
67.0
 40
68.0
 40
68.0
 40
69.0
 40
69.0
 40
70.0
 40
70.0
 40
71.0
 40
71.0
 40
72.0
 40
72.0
 40
73.0
 40
73.0
 40
74.0
 40
74.0
 40
75.0
 40
75.0
 40
76.0
 40
76.0
 40
77.0
 40
77.0
 40
78.0
 40
78.0
 40
79.0
 40
79.0
 40
80.0
 40
80.0
 40
81.0
 40
81.0
 40
82.0
 40
82.0
 40
83.0
 40
83.0
 40
84.0
 40
84.0
 40
85.0
 40
85.0
 40
86.0
 40
86.0
 40
87.0
 40
87.0
 40
88.0
 40
88.0
 40
89.0
 40
89.0
 40
90.0
 40
90.0
 40
91.0
 40
91.0
 40
92.0
 40
92.0
 40
93.0
 40
93.0
 40
94.0
 40
94.0
 40
95.0
 40
95.0
 40
96.0
 40
96.0
 40
97.0
 40
97.0
 40
98.0
 40
98.0
 40
99.0
 40
99.0
 40
100.0
 40
100.0
 40
101.0
 40
101.0
 40
102.0
 40
102.0
 40
103.0
 40
103.0
 40
104.0
 40
104.0
 40
105.0
 40
105.0
 40
106.0
 40
106.0
 40
107.0
 40
107.0
 40
108.0
 40
108.0
 40
109.0
 40
109.0
 40
110.0
 40
110.0
 40
111.0
 40
111.0
 40
112.0
 40
112.0
 40
113.0
 40
113.0
 40
114.0
 40
114.0
 40
115.0
 40
115.0
 40
116.0
 40
116.0
 40
117.0
 40
117.0
 40
118.0
 40
118.0
 40
119.0
 40
119.0
 40
120.0
 40
120.0
 40
121.0
 40
121.0
 40
122.0
 40
122.0
 40
123.0
 40
123.0
 40
124.0
 40
124.0
 40
125.0
 40
125.0
 40
126.0
 40
126.0
 40
127.0
 40
127.0
 40
128.0
 40
128.0
 40
129.0
 40
129.0
 40
130.0
 40
130.0
 40
131.0
 40
131.0
 40
132.0
 40
132.0
 40
133.0
 40
133.0
 40
134.0
 40
134.0
 40
135.0
 40
135.0
 40
136.0
 40
136.0
 40
137.0
 40
137.0
 40
138.0
 40
138.0
 40
139.0
 40
139.0
 40
140.0
 40
140.0
 40
141.0
 40
141.0
 40
142.0
 40
142.0
 40
143.0
 40
143.0
 40
144.0
 40
144.0
 40
145.0
 40
145.0
 40
146.0
 40
146.0
 40
147.0
 40
147.0
 40
148.0
 40
148.0
 40
149.0
 40
149.0
 40
150.0
 40
150.0
 40
151.0
 40
151.0
 40
152.0
 40
152.0
 40
153.0
 40
153.0
 40
154.0
 40
154.0
 40
155.0
 40
155.0
 40
156.0
 40
156.0
 40
157.0
 40
157.0
 40
158.0
 40
158.0
 40
159.0
 40
159.0
 40
160.0
 40
160.0
 40
161.0
 40
161.0
 40
162.0
 40
162.0
 40
163.0
 40
163.0
 40
164.0
 40
164.0
 40
165.0
 40
165.0
 40
166.0
 40
166.0
 40
167.0
 40
167.0
 40
168.0
 40
168.0
 40
169.0
 40
169.0
 40
170.0
 40
170.0
 40
171.0
 40
171.0
 40
172.0
 40
172.0
 40
173.0
 40
173.0
 40
174.0
 40
174.0
 40
175.0
 40
175.0
 40
176.0
 40
176.0
 40
177.0
 40
177.0
 40
178.0
 40
178.0
 40
179.0
 40
179.0
 40
180.0
 40
180.0
 40
181.0
 40
181.0
 40
182.0
 40
182.0
 40
183.0
 40
183.0
 40
184.0
 40
184.0
 40
185.0
 40
185.0
 40
186.0
 40
186.0
 40
187.0
 40
187.0
 40
188.0
 40
188.0
 40
189.0
 40
189.0
 40
190.0
 40
190.0
 40
191.0
 40
191.0
 40
192.0
 40
192.0
 40
193.0
 40
193.0
 40
194.0
 40
194.0
 40
195.0
 40
195.0
 40
196.0
 40
196.0
 40
197.0
 40
197.0
 40
198.0
 40
198.0
 40
199.0
 40
199.0
 40
200.0
 40
200.0
 40
201.0
 40
201.0
 40
202.0
 40
202.0
 40
203.0
 40
203.0
 40
204.0
 40
204.0
 40
205.0
 40
205.0
 40
206.0
 40
206.0
 40
207.0
 40
207.0
 40
208.0
 40
208.0
 40
209.0
 40
209.0
 40
210.0
 40
210.0
 40
211.0
 40
211.0
 40
212.0
 40
212.0
 40
213.0
 40
213.0
 40
214.0
 40
214.0
 40
215.0
 40
215.0
 40
216.0
 40
216.0
 40
217.0
 40
217.0
 40
218.0
 40
218.0
 40
219.0
 40
219.0
 40
220.0
 40
220.0
 40
221.0
 40
221.0
 40
222.0
 40
222.0
 40
223.0
 40
223.0
 40
224.0
 40
224.0
 40
225.0
 40
225.0
 40
226.0
 40
226.0
 40
227.0
 40
227.0
 40
228.0
 40
228.0
 40
229.0
 40
229.0
 40
230.0
 40
230.0
 40
231.0
 40
231.0
 40
232.0
 40
232.0
 40
233.0
 40
233.0
 40
234.0
 40
234.0
 40
235.0
 40
235.0
 40
236.0
 40
236.0
 40
237.0
 40
237.0
 40
238.0
 40
238.0
 40
239.0
 40
239.0
 40
240.0
 40
240.0
 40
241.0
 40
241.0
 40
242.0
 40
242.0
 40
243.0
 40
243.0
 40
244.0
 40
244.0
 40
245.0
 40
245.0
 40
246.0
 40
246.0
 40
247.0
 40
247.0
 40
248.0
 40
248.0
 40
249.0
 40
249.0
 40
250.0
 40
250.0
 40
251.0
 40
251.0
 40
252.0
 40
252.0
 40
253.0
 40
253.0
 40
254.0
 40
254.0
 40
255.0
 40
255.0
 40
256.0
 40
256.0
 40
257.0
 40
257.0
 40
258.0
 40
258.0
 40
259.0
 40
259.0
 40
260.0
 40
260.0
 40
261.0
 40
261.0
 40
262.0
 40
262.0
 40
263.0
 40
263.0
 40
264.0
 40
264.0
 40
265.0
 40
265.0
 40
266.0
 40
266.0
 40
267.0
 40
267.0
 40
268.0
 40
268.0
 40
269.0
 40
269.0
 40
270.0
 40
270.0
 40
271.0
 40
271.0
 40
272.0
 40
272.0
 40
273.0
 40
273.0
 40
274.0
 40
274.0
 40
275.0
 40
275.0
 40
276.0
 40
276.0
 40
277.0
 40
277.0
 40
278.0
 40
278.0
 40
279.0
 40
279.0
 40
280.0
 40
280.0
 40
281.0
 40
281.0
 40
282.0
 40
282.0
 40
283.0
 40
283.0
 40
284.0
 40
284.0
 40
285.0
 40
285.0
 40
286.0
 40
286.0
 40
287.0
 40
287.0
 40
288.0
 40
288.0
 40
289.0
 40
289.0
 40
290.0
 40
290.0
 40
291.0
 40
291.0
 40
292.0
 40
292.0
 40
293.0
 40
293.0
 40
294.0
 40
294.0
 40
295.0
 40
295.0
 40
296.0
 40
296.0
 40
297.0
 40
297.0
 40
298.0
 40
298.0
 40
299.0
 40
299.0
 40
300.0
 40
300.0
 40
301.0
 40
301.0
 40
302.0
 40
302.0
 40
303.0
 40
303.0
 40
304.0
 40
304.0
 40
305.0
 40
305.0
 40
306.0
 40
306.0
 40
307.0
 40
307.0
 40
308.0
 40
308.0
 40
309.0
 40
309.0
 40
310.0
 40
310.0
 40
311.0
 40
311.0
 40
312.0
 40
312.0
 40
313.0
 40
313.0
 40
314.0
 40
314.0
 40
315.0
 40
315.0
 40
316.0
 40
316.0
 40
317.0
 40
317.0
 40
318.0
 40
318.0
 40
319.0
 40
319.0
 40
320.0
 40
320.0
 40
321.0
 40
321.0
 40
322.0
 40
322.0
 40
323.0
 40
323.0
 40
324.0
 40
324.0
 40
325.0
 40
325.0
 40
326.0
 40
326.0
 40
327.0
 40
327.0
 40
328.0
 40
328.0
 40
329.0
 40
329.0
 40
330.0
 40
330.0
 40
331.0
 40
331.0
 40
332.0
 40
332.0
 40
333.0
 40
333.0
 40
334.0
 40
334.0
 40
335.0
 40
335.0
 40
336.0
 40
336.0
 40
337.0
 40
337.0
 40
338.0
 40
338.0
 40
339.0
 40
339.0
 40
340.0
 40
340.0
 40
341.0
 40
341.0
 40
342.0
 40
342.0
 40
343.0
 40
343.0
 40
344.0
 40
344.0
 40
345.0
 40
345.0
 40
346.0
 40
346.0
 40
347.0
 40
347.0
 40
348.0
 40
348.0
 40
349.0
 40
349.0
 40
350.0
 40
350.0
 40
351.0
 40
351.0
 40
352.0
 40
352.0
 40
353.0
 40
353.0
 40
354.0
 40
354.0
 40
355.0
 40
355.0
 40
356.0
 40
356.0
 40
357.0
 40
357.0
 40
358.0
 40
358.0
 40
359.0
 40
359.0
 40
360.0
 40
360.0
 40
361.0
 40
361.0
 40
362.0
 40
362.0
 40
363.0
 40
363.0
 40
364.0
 40
364.0
 40
365.0
 40
365.0
 40
366.0
 40
366.0
 40
367.0
 40
367.0
 40
368.0
 40
368.0
 40
369.0
 40
369.0
 40
370.0
 40
370.0
 40
371.0
 40
371.0
 40
372.0
 40
372.0
 40
373.0
 40
373.0
 40
374.0
 40
374.0
 40
375.0
 40
375.0
 40
376.0
 40
376.0
 40
377.0
 40
377.0
 40
378.0
 40
378.0
 40
379.0
 40
379.0
 40
380.0
 40
380.0
 40
381.0
 40
381.0
 40
382.0
 40
382.0
 40
383.0
 40
383.0
 40
384.0
 40
384.0
 40
385.0
 40
385.0
 40
386.0
 40
386.0
 40
387.0
 40
387.0
 40
388.0
 40
388.0
 40
389.0
 40
389.0
 40
389.0
 10
-8742.2693017928832
 20
-447.39361208859043
 30
0.0
 41
1.0
 10
-8741.4508776841612
 20
-447.39361208859043
 30
0.0
 41
1.0
 10
-8740.6324535754411
 20
-447.39361208859043
 30
0.0
 41
1.0
 10
-8741.0462073109593
 20
-448.73623835284013
 30
0.0
 41
1.0
 10
-8741.4599610464757
 20
-450.07886461708983
 30
0.0
 41
1.0
 10
-8741.4416215513083
 20
-450.05016384417968
 30
0.0
 41
0.9999957264364631
 10
-8741.4231145544327
 20
-450.02157079395772
 30
0.0
 41
1.0
 10
-8741.3926852303175
 20
-449.97455791561686
 30
0.0
 41
1.0
 10
-8741.3622559062023
 20
-449.92754503727599
 30
0.0
 41
1.0
 10
-8741.2828902611091
 20
-449.80492623039049
 30
0.0
 41
0.9995394069081159
 10
-8741.1962318695641
 20
-449.68734816865748
 30
0.0
 41
1.0
 10
-8741.1604750072911
 20
-449.63883327604685
 30
0.0
 41
1.0
 10
-8741.1247181450199
 20
-449.59031838343617
 30
0.0
 41
1.0
 10
-8740.9909914772088
 20
-449.40887810831845
 30
0.0
 41
0.9994460617142087
 10
-8740.8454909959182
 20
-449.23673571066752
 30
0.0
 41
1.0
 10
-8740.8411028149494
 20
-449.23154403029343
 30
0.0
 41
1.0
 10
-8740.8367146339824
 20
-449.2263523499193
 30
0.0
 41
1.0
 10
-8740.699990514644
 20
-449.06459331302995
 30
0.0
 41
0.9994359394931603
 10
-8740.5527162842791
 20
-448.91237711185329
 30
0.0
 41
1.0
 10
-8740.5503329303137
 20
-448.90991378146714
 30
0.0
 41
1.0
 10
-8740.5479495763466
 20
-448.90745045108105
 30
0.0
 41
1.0
 10
-8740.405442053916
 20
-448.76016091067828
 30
0.0
 41
0.9995293688567756
 10
-8740.2541703729439
 20
-448.62188769852446
 30
0.0
 41
1.0
 10
-8740.2348766136838
 20
-448.60425181287587
 30
0.0
 41
1.0
 10
-8740.2155828544237
 20
-448.58661592722734
 30
0.0
 41
1.0
 10
-8740.1028986919609
 20
-448.48361448635865
 30
0.0
 41
0.9997087614803636
 10
-8739.9853758030076
 20
-448.38617020556251
 30
0.0
 41
1.0
 10
-8739.9662097298406
 20
-448.37027862706179
 30
0.0
 41
1.0
 10
-8739.9470436566735
 20
-448.35438704856114
 30
0.0
 41
1.0
 10
-8739.8678529140398
 20
-448.28872592475511
 30
0.0
 41
0.9999595338699453
 10
-8739.7874936431981
 20
-448.22450019410962
 30
0.0
 41
1.0
 10
-8739.7071343723183
 20
-448.160274463436
 30
0.0
 41
0.9999749417508541
 10
-8739.6258738380166
 20
-448.09719290952188
 30
0.0
 41
1.0
 10
-8739.6048876918703
 20
-448.08090162223266
 30
0.0
 41
1.0
 10
-8739.5839015457241
 20
-448.0646103349435
 30
0.0
 41
1.0
 10
-8739.4993336603911
 20
-447.99896132507831
 30
0.0
 41
0.9999792037123737
 10
-8739.4139260605971
 20
-447.93440854341566
 30
0.0
 41
1.0
 10
-8739.3931012346802
 20
-447.91866872115463
 30
0.0
 41
1.0
 10
-8739.3722764087652
 20
-447.90292889889355
 30
0.0
 41
1.0
 10
-8739.3285184609049
 20
-447.86985576183065
 30
0.0
 41
0.9999993373726434
 10
-8739.2848367746847
 20
-447.83668196634801
 30
0.0
 41
1.0
 10
-8739.2411550885499
 20
-447.80350817093148
 30
0.0
 41
0.9999160953816613
 10
-8739.1966286776315
 20
-447.77147710573291
 30
0.0
 41
1.0
 10
-8739.1638067902059
 20
-447.74786595014439
 30
0.0
 41
1.0
 10
-8739.1309849027821
 20
-447.72425479455592
 30
0.0
 41
1.0
 10
-8739.0208147170179
 20
-447.64500141818434
 30
0.0
 41
0.9980964527232759
 10
-8738.9017257235173
 20
-447.57991394532849
 30
0.0
 41
1.0
 10
-8738.8646931165931
 20
-447.55967396573681
 30
0.0
 41
1.0
 10
-8738.8276605096671
 20
-447.53943398614507
 30
0.0
 41
1.0
 10
-8738.6483334963941
 20
-447.4414237354444
 30
0.0
 41
0.9984572810574414
 10
-8738.4592449300362
 20
-447.36390147409816
 30
0.0
 41
1.0
 10
-8738.4555986606465
 20
-447.36240658176234
 30
0.0
 41
1.0
 10
-8738.451952391255
 20
-447.36091168942653
 30
0.0
 41
1.0
 10
-8738.2701563636874
 20
-447.28637921275441
 30
0.0
 41
0.9987838528031877
 10
-8738.0819037051169
 20
-447.23011357258599
 30
0.0
 41
1.0
 10
-8738.0776657559163
 20
-447.22884691889521
 30
0.0
 41
1.0
 10
-8738.0734278067157
 20
-447.22758026520444
 30
0.0
 41
1.0
 10
-8737.8936510465519
 20
-447.17384793241825
 30
0.0
 41
0.9990652816206527
 10
-8737.7099051148416
 20
-447.1358442528782
 30
0.0
 41
1.0
 10
-8737.704716713808
 20
-447.13477114977127
 30
0.0
 41
1.0
 10
-8737.6995283127744
 20
-447.13369804666439
 30
0.0
 41
1.0
 10
-8737.5261591831259
 20
-447.09784057333547
 30
0.0
 41
0.9992909934268661
 10
-8737.3505834166681
 20
-447.07513014086965
 30
0.0
 41
1.0
 10
-8737.1750076501994
 20
-447.05241970840234
 30
0.0
 41
0.999455353944925
 10
-8736.9983162171211
 20
-447.04134040419717
 30
0.0
 41
1.0
 10
-8736.9628818093224
 20
-447.03911851614913
 30
0.0
 41
1.0
 10
-8736.9274474015219
 20
-447.03689662810109
 30
0.0
 41
1.0
 10
-8736.7612216349462
 20
-447.02647356568946
 30
0.0
 41
0.9990928098293045
 10
-8736.5947118430522
 20
-447.03023320692409
 30
0.0
 41
1.0
 10
-8736.5561500077802
 20
-447.0311038984571
 30
0.0
 41
1.0
 10
-8736.5175881725081
 20
-447.03197458999011
 30
0.0
 41
1.0
 10
-8736.4282020511419
 20
-447.03399284815879
 30
0.0
 41
0.999838208920611
 10
-8736.3389463683634
 20
-447.0392249746867
 30
0.0
 41
1.0
 10
-8736.3385164621468
 20
-447.03925017558879
 30
0.0
 41
1.0
 10
-8736.3380865559302
 20
-447.03927537649082
 30
0.0
 41
1.0
 10
-8736.2496906855977
 20
-447.04445710121348
 30
0.0
 41
0.9997558016759335
 10
-8736.1616101083782
 20
-447.05353961658125
 30
0.0
 41
1.0
 10
-8736.1611339699521
 20
-447.05358871406338
 30
0.0
 41
1.0
 10
-8736.1606578315277
 20
-447.05363781154557
 30
0.0
 41
1.0
 10
-8736.0735295311679
 20
-447.06262213194856
 30
0.0
 41
0.9996565144180198
 10
-8735.9869916778334
 20
-447.07615943863675
 30
0.0
 41
1.0
 10
-8735.9865257524543
 20
-447.07623232436845
 30
0.0
 41
1.0
 10
-8735.9860598270734
 20
-447.07630521010014
 30
0.0
 41
1.0
 10
-8735.900453824499
 20
-447.08969674532426
 30
0.0
 41
0.9995321806867104
 10
-8735.815826744165
 20
-447.10829723375502
 30
0.0
 41
1.0
 10
-8735.8154375495978
 20
-447.10838277622014
 30
0.0
 41
1.0
 10
-8735.8150483550289
 20
-447.10846831868525
 30
0.0
 41
1.0
 10
-8735.7311996638382
 20
-447.12689772218334
 30
0.0
 41
0.9993819199217804
 10
-8735.64885312964
 20
-447.15117310544497
 30
0.0
 41
1.0
 10
-8735.6486146961433
 20
-447.15124339455383
 30
0.0
 41
1.0
 10
-8735.6483762626467
 20
-447.15131368366275
 30
0.0
 41
1.0
 10
-8735.566506595449
 20
-447.17544848870324
 30
0.0
 41
0.9992088568502914
 10
-8735.4868140764556
 20
-447.20601372450005
 30
0.0
 41
1.0
 10
-8735.407133085575
 20
-447.23657332523436
 30
0.0
 41
0.9990226101773596
 10
-8735.3304624156699
 20
-447.27405075684783
 30
0.0
 41
1.0
 10
-8735.2538032738739
 20
-447.31152255340044
 30
0.0
 41
0.9988424273973394
 10
-8735.1810996466575
 20
-447.35618732865561
 30
0.0
 41
1.0
 10
-8735.1808319382799
 20
-447.35635179272708
 30
0.0
 41
1.0
 10
-8735.1805642299005
 20
-447.35651625679861
 30
0.0
 41
1.0
 10
-8735.1073251859289
 20
-447.40150996019628
 30
0.0
 41
0.9986928844490022
 10
-8735.0390623192125
 20
-447.45374569448165
 30
0.0
 41
1.0
 10
-8735.0384810269934
 20
-447.45419050770653
 30
0.0
 41
1.0
 10
-8735.0378997347743
 20
-447.4546353209314
 30
0.0
 41
1.0
 10
-8734.968474283618
 20
-447.50776068166806
 30
0.0
 41
0.9986007262280091
 10
-8734.9050481138438
 20
-447.56792145136973
 30
0.0
 41
1.0
 10
-8734.9041536983914
 20
-447.56876981920016
 30
0.0
 41
1.0
 10
-8734.903259282939
 20
-447.56961818703053
 30
0.0
 41
1.0
 10
-8734.8380442822563
 20
-447.63147569239453
 30
0.0
 41
0.9985581491376869
 10
-8734.7798366705611
 20
-447.69996818266003
 30
0.0
 41
1.0
 10
-8734.7705782169614
 20
-447.7108625403647
 30
0.0
 41
1.0
 10
-8734.7613197633636
 20
-447.72175689806932
 30
0.0
 41
1.0
 10
-8734.6845952444728
 20
-447.8120381037412
 30
0.0
 41
0.9970460233522284
 10
-8734.6226033433159
 20
-447.91300518791905
 30
0.0
 41
1.0
 10
-8734.6081339782304
 20
-447.93657164701062
 30
0.0
 41
1.0
 10
-8734.5936646131449
 20
-447.96013810610214
 30
0.0
 41
1.0
 10
-8734.5539279131353
 20
-448.02485783012605
 30
0.0
 41
0.9988468816634032
 10
-8734.5205815423869
 20
-448.09309028254791
 30
0.0
 41
1.0
 10
-8734.5135455198761
 20
-448.10748720372328
 30
0.0
 41
1.0
 10
-8734.506509497367
 20
-448.12188412489871
 30
0.0
 41
1.0
 10
-8734.4872351716203
 20
-448.1613227350125
 30
0.0
 41
0.999843119000441
 10
-8734.4693698441406
 20
-448.20141928941632
 30
0.0
 41
1.0
 10
-8734.451504516881
 20
-448.24151584333151
 30
0.0
 41
0.9999989989916606
 10
-8734.4335257937928
 20
-448.281561680175
 30
0.0
 41
1.0
 10
-8734.4273534819149
 20
-448.29530989762054
 30
0.0
 41
1.0
 10
-8734.421181170037
 20
-448.30905811506614
 30
0.0
 41
1.0
 10
-8734.3908578234314
 20
-448.37660038625961
 30
0.0
 41
0.9998790356321713
 10
-8734.3626499432939
 20
-448.44505313819383
 30
0.0
 41
1.0
 10
-8734.3558147620133
 20
-448.46164023961569
 30
0.0
 41
1.0
 10
-8734.3489795807309
 20
-448.47822734103761
 30
0.0
 41
1.0
 10
-8734.3254219183436
 20
-448.53539529593951
 30
0.0
 41
0.999822757456114
 10
-8734.3040331699485
 20
-448.59340960423015
 30
0.0
 41
1.0
 10
-8734.2826444215589
 20
-448.65142391250981
 30
0.0
 41
0.9996797971043517
 10
-8734.2642181366027
 20
-448.71044603162267
 30
0.0
 41
1.0
 10
-8734.2603143338765
 20
-448.72295048979311
 30
0.0
 41
1.0
 10
-8734.2564105311503
 20
-448.7354549479636
 30
0.0
 41
1.0
 10
-8734.23017664074
 20
-448.81948598342012
 30
0.0
 41
0.9979274938736924
 10
-8734.2149521172596
 20
-448.90619034208453
 30
0.0
 41
1.0
 10
-8734.2127284300004
 20
-448.91885434288599
 30
0.0
 41
1.0
 10
-8734.2105047427431
 20
-448.93151834368751
 30
0.0
 41
1.0
 10
-8734.1995748030404
 20
-448.99376485099657
 30
0.0
 41
0.9994985982133319
 10
-8734.1926066378619
 20
-449.05657835215447
 30
0.0
 41
1.0
 10
-8734.1856384726871
 20
-449.11939185327952
 30
0.0
 41
0.999637261119845
 10
-8734.1820626069202
 20
-449.18248943194806
 30
0.0
 41
1.0
 10
-8734.1818940294288
 20
-449.18546404904555
 30
0.0
 41
1.0
 10
-8734.1817254519392
 20
-449.18843866614304
 30
0.0
 41
1.0
 10
-8734.1778124311932
 20
-449.25748547899963
 30
0.0
 41
0.9997730630734755
 10
-8734.1768441177064
 20
-449.32663630304467
 30
0.0
 41
1.0
 10
-8734.176787011289
 20
-449.33071448217584
 30
0.0
 41
1.0
 10
-8734.1767299048697
 20
-449.33479266130701
 30
0.0
 41
1.0
 10
-8734.1756473785445
 20
-449.41209984361194
 30
0.0
 41
0.9998772614068028
 10
-8734.1769874652764
 20
-449.48940299016317
 30
0.0
 41
1.0
 10
-8734.1770767284761
 20
-449.49455215401116
 30
0.0
 41
1.0
 10
-8734.177165991674
 20
-449.49970131785915
 30
0.0
 41
1.0
 10
-8734.1786846048053
 20
-449.58730279214865
 30
0.0
 41
0.999941556732508
 10
-8734.182096915054
 20
-449.6748509538773
 30
0.0
 41
1.0
 10
-8734.182338235727
 20
-449.68104241356025
 30
0.0
 41
1.0
 10
-8734.1825795564
 20
-449.68723387324314
 30
0.0
 41
1.0
 10
-8734.1864745079947
 20
-449.78716495435367
 30
0.0
 41
0.9999716810429785
 10
-8734.1918730911093
 20
-449.88702609253863
 30
0.0
 41
1.0
 10
-8734.1950858898999
 20
-449.94645534223685
 30
0.0
 41
1.0
 10
-8734.1982986886906
 20
-450.00588459193511
 30
0.0
 41
1.0
 10
-8734.2063725978442
 20
-450.15523299321626
 30
0.0
 41
0.9999819129904453
 10
-8734.2162423894606
 20
-450.30447347092866
 30
0.0
 41
1.0
 10
-8734.226112181077
 20
-450.45371394864003
 30
0.0
 41
1.0
 10
-8734.228551501641
 20
-450.49090699448936
 30
0.0
 41
1.0
 10
-8734.2058532678366
 20
-450.45216599720453
 30
0.0
 41
0.9999982128059181
 10
-8734.1830087089911
 20
-450.41351110309233
 30
0.0
 41
1.0
 10
-8734.1560991491388
 20
-450.36797788909183
 30
0.0
 41
1.0
 10
-8734.1291895892864
 20
-450.32244467509133
 30
0.0
 41
1.0
 10
-8734.052525910749
 20
-450.19272335300548
 30
0.0
 41
0.9998609190059088
 10
-8733.9715785978751
 20
-450.06563097105527
 30
0.0
 41
1.0
 10
-8733.9419302764145
 20
-450.01908123813018
 30
0.0
 41
1.0
 10
-8733.9122819549521
 20
-449.97253150520504
 30
0.0
 41
1.0
 10
-8733.8300097347146
 20
-449.8433589352075
 30
0.0
 41
0.9999067609732926
 10
-8733.7442407252347
 20
-449.71648124574153
 30
0.0
 41
1.0
 10
-8733.741836022029
 20
-449.71292397968125
 30
0.0
 41
1.0
 10
-8733.7394313188252
 20
-449.70936671362097
 30
0.0
 41
1.0
 10
-8733.6584717157712
 20
-449.58960355630194
 30
0.0
 41
0.9998784952149212
 10
-8733.5738181060879
 20
-449.4724223395915
 30
0.0
 41
1.0
 10
-8733.4891644964227
 20
-449.35524112290278
 30
0.0
 41
0.9998532968282089
 10
-8733.4005468755986
 20
-449.24102821443091
 30
0.0
 41
1.0
 10
-8733.3805850866102
 20
-449.21530089341445
 30
0.0
 41
1.0
 10
-8733.3606232976217
 20
-449.18957357239805
 30
0.0
 41
1.0
 10
-8733.2421392478554
 20
-449.03686796141591
 30
0.0
 41
0.9991551975793542
 10
-8733.11151479822
 20
-448.89440839932001
 30
0.0
 41
1.0
 10
-8733.1080051822355
 20
-448.89058079769143
 30
0.0
 41
1.0
 10
-8733.1044955662528
 20
-448.8867531960629
 30
0.0
 41
1.0
 10
-8732.9808903485846
 20
-448.75194883722571
 30
0.0
 41
0.9997418144181933
 10
-8732.8512882088944
 20
-448.62289942662403
 30
0.0
 41
1.0
 10
-8732.7216860691988
 20
-448.49385001601496
 30
0.0
 41
0.9989238204630532
 10
-8732.5806835209551
 20
-448.37736505398243
 30
0.0
 41
1.0
 10
-8732.5354358428067
 20
-448.33998506236583
 30
0.0
 41
1.0
 10
-8732.4901881646583
 20
-448.30260507074917
 30
0.0
 41
1.0
 10
-8732.3499481074396
 20
-448.18675001746118
 30
0.0
 41
0.999082508409657
 10
-8732.2003081748389
 20
-448.08332101963128
 30
0.0
 41
1.0
 10
-8732.1902628107728
 20
-448.07637780654568
 30
0.0
 41
1.0
 10
-8732.1802174467066
 20
-448.06943459346013
 30
0.0
 41
1.0
 10
-8732.0506682422401
 20
-447.97989202180213
 30
0.0
 41
0.9998164899826659
 10
-8731.9177840388584
 20
-447.89537778028193
 30
0.0
 41
1.0
 10
-8731.905938478325
 20
-447.88784401375165
 30
0.0
 41
1.0
 10
-8731.8940929177916
 20
-447.88031024722136
 30
0.0
 41
1.0
 10
-8731.7848998354621
 20
-447.81086353875503
 30
0.0
 41
0.9997473449133317
 10
-8731.6726958782328
 20
-447.74639458094987
 30
0.0
 41
1.0
 10
-8731.5604919210145
 20
-447.68192562315124
 30
0.0
 41
0.9999327861142616
 10
-8731.4468233102252
 20
-447.6200756314559
 30
0.0
 41
1.0
 10
-8731.4462713076609
 20
-447.6197752727752
 30
0.0
 41
1.0
 10
-8731.4457193050985
 20
-447.61947491409444
 30
0.0
 41
1.0
 10
-8731.3309466892115
 20
-447.55702420505315
 30
0.0
 41
0.9996956420482817
 10
-8731.2132333633872
 20
-447.50031073808691
 30
0.0
 41
1.0
 10
-8731.1827929584942
 20
-447.48564476135664
 30
0.0
 41
1.0
 10
-8731.1523525536013
 20
-447.47097878462631
 30
0.0
 41
1.0
 10
-8731.049375446868
 20
-447.42136512618572
 30
0.0
 41
0.9998070570174092
 10
-8730.9445290579042
 20
-447.3758345392755
 30
0.0
 41
1.0
 10
-8730.8396826689768
 20
-447.33030395237944
 30
0.0
 41
0.9997827436146126
 10
-8730.7330297323551
 20
-447.28918278106352
 30
0.0
 41
1.0
 10
-8730.7138068827226
 20
-447.28177120743067
 30
0.0
 41
1.0
 10
-8730.69458403309
 20
-447.27435963379787
 30
0.0
 41
1.0
 10
-8730.5494853972214
 20
-447.2184153152225
 30
0.0
 41
0.9988031841975922
 10
-8730.3996150346102
 20
-447.17691525105312
 30
0.0
 41
1.0
 10
-8730.3746977862465
 20
-447.1700155052464
 30
0.0
 41
1.0
 10
-8730.3497805378847
 20
-447.16311575943968
 30
0.0
 41
1.0
 10
-8730.1825105122389
 20
-447.11679761703209
 30
0.0
 41
0.9984748040547664
 10
-8730.0111536035911
 20
-447.08920338476798
 30
0.0
 41
1.0
 10
-8730.0064144673415
 20
-447.08844022425455
 30
0.0
 41
1.0
 10
-8730.0016753310938
 20
-447.08767706374107
 30
0.0
 41
1.0
 10
-8729.8397966949378
 20
-447.06160915250223
 30
0.0
 41
0.9984436495478744
 10
-8729.6760219512162
 20
-447.05373119868443
 30
0.0
 41
1.0
 10
-8729.6543247430836
 20
-447.05268751148469
 30
0.0
 41
1.0
 10
-8729.6326275349511
 20
-447.05164382428501
 30
0.0
 41
1.0
 10
-8729.5122472075
 20
-447.04585324486527
 30
0.0
 41
0.9987954789333562
 10
-8729.3918789625823
 20
-447.05188977260798
 30
0.0
 41
1.0
 10
-8729.3719141700858
 20
-447.05289101694672
 30
0.0
 41
1.0
 10
-8729.3519493775875
 20
-447.05389226128545
 30
0.0
 41
1.0
 10
-8729.2715107176828
 20
-447.05792630034927
 30
0.0
 41
0.9997941595876668
 10
-8729.1913019395761
 20
-447.06522036627132
 30
0.0
 41
1.0
 10
-8729.1110931614767
 20
-447.07251443219303
 30
0.0
 41
0.9998589466236952
 10
-8729.0311746146272
 20
-447.08249828664242
 30
0.0
 41
1.0
 10
-8728.9987684128191
 20
-447.08654664356163
 30
0.0
 41
1.0
 10
-8728.9663622110111
 20
-447.0905950004809
 30
0.0
 41
1.0
 10
-8728.8216312605473
 20
-447.10867556876849
 30
0.0
 41
0.9993495063250024
 10
-8728.6785800167709
 20
-447.13714127851188
 30
0.0
 41
1.0
 10
-8728.6456463196264
 20
-447.1436947417252
 30
0.0
 41
1.0
 10
-8728.6127126224819
 20
-447.15024820493846
 30
0.0
 41
1.0
 10
-8728.5034187992769
 20
-447.17199653907272
 30
0.0
 41
0.9996788715559228
 10
-8728.3953672273092
 20
-447.19925433843912
 30
0.0
 41
1.0
 10
-8728.3933042247718
 20
-447.19977476501163
 30
0.0
 41
1.0
 10
-8728.3912412222344
 20
-447.20029519158419
 30
0.0
 41
1.0
 10
-8728.2873156553505
 20
-447.22651213780284
 30
0.0
 41
0.9995480654493015
 10
-8728.1851534201232
 20
-447.25892709442655
 30
0.0
 41
1.0
 10
-8728.1834637779975
 20
-447.25946319933939
 30
0.0
 41
1.0
 10
-8728.1817741358718
 20
-447.25999930425218
 30
0.0
 41
1.0
 10
-8728.0829911849069
 20
-447.29134205104486
 30
0.0
 41
0.9993867959452046
 10
-8727.9866440264523
 20
-447.32952142034071
 30
0.0
 41
1.0
 10
-8727.985401077367
 20
-447.33001396223722
 30
0.0
 41
1.0
 10
-8727.9841581282817
 20
-447.33050650413378
 30
0.0
 41
1.0
 10
-8727.8902968680122
 20
-447.36770078962877
 30
0.0
 41
0.9992050256519652
 10
-8727.7996971929751
 20
-447.41225468886921
 30
0.0
 41
1.0
 10
-8727.7989625102655
 20
-447.41261598132871
 30
0.0
 41
1.0
 10
-8727.7982278275558
 20
-447.41297727378821
 30
0.0
 41
1.0
 10
-8727.7090975179508
 20
-447.45680858810164
 30
0.0
 41
0.9990222350736201
 10
-8727.6241874565494
 20
-447.50834185580629
 30
0.0
 41
1.0
 10
-8727.6240035712726
 20
-447.50845345870778
 30
0.0
 41
1.0
 10
-8727.6238196859958
 20
-447.50856506160926
 30
0.0
 41
1.0
 10
-8727.5392773951644
 20
-447.55987512349816
 30
0.0
 41
0.9988642743803485
 10
-8727.4600028605364
 20
-447.61899931102982
 30
0.0
 41
1.0
 10
-8727.3807283259121
 20
-447.67812349856052
 30
0.0
 41
0.9987681233312965
 10
-8727.3077045416412
 20
-447.74481418995646
 30
0.0
 41
1.0
 10
-8727.3073756136764
 20
-447.74511459117036
 30
0.0
 41
1.0
 10
-8727.3070466857098
 20
-447.74541499238421
 30
0.0
 41
1.0
 10
-8727.2333650455002
 20
-447.81270648621683
 30
0.0
 41
0.9987496570902864
 10
-8727.166771240165
 20
-447.88701930031084
 30
0.0
 41
1.0
 10
-8727.1659990704102
 20
-447.88788097366336
 30
0.0
 41
1.0
 10
-8727.1652269006536
 20
-447.88874264701587
 30
0.0
 41
1.0
 10
-8727.0970887558124
 20
-447.96477880780839
 30
0.0
 41
0.9988147669825163
 10
-8727.0366665015936
 20
-448.04707981464225
 30
0.0
 41
1.0
 10
-8727.0355471755101
 20
-448.04860444600399
 30
0.0
 41
1.0
 10
-8727.0344278494249
 20
-448.0501290773658
 30
0.0
 41
1.0
 10
-8726.9717669430393
 20
-448.13547934692065
 30
0.0
 41
0.9989452636218938
 10
-8726.9172000300696
 20
-448.22621803609218
 30
0.0
 41
1.0
 10
-8726.9158513039911
 20
-448.22846081710782
 30
0.0
 41
1.0
 10
-8726.9145025779108
 20
-448.23070359812345
 30
0.0
 41
1.0
 10
-8726.8572382127786
 20
-448.32592784933433
 30
0.0
 41
0.999104643607016
 10
-8726.8082289994582
 20
-448.42565228235827
 30
0.0
 41
1.0
 10
-8726.8067651378678
 20
-448.42863096243116
 30
0.0
 41
1.0
 10
-8726.8053012762775
 20
-448.4316096425041
 30
0.0
 41
1.0
 10
-8726.7533643397746
 20
-448.53729143567818
 30
0.0
 41
0.9992763831101891
 10
-8726.7096112112158
 20
-448.64661549764452
 30
0.0
 41
1.0
 10
-8726.7081319415556
 20
-448.65031168517112
 30
0.0
 41
1.0
 10
-8726.7066526718954
 20
-448.65400787269766
 30
0.0
 41
1.0
 10
-8726.6599410040144
 20
-448.77072430971702
 30
0.0
 41
0.9994163472883181
 10
-8726.6213079728259
 20
-448.8903578981712
 30
0.0
 41
1.0
 10
-8726.620069820583
 20
-448.89419204194235
 30
0.0
 41
1.0
 10
-8726.6188316683401
 20
-448.89802618571355
 30
0.0
 41
1.0
 10
-8726.5789481073152
 20
-449.02153224721314
 30
0.0
 41
0.9997268055891744
 10
-8726.5448800513986
 20
-449.14676727917947
 30
0.0
 41
1.0
 10
-8726.5439498711294
 20
-449.15018664528725
 30
0.0
 41
1.0
 10
-8726.5430196908601
 20
-449.15360601139508
 30
0.0
 41
1.0
 10
-8726.5108119954875
 20
-449.27200231113045
 30
0.0
 41
0.9996701319002138
 10
-8726.484726378716
 20
-449.39189626439361
 30
0.0
 41
1.0
 10
-8726.4586407619463
 20
-449.51179021766103
 30
0.0
 41
0.999578545110924
 10
-8726.4395571846053
 20
-449.63299597870332
 30
0.0
 41
1.0
 10
-8726.4353374024358
 20
-449.65979713344677
 30
0.0
 41
1.0
 10
-8726.4311176202646
 20
-449.68659828819017
 30
0.0
 41
1.0
 10
-8726.4045426443208
 20
-449.85538426190783
 30
0.0
 41
0.997992510121152
 10
-8726.3995170583948
 20
-450.02617559001339
 30
0.0
 41
1.0
 10
-8726.3986922459699
 20
-450.05420631345896
 30
0.0
 41
1.0
 10
-8726.3978674335467
 20
-450.08223703690453
 30
0.0
 41
1.0
 10
-8726.3944914724671
 20
-450.19696691806894
 30
0.0
 41
0.9995314902261734
 10
-8726.3981416646075
 20
-450.31168840185705
 30
0.0
 41
1.0
 10
-8726.4017918567479
 20
-450.4264098856213
 30
0.0
 41
0.9996245486945316
 10
-8726.411720951879
 20
-450.54075915675992
 30
0.0
 41
1.0
 10
-8726.4118839998719
 20
-450.54263691288168
 30
0.0
 41
1.0
 10
-8726.4120470478647
 20
-450.54451466900343
 30
0.0
 41
1.0
 10
-8726.4223022389815
 20
-450.66261945238432
 30
0.0
 41
0.9997286094999828
 10
-8726.4380475625512
 20
-450.78011836126598
 30
0.0
 41
1.0
 10
-8726.4384410552029
 20
-450.78305478598116
 30
0.0
 41
1.0
 10
-8726.4388345478546
 20
-450.78599121069635
 30
0.0
 41
1.0
 10
-8726.4553668567314
 20
-450.90936296901583
 30
0.0
 41
0.9998265533970084
 10
-8726.4764823154692
 20
-451.03203344382916
 30
0.0
 41
1.0
 10
-8726.4771588576023
 20
-451.0359638223137
 30
0.0
 41
1.0
 10
-8726.4778353997353
 20
-451.03989420079824
 30
0.0
 41
1.0
 10
-8726.5003039427556
 20
-451.17042543266234
 30
0.0
 41
0.9999022530853142
 10
-8726.5264134073768
 20
-451.30027740135728
 30
0.0
 41
1.0
 10
-8726.5273920485306
 20
-451.30514454368597
 30
0.0
 41
1.0
 10
-8726.5283706896844
 20
-451.31001168601472
 30
0.0
 41
1.0
 10
-8726.5564374366222
 20
-451.44959793941587
 30
0.0
 41
0.9999524761935758
 10
-8726.5872204054504
 20
-451.58861043256002
 30
0.0
 41
1.0
 10
-8726.5884965126297
 20
-451.59437319187862
 30
0.0
 41
1.0
 10
-8726.5897726198091
 20
-451.60013595119722
 30
0.0
 41
1.0
 10
-8726.6231078030305
 20
-451.75067396311272
 30
0.0
 41
0.9999813588727627
 10
-8726.658278803854
 20
-451.90079367588862
 30
0.0
 41
1.0
 10
-8726.6598327292795
 20
-451.90742626617782
 30
0.0
 41
1.0
 10
-8726.661386654705
 20
-451.91405885646702
 30
0.0
 41
1.0
 10
-8726.6996655063776
 20
-452.07744374982758
 30
0.0
 41
0.9999955237622116
 10
-8726.7389213843362
 20
-452.24059665333749
 30
0.0
 41
1.0
 10
-8726.7512030199978
 20
-452.29164084397894
 30
0.0
 41
1.0
 10
-8726.7634846556612
 20
-452.34268503462033
 30
0.0
 41
1.0
 10
-8726.8273038048246
 20
-452.60792631891377
 30
0.0
 41
0.9999993604605527
 10
-8726.8917227519178
 20
-452.8730225692849
 30
0.0
 41
1.0
 10
-8726.8964415875453
 20
-452.89244147766129
 30
0.0
 41
1.0
 10
-8726.9011604231746
 20
-452.91186038603769
 30
0.0
 41
1.0
 10
-8726.9750170414191
 20
-453.21579445274006
 30
0.0
 41
0.9999659914725788
 10
-8727.0538766372829
 20
-453.5184689992181
 30
0.0
 41
1.0
 10
-8727.0588293262317
 20
-453.53747813646942
 30
0.0
 41
1.0
 10
-8727.0637820151805
 20
-453.55648727372079
 30
0.0
 41
1.0
 10
-8727.152546988922
 20
-453.897180094627
 30
0.0
 41
0.9999441976027549
 10
-8727.248490021886
 20
-454.23592151992398
 30
0.0
 41
1.0
 10
-8727.2651905403145
 20
-454.29488523245914
 30
0.0
 41
1.0
 10
-8727.2818910587412
 20
-454.3538489449943
 30
0.0
 41
1.0
 10
-8727.4112351285603
 20
-454.8105177953662
 30
0.0
 41
0.9999625120731821
 10
-8727.5484678958837
 20
-455.26487832936442
 30
0.0
 41
1.0
 10
-8727.5842578389565
 20
-455.38337435595417
 30
0.0
 41
1.0
 10
-8727.6200477820275
 20
-455.50187038254398
 30
0.0
 41
1.0
 10
-8727.6945679860819
 20
-455.74859746068961
 30
0.0
 41
0.999979338632242
 10
-8727.7722540092218
 20
-455.99434609993693
 30
0.0
 41
1.0
 10
-8727.8499400323599
 20
-456.24009473917306
 30
0.0
 41
1.0
 10
-8727.8607195912318
 20
-456.27411264354771
 30
0.0
 41
1.0
 10
-8729.7110926445002
 20
-462.16118456601521
 30
0.0
 41
1.0
 10
-8731.5614656977687
 20
-468.04825648848271
 30
0.0
 41
1.0
 10
-8732.5227223877919
 20
-468.04825648848271
 30
0.0
 41
1.0
 10
-8733.4839790778169
 20
-468.04825648848271
 30
0.0
 41
1.0
 10
-8731.8650342991386
 20
-462.90022798669327
 30
0.0
 41
1.0
 10
-8730.2460895204604
 20
-457.75219948490383
 30
0.0
 41
1.0
 10
-8730.2009236973136
 20
-457.60816826272617
 30
0.0
 41
1.0
 10
-8730.1557578741686
 20
-457.46413704054856
 30
0.0
 41
1.0
 10
-8729.9854534567712
 20
-456.9210460112721
 30
0.0
 41
0.9999911657875413
 10
-8729.8197206450677
 20
-456.37654247983789
 30
0.0
 41
1.0
 10
-8729.7900247015386
 20
-456.27897853969068
 30
0.0
 41
1.0
 10
-8729.7603287580096
 20
-456.18141459954342
 30
0.0
 41
1.0
 10
-8729.6539878333515
 20
-455.83203894835032
 30
0.0
 41
0.9999952428108792
 10
-8729.5498042440631
 20
-455.48201392412466
 30
0.0
 41
1.0
 10
-8729.544744773757
 20
-455.46501564993798
 30
0.0
 41
1.0
 10
-8729.5396853034508
 20
-455.44801737575131
 30
0.0
 41
1.0
 10
-8729.4456206547693
 20
-455.13198889987996
 30
0.0
 41
0.9999931687512476
 10
-8729.3538948168643
 20
-454.81527368650461
 30
0.0
 41
1.0
 10
-8729.3489595524225
 20
-454.7982329772899
 30
0.0
 41
1.0
 10
-8729.3440242879788
 20
-454.78119226807524
 30
0.0
 41
1.0
 10
-8729.2621689790012
 20
-454.49855847326546
 30
0.0
 41
0.9999893840807848
 10
-8729.1829217525337
 20
-454.21518234398752
 30
0.0
 41
1.0
 10
-8729.1036745260681
 20
-453.9318062147106
 30
0.0
 41
0.999983398007366
 10
-8729.0276982853138
 20
-453.64753563163669
 30
0.0
 41
1.0
 10
-8729.0186943486042
 20
-453.61384675320215
 30
0.0
 41
1.0
 10
-8729.0096904118927
 20
-453.58015787476762
 30
0.0
 41
1.0
 10
-8728.9407258630272
 20
-453.32212204246798
 30
0.0
 41
0.9999233658067348
 10
-8728.8781708918032
 20
-453.06245788373451
 30
0.0
 41
1.0
 10
-8728.8156159205828
 20
-452.80279372501207
 30
0.0
 41
1.0
 10
-8728.7761325017254
 20
-452.63898706058592
 30
0.0
 41
1.0
 10
-8728.771153897731
 20
-452.61833209864847
 30
0.0
 41
1.0
 10
-8728.7661752937383
 20
-452.59767713671101
 30
0.0
 41
1.0
 10
-8728.7366490828554
 20
-452.47518039610537
 30
0.0
 41
0.9999868670876894
 10
-8728.7083799988723
 20
-452.35238745051436
 30
0.0
 41
1.0
 10
-8728.7044825117155
 20
-452.33545786310111
 30
0.0
 41
1.0
 10
-8728.7005850245587
 20
-452.31852827568787
 30
0.0
 41
1.0
 10
-8728.6801109148782
 20
-452.2295945048736
 30
0.0
 41
0.9999778173342794
 10
-8728.6608233167608
 20
-452.14039588763842
 30
0.0
 41
1.0
 10
-8728.6415357186543
 20
-452.0511972704478
 30
0.0
 41
0.9999602692865333
 10
-8728.6238413600331
 20
-451.9616689820715
 30
0.0
 41
1.0
 10
-8728.6206375279471
 20
-451.94545852714089
 30
0.0
 41
1.0
 10
-8728.6174336958593
 20
-451.92924807221027
 30
0.0
 41
1.0
 10
-8728.5933316730734
 20
-451.80729887401037
 30
0.0
 41
0.9995617985321972
 10
-8728.5764883258526
 20
-451.68413712630115
 30
0.0
 41
1.0
 10
-8728.5740238359467
 20
-451.6661163089309
 30
0.0
 41
1.0
 10
-8728.5715593460391
 20
-451.64809549156064
 30
0.0
 41
1.0
 10
-8728.5512760849906
 20
-451.49978044186639
 30
0.0
 41
0.9991121410636747
 10
-8728.543550731405
 20
-451.35028434306787
 30
0.0
 41
1.0
 10
-8728.54263194138
 20
-451.33250450648586
 30
0.0
 41
1.0
 10
-8728.541713151355
 20
-451.31472466990385
 30
0.0
 41
1.0
 10
-8728.5358253778177
 20
-451.20078824425582
 30
0.0
 41
0.9989792494905496
 10
-8728.5402444699357
 20
-451.08678540836331
 30
0.0
 41
1.0
 10
-8728.5408924418043
 20
-451.07006916244069
 30
0.0
 41
1.0
 10
-8728.5415404136729
 20
-451.05335291651807
 30
0.0
 41
1.0
 10
-8728.5446635620519
 20
-450.97278257246808
 30
0.0
 41
0.9997820295390633
 10
-8728.5511475594285
 20
-450.89241285072092
 30
0.0
 41
1.0
 10
-8728.5576315568069
 20
-450.81204312894045
 30
0.0
 41
0.9998335105971307
 10
-8728.5670437523222
 20
-450.73196351245815
 30
0.0
 41
1.0
 10
-8728.5686386769958
 20
-450.71839378200946
 30
0.0
 41
1.0
 10
-8728.5702336016675
 20
-450.70482405156076
 30
0.0
 41
1.0
 10
-8728.5828356465299
 20
-450.59760497416653
 30
0.0
 41
0.9996876457880511
 10
-8728.6007795593232
 20
-450.49114954647075
 30
0.0
 41
1.0
 10
-8728.6030112224726
 20
-450.47790981120579
 30
0.0
 41
1.0
 10
-8728.6052428856219
 20
-450.46467007594077
 30
0.0
 41
1.0
 10
-8728.6190387070419
 20
-450.38282393198642
 30
0.0
 41
0.9995547496496905
 10
-8728.6376920289331
 20
-450.30194643479547
 30
0.0
 41
1.0
 10
-8728.6380659858023
 20
-450.30032502409722
 30
0.0
 41
1.0
 10
-8728.6384399426715
 20
-450.29870361339897
 30
0.0
 41
1.0
 10
-8728.6563453508243
 20
-450.22106893761259
 30
0.0
 41
0.9994899427177924
 10
-8728.6791702595056
 20
-450.14473565476987
 30
0.0
 41
1.0
 10
-8728.6796287862453
 20
-450.1432022049861
 30
0.0
 41
1.0
 10
-8728.6800873129851
 20
-450.14166875520237
 30
0.0
 41
1.0
 10
-8728.701995168185
 20
-450.06840237193802
 30
0.0
 41
0.9993784877589985
 10
-8728.7290108032921
 20
-449.99686166677645
 30
0.0
 41
1.0
 10
-8728.729542494264
 20
-449.99545368406757
 30
0.0
 41
1.0
 10
-8728.7300741852378
 20
-449.99404570135863
 30
0.0
 41
1.0
 10
-8728.7560264383937
 20
-449.92532096162972
 30
0.0
 41
0.9992430832256989
 10
-8728.787242973558
 20
-449.85882180954911
 30
0.0
 41
1.0
 10
-8728.787825089621
 20
-449.8575817544185
 30
0.0
 41
1.0
 10
-8728.7884072056841
 20
-449.8563416992879
 30
0.0
 41
1.0
 10
-8728.8184595087223
 20
-449.79232265746913
 30
0.0
 41
0.9990789632788855
 10
-8728.853890135495
 20
-449.73111604573126
 30
0.0
 41
1.0
 10
-8728.854485841679
 20
-449.73008695987039
 30
0.0
 41
1.0
 10
-8728.8550815478611
 20
-449.72905787400958
 30
0.0
 41
1.0
 10
-8728.8893207622714
 20
-449.66990943398105
 30
0.0
 41
0.998887480111859
 10
-8728.9289800383031
 20
-449.61424972156374
 30
0.0
 41
1.0
 10
-8728.9295355643681
 20
-449.61347006988746
 30
0.0
 41
1.0
 10
-8728.9300910904331
 20
-449.61269041821117
 30
0.0
 41
1.0
 10
-8728.9686393143365
 20
-449.5585900091433
 30
0.0
 41
0.9986762060696414
 10
-8729.0125417856107
 20
-449.50873629470675
 30
0.0
 41
1.0
 10
-8729.0129857459433
 20
-449.50823215288915
 30
0.0
 41
1.0
 10
-8729.0134297062777
 20
-449.50772801107149
 30
0.0
 41
1.0
 10
-8729.0564442568848
 20
-449.45888258027082
 30
0.0
 41
0.9984621642485416
 10
-8729.1046018136658
 20
-449.41509927979644
 30
0.0
 41
1.0
 10
-8729.1048484481853
 20
-449.41487504762989
 30
0.0
 41
1.0
 10
-8729.1050950827048
 20
-449.41465081546335
 30
0.0
 41
1.0
 10
-8729.1527593704486
 20
-449.37131597932074
 30
0.0
 41
0.9982724693846093
 10
-8729.2051780022848
 20
-449.33387162880763
 30
0.0
 41
1.0
 10
-8729.2575966341228
 20
-449.29642727829292
 30
0.0
 41
0.9981399180168041
 10
-8729.3141826975134
 20
-449.26564075884971
 30
0.0
 41
1.0
 10
-8729.3142283595953
 20
-449.26561591569094
 30
0.0
 41
1.0
 10
-8729.3142740216754
 20
-449.26559107253217
 30
0.0
 41
1.0
 10
-8729.3709514092225
 20
-449.23475486677563
 30
0.0
 41
0.998092708683361
 10
-8729.4309967602967
 20
-449.21113805792032
 30
0.0
 41
1.0
 10
-8729.4314369300064
 20
-449.21096493204607
 30
0.0
 41
1.0
 10
-8729.4318770997161
 20
-449.21079180617187
 30
0.0
 41
1.0
 10
-8729.4928027902115
 20
-449.18682874556697
 30
0.0
 41
0.9981411356554173
 10
-8729.5561913116017
 20
-449.17045610406501
 30
0.0
 41
1.0
 10
-8729.5570734283065
 20
-449.17022826185894
 30
0.0
 41
1.0
 10
-8729.5579555450095
 20
-449.17000041965287
 30
0.0
 41
1.0
 10
-8729.6231082998183
 20
-449.15317209373393
 30
0.0
 41
0.9983031812925612
 10
-8729.6897757288043
 20
-449.14403273256022
 30
0.0
 41
1.0
 10
-8729.6986467542047
 20
-449.14281661388918
 30
0.0
 41
1.0
 10
-8729.7075177796069
 20
-449.1416004952182
 30
0.0
 41
1.0
 10
-8729.7618674221139
 20
-449.1341497652262
 30
0.0
 41
0.9983887708259376
 10
-8729.8167112714091
 20
-449.1329050915931
 30
0.0
 41
1.0
 10
-8729.8247746766265
 20
-449.13272209371826
 30
0.0
 41
1.0
 10
-8729.8328380818439
 20
-449.13253909584341
 30
0.0
 41
1.0
 10
-8729.8715551206751
 20
-449.13166041796046
 30
0.0
 41
0.9998869563080038
 10
-8729.9102810739059
 20
-449.13194628731947
 30
0.0
 41
1.0
 10
-8729.9490070270549
 20
-449.13223215667784
 30
0.0
 41
0.9999972320183108
 10
-8729.9877312063327
 20
-449.13270025620835
 30
0.0
 41
1.0
 10
-8730.0070842229052
 20
-449.1329341962977
 30
0.0
 41
1.0
 10
-8730.0264372394777
 20
-449.13316813638698
 30
0.0
 41
1.0
 10
-8730.1038674518677
 20
-449.13410411609499
 30
0.0
 41
0.9997304945085404
 10
-8730.1811707580855
 20
-449.13863320988071
 30
0.0
 41
1.0
 10
-8730.1902203997906
 20
-449.13916341587071
 30
0.0
 41
1.0
 10
-8730.1992700414958
 20
-449.13969362186072
 30
0.0
 41
1.0
 10
-8730.2946726311329
 20
-449.1452831276269
 30
0.0
 41
0.9997888306417143
 10
-8730.3897649669852
 20
-449.15478809211567
 30
0.0
 41
1.0
 10
-8730.3984860285582
 20
-449.15565980674785
 30
0.0
 41
1.0
 10
-8730.4072070901311
 20
-449.15653152137997
 30
0.0
 41
1.0
 10
-8730.5197415491202
 20
-449.16777991513385
 30
0.0
 41
0.9984170238191645
 10
-8730.6303006964681
 20
-449.19159599706893
 30
0.0
 41
1.0
 10
-8730.6666818274534
 20
-449.19943303287459
 30
0.0
 41
1.0
 10
-8730.7030629584369
 20
-449.2072700686802
 30
0.0
 41
1.0
 10
-8730.8182540268626
 20
-449.23208393519025
 30
0.0
 41
0.9976592854198421
 10
-8730.9289821932689
 20
-449.27238261233811
 30
0.0
 41
1.0
 10
-8731.0397103596788
 20
-449.31268128948778
 30
0.0
 41
0.9993255074353856
 10
-8731.1471821584637
 20
-449.36099818797737
 30
0.0
 41
1.0
 10
-8731.1518073373882
 20
-449.36307756417727
 30
0.0
 41
1.0
 10
-8731.1564325163108
 20
-449.36515694037712
 30
0.0
 41
1.0
 10
-8731.2731546729501
 20
-449.41763259126918
 30
0.0
 41
0.9976475078271242
 10
-8731.3816020172617
 20
-449.48558058092914
 30
0.0
 41
1.0
 10
-8731.3999444113906
 20
-449.49707305973982
 30
0.0
 41
1.0
 10
-8731.4182868055195
 20
-449.5085655385505
 30
0.0
 41
1.0
 10
-8731.50248899707
 20
-449.56132265931842
 30
0.0
 41
0.9995131336409638
 10
-8731.5832367120383
 20
-449.6192288712781
 30
0.0
 41
1.0
 10
-8731.6639844269939
 20
-449.67713508323061
 30
0.0
 41
0.9995810107609571
 10
-8731.7412460747219
 20
-449.73961676569417
 30
0.0
 41
1.0
 10
-8731.7442161059334
 20
-449.74201863716019
 30
0.0
 41
1.0
 10
-8731.747186137145
 20
-449.74442050862626
 30
0.0
 41
1.0
 10
-8731.8303878472907
 20
-449.81170593402038
 30
0.0
 41
0.9996617837956897
 10
-8731.9099785344351
 20
-449.88322638958743
 30
0.0
 41
1.0
 10
-8731.9221092853186
 20
-449.89412712258297
 30
0.0
 41
1.0
 10
-8731.9342400362002
 20
-449.90502785557851
 30
0.0
 41
1.0
 10
-8732.0025155635885
 20
-449.96638047104489
 30
0.0
 41
0.999726775005378
 10
-8732.0678490718637
 20
-450.03085700756105
 30
0.0
 41
1.0
 10
-8732.1331825801535
 20
-450.09533354409064
 30
0.0
 41
0.9999667288954975
 10
-8732.1974555233282
 20
-450.1608673510147
 30
0.0
 41
1.0
 10
-8732.2662829710862
 20
-450.23104500975603
 30
0.0
 41
1.0
 10
-8732.3351104188441
 20
-450.3012226684973
 30
0.0
 41
1.0
 10
-8732.537038257542
 20
-450.50711179290823
 30
0.0
 41
0.9988205335173983
 10
-8732.7180438745181
 20
-450.73161602496481
 30
0.0
 41
1.0
 10
-8732.7486838394252
 20
-450.76961927539674
 30
0.0
 41
1.0
 10
-8732.7793238043305
 20
-450.80762252582861
 30
0.0
 41
1.0
 10
-8733.0216093511044
 20
-451.10813325873244
 30
0.0
 41
0.9997077826755266
 10
-8733.249087302207
 20
-451.42000305294187
 30
0.0
 41
1.0
 10
-8733.2508107173453
 20
-451.4223658363332
 30
0.0
 41
1.0
 10
-8733.2525341324854
 20
-451.42472861972453
 30
0.0
 41
1.0
 10
-8733.4834589138463
 20
-451.74132398069213
 30
0.0
 41
0.9989147567079741
 10
-8733.6839224167325
 20
-452.07803344187704
 30
0.0
 41
1.0
 10
-8733.7086635620435
 20
-452.11959002243907
 30
0.0
 41
1.0
 10
-8733.7334047073564
 20
-452.16114660300116
 30
0.0
 41
1.0
 10
-8733.8886160059919
 20
-452.42184798745268
 30
0.0
 41
0.9997476598182148
 10
-8734.0319609934959
 20
-452.68925773602484
 30
0.0
 41
1.0
 10
-8734.1753059809998
 20
-452.95666748459956
 30
0.0
 41
0.9996258967110818
 10
-8734.3038142329351
 20
-453.23151542122531
 30
0.0
 41
1.0
 10
-8734.3170141423852
 20
-453.25974682132164
 30
0.0
 41
1.0
 10
-8734.3302140518354
 20
-453.28797822141792
 30
0.0
 41
1.0
 10
-8734.4704227728398
 20
-453.58785061938386
 30
0.0
 41
0.9998735413946526
 10
-8734.6010241195563
 20
-453.89203021884373
 30
0.0
 41
1.0
 10
-8734.6044669476305
 20
-453.90004880434071
 30
0.0
 41
1.0
 10
-8734.6079097757047
 20
-453.9080673898377
 30
0.0
 41
1.0
 10
-8734.7316254662892
 20
-454.19620981833907
 30
0.0
 41
0.999937741885924
 10
-8734.8488802684515
 20
-454.48704128598638
 30
0.0
 41
1.0
 10
-8734.9661350706392
 20
-454.77787275369229
 30
0.0
 41
0.9999508299501783
 10
-8735.0775990140264
 20
-455.07097243054255
 30
0.0
 41
1.0
 10
-8735.0806797826772
 20
-455.07907345647698
 30
0.0
 41
1.0
 10
-8735.0837605513298
 20
-455.08717448241146
 30
0.0
 41
1.0
 10
-8735.2013860320094
 20
-455.39647621110237
 30
0.0
 41
0.9999609228431543
 10
-8735.3135246348756
 20
-455.70780922709099
 30
0.0
 41
1.0
 10
-8735.3164806452405
 20
-455.71601606754302
 30
0.0
 41
1.0
 10
-8735.3194366556054
 20
-455.724222907995
 30
0.0
 41
1.0
 10
-8735.4374872791832
 20
-456.05196960484284
 30
0.0
 41
0.9999674607401495
 10
-8735.5502348052541
 20
-456.3815782248476
 30
0.0
 41
1.0
 10
-8735.6016331958235
 20
-456.53183742055796
 30
0.0
 41
1.0
 10
-8735.6530315863929
 20
-456.68209661626838
 30
0.0
 41
1.0
 10
-8735.7690421931402
 20
-457.02124459874454
 30
0.0
 41
0.9999287532307275
 10
-8735.8769235971013
 20
-457.3630653376872
 30
0.0
 41
1.0
 10
-8735.9234008532931
 20
-457.51032788222699
 30
0.0
 41
1.0
 10
-8735.9698781094849
 20
-457.65759042676672
 30
0.0
 41
1.0
 10
-8735.9848050010842
 20
-457.70488607670472
 30
0.0
 41
0.9999998222678016
 10
-8735.9996755098018
 20
-457.75219948490383
 30
0.0
 41
1.0
 10
-8737.6203316465981
 20
-462.90022798669327
 30
0.0
 41
1.0
 10
-8739.2409877833925
 20
-468.04825648848271
 30
0.0
 41
1.0
 10
-8740.1462962272835
 20
-468.04825648848271
 30
0.0
 41
1.0
 10
-8741.0516046711746
 20
-468.04825648848271
 30
0.0
 41
1.0
 10
-8739.1995202597882
 20
-462.16118456601521
 30
0.0
 41
1.0
 10
-8737.3474358484018
 20
-456.27411264354771
 30
0.0
 41
1.0
 10
-8737.3373140900985
 20
-456.24206943009801
 30
0.0
 41
1.0
 10
-8737.2647064212488
 20
-456.01176988827217
 30
0.0
 41
1.0
 10
-8737.1920987523845
 20
-455.78147034640017
 30
0.0
 41
0.9999825681970044
 10
-8737.1222157131651
 20
-455.55032945130853
 30
0.0
 41
1.0
 10
-8737.0739246510166
 20
-455.39060486785456
 30
0.0
 41
1.0
 10
-8737.0256335888698
 20
-455.23088028440054
 30
0.0
 41
1.0
 10
-8736.9284812355545
 20
-454.90954506263239
 30
0.0
 41
0.9999672528966692
 10
-8736.8365424299263
 20
-454.58667951703137
 30
0.0
 41
1.0
 10
-8736.8337535463015
 20
-454.57688567179878
 30
0.0
 41
1.0
 10
-8736.8309646626767
 20
-454.56709182656618
 30
0.0
 41
1.0
 10
-8736.7446036243509
 20
-454.26381397161265
 30
0.0
 41
0.9999899749151675
 10
-8736.6609620147683
 20
-453.95977488299263
 30
0.0
 41
1.0
 10
-8736.6508560957409
 20
-453.92303964527792
 30
0.0
 41
1.0
 10
-8736.6407501767135
 20
-453.88630440756322
 30
0.0
 41
1.0
 10
-8736.5773204052257
 20
-453.65573579450665
 30
0.0
 41
0.9999214200502625
 10
-8736.5196909768565
 20
-453.42364945233089
 30
0.0
 41
1.0
 10
-8736.5069251246459
 20
-453.37223856680987
 30
0.0
 41
1.0
 10
-8736.4941592724335
 20
-453.32082768128885
 30
0.0
 41
1.0
 10
-8736.4620615484509
 20
-453.19156311000972
 30
0.0
 41
0.9999828681646197
 10
-8736.4314792964833
 20
-453.0619316356541
 30
0.0
 41
1.0
 10
-8736.4008970444829
 20
-452.9323001611632
 30
0.0
 41
0.9999389844479931
 10
-8736.3731860556927
 20
-452.80202470525336
 30
0.0
 41
1.0
 10
-8736.3660483119747
 20
-452.76846860143257
 30
0.0
 41
1.0
 10
-8736.3589105682586
 20
-452.73491249761173
 30
0.0
 41
1.0
 10
-8736.3169240920215
 20
-452.53752483400172
 30
0.0
 41
0.9998933699441093
 10
-8736.2807198276132
 20
-452.33899522620186
 30
0.0
 41
1.0
 10
-8736.2793470024044
 20
-452.33146720554345
 30
0.0
 41
1.0
 10
-8736.2779741771938
 20
-452.32393918488503
 30
0.0
 41
1.0
 10
-8736.2390242623551
 20
-452.11035353570912
 30
0.0
 41
0.9996850305191946
 10
-8736.2108405860945
 20
-451.89508253025087
 30
0.0
 41
1.0
 10
-8736.2088455527264
 20
-451.87984417613598
 30
0.0
 41
1.0
 10
-8736.2068505193583
 20
-451.86460582202108
 30
0.0
 41
1.0
 10
-8736.1794426569013
 20
-451.65526059488104
 30
0.0
 41
0.9994697936705781
 10
-8736.1657180976836
 20
-451.44457539956738
 30
0.0
 41
1.0
 10
-8736.165241028435
 20
-451.43725192737338
 30
0.0
 41
1.0
 10
-8736.1647639591865
 20
-451.42992845517932
 30
0.0
 41
1.0
 10
-8736.1519935384658
 20
-451.23389020425407
 30
0.0
 41
0.9991804893139752
 10
-8736.1551218547356
 20
-451.0374613542632
 30
0.0
 41
1.0
 10
-8736.1552057335575
 20
-451.03219455285398
 30
0.0
 41
1.0
 10
-8736.1552896123794
 20
-451.0269277514447
 30
0.0
 41
1.0
 10
-8736.1582501710091
 20
-450.84103250429285
 30
0.0
 41
0.9988448329321842
 10
-8736.1790417166339
 20
-450.65627991445638
 30
0.0
 41
1.0
 10
-8736.180635790337
 20
-450.64211505868042
 30
0.0
 41
1.0
 10
-8736.1822298640418
 20
-450.62795020290446
 30
0.0
 41
1.0
 10
-8736.199833262257
 20
-450.47152732461785
 30
0.0
 41
0.9985503209454426
 10
-8736.2341495345572
 20
-450.31790314053376
 30
0.0
 41
1.0
 10
-8736.2417355266261
 20
-450.28394281313967
 30
0.0
 41
1.0
 10
-8736.2493215186969
 20
-450.24998248574553
 30
0.0
 41
1.0
 10
-8736.2684658068556
 20
-450.1642789564479
 30
0.0
 41
0.9991036781366469
 10
-8736.2947906685076
 20
-450.08050186911953
 30
0.0
 41
1.0
 10
-8736.2987728939625
 20
-450.06782870661664
 30
0.0
 41
1.0
 10
-8736.3027551194155
 20
-450.0551555441138
 30
0.0
 41
1.0
 10
-8736.3211155301524
 20
-449.99672478181094
 30
0.0
 41
0.9998874504368411
 10
-8736.3412207378351
 20
-449.93887117957127
 30
0.0
 41
1.0
 10
-8736.3613259455196
 20
-449.8810175773296
 30
0.0
 41
0.9994041637538322
 10
-8736.3853745584656
 20
-449.82468887341992
 30
0.0
 41
1.0
 10
-8736.3895713426755
 20
-449.81485880897151
 30
0.0
 41
1.0
 10
-8736.3937681268835
 20
-449.80502874452316
 30
0.0
 41
1.0
 10
-8736.4216469578841
 20
-449.73972857854369
 30
0.0
 41
0.9991846840709483
 10
-8736.4547033145845
 20
-449.6768905472469
 30
0.0
 41
1.0
 10
-8736.45583992098
 20
-449.67472993079207
 30
0.0
 41
1.0
 10
-8736.4569765273754
 20
-449.67256931433718
 30
0.0
 41
1.0
 10
-8736.4877596712777
 20
-449.61405251596602
 30
0.0
 41
0.9989253167921484
 10
-8736.523829095333
 20
-449.55863758757641
 30
0.0
 41
1.0
 10
-8736.5248832199977
 20
-449.55701809282721
 30
0.0
 41
1.0
 10
-8736.5259373446643
 20
-449.55539859807794
 30
0.0
 41
1.0
 10
-8736.559898519381
 20
-449.50322265919579
 30
0.0
 41
0.9986467172843079
 10
-8736.5990956720252
 20
-449.45485662555666
 30
0.0
 41
1.0
 10
-8736.5999698007217
 20
-449.45377802328488
 30
0.0
 41
1.0
 10
-8736.6008439294164
 20
-449.45269942101311
 30
0.0
 41
1.0
 10
-8736.6382928246549
 20
-449.40649059193709
 30
0.0
 41
0.9984001104272428
 10
-8736.6807195551792
 20
-449.36480548455825
 30
0.0
 41
1.0
 10
-8736.6813066932846
 20
-449.36422860968059
 30
0.0
 41
1.0
 10
-8736.68189383139
 20
-449.36365173480289
 30
0.0
 41
1.0
 10
-8736.7231462856962
 20
-449.32312037718901
 30
0.0
 41
0.9982442159075639
 10
-8736.7689023870334
 20
-449.28775181592925
 30
0.0
 41
1.0
 10
-8736.769117182499
 20
-449.28758578328342
 30
0.0
 41
1.0
 10
-8736.7693319779646
 20
-449.28741975063758
 30
0.0
 41
1.0
 10
-8736.8146584883707
 20
-449.25238325466768
 30
0.0
 41
0.9982450060830664
 10
-8736.8638094674407
 20
-449.2229514716355
 30
0.0
 41
1.0
 10
-8736.9129604465179
 20
-449.19351968859769
 30
0.0
 41
0.9983922639623354
 10
-8736.9651267526824
 20
-449.1698400539463
 30
0.0
 41
1.0
 10
-8736.9653536300048
 20
-449.16973706846568
 30
0.0
 41
1.0
 10
-8736.9655805073271
 20
-449.169634082985
 30
0.0
 41
1.0
 10
-8737.0182005681399
 20
-449.14574847736861
 30
0.0
 41
0.9986517147151781
 10
-8737.0730135410067
 20
-449.12744735824651
 30
0.0
 41
1.0
 10
-8737.0736914624358
 20
-449.12722101181498
 30
0.0
 41
1.0
 10
-8737.0743693838631
 20
-449.12699466538345
 30
0.0
 41
1.0
 10
-8737.1305381995808
 20
-449.10824085340113
 30
0.0
 41
0.9989435598958042
 10
-8737.1881915867307
 20
-449.09472315116636
 30
0.0
 41
1.0
 10
-8737.1892717063165
 20
-449.09446990091232
 30
0.0
 41
1.0
 10
-8737.1903518259023
 20
-449.09421665065827
 30
0.0
 41
1.0
 10
-8737.2501654522075
 20
-449.08019244791922
 30
0.0
 41
0.999224924123959
 10
-8737.3108969611167
 20
-449.07091710520194
 30
0.0
 41
1.0
 10
-8737.3123106494058
 20
-449.0707011967944
 30
0.0
 41
1.0
 10
-8737.313724337695
 20
-449.07048528838686
 30
0.0
 41
1.0
 10
-8737.3772832231862
 20
-449.06077812885508
 30
0.0
 41
0.9994396597835712
 10
-8737.4413491597134
 20
-449.05534520651025
 30
0.0
 41
1.0
 10
-8737.46048982719
 20
-449.05372203879165
 30
0.0
 41
1.0
 10
-8737.4796304946685
 20
-449.05209887107299
 30
0.0
 41
1.0
 10
-8737.5819777661563
 20
-449.04341961329106
 30
0.0
 41
0.9987693403125945
 10
-8737.6846813897464
 20
-449.0449226767426
 30
0.0
 41
1.0
 10
-8737.6949357239737
 20
-449.04507274851682
 30
0.0
 41
1.0
 10
-8737.705190058201
 20
-449.04522282029103
 30
0.0
 41
1.0
 10
-8737.8147458243802
 20
-449.0468261645791
 30
0.0
 41
0.9989753644968906
 10
-8737.9237078243968
 20
-449.0583291715036
 30
0.0
 41
1.0
 10
-8738.0326698244135
 20
-449.06983217842821
 30
0.0
 41
0.9983190067303912
 10
-8738.1395686353826
 20
-449.09386717021619
 30
0.0
 41
1.0
 10
-8738.1484695869876
 20
-449.09586844877856
 30
0.0
 41
1.0
 10
-8738.1573705385927
 20
-449.09786972734094
 30
0.0
 41
1.0
 10
-8738.2820712527719
 20
-449.12590727625411
 30
0.0
 41
0.9985539388305892
 10
-8738.4030410064461
 20
-449.16717095229825
 30
0.0
 41
1.0
 10
-8738.4053864374073
 20
-449.16797099611426
 30
0.0
 41
1.0
 10
-8738.4077318683685
 20
-449.16877103993033
 30
0.0
 41
1.0
 10
-8738.5333924839688
 20
-449.21163480360877
 30
0.0
 41
0.9988468746495315
 10
-8738.6543628262643
 20
-449.26635288866851
 30
0.0
 41
1.0
 10
-8738.6575456482533
 20
-449.26779256322919
 30
0.0
 41
1.0
 10
-8738.6607284702441
 20
-449.26923223778988
 30
0.0
 41
1.0
 10
-8738.7880644565139
 20
-449.32682967196888
 30
0.0
 41
0.9991322885920103
 10
-8738.9101650405701
 20
-449.39482500414897
 30
0.0
 41
1.0
 10
-8738.927767051624
 20
-449.40462720614437
 30
0.0
 41
1.0
 10
-8738.9453690626779
 20
-449.41442940813977
 30
0.0
 41
1.0
 10
-8739.0475457437242
 20
-449.47132952391405
 30
0.0
 41
0.9993860037850442
 10
-8739.1454867477987
 20
-449.53524553950285
 30
0.0
 41
1.0
 10
-8739.1511050606532
 20
-449.53891203419914
 30
0.0
 41
1.0
 10
-8739.1567233735077
 20
-449.54257852889543
 30
0.0
 41
1.0
 10
-8739.2434277518551
 20
-449.59916155508148
 30
0.0
 41
0.9998821494954979
 10
-8739.3283541276833
 20
-449.65837978516811
 30
0.0
 41
1.0
 10
-8739.4132805034878
 20
-449.71759801523882
 30
0.0
 41
0.9997976482744665
 10
-8739.4957561338979
 20
-449.78018442328494
 30
0.0
 41
1.0
 10
-8739.5103923987044
 20
-449.7912911130656
 30
0.0
 41
1.0
 10
-8739.525028663511
 20
-449.80239780284626
 30
0.0
 41
1.0
 10
-8739.6367768235214
 20
-449.88719759044363
 30
0.0
 41
0.9998091630797595
 10
-8739.7451271015379
 20
-449.97629794113811
 30
0.0
 41
1.0
 10
-8739.7581328540218
 20
-449.98699304158964
 30
0.0
 41
1.0
 10
-8739.7711386065057
 20
-449.99768814204117
 30
0.0
 41
1.0
 10
-8739.90550038949
 20
-450.10817869363586
 30
0.0
 41
0.9995035112317232
 10
-8740.0326362672458
 20
-450.2269125106431
 30
0.0
 41
1.0
 10
-8740.0422835776317
 20
-450.23592225679948
 30
0.0
 41
1.0
 10
-8740.0519308880175
 20
-450.24493200295586
 30
0.0
 41
1.0
 10
-8740.1753539507881
 20
-450.36019837471906
 30
0.0
 41
0.99946304243006
 10
-8740.2909623565756
 20
-450.48330111795633
 30
0.0
 41
1.0
 10
-8740.294645195354
 20
-450.48722269747793
 30
0.0
 41
1.0
 10
-8740.2983280341341
 20
-450.49114427699953
 30
0.0
 41
1.0
 10
-8740.4065707623613
 20
-450.60640386119354
 30
0.0
 41
0.9995160693749706
 10
-8740.5074367918915
 20
-450.7281712790641
 30
0.0
 41
1.0
 10
-8740.5093705119798
 20
-450.73050570327996
 30
0.0
 41
1.0
 10
-8740.5113042320663
 20
-450.73284012749588
 30
0.0
 41
1.0
 10
-8740.6083028214289
 20
-450.8499386969425
 30
0.0
 41
0.9996561470514522
 10
-8740.69902904009
 20
-450.97196145938585
 30
0.0
 41
1.0
 10
-8740.7051867059818
 20
-450.98024324841595
 30
0.0
 41
1.0
 10
-8740.7113443718754
 20
-450.9885250374461
 30
0.0
 41
1.0
 10
-8740.7897552587528
 20
-451.09398422183205
 30
0.0
 41
0.9998349055174298
 10
-8740.8642825406878
 20
-451.20222280549842
 30
0.0
 41
1.0
 10
-8740.9388098225809
 20
-451.31046138910335
 30
0.0
 41
0.9999728109559927
 10
-8741.0117327184616
 20
-451.41978731461433
 30
0.0
 41
1.0
 10
-8741.0130479339077
 20
-451.42175908416823
 30
0.0
 41
1.0
 10
-8741.0143631493538
 20
-451.42373085372208
 30
0.0
 41
1.0
 10
-8741.0899164760449
 20
-451.53700031821825
 30
0.0
 41
0.9999972147321888
 10
-8741.1649342864766
 20
-451.65062516114426
 30
0.0
 41
1.0
 10
-8741.1699058290906
 20
-451.65815524960351
 30
0.0
 41
1.0
 10
-8741.1748773717045
 20
-451.66568533806276
 30
0.0
 41
1.0
 10
-8741.2598382673314
 20
-451.79437035785406
 30
0.0
 41
0.9999371979005962
 10
-8741.3418936167418
 20
-451.92492727164245
 30
0.0
 41
1.0
 10
-8741.3454025010979
 20
-451.93051019969693
 30
0.0
 41
1.0
 10
-8741.3489113854521
 20
-451.93609312775141
 30
0.0
 41
1.0
 10
-8741.4379845035837
 20
-452.07781589766245
 30
0.0
 41
0.9998272025609186
 10
-8741.5217278944783
 20
-452.22275177442754
 30
0.0
 41
1.0
 10
-8741.5369430664941
 20
-452.24908488887161
 30
0.0
 41
1.0
 10
-8741.5521582385118
 20
-452.27541800331574
 30
0.0
 41
1.0
 10
-8741.6663319734325
 20
-452.47302010895669
 30
0.0
 41
0.9995217214839455
 10
-8741.7680716629802
 20
-452.67730243679972
 30
0.0
 41
1.0
 10
-8741.7757152256163
 20
-452.69264988650241
 30
0.0
 41
1.0
 10
-8741.7833587882506
 20
-452.70799733620515
 30
0.0
 41
1.0
 10
-8741.8702640808478
 20
-452.88249379430414
 30
0.0
 41
0.999826976260807
 10
-8741.9506185471291
 20
-453.06010208104442
 30
0.0
 41
1.0
 10
-8742.0309730133959
 20
-453.23771036775406
 30
0.0
 41
0.9998944747390186
 10
-8742.1061338079544
 20
-453.41757809336912
 30
0.0
 41
1.0
 10
-8742.1110874775404
 20
-453.42943274827121
 30
0.0
 41
1.0
 10
-8742.1160411471246
 20
-453.44128740317325
 30
0.0
 41
1.0
 10
-8742.1966882076904
 20
-453.63428434322611
 30
0.0
 41
0.9999506734414023
 10
-8742.2734857366049
 20
-453.82884514810735
 30
0.0
 41
1.0
 10
-8742.2880857018226
 20
-453.86583306977775
 30
0.0
 41
1.0
 10
-8742.3026856670404
 20
-453.9028209914481
 30
0.0
 41
1.0
 10
-8742.350283265454
 20
-454.02340595282715
 30
0.0
 41
0.9999912393948686
 10
-8742.3968697095297
 20
-454.14438515565928
 30
0.0
 41
1.0
 10
-8742.4434561535672
 20
-454.26536435838955
 30
0.0
 41
0.9999927113949888
 10
-8742.4891174479799
 20
-454.38669576594094
 30
0.0
 41
1.0
 10
-8742.5030858793616
 20
-454.42381274789795
 30
0.0
 41
1.0
 10
-8742.5170543107433
 20
-454.46092972985491
 30
0.0
 41
1.0
 10
-8742.5906524679358
 20
-454.65649510135938
 30
0.0
 41
0.9999487550948178
 10
-8742.6602760928999
 20
-454.85351046652653
 30
0.0
 41
1.0
 10
-8742.6838697028361
 20
-454.92027377681711
 30
0.0
 41
1.0
 10
-8742.7074633127722
 20
-454.98703708710764
 30
0.0
 41
1.0
 10
-8742.8021489471485
 20
-455.25497092194757
 30
0.0
 41
0.9999808436952183
 10
-8742.8935105357905
 20
-455.52405635321213
 30
0.0
 41
1.0
 10
-8742.9848721244016
 20
-455.79314178438278
 30
0.0
 41
0.999987393289853
 10
-8743.0735268330918
 20
-456.06313113931623
 30
0.0
 41
1.0
 10
-8743.0936191899891
 20
-456.124320472156
 30
0.0
 41
1.0
 10
-8743.1137115468882
 20
-456.18550980499583
 30
0.0
 41
1.0
 10
-8743.2425509693385
 20
-456.57787782549315
 30
0.0
 41
0.9999794883036327
 10
-8743.3663537542998
 20
-456.97186403177687
 30
0.0
 41
1.0
 10
-8743.3775060138105
 20
-457.00735464225113
 30
0.0
 41
1.0
 10
-8743.388658273323
 20
-457.04284525272544
 30
0.0
 41
1.0
 10
-8743.5312164371317
 20
-457.49651800453057
 30
0.0
 41
0.9999982761852919
 10
-8743.6720888770906
 20
-457.95071702647613
 30
0.0
 41
1.0
 10
-8745.2602292096635
 20
-462.99948675747942
 30
0.0
 41
1.0
 10
-8746.8483695422365
 20
-468.04825648848271
 30
0.0
 41
1.0
 10
-8747.797120153713
 20
-468.04825648848271
 30
0.0
 41
1.0
 10
-8748.7458707651895
 20
-468.04825648848271
 30
0.0
 41
1.0
 10
-8745.5075862790363
 20
-457.72093428853657
 30
0.0
 41
1.0
 10
-8742.2693017928832
 20
-447.39361208859043
 30
0.0
 41
1.0
  0
LWPOLYLINE
  5
55
100
AcDbEntity
  8
0
370
              15
390
0
  6
Continuous
 62
               7
100
AcDbPolyline
 90
      232
 70
             128
 10
-8767.9728475667107
 20
-448.47795492010562
 42
0.0004370800610517
 10
-8768.0257247405207
 20
-448.54662155902076
 10
-8768.0650089719093
 20
-448.59772867225843
 42
0.0030481992214712
 10
-8768.1953476891067
 20
-448.76945036470829
 10
-8768.2338593607783
 20
-448.82083714839075
 42
0.0042058245749101
 10
-8768.4378444114263
 20
-449.09784289343429
 10
-8768.4902495339484
 20
-449.17027574024519
 42
0.0120948898747762
 10
-8768.786293450723
 20
-449.60102534481121
 10
-8768.8824859498309
 20
-449.74850608001441
 42
0.014160126394742
 10
-8769.186129996755
 20
-450.2441754167545
 10
-8769.2256672641779
 20
-450.31301938418244
 42
0.0071131081310101
 10
-8769.4309395874188
 20
-450.68252218302439
 42
0.0068458791015187
 10
-8769.6258191142497
 20
-451.05761374647244
 10
-8769.632630976721
 20
-451.07117546022414
 42
0.0064120880287535
 10
-8769.8307732267458
 20
-451.47859993510377
 10
-8769.8383079122814
 20
-451.49461179186426
 42
0.005885723641416
 10
-8770.0410633041301
 20
-451.93898790284533
 10
-8770.0492382304474
 20
-451.9574780565332
 42
0.0053189741909908
 10
-8770.2579425431813
 20
-452.44344153061365
 10
-8770.2666903487952
 20
-452.46442340864724
 42
0.0047503650433305
 10
-8770.4826640749707
 20
-452.9966228419176
 10
-8770.4919323232953
 20
-453.0200992179648
 42
0.0042071762170054
 10
-8770.7164797070109
 20
-453.60319281200327
 10
-8770.7262291093721
 20
-453.62915898690426
 42
0.0036680086458189
 10
-8770.9606837526389
 20
-454.26779437130801
 10
-8770.9708915325318
 20
-454.29624290577999
 42
0.0032573142618859
 10
-8771.2165238184625
 20
-454.99509556543114
 10
-8771.2851743393276
 20
-455.19455864955398
 42
0.0026133366646058
 10
-8771.6336195380973
 20
-456.22442193325821
 10
-8771.6968763255663
 20
-456.41465276855774
 42
0.0020592950730197
 10
-8771.9107393945633
 20
-457.06675642126436
 10
-8771.9137911856888
 20
-457.07619290955745
 42
0.0025609928547638
 10
-8772.1156116872135
 20
-457.71133813203994
 10
-8772.1182030543987
 20
-457.71964047316686
 42
0.0031362356256072
 10
-8772.3076938400154
 20
-458.34040332916004
 10
-8772.3098248829338
 20
-458.34754463534262
 42
0.0037229918032527
 10
-8772.4866252698703
 20
-458.95652993734529
 10
-8772.4883038590997
 20
-458.96247682759895
 42
0.0043077623702015
 10
-8772.652044661143
 20
-459.56229555928871
 42
0.0047654161835369
 10
-8772.8048733837059
 20
-460.16498164838993
 10
-8772.8393379924964
 20
-460.30654342534081
 42
0.0112969368452417
 10
-8773.0352023506475
 20
-461.19823558599296
 10
-8773.0632087397389
 20
-461.34106363206286
 42
0.0130056762563897
 10
-8773.2640459833856
 20
-462.52800470370778
 10
-8773.284585733536
 20
-462.67208281720383
 42
0.0138721532138608
 10
-8773.3882887380696
 20
-463.5789123030105
 10
-8773.407584225979
 20
-463.80241002495308
 42
0.0071254697006255
 10
-8773.4409308719005
 20
-464.2655970337828
 10
-8773.4458918460659
 20
-464.35160102837551
 42
0.0028881799188902
 10
-8773.4610301393514
 20
-464.64334273818554
 42
0.0060297297156703
 10
-8773.4709623391263
 20
-464.93529167426885
 10
-8773.4720246207944
 20
-464.98368404624665
 42
0.0229523164177089
 10
-8773.4642935930096
 20
-465.30643889251701
 10
-8773.4600678194893
 20
-465.36684242653007
 42
0.0123673300701763
 10
-8773.4409891729701
 20
-465.567963151708
 42
0.01285776745375
 10
-8773.4117937825558
 20
-465.7678610016842
 10
-8773.4046679091771
 20
-465.80918981623176
 42
0.0285717853779432
 10
-8773.3401739074834
 20
-466.08730596754327
 10
-8773.3265053838186
 20
-466.13396073701239
 42
0.0316283099152144
 10
-8773.2106948039
 20
-466.45297523884813
 10
-8773.2076461121414
 20
-466.45996161118251
 42
0.033898482424785
 10
-8773.0582144011787
 20
-466.74752757536282
 10
-8773.0559056718121
 20
-466.75131860463466
 42
0.0350228718310035
 10
-8772.873545381135
 20
-467.00837058931563
 10
-8772.8726601293565
 20
-467.00944966708488
 42
0.0347476747527701
 10
-8772.6582354421189
 20
-467.23663471429973
 42
0.0331337701891197
 10
-8772.4149921163935
 20
-467.43276337636337
 10
-8772.4138920178575
 20
-467.43353607954964
 42
0.0305233319056179
 10
-8772.1453473222791
 20
-467.59866424964332
 10
-8772.1421172777827
 20
-467.60038826150367
 42
0.0273744481184091
 10
-8771.8495635661984
 20
-467.73652640539848
 10
-8771.8444590310719
 20
-467.73856998986378
 42
0.0240964406168905
 10
-8771.5289819554164
 20
-467.84755371614773
 10
-8771.5223986262154
 20
-467.84947845582019
 42
0.02096361798384
 10
-8771.1849984735636
 20
-467.93294660375238
 10
-8771.1773660131148
 20
-467.93449851675371
 42
0.0181388704700703
 10
-8770.8190436211135
 20
-467.99391460996793
 10
-8770.8107627727368
 20
-467.99498079378475
 42
0.0156086547584395
 10
-8770.4325754085512
 20
-468.03171698036124
 10
-8770.3893801562208
 20
-468.03455548284035
 42
0.0137148328998215
 10
-8770.061707010922
 20
-468.04707573809173
 10
-8770.0157708209736
 20
-468.04757017120698
 42
0.0051057823894154
 10
-8769.7796252344051
 20
-468.04770042561609
 42
0.0052256693302243
 10
-8769.5435279506219
 20
-468.0429516011518
 10
-8769.4733011668759
 20
-468.04080463513776
 42
0.0161507179021977
 10
-8769.0975640887773
 20
-468.01715426481155
 10
-8769.077551128401
 20
-468.01524406952365
 42
0.0101216737839749
 10
-8768.6635239069037
 20
-467.96725113915699
 10
-8768.6294706174849
 20
-467.9626034423485
 42
0.0245291776410192
 10
-8768.1526809619318
 20
-467.87352836427192
 10
-8768.0678576464106
 20
-467.85333244392655
 42
0.0143509212551744
 10
-8767.7112265424694
 20
-467.75752781014762
 42
0.0156557857046418
 10
-8767.3610104777508
 20
-467.64051659433159
 10
-8767.3535092632483
 20
-467.63774643257466
 42
0.0170137333636997
 10
-8766.9969132675615
 20
-467.49208881770147
 10
-8766.9898093451593
 20
-467.48890098213985
 42
0.0183105364416624
 10
-8766.6304596770024
 20
-467.31156594032018
 10
-8766.6235129123543
 20
-467.30781550544339
 42
0.0194899958161077
 10
-8766.2650321713845
 20
-467.09583652356145
 10
-8766.2580182920337
 20
-467.09131118125765
 42
0.0204869852940406
 10
-8765.9040039899392
 20
-466.84179116617173
 10
-8765.8967383813524
 20
-466.83621110082345
 42
0.0212516938570538
 10
-8765.550748450245
 20
-466.54630710392826
 10
-8765.5042317561638
 20
-466.50383979383071
 42
0.0215248918258531
 10
-8765.2442055872816
 20
-466.24507551484066
 10
-8765.1991758528839
 20
-466.19623139347198
 42
0.0114578554980261
 10
-8765.0443836992235
 20
-466.02040846003251
 10
-8765.0331891632013
 20
-466.0070896964458
 42
0.0061531305136964
 10
-8764.9067145172412
 20
-465.85280016318143
 42
0.0006325587144323
 10
-8764.7823360331313
 20
-465.6967967875575
 10
-8764.7592958980385
 20
-465.66782326684631
 42
0.0041897761527739
 10
-8764.5908404940637
 20
-465.45230389078159
 10
-8764.5323783741733
 20
-465.37620254379931
 42
0.0092993880033543
 10
-8764.2557664469332
 20
-465.00192377989026
 10
-8764.1733719537551
 20
-464.88598677635207
 42
0.0159321727082346
 10
-8763.826765471109
 20
-464.3638125555907
 10
-8763.7824093357103
 20
-464.29213299132613
 42
0.0085547317030924
 10
-8763.5478975703936
 20
-463.89825804211603
 42
0.0084601156888738
 10
-8763.326921392958
 20
-463.49663119309463
 10
-8763.3188059191216
 20
-463.48127151081087
 42
0.0081429654289595
 10
-8763.0955566486755
 20
-463.04154999825113
 10
-8763.0866964845009
 20
-463.02337115625073
 42
0.0076574581336526
 10
-8762.8602889739377
 20
-462.54018828100698
 10
-8762.8508093332093
 20
-462.51912380269459
 42
0.0070682724207523
 10
-8762.6203644254128
 20
-461.98708649793679
 10
-8762.6103741414208
 20
-461.96309730890175
 42
0.006455951444692
 10
-8762.3750409332315
 20
-461.37678504236425
 10
-8762.3646315750739
 20
-461.34985011694062
 42
0.0058311413914468
 10
-8762.1235848383312
 20
-460.70381802260903
 10
-8762.1128297609248
 20
-460.67393368139642
 42
0.0052312425822148
 10
-8761.8652484828781
 20
-459.96273126754494
 10
-8761.8542046465045
 20
-459.92990455549216
 42
0.0046680544807426
 10
-8761.5992762187816
 20
-459.1480782397727
 10
-8761.5572840686909
 20
-459.01509500233544
 42
0.0041666856443025
 10
-8761.353998056331
 20
-458.35212622743973
 10
-8761.316335615682
 20
-458.22554511983873
 42
0.0015170975152975
 10
-8761.1951490372539
 20
-457.81367676829234
 42
-0.0004887993139031
 10
-8761.0748092643989
 20
-457.40155835716746
 10
-8760.9983320066349
 20
-457.14060097030926
 42
0.0002583378921673
 10
-8760.7251174371086
 20
-456.20654426896994
 10
-8760.6433445869061
 20
-455.92644500724265
 42
0.0006636169674662
 10
-8760.4494768269833
 20
-455.25909208396013
 10
-8760.4443801727666
 20
-455.24146050153217
 42
0.001058913131743
 10
-8760.2629314717196
 20
-454.60872915803122
 10
-8760.2579494011352
 20
-454.59121625064552
 42
0.0015655524481251
 10
-8760.0896791940577
 20
-453.99259957181027
 10
-8760.084848993607
 20
-453.97520741274514
 42
0.0021640440481487
 10
-8759.9305590216554
 20
-453.4101803948563
 10
-8759.92592480229
 20
-453.39291566510315
 42
0.00287638718431
 10
-8759.7864090841722
 20
-452.86094771401542
 10
-8759.7820232199283
 20
-452.84382373556036
 42
0.003731051198081
 10
-8759.658066528169
 20
-452.34437614183707
 10
-8759.6539913078796
 20
-452.32741587059121
 42
0.0047652197781235
 10
-8759.5463674073708
 20
-451.85993810228649
 10
-8759.542676808036
 20
-451.8431785470824
 42
0.0060276699318913
 10
-8759.4521467088944
 20
-451.40710275199228
 10
-8759.4489280185917
 20
-451.39060153761443
 42
0.007582433774153
 10
-8759.3762387091883
 20
-450.98533437325693
 10
-8759.3735933318021
 20
-450.96917942577431
 42
0.0095130624625028
 10
-8759.3194780961785
 20
-450.59409007273462
 10
-8759.3124918722897
 20
-450.53815651456813
 42
0.0121054653251215
 10
-8759.2859005417176
 20
-450.27326068614423
 10
-8759.2850340519544
 20
-450.26185724315792
 42
0.0069050827417345
 10
-8759.2699452339202
 20
-450.01891601637089
 10
-8759.2688099342486
 20
-449.9953897592689
 42
0.0169063976705879
 10
-8759.2659826552699
 20
-449.7991970320254
 10
-8759.2671533067987
 20
-449.73886127080272
 42
0.0052007732802338
 10
-8759.2694067553948
 20
-449.66326788052413
 42
0.0054038123332388
 10
-8759.2893702672482
 20
-449.54324958443277
 10
-8759.2944561231052
 20
-449.51459109793302
 42
0.0112050460450223
 10
-8759.3298404851521
 20
-449.33826465964307
 10
-8759.3476654472033
 20
-449.25872307287318
 42
0.0240764467987129
 10
-8759.4385628133514
 20
-448.92848603737229
 10
-8759.457121576168
 20
-448.8718658723709
 42
0.025681233186789
 10
-8759.6004844963536
 20
-448.50014166612084
 10
-8759.6058939221748
 20
-448.48801033113085
 42
0.0268360501222457
 10
-8759.7753211630243
 20
-448.15701719711012
 10
-8759.7808575706695
 20
-448.14749752678176
 42
0.0274670231747394
 10
-8759.9730585470734
 20
-447.85521015188056
 10
-8759.9784398470329
 20
-447.84793100434382
 42
0.0275035967083941
 10
-8760.1900127265981
 20
-447.59241511403513
 10
-8760.1950822275612
 20
-447.58693602640858
 42
0.0269557673520015
 10
-8760.4224857710033
 20
-447.36629374044242
 10
-8760.4272288287975
 20
-447.36216378597084
 42
0.0259124802215048
 10
-8760.6667836602173
 20
-447.17447325882927
 10
-8760.6713145054
 20
-447.1712877564986
 42
0.0245162153025018
 10
-8760.9192308584934
 20
-447.0145547473885
 10
-8760.9237574048129
 20
-447.01199455019059
 42
0.0229282588843621
 10
-8761.176176961646
 20
-446.88412635768873
 10
-8761.1809574554918
 20
-446.88197405792226
 42
0.0212984135685493
 10
-8761.4339954079442
 20
-446.78077514068445
 10
-8761.4392996929128
 20
-446.7789115779247
 42
0.0197555462334666
 10
-8761.6890780306367
 20
-446.70209615995964
 42
0.018351189679233
 10
-8761.9440067560972
 20
-446.6445132529945
 10
-8762.0303719528274
 20
-446.62831046260823
 42
0.0338057877114403
 10
-8762.3158793020812
 20
-446.59450205746884
 10
-8762.4068847071303
 20
-446.58992240220715
 42
0.009199052441511
 10
-8762.5127318157574
 20
-446.58654654628538
 42
0.0028333980706705
 10
-8762.6186457317581
 20
-446.58571843876859
 10
-8762.6195611847997
 20
-446.58571646894461
 42
-0.002361982773888
 10
-8762.7273071999152
 20
-446.58497562786602
 10
-8762.7637123700824
 20
-446.58455332140306
 42
0.0008824598488601
 10
-8762.9442683599209
 20
-446.58277754316492
 10
-8762.9881297923384
 20
-446.5824235816392
 42
0.0038132665801994
 10
-8763.2564126882098
 20
-446.58230464557255
 10
-8763.2729463430114
 20
-446.58242341171615
 42
0.0060665569351332
 10
-8763.5742268346075
 20
-446.58824371113707
 10
-8763.5884771666279
 20
-446.58869201910454
 42
0.0080356953368283
 10
-8763.9179358829642
 20
-446.60435974117127
 10
-8763.9300058980534
 20
-446.60512832411189
 42
0.0098996399112754
 10
-8764.2827689826991
 20
-446.63461355330969
 10
-8764.2928146920785
 20
-446.63565384950823
 42
0.0117740981395176
 10
-8764.6639715504316
 20
-446.68294609703867
 10
-8764.6721942469103
 20
-446.68419121360887
 42
0.0137435215122196
 10
-8765.0567830663895
 20
-446.7532881871694
 10
-8765.0634401055177
 20
-446.7546740834041
 42
0.0158359869369834
 10
-8765.4564371993274
 20
-446.84956617188612
 10
-8765.4618503861893
 20
-446.85105611275537
 42
0.0180554124001201
 10
-8765.8581654308036
 20
-446.97569412899503
 10
-8765.8627222188843
 20
-446.97731016526041
 42
0.0203657431285194
 10
-8766.2571997366995
 20
-447.13557050677838
 10
-8766.2613432757025
 20
-447.13743212821805
 42
0.0226819684669826
 10
-8766.6487793319156
 20
-447.33307470689351
 10
-8766.6529791229259
 20
-447.33544029880886
 42
0.0248634984590173
 10
-8767.0281610641032
 20
-447.57206694475525
 10
-8767.0763559928964
 20
-447.6059239865873
 42
0.0267044190913734
 10
-8767.3506486898077
 20
-447.82136436244991
 42
0.0139303002168448
 10
-8767.6068158557173
 20
-448.05860320333574
 10
-8767.6116692414653
 20
-448.06335586622197
 42
0.0283460963427033
 10
-8767.8557418356995
 20
-448.33108652667352
 10
-8767.8954103408505
 20
-448.37988810414015
 42
0.0070695364835798
 10
-8767.9728475667107
 20
-448.47795492010562
 42
0.0070695364835798
  0
LWPOLYLINE
  5
56
100
AcDbEntity
  8
0
370
              15
390
0
  6
Continuous
 62
               7
100
AcDbPolyline
 90
      226
 70
             128
 10
-8771.5016680039571
 20
-464.19954372628956
 42
-0.0026277636837562
 10
-8771.5017458877592
 20
-464.13277180107178
 10
-8771.5015285295249
 20
-464.07961658310342
 42
-0.0088680296696034
 10
-8771.4977519132317
 20
-463.90660080068642
 10
-8771.4954055541202
 20
-463.84732077524677
 42
-0.0077381705624599
 10
-8771.4793594433613
 20
-463.55606027952217
 10
-8771.4784915321834
 20
-463.54377204576349
 42
-0.0068872530518956
 10
-8771.4518594524343
 20
-463.22855029370845
 10
-8771.4506552282473
 20
-463.21630931467575
 42
-0.006213002152589
 10
-8771.4130615114209
 20
-462.87743962344285
 10
-8771.4115576078857
 20
-462.86526575152072
 42
-0.0056726929649104
 10
-8771.3626357483754
 20
-462.50307052935284
 10
-8771.3608623027394
 20
-462.49097672916196
 42
-0.0052341884450843
 10
-8771.3002517164732
 20
-462.10578347360399
 10
-8771.2982337277026
 20
-462.09377854365164
 42
-0.004976845015455
 10
-8771.2254950462793
 20
-461.68593397623789
 10
-8771.2012460315527
 20
-461.55738599321307
 42
-0.0089029805633031
 10
-8771.0641651797578
 20
-460.89561054578542
 10
-8771.0314198044398
 20
-460.75057911526721
 42
-0.008031825710304
 10
-8770.8018711901041
 20
-459.80486948342821
 10
-8770.7898862636521
 20
-459.7587388482234
 42
-0.0074265721312086
 10
-8770.5058747247822
 20
-458.72867426977206
 10
-8770.4859951816816
 20
-458.66054020923576
 42
-0.0069711922698621
 10
-8770.1586906031789
 20
-457.59427246892551
 10
-8770.0987386560573
 20
-457.40825111050782
 42
-0.0052070422897676
 10
-8769.8693134308141
 20
-456.72097903352358
 10
-8769.8520322386012
 20
-456.67095175278592
 42
-0.00091670044437
 10
-8769.6489403513515
 20
-456.08649590475238
 42
-0.0025162726941697
 10
-8769.4418427210785
 20
-455.50345464055567
 10
-8769.4046181092472
 20
-455.40030509458074
 42
-0.0028212681464371
 10
-8769.1564421903204
 20
-454.72457446251337
 10
-8769.1466114274936
 20
-454.69826701763105
 42
-0.0031964916813209
 10
-8768.9103191699069
 20
-454.0780622557096
 10
-8768.9006847159053
 20
-454.05325226555999
 42
-0.0036281836461872
 10
-8768.6755787548063
 20
-453.48581158467323
 10
-8768.6661403446433
 20
-453.46251415315703
 42
-0.004126916683823
 10
-8768.4515226479907
 20
-452.94507325719212
 10
-8768.4188896915584
 20
-452.86819481080528
 42
-0.0047472213083695
 10
-8768.2618448860158
 20
-452.50777334294764
 10
-8768.2549508048251
 20
-452.49235274565331
 42
-0.0025651659993069
 10
-8768.1065927709587
 20
-452.16502468986721
 42
-0.0057144635002784
 10
-8767.9528430771716
 20
-451.8402150164722
 10
-8767.9248123717753
 20
-451.78270663408864
 42
-0.0065388068346657
 10
-8767.7413453440458
 20
-451.41847413744551
 10
-8767.7328868882796
 20
-451.40221455810024
 42
-0.0074510843034875
 10
-8767.5567046423894
 20
-451.07552627695327
 10
-8767.5485249718786
 20
-451.06088549972077
 42
-0.0084648979858575
 10
-8767.3788911187585
 20
-450.7689764887233
 10
-8767.3710349922821
 20
-450.75596949709069
 42
-0.0095638542814754
 10
-8767.2071995446768
 20
-450.4960806250939
 10
-8767.1997246009814
 20
-450.48471126360249
 42
-0.0107191626788865
 10
-8767.0409230206169
 20
-450.25410002909439
 10
-8767.0339062868588
 20
-450.24436393669129
 42
-0.0118458573877559
 10
-8766.8793581883729
 20
-450.04029174141908
 42
-0.0129184518193279
 10
-8766.7149055647533
 20
-449.84413122522744
 10
-8766.6847607924192
 20
-449.81000514635889
 42
-0.0217742579632724
 10
-8766.508148470075
 20
-449.62679837609903
 10
-8766.4974029256082
 20
-449.61658154289046
 42
-0.0097266568688501
 10
-8766.3313453067567
 20
-449.46473396845875
 42
-0.0187720905705996
 10
-8766.1569977308682
 20
-449.32266511507015
 10
-8766.1262917401818
 20
-449.29950603266587
 42
-0.0179428207502188
 10
-8765.8938710201983
 20
-449.13695385556173
 10
-8765.8902186932773
 20
-449.13458992067046
 42
-0.0170047877655512
 10
-8765.6544550557519
 20
-448.99312940652248
 10
-8765.6506720669877
 20
-448.99103110147621
 42
-0.0160190788363511
 10
-8765.4137635193692
 20
-448.86937979949812
 42
-0.0151102861491065
 10
-8765.1697317369108
 20
-448.76269702343882
 10
-8765.1173452347102
 20
-448.74165689054882
 42
-0.0271945441885111
 10
-8764.7586826756578
 20
-448.61979207984376
 10
-8764.6896178751667
 20
-448.60044253857654
 42
-0.02375965940143
 10
-8764.2738210281423
 20
-448.50499182659496
 10
-8764.205758174412
 20
-448.49273713846816
 42
-0.0213715440520111
 10
-8763.9198832429665
 20
-448.45379010695831
 10
-8763.859736076749
 20
-448.44820039225738
 42
-0.0101465655817726
 10
-8763.6922435447559
 20
-448.4360568489933
 10
-8763.6829031585512
 20
-448.43556993399574
 42
-0.0100375910888887
 10
-8763.533749057995
 20
-448.43079411607084
 10
-8763.5234897883129
 20
-448.43067167705635
 42
-0.0103625633333282
 10
-8763.3947817936587
 20
-448.43180311058302
 10
-8763.3725161423899
 20
-448.43246046904801
 42
-0.0115689250162911
 10
-8763.2884654048648
 20
-448.43688997529307
 42
-0.0072438037334013
 10
-8763.2046271254458
 20
-448.44447917504021
 10
-8763.1878266159511
 20
-448.4462457177666
 42
-0.021791731307897
 10
-8763.0712568526342
 20
-448.46366561048825
 10
-8763.0056567620722
 20
-448.47641221890171
 42
-0.0332943556750065
 10
-8762.8012645970412
 20
-448.53045251020922
 10
-8762.7710920284881
 20
-448.54062058732876
 42
-0.0184824084858913
 10
-8762.6325869720276
 20
-448.59307160271419
 42
-0.019800205066306
 10
-8762.498512631515
 20
-448.65595566291933
 10
-8762.4966259941502
 20
-448.65693344979343
 42
-0.0212242342947715
 10
-8762.364487051731
 20
-448.73269618859757
 10
-8762.3626717562056
 20
-448.73384199079487
 42
-0.0226090605719348
 10
-8762.2341678549783
 20
-448.82332163436416
 10
-8762.2323234132473
 20
-448.82473388734684
 42
-0.0238457052257935
 10
-8762.1091413319609
 20
-448.92872978320253
 10
-8762.1071886033951
 20
-448.93054466097533
 42
-0.0248160564142371
 10
-8761.9909870960964
 20
-449.04981926218039
 10
-8761.9888834626909
 20
-449.0522045958885
 42
-0.0254109591460438
 10
-8761.8812782448222
 20
-449.18749298185656
 10
-8761.8790302229118
 20
-449.19063453025342
 42
-0.0255528488218132
 10
-8761.7815835441033
 20
-449.34266158450487
 10
-8761.7792524441975
 20
-449.3467431960953
 42
-0.0252146793122997
 10
-8761.6934714181752
 20
-449.51624544211916
 10
-8761.6911691790301
 20
-449.52142752400516
 42
-0.0244265635947857
 10
-8761.6185144852698
 20
-449.70917409605414
 10
-8761.6092680838065
 20
-449.73703951437778
 42
-0.0231319612995473
 10
-8761.5633453048104
 20
-449.90034056119123
 42
-0.0112130424369613
 10
-8761.5287092822673
 20
-450.066544161406
 10
-8761.5275067571602
 20
-450.0730407482672
 42
-0.0210527881188932
 10
-8761.5018202817846
 20
-450.25409639373572
 10
-8761.4983096869655
 20
-450.2895019422557
 42
-0.0190029892392001
 10
-8761.4828682134212
 20
-450.54303778856581
 10
-8761.4820582369775
 20
-450.57851340289699
 42
-0.0137974553659399
 10
-8761.4836070898145
 20
-450.90354480965703
 10
-8761.4844525447734
 20
-450.92966355435777
 42
-0.0081336634170358
 10
-8761.4993118799921
 20
-451.23501102182252
 42
-0.0073526923554384
 10
-8761.5236204133707
 20
-451.5397592661547
 10
-8761.5248818371492
 20
-451.55309594077369
 42
-0.0066886138732762
 10
-8761.5606174231816
 20
-451.88368198414815
 10
-8761.5622745126657
 20
-451.89730360326234
 42
-0.0061359187351773
 10
-8761.6101251147174
 20
-452.25406758336743
 10
-8761.6121626157892
 20
-452.26796238619158
 42
-0.005669861005881
 10
-8761.6728129465482
 20
-452.65124095499374
 10
-8761.6752183798781
 20
-452.66540007426033
 42
-0.0052721077252066
 10
-8761.749350580696
 20
-453.07552741402731
 10
-8761.7521137295207
 20
-453.08994404932423
 42
-0.004928927216531
 10
-8761.840407847636
 20
-453.5272525605202
 10
-8761.8435203423032
 20
-453.54192141326246
 42
-0.0047415956715874
 10
-8761.9467583338101
 20
-454.00671817056917
 10
-8761.9815265441939
 20
-454.15652526605629
 42
-0.0084404470903346
 10
-8762.1715429877549
 20
-454.91674929054551
 10
-8762.1776696757515
 20
-454.93961341474085
 42
-0.0039635940251847
 10
-8762.3991233600609
 20
-455.74060227906921
 10
-8762.4125001552165
 20
-455.78753389558005
 42
-0.0072475040836897
 10
-8762.6799470430797
 20
-456.67675361196996
 10
-8762.7501593699162
 20
-456.89849396196729
 42
-0.0051345458831019
 10
-8763.0369187419656
 20
-457.77281914975345
 10
-8763.0584450087808
 20
-457.83624541702318
 42
-0.0019150016598156
 10
-8763.3139784155992
 20
-458.57979453710948
 10
-8763.3204460199995
 20
-458.59838200204013
 42
-0.0021524362762262
 10
-8763.5689240710599
 20
-459.30270782373896
 10
-8763.5781344917341
 20
-459.32846140197768
 42
-0.0024331286828884
 10
-8763.8143897507907
 20
-459.97906071015859
 10
-8763.8234377034769
 20
-460.00360401687976
 42
-0.0027449721766634
 10
-8764.0480522741782
 20
-460.60273389543738
 10
-8764.0569422815443
 20
-460.62605648522094
 42
-0.0031083229771526
 10
-8764.2704847681816
 20
-461.17598052286928
 10
-8764.2792208998781
 20
-461.19807023877814
 42
-0.0035311343282699
 10
-8764.4822620854466
 20
-461.70105336445715
 10
-8764.4908474246113
 20
-461.72189608800676
 42
-0.0040245640968551
 10
-8764.6839592283904
 20
-462.18020541055989
 10
-8764.6923953419846
 20
-462.19978477860968
 42
-0.0046015135857932
 10
-8764.8761516351569
 20
-462.61568980827417
 10
-8764.884437812987
 20
-462.63398694772962
 42
-0.005276863825314
 10
-8765.0594153319398
 20
-463.00975983199658
 10
-8765.0675475426124
 20
-463.02675317063682
 42
-0.0060672675580767
 10
-8765.2343271553327
 20
-463.364668793654
 10
-8765.2422966358536
 20
-463.38033405272932
 42
-0.0069904648828326
 10
-8765.4014650298159
 20
-463.68266985931496
 10
-8765.4092564294242
 20
-463.6969804085391
 42
-0.0080637022742091
 10
-8765.5614082897737
 20
-463.96601571169538
 10
-8765.5689973223925
 20
-463.97894357727387
 42
-0.0093006455687246
 10
-8765.7147379989365
 20
-464.21695797579923
 10
-8765.7220886656705
 20
-464.22847594495738
 42
-0.0107060778055861
 10
-8765.8620372091173
 20
-464.43774626235142
 10
-8765.8690989774223
 20
-464.44783180495398
 42
-0.0122723111391155
 10
-8766.0038926955967
 20
-464.63062513440627
 10
-8766.0042189191427
 20
-464.63104552220454
 42
-0.0141836319678078
 10
-8766.1478005221252
 20
-464.80561528004546
 10
-8766.1547482777896
 20
-464.81359028032352
 42
-0.0175957477183724
 10
-8766.29465444581
 20
-464.96321116871502
 42
-0.0080466359690335
 10
-8766.4421182108235
 20
-465.10553369684919
 10
-8766.4881527553589
 20
-465.14855413495741
 42
-0.0269600260404547
 10
-8766.7414330013271
 20
-465.36087739345669
 10
-8766.808000137642
 20
-465.41082880809387
 42
-0.0178362839776558
 10
-8767.0479446272948
 20
-465.57784673434287
 10
-8767.055189598299
 20
-465.58251524655077
 42
-0.0174650732612761
 10
-8767.2915257957357
 20
-465.72337621150689
 42
-0.0169240130179349
 10
-8767.5369920415887
 20
-465.84766847128225
 10
-8767.5829781971515
 20
-465.86903042685151
 42
-0.0318883036850636
 10
-8767.9333290527611
 20
-466.00536873635906
 10
-8768.0016945879324
 20
-466.02706935683614
 42
-0.0284435909900021
 10
-8768.3777447142274
 20
-466.12328679231177
 10
-8768.4129028747266
 20
-466.13018038814033
 42
-0.0243909341029627
 10
-8768.726346335643
 20
-466.17590141917037
 10
-8768.7766270624124
 20
-466.18074696607192
 42
-0.0196639292897988
 10
-8768.9922226399431
 20
-466.19299525158556
 10
-8769.0440467111057
 20
-466.19389851232228
 42
-0.0100501510631501
 10
-8769.1564699927694
 20
-466.19359811396919
 10
-8769.188129854092
 20
-466.19287704208438
 42
-0.0019752031254444
 10
-8769.2372221907972
 20
-466.19156488187423
 10
-8769.2399824940185
 20
-466.19148019004791
 42
0.0065378752037325
 10
-8769.2835590687719
 20
-466.19071329883297
 42
-0.0167974694669943
 10
-8769.3270898917035
 20
-466.18905340030688
 10
-8769.3311692309653
 20
-466.18876038941198
 42
-0.0081283276307275
 10
-8769.3827290287027
 20
-466.18421339577418
 10
-8769.3944686025825
 20
-466.18298547819575
 42
-0.0126703440347631
 10
-8769.4691868983737
 20
-466.17325068712466
 10
-8769.4919747660533
 20
-466.169692431209
 42
-0.0117852088533525
 10
-8769.6115137518736
 20
-466.14812943605449
 10
-8769.6668942036486
 20
-466.1367858958173
 42
-0.0251774592288387
 10
-8769.8937382426539
 20
-466.0782878863854
 10
-8769.9384574325122
 20
-466.0643210670475
 42
-0.0146525199905881
 10
-8770.1248504200466
 20
-466.00005453985091
 42
-0.0166929435923181
 10
-8770.3068280761618
 20
-465.92424740680127
 10
-8770.3114847074467
 20
-465.92212250618229
 42
-0.0191684358396324
 10
-8770.4966683387138
 20
-465.82888642238328
 10
-8770.5000009244541
 20
-465.82704517483899
 42
-0.02211817818301
 10
-8770.6833112283548
 20
-465.71491167646764
 10
-8770.685661032363
 20
-465.71332737847717
 42
-0.0254984685419132
 10
-8770.8619511827419
 20
-465.58091622851401
 10
-8770.8844333304314
 20
-465.5621639195881
 42
-0.0292492648818164
 10
-8771.0092022692952
 20
-465.44507111992823
 42
-0.0159048957451552
 10
-8771.1230422667559
 20
-465.3170511283144
 10
-8771.1243610573238
 20
-465.31546951530913
 42
-0.0343813379638096
 10
-8771.2269983189399
 20
-465.17359818955401
 10
-8771.2584898503028
 20
-465.12309479745642
 42
-0.0369117275776099
 10
-8771.3443823522084
 20
-464.95961755649716
 42
-0.0191751379937081
 10
-8771.4115757377567
 20
-464.7872129505144
 10
-8771.4133390615243
 20
-464.78211960581632
 42
-0.0378178042163251
 10
-8771.4631337803112
 20
-464.59317882972425
 10
-8771.4691290760384
 20
-464.56061821154503
 42
-0.018484604644537
 10
-8771.4898462753335
 20
-464.41886539099312
 42
-0.0179866351164872
 10
-8771.5001792804087
 20
-464.27597457788204
 10
-8771.5002357228532
 20
-464.27441689129944
 42
-0.0085497186018645
 10
-8771.5016680039571
 20
-464.19954372628956
 42
-0.0085497186018645
  0
ENDBLK
  5
57
100
AcDbEntity
  8
template
390
0
100
AcDbBlockEnd
  0
BLOCK
  5
58
100
AcDbEntity
  8
notes
390
0
100
AcDbBlockBegin
  2
*D3
 70
               1
 10
0.0
 20
0.0
 30
0.0
  3
*D3
  1

  0
LINE
  5
59
100
AcDbEntity
  8
0
370
              -2
390
0
  6
Continuous
 62
               0
100
AcDbLine
 10
-93.551131375001205
 20
-472.52545407142117
 30
0.0
 11
-18.551131375001205
 21
-472.52545407142117
 31
0.0
  0
LINE
  5
5A
100
AcDbEntity
  8
0
370
              -2
390
0
  6
Continuous
 62
               0
100
AcDbLine
 10
-223.55821073723746
 20
-612.52545407142134
 30
0.0
 11
-18.551131375001205
 21
-612.52545407142134
 31
0.0
  0
LINE
  5
5B
100
AcDbEntity
  8
0
370
              -2
390
0
  6
Continuous
 62
               0
100
AcDbLine
 10
-18.551131375001205
 20
-472.52545407142117
 30
0.0
 11
-18.551131375001205
 21
-612.52545407142134
 31
0.0
  0
CIRCLE
  5
5C
102
{ACAD_REACTORS
330
5D
102
}
100
AcDbEntity
  8
0
370
              -2
390
0
  6
Continuous
 62
               0
100
AcDbCircle
 10
-18.551131375001205
 20
-472.52545407142117
 30
0.0
 40
4.99969482421875
  0
HATCH
  5
5D
100
AcDbEntity
  8
0
370
              -2
390
0
  6
Continuous
 62
               0
100
AcDbHatch
 10
0.0
 20
0.0
 30
0.0
210
0.0
220
0.0
230
1.0
  2
SOLID
 70
               1
 71
               1
 91
        1
 92
        1
 93
        1
 72
               2
 10
-18.551131375001205
 20
-472.52545407142117
 40
4.99969482421875
 50
0.0
 51
360.0
 73
               0
 97
        1
330
5C
 75
               0
 76
               1
 98
        1
 10
0.0
 20
0.0
  0
CIRCLE
  5
5E
102
{ACAD_REACTORS
330
5F
102
}
100
AcDbEntity
  8
0
370
              -2
390
0
  6
Continuous
 62
               0
100
AcDbCircle
 10
-18.551131375001205
 20
-612.52545407142134
 30
0.0
 40
4.99969482421875
  0
HATCH
  5
5F
100
AcDbEntity
  8
0
370
              -2
390
0
  6
Continuous
 62
               0
100
AcDbHatch
 10
0.0
 20
0.0
 30
0.0
210
0.0
220
0.0
230
1.0
  2
SOLID
 70
               1
 71
               1
 91
        1
 92
        1
 93
        1
 72
               2
 10
-18.551131375001205
 20
-612.52545407142134
 40
4.99969482421875
 50
0.0
 51
360.0
 73
               0
 97
        1
330
5E
 75
               0
 76
               1
 98
        1
 10
0.0
 20
0.0
  0
MTEXT
  5
60
100
AcDbEntity
  8
0
390
0
 62
               0
100
AcDbMText
 10
-52.428748562500914
 20
-566.33795575359682
 30
0.0
 40
24.432617187500004
 41
0.0
 71
               1
 72
               1
  1
140
  7
ＭＳ ゴシック
 11
0.0
 21
1.0
 31
0.0
 73
               1
 44
0.7828267384257843
  0
POINT
  5
61
100
AcDbEntity
  8
Defpoints
370
               0
390
0
 62
               0
100
AcDbPoint
 10
-248.55821073723746
 20
-612.52545407142134
 30
0.0
  0
POINT
  5
62
100
AcDbEntity
  8
Defpoints
370
               0
390
0
 62
               0
100
AcDbPoint
 10
-118.55113137500121
 20
-472.52545407142117
 30
0.0
  0
POINT
  5
63
100
AcDbEntity
  8
Defpoints
370
               0
390
0
 62
               0
100
AcDbPoint
 10
-18.551131375001205
 20
-472.52545407142117
 30
0.0
  0
ENDBLK
  5
64
100
AcDbEntity
  8
notes
390
0
100
AcDbBlockEnd
  0
BLOCK
  5
65
100
AcDbEntity
  8
notes
390
0
100
AcDbBlockBegin
  2
*D4
 70
               1
 10
0.0
 20
0.0
 30
0.0
  3
*D4
  1

  0
LINE
  5
66
100
AcDbEntity
  8
0
370
              -2
390
0
  6
Continuous
 62
               0
100
AcDbLine
 10
-618.55113137500121
 20
816.31165354085317
 30
0.0
 11
-618.55113137500121
 21
894.16879639799629
 31
0.0
  0
LINE
  5
67
100
AcDbEntity
  8
0
370
              -2
390
0
  6
Continuous
 62
               0
100
AcDbLine
 10
-118.53303613690514
 20
816.31165354085408
 30
0.0
 11
-118.53303613690514
 21
894.16879639799629
 31
0.0
  0
LINE
  5
68
100
AcDbEntity
  8
0
370
              -2
390
0
  6
Continuous
 62
               0
100
AcDbLine
 10
-618.55113137500121
 20
894.16879639799629
 30
0.0
 11
-118.53303613690514
 21
894.16879639799629
 31
0.0
  0
CIRCLE
  5
69
102
{ACAD_REACTORS
330
6A
102
}
100
AcDbEntity
  8
0
370
              -2
390
0
  6
Continuous
 62
               0
100
AcDbCircle
 10
-618.55113137500121
 20
894.16879639799629
 30
0.0
 40
4.99969482421875
  0
HATCH
  5
6A
100
AcDbEntity
  8
0
370
              -2
390
0
  6
Continuous
 62
               0
100
AcDbHatch
 10
0.0
 20
0.0
 30
0.0
210
0.0
220
0.0
230
1.0
  2
SOLID
 70
               1
 71
               1
 91
        1
 92
        1
 93
        1
 72
               2
 10
-618.55113137500121
 20
894.16879639799629
 40
4.99969482421875
 50
0.0
 51
360.0
 73
               0
 97
        1
330
69
 75
               0
 76
               1
 98
        1
 10
0.0
 20
0.0
  0
CIRCLE
  5
6B
102
{ACAD_REACTORS
330
6C
102
}
100
AcDbEntity
  8
0
370
              -2
390
0
  6
Continuous
 62
               0
100
AcDbCircle
 10
-118.53303613690514
 20
894.16879639799629
 30
0.0
 40
4.99969482421875
  0
HATCH
  5
6C
100
AcDbEntity
  8
0
370
              -2
390
0
  6
Continuous
 62
               0
100
AcDbHatch
 10
0.0
 20
0.0
 30
0.0
210
0.0
220
0.0
230
1.0
  2
SOLID
 70
               1
 71
               1
 91
        1
 92
        1
 93
        1
 72
               2
 10
-118.53303613690514
 20
894.16879639799629
 40
4.99969482421875
 50
0.0
 51
360.0
 73
               0
 97
        1
330
6B
 75
               0
 76
               1
 98
        1
 10
0.0
 20
0.0
  0
MTEXT
  5
6D
100
AcDbEntity
  8
0
390
0
 62
               0
100
AcDbMText
 10
-392.35458543813002
 20
928.04641358549623
 30
0.0
 40
24.432617187500004
 41
0.0
 71
               1
 72
               1
  1
500
  7
ＭＳ ゴシック
 73
               1
 44
0.7828267384257843
  0
POINT
  5
6E
100
AcDbEntity
  8
Defpoints
370
               0
390
0
 62
               0
100
AcDbPoint
 10
-118.53303613690514
 20
791.31165354085408
 30
0.0
  0
POINT
  5
6F
100
AcDbEntity
  8
Defpoints
370
               0
390
0
 62
               0
100
AcDbPoint
 10
-618.55113137500121
 20
791.31165354085317
 30
0.0
  0
POINT
  5
70
100
AcDbEntity
  8
Defpoints
370
               0
390
0
 62
               0
100
AcDbPoint
 10
-618.55113137500121
 20
894.16879639799629
 30
0.0
  0
ENDBLK
  5
71
100
AcDbEntity
  8
notes
390
0
100
AcDbBlockEnd
  0
BLOCK
  5
72
100
AcDbEntity
  8
notes
390
0
100
AcDbBlockBegin
  2
*D5
 70
               1
 10
0.0
 20
0.0
 30
0.0
  3
*D5
  1

  0
LINE
  5
73
100
AcDbEntity
  8
0
370
              -2
390
0
  6
Continuous
 62
               0
100
AcDbLine
 10
-96.390178994048256
 20
794.1687963979972
 30
0.0
 11
-18.551131375001205
 21
794.1687963979972
 31
0.0
  0
LINE
  5
74
100
AcDbEntity
  8
0
370
              -2
390
0
  6
Continuous
 62
               0
100
AcDbLine
 10
-98.533036136908777
 20
394.16879639799583
 30
0.0
 11
-18.551131375001205
 21
394.16879639799583
 31
0.0
  0
LINE
  5
75
100
AcDbEntity
  8
0
370
              -2
390
0
  6
Continuous
 62
               0
100
AcDbLine
 10
-18.551131375001205
 20
794.1687963979972
 30
0.0
 11
-18.551131375001205
 21
394.16879639799583
 31
0.0
  0
CIRCLE
  5
76
102
{ACAD_REACTORS
330
77
102
}
100
AcDbEntity
  8
0
370
              -2
390
0
  6
Continuous
 62
               0
100
AcDbCircle
 10
-18.551131375001205
 20
794.1687963979972
 30
0.0
 40
4.99969482421875
  0
HATCH
  5
77
100
AcDbEntity
  8
0
370
              -2
390
0
  6
Continuous
 62
               0
100
AcDbHatch
 10
0.0
 20
0.0
 30
0.0
210
0.0
220
0.0
230
1.0
  2
SOLID
 70
               1
 71
               1
 91
        1
 92
        1
 93
        1
 72
               2
 10
-18.551131375001205
 20
794.1687963979972
 40
4.99969482421875
 50
0.0
 51
360.0
 73
               0
 97
        1
330
76
 75
               0
 76
               1
 98
        1
 10
0.0
 20
0.0
  0
CIRCLE
  5
78
102
{ACAD_REACTORS
330
79
102
}
100
AcDbEntity
  8
0
370
              -2
390
0
  6
Continuous
 62
               0
100
AcDbCircle
 10
-18.551131375001205
 20
394.16879639799583
 30
0.0
 40
4.99969482421875
  0
HATCH
  5
79
100
AcDbEntity
  8
0
370
              -2
390
0
  6
Continuous
 62
               0
100
AcDbHatch
 10
0.0
 20
0.0
 30
0.0
210
0.0
220
0.0
230
1.0
  2
SOLID
 70
               1
 71
               1
 91
        1
 92
        1
 93
        1
 72
               2
 10
-18.551131375001205
 20
394.16879639799583
 40
4.99969482421875
 50
0.0
 51
360.0
 73
               0
 97
        1
330
78
 75
               0
 76
               1
 98
        1
 10
0.0
 20
0.0
  0
MTEXT
  5
7A
100
AcDbEntity
  8
0
390
0
 62
               0
100
AcDbMText
 10
-52.428748562500914
 20
570.35629471582104
 30
0.0
 40
24.432617187500004
 41
0.0
 71
               1
 72
               1
  1
400
  7
ＭＳ ゴシック
 11
0.0
 21
1.0
 31
0.0
 73
               1
 44
0.7828267384257843
  0
POINT
  5
7B
100
AcDbEntity
  8
Defpoints
370
               0
390
0
 62
               0
100
AcDbPoint
 10
-123.53303613690878
 20
394.16879639799583
 30
0.0
  0
POINT
  5
7C
100
AcDbEntity
  8
Defpoints
370
               0
390
0
 62
               0
100
AcDbPoint
 10
-121.39017899404826
 20
794.1687963979972
 30
0.0
  0
POINT
  5
7D
100
AcDbEntity
  8
Defpoints
370
               0
390
0
 62
               0
100
AcDbPoint
 10
-18.551131375001205
 20
794.1687963979972
 30
0.0
  0
ENDBLK
  5
7E
100
AcDbEntity
  8
notes
390
0
100
AcDbBlockEnd
  0
BLOCK
  5
7F
100
AcDbEntity
  8
notes
390
0
100
AcDbBlockBegin
  2
*D6
 70
               1
 10
0.0
 20
0.0
 30
0.0
  3
*D6
  1

  0
LINE
  5
80
100
AcDbEntity
  8
0
370
              -2
390
0
  6
Continuous
 62
               0
100
AcDbLine
 10
-568.5345928839215
 20
369.16879639799583
 30
0.0
 11
-568.5345928839215
 21
294.16879639799583
 31
0.0
  0
LINE
  5
81
100
AcDbEntity
  8
0
370
              -2
390
0
  6
Continuous
 62
               0
100
AcDbLine
 10
-168.5495746279812
 20
369.16879639799583
 30
0.0
 11
-168.5495746279812
 21
294.16879639799583
 31
0.0
  0
LINE
  5
82
100
AcDbEntity
  8
0
370
              -2
390
0
  6
Continuous
 62
               0
100
AcDbLine
 10
-568.5345928839215
 20
294.16879639799583
 30
0.0
 11
-168.5495746279812
 21
294.16879639799583
 31
0.0
  0
CIRCLE
  5
83
102
{ACAD_REACTORS
330
84
102
}
100
AcDbEntity
  8
0
370
              -2
390
0
  6
Continuous
 62
               0
100
AcDbCircle
 10
-568.5345928839215
 20
294.16879639799583
 30
0.0
 40
4.99969482421875
  0
HATCH
  5
84
100
AcDbEntity
  8
0
370
              -2
390
0
  6
Continuous
 62
               0
100
AcDbHatch
 10
0.0
 20
0.0
 30
0.0
210
0.0
220
0.0
230
1.0
  2
SOLID
 70
               1
 71
               1
 91
        1
 92
        1
 93
        1
 72
               2
 10
-568.5345928839215
 20
294.16879639799583
 40
4.99969482421875
 50
0.0
 51
360.0
 73
               0
 97
        1
330
83
 75
               0
 76
               1
 98
        1
 10
0.0
 20
0.0
  0
CIRCLE
  5
85
102
{ACAD_REACTORS
330
86
102
}
100
AcDbEntity
  8
0
370
              -2
390
0
  6
Continuous
 62
               0
100
AcDbCircle
 10
-168.5495746279812
 20
294.16879639799583
 30
0.0
 40
4.99969482421875
  0
HATCH
  5
86
100
AcDbEntity
  8
0
370
              -2
390
0
  6
Continuous
 62
               0
100
AcDbHatch
 10
0.0
 20
0.0
 30
0.0
210
0.0
220
0.0
230
1.0
  2
SOLID
 70
               1
 71
               1
 91
        1
 92
        1
 93
        1
 72
               2
 10
-168.5495746279812
 20
294.16879639799583
 40
4.99969482421875
 50
0.0
 51
360.0
 73
               0
 97
        1
330
85
 75
               0
 76
               1
 98
        1
 10
0.0
 20
0.0
  0
MTEXT
  5
87
100
AcDbEntity
  8
0
390
0
 62
               0
100
AcDbMText
 10
-392.35458543812638
 20
328.04641358549577
 30
0.0
 40
24.432617187500004
 41
0.0
 71
               1
 72
               1
  1
400
  7
ＭＳ ゴシック
 73
               1
 44
0.7828267384257843
  0
POINT
  5
88
100
AcDbEntity
  8
Defpoints
370
               0
390
0
 62
               0
100
AcDbPoint
 10
-168.5495746279812
 20
394.16879639799583
 30
0.0
  0
POINT
  5
89
100
AcDbEntity
  8
Defpoints
370
               0
390
0
 62
               0
100
AcDbPoint
 10
-568.5345928839215
 20
394.16879639799583
 30
0.0
  0
POINT
  5
8A
100
AcDbEntity
  8
Defpoints
370
               0
390
0
 62
               0
100
AcDbPoint
 10
-568.5345928839215
 20
294.16879639799583
 30
0.0
  0
ENDBLK
  5
8B
100
AcDbEntity
  8
notes
390
0
100
AcDbBlockEnd
  0
BLOCK
  5
8C
100
AcDbEntity
  8
notes
390
0
100
AcDbBlockBegin
  2
*D7
 70
               1
 10
0.0
 20
0.0
 30
0.0
  3
*D7
  1

  0
LINE
  5
8D
100
AcDbEntity
  8
0
370
              -2
390
0
  6
Continuous
 62
               0
100
AcDbLine
 10
-640.69398851785809
 20
794.16879639799583
 30
0.0
 11
-718.55113137500121
 21
794.16879639799583
 31
0.0
  0
LINE
  5
8E
100
AcDbEntity
  8
0
370
              -2
390
0
  6
Continuous
 62
               0
100
AcDbLine
 10
-640.69398851785809
 20
669.16879639799629
 30
0.0
 11
-718.55113137500121
 21
669.16879639799629
 31
0.0
  0
LINE
  5
8F
100
AcDbEntity
  8
0
370
              -2
390
0
  6
Continuous
 62
               0
100
AcDbLine
 10
-718.55113137500121
 20
794.16879639799583
 30
0.0
 11
-718.55113137500121
 21
669.16879639799629
 31
0.0
  0
CIRCLE
  5
90
102
{ACAD_REACTORS
330
91
102
}
100
AcDbEntity
  8
0
370
              -2
390
0
  6
Continuous
 62
               0
100
AcDbCircle
 10
-718.55113137500121
 20
794.16879639799583
 30
0.0
 40
4.99969482421875
  0
HATCH
  5
91
100
AcDbEntity
  8
0
370
              -2
390
0
  6
Continuous
 62
               0
100
AcDbHatch
 10
0.0
 20
0.0
 30
0.0
210
0.0
220
0.0
230
1.0
  2
SOLID
 70
               1
 71
               1
 91
        1
 92
        1
 93
        1
 72
               2
 10
-718.55113137500121
 20
794.16879639799583
 40
4.99969482421875
 50
0.0
 51
360.0
 73
               0
 97
        1
330
90
 75
               0
 76
               1
 98
        1
 10
0.0
 20
0.0
  0
CIRCLE
  5
92
102
{ACAD_REACTORS
330
93
102
}
100
AcDbEntity
  8
0
370
              -2
390
0
  6
Continuous
 62
               0
100
AcDbCircle
 10
-718.55113137500121
 20
669.16879639799629
 30
0.0
 40
4.99969482421875
  0
HATCH
  5
93
100
AcDbEntity
  8
0
370
              -2
390
0
  6
Continuous
 62
               0
100
AcDbHatch
 10
0.0
 20
0.0
 30
0.0
210
0.0
220
0.0
230
1.0
  2
SOLID
 70
               1
 71
               1
 91
        1
 92
        1
 93
        1
 72
               2
 10
-718.55113137500121
 20
669.16879639799629
 40
4.99969482421875
 50
0.0
 51
360.0
 73
               0
 97
        1
330
92
 75
               0
 76
               1
 98
        1
 10
0.0
 20
0.0
  0
MTEXT
  5
94
100
AcDbEntity
  8
0
390
0
 62
               0
100
AcDbMText
 10
-752.42874856250091
 20
707.85629471582058
 30
0.0
 40
24.432617187500004
 41
0.0
 71
               1
 72
               1
  1
125
  7
ＭＳ ゴシック
 11
0.0
 21
1.0
 31
0.0
 73
               1
 44
0.7828267384257843
  0
POINT
  5
95
100
AcDbEntity
  8
Defpoints
370
               0
390
0
 62
               0
100
AcDbPoint
 10
-615.69398851785809
 20
669.16879639799629
 30
0.0
  0
POINT
  5
96
100
AcDbEntity
  8
Defpoints
370
               0
390
0
 62
               0
100
AcDbPoint
 10
-615.69398851785809
 20
794.16879639799583
 30
0.0
  0
POINT
  5
97
100
AcDbEntity
  8
Defpoints
370
               0
390
0
 62
               0
100
AcDbPoint
 10
-718.55113137500121
 20
794.16879639799583
 30
0.0
  0
ENDBLK
  5
98
100
AcDbEntity
  8
notes
390
0
100
AcDbBlockEnd
  0
BLOCK
  5
99
100
AcDbEntity
  8
notes
390
0
100
AcDbBlockBegin
  2
*D8
 70
               1
 10
0.0
 20
0.0
 30
0.0
  3
*D8
  1

  0
LINE
  5
9A
100
AcDbEntity
  8
0
370
              -2
390
0
  6
Continuous
 62
               0
100
AcDbLine
 10
-643.55113137500121
 20
669.16879639799629
 30
0.0
 11
-718.55113137500121
 21
669.16879639799629
 31
0.0
  0
LINE
  5
9B
100
AcDbEntity
  8
0
370
              -2
390
0
  6
Continuous
 62
               0
100
AcDbLine
 10
-643.55113137500121
 20
419.16879639799629
 30
0.0
 11
-718.55113137500121
 21
419.16879639799629
 31
0.0
  0
LINE
  5
9C
100
AcDbEntity
  8
0
370
              -2
390
0
  6
Continuous
 62
               0
100
AcDbLine
 10
-718.55113137500121
 20
669.16879639799629
 30
0.0
 11
-718.55113137500121
 21
419.16879639799629
 31
0.0
  0
CIRCLE
  5
9D
102
{ACAD_REACTORS
330
9E
102
}
100
AcDbEntity
  8
0
370
              -2
390
0
  6
Continuous
 62
               0
100
AcDbCircle
 10
-718.55113137500121
 20
669.16879639799629
 30
0.0
 40
4.99969482421875
  0
HATCH
  5
9E
100
AcDbEntity
  8
0
370
              -2
390
0
  6
Continuous
 62
               0
100
AcDbHatch
 10
0.0
 20
0.0
 30
0.0
210
0.0
220
0.0
230
1.0
  2
SOLID
 70
               1
 71
               1
 91
        1
 92
        1
 93
        1
 72
               2
 10
-718.55113137500121
 20
669.16879639799629
 40
4.99969482421875
 50
0.0
 51
360.0
 73
               0
 97
        1
330
9D
 75
               0
 76
               1
 98
        1
 10
0.0
 20
0.0
  0
CIRCLE
  5
9F
102
{ACAD_REACTORS
330
A0
102
}
100
AcDbEntity
  8
0
370
              -2
390
0
  6
Continuous
 62
               0
100
AcDbCircle
 10
-718.55113137500121
 20
419.16879639799629
 30
0.0
 40
4.99969482421875
  0
HATCH
  5
A0
100
AcDbEntity
  8
0
370
              -2
390
0
  6
Continuous
 62
               0
100
AcDbHatch
 10
0.0
 20
0.0
 30
0.0
210
0.0
220
0.0
230
1.0
  2
SOLID
 70
               1
 71
               1
 91
        1
 92
        1
 93
        1
 72
               2
 10
-718.55113137500121
 20
419.16879639799629
 40
4.99969482421875
 50
0.0
 51
360.0
 73
               0
 97
        1
330
9F
 75
               0
 76
               1
 98
        1
 10
0.0
 20
0.0
  0
MTEXT
  5
A1
100
AcDbEntity
  8
0
390
0
 62
               0
100
AcDbMText
 10
-752.42874856250091
 20
520.35629471582081
 30
0.0
 40
24.432617187500004
 41
0.0
 71
               1
 72
               1
  1
250
  7
ＭＳ ゴシック
 11
0.0
 21
1.0
 31
0.0
 73
               1
 44
0.7828267384257843
  0
POINT
  5
A2
100
AcDbEntity
  8
Defpoints
370
               0
390
0
 62
               0
100
AcDbPoint
 10
-618.55113137500121
 20
419.16879639799629
 30
0.0
  0
POINT
  5
A3
100
AcDbEntity
  8
Defpoints
370
               0
390
0
 62
               0
100
AcDbPoint
 10
-618.55113137500121
 20
669.16879639799629
 30
0.0
  0
POINT
  5
A4
100
AcDbEntity
  8
Defpoints
370
               0
390
0
 62
               0
100
AcDbPoint
 10
-718.55113137500121
 20
669.16879639799629
 30
0.0
  0
ENDBLK
  5
A5
100
AcDbEntity
  8
notes
390
0
100
AcDbBlockEnd
  0
BLOCK
  5
A6
100
AcDbEntity
  8
notes
390
0
100
AcDbBlockBegin
  2
*D9
 70
               1
 10
0.0
 20
0.0
 30
0.0
  3
*D9
  1

  0
LINE
  5
A7
100
AcDbEntity
  8
0
370
              -2
390
0
  6
Continuous
 62
               0
100
AcDbLine
 10
-508.53303613690696
 20
-417.49663374959226
 30
0.0
 11
-508.53303613690696
 21
-322.52545407142122
 31
0.0
  0
LINE
  5
A8
100
AcDbEntity
  8
0
370
              -2
390
0
  6
Continuous
 62
               0
100
AcDbLine
 10
-228.53303613690696
 20
-417.49663374959226
 30
0.0
 11
-228.53303613690696
 21
-322.52545407142122
 31
0.0
  0
LINE
  5
A9
100
AcDbEntity
  8
0
370
              -2
390
0
  6
Continuous
 62
               0
100
AcDbLine
 10
-508.53303613690696
 20
-322.52545407142122
 30
0.0
 11
-228.53303613690696
 21
-322.52545407142122
 31
0.0
  0
CIRCLE
  5
AA
102
{ACAD_REACTORS
330
AB
102
}
100
AcDbEntity
  8
0
370
              -2
390
0
  6
Continuous
 62
               0
100
AcDbCircle
 10
-508.53303613690696
 20
-322.52545407142122
 30
0.0
 40
4.99969482421875
  0
HATCH
  5
AB
100
AcDbEntity
  8
0
370
              -2
390
0
  6
Continuous
 62
               0
100
AcDbHatch
 10
0.0
 20
0.0
 30
0.0
210
0.0
220
0.0
230
1.0
  2
SOLID
 70
               1
 71
               1
 91
        1
 92
        1
 93
        1
 72
               2
 10
-508.53303613690696
 20
-322.52545407142122
 40
4.99969482421875
 50
0.0
 51
360.0
 73
               0
 97
        1
330
AA
 75
               0
 76
               1
 98
        1
 10
0.0
 20
0.0
  0
CIRCLE
  5
AC
102
{ACAD_REACTORS
330
AD
102
}
100
AcDbEntity
  8
0
370
              -2
390
0
  6
Continuous
 62
               0
100
AcDbCircle
 10
-228.53303613690696
 20
-322.52545407142122
 30
0.0
 40
4.99969482421875
  0
HATCH
  5
AD
100
AcDbEntity
  8
0
370
              -2
390
0
  6
Continuous
 62
               0
100
AcDbHatch
 10
0.0
 20
0.0
 30
0.0
210
0.0
220
0.0
230
1.0
  2
SOLID
 70
               1
 71
               1
 91
        1
 92
        1
 93
        1
 72
               2
 10
-228.53303613690696
 20
-322.52545407142122
 40
4.99969482421875
 50
0.0
 51
360.0
 73
               0
 97
        1
330
AC
 75
               0
 76
               1
 98
        1
 10
0.0
 20
0.0
  0
MTEXT
  5
AE
100
AcDbEntity
  8
0
390
0
 62
               0
100
AcDbMText
 10
-399.90138606698383
 20
-288.64783688392117
 30
0.0
 40
24.432617187500004
 41
0.0
 71
               1
 72
               1
  1
280
  7
ＭＳ ゴシック
 73
               1
 44
0.7828267384257843
  0
POINT
  5
AF
100
AcDbEntity
  8
Defpoints
370
               0
390
0
 62
               0
100
AcDbPoint
 10
-228.53303613690696
 20
-442.49663374959226
 30
0.0
  0
POINT
  5
B0
100
AcDbEntity
  8
Defpoints
370
               0
390
0
 62
               0
100
AcDbPoint
 10
-508.53303613690696
 20
-442.49663374959226
 30
0.0
  0
POINT
  5
B1
100
AcDbEntity
  8
Defpoints
370
               0
390
0
 62
               0
100
AcDbPoint
 10
-508.53303613690696
 20
-322.52545407142122
 30
0.0
  0
ENDBLK
  5
B2
100
AcDbEntity
  8
notes
390
0
100
AcDbBlockEnd
  0
BLOCK
  5
B3
100
AcDbEntity
  8
notes
390
0
100
AcDbBlockBegin
  2
*D10
 70
               1
 10
0.0
 20
0.0
 30
0.0
  3
*D10
  1

  0
LINE
  5
B4
100
AcDbEntity
  8
0
370
              -2
390
0
  6
Continuous
 62
               0
100
AcDbLine
 10
-583.53303613690696
 20
-462.52545407142117
 30
0.0
 11
-718.55113137499939
 21
-462.52545407142117
 31
0.0
  0
LINE
  5
B5
100
AcDbEntity
  8
0
370
              -2
390
0
  6
Continuous
 62
               0
100
AcDbLine
 10
-643.55113137500121
 20
-422.52545407142117
 30
0.0
 11
-718.55113137499939
 21
-422.52545407142117
 31
0.0
  0
LINE
  5
B6
100
AcDbEntity
  8
0
370
              -2
390
0
  6
Continuous
 62
               0
100
AcDbLine
 10
-718.55113137499939
 20
-462.52545407142117
 30
0.0
 11
-718.55113137499939
 21
-422.52545407142117
 31
0.0
  0
CIRCLE
  5
B7
102
{ACAD_REACTORS
330
B8
102
}
100
AcDbEntity
  8
0
370
              -2
390
0
  6
Continuous
 62
               0
100
AcDbCircle
 10
-718.55113137499939
 20
-462.52545407142117
 30
0.0
 40
4.99969482421875
  0
HATCH
  5
B8
100
AcDbEntity
  8
0
370
              -2
390
0
  6
Continuous
 62
               0
100
AcDbHatch
 10
0.0
 20
0.0
 30
0.0
210
0.0
220
0.0
230
1.0
  2
SOLID
 70
               1
 71
               1
 91
        1
 92
        1
 93
        1
 72
               2
 10
-718.55113137499939
 20
-462.52545407142117
 40
4.99969482421875
 50
0.0
 51
360.0
 73
               0
 97
        1
330
B7
 75
               0
 76
               1
 98
        1
 10
0.0
 20
0.0
  0
CIRCLE
  5
B9
102
{ACAD_REACTORS
330
BA
102
}
100
AcDbEntity
  8
0
370
              -2
390
0
  6
Continuous
 62
               0
100
AcDbCircle
 10
-718.55113137499939
 20
-422.52545407142117
 30
0.0
 40
4.99969482421875
  0
HATCH
  5
BA
100
AcDbEntity
  8
0
370
              -2
390
0
  6
Continuous
 62
               0
100
AcDbHatch
 10
0.0
 20
0.0
 30
0.0
210
0.0
220
0.0
230
1.0
  2
SOLID
 70
               1
 71
               1
 91
        1
 92
        1
 93
        1
 72
               2
 10
-718.55113137499939
 20
-422.52545407142117
 40
4.99969482421875
 50
0.0
 51
360.0
 73
               0
 97
        1
330
B9
 75
               0
 76
               1
 98
        1
 10
0.0
 20
0.0
  0
MTEXT
  5
BB
100
AcDbEntity
  8
0
390
0
 62
               0
100
AcDbMText
 10
-752.42874856249909
 20
-458.40045407142117
 30
0.0
 40
24.432617187500004
 41
0.0
 71
               1
 72
               1
  1
40
  7
ＭＳ ゴシック
 11
0.0
 21
1.0
 31
0.0
 73
               1
 44
0.7828267384257843
  0
POINT
  5
BC
100
AcDbEntity
  8
Defpoints
370
               0
390
0
 62
               0
100
AcDbPoint
 10
-618.55113137500121
 20
-422.52545407142117
 30
0.0
  0
POINT
  5
BD
100
AcDbEntity
  8
Defpoints
370
               0
390
0
 62
               0
100
AcDbPoint
 10
-558.53303613690696
 20
-462.52545407142117
 30
0.0
  0
POINT
  5
BE
100
AcDbEntity
  8
Defpoints
370
               0
390
0
 62
               0
100
AcDbPoint
 10
-718.55113137499939
 20
-462.52545407142117
 30
0.0
  0
ENDBLK
  5
BF
100
AcDbEntity
  8
notes
390
0
100
AcDbBlockEnd
  0
BLOCK
  5
C0
100
AcDbEntity
  8
notes
390
0
100
AcDbBlockBegin
  2
*D11
 70
               1
 10
0.0
 20
0.0
 30
0.0
  3
*D11
  1

  0
LINE
  5
C1
100
AcDbEntity
  8
0
370
              -2
390
0
  6
Continuous
 62
               0
100
AcDbLine
 10
-93.551131375001205
 20
-422.52545407142117
 30
0.0
 11
-18.551131375001205
 21
-422.52545407142117
 31
0.0
  0
LINE
  5
C2
100
AcDbEntity
  8
0
370
              -2
390
0
  6
Continuous
 62
               0
100
AcDbLine
 10
-93.551131375001205
 20
-472.52545407142117
 30
0.0
 11
-18.551131375001205
 21
-472.52545407142117
 31
0.0
  0
LINE
  5
C3
100
AcDbEntity
  8
0
370
              -2
390
0
  6
Continuous
 62
               0
100
AcDbLine
 10
-18.551131375001205
 20
-422.52545407142117
 30
0.0
 11
-18.551131375001205
 21
-472.52545407142117
 31
0.0
  0
CIRCLE
  5
C4
102
{ACAD_REACTORS
330
C5
102
}
100
AcDbEntity
  8
0
370
              -2
390
0
  6
Continuous
 62
               0
100
AcDbCircle
 10
-18.551131375001205
 20
-422.52545407142117
 30
0.0
 40
4.99969482421875
  0
HATCH
  5
C5
100
AcDbEntity
  8
0
370
              -2
390
0
  6
Continuous
 62
               0
100
AcDbHatch
 10
0.0
 20
0.0
 30
0.0
210
0.0
220
0.0
230
1.0
  2
SOLID
 70
               1
 71
               1
 91
        1
 92
        1
 93
        1
 72
               2
 10
-18.551131375001205
 20
-422.52545407142117
 40
4.99969482421875
 50
0.0
 51
360.0
 73
               0
 97
        1
330
C4
 75
               0
 76
               1
 98
        1
 10
0.0
 20
0.0
  0
CIRCLE
  5
C6
102
{ACAD_REACTORS
330
C7
102
}
100
AcDbEntity
  8
0
370
              -2
390
0
  6
Continuous
 62
               0
100
AcDbCircle
 10
-18.551131375001205
 20
-472.52545407142117
 30
0.0
 40
4.99969482421875
  0
HATCH
  5
C7
100
AcDbEntity
  8
0
370
              -2
390
0
  6
Continuous
 62
               0
100
AcDbHatch
 10
0.0
 20
0.0
 30
0.0
210
0.0
220
0.0
230
1.0
  2
SOLID
 70
               1
 71
               1
 91
        1
 92
        1
 93
        1
 72
               2
 10
-18.551131375001205
 20
-472.52545407142117
 40
4.99969482421875
 50
0.0
 51
360.0
 73
               0
 97
        1
330
C6
 75
               0
 76
               1
 98
        1
 10
0.0
 20
0.0
  0
MTEXT
  5
C8
100
AcDbEntity
  8
0
390
0
 62
               0
100
AcDbMText
 10
-52.428748562500914
 20
-463.40045407142117
 30
0.0
 40
24.432617187500004
 41
0.0
 71
               1
 72
               1
  1
50
  7
ＭＳ ゴシック
 11
0.0
 21
1.0
 31
0.0
 73
               1
 44
0.7828267384257843
  0
POINT
  5
C9
100
AcDbEntity
  8
Defpoints
370
               0
390
0
 62
               0
100
AcDbPoint
 10
-118.55113137500121
 20
-472.52545407142117
 30
0.0
  0
POINT
  5
CA
100
AcDbEntity
  8
Defpoints
370
               0
390
0
 62
               0
100
AcDbPoint
 10
-118.55113137500121
 20
-422.52545407142117
 30
0.0
  0
POINT
  5
CB
100
AcDbEntity
  8
Defpoints
370
               0
390
0
 62
               0
100
AcDbPoint
 10
-18.551131375001205
 20
-422.52545407142117
 30
0.0
  0
ENDBLK
  5
CC
100
AcDbEntity
  8
notes
390
0
100
AcDbBlockEnd
  0
BLOCK
  5
CD
100
AcDbEntity
  8
notes
390
0
100
AcDbBlockBegin
  2
*D12
 70
               1
 10
0.0
 20
0.0
 30
0.0
  3
*D12
  1

  0
LINE
  5
CE
100
AcDbEntity
  8
0
370
              -2
390
0
  6
Continuous
 62
               0
100
AcDbLine
 10
766.03579623024598
 20
-632.38724268931037
 30
0.0
 11
766.03579623024598
 21
-709.09663374959223
 31
0.0
  0
LINE
  5
CF
100
AcDbEntity
  8
0
370
              -2
390
0
  6
Continuous
 62
               0
100
AcDbLine
 10
516.03579623024598
 20
-632.38724268930673
 30
0.0
 11
516.03579623024598
 21
-709.09663374959223
 31
0.0
  0
LINE
  5
D0
100
AcDbEntity
  8
0
370
              -2
390
0
  6
Continuous
 62
               0
100
AcDbLine
 10
766.03579623024598
 20
-709.09663374959223
 30
0.0
 11
516.03579623024598
 21
-709.09663374959223
 31
0.0
  0
CIRCLE
  5
D1
102
{ACAD_REACTORS
330
D2
102
}
100
AcDbEntity
  8
0
370
              -2
390
0
  6
Continuous
 62
               0
100
AcDbCircle
 10
766.03579623024598
 20
-709.09663374959223
 30
0.0
 40
4.99969482421875
  0
HATCH
  5
D2
100
AcDbEntity
  8
0
370
              -2
390
0
  6
Continuous
 62
               0
100
AcDbHatch
 10
0.0
 20
0.0
 30
0.0
210
0.0
220
0.0
230
1.0
  2
SOLID
 70
               1
 71
               1
 91
        1
 92
        1
 93
        1
 72
               2
 10
766.03579623024598
 20
-709.09663374959223
 40
4.99969482421875
 50
0.0
 51
360.0
 73
               0
 97
        1
330
D1
 75
               0
 76
               1
 98
        1
 10
0.0
 20
0.0
  0
CIRCLE
  5
D3
102
{ACAD_REACTORS
330
D4
102
}
100
AcDbEntity
  8
0
370
              -2
390
0
  6
Continuous
 62
               0
100
AcDbCircle
 10
516.03579623024598
 20
-709.09663374959223
 30
0.0
 40
4.99969482421875
  0
HATCH
  5
D4
100
AcDbEntity
  8
0
370
              -2
390
0
  6
Continuous
 62
               0
100
AcDbHatch
 10
0.0
 20
0.0
 30
0.0
210
0.0
220
0.0
230
1.0
  2
SOLID
 70
               1
 71
               1
 91
        1
 92
        1
 93
        1
 72
               2
 10
516.03579623024598
 20
-709.09663374959223
 40
4.99969482421875
 50
0.0
 51
360.0
 73
               0
 97
        1
330
D3
 75
               0
 76
               1
 98
        1
 10
0.0
 20
0.0
  0
MTEXT
  5
D5
100
AcDbEntity
  8
0
390
0
 62
               0
100
AcDbMText
 10
617.22329454807004
 20
-675.21901656209218
 30
0.0
 40
24.432617187500004
 41
0.0
 71
               1
 72
               1
  1
250
  7
ＭＳ ゴシック
 73
               1
 44
0.7828267384257843
  0
POINT
  5
D6
100
AcDbEntity
  8
Defpoints
370
               0
390
0
 62
               0
100
AcDbPoint
 10
516.03579623024598
 20
-607.38724268930673
 30
0.0
  0
POINT
  5
D7
100
AcDbEntity
  8
Defpoints
370
               0
390
0
 62
               0
100
AcDbPoint
 10
766.03579623024598
 20
-607.38724268931037
 30
0.0
  0
POINT
  5
D8
100
AcDbEntity
  8
Defpoints
370
               0
390
0
 62
               0
100
AcDbPoint
 10
766.03579623024598
 20
-709.09663374959223
 30
0.0
  0
ENDBLK
  5
D9
100
AcDbEntity
  8
notes
390
0
100
AcDbBlockEnd
  0
BLOCK
  5
DA
100
AcDbEntity
  8
notes
390
0
100
AcDbBlockBegin
  2
*D13
 70
               1
 10
0.0
 20
0.0
 30
0.0
  3
*D13
  1

  0
LINE
  5
DB
100
AcDbEntity
  8
0
370
              -2
390
0
  6
Continuous
 62
               0
100
AcDbLine
 10
766.03579623024598
 20
-402.52545407142117
 30
0.0
 11
766.03579623024598
 21
-322.52545407142122
 31
0.0
  0
LINE
  5
DC
100
AcDbEntity
  8
0
370
              -2
390
0
  6
Continuous
 62
               0
100
AcDbLine
 10
701.03579623024598
 20
-397.52545407142117
 30
0.0
 11
701.03579623024598
 21
-322.52545407142122
 31
0.0
  0
LINE
  5
DD
100
AcDbEntity
  8
0
370
              -2
390
0
  6
Continuous
 62
               0
100
AcDbLine
 10
766.03579623024598
 20
-322.52545407142122
 30
0.0
 11
701.03579623024598
 21
-322.52545407142122
 31
0.0
  0
CIRCLE
  5
DE
102
{ACAD_REACTORS
330
DF
102
}
100
AcDbEntity
  8
0
370
              -2
390
0
  6
Continuous
 62
               0
100
AcDbCircle
 10
766.03579623024598
 20
-322.52545407142122
 30
0.0
 40
4.99969482421875
  0
HATCH
  5
DF
100
AcDbEntity
  8
0
370
              -2
390
0
  6
Continuous
 62
               0
100
AcDbHatch
 10
0.0
 20
0.0
 30
0.0
210
0.0
220
0.0
230
1.0
  2
SOLID
 70
               1
 71
               1
 91
        1
 92
        1
 93
        1
 72
               2
 10
766.03579623024598
 20
-322.52545407142122
 40
4.99969482421875
 50
0.0
 51
360.0
 73
               0
 97
        1
330
DE
 75
               0
 76
               1
 98
        1
 10
0.0
 20
0.0
  0
CIRCLE
  5
E0
102
{ACAD_REACTORS
330
E1
102
}
100
AcDbEntity
  8
0
370
              -2
390
0
  6
Continuous
 62
               0
100
AcDbCircle
 10
701.03579623024598
 20
-322.52545407142122
 30
0.0
 40
4.99969482421875
  0
HATCH
  5
E1
100
AcDbEntity
  8
0
370
              -2
390
0
  6
Continuous
 62
               0
100
AcDbHatch
 10
0.0
 20
0.0
 30
0.0
210
0.0
220
0.0
230
1.0
  2
SOLID
 70
               1
 71
               1
 91
        1
 92
        1
 93
        1
 72
               2
 10
701.03579623024598
 20
-322.52545407142122
 40
4.99969482421875
 50
0.0
 51
360.0
 73
               0
 97
        1
330
E0
 75
               0
 76
               1
 98
        1
 10
0.0
 20
0.0
  0
MTEXT
  5
E2
100
AcDbEntity
  8
0
390
0
 62
               0
100
AcDbMText
 10
717.66079623024598
 20
-288.64783688392117
 30
0.0
 40
24.432617187500004
 41
0.0
 71
               1
 72
               1
  1
65
  7
ＭＳ ゴシック
 73
               1
 44
0.7828267384257843
  0
POINT
  5
E3
100
AcDbEntity
  8
Defpoints
370
               0
390
0
 62
               0
100
AcDbPoint
 10
701.03579623024598
 20
-422.52545407142117
 30
0.0
  0
POINT
  5
E4
100
AcDbEntity
  8
Defpoints
370
               0
390
0
 62
               0
100
AcDbPoint
 10
766.03579623024598
 20
-427.52545407142117
 30
0.0
  0
POINT
  5
E5
100
AcDbEntity
  8
Defpoints
370
               0
390
0
 62
               0
100
AcDbPoint
 10
766.03579623024598
 20
-322.52545407142122
 30
0.0
  0
ENDBLK
  5
E6
100
AcDbEntity
  8
notes
390
0
100
AcDbBlockEnd
  0
BLOCK
  5
E7
100
AcDbEntity
  8
notes
390
0
100
AcDbBlockBegin
  2
*D14
 70
               1
 10
0.0
 20
0.0
 30
0.0
  3
*D14
  1

  0
LINE
  5
E8
100
AcDbEntity
  8
0
370
              -2
390
0
  6
Continuous
 62
               0
100
AcDbLine
 10
495.96172465062227
 20
-422.52545407142117
 30
0.0
 11
512.96172465062227
 21
-422.52545407142117
 31
0.0
  0
LINE
  5
E9
100
AcDbEntity
  8
0
370
              -2
390
0
  6
Continuous
 62
               0
100
AcDbLine
 10
495.96172465062227
 20
-557.52545407142111
 30
0.0
 11
512.96172465062227
 21
-557.52545407142111
 31
0.0
  0
LINE
  5
EA
100
AcDbEntity
  8
0
370
              -2
390
0
  6
Continuous
 62
               0
100
AcDbLine
 10
512.96172465062227
 20
-422.52545407142117
 30
0.0
 11
512.96172465062227
 21
-271.65045407142122
 31
0.0
  0
LINE
  5
EB
100
AcDbEntity
  8
0
370
              -2
390
0
  6
Continuous
 62
               0
100
AcDbLine
 10
512.96172465062227
 20
-422.52545407142117
 30
0.0
 11
512.96172465062227
 21
-557.52545407142111
 31
0.0
  0
CIRCLE
  5
EC
102
{ACAD_REACTORS
330
ED
102
}
100
AcDbEntity
  8
0
370
              -2
390
0
  6
Continuous
 62
               0
100
AcDbCircle
 10
512.96172465062227
 20
-422.52545407142117
 30
0.0
 40
4.99969482421875
  0
HATCH
  5
ED
100
AcDbEntity
  8
0
370
              -2
390
0
  6
Continuous
 62
               0
100
AcDbHatch
 10
0.0
 20
0.0
 30
0.0
210
0.0
220
0.0
230
1.0
  2
SOLID
 70
               1
 71
               1
 91
        1
 92
        1
 93
        1
 72
               2
 10
512.96172465062227
 20
-422.52545407142117
 40
4.99969482421875
 50
0.0
 51
360.0
 73
               0
 97
        1
330
EC
 75
               0
 76
               1
 98
        1
 10
0.0
 20
0.0
  0
CIRCLE
  5
EE
102
{ACAD_REACTORS
330
EF
102
}
100
AcDbEntity
  8
0
370
              -2
390
0
  6
Continuous
 62
               0
100
AcDbCircle
 10
512.96172465062227
 20
-557.52545407142111
 30
0.0
 40
4.99969482421875
  0
HATCH
  5
EF
100
AcDbEntity
  8
0
370
              -2
390
0
  6
Continuous
 62
               0
100
AcDbHatch
 10
0.0
 20
0.0
 30
0.0
210
0.0
220
0.0
230
1.0
  2
SOLID
 70
               1
 71
               1
 91
        1
 92
        1
 93
        1
 72
               2
 10
512.96172465062227
 20
-557.52545407142111
 40
4.99969482421875
 50
0.0
 51
360.0
 73
               0
 97
        1
330
EE
 75
               0
 76
               1
 98
        1
 10
0.0
 20
0.0
  0
MTEXT
  5
F0
100
AcDbEntity
  8
0
390
0
 62
               0
100
AcDbMText
 10
479.08410746312256
 20
-414.52545407142122
 30
0.0
 40
24.432617187500004
 41
0.0
 71
               1
 72
               1
  1
135(深さ)
  7
ＭＳ ゴシック
 11
0.0
 21
1.0
 31
0.0
 73
               1
 44
0.7828267384257843
  0
POINT
  5
F1
100
AcDbEntity
  8
Defpoints
370
               0
390
0
 62
               0
100
AcDbPoint
 10
520.96172465062227
 20
-557.52545407142111
 30
0.0
  0
POINT
  5
F2
100
AcDbEntity
  8
Defpoints
370
               0
390
0
 62
               0
100
AcDbPoint
 10
520.96172465062227
 20
-422.52545407142117
 30
0.0
  0
POINT
  5
F3
100
AcDbEntity
  8
Defpoints
370
               0
390
0
 62
               0
100
AcDbPoint
 10
512.96172465062227
 20
-422.52545407142117
 30
0.0
  0
ENDBLK
  5
F4
100
AcDbEntity
  8
notes
390
0
100
AcDbBlockEnd
  0
BLOCK
  5
F5
100
AcDbEntity
  8
notes
390
0
100
AcDbBlockBegin
  2
*D15
 70
               1
 10
0.0
 20
0.0
 30
0.0
  3
*D15
  1

  0
LINE
  5
F6
100
AcDbEntity
  8
0
370
              -2
390
0
  6
Continuous
 62
               0
100
AcDbLine
 10
346.03579623024598
 20
-422.52545407142117
 30
0.0
 11
266.03683757150429
 21
-422.52545407142117
 31
0.0
  0
LINE
  5
F7
100
AcDbEntity
  8
0
370
              -2
390
0
  6
Continuous
 62
               0
100
AcDbLine
 10
428.96172465062227
 20
-612.52545407142111
 30
0.0
 11
266.03683757150429
 21
-612.52545407142111
 31
0.0
  0
LINE
  5
F8
100
AcDbEntity
  8
0
370
              -2
390
0
  6
Continuous
 62
               0
100
AcDbLine
 10
266.03683757150429
 20
-422.52545407142117
 30
0.0
 11
266.03683757150429
 21
-612.52545407142111
 31
0.0
  0
CIRCLE
  5
F9
102
{ACAD_REACTORS
330
FA
102
}
100
AcDbEntity
  8
0
370
              -2
390
0
  6
Continuous
 62
               0
100
AcDbCircle
 10
266.03683757150429
 20
-422.52545407142117
 30
0.0
 40
4.99969482421875
  0
HATCH
  5
FA
100
AcDbEntity
  8
0
370
              -2
390
0
  6
Continuous
 62
               0
100
AcDbHatch
 10
0.0
 20
0.0
 30
0.0
210
0.0
220
0.0
230
1.0
  2
SOLID
 70
               1
 71
               1
 91
        1
 92
        1
 93
        1
 72
               2
 10
266.03683757150429
 20
-422.52545407142117
 40
4.99969482421875
 50
0.0
 51
360.0
 73
               0
 97
        1
330
F9
 75
               0
 76
               1
 98
        1
 10
0.0
 20
0.0
  0
CIRCLE
  5
FB
102
{ACAD_REACTORS
330
FC
102
}
100
AcDbEntity
  8
0
370
              -2
390
0
  6
Continuous
 62
               0
100
AcDbCircle
 10
266.03683757150429
 20
-612.52545407142111
 30
0.0
 40
4.99969482421875
  0
HATCH
  5
FC
100
AcDbEntity
  8
0
370
              -2
390
0
  6
Continuous
 62
               0
100
AcDbHatch
 10
0.0
 20
0.0
 30
0.0
210
0.0
220
0.0
230
1.0
  2
SOLID
 70
               1
 71
               1
 91
        1
 92
        1
 93
        1
 72
               2
 10
266.03683757150429
 20
-612.52545407142111
 40
4.99969482421875
 50
0.0
 51
360.0
 73
               0
 97
        1
330
FB
 75
               0
 76
               1
 98
        1
 10
0.0
 20
0.0
  0
MTEXT
  5
FD
100
AcDbEntity
  8
0
390
0
 62
               0
100
AcDbMText
 10
232.15922038400458
 20
-541.3379557535967
 30
0.0
 40
24.432617187500004
 41
0.0
 71
               1
 72
               1
  1
190
  7
ＭＳ ゴシック
 11
0.0
 21
1.0
 31
0.0
 73
               1
 44
0.7828267384257843
  0
POINT
  5
FE
100
AcDbEntity
  8
Defpoints
370
               0
390
0
 62
               0
100
AcDbPoint
 10
453.96172465062227
 20
-612.52545407142111
 30
0.0
  0
POINT
  5
FF
100
AcDbEntity
  8
Defpoints
370
               0
390
0
 62
               0
100
AcDbPoint
 10
371.03579623024598
 20
-422.52545407142117
 30
0.0
  0
POINT
  5
100
100
AcDbEntity
  8
Defpoints
370
               0
390
0
 62
               0
100
AcDbPoint
 10
266.03683757150429
 20
-422.52545407142117
 30
0.0
  0
ENDBLK
  5
101
100
AcDbEntity
  8
notes
390
0
100
AcDbBlockEnd
  0
ENDSEC
  0
SECTION
  2
ENTITIES
  0
MTEXT
  5
102
100
AcDbEntity
  8
template
390
0
 62
               7
100
AcDbMText
 10
-967.99999999975989
 20
-1147.4176292337006
 30
0.0
 40
16.288411458333332
 41
0.0
 71
               1
 72
               1
  1
品名
  7
ＭＳ ゴシック
 73
               1
 44
0.7828267384257843
  0
MTEXT
  5
103
100
AcDbEntity
  8
template
390
0
 62
               7
100
AcDbMText
 10
-967.99999999975989
 20
-1232.4176292337006
 30
0.0
 40
16.288411458333332
 41
0.0
 71
               1
 72
               1
  1
仕様
  7
ＭＳ ゴシック
 73
               1
 44
0.7828267384257843
  0
MTEXT
  5
104
100
AcDbEntity
  8
template
390
0
 62
               7
100
AcDbMText
 10
-914.99999999975989
 20
-1176.0000901712006
 30
0.0
 40
24.432617187500004
 41
0.0
 71
               1
 72
               1
  1
洗面器 -CATALANO,C-
  7
ＭＳ ゴシック
 73
               1
 44
0.7828267384257843
  0
LINE
  5
105
100
AcDbEntity
  8
template
370
               5
390
0
  6
Continuous
 62
               7
100
AcDbLine
 10
974.99999999975807
 20
-1224.0027073587005
 30
0.0
 11
-975.00000000024193
 21
-1224.0027073587005
 31
0.0
  0
LWPOLYLINE
  5
106
100
AcDbEntity
  8
template
370
               5
390
0
  6
Continuous
 62
               7
100
AcDbPolyline
 90
        5
 70
             128
 10
975.00000000024193
 20
1405.9972926412993
 10
-974.99999999975989
 20
1405.9972926412993
 10
-974.99999999975989
 20
-1394.0027073587005
 10
975.00000000024193
 20
-1394.0027073587005
 10
975.00000000024193
 20
1405.9972926412993
  0
LINE
  5
107
100
AcDbEntity
  8
template
370
               5
390
0
  6
Continuous
 62
               7
100
AcDbLine
 10
974.99999999975807
 20
-1139.0027073587005
 30
0.0
 11
-975.00000000024193
 21
-1139.0027073587005
 31
0.0
  0
LINE
  5
108
100
AcDbEntity
  8
template
370
               5
390
0
  6
Continuous
 62
               7
100
AcDbLine
 10
975.00000000024193
 20
-1309.0027073587005
 30
0.0
 11
222.00000000024193
 21
-1309.0027073587005
 31
0.0
  0
MTEXT
  5
109
100
AcDbEntity
  8
template
390
0
 62
               7
100
AcDbMText
 10
-974.99999999955617
 20
-1405.8565294155574
 30
0.0
 40
21.717881944444446
 41
0.0
 71
               1
 72
               1
  1
120323S
  7
ＭＳ ゴシック
 73
               1
 44
0.7828267384257843
  0
MTEXT
  5
10A
100
AcDbEntity
  8
template
390
0
 62
               7
100
AcDbMText
 10
251.8714062525014
 20
-1338.9131018320081
 30
0.0
 40
24.432617187500004
 41
0.0
 71
               1
 72
               1
  1
大洋金物株式会社 ティーフォルム事業部
  7
ＭＳ ゴシック
 73
               1
 44
0.7828267384257843
  0
INSERT
  5
10B
100
AcDbEntity
  8
template
390
0
 62
               7
100
AcDbBlockReference
  2
グループ
 10
9672.5691734416941
 20
-896.88981630255682
 30
0.0
  0
MTEXT
  5
10C
100
AcDbEntity
  8
template
390
0
 62
               7
100
AcDbMText
 10
784.00000000050022
 20
-1261.0000901712006
 30
0.0
 40
24.432617187500004
 41
0.0
 71
               1
 72
               1
  1
1:10
  7
ＭＳ ゴシック
 73
               1
 44
0.7828267384257843
  0
MTEXT
  5
10D
100
AcDbEntity
  8
template
390
0
 62
               7
100
AcDbMText
 10
731.00000000050022
 20
-1232.4176292337006
 30
0.0
 40
16.288411458333332
 41
0.0
 71
               1
 72
               1
  1
縮尺
  7
ＭＳ ゴシック
 73
               1
 44
0.7828267384257843
  0
LINE
  5
10E
100
AcDbEntity
  8
template
370
               5
390
0
  6
Continuous
 62
               7
100
AcDbLine
 10
724.00000000050022
 20
-1309.0027073587005
 30
0.0
 11
724.00000000050022
 21
-1224.0027073587005
 31
0.0
  0
MTEXT
  5
10F
100
AcDbEntity
  8
template
390
0
 62
               7
100
AcDbMText
 10
480.00000000050022
 20
-1232.4176292337006
 30
0.0
 40
16.288411458333332
 41
0.0
 71
               1
 72
               1
  1
容量
  7
ＭＳ ゴシック
 73
               1
 44
0.7828267384257843
  0
MTEXT
  5
110
100
AcDbEntity
  8
template
390
0
 62
               7
100
AcDbMText
 10
533.00000000050022
 20
-1261.0000901712006
 30
0.0
 40
24.432617187500004
 41
0.0
 71
               1
 72
               1
  1
5L
  7
ＭＳ ゴシック
 73
               1
 44
0.7828267384257843
  0
LINE
  5
111
100
AcDbEntity
  8
template
370
               5
390
0
  6
Continuous
 62
               7
100
AcDbLine
 10
473.00000000050022
 20
-1309.0027073587005
 30
0.0
 11
473.00000000050022
 21
-1224.0027073587005
 31
0.0
  0
MTEXT
  5
112
100
AcDbEntity
  8
template
390
0
 62
               7
100
AcDbMText
 10
229.00000000050022
 20
-1147.4176292337006
 30
0.0
 40
16.288411458333332
 41
0.0
 71
               1
 72
               1
  1
品番
  7
ＭＳ ゴシック
 73
               1
 44
0.7828267384257843
  0
MTEXT
  5
113
100
AcDbEntity
  8
template
390
0
 62
               7
100
AcDbMText
 10
229.00000000050022
 20
-1232.4176292337006
 30
0.0
 40
16.288411458333332
 41
0.0
 71
               1
 72
               1
  1
重量
  7
ＭＳ ゴシック
 73
               1
 44
0.7828267384257843
  0
MTEXT
  5
114
100
AcDbEntity
  8
template
390
0
 62
               7
100
AcDbMText
 10
282.00000000050022
 20
-1176.0000901712006
 30
0.0
 40
24.432617187500004
 41
0.0
 71
               1
 72
               1
  1
ADF70-1206
  7
ＭＳ ゴシック
 73
               1
 44
0.7828267384257843
  0
MTEXT
  5
115
100
AcDbEntity
  8
template
390
0
 62
               7
100
AcDbMText
 10
282.00000000050022
 20
-1261.0000901712006
 30
0.0
 40
24.432617187500004
 41
0.0
 71
               1
 72
               1
  1
15kg
  7
ＭＳ ゴシック
 73
               1
 44
0.7828267384257843
  0
LINE
  5
116
100
AcDbEntity
  8
template
370
               5
390
0
  6
Continuous
 62
               7
100
AcDbLine
 10
222.00000000050022
 20
-1394.0027073587005
 30
0.0
 11
222.00000000050022
 21
-1139.0027073587005
 31
0.0
  0
MTEXT
  5
117
100
AcDbEntity
  8
template
390
0
 62
               7
100
AcDbMText
 10
-914.99999999975989
 20
-1261.0000901712006
 30
0.0
 40
24.432617187500004
 41
0.0
 71
               1
 72
               1
  1
壁掛け/オーバーフロー付き/壁取付ボルト付属/\P陶器/ホワイト
  7
ＭＳ ゴシック
 73
               1
 44
1.3047112307096407
  0
MTEXT
  5
118
100
AcDbEntity
  8
notes
390
0
 62
               7
100
AcDbMText
 10
-739.03322348830079
 20
176.89967617552054
 30
0.0
 40
24.432617187500004
 41
837.61056495264052
 71
               1
 72
               1
  1
＝φ30もしくはφ35の水栓取付用穴あけ加工を承ります。\P  必要な場合、ご注文の際にご指示ください。
  7
ＭＳ ゴシック
 73
               1
 44
1.0437689845677123
  0
MTEXT
  5
119
100
AcDbEntity
  8
notes
390
0
 62
               7
100
AcDbMText
 10
-170.02430254491264
 20
-332.99510937362083
 30
0.0
 40
24.432617187500004
 41
0.0
 71
               1
 72
               1
  1
壁取付ボルト穴(2ヶ所)
  7
ＭＳ ゴシック
 73
               1
 44
0.7828267384257843
  0
LINE
  5
11A
100
AcDbEntity
  8
notes
370
               5
390
0
  6
Continuous
 62
               7
100
AcDbLine
 10
-228.53303613690696
 20
-462.49663374959226
 30
0.0
 11
-138.30126666854267
 21
-376.30734447943416
 31
0.0
  0
CIRCLE
  5
11B
100
AcDbEntity
  8
notes
370
              15
390
0
  6
STYLE_12
 62
               7
100
AcDbCircle
 10
-760.89990579384539
 20
162.42904044494787
 30
0.0
 40
17.499999999999432
  0
DIMENSION
  5
11C
100
AcDbEntity
  8
notes
370
               5
390
0
  6
Continuous
 62
               7
100
AcDbDimension
  2
*D3
 10
-18.551131375001205
 20
-472.52545407142117
 30
0.0
 11
-18.551131375001205
 21
-542.52545407142122
 31
0.0
 71
               5
 72
               1
 41
1.0
 42
0.0
  3
tform線あり
100
AcDbAlignedDimension
 13
-248.55821073723746
 23
-612.52545407142134
 33
0.0
 14
-118.55113137500121
 24
-472.52545407142117
 34
0.0
 50
90.0
100
AcDbRotatedDimension
1001
ACAD
1000
DSTYLE
1002
{
1070
             279
1070
               2
1070
             340
1005
31
1070
             147
1040
5.0
1002
}
  0
DIMENSION
  5
11D
100
AcDbEntity
  8
notes
370
               5
390
0
  6
Continuous
 62
               7
100
AcDbDimension
  2
*D4
 10
-618.55113137500121
 20
894.16879639799629
 30
0.0
 11
-368.54208375595408
 21
894.16879639799629
 31
0.0
 71
               5
 72
               1
 41
1.0
 42
0.0
  3
tform線あり
100
AcDbAlignedDimension
 13
-118.53303613690514
 23
791.31165354085408
 33
0.0
 14
-618.55113137500121
 24
791.31165354085317
 34
0.0
100
AcDbRotatedDimension
1001
ACAD
1000
DSTYLE
1002
{
1070
             279
1070
               2
1070
             340
1005
31
1070
             147
1040
5.0
1002
}
  0
DIMENSION
  5
11E
100
AcDbEntity
  8
notes
370
               5
390
0
  6
Continuous
 62
               7
100
AcDbDimension
  2
*D5
 10
-18.551131375001205
 20
794.1687963979972
 30
0.0
 11
-18.551131375001205
 21
594.16879639799652
 31
0.0
 71
               5
 72
               1
 41
1.0
 42
0.0
  3
tform線あり
100
AcDbAlignedDimension
 13
-123.53303613690878
 23
394.16879639799583
 33
0.0
 14
-121.39017899404826
 24
794.1687963979972
 34
0.0
 50
90.0
100
AcDbRotatedDimension
1001
ACAD
1000
DSTYLE
1002
{
1070
             279
1070
               2
1070
             340
1005
31
1070
             147
1040
5.0
1002
}
  0
DIMENSION
  5
11F
100
AcDbEntity
  8
notes
370
               5
390
0
  6
Continuous
 62
               7
100
AcDbDimension
  2
*D6
 10
-568.5345928839215
 20
294.16879639799583
 30
0.0
 11
-368.54208375595044
 21
294.16879639799583
 31
0.0
 71
               5
 72
               1
 41
1.0
 42
0.0
  3
tform線あり
100
AcDbAlignedDimension
 13
-168.5495746279812
 23
394.16879639799583
 33
0.0
 14
-568.5345928839215
 24
394.16879639799583
 34
0.0
100
AcDbRotatedDimension
1001
ACAD
1000
DSTYLE
1002
{
1070
             279
1070
               2
1070
             340
1005
31
1070
             147
1040
5.0
1002
}
  0
DIMENSION
  5
120
100
AcDbEntity
  8
notes
370
               5
390
0
  6
Continuous
 62
               7
100
AcDbDimension
  2
*D7
 10
-718.55113137500121
 20
794.16879639799583
 30
0.0
 11
-718.55113137500121
 21
731.66879639799606
 31
0.0
 71
               5
 72
               1
 41
1.0
 42
0.0
  3
tform線あり
100
AcDbAlignedDimension
 13
-615.69398851785809
 23
669.16879639799629
 33
0.0
 14
-615.69398851785809
 24
794.16879639799583
 34
0.0
 50
90.0
100
AcDbRotatedDimension
1001
ACAD
1000
DSTYLE
1002
{
1070
             279
1070
               2
1070
             340
1005
31
1070
             147
1040
5.0
1002
}
  0
DIMENSION
  5
121
100
AcDbEntity
  8
notes
370
               5
390
0
  6
Continuous
 62
               7
100
AcDbDimension
  2
*D8
 10
-718.55113137500121
 20
669.16879639799629
 30
0.0
 11
-718.55113137500121
 21
544.16879639799629
 31
0.0
 71
               5
 72
               1
 41
1.0
 42
0.0
  3
tform線あり
100
AcDbAlignedDimension
 13
-618.55113137500121
 23
419.16879639799629
 33
0.0
 14
-618.55113137500121
 24
669.16879639799629
 34
0.0
 50
90.0
100
AcDbRotatedDimension
1001
ACAD
1000
DSTYLE
1002
{
1070
             279
1070
               2
1070
             340
1005
31
1070
             147
1040
5.0
1002
}
  0
DIMENSION
  5
122
100
AcDbEntity
  8
notes
370
               5
390
0
  6
Continuous
 62
               7
100
AcDbDimension
  2
*D9
 10
-508.53303613690696
 20
-322.52545407142122
 30
0.0
 11
-376.0888843848079
 21
-317.52545407142122
 31
0.0
 70
             128
 71
               5
 72
               1
 41
1.0
 42
0.0
  3
tform線あり
100
AcDbAlignedDimension
 13
-228.53303613690696
 23
-442.49663374959226
 33
0.0
 14
-508.53303613690696
 24
-442.49663374959226
 34
0.0
100
AcDbRotatedDimension
1001
ACAD
1000
DSTYLE
1002
{
1070
             279
1070
               2
1070
             340
1005
31
1070
             147
1040
5.0
1002
}
  0
DIMENSION
  5
123
100
AcDbEntity
  8
notes
370
               5
390
0
  6
Continuous
 62
               7
100
AcDbDimension
  2
*D10
 10
-718.55113137499939
 20
-462.52545407142117
 30
0.0
 11
-718.55113137499939
 21
-442.52545407142117
 31
0.0
 71
               5
 72
               1
 41
1.0
 42
0.0
  3
tform線あり
100
AcDbAlignedDimension
 13
-618.55113137500121
 23
-422.52545407142117
 33
0.0
 14
-558.53303613690696
 24
-462.52545407142117
 34
0.0
 50
90.0
100
AcDbRotatedDimension
1001
ACAD
1000
DSTYLE
1002
{
1070
             279
1070
               2
1070
             340
1005
31
1070
             147
1040
5.0
1002
}
  0
DIMENSION
  5
124
100
AcDbEntity
  8
notes
370
               5
390
0
  6
Continuous
 62
               7
100
AcDbDimension
  2
*D11
 10
-18.551131375001205
 20
-422.52545407142117
 30
0.0
 11
-18.551131375001205
 21
-447.52545407142117
 31
0.0
 71
               5
 72
               1
 41
1.0
 42
0.0
  3
tform線あり
100
AcDbAlignedDimension
 13
-118.55113137500121
 23
-472.52545407142117
 33
0.0
 14
-118.55113137500121
 24
-422.52545407142117
 34
0.0
 50
90.0
100
AcDbRotatedDimension
1001
ACAD
1000
DSTYLE
1002
{
1070
             279
1070
               2
1070
             340
1005
31
1070
             147
1040
5.0
1002
}
  0
DIMENSION
  5
125
100
AcDbEntity
  8
notes
370
               5
390
0
  6
Continuous
 62
               7
100
AcDbDimension
  2
*D12
 10
766.03579623024598
 20
-709.09663374959223
 30
0.0
 11
641.03579623024598
 21
-709.09663374959223
 31
0.0
 71
               5
 72
               1
 41
1.0
 42
0.0
  3
tform線あり
100
AcDbAlignedDimension
 13
516.03579623024598
 23
-607.38724268930673
 33
0.0
 14
766.03579623024598
 24
-607.38724268931037
 34
0.0
100
AcDbRotatedDimension
1001
ACAD
1000
DSTYLE
1002
{
1070
             279
1070
               2
1070
             340
1005
31
1070
             147
1040
5.0
1002
}
  0
DIMENSION
  5
126
100
AcDbEntity
  8
notes
370
               5
390
0
  6
Continuous
 62
               7
100
AcDbDimension
  2
*D13
 10
766.03579623024598
 20
-322.52545407142122
 30
0.0
 11
733.53579623024598
 21
-322.52545407142122
 31
0.0
 71
               5
 72
               1
 41
1.0
 42
0.0
  3
tform線あり
100
AcDbAlignedDimension
 13
701.03579623024598
 23
-422.52545407142117
 33
0.0
 14
766.03579623024598
 24
-427.52545407142117
 34
0.0
100
AcDbRotatedDimension
1001
ACAD
1000
DSTYLE
1002
{
1070
             279
1070
               2
1070
             340
1005
31
1070
             147
1040
5.0
1002
}
  0
DIMENSION
  5
127
100
AcDbEntity
  8
notes
370
               5
390
0
  6
Continuous
 62
               7
100
AcDbDimension
  2
*D14
 10
512.96172465062227
 20
-422.52545407142117
 30
0.0
 11
507.96172465062227
 21
-414.52545407142117
 31
0.0
 70
             128
 71
               5
 72
               1
 41
1.0
 42
0.0
  3
tform線あり
100
AcDbAlignedDimension
 13
520.96172465062227
 23
-557.52545407142111
 33
0.0
 14
520.96172465062227
 24
-422.52545407142117
 34
0.0
 50
90.0
100
AcDbRotatedDimension
1001
ACAD
1000
DSTYLE
1002
{
1070
             279
1070
               2
1070
             340
1005
31
1070
               3
1000
<>(深さ)
1070
             174
1070
               0
1070
             147
1040
5.0
1002
}
  0
DIMENSION
  5
128
100
AcDbEntity
  8
notes
370
               5
390
0
  6
Continuous
 62
               7
100
AcDbDimension
  2
*D15
 10
266.03683757150429
 20
-422.52545407142117
 30
0.0
 11
266.03683757150429
 21
-517.52545407142111
 31
0.0
 71
               5
 72
               1
 41
1.0
 42
0.0
  3
tform線あり
100
AcDbAlignedDimension
 13
453.96172465062227
 23
-612.52545407142111
 33
0.0
 14
371.03579623024598
 24
-422.52545407142117
 34
0.0
 50
90.0
100
AcDbRotatedDimension
1001
ACAD
1000
DSTYLE
1002
{
1070
             279
1070
               2
1070
             340
1005
31
1070
             147
1040
5.0
1002
}
  0
LINE
  5
129
100
AcDbEntity
  8
notes
370
              15
390
0
  6
Continuous
 62
               7
100
AcDbLine
 10
367.79568189274869
 20
-472.52545407142117
 30
0.0
 11
766.03579623024598
 21
-472.52545407142117
 31
0.0
  0
ARC
  5
12A
100
AcDbEntity
  8
ADF70-1206
370
              15
390
0
  6
Continuous
 62
               7
100
AcDbCircle
 10
-121.39017899404826
 20
791.31165354085408
 30
0.0
 40
2.857142857143117
100
AcDbArc
 50
0.0
 51
90.0
  0
ARC
  5
12B
100
AcDbEntity
  8
ADF70-1206
370
              15
390
0
  6
Continuous
 62
               7
100
AcDbCircle
 10
-615.69398851785809
 20
791.31165354085317
 30
0.0
 40
2.857142857143117
100
AcDbArc
 50
90.0
 51
180.0
  0
LINE
  5
12C
100
AcDbEntity
  8
ADF70-1206
370
              15
390
0
  6
Continuous
 62
               7
100
AcDbLine
 10
-123.53303613690878
 20
394.16879639799583
 30
0.0
 11
-613.55113137500121
 21
394.16879639799629
 31
0.0
  0
LINE
  5
12D
100
AcDbEntity
  8
ADF70-1206
370
              15
390
0
  6
Continuous
 62
               7
100
AcDbLine
 10
-615.69398851785809
 20
794.16879639799583
 30
0.0
 11
-121.39017899404826
 21
794.16879639799674
 31
0.0
  0
LINE
  5
12E
100
AcDbEntity
  8
ADF70-1206
370
              15
390
0
  6
Continuous
 62
               7
100
AcDbLine
 10
-618.55113137500121
 20
399.16879639799629
 30
0.0
 11
-618.55113137500121
 21
791.31165354085317
 31
0.0
  0
LINE
  5
12F
100
AcDbEntity
  8
ADF70-1206
370
              15
390
0
  6
Continuous
 62
               7
100
AcDbLine
 10
-293.5330361369015
 20
669.16879639799629
 30
0.0
 11
-443.55113137500302
 21
669.16879639799629
 31
0.0
  0
LINE
  5
130
100
AcDbEntity
  8
ADF70-1206
370
              15
390
0
  6
Continuous
 62
               7
100
AcDbLine
 10
-293.5330361369015
 20
419.16879639799629
 30
0.0
 11
-443.55113137500302
 21
419.16879639799629
 31
0.0
  0
ARC
  5
131
100
AcDbEntity
  8
ADF70-1206
370
              15
390
0
  6
Continuous
 62
               7
100
AcDbCircle
 10
-443.55113137500302
 20
544.16879639799629
 30
0.0
 40
125.0
100
AcDbArc
 50
90.0
 51
270.0
  0
ARC
  5
132
100
AcDbEntity
  8
ADF70-1206
370
              15
390
0
  6
Continuous
 62
               7
100
AcDbCircle
 10
-293.5330361369015
 20
544.16879639799629
 30
0.0
 40
125.00000000000023
100
AcDbArc
 50
270.0
 51
90.0
  0
SPLINE
  5
133
100
AcDbEntity
  8
ADF70-1206
370
              15
390
0
  6
Continuous
 62
               7
100
AcDbSpline
210
0.0
220
0.0
230
1.0
 70
               9
 71
               2
 72
              30
 73
              27
 74
               0
 42
0.000001
 43
0.000001
 40
0.0
 40
0.0
 40
0.0
 40
1.0
 40
1.0
 40
2.0
 40
3.0
 40
4.0
 40
5.0
 40
6.0
 40
7.0
 40
8.0
 40
9.0
 40
10.0
 40
11.0
 40
12.0
 40
13.0
 40
14.0
 40
15.0
 40
16.0
 40
17.0
 40
18.0
 40
19.0
 40
20.0
 40
21.0
 40
22.0
 40
22.0
 40
23.0
 40
23.0
 40
23.0
 10
-381.04208375595044
 20
657.1687963979972
 30
0.0
 10
-381.04208375595044
 20
657.04824727881703
 30
0.0
 10
-381.04208375595044
 20
656.92769815963686
 30
0.0
 10
-380.72368192119029
 20
655.64720746650403
 30
0.0
 10
-378.43363687513738
 20
654.19594526057256
 30
0.0
 10
-376.32673369773511
 20
653.39141708405452
 30
0.0
 10
-373.82067370878212
 20
652.80679582898313
 30
0.0
 10
-369.82550322564748
 20
652.31412121301685
 30
0.0
 10
-365.9462624017433
 20
652.4708359098496
 30
0.0
 10
-363.26349380311331
 20
652.80679724174217
 30
0.0
 10
-360.75743381416396
 20
653.39140884296205
 30
0.0
 10
-357.57204727703174
 20
654.6266017026702
 30
0.0
 10
-356.23989736089607
 20
656.17750381119288
 30
0.0
 10
-355.81476961746193
 20
657.65337488317311
 30
0.0
 10
-357.11965338130904
 20
659.1845849962848
 30
0.0
 10
-358.65053063676351
 20
660.14159950162377
 30
0.0
 10
-360.75743381416396
 20
660.94618395303235
 30
0.0
 10
-363.26349380312058
 20
661.53079555425268
 30
0.0
 10
-365.94626240174148
 20
661.86675688614434
 30
0.0
 10
-369.81101201825004
 20
662.02910403774979
 30
0.0
 10
-373.82067370877849
 20
661.53079696701127
 30
0.0
 10
-376.32673369773693
 20
660.94617571193942
 30
0.0
 10
-378.43363687513556
 20
660.14164753542229
 30
0.0
 10
-380.71897879335484
 20
658.67894898847919
 30
0.0
 10
-381.04208375595044
 20
657.40989463635754
 30
0.0
 10
-381.04208375595044
 20
657.28934551717737
 30
0.0
 10
-381.04208375595044
 20
657.1687963979972
 30
0.0
  0
ARC
  5
134
100
AcDbEntity
  8
ADF70-1206
370
              15
390
0
  6
Continuous
 62
               7
100
AcDbCircle
 10
-123.53303613690878
 20
399.16879639799583
 30
0.0
 40
5.0
100
AcDbArc
 50
270.0
 51
0.0
  0
ARC
  5
135
100
AcDbEntity
  8
ADF70-1206
370
              15
390
0
  6
Continuous
 62
               7
100
AcDbCircle
 10
-613.55113137500121
 20
399.16879639799629
 30
0.0
 40
5.0
100
AcDbArc
 50
180.0
 51
270.0
  0
CIRCLE
  5
136
100
AcDbEntity
  8
ADF70-1206
370
              15
390
0
  6
Continuous
 62
               7
100
AcDbCircle
 10
-368.54208375595044
 20
544.16879639799629
 30
0.0
 40
39.0
  0
CIRCLE
  5
137
100
AcDbEntity
  8
ADF70-1206
370
              15
390
0
  6
Continuous
 62
               7
100
AcDbCircle
 10
-368.54208375595044
 20
544.16879639799629
 30
0.0
 40
22.5
  0
ARC
  5
138
100
AcDbEntity
  8
ADF70-1206
370
              15
390
0
  6
Continuous
 62
               7
100
AcDbCircle
 10
451.96182393462732
 20
-607.38724268930855
 30
0.0
 40
5.0000000000001528
100
AcDbArc
 50
228.98500993333136
 51
270.00000000002086
  0
LINE
  5
139
100
AcDbEntity
  8
ADF70-1206
370
              15
390
0
  6
STYLE_12
 62
               7
100
AcDbLine
 10
493.5357962302478
 20
-569.38724268930832
 30
0.0
 11
493.5357962302478
 21
-607.38724268930673
 31
0.0
  0
LINE
  5
13A
100
AcDbEntity
  8
ADF70-1206
370
              15
390
0
  6
STYLE_12
 62
               7
100
AcDbLine
 10
476.03579623024598
 20
-557.38724268930832
 30
0.0
 11
493.5357962302478
 21
-569.38724268930832
 31
0.0
  0
ARC
  5
13B
100
AcDbEntity
  8
ADF70-1206
370
              15
390
0
  6
STYLE_12
 62
               7
100
AcDbCircle
 10
386.3211927763914
 20
-427.52545407142117
 30
0.0
 40
5.0000000000000675
100
AcDbArc
 50
5.2360077006197718
 51
89.999999999999986
  0
LINE
  5
13C
100
AcDbEntity
  8
ADF70-1206
370
              15
390
0
  6
Continuous
 62
               7
100
AcDbLine
 10
371.03579623024416
 20
-422.52545407142117
 30
0.0
 11
386.32119277638958
 21
-422.52545407142117
 31
0.0
  0
ARC
  5
13D
100
AcDbEntity
  8
ADF70-1206
370
              15
390
0
  6
Continuous
 62
               7
100
AcDbCircle
 10
371.0357962302478
 20
-427.52545407142117
 30
0.0
 40
5.0000000000005116
100
AcDbArc
 50
90.000000000020847
 51
181.1693828056267
  0
LINE
  5
13E
100
AcDbEntity
  8
ADF70-1206
370
              15
390
0
  6
Continuous
 62
               7
100
AcDbLine
 10
366.03683757150429
 20
-467.52545407142117
 30
0.0
 11
366.03683757150429
 21
-427.62749488774881
 31
0.0
  0
ARC
  5
13F
100
AcDbEntity
  8
ADF70-1206
370
              15
390
0
  6
Continuous
 62
               7
100
AcDbCircle
 10
371.03683757150429
 20
-467.52545407142117
 30
0.0
 40
5.0
100
AcDbArc
 50
180.0
 51
225.00000000001472
  0
ARC
  5
140
100
AcDbEntity
  8
ADF70-1206
370
              15
390
0
  6
Continuous
 62
               7
100
AcDbCircle
 10
612.74465619320472
 20
-422.52545417986568
 30
0.0
 40
249.99999999999986
100
AcDbArc
 50
191.19461388213409
 51
228.98500993330765
  0
LINE
  5
141
100
AcDbEntity
  8
ADF70-1206
370
              15
390
0
  6
Continuous
 62
               7
100
AcDbLine
 10
460.75266961871421
 20
-612.38724268930855
 30
0.0
 11
451.96182393462732
 21
-612.38724268930855
 31
0.0
  0
LINE
  5
142
100
AcDbEntity
  8
ADF70-1206
370
              15
390
0
  6
STYLE_12
 62
               7
100
AcDbLine
 10
517.62477687300452
 20
-607.38724268930673
 30
0.0
 11
512.09467987122298
 21
-607.38724268930673
 31
0.0
  0
ARC
  5
143
100
AcDbEntity
  8
ADF70-1206
370
              15
390
0
  6
Continuous
 62
               7
100
AcDbCircle
 10
761.0357962302478
 20
-607.38724268931037
 30
0.0
 40
5.0
100
AcDbArc
 50
270.0
 51
0.0
  0
LINE
  5
144
100
AcDbEntity
  8
ADF70-1206
370
              15
390
0
  6
STYLE_12
 62
               7
100
AcDbLine
 10
477.0357962302478
 20
-557.38724268930832
 30
0.0
 11
555.0357962302478
 21
-557.38724268930832
 31
0.0
  0
LINE
  5
145
100
AcDbEntity
  8
ADF70-1206
370
              15
390
0
  6
Continuous
 62
               7
100
AcDbLine
 10
761.03579623024598
 20
-422.52545407142117
 30
0.0
 11
645.76279019081085
 21
-422.52545407142117
 31
0.0
  0
LINE
  5
146
100
AcDbEntity
  8
ADF70-1206
370
              15
390
0
  6
Continuous
 62
               7
100
AcDbLine
 10
371.03579623024416
 20
-422.52545407142117
 30
0.0
 11
645.78561125644592
 21
-422.52545407142117
 31
0.0
  0
LINE
  5
147
100
AcDbEntity
  8
ADF70-1206
370
              15
390
0
  6
STYLE_12
 62
               7
100
AcDbLine
 10
538.5357962302478
 20
-607.38724268930673
 30
0.0
 11
493.5357962302478
 21
-607.38724268930673
 31
0.0
  0
LINE
  5
148
100
AcDbEntity
  8
ADF70-1206
370
              15
390
0
  6
STYLE_12
 62
               7
100
AcDbLine
 10
556.0357962302478
 20
-557.38724268930832
 30
0.0
 11
476.0357962302478
 21
-557.38724268930832
 31
0.0
  0
LINE
  5
149
100
AcDbEntity
  8
ADF70-1206
370
              15
390
0
  6
STYLE_12
 62
               7
100
AcDbLine
 10
538.5357962302478
 20
-569.38724268930832
 30
0.0
 11
493.5357962302478
 21
-569.38724268930832
 31
0.0
  0
LINE
  5
14A
100
AcDbEntity
  8
ADF70-1206
370
              15
390
0
  6
STYLE_12
 62
               7
100
AcDbLine
 10
538.5357962302478
 20
-569.38724268930832
 30
0.0
 11
538.5357962302478
 21
-607.38724268930673
 31
0.0
  0
LINE
  5
14B
100
AcDbEntity
  8
ADF70-1206
370
              15
390
0
  6
STYLE_12
 62
               7
100
AcDbLine
 10
556.03579623024598
 20
-557.38724268930832
 30
0.0
 11
538.5357962302478
 21
-569.38724268930832
 31
0.0
  0
LINE
  5
14C
100
AcDbEntity
  8
ADF70-1206
370
              15
390
0
  6
Continuous
 62
               7
100
AcDbLine
 10
746.35710463593387
 20
-612.38724268930673
 30
0.0
 11
761.03579623024598
 21
-612.38724268931037
 31
0.0
  0
ARC
  5
14D
100
AcDbEntity
  8
ADF70-1206
370
              15
390
0
  6
Continuous
 62
               7
100
AcDbCircle
 10
761.03579623024962
 20
-427.52545407142117
 30
0.0
 40
5.0
100
AcDbArc
 50
0.0
 51
90.0
  0
LINE
  5
14E
100
AcDbEntity
  8
ADF70-1206
370
              15
390
0
  6
Continuous
 62
               7
100
AcDbLine
 10
766.03579623024598
 20
-427.52544867662453
 30
0.0
 11
766.03579623024598
 21
-607.38724268931037
 31
0.0
  0
LINE
  5
14F
100
AcDbEntity
  8
ADF70-1206
370
              15
390
0
  6
Continuous
 62
               7
100
AcDbLine
 10
745.78061906382027
 20
-612.38724268930855
 30
0.0
 11
460.75266961871421
 21
-612.38724268930855
 31
0.0
  0
LINE
  5
150
100
AcDbEntity
  8
ADF70-1206
370
              15
390
0
  6
STYLE_12
 62
               7
100
AcDbLine
 10
476.0357962302478
 20
-557.38724268930832
 30
0.0
 11
468.42458508775417
 21
-555.92159875354787
 31
0.0
  0
ARC
  5
151
100
AcDbEntity
  8
ADF70-1206
370
              15
390
0
  6
STYLE_12
 62
               7
100
AcDbCircle
 10
505.77515741094612
 20
-415.58876000938636
 30
0.0
 40
145.29206081053459
100
AcDbArc
 50
250.14730305967953
 51
254.26425570349375
  0
ARC
  5
152
100
AcDbEntity
  8
ADF70-1206
370
              15
390
0
  6
STYLE_12
 62
               7
100
AcDbCircle
 10
473.15183335750226
 20
-531.37260439947909
 30
0.0
 40
24.999999999999915
100
AcDbArc
 50
254.2642557034919
 51
259.10032162819738
  0
LINE
  5
153
100
AcDbEntity
  8
ADF70-1206
370
              15
390
0
  6
STYLE_12
 62
               7
100
AcDbLine
 10
556.0357962302478
 20
-557.38724268930832
 30
0.0
 11
563.64700737274143
 21
-555.92159875354787
 31
0.0
  0
ARC
  5
154
100
AcDbEntity
  8
ADF70-1206
370
              15
390
0
  6
STYLE_12
 62
               7
100
AcDbCircle
 10
558.91975910299334
 20
-531.37260439947909
 30
0.0
 40
24.999999999999442
100
AcDbArc
 50
280.89967837180274
 51
285.73574429650438
  0
LINE
  5
155
100
AcDbEntity
  8
ADF70-1206
370
              15
390
0
  6
Continuous
 62
               7
100
AcDbLine
 10
-118.53303613690514
 20
791.31165354085408
 30
0.0
 11
-118.53303613690878
 21
399.16879639799583
 31
0.0
  0
SPLINE
  5
156
100
AcDbEntity
  8
ADF70-1206
370
              15
390
0
  6
STYLE_12
 62
               7
100
AcDbSpline
210
0.0
220
0.0
230
1.0
 70
               8
 71
               2
 72
              16
 73
              13
 74
               0
 42
0.000001
 43
0.000001
 40
0.0
 40
0.0
 40
0.0
 40
1.0
 40
1.0
 40
2.0
 40
3.0
 40
4.0
 40
5.0
 40
6.0
 40
7.0
 40
8.0
 40
8.0
 40
9.0
 40
9.0
 40
9.0
 10
391.3003289946173
 20
-427.06916192777663
 30
0.0
 10
391.32368868765116
 20
-428.18914026657768
 30
0.0
 10
391.34704838068501
 20
-429.30911860537873
 30
0.0
 10
391.50604673706766
 20
-435.67655323944183
 30
0.0
 10
392.03293134681371
 20
-447.29989690476197
 30
0.0
 10
394.95948240651342
 20
-467.44059992532658
 30
0.0
 10
402.85299347507134
 20
-488.4740901602143
 30
0.0
 10
408.22392652528288
 20
-500.19574328877553
 30
0.0
 10
417.73994469623904
 20
-517.63493653040655
 30
0.0
 10
429.76186208066974
 20
-532.68214225725001
 30
0.0
 10
436.30756702595136
 20
-539.14039429406489
 30
0.0
 10
437.43943817416948
 20
-540.1094357427944
 30
0.0
 10
438.57130932238942
 20
-541.07847719152392
 30
0.0
  0
ARC
  5
157
100
AcDbEntity
  8
ADF70-1206
370
              15
390
0
  6
STYLE_12
 62
               7
100
AcDbCircle
 10
473.41367453960629
 20
-505.21750138105728
 30
0.0
 40
50.000000000000334
100
AcDbArc
 50
225.82539311158624
 51
250.14730305967873
  0
SPLINE
  5
158
100
AcDbEntity
  8
ADF70-1206
370
              15
390
0
  6
STYLE_12
 62
               7
100
AcDbSpline
210
0.0
220
0.0
230
1.0
 70
               8
 71
               2
 72
              11
 73
               8
 74
               0
 42
0.000001
 43
0.000001
 40
0.0
 40
0.0
 40
0.0
 40
1.0
 40
1.0
 40
2.0
 40
3.0
 40
3.0
 40
4.0
 40
4.0
 40
4.0
 10
640.76390387402898
 20
-427.41992875738271
 30
0.0
 10
640.75764406594681
 20
-427.71646489423603
 30
0.0
 10
640.75138425786645
 20
-428.01300103108935
 30
0.0
 10
640.663962017421
 20
-432.09853472833839
 30
0.0
 10
640.41159404259815
 20
-439.66667082843543
 30
0.0
 10
640.0980806466614
 20
-444.21496800398364
 30
0.0
 10
640.07900812819571
 20
-444.46687470310627
 30
0.0
 10
640.05993560973184
 20
-444.7187814022289
 30
0.0
  0
ARC
  5
159
100
AcDbEntity
  8
ADF70-1206
370
              15
390
0
  6
STYLE_12
 62
               7
100
AcDbCircle
 10
645.76279019080721
 20
-427.52545407141571
 30
0.0
 40
4.9999999999998295
100
AcDbArc
 50
89.999999999979181
 51
178.79067918674085
  0
LINE
  5
15A
100
AcDbEntity
  8
ADF70-1206
370
              15
390
0
  6
STYLE_12
 62
               7
100
AcDbLine
 10
556.0357962302478
 20
-557.38724268930832
 30
0.0
 11
563.64700737274143
 21
-555.92159875354787
 31
0.0
  0
ARC
  5
15B
100
AcDbEntity
  8
ADF70-1206
370
              15
390
0
  6
STYLE_12
 62
               7
100
AcDbCircle
 10
526.29643504954947
 20
-415.58876000938636
 30
0.0
 40
145.29206081053371
100
AcDbArc
 50
285.73574429650631
 51
289.85269694031984
  0
ARC
  5
15C
100
AcDbEntity
  8
ADF70-1206
370
              15
390
0
  6
STYLE_12
 62
               7
100
AcDbCircle
 10
558.6579179208893
 20
-505.21750138105728
 30
0.0
 40
49.999999999999943
100
AcDbArc
 50
289.85269694032127
 51
314.17460688841379
  0
SPLINE
  5
15D
100
AcDbEntity
  8
ADF70-1206
370
              15
390
0
  6
STYLE_12
 62
               7
100
AcDbSpline
210
0.0
220
0.0
230
1.0
 70
               8
 71
               2
 72
              13
 73
              10
 74
               0
 42
0.000001
 43
0.000001
 40
0.0
 40
0.0
 40
0.0
 40
1.0
 40
1.0
 40
2.0
 40
3.0
 40
4.0
 40
5.0
 40
5.0
 40
6.0
 40
6.0
 40
6.0
 10
635.7913212942658
 20
-469.35229641858842
 30
0.0
 10
635.47845906059592
 20
-470.47259902379375
 30
0.0
 10
635.16559682692787
 20
-471.59290162899907
 30
0.0
 10
631.51604318441969
 20
-483.23467235938898
 30
0.0
 10
622.67777727296561
 20
-502.96279173295426
 30
0.0
 10
611.2056617488015
 20
-521.93190635004771
 30
0.0
 10
600.91227331301707
 20
-534.13192177191172
 30
0.0
 10
595.39623892077725
 20
-539.45527145714709
 30
0.0
 10
594.44826102943989
 20
-540.2668743243355
 30
0.0
 10
593.50028313810435
 20
-541.07847719152392
 30
0.0
  0
SPLINE
  5
15E
100
AcDbEntity
  8
ADF70-1206
370
              15
390
0
  6
STYLE_12
 62
               7
100
AcDbSpline
210
0.0
220
0.0
230
1.0
 70
               8
 71
               2
 72
              12
 73
               9
 74
               0
 42
0.000001
 43
0.000001
 40
0.0
 40
0.0
 40
0.0
 40
1.0
 40
1.0
 40
2.0
 40
3.0
 40
4.0
 40
4.0
 40
5.0
 40
5.0
 40
5.0
 10
640.05993560973184
 20
-444.71878140223072
 30
0.0
 10
640.03452971980914
 20
-445.05433823394179
 30
0.0
 10
640.00912382988645
 20
-445.38989506565287
 30
0.0
 10
639.62434797157221
 20
-450.04007591620194
 30
0.0
 10
638.67993588079844
 20
-456.61755057359352
 30
0.0
 10
637.2665782813674
 20
-464.03142774402824
 30
0.0
 10
635.81931411618461
 20
-469.25205922806327
 30
0.0
 10
635.8053177052243
 20
-469.30217782332494
 30
0.0
 10
635.79132129426398
 20
-469.3522964185866
 30
0.0
  0
CIRCLE
  5
15F
100
AcDbEntity
  8
ADF70-1206
370
              15
390
0
  6
STYLE_12
 62
               7
100
AcDbCircle
 10
-368.54208375595226
 20
729.1354864736096
 30
0.0
 40
17.500000000001265
  0
POLYLINE
  5
160
100
AcDbEntity
  8
ADF70-1206
370
              15
390
0
  6
Continuous
 62
               7
100
AcDb2dPolyline
 66
               1
 10
0.0
 20
0.0
 30
0.0
 70
               1
 75
               5
  0
VERTEX
  5
161
100
AcDbEntity
  8
ADF70-1206
370
              15
390
0
  6
Continuous
 62
               7
100
AcDbVertex
100
AcDb2dVertex
 10
-618.55113137500121
 20
-422.52545407142117
 30
0.0
  0
VERTEX
  5
162
100
AcDbEntity
  8
ADF70-1206
370
              15
390
0
  6
Continuous
 62
               7
100
AcDbVertex
100
AcDb2dVertex
 10
-118.55113137500121
 20
-422.52545407142117
 30
0.0
  0
VERTEX
  5
163
100
AcDbEntity
  8
ADF70-1206
370
              15
390
0
  6
Continuous
 62
               7
100
AcDbVertex
100
AcDb2dVertex
 10
-118.55113137500121
 20
-472.52545407142117
 30
0.0
  0
VERTEX
  5
164
100
AcDbEntity
  8
ADF70-1206
370
              15
390
0
  6
Continuous
 62
               7
100
AcDbVertex
100
AcDb2dVertex
 10
-618.55113137500121
 20
-472.52545407142117
 30
0.0
  0
SEQEND
  5
165
100
AcDbEntity
  8
ADF70-1206
370
              15
390
0
  6
Continuous
 62
               7
  0
LINE
  5
166
100
AcDbEntity
  8
ADF70-1206
370
              15
390
0
  6
Continuous
 62
               7
100
AcDbLine
 10
-118.55113137500121
 20
-422.52545407142117
 30
0.0
 11
-413.42548484272629
 21
-422.52545407142117
 31
0.0
  0
LINE
  5
167
100
AcDbEntity
  8
ADF70-1206
370
              15
390
0
  6
STYLE_12
 62
               7
100
AcDbLine
 10
-368.55113137499757
 20
-607.52545407142134
 30
0.0
 11
-346.05113137499757
 21
-607.52545407142134
 31
0.0
  0
LINE
  5
168
100
AcDbEntity
  8
ADF70-1206
370
              15
390
0
  6
STYLE_12
 62
               7
100
AcDbLine
 10
-368.55113137499757
 20
-557.52545407142202
 30
0.0
 11
-328.55113137499757
 21
-557.52545407142202
 31
0.0
  0
LINE
  5
169
100
AcDbEntity
  8
ADF70-1206
370
              15
390
0
  6
STYLE_12
 62
               7
100
AcDbLine
 10
-368.55113137499757
 20
-569.52545407142202
 30
0.0
 11
-346.05113137499757
 21
-569.52545407142202
 31
0.0
  0
LINE
  5
16A
100
AcDbEntity
  8
ADF70-1206
370
              15
390
0
  6
STYLE_12
 62
               7
100
AcDbLine
 10
-346.05113137499757
 20
-569.52545407142202
 30
0.0
 11
-346.05113137499757
 21
-607.52545407142134
 31
0.0
  0
LINE
  5
16B
100
AcDbEntity
  8
ADF70-1206
370
              15
390
0
  6
STYLE_12
 62
               7
100
AcDbLine
 10
-329.92171073687496
 20
-558.46527991956714
 30
0.0
 11
-346.05113137499757
 21
-569.52545407142202
 31
0.0
  0
ARC
  5
16C
100
AcDbEntity
  8
ADF70-1206
370
              15
390
0
  6
STYLE_12
 62
               7
100
AcDbCircle
 10
-324.26642718135554
 20
-566.71256843802871
 30
0.0
 40
10.000000000003936
100
AcDbArc
 50
101.20060204143449
 51
124.43898930881663
  0
ARC
  5
16D
100
AcDbEntity
  8
ADF70-1206
370
              15
390
0
  6
STYLE_12
 62
               7
100
AcDbCircle
 10
-306.98311389217452
 20
-422.31064659285659
 30
0.0
 40
135.48923595081752
100
AcDbArc
 50
293.61079459640405
 51
357.98730190825097
  0
ARC
  5
16E
100
AcDbEntity
  8
ADF70-1206
370
              15
390
0
  6
STYLE_12
 62
               7
100
AcDbCircle
 10
-166.59832937837928
 20
-427.52545407142117
 30
0.0
 40
5.0
100
AcDbArc
 50
90.0
 51
174.76399229938025
  0
ARC
  5
16F
100
AcDbEntity
  8
ADF70-1206
370
              15
390
0
  6
Continuous
 62
               7
100
AcDbCircle
 10
-248.57547263229935
 20
-609.52545407142338
 30
0.0
 40
2.9999999999979536
100
AcDbArc
 50
270.0
 51
310.79211078230634
  0
LINE
  5
170
100
AcDbEntity
  8
ADF70-1206
370
              15
390
0
  6
STYLE_12
 62
               7
100
AcDbLine
 10
-368.55113137499757
 20
-607.52545407142134
 30
0.0
 11
-391.05113137499757
 21
-607.52545407142134
 31
0.0
  0
LINE
  5
171
100
AcDbEntity
  8
ADF70-1206
370
              15
390
0
  6
STYLE_12
 62
               7
100
AcDbLine
 10
-368.55113137499757
 20
-557.52545407142202
 30
0.0
 11
-408.55113137499757
 21
-557.52545407142202
 31
0.0
  0
LINE
  5
172
100
AcDbEntity
  8
ADF70-1206
370
              15
390
0
  6
STYLE_12
 62
               7
100
AcDbLine
 10
-368.55113137499757
 20
-569.52545407142202
 30
0.0
 11
-391.05113137499757
 21
-569.52545407142202
 31
0.0
  0
LINE
  5
173
100
AcDbEntity
  8
ADF70-1206
370
              15
390
0
  6
STYLE_12
 62
               7
100
AcDbLine
 10
-391.05113137499757
 20
-569.52545407142202
 30
0.0
 11
-391.05113137499757
 21
-607.52545407142134
 31
0.0
  0
LINE
  5
174
100
AcDbEntity
  8
ADF70-1206
370
              15
390
0
  6
STYLE_12
 62
               7
100
AcDbLine
 10
-407.18055201312018
 20
-558.46527991956714
 30
0.0
 11
-391.05113137499757
 21
-569.52545407142202
 31
0.0
  0
ARC
  5
175
100
AcDbEntity
  8
ADF70-1206
370
              15
390
0
  6
STYLE_12
 62
               7
100
AcDbCircle
 10
-412.8358355686396
 20
-566.71256843802871
 30
0.0
 40
10.000000000004009
100
AcDbArc
 50
55.56101069118337
 51
78.799397958565521
  0
ARC
  5
176
100
AcDbEntity
  8
ADF70-1206
370
              15
390
0
  6
STYLE_12
 62
               7
100
AcDbCircle
 10
-430.11914885782062
 20
-422.31064659285659
 30
0.0
 40
135.48923595081854
100
AcDbArc
 50
182.01269809174894
 51
246.38920540359527
  0
ARC
  5
177
100
AcDbEntity
  8
ADF70-1206
370
              15
390
0
  6
STYLE_12
 62
               7
100
AcDbCircle
 10
-570.50393337161768
 20
-427.52545407142117
 30
0.0
 40
5.0000000000000675
100
AcDbArc
 50
5.2360077006197718
 51
89.999999999999986
  0
ARC
  5
178
100
AcDbEntity
  8
ADF70-1206
370
              15
390
0
  6
Continuous
 62
               7
100
AcDbCircle
 10
-488.59145998788154
 20
-609.52545407142338
 30
0.0
 40
2.9999999999988112
100
AcDbArc
 50
229.20788921766729
 51
270.0
  0
ARC
  5
179
100
AcDbEntity
  8
ADF70-1206
370
              15
390
0
  6
STYLE_12
 62
               7
100
AcDbCircle
 10
-394.87210765337659
 20
-185.37013578195013
 30
0.0
 40
372.01732307611684
100
AcDbArc
 50
256.07708475245363
 51
267.53081503494593
  0
ARC
  5
17A
100
AcDbEntity
  8
ADF70-1206
370
              15
390
0
  6
STYLE_12
 62
               7
100
AcDbCircle
 10
-342.40395192538381
 20
-185.39492851952127
 30
0.0
 40
372.01732307611678
100
AcDbArc
 50
272.49610303474725
 51
283.92291524754643
  0
LINE
  5
17B
100
AcDbEntity
  8
ADF70-1206
370
              15
390
0
  6
Continuous
 62
               7
100
AcDbLine
 10
-488.55821073723746
 20
-612.52545407142134
 30
0.0
 11
-248.55821073723746
 21
-612.52545407142134
 31
0.0
  0
ARC
  5
17C
100
AcDbEntity
  8
ADF70-1206
370
              15
390
0
  6
Continuous
 62
               7
100
AcDbCircle
 10
-330.67392054392803
 20
-389.63573496353007
 30
0.0
 40
273.7084393739014
100
AcDbArc
 50
197.62822845009421
 51
234.25943349480613
  0
ARC
  5
17D
100
AcDbEntity
  8
ADF70-1206
370
              15
390
0
  6
Continuous
 62
               7
100
AcDbCircle
 10
-406.48124463564454
 20
-389.58782039550675
 30
0.0
 40
273.70843937390094
100
AcDbArc
 50
305.74056650519356
 51
342.37177154990582
  0
LINE
  5
17E
100
AcDbEntity
  8
ADF70-1206
370
              15
390
0
  6
STYLE_12
 62
               7
100
AcDbLine
 10
-508.53303613690696
 20
-482.49663374959226
 30
0.0
 11
-508.53303613690696
 21
-442.49663374959226
 31
0.0
  0
LINE
  5
17F
100
AcDbEntity
  8
ADF70-1206
370
              15
390
0
  6
STYLE_12
 62
               7
100
AcDbLine
 10
-488.53303613690696
 20
-462.49663374959226
 30
0.0
 11
-528.53303613690696
 21
-462.49663374959226
 31
0.0
  0
CIRCLE
  5
180
100
AcDbEntity
  8
ADF70-1206
370
              15
390
0
  6
STYLE_12
 62
               7
100
AcDbCircle
 10
-508.53303613690696
 20
-462.49663374959226
 30
0.0
 40
10.0
  0
LINE
  5
181
100
AcDbEntity
  8
ADF70-1206
370
              15
390
0
  6
STYLE_12
 62
               7
100
AcDbLine
 10
-208.53303613690696
 20
-462.49663374959226
 30
0.0
 11
-248.53303613690696
 21
-462.49663374959226
 31
0.0
  0
LINE
  5
182
100
AcDbEntity
  8
ADF70-1206
370
              15
390
0
  6
STYLE_12
 62
               7
100
AcDbLine
 10
-228.53303613690696
 20
-442.49663374959226
 30
0.0
 11
-228.53303613690696
 21
-482.49663374959226
 31
0.0
  0
CIRCLE
  5
183
100
AcDbEntity
  8
ADF70-1206
370
              15
390
0
  6
STYLE_12
 62
               7
100
AcDbCircle
 10
-228.53303613690696
 20
-462.49663374959226
 30
0.0
 40
10.0
  0
LINE
  5
184
100
AcDbEntity
  8
ADF70-1206
370
               5
390
0
  6
Continuous
 62
               7
100
AcDbLine
 10
683.53579623024598
 20
-422.76272703571055
 30
0.0
 11
683.53579623024598
 21
-437.76272703571055
 31
0.0
  0
LINE
  5
185
100
AcDbEntity
  8
ADF70-1206
370
               5
390
0
  6
Continuous
 62
               7
100
AcDbLine
 10
718.53579623024598
 20
-422.76272703571055
 30
0.0
 11
718.53579623024598
 21
-437.76272703571055
 31
0.0
  0
ENDSEC
  0
SECTION
  2
OBJECTS
  0
DICTIONARY
  5
19
100
AcDbDictionary
280
               0
281
               1
  3
ACAD_GROUP
350
1A
  3
ACAD_MLINESTYLE
350
1B
  3
ACAD_LAYOUT
350
1E
  3
ACAD_PLOTSETTINGS
350
22
  3
ACAD_PLOTSTYLENAME
350
1F
  0
DICTIONARY
  5
1A
102
{ACAD_REACTORS
330
19
102
}
100
AcDbDictionary
280
               0
281
               1
  0
DICTIONARY
  5
1B
102
{ACAD_REACTORS
330
19
102
}
100
AcDbDictionary
280
               0
281
               1
  3
Standard
350
1C
  0
MLINESTYLE
  5
1C
102
{ACAD_REACTORS
330
1B
102
}
100
AcDbMlineStyle
  2
Standard
 70
               0
  3

 62
               0
 51
90.0
 52
90.0
 71
               2
 49
0.5
 62
             256
  6
ByLayer
 49
-0.5
 62
             256
  6
ByLayer
  0
ACDBDICTIONARYWDFLT
  5
1F
102
{ACAD_REACTORS
330
19
102
}
100
AcDbDictionary
281
               1
  3
Normal
350
1D
100
AcDbDictionaryWithDefault
340
1D
  0
ACDBPLACEHOLDER
  5
1D
102
{ACAD_REACTORS
330
1F
102
}
  0
LAYOUT
  5
20
102
{ACAD_REACTORS
330
1E
102
}
100
AcDbPlotSettings
  1

  2

  4

  6

 40
0.0
 41
0.0
 42
0.0
 43
0.0
 44
0.0
 45
0.0
 46
0.0
 47
0.0
 48
0.0
 49
0.0
140
0.0
141
0.0
142
1.0
143
1.0
 70
            1024
 72
               0
 73
               0
 74
               0
  7

 75
               0
147
1.0
148
0.0
149
0.0
100
AcDbLayout
  1
Model
 70
               0
 71
               0
 10
0.0
 20
0.0
 11
0.0
 21
0.0
 12
0.0
 22
0.0
 32
0.0
 14
0.0
 24
0.0
 34
0.0
 15
0.0
 25
0.0
 35
0.0
146
0.0
 13
0.0
 23
0.0
 33
0.0
 16
0.0
 26
0.0
 36
0.0
 17
0.0
 27
0.0
 37
0.0
 76
               0
330
A
331
0
345
0
346
0
  0
LAYOUT
  5
21
102
{ACAD_REACTORS
330
1E
102
}
100
AcDbPlotSettings
  1

  2

  4

  6

 40
0.0
 41
0.0
 42
0.0
 43
0.0
 44
0.0
 45
0.0
 46
0.0
 47
0.0
 48
0.0
 49
0.0
140
0.0
141
0.0
142
1.0
143
1.0
 70
               0
 72
               0
 73
               0
 74
               0
  7

 75
               0
147
1.0
148
0.0
149
0.0
100
AcDbLayout
  1
Layout1
 70
               0
 71
               0
 10
0.0
 20
0.0
 11
0.0
 21
0.0
 12
0.0
 22
0.0
 32
0.0
 14
0.0
 24
0.0
 34
0.0
 15
0.0
 25
0.0
 35
0.0
146
0.0
 13
0.0
 23
0.0
 33
0.0
 16
0.0
 26
0.0
 36
0.0
 17
0.0
 27
0.0
 37
0.0
 76
               0
330
B
331
0
345
0
346
0
  0
DICTIONARY
  5
1E
102
{ACAD_REACTORS
330
19
102
}
100
AcDbDictionary
280
               0
281
               1
  3
Layout1
350
21
  3
Model
350
20
  0
DICTIONARY
  5
22
102
{ACAD_REACTORS
330
19
102
}
100
AcDbDictionary
280
               0
281
               1
  0
ENDSEC
  0
EOF
