  0
SECTION
  2
HEADER
  9
$ACADVER
  1
AC1015
  9
$ACADMAINTVER
 70
               6
  9
$DWGCODEPAGE
  3
ANSI_932
  9
$INSBASE
 10
0.0
 20
0.0
 30
0.0
  9
$EXTMIN
 10
-292.36072099206831
 20
-878.83751490922702
 30
-14.834305555555554
  9
$EXTMAX
 10
1657.6392790084137
 20
1958.6853002031853
 30
14.834305555555554
  9
$LIMMIN
 10
0.0
 20
0.0
  9
$LIMMAX
 10
0.0
 20
0.0
  9
$ORTHOMODE
 70
               0
  9
$REGENMODE
 70
               1
  9
$FILLMODE
 70
               1
  9
$QTEXTMODE
 70
               0
  9
$MIRRTEXT
 70
               1
  9
$LTSCALE
 40
127.0
  9
$ATTMODE
 70
               1
  9
$TEXTSIZE
 40
0.2
  9
$TRACEWID
 40
1.0
  9
$TEXTSTYLE
  7
Standard
  9
$CLAYER
  8
ADF70-1711
  9
$CELTYPE
  6
Continuous
  9
$CECOLOR
 62
             256
  9
$CELTSCALE
 40
1.0
  9
$DISPSILH
 70
               0
  9
$DIMSCALE
 40
1.0
  9
$DIMASZ
 40
22.4482421875
  9
$DIMEXO
 40
15.875
  9
$DIMDLI
 40
10.16
  9
$DIMRND
 40
0.0
  9
$DIMDLE
 40
1.5874999999999999
  9
$DIMEXE
 40
31.75
  9
$DIMTP
 40
0.0
  9
$DIMTM
 40
0.0
  9
$DIMTXT
 40
24.432617187500004
  9
$DIMCEN
 40
0.0
  9
$DIMTSZ
 40
0.0
  9
$DIMTOL
 70
               0
  9
$DIMLIM
 70
               0
  9
$DIMTIH
 70
               0
  9
$DIMTOH
 70
               0
  9
$DIMSE1
 70
               0
  9
$DIMSE2
 70
               0
  9
$DIMTAD
 70
               1
  9
$DIMZIN
 70
              11
  9
$DIMBLK
  1
VW_SLASH
  9
$DIMASO
 70
               1
  9
$DIMSHO
 70
               1
  9
$DIMPOST
  1
<>
  9
$DIMAPOST
  1
[]
  9
$DIMALT
 70
               0
  9
$DIMALTD
 70
               1
  9
$DIMALTF
 40
1.0
  9
$DIMLFAC
 40
1.0
  9
$DIMTOFL
 70
               1
  9
$DIMTVP
 40
0.0
  9
$DIMTIX
 70
               1
  9
$DIMSOXD
 70
               0
  9
$DIMSAH
 70
               0
  9
$DIMBLK1
  1

  9
$DIMBLK2
  1

  9
$DIMSTYLE
  2
Arch
  9
$DIMCLRD
 70
               0
  9
$DIMCLRE
 70
               0
  9
$DIMCLRT
 70
               0
  9
$DIMTFAC
 40
1.0
  9
$DIMGAP
 40
1.5874999999999999
  9
$DIMJUST
 70
               0
  9
$DIMSD1
 70
               0
  9
$DIMSD2
 70
               0
  9
$DIMTOLJ
 70
               1
  9
$DIMTZIN
 70
              11
  9
$DIMALTZ
 70
              11
  9
$DIMALTTZ
 70
              11
  9
$DIMUPT
 70
               0
  9
$DIMDEC
 70
               1
  9
$DIMTDEC
 70
               1
  9
$DIMALTU
 70
               2
  9
$DIMALTTD
 70
               2
  9
$DIMTXSTY
  7
ＭＳ ゴシック
  9
$DIMAUNIT
 70
               0
  9
$DIMADEC
 70
               2
  9
$DIMALTRND
 40
0.0
  9
$DIMAZIN
 70
               0
  9
$DIMDSEP
 70
              46
  9
$DIMATFIT
 70
               0
  9
$DIMFRAC
 70
               2
  9
$DIMLDRBLK
  1

  9
$DIMLUNIT
 70
               2
  9
$DIMLWD
 70
              -2
  9
$DIMLWE
 70
              -2
  9
$DIMTMOVE
 70
               0
  9
$LUNITS
 70
               2
  9
$LUPREC
 70
               4
  9
$SKETCHINC
 40
0.1
  9
$FILLETRAD
 40
0.0
  9
$AUNITS
 70
               0
  9
$AUPREC
 70
               0
  9
$MENU
  1
acad
  9
$ELEVATION
 40
0.0
  9
$PELEVATION
 40
0.0
  9
$THICKNESS
 40
0.0
  9
$LIMCHECK
 70
               0
  9
$CHAMFERA
 40
0.0
  9
$CHAMFERB
 40
0.0
  9
$CHAMFERC
 40
0.0
  9
$CHAMFERD
 40
0.0
  9
$SKPOLY
 70
               0
  9
$TDCREATE
 40
2455995.723541667
  9
$TDUCREATE
 40
0.000000000
  9
$TDUPDATE
 40
2455995.723541667
  9
$TDUUPDATE
 40
0.000000000
  9
$TDINDWG
 40
0.0000000000
  9
$TDUSRTIMER
 40
0.0000000000
  9
$USRTIMER
 70
               1
  9
$ANGBASE
 50
0.0
  9
$ANGDIR
 70
               0
  9
$PDMODE
 70
               1
  9
$PDSIZE
 40
-2.0
  9
$PLINEWID
 40
0.0
  9
$SPLFRAME
 70
               0
  9
$SPLINETYPE
 70
               6
  9
$SPLINESEGS
 70
               8
  9
$HANDSEED
  5
1F6
  9
$SURFTAB1
 70
               6
  9
$SURFTAB2
 70
               6
  9
$SURFTYPE
 70
               6
  9
$SURFU
 70
               6
  9
$SURFV
 70
               6
  9
$UCSBASE
  2

  9
$UCSNAME
  2

  9
$UCSORG
 10
0.0
 20
0.0
 30
0.0
  9
$UCSXDIR
 10
1.0
 20
0.0
 30
0.0
  9
$UCSYDIR
 10
0.0
 20
1.0
 30
0.0
  9
$UCSORTHOREF
  2

  9
$UCSORTHOVIEW
 70
               0
  9
$UCSORGTOP
 10
0.0
 20
0.0
 30
0.0
  9
$UCSORGBOTTOM
 10
0.0
 20
0.0
 30
0.0
  9
$UCSORGLEFT
 10
0.0
 20
0.0
 30
0.0
  9
$UCSORGRIGHT
 10
0.0
 20
0.0
 30
0.0
  9
$UCSORGFRONT
 10
0.0
 20
0.0
 30
0.0
  9
$UCSORGBACK
 10
0.0
 20
0.0
 30
0.0
  9
$PUCSBASE
  2

  9
$PUCSNAME
  2

  9
$PUCSORG
 10
0.0
 20
0.0
 30
0.0
  9
$PUCSXDIR
 10
1.0
 20
0.0
 30
0.0
  9
$PUCSYDIR
 10
0.0
 20
1.0
 30
0.0
  9
$PUCSORTHOREF
  2

  9
$PUCSORTHOVIEW
 70
               0
  9
$PUCSORGTOP
 10
0.0
 20
0.0
 30
0.0
  9
$PUCSORGBOTTOM
 10
0.0
 20
0.0
 30
0.0
  9
$PUCSORGLEFT
 10
0.0
 20
0.0
 30
0.0
  9
$PUCSORGRIGHT
 10
0.0
 20
0.0
 30
0.0
  9
$PUCSORGFRONT
 10
0.0
 20
0.0
 30
0.0
  9
$PUCSORGBACK
 10
0.0
 20
0.0
 30
0.0
  9
$USERI1
 70
               0
  9
$USERI2
 70
               0
  9
$USERI3
 70
               0
  9
$USERI4
 70
               0
  9
$USERI5
 70
               0
  9
$USERR1
 40
0.0
  9
$USERR2
 40
0.0
  9
$USERR3
 40
0.0
  9
$USERR4
 40
0.0
  9
$USERR5
 40
0.0
  9
$WORLDVIEW
 70
               1
  9
$SHADEDGE
 70
               3
  9
$SHADEDIF
 70
              70
  9
$TILEMODE
 70
               1
  9
$MAXACTVP
 70
              64
  9
$PINSBASE
 10
0.0
 20
0.0
 30
0.0
  9
$PLIMCHECK
 70
               0
  9
$PEXTMIN
 10
1.0000000000000000E+20
 20
1.0000000000000000E+20
 30
1.0000000000000000E+20
  9
$PEXTMAX
 10
-1.0000000000000000E+20
 20
-1.0000000000000000E+20
 30
-1.0000000000000000E+20
  9
$PLIMMIN
 10
0.0
 20
0.0
  9
$PLIMMAX
 10
12.0
 20
9.0
  9
$UNITMODE
 70
               0
  9
$VISRETAIN
 70
               0
  9
$PLINEGEN
 70
               1
  9
$PSLTSCALE
 70
               0
  9
$TREEDEPTH
 70
            3020
  9
$CMLSTYLE
  2
Standard
  9
$CMLJUST
 70
               0
  9
$CMLSCALE
 40
1.0
  9
$PROXYGRAPHICS
 70
               0
  9
$MEASUREMENT
 70
               1
  9
$CELWEIGHT
370
               0
  9
$ENDCAPS
280
               0
  9
$JOINSTYLE
280
               0
  9
$LWDISPLAY
290
               1
  9
$INSUNITS
 70
               4
  9
$HYPERLINKBASE
  1

  9
$STYLESHEET
  1

  9
$XEDIT
290
               1
  9
$CEPSNTYPE
380
               0
  9
$PSTYLEMODE
290
               1
  9
$FINGERPRINTGUID
  2

  9
$VERSIONGUID
  2

  9
$EXTNAMES
290
               1
  9
$PSVPSCALE
 40
0.0
  0
ENDSEC
  0
SECTION
  2
CLASSES
  0
CLASS
  1
LWPOLYLINE
  2
AcDbPolyline
  3
AutoCAD 2000
 90
        0
280
               0
281
               1
  0
CLASS
  1
IMAGE
  2
AcDbRasterImage
  3
ISM
 90
      127
280
               0
281
               1
  0
CLASS
  1
OLE2FRAME
  2
AcDbOle2Frame
  3
AutoCAD 2000
 90
        0
280
               0
281
               1
  0
CLASS
  1
HATCH
  2
AcDbHatch
  3
AutoCAD 2000
 90
        0
280
               0
281
               1
  0
CLASS
  1
DICTIONARYVAR
  2
AcDbDictionaryVar
  3
AutoCAD 2000
 90
        0
280
               0
281
               0
  0
CLASS
  1
RASTERVARIABLES
  2
AcDbRasterVariables
  3
ISM
 90
        0
280
               0
281
               0
  0
CLASS
  1
IMAGEDEF
  2
AcDbRasterImageDef
  3
ISM
 90
        0
280
               0
281
               0
  0
CLASS
  1
IMAGEDEF_REACTOR
  2
AcDbRasterImageDefReactor
  3
ISM
 90
        1
280
               0
281
               0
  0
CLASS
  1
IDBUFFER
  2
AcDbIdBuffer
  3
AutoCAD 2000
 90
        0
280
               0
281
               0
  0
CLASS
  1
SPATIAL_FILTER
  2
AcDbSpatialFilter
  3
AutoCAD 2000
 90
        0
280
               0
281
               0
  0
CLASS
  1
XRECORD
  2
AcDbXrecord
  3
AutoCAD 2000
 90
        0
280
               0
281
               0
  0
CLASS
  1
SORTENTSTABLE
  2
AcDbSortentsTable
  3
AutoCAD 2000
 90
        0
280
               0
281
               0
  0
CLASS
  1
LAYER_INDEX
  2
AcDbLayerIndex
  3
AutoCAD 2000
 90
        0
280
               0
281
               0
  0
CLASS
  1
SPATIAL_INDEX
  2
AcDbSpatialIndex
  3
AutoCAD 2000
 90
        0
280
               0
281
               0
  0
CLASS
  1
OBJECT_PTR
  2
CAseDLPNTableRecord
  3
"ASE-LPNTableRecord"
 90
        1
280
               0
281
               0
  0
CLASS
  1
LAYOUT
  2
AcDbLayout
  3
AutoCAD 2000
 90
        0
280
               0
281
               0
  0
CLASS
  1
PLOTSETTINGS
  2
AcDbPlotSettings
  3
AutoCAD 2000
 90
        0
280
               0
281
               0
  0
CLASS
  1
ACDBDICTIONARYWDFLT
  2
AcDbDictionaryWithDefault
  3
AutoCAD 2000
 90
        0
280
               0
281
               0
  0
CLASS
  1
ACDBPLACEHOLDER
  2
AcDbPlaceHolder
  3
AutoCAD 2000
 90
        0
280
               0
281
               0
  0
ENDSEC
  0
SECTION
  2
TABLES
  0
TABLE
  2
VPORT
  5
7
100
AcDbSymbolTable
 70
               1
  0
VPORT
  5
15
100
AcDbSymbolTableRecord
100
AcDbViewportTableRecord
  2
*ACTIVE
 70
               0
 10
0.0
 20
0.0
 11
1.0
 21
1.0
 12
682.63927900817271
 22
539.9238926469792
 13
0.0
 23
0.0
 14
1.0
 24
1.0
 15
0.0
 25
0.0
 16
0.0
 26
0.0
 36
1.0
 17
0.0
 27
0.0
 37
0.0
 40
2837.5228151124124
 41
0.688564
 42
50.0
 43
0.0
 44
0.0
 50
0.0
 51
0.0
 71
               0
 72
            2000
 73
               1
 74
               1
 75
               0
 76
               0
 77
               0
 78
               0
281
               0
 65
               0
110
0.0
120
0.0
130
0.0
111
1.0
121
0.0
131
0.0
112
0.0
122
1.0
132
0.0
345
0
346
0
 79
               0
146
0.0
  0
ENDTAB
  0
TABLE
  2
LTYPE
  5
4
100
AcDbSymbolTable
 70
              16
  0
LTYPE
  5
11
100
AcDbSymbolTableRecord
100
AcDbLinetypeTableRecord
  2
ByBlock
 70
              64
  3

 72
              65
 73
               0
 40
0.0
  0
LTYPE
  5
12
100
AcDbSymbolTableRecord
100
AcDbLinetypeTableRecord
  2
ByLayer
 70
              64
  3

 72
              65
 73
               0
 40
0.0
  0
LTYPE
  5
13
100
AcDbSymbolTableRecord
100
AcDbLinetypeTableRecord
  2
Continuous
 70
              64
  3
Solid line
 72
              65
 73
               0
 40
0.0
  0
LTYPE
  5
37
100
AcDbSymbolTableRecord
100
AcDbLinetypeTableRecord
  2
STYLE_01
 70
               0
  3

 72
              65
 73
               2
 40
2.3890126286653786
 49
1.5927926699240293
 74
               0
 49
-0.7962199587413492
 74
               0
  0
LTYPE
  5
38
100
AcDbSymbolTableRecord
100
AcDbLinetypeTableRecord
  2
STYLE_02
 70
               0
  3

 72
              65
 73
               2
 40
1.7483677671342011
 49
0.9158116995620338
 74
               0
 49
-0.8325560675721673
 74
               0
  0
LTYPE
  5
39
100
AcDbSymbolTableRecord
100
AcDbLinetypeTableRecord
  2
STYLE_03
 70
               0
  3

 72
              65
 73
               2
 40
1.7483677671342011
 49
0.9158116995620338
 74
               0
 49
-0.8325560675721673
 74
               0
  0
LTYPE
  5
3A
100
AcDbSymbolTableRecord
100
AcDbLinetypeTableRecord
  2
STYLE_04
 70
               0
  3

 72
              65
 73
               2
 40
0.611084
 49
0.52777
 74
               0
 49
-0.083314
 74
               0
  0
LTYPE
  5
3B
100
AcDbSymbolTableRecord
100
AcDbLinetypeTableRecord
  2
STYLE_05
 70
               0
  3

 72
              65
 73
               2
 40
0.083312
 49
0.02777
 74
               0
 49
-0.055542
 74
               0
  0
LTYPE
  5
3C
100
AcDbSymbolTableRecord
100
AcDbLinetypeTableRecord
  2
STYLE_06
 70
               0
  3

 72
              65
 73
               4
 40
0.416656
 49
0.25
 74
               0
 49
-0.083312
 74
               0
 49
0.027772
 74
               0
 49
-0.055572
 74
               0
  0
LTYPE
  5
3D
100
AcDbSymbolTableRecord
100
AcDbLinetypeTableRecord
  2
STYLE_07
 70
               0
  3

 72
              65
 73
               6
 40
0.75
 49
0.25
 74
               0
 49
-0.083312
 74
               0
 49
0.2500000000000001
 74
               0
 49
-0.083344
 74
               0
 49
0.027772
 74
               0
 49
-0.055572
 74
               0
  0
LTYPE
  5
3E
100
AcDbSymbolTableRecord
100
AcDbLinetypeTableRecord
  2
STYLE_08
 70
               0
  3

 72
              65
 73
               6
 40
0.5
 49
0.25
 74
               0
 49
-0.083312
 74
               0
 49
0.027772
 74
               0
 49
-0.055572
 74
               0
 49
0.027772
 74
               0
 49
-0.055572
 74
               0
  0
LTYPE
  5
3F
100
AcDbSymbolTableRecord
100
AcDbLinetypeTableRecord
  2
STYLE_09
 70
               0
  3

 72
              65
 73
               4
 40
2.0
 49
1.5
 74
               0
 49
-0.1111139999999999
 74
               0
 49
0.2777720000000001
 74
               0
 49
-0.1111139999999999
 74
               0
  0
LTYPE
  5
40
100
AcDbSymbolTableRecord
100
AcDbLinetypeTableRecord
  2
STYLE_10
 70
               0
  3

 72
              65
 73
               6
 40
2.375
 49
1.5
 74
               0
 49
-0.1111139999999999
 74
               0
 49
0.2777720000000001
 74
               0
 49
-0.1111139999999999
 74
               0
 49
0.25
 74
               0
 49
-0.125
 74
               0
  0
LTYPE
  5
41
100
AcDbSymbolTableRecord
100
AcDbLinetypeTableRecord
  2
STYLE_11
 70
               0
  3

 72
              65
 73
               2
 40
0.0277777952755906
 49
0.0138888976377953
 74
               0
 49
-0.0138888976377953
 74
               0
  0
LTYPE
  5
42
100
AcDbSymbolTableRecord
100
AcDbLinetypeTableRecord
  2
STYLE_12
 70
               0
  3

 72
              65
 73
               2
 40
0.1574803149606299
 49
0.078740157480315
 74
               0
 49
-0.078740157480315
 74
               0
  0
LTYPE
  5
43
100
AcDbSymbolTableRecord
100
AcDbLinetypeTableRecord
  2
STYLE_13
 70
               0
  3

 72
              65
 73
               2
 40
0.0375
 49
0.025
 74
               0
 49
-0.0125
 74
               0
  0
ENDTAB
  0
TABLE
  2
LAYER
  5
2
100
AcDbSymbolTable
 70
               5
  0
LAYER
  5
14
100
AcDbSymbolTableRecord
100
AcDbLayerTableRecord
  2
0
 70
               0
 62
               7
  6
Continuous
290
               1
370
              -3
390
1D
  0
LAYER
  5
44
100
AcDbSymbolTableRecord
100
AcDbLayerTableRecord
  2
Defpoints
 70
               0
 62
               7
  6
Continuous
290
               0
370
              -3
390
1D
  0
LAYER
  5
45
100
AcDbSymbolTableRecord
100
AcDbLayerTableRecord
  2
template
 70
               0
 62
               7
  6
Continuous
290
               1
370
              -3
390
1D
  0
LAYER
  5
46
100
AcDbSymbolTableRecord
100
AcDbLayerTableRecord
  2
notes
 70
               0
 62
               7
  6
Continuous
290
               1
370
              -3
390
1D
  0
LAYER
  5
47
100
AcDbSymbolTableRecord
100
AcDbLayerTableRecord
  2
ADF70-1711
 70
               0
 62
               7
  6
Continuous
290
               1
370
              -3
390
1D
  0
ENDTAB
  0
TABLE
  2
STYLE
  5
3
100
AcDbSymbolTable
 70
               3
  0
STYLE
  5
17
100
AcDbSymbolTableRecord
100
AcDbTextStyleTableRecord
  2
Standard
 70
               0
 40
0.0
 41
1.0
 50
0.0
 71
               0
 42
0.0
  3
txt
  4
BIGFONT.SHX
  0
STYLE
  5
35
100
AcDbSymbolTableRecord
100
AcDbTextStyleTableRecord
  2
ＭＳ ゴシック
 70
               0
 40
0.0
 41
1.0
 50
0.0
 71
               0
 42
0.0
  3

  4
ＭＳ ゴシック
1001
ACAD
1000
ＭＳ ゴシック
1071
        0
  0
STYLE
  5
36
100
AcDbSymbolTableRecord
100
AcDbTextStyleTableRecord
  2
ＭＳゴシック
 70
               0
 40
0.0
 41
1.0
 50
0.0
 71
               0
 42
0.0
  3

  4
ＭＳゴシック
1001
ACAD
1000
ＭＳゴシック
1071
        0
  0
ENDTAB
  0
TABLE
  2
VIEW
  5
5
100
AcDbSymbolTable
 70
               0
  0
ENDTAB
  0
TABLE
  2
UCS
  5
6
100
AcDbSymbolTable
 70
               0
  0
ENDTAB
  0
TABLE
  2
APPID
  5
8
100
AcDbSymbolTable
 70
               1
  0
APPID
  5
16
100
AcDbSymbolTableRecord
100
AcDbRegAppTableRecord
  2
ACAD
 70
               0
  0
ENDTAB
  0
TABLE
  2
DIMSTYLE
  5
9
100
AcDbSymbolTable
 70
               3
100
AcDbDimStyleTable
 71
               0
  0
DIMSTYLE
105
18
100
AcDbSymbolTableRecord
100
AcDbDimStyleTableRecord
  2
Standard
 70
               0
  3

  4

 40
1.0
 41
0.18
 42
0.0625
 43
0.38
 44
0.18
 45
0.0
 46
0.0
 47
0.0
 48
0.0
 71
               0
 72
               0
 73
               1
 74
               1
 75
               0
 76
               0
 77
               0
 78
               0
 79
               0
140
0.18
141
0.09
142
0.0
143
25.399999999999999
144
1.0
145
0.0
146
1.0
147
0.09
148
0.0
170
               0
171
               2
172
               0
173
               0
174
               0
175
               0
176
               0
177
               0
178
               0
179
               0
271
               4
272
               4
273
               2
274
               2
275
               0
276
               0
277
               2
278
              46
279
               0
280
               0
281
               0
282
               0
283
               1
284
               0
285
               0
286
               0
288
               0
289
               3
340
17
341
0
342
0
343
0
344
0
371
              -2
372
              -2
  0
DIMSTYLE
105
50
100
AcDbSymbolTableRecord
100
AcDbDimStyleTableRecord
  2
tform線あり
 70
               0
  3
<>
  4
[]
 40
1.0
 41
3.999755859375
 42
24.999999999999996
 43
0.9999999999999999
 44
0.0
 45
0.0
 46
0.0
 47
0.0
 48
0.0
 71
               0
 72
               0
 73
               0
 74
               0
 75
               0
 76
               0
 77
               1
 78
              11
 79
               0
140
24.432617187500004
141
0.0
142
0.0
143
1.0
144
1.0
145
0.0
146
1.0
147
0.4999999999999999
148
0.0
170
               0
171
               1
172
               1
173
               0
174
               1
175
               0
176
               0
177
               0
178
               0
179
               2
271
               1
272
               1
273
               2
274
               2
275
               0
276
               2
277
               2
278
              46
279
               0
280
               0
281
               0
282
               0
283
               1
284
              11
285
              11
286
              11
288
               0
289
               0
340
35
341
48
342
48
343
0
344
0
371
              -2
372
              -2
  0
DIMSTYLE
105
5A
100
AcDbSymbolTableRecord
100
AcDbDimStyleTableRecord
  2
Arch
 70
               0
  3
<>
  4
[]
 40
1.0
 41
22.4482421875
 42
15.875
 43
10.16
 44
31.75
 45
0.0
 46
1.5874999999999999
 47
0.0
 48
0.0
 71
               0
 72
               0
 73
               0
 74
               0
 75
               0
 76
               0
 77
               1
 78
              11
 79
               0
140
24.432617187500004
141
0.0
142
0.0
143
1.0
144
1.0
145
0.0
146
1.0
147
1.5874999999999999
148
0.0
170
               0
171
               1
172
               1
173
               0
174
               1
175
               0
176
               0
177
               0
178
               0
179
               2
271
               1
272
               1
273
               2
274
               2
275
               0
276
               2
277
               2
278
              46
279
               0
280
               0
281
               0
282
               0
283
               1
284
              11
285
              11
286
              11
288
               0
289
               0
340
35
341
56
342
51
343
0
344
0
371
              -2
372
              -2
  0
ENDTAB
  0
TABLE
  2
BLOCK_RECORD
  5
1
100
AcDbSymbolTable
 70
              21
  0
BLOCK_RECORD
  5
A
100
AcDbSymbolTableRecord
100
AcDbBlockTableRecord
  2
*MODEL_SPACE
340
20
  0
BLOCK_RECORD
  5
B
100
AcDbSymbolTableRecord
100
AcDbBlockTableRecord
  2
*PAPER_SPACE
340
21
  0
BLOCK_RECORD
  5
48
100
AcDbSymbolTableRecord
100
AcDbBlockTableRecord
  2
_DOT
340
0
  0
BLOCK_RECORD
  5
51
100
AcDbSymbolTableRecord
100
AcDbBlockTableRecord
  2
VW_SLASH
340
0
  0
BLOCK_RECORD
  5
56
100
AcDbSymbolTableRecord
100
AcDbBlockTableRecord
  2
VW_FILLEDARROW
340
0
  0
BLOCK_RECORD
  5
23
100
AcDbSymbolTableRecord
100
AcDbBlockTableRecord
  2
グループ
340
0
102
{BLKREFS
331
14A
102
}
  0
BLOCK_RECORD
  5
24
100
AcDbSymbolTableRecord
100
AcDbBlockTableRecord
  2
*D4
340
0
  0
BLOCK_RECORD
  5
25
100
AcDbSymbolTableRecord
100
AcDbBlockTableRecord
  2
*D5
340
0
  0
BLOCK_RECORD
  5
26
100
AcDbSymbolTableRecord
100
AcDbBlockTableRecord
  2
*D6
340
0
  0
BLOCK_RECORD
  5
27
100
AcDbSymbolTableRecord
100
AcDbBlockTableRecord
  2
*D7
340
0
  0
BLOCK_RECORD
  5
28
100
AcDbSymbolTableRecord
100
AcDbBlockTableRecord
  2
*D8
340
0
  0
BLOCK_RECORD
  5
29
100
AcDbSymbolTableRecord
100
AcDbBlockTableRecord
  2
*D9
340
0
  0
BLOCK_RECORD
  5
2A
100
AcDbSymbolTableRecord
100
AcDbBlockTableRecord
  2
*D10
340
0
  0
BLOCK_RECORD
  5
2B
100
AcDbSymbolTableRecord
100
AcDbBlockTableRecord
  2
*D11
340
0
  0
BLOCK_RECORD
  5
2C
100
AcDbSymbolTableRecord
100
AcDbBlockTableRecord
  2
*D12
340
0
  0
BLOCK_RECORD
  5
2D
100
AcDbSymbolTableRecord
100
AcDbBlockTableRecord
  2
*D13
340
0
  0
BLOCK_RECORD
  5
2E
100
AcDbSymbolTableRecord
100
AcDbBlockTableRecord
  2
*D14
340
0
  0
BLOCK_RECORD
  5
2F
100
AcDbSymbolTableRecord
100
AcDbBlockTableRecord
  2
*D15
340
0
  0
BLOCK_RECORD
  5
30
100
AcDbSymbolTableRecord
100
AcDbBlockTableRecord
  2
*D16
340
0
  0
BLOCK_RECORD
  5
31
100
AcDbSymbolTableRecord
100
AcDbBlockTableRecord
  2
*D17
340
0
  0
BLOCK_RECORD
  5
32
100
AcDbSymbolTableRecord
100
AcDbBlockTableRecord
  2
*D18
340
0
  0
BLOCK_RECORD
  5
33
100
AcDbSymbolTableRecord
100
AcDbBlockTableRecord
  2
*D19
340
0
  0
BLOCK_RECORD
  5
34
100
AcDbSymbolTableRecord
100
AcDbBlockTableRecord
  2
*D20
340
0
  0
ENDTAB
  0
ENDSEC
  0
SECTION
  2
BLOCKS
  0
BLOCK
  5
D
100
AcDbEntity
  8
0
390
0
100
AcDbBlockBegin
  2
*MODEL_SPACE
 70
               0
 10
0.0
 20
0.0
 30
0.0
  3
*MODEL_SPACE
  1

  0
ENDBLK
  5
E
100
AcDbEntity
  8
0
390
0
100
AcDbBlockEnd
  0
BLOCK
  5
F
100
AcDbEntity
 67
               1
  8
0
390
0
100
AcDbBlockBegin
  2
*PAPER_SPACE
 70
               0
 10
0.0
 20
0.0
 30
0.0
  3
*PAPER_SPACE
  1

  0
ENDBLK
  5
10
100
AcDbEntity
 67
               1
  8
0
390
0
100
AcDbBlockEnd
  0
BLOCK
  5
49
100
AcDbEntity
  8
0
390
0
100
AcDbBlockBegin
  2
_DOT
 70
               0
 10
0.0
 20
0.0
 30
0.0
  3
_DOT
  1

  0
POLYLINE
  5
4A
100
AcDbEntity
  8
0
370
              -2
390
0
  6
ByBlock
 62
               0
100
AcDb2dPolyline
 66
               1
 10
0.0
 20
0.0
 30
0.0
 70
               1
 40
0.5
 41
0.5
  0
VERTEX
  5
4B
100
AcDbEntity
  8
0
370
              -2
390
0
  6
ByBlock
 62
               0
100
AcDbVertex
100
AcDb2dVertex
 10
-0.25
 20
0.0
 30
0.0
 42
1.0
  0
VERTEX
  5
4C
100
AcDbEntity
  8
0
370
              -2
390
0
  6
ByBlock
 62
               0
100
AcDbVertex
100
AcDb2dVertex
 10
0.25
 20
0.0
 30
0.0
 42
1.0
  0
SEQEND
  5
4D
100
AcDbEntity
  8
0
390
0
  0
LINE
  5
4E
100
AcDbEntity
  8
0
370
              -2
390
0
  6
ByBlock
 62
               0
100
AcDbLine
 10
-0.5
 20
0.0
 30
0.0
 11
-1.0
 21
0.0
 31
0.0
  0
ENDBLK
  5
4F
100
AcDbEntity
  8
0
390
0
100
AcDbBlockEnd
  0
BLOCK
  5
52
100
AcDbEntity
  8
0
370
              -2
390
0
  6
ByBlock
 62
               0
100
AcDbBlockBegin
  2
VW_SLASH
 70
               0
 10
0.0
 20
0.0
 30
0.0
  3
VW_SLASH
  1

  0
LINE
  5
53
100
AcDbEntity
  8
0
370
              -2
390
0
  6
ByBlock
 62
               0
100
AcDbLine
 10
0.0
 20
0.0
 30
0.0
 11
-1.0
 21
0.0
 31
0.0
  0
LINE
  5
54
100
AcDbEntity
  8
0
370
              20
390
0
  6
ByBlock
 62
               0
100
AcDbLine
 10
-0.4987813153181721
 20
-0.4987813153181719
 30
0.0
 11
0.4987813153181721
 21
0.4987813153181719
 31
0.0
  0
ENDBLK
  5
55
100
AcDbEntity
  8
0
390
0
100
AcDbBlockEnd
  0
BLOCK
  5
57
100
AcDbEntity
  8
0
370
              -2
390
0
  6
ByBlock
 62
               0
100
AcDbBlockBegin
  2
VW_FILLEDARROW
 70
               0
 10
0.0
 20
0.0
 30
0.0
  3
VW_FILLEDARROW
  1

  0
SOLID
  5
58
100
AcDbEntity
  8
0
370
              -2
390
0
 62
               0
100
AcDbTrace
 10
0.0
 20
0.0
 30
0.0
 11
-1.4107666015625
 21
-0.3780137715974714
 31
0.0
 12
-1.4107666015625
 22
0.3780137715974717
 32
0.0
 13
-1.4107666015625
 23
0.3780137715974717
 33
0.0
  0
ENDBLK
  5
59
100
AcDbEntity
  8
0
390
0
100
AcDbBlockEnd
  0
BLOCK
  5
5B
100
AcDbEntity
  8
template
390
0
100
AcDbBlockBegin
  2
グループ
 70
               0
 10
0.0
 20
0.0
 30
0.0
  3
グループ
  1

  0
LWPOLYLINE
  5
5C
100
AcDbEntity
  8
0
370
              15
390
0
  6
Continuous
 62
               7
100
AcDbPolyline
 90
        8
 70
             129
 10
887.1494703967951
 20
-1333.1117478969988
 10
887.1494703967951
 20
-1339.1091365905747
 10
877.64827347879191
 20
-1339.1091365905747
 10
877.64827347879191
 20
-1363.5600998540835
 10
869.29289621700855
 20
-1363.5600998540835
 10
869.29289621700855
 20
-1339.1091365905747
 10
859.95993927069912
 20
-1339.1091365905747
 10
859.95993927069912
 20
-1333.1117478969988
  0
LWPOLYLINE
  5
5D
100
AcDbEntity
  8
0
370
              15
390
0
  6
Continuous
 62
               7
100
AcDbPolyline
 90
      101
 70
             128
 10
899.87776222735238
 20
-1333.8399963899353
 10
899.89311225613653
 20
-1333.8356356332504
 42
-0.0222221607809749
 10
900.18311683280854
 20
-1333.7670111680056
 10
900.19891059680549
 20
-1333.764007744908
 42
-0.0146883565585785
 10
900.46161330202585
 20
-1333.7220045579593
 42
-0.0127458844185287
 10
900.72625226917978
 20
-1333.6944675898867
 10
900.78870734749171
 20
-1333.6895741672986
 42
-0.0198099018569146
 10
901.17955645696452
 20
-1333.6744890099021
 10
901.23136792641208
 20
-1333.6745427855672
 42
-0.014761738276486
 10
901.72599138738349
 20
-1333.6896628108118
 10
901.79868284226279
 20
-1333.6940354176998
 42
-0.0162624549004861
 10
902.18883647172652
 20
-1333.7302682929719
 10
902.31036886298568
 20
-1333.7455548519686
 42
-0.008002087467056
 10
902.45594789407687
 20
-1333.7662376992369
 10
902.49426736467171
 20
-1333.7723089770479
 42
-0.0053821929672154
 10
902.56275146998678
 20
-1333.7839165008695
 10
901.83634577078783
 20
-1335.9648449565834
 42
0.0108667757411867
 10
901.76902870066078
 20
-1335.9516578413641
 10
901.73156067746777
 20
-1335.9451600987691
 42
0.0170663203308822
 10
901.58834389054994
 20
-1335.9253305014772
 10
901.52046855786875
 20
-1335.9182833308898
 42
0.022016237527631
 10
901.2400891500132
 20
-1335.9016009701197
 10
901.16223358296531
 20
-1335.9004016028532
 42
0.0282606915780637
 10
900.82659725938493
 20
-1335.9142048798221
 10
900.78268398561215
 20
-1335.9185048698259
 42
0.0169677213688884
 10
900.53675949065337
 20
-1335.951041919378
 42
0.0190576269873808
 10
900.2938515280664
 20
-1336.0011887914859
 10
900.28759233996198
 20
-1336.0027317655936
 42
0.021368564284488
 10
900.03720785548273
 20
-1336.0759320506986
 10
900.03171796056768
 20
-1336.0777950467573
 42
0.0237595297591652
 10
899.77822307566919
 20
-1336.1774795686529
 10
899.77312100163954
 20
-1336.179771344131
 42
0.0261857468807912
 10
899.52095022540982
 20
-1336.3093076815053
 10
899.51052403632195
 20
-1336.3153731559744
 42
0.0272553062030576
 10
899.27409426108397
 20
-1336.4707453619185
 10
899.2393312475748
 20
-1336.4964065100105
 42
0.0325996893169864
 10
899.08917590392275
 20
-1336.623154382982
 10
899.06546647479968
 20
-1336.6459724114945
 42
0.0138050960668641
 10
898.97358331859004
 20
-1336.7394220730466
 42
0.0125280103778496
 10
898.8867407857548
 20
-1336.8375853996495
 10
898.86306034084873
 20
-1336.8657438978339
 42
0.0205218024734121
 10
898.7379602653341
 20
-1337.0275372120632
 10
898.71549392484712
 20
-1337.0591969418899
 42
0.0163110129596291
 10
898.55978354559591
 20
-1337.2945273769599
 10
898.55705964954495
 20
-1337.2989511389453
 42
0.0131897341886922
 10
898.41025912863995
 20
-1337.5520832313086
 10
898.40855903327292
 20
-1337.5552014704454
 42
0.0107895576065752
 10
898.27078233106397
 20
-1337.8214166800769
 10
898.27004944153714
 20
-1337.8229109127271
 42
0.0091371507214226
 10
898.14156949288463
 20
-1338.0974361104938
 10
898.11182386147857
 20
-1338.1641426176457
 42
0.0135418326356493
 10
897.94010992240771
 20
-1338.5790804029123
 10
897.906505113972
 20
-1338.6669465451973
 42
0.0092834542407693
 10
897.73527605405206
 20
-1339.140845043501
 10
897.70965892633546
 20
-1339.2160861132913
 42
0.0054261043577553
 10
897.60202077804161
 20
-1339.5438500863593
 10
897.5844947918506
 20
-1339.5992382486324
 42
0.000822509078715
 10
897.51582474003271
 20
-1339.8175070067387
 10
896.53113560810061
 20
-1342.8423982999952
 10
899.76375944817346
 20
-1342.8423982999952
 10
899.25956701832047
 20
-1344.7468765983476
 10
896.00351073633692
 20
-1344.7468765983476
 10
890.17436170398332
 20
-1363.5600996643525
 10
888.34926409367336
 20
-1363.5600996643525
 10
894.18394212917383
 20
-1344.7468765983476
 10
891.77882576013371
 20
-1344.7468765983476
 10
892.28301818998671
 20
-1342.8423982999952
 10
894.71156700093752
 20
-1342.8423982999952
 10
895.57172191912514
 20
-1340.2059852992963
 42
-0.0005863560658191
 10
895.60845659727261
 20
-1340.0891588791822
 10
895.68454443098881
 20
-1339.8481665796191
 42
-0.0087522378931626
 10
895.88401257444491
 20
-1339.2528904924752
 10
895.97627684985878
 20
-1338.9927503239614
 42
-0.0077400953827263
 10
896.2342105089906
 20
-1338.2997456464113
 10
896.24997548057115
 20
-1338.2593147630212
 42
-0.0082369946332119
 10
896.4970599511812
 20
-1337.6552356968295
 42
-0.008572523836393
 10
896.76430604718075
 20
-1337.0598096575493
 10
896.86593564819282
 20
-1336.8433885555542
 42
-0.0168109410599879
 10
897.15288007692152
 20
-1336.2821810294531
 10
897.27872346735592
 20
-1336.0552169965008
 42
-0.0007817726848973
 10
897.33300781743719
 20
-1335.9576727514245
 10
897.3331361234691
 20
-1335.9574430426619
 42
-0.0036626142180655
 10
897.38802398747566
 20
-1335.8608451627197
 42
-0.0080221150663292
 10
897.44514824287853
 20
-1335.7655659279737
 10
897.47584819424401
 20
-1335.7161749788447
 42
-0.0202139325561984
 10
897.60350393405508
 20
-1335.5281933781571
 10
897.65757139923835
 20
-1335.4551145139224
 42
-0.0249323791800509
 10
897.91673419295512
 20
-1335.1390692717705
 10
897.9408740070844
 20
-1335.1124549988554
 42
-0.024213212154117
 10
898.28055474862595
 20
-1334.7725715126521
 10
898.32846632137694
 20
-1334.7290623764659
 42
-0.0251017527855974
 10
898.61244802201827
 20
-1334.4960696307007
 10
898.61389349883882
 20
-1334.4950003731167
 42
-0.0130868069037356
 10
898.91215414878889
 20
-1334.2862199045792
 10
898.91371596792783
 20
-1334.2851864643067
 42
-0.0290329526394446
 10
899.22482710932445
 20
-1334.1043609626749
 10
899.25467267130909
 20
-1334.089258579836
 42
-0.0160250190050333
 10
899.52057708507482
 20
-1333.9652424696219
 42
-0.026760037478517
 10
899.79585316254293
 20
-1333.8644941490738
 10
899.82258908206541
 20
-1333.8563015902478
 42
-0.0049981587648366
 10
899.87776222735238
 20
-1333.8399963899353
 42
-0.0049981587648366
  0
LWPOLYLINE
  5
5E
100
AcDbEntity
  8
0
370
              15
390
0
  6
Continuous
 62
               7
100
AcDbPolyline
 90
      118
 70
             128
 10
919.69212979179838
 20
-1342.9163816278226
 10
921.56725171629887
 20
-1342.9163816278226
 10
920.72921281069875
 20
-1345.5979481542226
 42
-0.0010587229236459
 10
920.76066862633149
 20
-1345.5610436207955
 10
920.81886271690246
 20
-1345.4930613646916
 42
-0.0071874740403071
 10
920.96923793499582
 20
-1345.3224206726682
 10
921.11096070826306
 20
-1345.1661845313492
 42
-0.0148118053512447
 10
921.5610900009749
 20
-1344.698570685337
 10
921.64831233587927
 20
-1344.6131733644809
 42
-0.0086273358692106
 10
921.98386113688548
 20
-1344.2957977304663
 10
922.02769485311012
 20
-1344.2557480861344
 42
-0.0103138323121299
 10
922.28571855534528
 20
-1344.029584948795
 10
922.3314929616796
 20
-1343.9911029015288
 42
-0.0060206748548678
 10
922.50434102578447
 20
-1343.8493082507803
 10
922.50637215666472
 20
-1343.8476825451535
 42
-0.0067069027306869
 10
922.67866497133264
 20
-1343.713531911354
 10
922.68121373725444
 20
-1343.7116017414819
 42
-0.0076184352037062
 10
922.85211900313016
 20
-1343.5862268662349
 42
-0.0089652861676232
 10
923.02707996586491
 20
-1343.4665936059023
 10
923.06343168600642
 20
-1343.4426823924218
 42
-0.0156916245939696
 10
923.25939118317046
 20
-1343.322419905945
 42
-0.0023299011057125
 10
923.45965322714756
 20
-1343.2092419664059
 10
923.47503735953023
 20
-1343.2006419713396
 42
-0.0107669341487258
 10
923.70927418463179
 20
-1343.0762418379898
 10
923.73153898570627
 20
-1343.0650250880401
 42
-0.0078058045896761
 10
924.01512910366114
 20
-1342.9276636324007
 10
924.02503619136814
 20
-1342.9230545045332
 42
-0.0181829330473917
 10
924.33534559597945
 20
-1342.7921907634391
 10
924.38940103855123
 20
-1342.7716756434938
 42
-0.0208411536028561
 10
924.73848600600058
 20
-1342.6555851810008
 10
924.75284210612654
 20
-1342.6514667360477
 42
-0.0222799817136802
 10
925.08156190004547
 20
-1342.572825169907
 10
925.0904508632841
 20
-1342.5711131593216
 42
-0.0215509523881416
 10
925.40692183156216
 20
-1342.5241974707878
 10
925.44940379260925
 20
-1342.5197599439971
 42
-0.0182545924874782
 10
925.6835125719158
 20
-1342.503916118606
 10
925.72291358825646
 20
-1342.502691573527
 42
-0.00729628565387
 10
925.87883646795262
 20
-1342.5001222450046
 10
925.90793613852952
 20
-1342.5000674096009
 42
-0.0059227516306009
 10
926.00568563767001
 20
-1342.5010411213912
 10
926.03492785518313
 20
-1342.5016788879955
 42
-0.0011833111899333
 10
926.07417913887411
 20
-1342.5026278923046
 10
925.27879254326808
 20
-1345.0413618374037
 42
0.0143932051428035
 10
925.25239116091325
 20
-1345.0311628673571
 10
925.24511918849885
 20
-1345.0285916485009
 42
0.0234388603495049
 10
925.20328832256598
 20
-1345.0159724127855
 10
925.19460665965426
 20
-1345.0137914507807
 42
0.0199162742984765
 10
925.13431782557564
 20
-1345.0011747154458
 10
925.11350388776782
 20
-1344.9976775160171
 42
0.0293643550670375
 10
925.01042902900622
 20
-1344.9865274703639
 10
924.98574384828817
 20
-1344.9853158533454
 42
0.0214606686870523
 10
924.83260293233866
 20
-1344.984377292928
 10
924.8232310215185
 20
-1344.9847222044723
 42
0.0167564054181443
 10
924.65171083041469
 20
-1344.9967992468398
 10
924.64325103765123
 20
-1344.9976805872675
 42
0.013767755324814
 10
924.45589772438666
 20
-1345.0224298958108
 10
924.44854598487791
 20
-1345.0236078157789
 42
0.0118497261486215
 10
924.24804822077431
 20
-1345.0606251659683
 10
924.24189821352911
 20
-1345.0619120286881
 42
0.0106421143895178
 10
924.03101732623531
 20
-1345.1107444042652
 10
924.02610851785585
 20
-1345.111991746948
 42
0.0099746379696495
 10
923.80765004869352
 20
-1345.1721662752627
 10
923.74610200852339
 20
-1345.1904481538934
 42
0.0191613675863359
 10
923.41011754600572
 20
-1345.3044255341811
 10
923.32205777326385
 20
-1345.3381124445038
 42
0.0205274080143918
 10
922.93675100136124
 20
-1345.503940852331
 10
922.87910171937415
 20
-1345.5316088169059
 42
0.0181256912200388
 10
922.62082477871218
 20
-1345.667292635881
 10
922.56786939539722
 20
-1345.6976102490964
 42
0.0140709242407655
 10
922.42291446077024
 20
-1345.7861049225303
 10
922.39666559215448
 20
-1345.8031617412441
 42
0.0086667884376854
 10
922.30773943060876
 20
-1345.8631644091286
 42
0.003640819204406
 10
922.22030619255816
 20
-1345.9253452669327
 10
922.18507931810609
 20
-1345.9507862128337
 42
0.0052260781282533
 10
922.02885062071982
 20
-1346.0661185994647
 10
922.01264376445624
 20
-1346.078346710086
 42
0.0050024435880185
 10
921.82664042140448
 20
-1346.2216292783432
 10
921.81132226488307
 20
-1346.2336753007939
 42
0.013613871026433
 10
921.60088099656218
 20
-1346.4086418057029
 10
921.56721312076343
 20
-1346.4382207784215
 42
0.0172815186921077
 10
921.30280957910384
 20
-1346.6872174510415
 10
921.30024723325778
 20
-1346.689803268192
 42
0.0189403857987203
 10
921.04966543467958
 20
-1346.9626085329955
 10
921.01703394114463
 20
-1347.0009524644913
 42
0.0185044199503248
 10
920.82507750216291
 20
-1347.2442010456166
 42
0.0088565243893246
 10
920.64661739553833
 20
-1347.4977174657611
 10
920.63743941588609
 20
-1347.5112588455265
 42
0.0157195347232186
 10
920.45421880954916
 20
-1347.8007810548465
 10
920.40813586761669
 20
-1347.8789332518697
 42
0.0095451879796825
 10
920.24305031748327
 20
-1348.1715278942197
 10
920.23190239855069
 20
-1348.1921985663573
 42
0.0100351706254573
 10
920.09985864939472
 20
-1348.4492541268423
 42
0.0086935915427345
 10
919.97752749759775
 20
-1348.7110872722531
 10
919.97420675618605
 20
-1348.7185295952186
 42
0.0072580174863695
 10
919.85386030424081
 20
-1348.9991215868022
 10
919.85059867093469
 20
-1349.0070416128196
 42
0.0060005122623944
 10
919.73139800258707
 20
-1349.3066512834389
 10
919.72818702425093
 20
-1349.3150128113293
 42
0.0049017786964203
 10
919.60928686539171
 20
-1349.6339417919382
 10
919.60612105900282
 20
-1349.6426947291643
 42
0.0039415167618445
 10
919.48668478094555
 20
-1349.9812367915777
 10
919.48355367829345
 20
-1349.9903399924535
 42
0.0031035838762147
 10
919.36274889260892
 20
-1350.3487798542026
 10
919.35963884807052
 20
-1350.3582004756017
 42
0.0025070747150134
 10
919.23673749675129
 20
-1350.7368476925587
 10
919.19944360033014
 20
-1350.8537393577988
 42
0.0029081910284668
 10
919.00742530251443
 20
-1351.4679030161069
 10
918.96662213400259
 20
-1351.6011262583663
 42
0.0009266453730393
 10
918.69820475968675
 20
-1352.4833507182925
 10
918.67731728707417
 20
-1352.5524625974354
 42
-0.0005809993664516
 10
918.3999806064553
 20
-1353.4662707041648
 10
918.33369880817463
 20
-1353.6837556363494
 42
-0.0012018708166358
 10
918.18671449875319
 20
-1354.1619183008452
 10
918.13439464726662
 20
-1354.3306774414566
 42
-0.0002691059623927
 10
918.09082516601893
 20
-1354.4709450620528
 10
915.25786926772935
 20
-1363.5600996643525
 10
913.43988037575082
 20
-1363.5600996643525
 10
919.69212979179838
 20
-1342.9163816278226
  0
SPLINE
  5
5F
100
AcDbEntity
  8
0
370
              15
390
0
  6
Continuous
 62
               7
100
AcDbSpline
210
0.0
220
0.0
230
1.0
 70
              13
 71
               2
 72
             782
 73
             779
 74
               0
 42
0.000001
 43
0.000001
 40
0.0
 40
0.0
 40
0.0
 40
1.0
 40
1.0
 40
2.0
 40
2.0
 40
3.0
 40
3.0
 40
4.0
 40
4.0
 40
5.0
 40
5.0
 40
6.0
 40
6.0
 40
7.0
 40
7.0
 40
8.0
 40
8.0
 40
9.0
 40
9.0
 40
10.0
 40
10.0
 40
11.0
 40
11.0
 40
12.0
 40
12.0
 40
13.0
 40
13.0
 40
14.0
 40
14.0
 40
15.0
 40
15.0
 40
16.0
 40
16.0
 40
17.0
 40
17.0
 40
18.0
 40
18.0
 40
19.0
 40
19.0
 40
20.0
 40
20.0
 40
21.0
 40
21.0
 40
22.0
 40
22.0
 40
23.0
 40
23.0
 40
24.0
 40
24.0
 40
25.0
 40
25.0
 40
26.0
 40
26.0
 40
27.0
 40
27.0
 40
28.0
 40
28.0
 40
29.0
 40
29.0
 40
30.0
 40
30.0
 40
31.0
 40
31.0
 40
32.0
 40
32.0
 40
33.0
 40
33.0
 40
34.0
 40
34.0
 40
35.0
 40
35.0
 40
36.0
 40
36.0
 40
37.0
 40
37.0
 40
38.0
 40
38.0
 40
39.0
 40
39.0
 40
40.0
 40
40.0
 40
41.0
 40
41.0
 40
42.0
 40
42.0
 40
43.0
 40
43.0
 40
44.0
 40
44.0
 40
45.0
 40
45.0
 40
46.0
 40
46.0
 40
47.0
 40
47.0
 40
48.0
 40
48.0
 40
49.0
 40
49.0
 40
50.0
 40
50.0
 40
51.0
 40
51.0
 40
52.0
 40
52.0
 40
53.0
 40
53.0
 40
54.0
 40
54.0
 40
55.0
 40
55.0
 40
56.0
 40
56.0
 40
57.0
 40
57.0
 40
58.0
 40
58.0
 40
59.0
 40
59.0
 40
60.0
 40
60.0
 40
61.0
 40
61.0
 40
62.0
 40
62.0
 40
63.0
 40
63.0
 40
64.0
 40
64.0
 40
65.0
 40
65.0
 40
66.0
 40
66.0
 40
67.0
 40
67.0
 40
68.0
 40
68.0
 40
69.0
 40
69.0
 40
70.0
 40
70.0
 40
71.0
 40
71.0
 40
72.0
 40
72.0
 40
73.0
 40
73.0
 40
74.0
 40
74.0
 40
75.0
 40
75.0
 40
76.0
 40
76.0
 40
77.0
 40
77.0
 40
78.0
 40
78.0
 40
79.0
 40
79.0
 40
80.0
 40
80.0
 40
81.0
 40
81.0
 40
82.0
 40
82.0
 40
83.0
 40
83.0
 40
84.0
 40
84.0
 40
85.0
 40
85.0
 40
86.0
 40
86.0
 40
87.0
 40
87.0
 40
88.0
 40
88.0
 40
89.0
 40
89.0
 40
90.0
 40
90.0
 40
91.0
 40
91.0
 40
92.0
 40
92.0
 40
93.0
 40
93.0
 40
94.0
 40
94.0
 40
95.0
 40
95.0
 40
96.0
 40
96.0
 40
97.0
 40
97.0
 40
98.0
 40
98.0
 40
99.0
 40
99.0
 40
100.0
 40
100.0
 40
101.0
 40
101.0
 40
102.0
 40
102.0
 40
103.0
 40
103.0
 40
104.0
 40
104.0
 40
105.0
 40
105.0
 40
106.0
 40
106.0
 40
107.0
 40
107.0
 40
108.0
 40
108.0
 40
109.0
 40
109.0
 40
110.0
 40
110.0
 40
111.0
 40
111.0
 40
112.0
 40
112.0
 40
113.0
 40
113.0
 40
114.0
 40
114.0
 40
115.0
 40
115.0
 40
116.0
 40
116.0
 40
117.0
 40
117.0
 40
118.0
 40
118.0
 40
119.0
 40
119.0
 40
120.0
 40
120.0
 40
121.0
 40
121.0
 40
122.0
 40
122.0
 40
123.0
 40
123.0
 40
124.0
 40
124.0
 40
125.0
 40
125.0
 40
126.0
 40
126.0
 40
127.0
 40
127.0
 40
128.0
 40
128.0
 40
129.0
 40
129.0
 40
130.0
 40
130.0
 40
131.0
 40
131.0
 40
132.0
 40
132.0
 40
133.0
 40
133.0
 40
134.0
 40
134.0
 40
135.0
 40
135.0
 40
136.0
 40
136.0
 40
137.0
 40
137.0
 40
138.0
 40
138.0
 40
139.0
 40
139.0
 40
140.0
 40
140.0
 40
141.0
 40
141.0
 40
142.0
 40
142.0
 40
143.0
 40
143.0
 40
144.0
 40
144.0
 40
145.0
 40
145.0
 40
146.0
 40
146.0
 40
147.0
 40
147.0
 40
148.0
 40
148.0
 40
149.0
 40
149.0
 40
150.0
 40
150.0
 40
151.0
 40
151.0
 40
152.0
 40
152.0
 40
153.0
 40
153.0
 40
154.0
 40
154.0
 40
155.0
 40
155.0
 40
156.0
 40
156.0
 40
157.0
 40
157.0
 40
158.0
 40
158.0
 40
159.0
 40
159.0
 40
160.0
 40
160.0
 40
161.0
 40
161.0
 40
162.0
 40
162.0
 40
163.0
 40
163.0
 40
164.0
 40
164.0
 40
165.0
 40
165.0
 40
166.0
 40
166.0
 40
167.0
 40
167.0
 40
168.0
 40
168.0
 40
169.0
 40
169.0
 40
170.0
 40
170.0
 40
171.0
 40
171.0
 40
172.0
 40
172.0
 40
173.0
 40
173.0
 40
174.0
 40
174.0
 40
175.0
 40
175.0
 40
176.0
 40
176.0
 40
177.0
 40
177.0
 40
178.0
 40
178.0
 40
179.0
 40
179.0
 40
180.0
 40
180.0
 40
181.0
 40
181.0
 40
182.0
 40
182.0
 40
183.0
 40
183.0
 40
184.0
 40
184.0
 40
185.0
 40
185.0
 40
186.0
 40
186.0
 40
187.0
 40
187.0
 40
188.0
 40
188.0
 40
189.0
 40
189.0
 40
190.0
 40
190.0
 40
191.0
 40
191.0
 40
192.0
 40
192.0
 40
193.0
 40
193.0
 40
194.0
 40
194.0
 40
195.0
 40
195.0
 40
196.0
 40
196.0
 40
197.0
 40
197.0
 40
198.0
 40
198.0
 40
199.0
 40
199.0
 40
200.0
 40
200.0
 40
201.0
 40
201.0
 40
202.0
 40
202.0
 40
203.0
 40
203.0
 40
204.0
 40
204.0
 40
205.0
 40
205.0
 40
206.0
 40
206.0
 40
207.0
 40
207.0
 40
208.0
 40
208.0
 40
209.0
 40
209.0
 40
210.0
 40
210.0
 40
211.0
 40
211.0
 40
212.0
 40
212.0
 40
213.0
 40
213.0
 40
214.0
 40
214.0
 40
215.0
 40
215.0
 40
216.0
 40
216.0
 40
217.0
 40
217.0
 40
218.0
 40
218.0
 40
219.0
 40
219.0
 40
220.0
 40
220.0
 40
221.0
 40
221.0
 40
222.0
 40
222.0
 40
223.0
 40
223.0
 40
224.0
 40
224.0
 40
225.0
 40
225.0
 40
226.0
 40
226.0
 40
227.0
 40
227.0
 40
228.0
 40
228.0
 40
229.0
 40
229.0
 40
230.0
 40
230.0
 40
231.0
 40
231.0
 40
232.0
 40
232.0
 40
233.0
 40
233.0
 40
234.0
 40
234.0
 40
235.0
 40
235.0
 40
236.0
 40
236.0
 40
237.0
 40
237.0
 40
238.0
 40
238.0
 40
239.0
 40
239.0
 40
240.0
 40
240.0
 40
241.0
 40
241.0
 40
242.0
 40
242.0
 40
243.0
 40
243.0
 40
244.0
 40
244.0
 40
245.0
 40
245.0
 40
246.0
 40
246.0
 40
247.0
 40
247.0
 40
248.0
 40
248.0
 40
249.0
 40
249.0
 40
250.0
 40
250.0
 40
251.0
 40
251.0
 40
252.0
 40
252.0
 40
253.0
 40
253.0
 40
254.0
 40
254.0
 40
255.0
 40
255.0
 40
256.0
 40
256.0
 40
257.0
 40
257.0
 40
258.0
 40
258.0
 40
259.0
 40
259.0
 40
260.0
 40
260.0
 40
261.0
 40
261.0
 40
262.0
 40
262.0
 40
263.0
 40
263.0
 40
264.0
 40
264.0
 40
265.0
 40
265.0
 40
266.0
 40
266.0
 40
267.0
 40
267.0
 40
268.0
 40
268.0
 40
269.0
 40
269.0
 40
270.0
 40
270.0
 40
271.0
 40
271.0
 40
272.0
 40
272.0
 40
273.0
 40
273.0
 40
274.0
 40
274.0
 40
275.0
 40
275.0
 40
276.0
 40
276.0
 40
277.0
 40
277.0
 40
278.0
 40
278.0
 40
279.0
 40
279.0
 40
280.0
 40
280.0
 40
281.0
 40
281.0
 40
282.0
 40
282.0
 40
283.0
 40
283.0
 40
284.0
 40
284.0
 40
285.0
 40
285.0
 40
286.0
 40
286.0
 40
287.0
 40
287.0
 40
288.0
 40
288.0
 40
289.0
 40
289.0
 40
290.0
 40
290.0
 40
291.0
 40
291.0
 40
292.0
 40
292.0
 40
293.0
 40
293.0
 40
294.0
 40
294.0
 40
295.0
 40
295.0
 40
296.0
 40
296.0
 40
297.0
 40
297.0
 40
298.0
 40
298.0
 40
299.0
 40
299.0
 40
300.0
 40
300.0
 40
301.0
 40
301.0
 40
302.0
 40
302.0
 40
303.0
 40
303.0
 40
304.0
 40
304.0
 40
305.0
 40
305.0
 40
306.0
 40
306.0
 40
307.0
 40
307.0
 40
308.0
 40
308.0
 40
309.0
 40
309.0
 40
310.0
 40
310.0
 40
311.0
 40
311.0
 40
312.0
 40
312.0
 40
313.0
 40
313.0
 40
314.0
 40
314.0
 40
315.0
 40
315.0
 40
316.0
 40
316.0
 40
317.0
 40
317.0
 40
318.0
 40
318.0
 40
319.0
 40
319.0
 40
320.0
 40
320.0
 40
321.0
 40
321.0
 40
322.0
 40
322.0
 40
323.0
 40
323.0
 40
324.0
 40
324.0
 40
325.0
 40
325.0
 40
326.0
 40
326.0
 40
327.0
 40
327.0
 40
328.0
 40
328.0
 40
329.0
 40
329.0
 40
330.0
 40
330.0
 40
331.0
 40
331.0
 40
332.0
 40
332.0
 40
333.0
 40
333.0
 40
334.0
 40
334.0
 40
335.0
 40
335.0
 40
336.0
 40
336.0
 40
337.0
 40
337.0
 40
338.0
 40
338.0
 40
339.0
 40
339.0
 40
340.0
 40
340.0
 40
341.0
 40
341.0
 40
342.0
 40
342.0
 40
343.0
 40
343.0
 40
344.0
 40
344.0
 40
345.0
 40
345.0
 40
346.0
 40
346.0
 40
347.0
 40
347.0
 40
348.0
 40
348.0
 40
349.0
 40
349.0
 40
350.0
 40
350.0
 40
351.0
 40
351.0
 40
352.0
 40
352.0
 40
353.0
 40
353.0
 40
354.0
 40
354.0
 40
355.0
 40
355.0
 40
356.0
 40
356.0
 40
357.0
 40
357.0
 40
358.0
 40
358.0
 40
359.0
 40
359.0
 40
360.0
 40
360.0
 40
361.0
 40
361.0
 40
362.0
 40
362.0
 40
363.0
 40
363.0
 40
364.0
 40
364.0
 40
365.0
 40
365.0
 40
366.0
 40
366.0
 40
367.0
 40
367.0
 40
368.0
 40
368.0
 40
369.0
 40
369.0
 40
370.0
 40
370.0
 40
371.0
 40
371.0
 40
372.0
 40
372.0
 40
373.0
 40
373.0
 40
374.0
 40
374.0
 40
375.0
 40
375.0
 40
376.0
 40
376.0
 40
377.0
 40
377.0
 40
378.0
 40
378.0
 40
379.0
 40
379.0
 40
380.0
 40
380.0
 40
381.0
 40
381.0
 40
382.0
 40
382.0
 40
383.0
 40
383.0
 40
384.0
 40
384.0
 40
385.0
 40
385.0
 40
386.0
 40
386.0
 40
387.0
 40
387.0
 40
388.0
 40
388.0
 40
389.0
 40
389.0
 40
389.0
 10
930.0208342425326
 20
-1342.9054552644602
 30
0.0
 41
1.0
 10
930.83925835125274
 20
-1342.9054552644602
 30
0.0
 41
1.0
 10
931.65768245997288
 20
-1342.9054552644602
 30
0.0
 41
1.0
 10
931.24392872445651
 20
-1344.2480815287099
 30
0.0
 41
1.0
 10
930.83017498894014
 20
-1345.5907077929596
 30
0.0
 41
1.0
 10
930.84851448411916
 20
-1345.5620070200307
 30
0.0
 41
0.9999957264341061
 10
930.86702148096174
 20
-1345.5334139698614
 30
0.0
 41
1.0
 10
930.89745080508715
 20
-1345.4864010915035
 30
0.0
 41
1.0
 10
930.92788012921255
 20
-1345.4393882131458
 30
0.0
 41
1.0
 10
931.00724577431561
 20
-1345.3167694062458
 30
0.0
 41
0.9995394069079902
 10
931.0939041658653
 20
-1345.1991913445074
 30
0.0
 41
1.0
 10
931.12966102812811
 20
-1345.1506764519099
 30
0.0
 41
1.0
 10
931.16541789039093
 20
-1345.1021615593127
 30
0.0
 41
1.0
 10
931.29914455820881
 20
-1344.9207212841868
 30
0.0
 41
0.9994460617143849
 10
931.44464503949666
 20
-1344.7485788865374
 30
0.0
 41
1.0
 10
931.44903322047162
 20
-1344.7433872061547
 30
0.0
 41
1.0
 10
931.45342140144669
 20
-1344.7381955257722
 30
0.0
 41
1.0
 10
931.59014552078554
 20
-1344.5764364888867
 30
0.0
 41
0.9994359394934432
 10
931.7374197511358
 20
-1344.4242202877231
 30
0.0
 41
1.0
 10
931.73980310508887
 20
-1344.4217569573502
 30
0.0
 41
1.0
 10
931.74218645904193
 20
-1344.4192936269774
 30
0.0
 41
1.0
 10
931.88469398148629
 20
-1344.272004086559
 30
0.0
 41
0.9995293688568093
 10
932.03596566246915
 20
-1344.1337308743941
 30
0.0
 41
1.0
 10
932.05525942173483
 20
-1344.1160949887408
 30
0.0
 41
1.0
 10
932.07455318100051
 20
-1344.0984591030874
 30
0.0
 41
1.0
 10
932.18723734345451
 20
-1343.9954576622274
 30
0.0
 41
0.9997087614803319
 10
932.30476023240635
 20
-1343.8980133814323
 30
0.0
 41
1.0
 10
932.32392630557752
 20
-1343.8821218029279
 30
0.0
 41
1.0
 10
932.34309237874857
 20
-1343.8662302244236
 30
0.0
 41
1.0
 10
932.42228312135421
 20
-1343.8005691006404
 30
0.0
 41
0.9999595338694869
 10
932.50264239221679
 20
-1343.7363433699793
 30
0.0
 41
1.0
 10
932.58300166306799
 20
-1343.6721176393276
 30
0.0
 41
0.9999749417502075
 10
932.66426219740924
 20
-1343.6090360853827
 30
0.0
 41
1.0
 10
932.68524834357709
 20
-1343.5927447980769
 30
0.0
 41
1.0
 10
932.70623448974504
 20
-1343.576453510771
 30
0.0
 41
1.0
 10
932.79080237504081
 20
-1343.5108045009345
 30
0.0
 41
0.9999792037122524
 10
932.87620997481781
 20
-1343.4462517192856
 30
0.0
 41
1.0
 10
932.89703480079629
 20
-1343.4305118969774
 30
0.0
 41
1.0
 10
932.91785962677477
 20
-1343.4147720746689
 30
0.0
 41
1.0
 10
932.96161757465325
 20
-1343.3816989375923
 30
0.0
 41
0.999999337402335
 10
933.00529926073023
 20
-1343.3485251422178
 30
0.0
 41
1.0
 10
933.04898094687769
 20
-1343.3153513467903
 30
0.0
 41
0.9999160953817348
 10
933.09350735780231
 20
-1343.2833202815887
 30
0.0
 41
1.0
 10
933.12632924521711
 20
-1343.2597091260072
 30
0.0
 41
1.0
 10
933.15915113263191
 20
-1343.2360979704258
 30
0.0
 41
1.0
 10
933.26932131839203
 20
-1343.1568445940572
 30
0.0
 41
0.9980964527232709
 10
933.38841031189418
 20
-1343.0917571212003
 30
0.0
 41
1.0
 10
933.42544291882109
 20
-1343.0715171416077
 30
0.0
 41
1.0
 10
933.462475525748
 20
-1343.0512771620154
 30
0.0
 41
1.0
 10
933.64180253902032
 20
-1342.9532669113141
 30
0.0
 41
0.9984572810572284
 10
933.83089110537867
 20
-1342.8757446499681
 30
0.0
 41
1.0
 10
933.83453737477544
 20
-1342.8742497576297
 30
0.0
 41
1.0
 10
933.8381836441722
 20
-1342.8727548652914
 30
0.0
 41
1.0
 10
934.01997967173861
 20
-1342.7982223886211
 30
0.0
 41
0.9987838528033681
 10
934.20823233029705
 20
-1342.7419567484558
 30
0.0
 41
1.0
 10
934.21247027949494
 20
-1342.7406900947658
 30
0.0
 41
1.0
 10
934.21670822869282
 20
-1342.7394234410758
 30
0.0
 41
1.0
 10
934.3964849888556
 20
-1342.6856911082903
 30
0.0
 41
0.9990652816207405
 10
934.58023092057238
 20
-1342.647687428748
 30
0.0
 41
1.0
 10
934.58541932160244
 20
-1342.6466143256416
 30
0.0
 41
1.0
 10
934.59060772263251
 20
-1342.6455412225355
 30
0.0
 41
1.0
 10
934.76397685228699
 20
-1342.6096837492062
 30
0.0
 41
0.9992909934270317
 10
934.9395526187468
 20
-1342.5869733167394
 30
0.0
 41
1.0
 10
935.11512838520684
 20
-1342.5642628842729
 30
0.0
 41
0.9994553539448351
 10
935.29181981830197
 20
-1342.5531835800664
 30
0.0
 41
1.0
 10
935.32725422609474
 20
-1342.5509616920187
 30
0.0
 41
1.0
 10
935.36268863388761
 20
-1342.5487398039711
 30
0.0
 41
1.0
 10
935.52891440045823
 20
-1342.5383167415594
 30
0.0
 41
0.9990928098293008
 10
935.69542419236177
 20
-1342.5420763827938
 30
0.0
 41
1.0
 10
935.73398602763427
 20
-1342.5429470743268
 30
0.0
 41
1.0
 10
935.77254786290678
 20
-1342.5438177658598
 30
0.0
 41
1.0
 10
935.86193398426508
 20
-1342.5458360240284
 30
0.0
 41
0.9998382089204851
 10
935.95118966705058
 20
-1342.5510681505566
 30
0.0
 41
1.0
 10
935.95161957326968
 20
-1342.5510933514588
 30
0.0
 41
1.0
 10
935.95204947948878
 20
-1342.551118552361
 30
0.0
 41
1.0
 10
936.04044534983598
 20
-1342.5563002770846
 30
0.0
 41
0.9997558016758825
 10
936.12852592703757
 20
-1342.5653827924511
 30
0.0
 41
1.0
 10
936.12900206546942
 20
-1342.565431889934
 30
0.0
 41
1.0
 10
936.12947820390127
 20
-1342.5654809874168
 30
0.0
 41
1.0
 10
936.21660650424053
 20
-1342.5744653078177
 30
0.0
 41
0.9996565144181406
 10
936.30314435758055
 20
-1342.5880026145064
 30
0.0
 41
1.0
 10
936.30361028295658
 20
-1342.5880755002377
 30
0.0
 41
1.0
 10
936.30407620833262
 20
-1342.5881483859687
 30
0.0
 41
1.0
 10
936.38968221092068
 20
-1342.6015399211954
 30
0.0
 41
0.999532180686723
 10
936.47430929124994
 20
-1342.6201404096248
 30
0.0
 41
1.0
 10
936.47469848582216
 20
-1342.6202259520908
 30
0.0
 41
1.0
 10
936.47508768039438
 20
-1342.6203114945567
 30
0.0
 41
1.0
 10
936.55893637157806
 20
-1342.6387408980543
 30
0.0
 41
0.9993819199219534
 10
936.64128290577401
 20
-1342.6630162813149
 30
0.0
 41
1.0
 10
936.64152133927041
 20
-1342.6630865704237
 30
0.0
 41
1.0
 10
936.64175977276682
 20
-1342.6631568595326
 30
0.0
 41
1.0
 10
936.72362943996859
 20
-1342.6872916645748
 30
0.0
 41
0.9992088568504807
 10
936.80332195895835
 20
-1342.71785690037
 30
0.0
 41
1.0
 10
936.88300294983753
 20
-1342.7484165011031
 30
0.0
 41
0.9990226101774054
 10
936.95967361974499
 20
-1342.7858939327175
 30
0.0
 41
1.0
 10
937.03633276154358
 20
-1342.8233657292708
 30
0.0
 41
0.9988424273971348
 10
937.10903638875664
 20
-1342.8680305045245
 30
0.0
 41
1.0
 10
937.10930409713546
 20
-1342.8681949685965
 30
0.0
 41
1.0
 10
937.10957180551441
 20
-1342.8683594326685
 30
0.0
 41
1.0
 10
937.18281084948592
 20
-1342.9133531360665
 30
0.0
 41
0.9986928844491728
 10
937.25107371619526
 20
-1342.9655888703458
 30
0.0
 41
1.0
 10
937.25165500841786
 20
-1342.9660336835736
 30
0.0
 41
1.0
 10
937.25223630064056
 20
-1342.9664784968013
 30
0.0
 41
1.0
 10
937.32166175179555
 20
-1343.0196038575361
 30
0.0
 41
0.998600726227598
 10
937.38508792156279
 20
-1343.0797646272306
 30
0.0
 41
1.0
 10
937.38598233701987
 20
-1343.0806129950656
 30
0.0
 41
1.0
 10
937.38687675247684
 20
-1343.0814613629004
 30
0.0
 41
1.0
 10
937.45209175315813
 20
-1343.1433188682645
 30
0.0
 41
0.9985581491382127
 10
937.5102993648602
 20
-1343.2118113585366
 30
0.0
 41
1.0
 10
937.51955781845572
 20
-1343.2227057162379
 30
0.0
 41
1.0
 10
937.52881627205124
 20
-1343.2336000739392
 30
0.0
 41
1.0
 10
937.60554079094527
 20
-1343.3238812796146
 30
0.0
 41
0.9970460233518358
 10
937.66753269210415
 20
-1343.4248483637962
 30
0.0
 41
1.0
 10
937.68200205718381
 20
-1343.4484148228776
 30
0.0
 41
1.0
 10
937.69647142226336
 20
-1343.4719812819592
 30
0.0
 41
1.0
 10
937.736208122275
 20
-1343.5367010059904
 30
0.0
 41
0.9988468816639237
 10
937.76955449302704
 20
-1343.6049334584177
 30
0.0
 41
1.0
 10
937.77659051551962
 20
-1343.6193303795571
 30
0.0
 41
1.0
 10
937.78362653801219
 20
-1343.6337273006966
 30
0.0
 41
1.0
 10
937.80290086377977
 20
-1343.6731659108466
 30
0.0
 41
0.9998431189996786
 10
937.82076619127338
 20
-1343.7132624652861
 30
0.0
 41
1.0
 10
937.83863151875335
 20
-1343.7533590196949
 30
0.0
 41
0.9999989989711926
 10
937.85661024216506
 20
-1343.7934048572552
 30
0.0
 41
1.0
 10
937.86278255377192
 20
-1343.8071530740956
 30
0.0
 41
1.0
 10
937.86895486537878
 20
-1343.820901290936
 30
0.0
 41
1.0
 10
937.89927821199058
 20
-1343.8884435621464
 30
0.0
 41
0.9998790356320833
 10
937.9274860921289
 20
-1343.9568963140855
 30
0.0
 41
1.0
 10
937.93432127341271
 20
-1343.973483415512
 30
0.0
 41
1.0
 10
937.94115645469651
 20
-1343.9900705169387
 30
0.0
 41
1.0
 10
937.96471411707603
 20
-1344.0472384718232
 30
0.0
 41
0.999822757456197
 10
937.98610286546545
 20
-1344.1052527800998
 30
0.0
 41
1.0
 10
938.00749161385579
 20
-1344.1632670883791
 30
0.0
 41
0.9996797971040869
 10
938.0259178988141
 20
-1344.2222892074947
 30
0.0
 41
1.0
 10
938.02982170153973
 20
-1344.234793665664
 30
0.0
 41
1.0
 10
938.03372550426548
 20
-1344.2472981238334
 30
0.0
 41
1.0
 10
938.05995939467573
 20
-1344.3313291592885
 30
0.0
 41
0.997927493873351
 10
938.07518391815461
 20
-1344.4180335179481
 30
0.0
 41
1.0
 10
938.07740760541606
 20
-1344.430697518771
 30
0.0
 41
1.0
 10
938.0796312926775
 20
-1344.4433615195937
 30
0.0
 41
1.0
 10
938.09056123237553
 20
-1344.505608026883
 30
0.0
 41
0.9994985982136649
 10
938.09752939755208
 20
-1344.5684215280244
 30
0.0
 41
1.0
 10
938.10449756272885
 20
-1344.6312350291689
 30
0.0
 41
0.999637261120396
 10
938.10807342849739
 20
-1344.6943326078549
 30
0.0
 41
1.0
 10
938.10824200598654
 20
-1344.6973072249339
 30
0.0
 41
1.0
 10
938.10841058347569
 20
-1344.7002818420128
 30
0.0
 41
1.0
 10
938.11232360422252
 20
-1344.7693286548613
 30
0.0
 41
0.9997730630735313
 10
938.11329191770994
 20
-1344.8384794788915
 30
0.0
 41
1.0
 10
938.11334902412796
 20
-1344.8425576580341
 30
0.0
 41
1.0
 10
938.11340613054608
 20
-1344.8466358371768
 30
0.0
 41
1.0
 10
938.11448865686918
 20
-1344.9239430195048
 30
0.0
 41
0.9998772614073355
 10
938.11314857013815
 20
-1345.001246166072
 30
0.0
 41
1.0
 10
938.11305930693948
 20
-1345.0063953299004
 30
0.0
 41
1.0
 10
938.11297004374092
 20
-1345.0115444937289
 30
0.0
 41
1.0
 10
938.11145143061231
 20
-1345.0991459679647
 30
0.0
 41
0.99994155673262
 10
938.10803912036636
 20
-1345.1866941296405
 30
0.0
 41
1.0
 10
938.10779779969107
 20
-1345.1928855893766
 30
0.0
 41
1.0
 10
938.10755647901578
 20
-1345.1990770491129
 30
0.0
 41
1.0
 10
938.10366152741994
 20
-1345.2990081302523
 30
0.0
 41
0.9999716810421537
 10
938.09826294430093
 20
-1345.3988692684836
 30
0.0
 41
1.0
 10
938.09505014551189
 20
-1345.4582985181437
 30
0.0
 41
1.0
 10
938.09183734672285
 20
-1345.5177277678038
 30
0.0
 41
1.0
 10
938.08376343756925
 20
-1345.6670761690948
 30
0.0
 41
0.9999819129903221
 10
938.07389364595338
 20
-1345.8163166467984
 30
0.0
 41
1.0
 10
938.06402385433694
 20
-1345.9655571245098
 30
0.0
 41
1.0
 10
938.06158453377293
 20
-1346.0027501703591
 30
0.0
 41
1.0
 10
938.08428276758582
 20
-1345.96400917306
 30
0.0
 41
0.9999982128215282
 10
938.10712732635955
 20
-1345.9253542790714
 30
0.0
 41
1.0
 10
938.13403688624453
 20
-1345.8798210650161
 30
0.0
 41
1.0
 10
938.1609464461294
 20
-1345.8342878509611
 30
0.0
 41
1.0
 10
938.23761012465513
 20
-1345.7045665288924
 30
0.0
 41
0.9998609190058347
 10
938.31855743751726
 20
-1345.577474146962
 30
0.0
 41
1.0
 10
938.34820575899744
 20
-1345.5309244140071
 30
0.0
 41
1.0
 10
938.3778540804775
 20
-1345.4843746810523
 30
0.0
 41
1.0
 10
938.46012630071823
 20
-1345.3552021110513
 30
0.0
 41
0.9999067609732729
 10
938.54589531018109
 20
-1345.2283244216114
 30
0.0
 41
1.0
 10
938.54830001338746
 20
-1345.2247671555488
 30
0.0
 41
1.0
 10
938.55070471659371
 20
-1345.2212098894859
 30
0.0
 41
1.0
 10
938.63166431964805
 20
-1345.1014467321656
 30
0.0
 41
0.9998784952150669
 10
938.71631792932612
 20
-1344.9842655154612
 30
0.0
 41
1.0
 10
938.80097153900533
 20
-1344.8670842987551
 30
0.0
 41
0.9998532968283216
 10
938.88958915982914
 20
-1344.7528713902836
 30
0.0
 41
1.0
 10
938.90955094882133
 20
-1344.7271440692621
 30
0.0
 41
1.0
 10
938.92951273781352
 20
-1344.7014167482405
 30
0.0
 41
1.0
 10
939.04799678757115
 20
-1344.5487111372736
 30
0.0
 41
0.9991551975795244
 10
939.17862123719487
 20
-1344.4062515751898
 30
0.0
 41
1.0
 10
939.18213085317302
 20
-1344.4024239735672
 30
0.0
 41
1.0
 10
939.18564046915128
 20
-1344.3985963719444
 30
0.0
 41
1.0
 10
939.30924568681803
 20
-1344.2637920131067
 30
0.0
 41
0.9997418144180322
 10
939.43884782651958
 20
-1344.1347426024938
 30
0.0
 41
1.0
 10
939.5684499662209
 20
-1344.0056931918812
 30
0.0
 41
0.9989238204634059
 10
939.70945251447313
 20
-1343.889208229841
 30
0.0
 41
1.0
 10
939.75470019261252
 20
-1343.8518282382322
 30
0.0
 41
1.0
 10
939.79994787075202
 20
-1343.8144482466234
 30
0.0
 41
1.0
 10
939.94018792797215
 20
-1343.6985931933332
 30
0.0
 41
0.9990825084095915
 10
940.08982786057504
 20
-1343.5951641955012
 30
0.0
 41
1.0
 10
940.09987322463235
 20
-1343.5882209824213
 30
0.0
 41
1.0
 10
940.10991858868965
 20
-1343.5812777693416
 30
0.0
 41
1.0
 10
940.23946779317964
 20
-1343.4917351976678
 30
0.0
 41
0.9998164899826099
 10
940.37235199655561
 20
-1343.4072209561518
 30
0.0
 41
1.0
 10
940.38419755708435
 20
-1343.3996871896243
 30
0.0
 41
1.0
 10
940.39604311761309
 20
-1343.3921534230969
 30
0.0
 41
1.0
 10
940.50523619993487
 20
-1343.3227067146336
 30
0.0
 41
0.9997473449130124
 10
940.61744015718114
 20
-1343.2582377568197
 30
0.0
 41
1.0
 10
940.72964411442877
 20
-1343.1937687990048
 30
0.0
 41
0.9999327861140135
 10
940.84331272518773
 20
-1343.131918807326
 30
0.0
 41
1.0
 10
940.84386472775168
 20
-1343.131618448645
 30
0.0
 41
1.0
 10
940.84441673031552
 20
-1343.1313180899642
 30
0.0
 41
1.0
 10
940.9591893462009
 20
-1343.0688673809245
 30
0.0
 41
0.9996956420483437
 10
941.07690267203941
 20
-1343.0121539139507
 30
0.0
 41
1.0
 10
941.10734307693247
 20
-1342.9974879372205
 30
0.0
 41
1.0
 10
941.13778348182552
 20
-1342.9828219604904
 30
0.0
 41
1.0
 10
941.24076058857133
 20
-1342.9332083020461
 30
0.0
 41
0.999807057017691
 10
941.34560697751158
 20
-1342.8876777151454
 30
0.0
 41
1.0
 10
941.45045336645262
 20
-1342.8421471282443
 30
0.0
 41
0.999782743614684
 10
941.55710630306055
 20
-1342.801025956933
 30
0.0
 41
1.0
 10
941.57632915269278
 20
-1342.7936143833003
 30
0.0
 41
1.0
 10
941.59555200232489
 20
-1342.7862028096677
 30
0.0
 41
1.0
 10
941.74065063819671
 20
-1342.7302584910913
 30
0.0
 41
0.9988031841976826
 10
941.89052100080073
 20
-1342.6887584269234
 30
0.0
 41
1.0
 10
941.91543824916425
 20
-1342.6818586811164
 30
0.0
 41
1.0
 10
941.94035549752766
 20
-1342.6749589353096
 30
0.0
 41
1.0
 10
942.10762552317522
 20
-1342.6286407929026
 30
0.0
 41
0.9984748040549554
 10
942.27898243182472
 20
-1342.6010465606378
 30
0.0
 41
1.0
 10
942.28372156807359
 20
-1342.6002834001242
 30
0.0
 41
1.0
 10
942.28846070432235
 20
-1342.5995202396109
 30
0.0
 41
1.0
 10
942.45033934047365
 20
-1342.5734523283729
 30
0.0
 41
0.998443649547998
 10
942.61411408419872
 20
-1342.5655743745542
 30
0.0
 41
1.0
 10
942.63581129233069
 20
-1342.5645306873544
 30
0.0
 41
1.0
 10
942.65750850046265
 20
-1342.5634870001547
 30
0.0
 41
1.0
 10
942.77788882792368
 20
-1342.5576964207355
 30
0.0
 41
0.998795478933574
 10
942.89825707283262
 20
-1342.5637329484778
 30
0.0
 41
1.0
 10
942.91822186532363
 20
-1342.5647341928161
 30
0.0
 41
1.0
 10
942.93818665781453
 20
-1342.5657354371547
 30
0.0
 41
1.0
 10
943.01862531773918
 20
-1342.5697694762198
 30
0.0
 41
0.9997941595876203
 10
943.09883409583699
 20
-1342.5770635421411
 30
0.0
 41
1.0
 10
943.17904287393321
 20
-1342.5843576080624
 30
0.0
 41
0.9998589466238255
 10
943.25896142078977
 20
-1342.5943414625126
 30
0.0
 41
1.0
 10
943.29136762259634
 20
-1342.5983898194318
 30
0.0
 41
1.0
 10
943.32377382440291
 20
-1342.6024381763507
 30
0.0
 41
1.0
 10
943.46850477487283
 20
-1342.620518744639
 30
0.0
 41
0.9993495063248788
 10
943.6115560186372
 20
-1342.6489844543805
 30
0.0
 41
1.0
 10
943.64448971579361
 20
-1342.6555379175961
 30
0.0
 41
1.0
 10
943.67742341295002
 20
-1342.6620913808119
 30
0.0
 41
1.0
 10
943.78671723615162
 20
-1342.6838397149468
 30
0.0
 41
0.9996788715561191
 10
943.8947688081048
 20
-1342.7110975143089
 30
0.0
 41
1.0
 10
943.89683181064356
 20
-1342.7116179408818
 30
0.0
 41
1.0
 10
943.89889481318232
 20
-1342.7121383674546
 30
0.0
 41
1.0
 10
944.00282038006117
 20
-1342.7383553136717
 30
0.0
 41
0.9995480654492095
 10
944.10498261529074
 20
-1342.7707702702965
 30
0.0
 41
1.0
 10
944.10667225741827
 20
-1342.7713063752099
 30
0.0
 41
1.0
 10
944.1083618995458
 20
-1342.7718424801233
 30
0.0
 41
1.0
 10
944.2071448505186
 20
-1342.8031852269203
 30
0.0
 41
0.9993867959456236
 10
944.30349200896262
 20
-1342.8413645962105
 30
0.0
 41
1.0
 10
944.30473495804813
 20
-1342.8418571381071
 30
0.0
 41
1.0
 10
944.30597790713375
 20
-1342.8423496800035
 30
0.0
 41
1.0
 10
944.39983916740516
 20
-1342.8795439655003
 30
0.0
 41
0.9992050256521965
 10
944.49043884243883
 20
-1342.924097864739
 30
0.0
 41
1.0
 10
944.49117352515168
 20
-1342.9244591572001
 30
0.0
 41
1.0
 10
944.49190820786441
 20
-1342.924820449661
 30
0.0
 41
1.0
 10
944.58103851747285
 20
-1342.968651763978
 30
0.0
 41
0.9990222350741008
 10
944.66594857886548
 20
-1343.0201850316762
 30
0.0
 41
1.0
 10
944.66613246414749
 20
-1343.0202966345805
 30
0.0
 41
1.0
 10
944.66631634942951
 20
-1343.0204082374851
 30
0.0
 41
1.0
 10
944.75085864025857
 20
-1343.0717182993744
 30
0.0
 41
0.9988642743806719
 10
944.83013317487848
 20
-1343.1308424868996
 30
0.0
 41
1.0
 10
944.90940770949828
 20
-1343.1899666744248
 30
0.0
 41
0.9987681233309562
 10
944.98243149377504
 20
-1343.2566573658262
 30
0.0
 41
1.0
 10
944.98276042174052
 20
-1343.2569577670401
 30
0.0
 41
1.0
 10
944.98308934970601
 20
-1343.2572581682539
 30
0.0
 41
1.0
 10
945.05677098991418
 20
-1343.3245496620839
 30
0.0
 41
0.9987496570898856
 10
945.12336479524049
 20
-1343.3988624761698
 30
0.0
 41
1.0
 10
945.12413696500084
 20
-1343.3997241495276
 30
0.0
 41
1.0
 10
945.12490913476131
 20
-1343.4005858228857
 30
0.0
 41
1.0
 10
945.19304727960855
 20
-1343.4766219836877
 30
0.0
 41
0.9988147669827915
 10
945.25346953383394
 20
-1343.5589229905308
 30
0.0
 41
1.0
 10
945.25458885991156
 20
-1343.5604476218832
 30
0.0
 41
1.0
 10
945.25570818598908
 20
-1343.5619722532356
 30
0.0
 41
1.0
 10
945.31836909236972
 20
-1343.647322522784
 30
0.0
 41
0.9989452636217653
 10
945.37293600533087
 20
-1343.7380612119407
 30
0.0
 41
1.0
 10
945.37428473141654
 20
-1343.7403039929668
 30
0.0
 41
1.0
 10
945.37563345750232
 20
-1343.7425467739931
 30
0.0
 41
1.0
 10
945.43289782263582
 20
-1343.8377710252046
 30
0.0
 41
0.9991046436071175
 10
945.48190703595731
 20
-1343.9374954582288
 30
0.0
 41
1.0
 10
945.48337089754727
 20
-1343.9404741383014
 30
0.0
 41
1.0
 10
945.48483475913736
 20
-1343.9434528183738
 30
0.0
 41
1.0
 10
945.53677169564014
 20
-1344.0491346115466
 30
0.0
 41
0.9992763831100315
 10
945.58052482419487
 20
-1344.158458673503
 30
0.0
 41
1.0
 10
945.58200409385768
 20
-1344.1621548610351
 30
0.0
 41
1.0
 10
945.58348336352037
 20
-1344.1658510485674
 30
0.0
 41
1.0
 10
945.63019503140117
 20
-1344.2825674855899
 30
0.0
 41
0.999416347288405
 10
945.66882806259059
 20
-1344.4022010740523
 30
0.0
 41
1.0
 10
945.67006621483688
 20
-1344.4060352178337
 30
0.0
 41
1.0
 10
945.67130436708328
 20
-1344.4098693616152
 30
0.0
 41
1.0
 10
945.71118792810103
 20
-1344.5333754230935
 30
0.0
 41
0.999726805589096
 10
945.74525598401442
 20
-1344.6586104550493
 30
0.0
 41
1.0
 10
945.74618616428438
 20
-1344.6620298211592
 30
0.0
 41
1.0
 10
945.74711634455423
 20
-1344.6654491872694
 30
0.0
 41
1.0
 10
945.77932403992713
 20
-1344.783845487003
 30
0.0
 41
0.9996701319001056
 10
945.80540965669707
 20
-1344.9037394402635
 30
0.0
 41
1.0
 10
945.831495273467
 20
-1345.0236333935229
 30
0.0
 41
0.9995785451109182
 10
945.85057885080676
 20
-1345.144839154555
 30
0.0
 41
1.0
 10
945.85479863298065
 20
-1345.1716403093214
 30
0.0
 41
1.0
 10
945.85901841515465
 20
-1345.1984414640876
 30
0.0
 41
1.0
 10
945.88559339109315
 20
-1345.3672274377916
 30
0.0
 41
0.9979925101218083
 10
945.89061897702004
 20
-1345.5380187658832
 30
0.0
 41
1.0
 10
945.89144378944479
 20
-1345.5660494893664
 30
0.0
 41
1.0
 10
945.89226860186966
 20
-1345.5940802128493
 30
0.0
 41
1.0
 10
945.89564456294693
 20
-1345.7088100939743
 30
0.0
 41
0.999531490226268
 10
945.89199437080833
 20
-1345.823531577727
 30
0.0
 41
1.0
 10
945.88834417867008
 20
-1345.9382530614766
 30
0.0
 41
0.999624548694411
 10
945.8784150835387
 20
-1346.0526023326029
 30
0.0
 41
1.0
 10
945.87825203554439
 20
-1346.054480088738
 30
0.0
 41
1.0
 10
945.8780889875502
 20
-1346.0563578448732
 30
0.0
 41
1.0
 10
945.8678337964302
 20
-1346.1744626282707
 30
0.0
 41
0.9997286095001003
 10
945.85208847285844
 20
-1346.2919615371673
 30
0.0
 41
1.0
 10
945.85169498020844
 20
-1346.2948979618668
 30
0.0
 41
1.0
 10
945.85130148755843
 20
-1346.2978343865661
 30
0.0
 41
1.0
 10
945.8347691786862
 20
-1346.4212061448643
 30
0.0
 41
0.9998265533968962
 10
945.81365371995389
 20
-1346.5438766196526
 30
0.0
 41
1.0
 10
945.81297717781672
 20
-1346.5478069981602
 30
0.0
 41
1.0
 10
945.81230063567955
 20
-1346.5517373766679
 30
0.0
 41
1.0
 10
945.78983209267199
 20
-1346.6822686084754
 30
0.0
 41
0.9999022530852556
 10
945.76372262806342
 20
-1346.8121205771081
 30
0.0
 41
1.0
 10
945.76274398689793
 20
-1346.8169877194964
 30
0.0
 41
1.0
 10
945.76176534573233
 20
-1346.8218548618845
 30
0.0
 41
1.0
 10
945.73369859879301
 20
-1346.9614411152916
 30
0.0
 41
0.9999524761934325
 10
945.70291562995976
 20
-1347.1004536084488
 30
0.0
 41
1.0
 10
945.70163952278278
 20
-1347.106216367758
 30
0.0
 41
1.0
 10
945.70036341560581
 20
-1347.1119791270671
 30
0.0
 41
1.0
 10
945.66702823241735
 20
-1347.2625171388477
 30
0.0
 41
0.9999813588730937
 10
945.63185723161791
 20
-1347.4126368515176
 30
0.0
 41
1.0
 10
945.63030330616436
 20
-1347.4192694419271
 30
0.0
 41
1.0
 10
945.62874938071081
 20
-1347.4259020323368
 30
0.0
 41
1.0
 10
945.59047052899621
 20
-1347.589286925861
 30
0.0
 41
0.9999955237670493
 10
945.55121465101809
 20
-1347.7524398294579
 30
0.0
 41
1.0
 10
945.53893301538551
 20
-1347.8034840199739
 30
0.0
 41
1.0
 10
945.52665137975282
 20
-1347.8545282104901
 30
0.0
 41
1.0
 10
945.46283223051694
 20
-1348.1197694950897
 30
0.0
 41
0.9999993604574112
 10
945.39841328332443
 20
-1348.384865745872
 30
0.0
 41
1.0
 10
945.39369444778276
 20
-1348.4042846538898
 30
0.0
 41
1.0
 10
945.38897561224121
 20
-1348.4237035619076
 30
0.0
 41
1.0
 10
945.31511899397924
 20
-1348.72763762867
 30
0.0
 41
0.9999659914731663
 10
945.23625939809006
 20
-1349.0303121752438
 30
0.0
 41
1.0
 10
945.2313067091618
 20
-1349.0493213124173
 30
0.0
 41
1.0
 10
945.22635402023343
 20
-1349.0683304495906
 30
0.0
 41
1.0
 10
945.13758904649012
 20
-1349.409023270503
 30
0.0
 41
0.9999441976027047
 10
945.04164601352772
 20
-1349.747764695798
 30
0.0
 41
1.0
 10
945.02494549510072
 20
-1349.8067284083309
 30
0.0
 41
1.0
 10
945.00824497667372
 20
-1349.865692120864
 30
0.0
 41
1.0
 10
944.87890090685482
 20
-1350.3223609712336
 30
0.0
 41
0.999962512072972
 10
944.74166813953036
 20
-1350.7767215052318
 30
0.0
 41
1.0
 10
944.70587819644925
 20
-1350.8952175318525
 30
0.0
 41
1.0
 10
944.67008825336825
 20
-1351.0137135584732
 30
0.0
 41
1.0
 10
944.59556804932822
 20
-1351.2604406365713
 30
0.0
 41
0.9999793386305778
 10
944.51788202619127
 20
-1351.5061892758067
 30
0.0
 41
1.0
 10
944.4401960030541
 20
-1351.7519379150428
 30
0.0
 41
1.0
 10
944.42941644418397
 20
-1351.7859558194175
 30
0.0
 41
1.0
 10
942.57904339091465
 20
-1357.6730277418851
 30
0.0
 41
1.0
 10
940.72867033764533
 20
-1363.5600996643525
 30
0.0
 41
1.0
 10
939.76741364762211
 20
-1363.5600996643525
 30
0.0
 41
1.0
 10
938.80615695759889
 20
-1363.5600996643525
 30
0.0
 41
1.0
 10
940.42510173627716
 20
-1358.4120711625631
 30
0.0
 41
1.0
 10
942.04404651495543
 20
-1353.2640426607736
 30
0.0
 41
1.0
 10
942.08921233812703
 20
-1353.1200114385115
 30
0.0
 41
1.0
 10
942.13437816129874
 20
-1352.9759802162494
 30
0.0
 41
1.0
 10
942.30468257866755
 20
-1352.432889187065
 30
0.0
 41
0.9999911657921169
 10
942.47041539034626
 20
-1351.8883856557077
 30
0.0
 41
1.0
 10
942.50011133384317
 20
-1351.7908217156692
 30
0.0
 41
1.0
 10
942.52980727734007
 20
-1351.6932577756304
 30
0.0
 41
1.0
 10
942.6361482020227
 20
-1351.3438821243581
 30
0.0
 41
0.9999952428137592
 10
942.74033179135176
 20
-1350.9938570999943
 30
0.0
 41
1.0
 10
942.74539126168884
 20
-1350.9768588257039
 30
0.0
 41
1.0
 10
942.7504507320258
 20
-1350.9598605514132
 30
0.0
 41
1.0
 10
942.84451538067844
 20
-1350.6438320756388
 30
0.0
 41
0.9999931687536948
 10
942.93624121855055
 20
-1350.3271168623744
 30
0.0
 41
1.0
 10
942.94117648300744
 20
-1350.3100761531127
 30
0.0
 41
1.0
 10
942.94611174746422
 20
-1350.2930354438511
 30
0.0
 41
1.0
 10
943.0279670564255
 20
-1350.0104016491009
 30
0.0
 41
0.9999893840807453
 10
943.10721428288116
 20
-1349.7270255198573
 30
0.0
 41
1.0
 10
943.18646150934103
 20
-1349.4436493905991
 30
0.0
 41
0.9999833980082318
 10
943.26243775008311
 20
-1349.1593788075677
 30
0.0
 41
1.0
 10
943.27144168680456
 20
-1349.125689929092
 30
0.0
 41
1.0
 10
943.28044562352613
 20
-1349.0920010506163
 30
0.0
 41
1.0
 10
943.3494101723926
 20
-1348.8339652183192
 30
0.0
 41
0.999923365806657
 10
943.41196514361081
 20
-1348.5743010596043
 30
0.0
 41
1.0
 10
943.47452011483119
 20
-1348.3146369008819
 30
0.0
 41
1.0
 10
943.51400353368854
 20
-1348.1508302364557
 30
0.0
 41
1.0
 10
943.51898213766867
 20
-1348.1301752745735
 30
0.0
 41
1.0
 10
943.52396074164869
 20
-1348.1095203126915
 30
0.0
 41
1.0
 10
943.55348695254668
 20
-1347.9870235720259
 30
0.0
 41
0.9999868670876079
 10
943.58175603654263
 20
-1347.8642306263841
 30
0.0
 41
1.0
 10
943.58565352369556
 20
-1347.8473010389885
 30
0.0
 41
1.0
 10
943.58955101084848
 20
-1347.8303714515926
 30
0.0
 41
1.0
 10
943.61002512053381
 20
-1347.7414376807628
 30
0.0
 41
0.9999778173350025
 10
943.629312718655
 20
-1347.6522390635082
 30
0.0
 41
1.0
 10
943.64860031677051
 20
-1347.5630404462784
 30
0.0
 41
0.9999602692858552
 10
943.66629467539963
 20
-1347.4735121578597
 30
0.0
 41
1.0
 10
943.66949850747801
 20
-1347.4573017029697
 30
0.0
 41
1.0
 10
943.67270233955651
 20
-1347.4410912480801
 30
0.0
 41
1.0
 10
943.69680436234353
 20
-1347.319142049877
 30
0.0
 41
0.9995617985320173
 10
943.713647709562
 20
-1347.1959803021696
 30
0.0
 41
1.0
 10
943.71611219946772
 20
-1347.1779594848076
 30
0.0
 41
1.0
 10
943.71857668937332
 20
-1347.1599386674457
 30
0.0
 41
1.0
 10
943.73885995042144
 20
-1347.0116236177446
 30
0.0
 41
0.9991121410639926
 10
943.74658530400984
 20
-1346.8621275189375
 30
0.0
 41
1.0
 10
943.74750409403441
 20
-1346.8443476823604
 30
0.0
 41
1.0
 10
943.7484228840591
 20
-1346.8265678457833
 30
0.0
 41
1.0
 10
943.75431065759824
 20
-1346.7126314201316
 30
0.0
 41
0.9989792494905446
 10
943.74989156548099
 20
-1346.5986285842332
 30
0.0
 41
1.0
 10
943.74924359361239
 20
-1346.581912338308
 30
0.0
 41
1.0
 10
943.7485956217439
 20
-1346.5651960923831
 30
0.0
 41
1.0
 10
943.74547247336398
 20
-1346.4846257483396
 30
0.0
 41
0.9997820295394113
 10
943.73898847598821
 20
-1346.4042560265907
 30
0.0
 41
1.0
 10
943.73250447861233
 20
-1346.3238863048434
 30
0.0
 41
0.9998335105973593
 10
943.7230922830995
 20
-1346.2438066883904
 30
0.0
 41
1.0
 10
943.72149735842345
 20
-1346.2302369579106
 30
0.0
 41
1.0
 10
943.71990243374739
 20
-1346.2166672274307
 30
0.0
 41
1.0
 10
943.70730038888166
 20
-1346.1094481500099
 30
0.0
 41
0.9996876457880487
 10
943.68935647608384
 20
-1346.0029927222936
 30
0.0
 41
1.0
 10
943.68712481293892
 20
-1345.9897529870532
 30
0.0
 41
1.0
 10
943.68489314979388
 20
-1345.9765132518125
 30
0.0
 41
1.0
 10
943.67109732837366
 20
-1345.8946671078552
 30
0.0
 41
0.9995547496492641
 10
943.65244400648089
 20
-1345.8137896106653
 30
0.0
 41
1.0
 10
943.65207004960939
 20
-1345.8121681999592
 30
0.0
 41
1.0
 10
943.65169609273789
 20
-1345.8105467892528
 30
0.0
 41
1.0
 10
943.63379068458778
 20
-1345.7329121134735
 30
0.0
 41
0.9994899427175564
 10
943.61096577590843
 20
-1345.6565788306398
 30
0.0
 41
1.0
 10
943.61050724916754
 20
-1345.6550453808509
 30
0.0
 41
1.0
 10
943.61004872242665
 20
-1345.6535119310618
 30
0.0
 41
1.0
 10
943.58814086722907
 20
-1345.5802455478056
 30
0.0
 41
0.9993784877592061
 10
943.56112523212278
 20
-1345.5087048426462
 30
0.0
 41
1.0
 10
943.56059354114609
 20
-1345.5072968599261
 30
0.0
 41
1.0
 10
943.5600618501694
 20
-1345.5058888772062
 30
0.0
 41
1.0
 10
943.5341095970166
 20
-1345.4371641374871
 30
0.0
 41
0.9992430832252586
 10
943.50289306185687
 20
-1345.3706649854189
 30
0.0
 41
1.0
 10
943.50231094580045
 20
-1345.3694249303019
 30
0.0
 41
1.0
 10
943.50172882974391
 20
-1345.3681848751849
 30
0.0
 41
1.0
 10
943.47167652669668
 20
-1345.30416583335
 30
0.0
 41
0.9990789632801059
 10
943.43624589992078
 20
-1345.242959221601
 30
0.0
 41
1.0
 10
943.43565019373898
 20
-1345.2419301357422
 30
0.0
 41
1.0
 10
943.43505448755718
 20
-1345.2409010498834
 30
0.0
 41
1.0
 10
943.40081527314442
 20
-1345.1817526098514
 30
0.0
 41
0.9988874801118469
 10
943.36115599711184
 20
-1345.1260928974334
 30
0.0
 41
1.0
 10
943.36060047104729
 20
-1345.1253132457582
 30
0.0
 41
1.0
 10
943.36004494498286
 20
-1345.1245335940832
 30
0.0
 41
1.0
 10
943.3214967210796
 20
-1345.0704331850161
 30
0.0
 41
0.9986762060696095
 10
943.27759424980331
 20
-1345.0205794705766
 30
0.0
 41
1.0
 10
943.27715028947114
 20
-1345.02007532876
 30
0.0
 41
1.0
 10
943.27670632913896
 20
-1345.0195711869435
 30
0.0
 41
1.0
 10
943.23369177852715
 20
-1344.9707257561372
 30
0.0
 41
0.9984621642485738
 10
943.18553422174909
 20
-1344.9269424556662
 30
0.0
 41
1.0
 10
943.18528758723176
 20
-1344.9267182235021
 30
0.0
 41
1.0
 10
943.18504095271442
 20
-1344.9264939913378
 30
0.0
 41
1.0
 10
943.13737666497047
 20
-1344.8831591551948
 30
0.0
 41
0.9982724693854722
 10
943.08495803313008
 20
-1344.8457148046773
 30
0.0
 41
1.0
 10
943.0325394012898
 20
-1344.8082704541603
 30
0.0
 41
0.998139918015751
 10
942.97595333789639
 20
-1344.7774839347167
 30
0.0
 41
1.0
 10
942.97590767581755
 20
-1344.7774590915592
 30
0.0
 41
1.0
 10
942.97586201373861
 20
-1344.777434248402
 30
0.0
 41
1.0
 10
942.91918462618776
 20
-1344.7465980426441
 30
0.0
 41
0.9980927086838703
 10
942.85913927512092
 20
-1344.7229812337912
 30
0.0
 41
1.0
 10
942.85869910540987
 20
-1344.7228081079165
 30
0.0
 41
1.0
 10
942.85825893569881
 20
-1344.7226349820417
 30
0.0
 41
1.0
 10
942.79733324520953
 20
-1344.6986719214392
 30
0.0
 41
0.9981411356560384
 10
942.73394472381028
 20
-1344.6822992799337
 30
0.0
 41
1.0
 10
942.73306260710876
 20
-1344.6820714377282
 30
0.0
 41
1.0
 10
942.73218049040725
 20
-1344.6818435955227
 30
0.0
 41
1.0
 10
942.66702773560576
 20
-1344.6650152696063
 30
0.0
 41
0.9983031812935982
 10
942.60036030661138
 20
-1344.6558759084301
 30
0.0
 41
1.0
 10
942.5914892812068
 20
-1344.6546597897586
 30
0.0
 41
1.0
 10
942.58261825580223
 20
-1344.6534436710874
 30
0.0
 41
1.0
 10
942.52826861329822
 20
-1344.6459929410962
 30
0.0
 41
0.9983887708262531
 10
942.4734247640049
 20
-1344.644748267463
 30
0.0
 41
1.0
 10
942.46536135878625
 20
-1344.6445652695882
 30
0.0
 41
1.0
 10
942.4572979535676
 20
-1344.6443822717133
 30
0.0
 41
1.0
 10
942.41858091471067
 20
-1344.6435035938296
 30
0.0
 41
0.9998869563080132
 10
942.37985496150895
 20
-1344.6437894631893
 30
0.0
 41
1.0
 10
942.34112900833838
 20
-1344.6440753325487
 30
0.0
 41
0.9999972320165469
 10
942.30240482915929
 20
-1344.6445434320774
 30
0.0
 41
1.0
 10
942.28305181254734
 20
-1344.644777372167
 30
0.0
 41
1.0
 10
942.2636987959354
 20
-1344.6450113122569
 30
0.0
 41
1.0
 10
942.18626858356333
 20
-1344.6459472919646
 30
0.0
 41
0.9997304945086935
 10
942.10896527732439
 20
-1344.6504763857506
 30
0.0
 41
1.0
 10
942.09991563562176
 20
-1344.6510065917405
 30
0.0
 41
1.0
 10
942.09086599391912
 20
-1344.6515367977304
 30
0.0
 41
1.0
 10
941.99546340427423
 20
-1344.6571263034964
 30
0.0
 41
0.9997888306415238
 10
941.90037106843329
 20
-1344.6666312679854
 30
0.0
 41
1.0
 10
941.89165000685898
 20
-1344.6675029826176
 30
0.0
 41
1.0
 10
941.88292894528468
 20
-1344.6683746972499
 30
0.0
 41
1.0
 10
941.77039448629569
 20
-1344.6796230910031
 30
0.0
 41
0.998417023819048
 10
941.65983533894394
 20
-1344.7034391729389
 30
0.0
 41
1.0
 10
941.62345420795805
 20
-1344.7112762087449
 30
0.0
 41
1.0
 10
941.58707307697216
 20
-1344.7191132445512
 30
0.0
 41
1.0
 10
941.47188200855066
 20
-1344.7439271110609
 30
0.0
 41
0.997659285419842
 10
941.361153842146
 20
-1344.784225788208
 30
0.0
 41
1.0
 10
941.25042567573996
 20
-1344.8245244653554
 30
0.0
 41
0.9993255074351913
 10
941.14295387694722
 20
-1344.8728413638487
 30
0.0
 41
1.0
 10
941.13832869802513
 20
-1344.8749207400479
 30
0.0
 41
1.0
 10
941.13370351910316
 20
-1344.877000116247
 30
0.0
 41
1.0
 10
941.01698136246523
 20
-1344.9294757671389
 30
0.0
 41
0.9976475078273699
 10
940.90853401815434
 20
-1344.9974237567978
 30
0.0
 41
1.0
 10
940.89019162401928
 20
-1345.0089162356126
 30
0.0
 41
1.0
 10
940.87184922988422
 20
-1345.0204087144275
 30
0.0
 41
1.0
 10
940.78764703833394
 20
-1345.0731658351951
 30
0.0
 41
0.9995131336407552
 10
940.70689932337655
 20
-1345.1310720471479
 30
0.0
 41
1.0
 10
940.62615160841654
 20
-1345.1889782591024
 30
0.0
 41
0.9995810107605586
 10
940.54888996068723
 20
-1345.251459941569
 30
0.0
 41
1.0
 10
940.54591992947849
 20
-1345.2538618130325
 30
0.0
 41
1.0
 10
940.54294989826985
 20
-1345.2562636844959
 30
0.0
 41
1.0
 10
940.45974818811624
 20
-1345.3235491098951
 30
0.0
 41
0.9996617837954006
 10
940.38015750097634
 20
-1345.3950695654596
 30
0.0
 41
1.0
 10
940.36802675010586
 20
-1345.4059702984446
 30
0.0
 41
1.0
 10
940.35589599923526
 20
-1345.4168710314293
 30
0.0
 41
1.0
 10
940.28762047183477
 20
-1345.4782236469052
 30
0.0
 41
0.9997267750052011
 10
940.22228696355114
 20
-1345.542700183431
 30
0.0
 41
1.0
 10
940.15695345527843
 20
-1345.6071767199458
 30
0.0
 41
0.9999667288959608
 10
940.09268051214883
 20
-1345.6727105268224
 30
0.0
 41
1.0
 10
940.02385306435986
 20
-1345.7428881855947
 30
0.0
 41
1.0
 10
939.95502561657077
 20
-1345.813065844367
 30
0.0
 41
1.0
 10
939.75309777787345
 20
-1346.0189549687782
 30
0.0
 41
0.9988205335175315
 10
939.57209216089439
 20
-1346.2434592008378
 30
0.0
 41
1.0
 10
939.54145219598945
 20
-1346.281462451268
 30
0.0
 41
1.0
 10
939.5108122310844
 20
-1346.3194657016984
 30
0.0
 41
1.0
 10
939.26852668429729
 20
-1346.6199764346161
 30
0.0
 41
0.9997077826754508
 10
939.0410487331925
 20
-1346.9318462288322
 30
0.0
 41
1.0
 10
939.03932531806095
 20
-1346.9342090122132
 30
0.0
 41
1.0
 10
939.03760190292951
 20
-1346.9365717955943
 30
0.0
 41
1.0
 10
938.80667712156412
 20
-1347.2531671565698
 30
0.0
 41
0.9989147567079088
 10
938.60621361868039
 20
-1347.5898766177547
 30
0.0
 41
1.0
 10
938.58147247337274
 20
-1347.6314331983083
 30
0.0
 41
1.0
 10
938.55673132806521
 20
-1347.6729897788618
 30
0.0
 41
1.0
 10
938.40152002942671
 20
-1347.9336911633159
 30
0.0
 41
0.9997476598181729
 10
938.258175041919
 20
-1348.2011009118946
 30
0.0
 41
1.0
 10
938.114830054408
 20
-1348.4685106604786
 30
0.0
 41
0.9996258967109264
 10
937.98632180247546
 20
-1348.743358597105
 30
0.0
 41
1.0
 10
937.97312189302579
 20
-1348.7715899972004
 30
0.0
 41
1.0
 10
937.95992198357624
 20
-1348.799821397296
 30
0.0
 41
1.0
 10
937.81971326257872
 20
-1349.0996937952441
 30
0.0
 41
0.9998735413947872
 10
937.68911191585767
 20
-1349.4038733947136
 30
0.0
 41
1.0
 10
937.68566908779587
 20
-1349.4118919801813
 30
0.0
 41
1.0
 10
937.68222625973408
 20
-1349.4199105656489
 30
0.0
 41
1.0
 10
937.55851056913639
 20
-1349.7080529941832
 30
0.0
 41
0.9999377418856816
 10
937.44125576696251
 20
-1349.9988844618561
 30
0.0
 41
1.0
 10
937.32400096478796
 20
-1350.2897159295303
 30
0.0
 41
0.9999508299509661
 10
937.21253702140859
 20
-1350.5828156063574
 30
0.0
 41
1.0
 10
937.2094562527468
 20
-1350.5909166323195
 30
0.0
 41
1.0
 10
937.20637548408513
 20
-1350.5990176582814
 30
0.0
 41
1.0
 10
937.08875000338367
 20
-1350.9083193870283
 30
0.0
 41
0.9999609228430921
 10
936.97661140050548
 20
-1351.2196524030551
 30
0.0
 41
1.0
 10
936.97365539015755
 20
-1351.22785924346
 30
0.0
 41
1.0
 10
936.9706993798095
 20
-1351.2360660838649
 30
0.0
 41
1.0
 10
936.852648756235
 20
-1351.5638127807022
 30
0.0
 41
0.9999674607400488
 10
936.73990123016927
 20
-1351.8934214006911
 30
0.0
 41
1.0
 10
936.68850283960728
 20
-1352.0436805963823
 30
0.0
 41
1.0
 10
936.63710444904518
 20
-1352.1939397920735
 30
0.0
 41
1.0
 10
936.52109384228675
 20
-1352.5330877745791
 30
0.0
 41
0.9999287532306492
 10
936.41321243831544
 20
-1352.8749085135569
 30
0.0
 41
1.0
 10
936.36673518217458
 20
-1353.0221710579335
 30
0.0
 41
1.0
 10
936.32025792603372
 20
-1353.1694336023099
 30
0.0
 41
1.0
 10
936.30533103433891
 20
-1353.216729252551
 30
0.0
 41
0.999999822289547
 10
936.29046052561398
 20
-1353.2640426607736
 30
0.0
 41
1.0
 10
934.66980438881865
 20
-1358.4120711625631
 30
0.0
 41
1.0
 10
933.04914825202331
 20
-1363.5600996643525
 30
0.0
 41
1.0
 10
932.14383980813227
 20
-1363.5600996643525
 30
0.0
 41
1.0
 10
931.23853136424123
 20
-1363.5600996643525
 30
0.0
 41
1.0
 10
933.0906157756267
 20
-1357.6730277418851
 30
0.0
 41
1.0
 10
934.94270018701218
 20
-1351.7859558194175
 30
0.0
 41
1.0
 10
934.95282194531546
 20
-1351.7539126059678
 30
0.0
 41
1.0
 10
935.0254296141652
 20
-1351.523613064142
 30
0.0
 41
1.0
 10
935.09803728302131
 20
-1351.2933135222961
 30
0.0
 41
0.9999825681969491
 10
935.16792032223907
 20
-1351.06217262721
 30
0.0
 41
1.0
 10
935.21621138439195
 20
-1350.9024480437411
 30
0.0
 41
1.0
 10
935.26450244654472
 20
-1350.7427234602721
 30
0.0
 41
1.0
 10
935.36165479986084
 20
-1350.4213882385002
 30
0.0
 41
0.9999672528957545
 10
935.45359360548764
 20
-1350.098522692901
 30
0.0
 41
1.0
 10
935.45638248915316
 20
-1350.088728847526
 30
0.0
 41
1.0
 10
935.45917137281856
 20
-1350.0789350021512
 30
0.0
 41
1.0
 10
935.54553241111057
 20
-1349.7756571473146
 30
0.0
 41
0.9999899749162646
 10
935.62917402064568
 20
-1349.4716180588625
 30
0.0
 41
1.0
 10
935.63927993966388
 20
-1349.4348828211819
 30
0.0
 41
1.0
 10
935.64938585868208
 20
-1349.3981475835012
 30
0.0
 41
1.0
 10
935.71281563018101
 20
-1349.1675789704097
 30
0.0
 41
0.999921420050205
 10
935.77044505855838
 20
-1348.9354926282008
 30
0.0
 41
1.0
 10
935.78321091073303
 20
-1348.8840817428281
 30
0.0
 41
1.0
 10
935.7959767629078
 20
-1348.8326708574555
 30
0.0
 41
1.0
 10
935.82807448692733
 20
-1348.7034062860257
 30
0.0
 41
0.9999828681660318
 10
935.85865673893159
 20
-1348.5737748115239
 30
0.0
 41
1.0
 10
935.88923899092742
 20
-1348.4441433370564
 30
0.0
 41
0.9999389844478012
 10
935.91694997971842
 20
-1348.3138678811454
 30
0.0
 41
1.0
 10
935.92408772343742
 20
-1348.2803117773133
 30
0.0
 41
1.0
 10
935.93122546715631
 20
-1348.2467556734814
 30
0.0
 41
1.0
 10
935.97321194338417
 20
-1348.0493680099116
 30
0.0
 41
0.9998933699440841
 10
936.00941620778701
 20
-1347.8508384021509
 30
0.0
 41
1.0
 10
936.01078903300368
 20
-1347.8433103814527
 30
0.0
 41
1.0
 10
936.01216185822022
 20
-1347.8357823607548
 30
0.0
 41
1.0
 10
936.05111177305503
 20
-1347.6221967116039
 30
0.0
 41
0.9996850305194579
 10
936.07929544931483
 20
-1347.4069257061635
 30
0.0
 41
1.0
 10
936.08129048268415
 20
-1347.391687352042
 30
0.0
 41
1.0
 10
936.08328551605337
 20
-1347.3764489979205
 30
0.0
 41
1.0
 10
936.11069337851291
 20
-1347.1671037707665
 30
0.0
 41
0.9994697936705772
 10
936.12441793773223
 20
-1346.9564185754371
 30
0.0
 41
1.0
 10
936.12489500698189
 20
-1346.9490951032262
 30
0.0
 41
1.0
 10
936.12537207623154
 20
-1346.9417716310154
 30
0.0
 41
1.0
 10
936.13814249695179
 20
-1346.7457333801069
 30
0.0
 41
0.9991804893136201
 10
936.13501418067835
 20
-1346.549304530133
 30
0.0
 41
1.0
 10
936.13493030185623
 20
-1346.5440377287205
 30
0.0
 41
1.0
 10
936.13484642303411
 20
-1346.5387709273077
 30
0.0
 41
1.0
 10
936.13188586440492
 20
-1346.3528756801597
 30
0.0
 41
0.9988448329323221
 10
936.11109431878185
 20
-1346.1681230903262
 30
0.0
 41
1.0
 10
936.10950024507906
 20
-1346.1539582345572
 30
0.0
 41
1.0
 10
936.10790617137638
 20
-1346.139793378788
 30
0.0
 41
1.0
 10
936.09030277315901
 20
-1345.9833705004937
 30
0.0
 41
0.9985503209456528
 10
936.05598650085858
 20
-1345.8297463164035
 30
0.0
 41
1.0
 10
936.04840050878761
 20
-1345.7957859890048
 30
0.0
 41
1.0
 10
936.04081451671652
 20
-1345.7618256616058
 30
0.0
 41
1.0
 10
936.02167022855849
 20
-1345.6761221323143
 30
0.0
 41
0.9991036781370933
 10
935.99534536690726
 20
-1345.5923450449893
 30
0.0
 41
1.0
 10
935.99136314145096
 20
-1345.5796718824777
 30
0.0
 41
1.0
 10
935.98738091599466
 20
-1345.566998719966
 30
0.0
 41
1.0
 10
935.96902050525568
 20
-1345.508567957663
 30
0.0
 41
0.9998874504368083
 10
935.94891529757797
 20
-1345.4507143554411
 30
0.0
 41
1.0
 10
935.92881008990014
 20
-1345.3928607532189
 30
0.0
 41
0.9994041637542739
 10
935.90476147696609
 20
-1345.3365320493297
 30
0.0
 41
1.0
 10
935.90056469274191
 20
-1345.3267019848474
 30
0.0
 41
1.0
 10
935.89636790851785
 20
-1345.3168719203652
 30
0.0
 41
1.0
 10
935.8684890775221
 20
-1345.2515717543963
 30
0.0
 41
0.9991846840703439
 10
935.83543272082943
 20
-1345.1887337231167
 30
0.0
 41
1.0
 10
935.83429611443421
 20
-1345.1865731066614
 30
0.0
 41
1.0
 10
935.83315950803888
 20
-1345.1844124902063
 30
0.0
 41
1.0
 10
935.80237636413653
 20
-1345.1258956918368
 30
0.0
 41
0.9989253167925856
 10
935.7663069400819
 20
-1345.0704807634461
 30
0.0
 41
1.0
 10
935.76525281540762
 20
-1345.0688612686838
 30
0.0
 41
1.0
 10
935.76419869073345
 20
-1345.0672417739215
 30
0.0
 41
1.0
 10
935.73023751602784
 20
-1345.0150658350565
 30
0.0
 41
0.9986467172833183
 10
935.69104036338967
 20
-1344.9666998014263
 30
0.0
 41
1.0
 10
935.69016623468906
 20
-1344.9656211991482
 30
0.0
 41
1.0
 10
935.68929210598856
 20
-1344.9645425968702
 30
0.0
 41
1.0
 10
935.65184321075253
 20
-1344.9183337677975
 30
0.0
 41
0.9984001104269771
 10
935.60941648023481
 20
-1344.8766486604281
 30
0.0
 41
1.0
 10
935.60882934212555
 20
-1344.8760717855471
 30
0.0
 41
1.0
 10
935.60824220401639
 20
-1344.875494910666
 30
0.0
 41
1.0
 10
935.56698974971766
 20
-1344.834963553059
 30
0.0
 41
0.9982442159080801
 10
935.52123364838235
 20
-1344.799594991799
 30
0.0
 41
1.0
 10
935.52101885292041
 20
-1344.7994289591556
 30
0.0
 41
1.0
 10
935.52080405745858
 20
-1344.7992629265125
 30
0.0
 41
1.0
 10
935.47547754704726
 20
-1344.7642264305393
 30
0.0
 41
0.9982450060837211
 10
935.42632656797514
 20
-1344.7347946475052
 30
0.0
 41
1.0
 10
935.37717558890313
 20
-1344.7053628644715
 30
0.0
 41
0.9983922639634868
 10
935.32500928273771
 20
-1344.6816832298173
 30
0.0
 41
1.0
 10
935.32478240541366
 20
-1344.6815802443361
 30
0.0
 41
1.0
 10
935.3245555280896
 20
-1344.6814772588548
 30
0.0
 41
1.0
 10
935.27193546727574
 20
-1344.6575916532379
 30
0.0
 41
0.9986517147149101
 10
935.2171224944077
 20
-1344.6392905341163
 30
0.0
 41
1.0
 10
935.21644457297975
 20
-1344.6390641876847
 30
0.0
 41
1.0
 10
935.2157666515518
 20
-1344.6388378412532
 30
0.0
 41
1.0
 10
935.15959783582787
 20
-1344.6200840292686
 30
0.0
 41
0.9989435598957548
 10
935.10194444867579
 20
-1344.6065663270338
 30
0.0
 41
1.0
 10
935.10086432909463
 20
-1344.6063130767809
 30
0.0
 41
1.0
 10
935.09978420951347
 20
-1344.6060598265281
 30
0.0
 41
1.0
 10
935.03997058319896
 20
-1344.5920356237875
 30
0.0
 41
0.9992249241239769
 10
934.97923907430163
 20
-1344.5827602810723
 30
0.0
 41
1.0
 10
934.9778253860103
 20
-1344.5825443726644
 30
0.0
 41
1.0
 10
934.97641169771896
 20
-1344.5823284642565
 30
0.0
 41
1.0
 10
934.91285281223918
 20
-1344.5726213047258
 30
0.0
 41
0.9994396597833644
 10
934.84878687570165
 20
-1344.5671883823802
 30
0.0
 41
1.0
 10
934.82964620822395
 20
-1344.5655652146615
 30
0.0
 41
1.0
 10
934.81050554074636
 20
-1344.5639420469429
 30
0.0
 41
1.0
 10
934.70815826925343
 20
-1344.5552627891598
 30
0.0
 41
0.998769340312082
 10
934.60545464566587
 20
-1344.5567658526124
 30
0.0
 41
1.0
 10
934.59520031143961
 20
-1344.5569159243864
 30
0.0
 41
1.0
 10
934.58494597721335
 20
-1344.5570659961606
 30
0.0
 41
1.0
 10
934.4753902110341
 20
-1344.5586693404482
 30
0.0
 41
0.9989753644966339
 10
934.36642821101714
 20
-1344.5701723473735
 30
0.0
 41
1.0
 10
934.25746621100041
 20
-1344.5816753542986
 30
0.0
 41
0.9983190067305603
 10
934.15056740003547
 20
-1344.6057103460853
 30
0.0
 41
1.0
 10
934.14166644842885
 20
-1344.6077116246479
 30
0.0
 41
1.0
 10
934.13276549682223
 20
-1344.6097129032107
 30
0.0
 41
1.0
 10
934.00806478264462
 20
-1344.6377504521226
 30
0.0
 41
0.9985539388303065
 10
933.88709502896768
 20
-1344.6790141281681
 30
0.0
 41
1.0
 10
933.88474959800658
 20
-1344.6798141719842
 30
0.0
 41
1.0
 10
933.88240416704548
 20
-1344.6806142158002
 30
0.0
 41
1.0
 10
933.75674355144668
 20
-1344.7234779794776
 30
0.0
 41
0.9988468746493808
 10
933.63577320914476
 20
-1344.7781960645405
 30
0.0
 41
1.0
 10
933.63259038715682
 20
-1344.7796357391001
 30
0.0
 41
1.0
 10
933.629407565169
 20
-1344.7810754136597
 30
0.0
 41
1.0
 10
933.50207157889133
 20
-1344.8386728478417
 30
0.0
 41
0.9991322885919132
 10
933.37997099483312
 20
-1344.9066681800246
 30
0.0
 41
1.0
 10
933.36236898379104
 20
-1344.9164703820134
 30
0.0
 41
1.0
 10
933.34476697274897
 20
-1344.9262725840022
 30
0.0
 41
1.0
 10
933.24259029169025
 20
-1344.9831726997838
 30
0.0
 41
0.9993860037849847
 10
933.14464928761618
 20
-1345.0470887153726
 30
0.0
 41
1.0
 10
933.139030974766
 20
-1345.0507552100662
 30
0.0
 41
1.0
 10
933.13341266191571
 20
-1345.0544217047598
 30
0.0
 41
1.0
 10
933.04670828354642
 20
-1345.1110047309587
 30
0.0
 41
0.9998821494954456
 10
932.9617819077298
 20
-1345.1702229610378
 30
0.0
 41
1.0
 10
932.87685553192227
 20
-1345.2294411911109
 30
0.0
 41
0.9997976482743618
 10
932.7943799015236
 20
-1345.2920275991489
 30
0.0
 41
1.0
 10
932.77974363671376
 20
-1345.3031342889326
 30
0.0
 41
1.0
 10
932.76510737190392
 20
-1345.314240978716
 30
0.0
 41
1.0
 10
932.6533592118883
 20
-1345.3990407663193
 30
0.0
 41
0.9998091630799826
 10
932.54500893385875
 20
-1345.4881411170222
 30
0.0
 41
1.0
 10
932.53200318138352
 20
-1345.4988362174665
 30
0.0
 41
1.0
 10
932.51899742890828
 20
-1345.5095313179108
 30
0.0
 41
1.0
 10
932.3846356459253
 20
-1345.6200218695049
 30
0.0
 41
0.9995035112317101
 10
932.2574997681611
 20
-1345.7387556865203
 30
0.0
 41
1.0
 10
932.24785245777537
 20
-1345.7477654326767
 30
0.0
 41
1.0
 10
932.23820514738964
 20
-1345.7567751788331
 30
0.0
 41
1.0
 10
932.11478208462358
 20
-1345.8720415505898
 30
0.0
 41
0.9994630424299132
 10
931.99917367883836
 20
-1345.9951442938261
 30
0.0
 41
1.0
 10
931.99549084006776
 20
-1345.9990658733382
 30
0.0
 41
1.0
 10
931.99180800129727
 20
-1346.0029874528502
 30
0.0
 41
1.0
 10
931.8835652730545
 20
-1346.1182470370609
 30
0.0
 41
0.9995160693749466
 10
931.78269924352253
 20
-1346.2400144549338
 30
0.0
 41
1.0
 10
931.78076552344373
 20
-1346.2423488791396
 30
0.0
 41
1.0
 10
931.77883180336494
 20
-1346.2446833033455
 30
0.0
 41
1.0
 10
931.68183321399204
 20
-1346.3617818728048
 30
0.0
 41
0.99965614705148
 10
931.59110699532494
 20
-1346.4838046352556
 30
0.0
 41
1.0
 10
931.58494932942199
 20
-1346.4920864242993
 30
0.0
 41
1.0
 10
931.57879166351916
 20
-1346.5003682133429
 30
0.0
 41
1.0
 10
931.50038077665943
 20
-1346.6058273977046
 30
0.0
 41
0.999834905517507
 10
931.42585349472711
 20
-1346.7140659813681
 30
0.0
 41
1.0
 10
931.35132621280059
 20
-1346.8223045650236
 30
0.0
 41
0.999972810956811
 10
931.27840331689731
 20
-1346.9316304905676
 30
0.0
 41
1.0
 10
931.27708810147919
 20
-1346.9336022600796
 30
0.0
 41
1.0
 10
931.27577288606108
 20
-1346.9355740295919
 30
0.0
 41
1.0
 10
931.20021955931202
 20
-1347.0488434941749
 30
0.0
 41
0.999997214732822
 10
931.12520174890199
 20
-1347.1624683370653
 30
0.0
 41
1.0
 10
931.12023020630522
 20
-1347.1699984254988
 30
0.0
 41
1.0
 10
931.11525866370857
 20
-1347.1775285139324
 30
0.0
 41
1.0
 10
931.03029776809183
 20
-1347.3062135337102
 30
0.0
 41
0.9999371979005388
 10
930.94824241868594
 20
-1347.4367704474903
 30
0.0
 41
1.0
 10
930.94473353432386
 20
-1347.4423533755557
 30
0.0
 41
1.0
 10
930.9412246499619
 20
-1347.4479363036212
 30
0.0
 41
1.0
 10
930.85215153183458
 20
-1347.5896590735281
 30
0.0
 41
0.9998272025611285
 10
930.76840814095033
 20
-1347.7345949502737
 30
0.0
 41
1.0
 10
930.75319296892667
 20
-1347.7609280647296
 30
0.0
 41
1.0
 10
930.73797779690312
 20
-1347.7872611791854
 30
0.0
 41
1.0
 10
930.62380406197212
 20
-1347.9848632848423
 30
0.0
 41
0.9995217214838099
 10
930.52206437241603
 20
-1348.1891456127053
 30
0.0
 41
1.0
 10
930.51442080978222
 20
-1348.2044930624056
 30
0.0
 41
1.0
 10
930.50677724714842
 20
-1348.2198405121062
 30
0.0
 41
1.0
 10
930.41987195455806
 20
-1348.3943369701888
 30
0.0
 41
0.9998269762607973
 10
930.33951748828486
 20
-1348.5719452569142
 30
0.0
 41
1.0
 10
930.25916302201233
 20
-1348.7495535436383
 30
0.0
 41
0.9998944747388388
 10
930.18400222744731
 20
-1348.9294212692682
 30
0.0
 41
1.0
 10
930.17904855785707
 20
-1348.9412759241836
 30
0.0
 41
1.0
 10
930.17409488826684
 20
-1348.9531305790988
 30
0.0
 41
1.0
 10
930.09344782771313
 20
-1349.1461275191186
 30
0.0
 41
0.9999506734412164
 10
930.01665029880905
 20
-1349.3406883239772
 30
0.0
 41
1.0
 10
930.00205033353632
 20
-1349.3776762457881
 30
0.0
 41
1.0
 10
929.98745036826358
 20
-1349.4146641675989
 30
0.0
 41
1.0
 10
929.93985276990134
 20
-1349.535249128845
 30
0.0
 41
0.999991239393968
 10
929.89326632588336
 20
-1349.6562283315291
 30
0.0
 41
1.0
 10
929.84667988185993
 20
-1349.777207534227
 30
0.0
 41
0.9999927113972138
 10
929.80101858745627
 20
-1349.8985389417551
 30
0.0
 41
1.0
 10
929.78705015606397
 20
-1349.9356559237399
 30
0.0
 41
1.0
 10
929.77308172467156
 20
-1349.9727729057247
 30
0.0
 41
1.0
 10
929.69948356748364
 20
-1350.168338277221
 30
0.0
 41
0.9999487550950242
 10
929.62985994251687
 20
-1350.3653536423888
 30
0.0
 41
1.0
 10
929.60626633257323
 20
-1350.4321169527007
 30
0.0
 41
1.0
 10
929.58267272262958
 20
-1350.4988802630123
 30
0.0
 41
1.0
 10
929.48798708826007
 20
-1350.7668140978335
 30
0.0
 41
0.9999808436943224
 10
929.39662549962441
 20
-1351.0358995290819
 30
0.0
 41
1.0
 10
929.30526391098692
 20
-1351.3049849603356
 30
0.0
 41
0.999987393292569
 10
929.21660920226634
 20
-1351.5749743153547
 30
0.0
 41
1.0
 10
929.19651684539599
 20
-1351.6361636481101
 30
0.0
 41
1.0
 10
929.17642448852575
 20
-1351.6973529808656
 30
0.0
 41
1.0
 10
929.0475850660689
 20
-1352.0897210013827
 30
0.0
 41
0.9999794883031877
 10
928.92378228111545
 20
-1352.4837072076477
 30
0.0
 41
1.0
 10
928.91263002168273
 20
-1352.5191978178696
 30
0.0
 41
1.0
 10
928.90147776225001
 20
-1352.5546884280916
 30
0.0
 41
1.0
 10
928.75891959835724
 20
-1353.0083611801642
 30
0.0
 41
0.9999982761776081
 10
928.61804715832341
 20
-1353.4625602023459
 30
0.0
 41
1.0
 10
927.02990682575046
 20
-1358.5113299333493
 30
0.0
 41
1.0
 10
925.44176649317751
 20
-1363.5600996643525
 30
0.0
 41
1.0
 10
924.49301588170192
 20
-1363.5600996643525
 30
0.0
 41
1.0
 10
923.54426527022633
 20
-1363.5600996643525
 30
0.0
 41
1.0
 10
926.78254975637947
 20
-1353.2327774644064
 30
0.0
 41
1.0
 10
930.0208342425326
 20
-1342.9054552644602
 30
0.0
 41
1.0
  0
LWPOLYLINE
  5
60
100
AcDbEntity
  8
0
370
              15
390
0
  6
Continuous
 62
               7
100
AcDbPolyline
 90
      232
 70
             128
 10
904.3172884687051
 20
-1343.9897980959754
 42
0.000437080068545
 10
904.26441129442776
 20
-1344.058464735499
 10
904.22512706350562
 20
-1344.1095718481283
 42
0.0030481992187987
 10
904.09478834636832
 20
-1344.2812935404959
 10
904.05627667463568
 20
-1344.3326803242605
 42
0.0042058245759413
 10
903.85229162397127
 20
-1344.6096860693274
 10
903.79988650146561
 20
-1344.6821189161151
 42
0.0120948898735701
 10
903.50384258470353
 20
-1345.1128685206647
 10
903.40765008558117
 20
-1345.2603492558894
 42
0.0141601263950985
 10
903.10400603865901
 20
-1345.7560185926243
 10
903.06446877123597
 20
-1345.8248625600511
 42
0.0071131081303828
 10
902.85919644799515
 20
-1346.1943653588942
 42
0.0068458791000781
 10
902.66431692114622
 20
-1346.5694569223831
 10
902.65750505869482
 20
-1346.583018636094
 42
0.0064120880292535
 10
902.45936280865078
 20
-1346.9904431110124
 10
902.45182812313351
 20
-1347.006454967734
 42
0.0058857236444357
 10
902.24907273126678
 20
-1347.4508310787571
 10
902.24089780496752
 20
-1347.469321232403
 42
0.005318974190272
 10
902.03219349229983
 20
-1347.9552847063214
 10
902.02344568661874
 20
-1347.9762665845169
 42
0.0047503650417148
 10
901.80747196046013
 20
-1348.5084660177479
 10
901.79820371212054
 20
-1348.5319423938345
 42
0.0042071762167382
 10
901.57365632839412
 20
-1349.1150359878998
 10
901.56390692604373
 20
-1349.1410021627739
 42
0.0036680086484807
 10
901.32945228273422
 20
-1349.779637547296
 10
901.31924450288307
 20
-1349.8080860816499
 42
0.0032573142632536
 10
901.07361221691394
 20
-1350.5069387414107
 10
901.00496169606731
 20
-1350.7064018254819
 42
0.002613336664643
 10
900.65651649731853
 20
-1351.736265109128
 10
900.59325970982547
 20
-1351.9264959444981
 42
0.0020592950739834
 10
900.3793966408507
 20
-1352.5785995971341
 10
900.37634484970511
 20
-1352.5880360854899
 42
0.0025609928529647
 10
900.17452434820143
 20
-1353.2231813079097
 10
900.17193298106872
 20
-1353.2314836488695
 42
0.0031362356248107
 10
899.98244219539765
 20
-1353.8522465050298
 10
899.98031115246511
 20
-1353.8593878112579
 42
0.0037229918026209
 10
899.80351076554371
 20
-1354.468373113215
 10
899.8018321763368
 20
-1354.4743200033909
 42
0.004307762371168
 10
899.63809137427188
 20
-1355.0741387351586
 42
0.004765416182752
 10
899.48526265175769
 20
-1355.6768248240558
 10
899.45079804291754
 20
-1355.8183866012105
 42
0.0112969368442486
 10
899.25493368477282
 20
-1356.7100787618429
 10
899.2269272956778
 20
-1356.8529068079326
 42
0.0130056762571985
 10
899.02609005203112
 20
-1358.0398478795776
 10
899.00555030188332
 20
-1358.1839259930598
 42
0.0138721532146062
 10
898.90184729734619
 20
-1359.0907554788803
 10
898.88255180943725
 20
-1359.3142532008183
 42
0.0071254697006343
 10
898.84920516351531
 20
-1359.7774402096525
 10
898.84424418935214
 20
-1359.8634442042076
 42
0.0028881799202453
 10
898.82910589606172
 20
-1360.1551859140554
 42
0.0060297297132729
 10
898.81917369628627
 20
-1360.4471348501627
 10
898.8181114146189
 20
-1360.4955272221041
 42
0.022952316416773
 10
898.82584244240525
 20
-1360.8182820683869
 10
898.83006821592585
 20
-1360.8786856024026
 42
0.0123673300638986
 10
898.84914686244383
 20
-1361.0798063275779
 42
0.0128577674501924
 10
898.87834225284928
 20
-1361.279704177502
 10
898.8854681262369
 20
-1361.3210329921017
 42
0.0285717853751354
 10
898.94996212793285
 20
-1361.5991491434149
 10
898.96363065159937
 20
-1361.6458039128927
 42
0.0316283099167226
 10
899.0794412315131
 20
-1361.9648184147179
 10
899.08248992326844
 20
-1361.9718047870429
 42
0.0338984824238645
 10
899.23192163423619
 20
-1362.2593707512326
 10
899.234230363606
 20
-1362.2631617805084
 42
0.0350228718350862
 10
899.41659065427984
 20
-1362.5202137651854
 10
899.41747590605519
 20
-1362.5212928429498
 42
0.0347476747532665
 10
899.63190059329509
 20
-1362.7484778901694
 42
0.0331337701908348
 10
899.87514391904188
 20
-1362.9446065522475
 10
899.87624401755738
 20
-1362.9453792554195
 42
0.0305233319088676
 10
900.14478871312906
 20
-1363.1105074255097
 10
900.14801875763214
 20
-1363.1122314373733
 42
0.0273744481149199
 10
900.44057246920852
 20
-1363.2483695812648
 10
900.44567700434391
 20
-1363.2504131657336
 42
0.024096440620409
 10
900.76115407999009
 20
-1363.359396892015
 10
900.76773740919953
 20
-1363.3613216316899
 42
0.0209636179809619
 10
901.10513756185367
 20
-1363.4447897796224
 10
901.11277002230099
 20
-1363.4463416926235
 42
0.0181388704692782
 10
901.47109241430007
 20
-1363.5057577858377
 10
901.4793732626772
 20
-1363.5068239696545
 42
0.0156086547586833
 10
901.85756062686426
 20
-1363.543560156231
 10
901.90075587919318
 20
-1363.5463986587101
 42
0.0137148329025228
 10
902.22842902449202
 20
-1363.5589189139614
 10
902.27436521444179
 20
-1363.5594133470768
 42
0.0051057823885578
 10
902.5105108010107
 20
-1363.559543601486
 42
0.0052256693308471
 10
902.74660808479166
 20
-1363.5547947770217
 10
902.81683486853899
 20
-1363.5526478110075
 42
0.0161507179048164
 10
903.19257194664056
 20
-1363.528997440681
 10
903.21258490701302
 20
-1363.5270872453934
 42
0.0101216737833254
 10
903.62661212849764
 20
-1363.4790943150285
 10
903.66066541792998
 20
-1363.4744466182183
 42
0.0245291776397752
 10
904.13745507348153
 20
-1363.3853715401419
 10
904.22227838900471
 20
-1363.3651756197962
 42
0.0143509212563411
 10
904.5789094929446
 20
-1363.2693709860173
 42
0.0156557857035504
 10
904.92912555766918
 20
-1363.1523597701996
 10
904.93662677216662
 20
-1363.1495896084443
 42
0.0170137333639986
 10
905.29322276785604
 20
-1363.0039319935697
 10
905.30032669025559
 20
-1363.0007441580096
 42
0.0183105364402007
 10
905.65967635841605
 20
-1362.8234091161885
 10
905.66662312306062
 20
-1362.8196586813133
 42
0.0194899958154053
 10
906.02510386405083
 20
-1362.6076796994189
 10
906.03211774338206
 20
-1362.6031543571276
 42
0.0204869852953386
 10
906.38613204547551
 20
-1362.3536343420417
 10
906.39339765406248
 20
-1362.3480542766933
 42
0.0212516938550788
 10
906.73938758517238
 20
-1362.0581502797966
 10
906.78590427924325
 20
-1362.0156829697073
 42
0.0215248918257711
 10
907.04593044813328
 20
-1361.7569186907103
 10
907.09096018252444
 20
-1361.708074569349
 42
0.0114578554954243
 10
907.24575233619134
 20
-1361.5322516359024
 10
907.25694687216867
 20
-1361.5189328723682
 42
0.0061531305133919
 10
907.38342151817278
 20
-1361.3646433390513
 42
0.0006325587119861
 10
907.50780000243367
 20
-1361.2086399632385
 10
907.53084013737634
 20
-1361.1796664427161
 42
0.0041897761565088
 10
907.6992955413516
 20
-1360.9641470666509
 10
907.7577576612407
 20
-1360.8880457196692
 42
0.0092993880026079
 10
908.03436958846373
 20
-1360.5137669557855
 10
908.11676408166568
 20
-1360.3978299522132
 42
0.0159321727091929
 10
908.46337056430593
 20
-1359.8756557314605
 10
908.50772669969103
 20
-1359.8039761672169
 42
0.0085547317016409
 10
908.74223846502036
 20
-1359.4101012179858
 42
0.0084601156889558
 10
908.96321464246194
 20
-1359.008474368954
 10
908.97133011629239
 20
-1358.9931146866807
 42
0.0081429654280253
 10
909.19457938673145
 20
-1358.553393174137
 10
909.20343955091403
 20
-1358.5352143321206
 42
0.0076574581334877
 10
909.42984706148548
 20
-1358.0520314568575
 10
909.43932670220465
 20
-1358.0309669785643
 42
0.0070682724200158
 10
909.66977161000943
 20
-1357.4989296737881
 10
909.67976189399315
 20
-1357.4749404847717
 42
0.0064559514445942
 10
909.91509510217475
 20
-1356.8886282182534
 10
909.92550446034011
 20
-1356.8616932928103
 42
0.0058311413911349
 10
910.16655119710731
 20
-1356.2156611984137
 10
910.17730627449009
 20
-1356.1857768572663
 42
0.0052312425815236
 10
910.42488755253112
 20
-1355.4745744434301
 10
910.43593138891038
 20
-1355.4417477313618
 42
0.0046680544794166
 10
910.69085981664148
 20
-1354.659921415619
 10
910.73285196669144
 20
-1354.5269381783071
 42
0.0041666856450936
 10
910.93613797908392
 20
-1353.8639694033095
 10
910.97380041974282
 20
-1353.737388295672
 42
0.0015170975147167
 10
911.09498699816095
 20
-1353.3255199441621
 42
-0.0004887993108794
 10
911.21532677124492
 20
-1352.9134015322556
 10
911.2918040287791
 20
-1352.6524441461791
 42
0.0002583378925702
 10
911.56501859895332
 20
-1351.7183874426207
 10
911.64679144841716
 20
-1351.4382881834238
 42
0.0006636169670584
 10
911.84065920843068
 20
-1350.7709352598299
 10
911.84575586279027
 20
-1350.7533036769064
 42
0.0010589131327849
 10
912.02720456369434
 20
-1350.120572333901
 10
912.03218663416521
 20
-1350.1030594269146
 42
0.0015655524454657
 10
912.20045684135812
 20
-1349.5044427476801
 10
912.20528704175422
 20
-1349.4870505888125
 42
0.0021640440483603
 10
912.35957701375946
 20
-1348.9220235707262
 10
912.36421123319315
 20
-1348.9047588407184
 42
0.0028763871850796
 10
912.50372695124179
 20
-1348.3727908898852
 10
912.5081128154045
 20
-1348.3556669117484
 42
0.0037310511941883
 10
912.63206950724589
 20
-1347.8562193177067
 10
912.63614472753363
 20
-1347.8392590464664
 42
0.0047652197777143
 10
912.7437686280432
 20
-1347.3717812781563
 10
912.74745922736588
 20
-1347.355021723009
 42
0.0060276699291119
 10
912.83798932652053
 20
-1346.9189459278621
 10
912.8412080168082
 20
-1346.9024447135603
 42
0.0075824337765063
 10
912.91389732622565
 20
-1346.4971775491267
 10
912.91654270360721
 20
-1346.4810226016687
 42
0.0095130624608202
 10
912.9706579392373
 20
-1346.1059332486043
 10
912.97764416311907
 20
-1346.0499996904946
 42
0.0121054653244017
 10
913.00423549369725
 20
-1345.785103862014
 10
913.00510198345694
 20
-1345.7737004190813
 42
0.0069050827379836
 10
913.02019080149375
 20
-1345.5307591922406
 10
913.02132610116246
 20
-1345.5072329351922
 42
0.0169063976690581
 10
913.02415338014316
 20
-1345.3110402078951
 10
913.02298272861219
 20
-1345.250704446544
 42
0.0052007732919667
 10
913.02072928001917
 20
-1345.1751110563939
 42
0.0054038123300089
 10
913.00076576818037
 20
-1345.0550927603847
 10
912.9956799123097
 20
-1345.0264342738028
 42
0.0112050460452534
 10
912.96029555025166
 20
-1344.8501078354657
 10
912.94247058821065
 20
-1344.7705662487429
 42
0.0240764468016796
 10
912.8515732220643
 20
-1344.4403292132415
 10
912.83301445925065
 20
-1344.3837090482468
 42
0.0256812331825097
 10
912.68965153906129
 20
-1344.0119848419906
 10
912.68424211324009
 20
-1343.9998535070015
 42
0.026836050121334
 10
912.51481487239062
 20
-1343.6688603729799
 10
912.50927846475531
 20
-1343.6593407026671
 42
0.0274670231738226
 10
912.31707748834242
 20
-1343.3670533277505
 10
912.31169618837907
 20
-1343.3597741802082
 42
0.0275035967100192
 10
912.10012330881773
 20
-1343.1042582899049
 10
912.09505380785117
 20
-1343.0987792022745
 42
0.0269557673526709
 10
911.86765026441162
 20
-1342.8781369163121
 10
911.86290720662919
 20
-1342.8740069618514
 42
0.0259124802204447
 10
911.62335237519846
 20
-1342.6863164346992
 10
911.61882153001625
 20
-1342.6831309323686
 42
0.0245162153011156
 10
911.3709051769215
 20
-1342.5263979232582
 10
911.36637863059877
 20
-1342.5238377260582
 42
0.0229282588825492
 10
911.11395907376982
 20
-1342.3959695335584
 10
911.10917857993331
 20
-1342.3938172337964
 42
0.0212984135694955
 10
910.85614062747163
 20
-1342.2926183165541
 10
910.85083634250248
 20
-1342.2907547537943
 42
0.0197555462336914
 10
910.60105800477913
 20
-1342.2139393358293
 42
0.0183511896789089
 10
910.34612927931562
 20
-1342.156356428864
 10
910.25976408259248
 20
-1342.140153638479
 42
0.0338057877146137
 10
909.97425673333191
 20
-1342.1063452333387
 10
909.88325132827993
 20
-1342.1017655780768
 42
0.0091990524510351
 10
909.77740421965655
 20
-1342.0983897221552
 42
0.0028333980777972
 10
909.67149030366272
 20
-1342.0975616146384
 10
909.67057485061423
 20
-1342.0975596448143
 42
-0.0023619827793083
 10
909.56282883547317
 20
-1342.0968188037357
 10
909.52642366533246
 20
-1342.096396497273
 42
0.0008824598485691
 10
909.34586767546023
 20
-1342.0946207190345
 10
909.30200624307645
 20
-1342.0942667575091
 42
0.0038132665772332
 10
909.03372334720154
 20
-1342.0941478214424
 10
909.01718969240437
 20
-1342.0942665875859
 42
0.0060665569335854
 10
908.71590920080791
 20
-1342.1000868870069
 10
908.70165886878794
 20
-1342.1005351949743
 42
0.0080356953338294
 10
908.3722001524369
 20
-1342.1162029170418
 10
908.36013013736147
 20
-1342.1169714999817
 42
0.0098996399104269
 10
908.00736705271811
 20
-1342.1464567291791
 10
907.99732134333544
 20
-1342.147497025378
 42
0.0117740981369048
 10
907.62616448498648
 20
-1342.1947892729079
 10
907.61794178850369
 20
-1342.1960343894787
 42
0.0137435215132999
 10
907.23335296901894
 20
-1342.2651313630402
 10
907.22669592989541
 20
-1342.2665172592738
 42
0.0158359869384773
 10
906.83369883609271
 20
-1342.3614093477547
 10
906.82828564922556
 20
-1342.3628992886252
 42
0.0180554124029431
 10
906.43197060460932
 20
-1342.4875373048651
 10
906.42741381652968
 20
-1342.4891533411301
 42
0.0203657431285918
 10
906.03293629871746
 20
-1342.6474136826466
 10
906.02879275971145
 20
-1342.649275304088
 42
0.0226819684652101
 10
905.64135670350822
 20
-1342.8449178827586
 10
905.6371569124899
 20
-1342.8472834746785
 42
0.0248634984606976
 10
905.26197497130931
 20
-1343.0839101206257
 10
905.21378004252483
 20
-1343.1177671624516
 42
0.0267044190875499
 10
904.93948734560809
 20
-1343.3332075383196
 42
0.0139303002207605
 10
904.68332017966566
 20
-1343.5704463792347
 10
904.67846679394779
 20
-1343.5751990420918
 42
0.028346096344759
 10
904.43439419972299
 20
-1343.842929702535
 10
904.3947256945653
 20
-1343.8917312800099
 42
0.0070695364811942
 10
904.3172884687051
 20
-1343.9897980959754
 42
0.0070695364811942
  0
LWPOLYLINE
  5
61
100
AcDbEntity
  8
0
370
              15
390
0
  6
Continuous
 62
               7
100
AcDbPolyline
 90
      226
 70
             128
 10
900.78846803145871
 20
-1359.7113869021593
 42
-0.0026277636611044
 10
900.78839014765867
 20
-1359.6446149763983
 10
900.78860750589092
 20
-1359.5914597589731
 42
-0.0088680296719155
 10
900.79238412218433
 20
-1359.4184439765661
 10
900.79473048129648
 20
-1359.3591639511164
 42
-0.007738170560875
 10
900.81077659205982
 20
-1359.0679034553111
 10
900.8116445032324
 20
-1359.0556152216332
 42
-0.0068872530534222
 10
900.83827658298105
 20
-1358.7403934695592
 10
900.83948080716664
 20
-1358.7281524905457
 42
-0.0062130021478239
 10
900.877074523994
 20
-1358.3892827993075
 10
900.87857842752919
 20
-1358.3771089273905
 42
-0.0056726929673057
 10
900.92750028702983
 20
-1358.0149137052852
 10
900.92927373267548
 20
-1358.0028199050316
 42
-0.0052341884493774
 10
900.98988431893611
 20
-1357.6176266495108
 10
900.99190230771228
 20
-1357.6056217195214
 42
-0.0049768450167531
 10
901.06464098913705
 20
-1357.1977771520974
 10
901.08889000386034
 20
-1357.069229169083
 42
-0.0089029805628665
 10
901.22597085565383
 20
-1356.4074537216652
 10
901.25871623097328
 20
-1356.262422291137
 42
-0.008031825710565
 10
901.48826484531128
 20
-1355.3167126592959
 10
901.50024977176281
 20
-1355.2705820240931
 42
-0.0074265721314086
 10
901.78426131061633
 20
-1354.2405174457031
 10
901.80414085372979
 20
-1354.1723833851249
 42
-0.0069711922702086
 10
902.13144543223689
 20
-1353.1061156447954
 10
902.1913973793387
 20
-1352.9200942864361
 42
-0.005207042289585
 10
902.42082260460165
 20
-1352.2328222093934
 10
902.43810379678314
 20
-1352.1827949287497
 42
-0.0009167004449907
 10
902.6411956840634
 20
-1351.5983390806223
 42
-0.0025162726941587
 10
902.84829331433991
 20
-1351.0152978164206
 10
902.8855179261335
 20
-1350.912148270548
 42
-0.0028212681456623
 10
903.1336938450936
 20
-1350.236417638383
 10
903.14352460784175
 20
-1350.210110193713
 42
-0.0031964916826364
 10
903.3798168655062
 20
-1349.5899054315794
 10
903.38945131950982
 20
-1349.5650954414243
 42
-0.0036281836452099
 10
903.61455728060673
 20
-1348.9976547605429
 10
903.6239956907649
 20
-1348.9743573290384
 42
-0.004126916682678
 10
903.83861338742327
 20
-1348.4569164330619
 10
903.87124634384384
 20
-1348.3800379867012
 42
-0.0047472213058684
 10
904.02829114939732
 20
-1348.0196165188174
 10
904.0351852306004
 20
-1348.0041959214968
 42
-0.0025651660000995
 10
904.18354326445615
 20
-1347.676867865737
 42
-0.0057144634986292
 10
904.33729295823059
 20
-1347.3520581923688
 10
904.36532366362201
 20
-1347.2945498099941
 42
-0.0065388068374582
 10
904.54879069136814
 20
-1346.9303173133153
 10
904.55724914715188
 20
-1346.9140577339356
 42
-0.0074510843028727
 10
904.7334313930246
 20
-1346.5873694528232
 10
904.74161106355723
 20
-1346.5727286755514
 42
-0.0084648979859633
 10
904.91124491665641
 20
-1346.2808196645931
 10
904.91910104314775
 20
-1346.2678126729368
 42
-0.0095638542795484
 10
905.08293649073903
 20
-1346.0079238009637
 10
905.09041143441095
 20
-1345.9965544395079
 42
-0.0107191626802181
 10
905.24921301479799
 20
-1345.7659432049641
 10
905.25622974853354
 20
-1345.7562071125933
 42
-0.0118458573899719
 10
905.41077784704112
 20
-1345.5521349172889
 42
-0.0129184518206878
 10
905.57523047063967
 20
-1345.3559744011222
 10
905.60537524300969
 20
-1345.3218483222149
 42
-0.0217742579624426
 10
905.78198756534175
 20
-1345.1386415519687
 10
905.79273310980818
 20
-1345.12842471876
 42
-0.0097266568639051
 10
905.95879072865728
 20
-1344.9765771443285
 42
-0.0187720905727717
 10
906.13313830454445
 20
-1344.8345082909409
 10
906.16384429521986
 20
-1344.8113492085438
 42
-0.0179428207521843
 10
906.39626501521661
 20
-1344.6487970314315
 10
906.39991734213368
 20
-1344.646433096543
 42
-0.0170047877701438
 10
906.63568097966299
 20
-1344.5049725823924
 10
906.63946396840663
 20
-1344.5028742773577
 42
-0.0160190788373722
 10
906.87637251604565
 20
-1344.381222975368
 42
-0.0151102861484846
 10
907.12040429849696
 20
-1344.2745401993113
 10
907.17279080070375
 20
-1344.2535000664186
 42
-0.0271945441892942
 10
907.53145335976205
 20
-1344.1316352557126
 10
907.60051816024622
 20
-1344.1122857144474
 42
-0.0237596594021453
 10
908.01631500727262
 20
-1344.0168350024646
 10
908.08437786100217
 20
-1344.004580314338
 42
-0.0213715440552927
 10
908.37025279244835
 20
-1343.9656332828281
 10
908.43039995866661
 20
-1343.9600435681273
 42
-0.0101465655818205
 10
908.5978924906608
 20
-1343.947900024863
 10
908.60723287686551
 20
-1343.9474131098655
 42
-0.0100375910874488
 10
908.7563869774217
 20
-1343.9426372919406
 10
908.76664624709952
 20
-1343.9425148529263
 42
-0.0103625633383444
 10
908.8953542417571
 20
-1343.9436462864528
 10
908.91761989302267
 20
-1343.9443036449177
 42
-0.0115689250232656
 10
909.00167063055187
 20
-1343.9487331511627
 42
-0.0072438037411151
 10
909.0855089100063
 20
-1343.9563223509138
 10
909.10230941946384
 20
-1343.9580888936364
 42
-0.0217917313140461
 10
909.2188791827765
 20
-1343.9755087863573
 10
909.28447927334923
 20
-1343.988255394773
 42
-0.0332943556749414
 10
909.48887143837192
 20
-1344.0422956860789
 10
909.51904400692001
 20
-1344.0524637631968
 42
-0.0184824084794081
 10
909.65754906338725
 20
-1344.1049147785839
 42
-0.0198002050690034
 10
909.79162340388643
 20
-1344.167798838783
 10
909.79351004126374
 20
-1344.1687766256632
 42
-0.0212242342978901
 10
909.92564898366493
 20
-1344.2445393644559
 10
909.92746427920929
 20
-1344.2456851666648
 42
-0.0226090605798379
 10
910.05596818043205
 20
-1344.33516481023
 10
910.05781262216851
 20
-1344.3365770632167
 42
-0.0238457052240552
 10
910.18099470346124
 20
-1344.4405729590787
 10
910.18294743202068
 20
-1344.4423878368452
 42
-0.0248160564168809
 10
910.29914893932141
 20
-1344.5616624380543
 10
910.30125257272312
 20
-1344.5640477717584
 42
-0.025410959143556
 10
910.40885779058908
 20
-1344.6993361577227
 10
910.41110581250314
 20
-1344.7024777061233
 42
-0.0255528488304343
 10
910.50855249130041
 20
-1344.8545047603575
 10
910.5108835912165
 20
-1344.858586371965
 42
-0.025214679321237
 10
910.59666461722577
 20
-1345.028088617963
 10
910.59896685638296
 20
-1345.0332706998749
 42
-0.0244265635948489
 10
910.67162155014523
 20
-1345.2210172719238
 10
910.68086795161321
 20
-1345.2488826902604
 42
-0.0231319612908987
 10
910.72679073060453
 20
-1345.412183737061
 42
-0.0112130424328757
 10
910.76142675314304
 20
-1345.5783873372488
 10
910.76262927825564
 20
-1345.5848839241371
 42
-0.0210527881270387
 10
910.78831575362665
 20
-1345.7659395695771
 10
910.79182634844847
 20
-1345.8013451181255
 42
-0.019002989240891
 10
910.80726782199224
 20
-1346.0548809643906
 10
910.80807779843644
 20
-1346.0903565787667
 42
-0.0137974553655353
 10
910.80652894560126
 20
-1346.4153879855003
 10
910.80568349064572
 20
-1346.4415067300954
 42
-0.0081336634223896
 10
910.79082415542371
 20
-1346.7468541976923
 42
-0.0073526923588054
 10
910.76651562204859
 20
-1347.051602441976
 10
910.76525419826567
 20
-1347.0649391166435
 42
-0.0066886138673038
 10
910.72951861221941
 20
-1347.3955251601385
 10
910.72786152274921
 20
-1347.4091467791322
 42
-0.0061359187370593
 10
910.6800109207004
 20
-1347.7659107592194
 10
910.67797341962569
 20
-1347.7798055620615
 42
-0.0056698610056827
 10
910.61732308885769
 20
-1348.1630841309018
 10
910.61491765553501
 20
-1348.1772432501302
 42
-0.0052721077266427
 10
910.5407854547384
 20
-1348.5873705897945
 10
910.53802230589417
 20
-1348.6017872251941
 42
-0.004928927219137
 10
910.44972818779786
 20
-1349.0390957362997
 10
910.44661569311165
 20
-1349.0537645891322
 42
-0.0047415956702761
 10
910.34337770157663
 20
-1349.5185613465521
 10
910.30860949121916
 20
-1349.6683684419261
 42
-0.0084404470900337
 10
910.11859304764607
 20
-1350.4285924664646
 10
910.11246635966245
 20
-1350.4514565906106
 42
-0.0039635940261669
 10
909.89101267538069
 20
-1351.2524454548511
 10
909.87763588019925
 20
-1351.2993770714497
 42
-0.0072475040834704
 10
909.61018899233409
 20
-1352.1885967878463
 10
909.53997666550652
 20
-1352.4103371378192
 42
-0.0051345458831262
 10
909.25321729344932
 20
-1353.2846623256232
 10
909.23169102667725
 20
-1353.3480885927665
 42
-0.0019150016596996
 10
908.97615761981478
 20
-1354.0916377129793
 10
908.96969001542425
 20
-1354.1102251778841
 42
-0.0021524362754138
 10
908.72121196435501
 20
-1354.8145509996089
 10
908.71200154365442
 20
-1354.8403045779219
 42
-0.0024331286822923
 10
908.47574628462235
 20
-1355.4909038860283
 10
908.46669833207204
 20
-1355.5154471923818
 42
-0.0027449721782231
 10
908.2420837612367
 20
-1356.1145770713072
 10
908.23319375384915
 20
-1356.1378996611475
 42
-0.0031083229773513
 10
908.01965126723508
 20
-1356.6878236987391
 10
908.01091513555593
 20
-1356.709913414606
 42
-0.0035311343282974
 10
907.80787394996742
 20
-1357.2128965403269
 10
907.79928861082033
 20
-1357.2337392638358
 42
-0.0040245640941032
 10
907.60617680702535
 20
-1357.6920485864298
 10
907.59774069342097
 20
-1357.711627954505
 42
-0.00460151358538
 10
907.41398440025887
 20
-1358.127532984144
 10
907.40569822243265
 20
-1358.1458301235914
 42
-0.0052768638280455
 10
907.23072070347416
 20
-1358.5216030078664
 10
907.22258849284776
 20
-1358.5385963464082
 42
-0.0060672675623649
 10
907.05580888008126
 20
-1358.8765119695238
 10
907.0478393995968
 20
-1358.8921772285271
 42
-0.0069904648879318
 10
906.88867100559901
 20
-1359.1945130351846
 10
906.88087960599125
 20
-1359.2088235844064
 42
-0.0080637022771838
 10
906.72872774564212
 20
-1359.4778588875652
 10
906.72113871300735
 20
-1359.490786753172
 42
-0.0093006455661893
 10
906.57539803647933
 20
-1359.7288011516689
 10
906.56804736973277
 20
-1359.7403191208466
 42
-0.0107060778062838
 10
906.42809882629672
 20
-1359.9495894382212
 10
906.4210370580189
 20
-1359.9596749807845
 42
-0.01227231113909
 10
906.28624333981907
 20
-1360.1424683102759
 10
906.28591711626859
 20
-1360.1428886980809
 42
-0.014183631964877
 10
906.14233551329153
 20
-1360.3174584559151
 10
906.13538775764209
 20
-1360.3254334561771
 42
-0.017595747720375
 10
905.99548158960488
 20
-1360.4750543445848
 42
-0.0080466359681226
 10
905.84801782457498
 20
-1360.6173768727356
 10
905.8019832800569
 20
-1360.6603973108272
 42
-0.0269600260386707
 10
905.54870303407142
 20
-1360.8727205693381
 10
905.48213589777697
 20
-1360.9226719839601
 42
-0.0178362839751021
 10
905.24219140812102
 20
-1361.0896899102127
 10
905.23494643712286
 20
-1361.094358422416
 42
-0.0174650732658419
 10
904.99861023967924
 20
-1361.2352193873767
 42
-0.016924013016233
 10
904.75314399382034
 20
-1361.3595116471547
 10
904.70715783826336
 20
-1361.3808736027213
 42
-0.0318883036843506
 10
904.35680698264525
 20
-1361.5172119122308
 10
904.28844144747632
 20
-1361.5389125327076
 42
-0.0284435909900557
 10
903.91239132118744
 20
-1361.6351299681814
 10
903.87723316068582
 20
-1361.6420235640105
 42
-0.0243909341012261
 10
903.56378969977004
 20
-1361.6877445950402
 10
903.5135089730004
 20
-1361.6925901419418
 42
-0.0196639292930219
 10
903.29791339547182
 20
-1361.7048384274553
 10
903.24608932431443
 20
-1361.7057416881919
 42
-0.0100501510691585
 10
903.13366604264365
 20
-1361.705441289839
 10
903.10200618127112
 20
-1361.7047202179529
 42
-0.0019752031120561
 10
903.05291384461862
 20
-1361.7034080577441
 10
903.05015354139846
 20
-1361.7033233659179
 42
0.0065378752006615
 10
903.00657696664211
 20
-1361.7025564747028
 42
-0.0167974694671721
 10
902.9630461437124
 20
-1361.7008965761768
 10
902.95896680444775
 20
-1361.7006035652817
 42
-0.0081283276295748
 10
902.90740700671449
 20
-1361.6960565716445
 10
902.89566743283058
 20
-1361.6948286540655
 42
-0.0126703440161158
 10
902.82094913703475
 20
-1361.6850938629939
 10
902.79816126936066
 20
-1361.6815356070788
 42
-0.0117852088436706
 10
902.67862228353692
 20
-1361.6599726119234
 10
902.62324183176543
 20
-1361.6486290716871
 42
-0.0251774592291567
 10
902.39639779275444
 20
-1361.5901310622532
 10
902.35167860290665
 20
-1361.576164242919
 42
-0.0146525199887405
 10
902.16528561536734
 20
-1361.5118977157208
 42
-0.016692943585431
 10
901.98330795924062
 20
-1361.4360905826661
 10
901.97865132796733
 20
-1361.4339656820521
 42
-0.0191684358447923
 10
901.79346769671906
 20
-1361.3407295982622
 10
901.79013511096173
 20
-1361.3388883507087
 42
-0.0221181781800395
 10
901.60682480706021
 20
-1361.2267548523384
 10
901.60447500305099
 20
-1361.225170554347
 42
-0.0254984685407495
 10
901.42818485266537
 20
-1361.0927594043769
 10
901.40570270496482
 20
-1361.0740070954416
 42
-0.0292492648791091
 10
901.28093376612151
 20
-1360.956914295798
 42
-0.0159048957508849
 10
901.16709376867243
 20
-1360.8288943042003
 10
901.16577497809203
 20
-1360.827312691179
 42
-0.0343813379554315
 10
901.06313771646614
 20
-1360.68544136541
 10
901.03164618510448
 20
-1360.6349379733149
 42
-0.0369117275707034
 10
900.94575368320739
 20
-1360.4714607323669
 42
-0.0191751379901243
 10
900.87856029765021
 20
-1360.2990561263614
 10
900.87679697389058
 20
-1360.2939627816861
 42
-0.0378178042232527
 10
900.82700225510621
 20
-1360.105022005607
 10
900.82100695937515
 20
-1360.0724613874063
 42
-0.0184846046496613
 10
900.80028976008134
 20
-1359.9307085668629
 42
-0.0179866351292376
 10
900.78995675500835
 20
-1359.7878177537798
 10
900.78990031256262
 20
-1359.7862600671692
 42
-0.008549718626109
 10
900.78846803145871
 20
-1359.7113869021593
 42
-0.008549718626109
  0
ENDBLK
  5
62
100
AcDbEntity
  8
template
390
0
100
AcDbBlockEnd
  0
BLOCK
  5
63
100
AcDbEntity
  8
notes
390
0
100
AcDbBlockBegin
  2
*D4
 70
               1
 10
0.0
 20
0.0
 30
0.0
  3
*D4
  1

  0
LINE
  5
64
100
AcDbEntity
  8
0
370
              -2
390
0
  6
Continuous
 62
               0
100
AcDbLine
 10
102.16784924796411
 20
1432.5803768800888
 30
0.0
 11
102.16784924796411
 21
1510.5803768800888
 31
0.0
  0
LINE
  5
65
100
AcDbEntity
  8
0
370
              -2
390
0
  6
Continuous
 62
               0
100
AcDbLine
 10
502.167849247964
 20
1432.5803768800888
 30
0.0
 11
502.167849247964
 21
1510.5803768800888
 31
0.0
  0
LINE
  5
66
100
AcDbEntity
  8
0
370
              -2
390
0
  6
Continuous
 62
               0
100
AcDbLine
 10
102.16784924796411
 20
1510.5803768800888
 30
0.0
 11
502.167849247964
 21
1510.5803768800888
 31
0.0
  0
CIRCLE
  5
67
102
{ACAD_REACTORS
330
68
102
}
100
AcDbEntity
  8
0
370
              -2
390
0
  6
Continuous
 62
               0
100
AcDbCircle
 10
102.16784924796411
 20
1510.5803768800888
 30
0.0
 40
1.9998779296875
  0
HATCH
  5
68
100
AcDbEntity
  8
0
370
              -2
390
0
  6
Continuous
 62
               0
100
AcDbHatch
 10
0.0
 20
0.0
 30
0.0
210
0.0
220
0.0
230
1.0
  2
SOLID
 70
               1
 71
               1
 91
        1
 92
        1
 93
        1
 72
               2
 10
102.16784924796411
 20
1510.5803768800888
 40
1.9998779296875
 50
0.0
 51
360.0
 73
               0
 97
        1
330
67
 75
               0
 76
               1
 98
        1
 10
0.0
 20
0.0
  0
CIRCLE
  5
69
102
{ACAD_REACTORS
330
6A
102
}
100
AcDbEntity
  8
0
370
              -2
390
0
  6
Continuous
 62
               0
100
AcDbCircle
 10
502.167849247964
 20
1510.5803768800888
 30
0.0
 40
1.9998779296875
  0
HATCH
  5
6A
100
AcDbEntity
  8
0
370
              -2
390
0
  6
Continuous
 62
               0
100
AcDbHatch
 10
0.0
 20
0.0
 30
0.0
210
0.0
220
0.0
230
1.0
  2
SOLID
 70
               1
 71
               1
 91
        1
 92
        1
 93
        1
 72
               2
 10
502.167849247964
 20
1510.5803768800888
 40
1.9998779296875
 50
0.0
 51
360.0
 73
               0
 97
        1
330
69
 75
               0
 76
               1
 98
        1
 10
0.0
 20
0.0
  0
MTEXT
  5
6B
100
AcDbEntity
  8
0
390
0
 62
               0
100
AcDbMText
 10
278.35534756578852
 20
1544.4579940675887
 30
0.0
 40
24.432617187500004
 41
0.0
 71
               1
 72
               1
  1
400
  7
ＭＳ ゴシック
 73
               1
 44
0.7828267384257843
  0
POINT
  5
6C
100
AcDbEntity
  8
Defpoints
370
               0
390
0
 62
               0
100
AcDbPoint
 10
502.167849247964
 20
1407.5803768800888
 30
0.0
  0
POINT
  5
6D
100
AcDbEntity
  8
Defpoints
370
               0
390
0
 62
               0
100
AcDbPoint
 10
102.16784924796411
 20
1407.5803768800888
 30
0.0
  0
POINT
  5
6E
100
AcDbEntity
  8
Defpoints
370
               0
390
0
 62
               0
100
AcDbPoint
 10
102.16784924796411
 20
1510.5803768800888
 30
0.0
  0
ENDBLK
  5
6F
100
AcDbEntity
  8
notes
390
0
100
AcDbBlockEnd
  0
BLOCK
  5
70
100
AcDbEntity
  8
notes
390
0
100
AcDbBlockBegin
  2
*D5
 70
               1
 10
0.0
 20
0.0
 30
0.0
  3
*D5
  1

  0
LINE
  5
71
100
AcDbEntity
  8
0
370
              -2
390
0
  6
Continuous
 62
               0
100
AcDbLine
 10
527.167849247964
 20
1410.5803768800888
 30
0.0
 11
602.167849247964
 21
1410.5803768800888
 31
0.0
  0
LINE
  5
72
100
AcDbEntity
  8
0
370
              -2
390
0
  6
Continuous
 62
               0
100
AcDbLine
 10
507.167849247964
 20
1190.5803768800884
 30
0.0
 11
602.167849247964
 21
1190.5803768800884
 31
0.0
  0
LINE
  5
73
100
AcDbEntity
  8
0
370
              -2
390
0
  6
Continuous
 62
               0
100
AcDbLine
 10
602.167849247964
 20
1410.5803768800888
 30
0.0
 11
602.167849247964
 21
1190.5803768800884
 31
0.0
  0
CIRCLE
  5
74
102
{ACAD_REACTORS
330
75
102
}
100
AcDbEntity
  8
0
370
              -2
390
0
  6
Continuous
 62
               0
100
AcDbCircle
 10
602.167849247964
 20
1410.5803768800888
 30
0.0
 40
1.9998779296875
  0
HATCH
  5
75
100
AcDbEntity
  8
0
370
              -2
390
0
  6
Continuous
 62
               0
100
AcDbHatch
 10
0.0
 20
0.0
 30
0.0
210
0.0
220
0.0
230
1.0
  2
SOLID
 70
               1
 71
               1
 91
        1
 92
        1
 93
        1
 72
               2
 10
602.167849247964
 20
1410.5803768800888
 40
1.9998779296875
 50
0.0
 51
360.0
 73
               0
 97
        1
330
74
 75
               0
 76
               1
 98
        1
 10
0.0
 20
0.0
  0
CIRCLE
  5
76
102
{ACAD_REACTORS
330
77
102
}
100
AcDbEntity
  8
0
370
              -2
390
0
  6
Continuous
 62
               0
100
AcDbCircle
 10
602.167849247964
 20
1190.5803768800884
 30
0.0
 40
1.9998779296875
  0
HATCH
  5
77
100
AcDbEntity
  8
0
370
              -2
390
0
  6
Continuous
 62
               0
100
AcDbHatch
 10
0.0
 20
0.0
 30
0.0
210
0.0
220
0.0
230
1.0
  2
SOLID
 70
               1
 71
               1
 91
        1
 92
        1
 93
        1
 72
               2
 10
602.167849247964
 20
1190.5803768800884
 40
1.9998779296875
 50
0.0
 51
360.0
 73
               0
 97
        1
330
76
 75
               0
 76
               1
 98
        1
 10
0.0
 20
0.0
  0
MTEXT
  5
78
100
AcDbEntity
  8
0
390
0
 62
               0
100
AcDbMText
 10
568.29023206046395
 20
1282.1967733563151
 30
0.0
 40
24.432617187500004
 41
0.0
 71
               1
 72
               1
  1
220
  7
ＭＳ ゴシック
 11
0.0
 21
1.0
 31
0.0
 73
               1
 44
0.7828267384257843
  0
POINT
  5
79
100
AcDbEntity
  8
Defpoints
370
               0
390
0
 62
               0
100
AcDbPoint
 10
482.167849247964
 20
1190.5803768800884
 30
0.0
  0
POINT
  5
7A
100
AcDbEntity
  8
Defpoints
370
               0
390
0
 62
               0
100
AcDbPoint
 10
502.167849247964
 20
1410.5803768800888
 30
0.0
  0
POINT
  5
7B
100
AcDbEntity
  8
Defpoints
370
               0
390
0
 62
               0
100
AcDbPoint
 10
602.167849247964
 20
1410.5803768800888
 30
0.0
  0
ENDBLK
  5
7C
100
AcDbEntity
  8
notes
390
0
100
AcDbBlockEnd
  0
BLOCK
  5
7D
100
AcDbEntity
  8
notes
390
0
100
AcDbBlockBegin
  2
*D6
 70
               1
 10
0.0
 20
0.0
 30
0.0
  3
*D6
  1

  0
LINE
  5
7E
100
AcDbEntity
  8
0
370
              -2
390
0
  6
Continuous
 62
               0
100
AcDbLine
 10
77.167849247964114
 20
1380.5803768800888
 30
0.0
 11
2.1678492479641136
 21
1380.5803768800888
 31
0.0
  0
LINE
  5
7F
100
AcDbEntity
  8
0
370
              -2
390
0
  6
Continuous
 62
               0
100
AcDbLine
 10
80.167849247964114
 20
1410.5803768800888
 30
0.0
 11
2.1678492479641136
 21
1410.5803768800888
 31
0.0
  0
LINE
  5
80
100
AcDbEntity
  8
0
370
              -2
390
0
  6
Continuous
 62
               0
100
AcDbLine
 10
2.1678492479641136
 20
1380.5803768800888
 30
0.0
 11
2.1678492479641136
 21
1410.5803768800888
 31
0.0
  0
CIRCLE
  5
81
102
{ACAD_REACTORS
330
82
102
}
100
AcDbEntity
  8
0
370
              -2
390
0
  6
Continuous
 62
               0
100
AcDbCircle
 10
2.1678492479641136
 20
1380.5803768800888
 30
0.0
 40
1.9998779296875
  0
HATCH
  5
82
100
AcDbEntity
  8
0
370
              -2
390
0
  6
Continuous
 62
               0
100
AcDbHatch
 10
0.0
 20
0.0
 30
0.0
210
0.0
220
0.0
230
1.0
  2
SOLID
 70
               1
 71
               1
 91
        1
 92
        1
 93
        1
 72
               2
 10
2.1678492479641136
 20
1380.5803768800888
 40
1.9998779296875
 50
0.0
 51
360.0
 73
               0
 97
        1
330
81
 75
               0
 76
               1
 98
        1
 10
0.0
 20
0.0
  0
CIRCLE
  5
83
102
{ACAD_REACTORS
330
84
102
}
100
AcDbEntity
  8
0
370
              -2
390
0
  6
Continuous
 62
               0
100
AcDbCircle
 10
2.1678492479641136
 20
1410.5803768800888
 30
0.0
 40
1.9998779296875
  0
HATCH
  5
84
100
AcDbEntity
  8
0
370
              -2
390
0
  6
Continuous
 62
               0
100
AcDbHatch
 10
0.0
 20
0.0
 30
0.0
210
0.0
220
0.0
230
1.0
  2
SOLID
 70
               1
 71
               1
 91
        1
 92
        1
 93
        1
 72
               2
 10
2.1678492479641136
 20
1410.5803768800888
 40
1.9998779296875
 50
0.0
 51
360.0
 73
               0
 97
        1
330
83
 75
               0
 76
               1
 98
        1
 10
0.0
 20
0.0
  0
MTEXT
  5
85
100
AcDbEntity
  8
0
390
0
 62
               0
100
AcDbMText
 10
-31.709767939535936
 20
1379.7053768800888
 30
0.0
 40
24.432617187500004
 41
0.0
 71
               1
 72
               1
  1
30
  7
ＭＳ ゴシック
 11
0.0
 21
1.0
 31
0.0
 73
               1
 44
0.7828267384257843
  0
POINT
  5
86
100
AcDbEntity
  8
Defpoints
370
               0
390
0
 62
               0
100
AcDbPoint
 10
105.16784924796411
 20
1410.5803768800888
 30
0.0
  0
POINT
  5
87
100
AcDbEntity
  8
Defpoints
370
               0
390
0
 62
               0
100
AcDbPoint
 10
102.16784924796411
 20
1380.5803768800888
 30
0.0
  0
POINT
  5
88
100
AcDbEntity
  8
Defpoints
370
               0
390
0
 62
               0
100
AcDbPoint
 10
2.1678492479641136
 20
1380.5803768800888
 30
0.0
  0
ENDBLK
  5
89
100
AcDbEntity
  8
notes
390
0
100
AcDbBlockEnd
  0
BLOCK
  5
8A
100
AcDbEntity
  8
notes
390
0
100
AcDbBlockBegin
  2
*D7
 70
               1
 10
0.0
 20
0.0
 30
0.0
  3
*D7
  1

  0
LINE
  5
8B
100
AcDbEntity
  8
0
370
              -2
390
0
  6
Continuous
 62
               0
100
AcDbLine
 10
77.167849247964114
 20
1380.5803768800888
 30
0.0
 11
2.1678492479641136
 21
1380.5803768800888
 31
0.0
  0
LINE
  5
8C
100
AcDbEntity
  8
0
370
              -2
390
0
  6
Continuous
 62
               0
100
AcDbLine
 10
77.802932516925807
 20
1205.5803768800888
 30
0.0
 11
2.1678492479641136
 21
1205.5803768800888
 31
0.0
  0
LINE
  5
8D
100
AcDbEntity
  8
0
370
              -2
390
0
  6
Continuous
 62
               0
100
AcDbLine
 10
2.1678492479641136
 20
1380.5803768800888
 30
0.0
 11
2.1678492479641136
 21
1205.5803768800888
 31
0.0
  0
CIRCLE
  5
8E
102
{ACAD_REACTORS
330
8F
102
}
100
AcDbEntity
  8
0
370
              -2
390
0
  6
Continuous
 62
               0
100
AcDbCircle
 10
2.1678492479641136
 20
1380.5803768800888
 30
0.0
 40
1.9998779296875
  0
HATCH
  5
8F
100
AcDbEntity
  8
0
370
              -2
390
0
  6
Continuous
 62
               0
100
AcDbHatch
 10
0.0
 20
0.0
 30
0.0
210
0.0
220
0.0
230
1.0
  2
SOLID
 70
               1
 71
               1
 91
        1
 92
        1
 93
        1
 72
               2
 10
2.1678492479641136
 20
1380.5803768800888
 40
1.9998779296875
 50
0.0
 51
360.0
 73
               0
 97
        1
330
8E
 75
               0
 76
               1
 98
        1
 10
0.0
 20
0.0
  0
CIRCLE
  5
90
102
{ACAD_REACTORS
330
91
102
}
100
AcDbEntity
  8
0
370
              -2
390
0
  6
Continuous
 62
               0
100
AcDbCircle
 10
2.1678492479641136
 20
1205.5803768800888
 30
0.0
 40
1.9998779296875
  0
HATCH
  5
91
100
AcDbEntity
  8
0
370
              -2
390
0
  6
Continuous
 62
               0
100
AcDbHatch
 10
0.0
 20
0.0
 30
0.0
210
0.0
220
0.0
230
1.0
  2
SOLID
 70
               1
 71
               1
 91
        1
 92
        1
 93
        1
 72
               2
 10
2.1678492479641136
 20
1205.5803768800888
 40
1.9998779296875
 50
0.0
 51
360.0
 73
               0
 97
        1
330
90
 75
               0
 76
               1
 98
        1
 10
0.0
 20
0.0
  0
MTEXT
  5
92
100
AcDbEntity
  8
0
390
0
 62
               0
100
AcDbMText
 10
-31.709767939535936
 20
1269.2678751979133
 30
0.0
 40
24.432617187500004
 41
0.0
 71
               1
 72
               1
  1
175
  7
ＭＳ ゴシック
 11
0.0
 21
1.0
 31
0.0
 73
               1
 44
0.7828267384257843
  0
POINT
  5
93
100
AcDbEntity
  8
Defpoints
370
               0
390
0
 62
               0
100
AcDbPoint
 10
102.80293251692581
 20
1205.5803768800888
 30
0.0
  0
POINT
  5
94
100
AcDbEntity
  8
Defpoints
370
               0
390
0
 62
               0
100
AcDbPoint
 10
102.16784924796411
 20
1380.5803768800888
 30
0.0
  0
POINT
  5
95
100
AcDbEntity
  8
Defpoints
370
               0
390
0
 62
               0
100
AcDbPoint
 10
2.1678492479641136
 20
1380.5803768800888
 30
0.0
  0
ENDBLK
  5
96
100
AcDbEntity
  8
notes
390
0
100
AcDbBlockEnd
  0
BLOCK
  5
97
100
AcDbEntity
  8
notes
390
0
100
AcDbBlockBegin
  2
*D8
 70
               1
 10
0.0
 20
0.0
 30
0.0
  3
*D8
  1

  0
LINE
  5
98
100
AcDbEntity
  8
0
370
              -2
390
0
  6
Continuous
 62
               0
100
AcDbLine
 10
122.16784924796411
 20
1165.5803768800884
 30
0.0
 11
122.16784924796411
 21
1090.5803768800743
 31
0.0
  0
LINE
  5
99
100
AcDbEntity
  8
0
370
              -2
390
0
  6
Continuous
 62
               0
100
AcDbLine
 10
482.167849247964
 20
1165.5803768800884
 30
0.0
 11
482.167849247964
 21
1090.5803768800743
 31
0.0
  0
LINE
  5
9A
100
AcDbEntity
  8
0
370
              -2
390
0
  6
Continuous
 62
               0
100
AcDbLine
 10
122.16784924796411
 20
1090.5803768800743
 30
0.0
 11
482.167849247964
 21
1090.5803768800743
 31
0.0
  0
CIRCLE
  5
9B
102
{ACAD_REACTORS
330
9C
102
}
100
AcDbEntity
  8
0
370
              -2
390
0
  6
Continuous
 62
               0
100
AcDbCircle
 10
122.16784924796411
 20
1090.5803768800743
 30
0.0
 40
1.9998779296875
  0
HATCH
  5
9C
100
AcDbEntity
  8
0
370
              -2
390
0
  6
Continuous
 62
               0
100
AcDbHatch
 10
0.0
 20
0.0
 30
0.0
210
0.0
220
0.0
230
1.0
  2
SOLID
 70
               1
 71
               1
 91
        1
 92
        1
 93
        1
 72
               2
 10
122.16784924796411
 20
1090.5803768800743
 40
1.9998779296875
 50
0.0
 51
360.0
 73
               0
 97
        1
330
9B
 75
               0
 76
               1
 98
        1
 10
0.0
 20
0.0
  0
CIRCLE
  5
9D
102
{ACAD_REACTORS
330
9E
102
}
100
AcDbEntity
  8
0
370
              -2
390
0
  6
Continuous
 62
               0
100
AcDbCircle
 10
482.167849247964
 20
1090.5803768800743
 30
0.0
 40
1.9998779296875
  0
HATCH
  5
9E
100
AcDbEntity
  8
0
370
              -2
390
0
  6
Continuous
 62
               0
100
AcDbHatch
 10
0.0
 20
0.0
 30
0.0
210
0.0
220
0.0
230
1.0
  2
SOLID
 70
               1
 71
               1
 91
        1
 92
        1
 93
        1
 72
               2
 10
482.167849247964
 20
1090.5803768800743
 40
1.9998779296875
 50
0.0
 51
360.0
 73
               0
 97
        1
330
9D
 75
               0
 76
               1
 98
        1
 10
0.0
 20
0.0
  0
MTEXT
  5
9F
100
AcDbEntity
  8
0
390
0
 62
               0
100
AcDbMText
 10
278.35534756578852
 20
1124.4579940675744
 30
0.0
 40
24.432617187500004
 41
0.0
 71
               1
 72
               1
  1
360
  7
ＭＳ ゴシック
 73
               1
 44
0.7828267384257843
  0
POINT
  5
A0
100
AcDbEntity
  8
Defpoints
370
               0
390
0
 62
               0
100
AcDbPoint
 10
482.167849247964
 20
1190.5803768800884
 30
0.0
  0
POINT
  5
A1
100
AcDbEntity
  8
Defpoints
370
               0
390
0
 62
               0
100
AcDbPoint
 10
122.16784924796411
 20
1190.5803768800884
 30
0.0
  0
POINT
  5
A2
100
AcDbEntity
  8
Defpoints
370
               0
390
0
 62
               0
100
AcDbPoint
 10
122.16784924796411
 20
1090.5803768800743
 30
0.0
  0
ENDBLK
  5
A3
100
AcDbEntity
  8
notes
390
0
100
AcDbBlockEnd
  0
BLOCK
  5
A4
100
AcDbEntity
  8
notes
390
0
100
AcDbBlockBegin
  2
*D9
 70
               1
 10
0.0
 20
0.0
 30
0.0
  3
*D9
  1

  0
LINE
  5
A5
100
AcDbEntity
  8
0
370
              -2
390
0
  6
Continuous
 62
               0
100
AcDbLine
 10
1341.2795905062649
 20
1410.5803768800888
 30
0.0
 11
1436.1518469498442
 21
1410.5803768800888
 31
0.0
  0
LINE
  5
A6
100
AcDbEntity
  8
0
370
              -2
390
0
  6
Continuous
 62
               0
100
AcDbLine
 10
1341.0879751716348
 20
1210.5803768800884
 30
0.0
 11
1436.1518469498442
 21
1210.5803768800884
 31
0.0
  0
LINE
  5
A7
100
AcDbEntity
  8
0
370
              -2
390
0
  6
Continuous
 62
               0
100
AcDbLine
 10
1436.1518469498442
 20
1410.5803768800888
 30
0.0
 11
1436.1518469498442
 21
1210.5803768800884
 31
0.0
  0
CIRCLE
  5
A8
102
{ACAD_REACTORS
330
A9
102
}
100
AcDbEntity
  8
0
370
              -2
390
0
  6
Continuous
 62
               0
100
AcDbCircle
 10
1436.1518469498442
 20
1410.5803768800888
 30
0.0
 40
1.9998779296875
  0
HATCH
  5
A9
100
AcDbEntity
  8
0
370
              -2
390
0
  6
Continuous
 62
               0
100
AcDbHatch
 10
0.0
 20
0.0
 30
0.0
210
0.0
220
0.0
230
1.0
  2
SOLID
 70
               1
 71
               1
 91
        1
 92
        1
 93
        1
 72
               2
 10
1436.1518469498442
 20
1410.5803768800888
 40
1.9998779296875
 50
0.0
 51
360.0
 73
               0
 97
        1
330
A8
 75
               0
 76
               1
 98
        1
 10
0.0
 20
0.0
  0
CIRCLE
  5
AA
102
{ACAD_REACTORS
330
AB
102
}
100
AcDbEntity
  8
0
370
              -2
390
0
  6
Continuous
 62
               0
100
AcDbCircle
 10
1436.1518469498442
 20
1210.5803768800884
 30
0.0
 40
1.9998779296875
  0
HATCH
  5
AB
100
AcDbEntity
  8
0
370
              -2
390
0
  6
Continuous
 62
               0
100
AcDbHatch
 10
0.0
 20
0.0
 30
0.0
210
0.0
220
0.0
230
1.0
  2
SOLID
 70
               1
 71
               1
 91
        1
 92
        1
 93
        1
 72
               2
 10
1436.1518469498442
 20
1210.5803768800884
 40
1.9998779296875
 50
0.0
 51
360.0
 73
               0
 97
        1
330
AA
 75
               0
 76
               1
 98
        1
 10
0.0
 20
0.0
  0
MTEXT
  5
AC
100
AcDbEntity
  8
0
390
0
 62
               0
100
AcDbMText
 10
1402.274229762344
 20
1286.7678751979131
 30
0.0
 40
24.432617187500004
 41
0.0
 71
               1
 72
               1
  1
200
  7
ＭＳ ゴシック
 11
0.0
 21
1.0
 31
0.0
 73
               1
 44
0.7828267384257843
  0
POINT
  5
AD
100
AcDbEntity
  8
Defpoints
370
               0
390
0
 62
               0
100
AcDbPoint
 10
1316.0879751716348
 20
1210.5803768800884
 30
0.0
  0
POINT
  5
AE
100
AcDbEntity
  8
Defpoints
370
               0
390
0
 62
               0
100
AcDbPoint
 10
1316.2795905062649
 20
1410.5803768800888
 30
0.0
  0
POINT
  5
AF
100
AcDbEntity
  8
Defpoints
370
               0
390
0
 62
               0
100
AcDbPoint
 10
1436.1518469498442
 20
1410.5803768800888
 30
0.0
  0
ENDBLK
  5
B0
100
AcDbEntity
  8
notes
390
0
100
AcDbBlockEnd
  0
BLOCK
  5
B1
100
AcDbEntity
  8
notes
390
0
100
AcDbBlockBegin
  2
*D10
 70
               1
 10
0.0
 20
0.0
 30
0.0
  3
*D10
  1

  0
LINE
  5
B2
100
AcDbEntity
  8
0
370
              -2
390
0
  6
Continuous
 62
               0
100
AcDbLine
 10
956.08797517163464
 20
1185.5803768800884
 30
0.0
 11
956.08797517163464
 21
1090.5803768800743
 31
0.0
  0
LINE
  5
B3
100
AcDbEntity
  8
0
370
              -2
390
0
  6
Continuous
 62
               0
100
AcDbLine
 10
1316.0879751716348
 20
1185.5803768800884
 30
0.0
 11
1316.0879751716348
 21
1090.5803768800743
 31
0.0
  0
LINE
  5
B4
100
AcDbEntity
  8
0
370
              -2
390
0
  6
Continuous
 62
               0
100
AcDbLine
 10
956.08797517163464
 20
1090.5803768800743
 30
0.0
 11
1316.0879751716348
 21
1090.5803768800743
 31
0.0
  0
CIRCLE
  5
B5
102
{ACAD_REACTORS
330
B6
102
}
100
AcDbEntity
  8
0
370
              -2
390
0
  6
Continuous
 62
               0
100
AcDbCircle
 10
956.08797517163464
 20
1090.5803768800743
 30
0.0
 40
1.9998779296875
  0
HATCH
  5
B6
100
AcDbEntity
  8
0
370
              -2
390
0
  6
Continuous
 62
               0
100
AcDbHatch
 10
0.0
 20
0.0
 30
0.0
210
0.0
220
0.0
230
1.0
  2
SOLID
 70
               1
 71
               1
 91
        1
 92
        1
 93
        1
 72
               2
 10
956.08797517163464
 20
1090.5803768800743
 40
1.9998779296875
 50
0.0
 51
360.0
 73
               0
 97
        1
330
B5
 75
               0
 76
               1
 98
        1
 10
0.0
 20
0.0
  0
CIRCLE
  5
B7
102
{ACAD_REACTORS
330
B8
102
}
100
AcDbEntity
  8
0
370
              -2
390
0
  6
Continuous
 62
               0
100
AcDbCircle
 10
1316.0879751716348
 20
1090.5803768800743
 30
0.0
 40
1.9998779296875
  0
HATCH
  5
B8
100
AcDbEntity
  8
0
370
              -2
390
0
  6
Continuous
 62
               0
100
AcDbHatch
 10
0.0
 20
0.0
 30
0.0
210
0.0
220
0.0
230
1.0
  2
SOLID
 70
               1
 71
               1
 91
        1
 92
        1
 93
        1
 72
               2
 10
1316.0879751716348
 20
1090.5803768800743
 40
1.9998779296875
 50
0.0
 51
360.0
 73
               0
 97
        1
330
B7
 75
               0
 76
               1
 98
        1
 10
0.0
 20
0.0
  0
MTEXT
  5
B9
100
AcDbEntity
  8
0
390
0
 62
               0
100
AcDbMText
 10
1112.2754734894593
 20
1124.4579940675744
 30
0.0
 40
24.432617187500004
 41
0.0
 71
               1
 72
               1
  1
360
  7
ＭＳ ゴシック
 73
               1
 44
0.7828267384257843
  0
POINT
  5
BA
100
AcDbEntity
  8
Defpoints
370
               0
390
0
 62
               0
100
AcDbPoint
 10
1316.0879751716348
 20
1210.5803768800884
 30
0.0
  0
POINT
  5
BB
100
AcDbEntity
  8
Defpoints
370
               0
390
0
 62
               0
100
AcDbPoint
 10
956.08797517163464
 20
1210.5803768800884
 30
0.0
  0
POINT
  5
BC
100
AcDbEntity
  8
Defpoints
370
               0
390
0
 62
               0
100
AcDbPoint
 10
956.08797517163464
 20
1090.5803768800743
 30
0.0
  0
ENDBLK
  5
BD
100
AcDbEntity
  8
notes
390
0
100
AcDbBlockEnd
  0
BLOCK
  5
BE
100
AcDbEntity
  8
notes
390
0
100
AcDbBlockBegin
  2
*D11
 70
               1
 10
0.0
 20
0.0
 30
0.0
  3
*D11
  1

  0
LINE
  5
BF
100
AcDbEntity
  8
0
370
              -2
390
0
  6
Continuous
 62
               0
100
AcDbLine
 10
142.33410563048346
 20
204.71796719088746
 30
0.0
 11
142.33410563048346
 21
294.73312593604231
 31
0.0
  0
LINE
  5
C0
100
AcDbEntity
  8
0
370
              -2
390
0
  6
Continuous
 62
               0
100
AcDbLine
 10
462.33410563048335
 20
204.71796719088746
 30
0.0
 11
462.33410563048335
 21
294.73312593604231
 31
0.0
  0
LINE
  5
C1
100
AcDbEntity
  8
0
370
              -2
390
0
  6
Continuous
 62
               0
100
AcDbLine
 10
142.33410563048346
 20
294.73312593604231
 30
0.0
 11
462.33410563048335
 21
294.73312593604231
 31
0.0
  0
CIRCLE
  5
C2
102
{ACAD_REACTORS
330
C3
102
}
100
AcDbEntity
  8
0
370
              -2
390
0
  6
Continuous
 62
               0
100
AcDbCircle
 10
142.33410563048346
 20
294.73312593604231
 30
0.0
 40
1.9998779296875
  0
HATCH
  5
C3
100
AcDbEntity
  8
0
370
              -2
390
0
  6
Continuous
 62
               0
100
AcDbHatch
 10
0.0
 20
0.0
 30
0.0
210
0.0
220
0.0
230
1.0
  2
SOLID
 70
               1
 71
               1
 91
        1
 92
        1
 93
        1
 72
               2
 10
142.33410563048346
 20
294.73312593604231
 40
1.9998779296875
 50
0.0
 51
360.0
 73
               0
 97
        1
330
C2
 75
               0
 76
               1
 98
        1
 10
0.0
 20
0.0
  0
CIRCLE
  5
C4
102
{ACAD_REACTORS
330
C5
102
}
100
AcDbEntity
  8
0
370
              -2
390
0
  6
Continuous
 62
               0
100
AcDbCircle
 10
462.33410563048335
 20
294.73312593604231
 30
0.0
 40
1.9998779296875
  0
HATCH
  5
C5
100
AcDbEntity
  8
0
370
              -2
390
0
  6
Continuous
 62
               0
100
AcDbHatch
 10
0.0
 20
0.0
 30
0.0
210
0.0
220
0.0
230
1.0
  2
SOLID
 70
               1
 71
               1
 91
        1
 92
        1
 93
        1
 72
               2
 10
462.33410563048335
 20
294.73312593604231
 40
1.9998779296875
 50
0.0
 51
360.0
 73
               0
 97
        1
330
C4
 75
               0
 76
               1
 98
        1
 10
0.0
 20
0.0
  0
MTEXT
  5
C6
100
AcDbEntity
  8
0
390
0
 62
               0
100
AcDbMText
 10
278.52160394830787
 20
328.61074312354231
 30
0.0
 40
24.432617187500004
 41
0.0
 71
               1
 72
               1
  1
320
  7
ＭＳ ゴシック
 73
               1
 44
0.7828267384257843
  0
POINT
  5
C7
100
AcDbEntity
  8
Defpoints
370
               0
390
0
 62
               0
100
AcDbPoint
 10
462.33410563048335
 20
179.71796719088746
 30
0.0
  0
POINT
  5
C8
100
AcDbEntity
  8
Defpoints
370
               0
390
0
 62
               0
100
AcDbPoint
 10
142.33410563048346
 20
179.71796719088746
 30
0.0
  0
POINT
  5
C9
100
AcDbEntity
  8
Defpoints
370
               0
390
0
 62
               0
100
AcDbPoint
 10
142.33410563048346
 20
294.73312593604231
 30
0.0
  0
ENDBLK
  5
CA
100
AcDbEntity
  8
notes
390
0
100
AcDbBlockEnd
  0
BLOCK
  5
CB
100
AcDbEntity
  8
notes
390
0
100
AcDbBlockBegin
  2
*D12
 70
               1
 10
0.0
 20
0.0
 30
0.0
  3
*D12
  1

  0
LINE
  5
CC
100
AcDbEntity
  8
0
370
              -2
390
0
  6
Continuous
 62
               0
100
AcDbLine
 10
100.76025806400685
 20
164.73312593604231
 30
0.0
 11
2.770914299031574
 21
164.73312593604231
 31
0.0
  0
LINE
  5
CD
100
AcDbEntity
  8
0
370
              -2
390
0
  6
Continuous
 62
               0
100
AcDbLine
 10
83.439749988317999
 20
194.73312593604231
 30
0.0
 11
2.770914299031574
 21
194.73312593604231
 31
0.0
  0
LINE
  5
CE
100
AcDbEntity
  8
0
370
              -2
390
0
  6
Continuous
 62
               0
100
AcDbLine
 10
2.770914299031574
 20
164.73312593604231
 30
0.0
 11
2.770914299031574
 21
194.73312593604231
 31
0.0
  0
CIRCLE
  5
CF
102
{ACAD_REACTORS
330
D0
102
}
100
AcDbEntity
  8
0
370
              -2
390
0
  6
Continuous
 62
               0
100
AcDbCircle
 10
2.770914299031574
 20
164.73312593604231
 30
0.0
 40
1.9998779296875
  0
HATCH
  5
D0
100
AcDbEntity
  8
0
370
              -2
390
0
  6
Continuous
 62
               0
100
AcDbHatch
 10
0.0
 20
0.0
 30
0.0
210
0.0
220
0.0
230
1.0
  2
SOLID
 70
               1
 71
               1
 91
        1
 92
        1
 93
        1
 72
               2
 10
2.770914299031574
 20
164.73312593604231
 40
1.9998779296875
 50
0.0
 51
360.0
 73
               0
 97
        1
330
CF
 75
               0
 76
               1
 98
        1
 10
0.0
 20
0.0
  0
CIRCLE
  5
D1
102
{ACAD_REACTORS
330
D2
102
}
100
AcDbEntity
  8
0
370
              -2
390
0
  6
Continuous
 62
               0
100
AcDbCircle
 10
2.770914299031574
 20
194.73312593604231
 30
0.0
 40
1.9998779296875
  0
HATCH
  5
D2
100
AcDbEntity
  8
0
370
              -2
390
0
  6
Continuous
 62
               0
100
AcDbHatch
 10
0.0
 20
0.0
 30
0.0
210
0.0
220
0.0
230
1.0
  2
SOLID
 70
               1
 71
               1
 91
        1
 92
        1
 93
        1
 72
               2
 10
2.770914299031574
 20
194.73312593604231
 40
1.9998779296875
 50
0.0
 51
360.0
 73
               0
 97
        1
330
D1
 75
               0
 76
               1
 98
        1
 10
0.0
 20
0.0
  0
MTEXT
  5
D3
100
AcDbEntity
  8
0
390
0
 62
               0
100
AcDbMText
 10
-31.106702888468476
 20
163.85812593604231
 30
0.0
 40
24.432617187500004
 41
0.0
 71
               1
 72
               1
  1
30
  7
ＭＳ ゴシック
 11
0.0
 21
1.0
 31
0.0
 73
               1
 44
0.7828267384257843
  0
POINT
  5
D4
100
AcDbEntity
  8
Defpoints
370
               0
390
0
 62
               0
100
AcDbPoint
 10
108.439749988318
 20
194.73312593604231
 30
0.0
  0
POINT
  5
D5
100
AcDbEntity
  8
Defpoints
370
               0
390
0
 62
               0
100
AcDbPoint
 10
125.76025806400685
 20
164.73312593604231
 30
0.0
  0
POINT
  5
D6
100
AcDbEntity
  8
Defpoints
370
               0
390
0
 62
               0
100
AcDbPoint
 10
2.770914299031574
 20
164.73312593604231
 30
0.0
  0
ENDBLK
  5
D7
100
AcDbEntity
  8
notes
390
0
100
AcDbBlockEnd
  0
BLOCK
  5
D8
100
AcDbEntity
  8
notes
390
0
100
AcDbBlockBegin
  2
*D13
 70
               1
 10
0.0
 20
0.0
 30
0.0
  3
*D13
  1

  0
LINE
  5
D9
100
AcDbEntity
  8
0
370
              -2
390
0
  6
Continuous
 62
               0
100
AcDbLine
 10
521.22846127265245
 20
194.73312593604231
 30
0.0
 11
602.33410563048335
 21
194.73312593604231
 31
0.0
  0
LINE
  5
DA
100
AcDbEntity
  8
0
370
              -2
390
0
  6
Continuous
 62
               0
100
AcDbLine
 10
360.65002492491647
 20
64.733125936042313
 30
0.0
 11
602.33410563048335
 21
64.733125936042313
 31
0.0
  0
LINE
  5
DB
100
AcDbEntity
  8
0
370
              -2
390
0
  6
Continuous
 62
               0
100
AcDbLine
 10
602.33410563048335
 20
194.73312593604231
 30
0.0
 11
602.33410563048335
 21
64.733125936042313
 31
0.0
  0
CIRCLE
  5
DC
102
{ACAD_REACTORS
330
DD
102
}
100
AcDbEntity
  8
0
370
              -2
390
0
  6
Continuous
 62
               0
100
AcDbCircle
 10
602.33410563048335
 20
194.73312593604231
 30
0.0
 40
1.9998779296875
  0
HATCH
  5
DD
100
AcDbEntity
  8
0
370
              -2
390
0
  6
Continuous
 62
               0
100
AcDbHatch
 10
0.0
 20
0.0
 30
0.0
210
0.0
220
0.0
230
1.0
  2
SOLID
 70
               1
 71
               1
 91
        1
 92
        1
 93
        1
 72
               2
 10
602.33410563048335
 20
194.73312593604231
 40
1.9998779296875
 50
0.0
 51
360.0
 73
               0
 97
        1
330
DC
 75
               0
 76
               1
 98
        1
 10
0.0
 20
0.0
  0
CIRCLE
  5
DE
102
{ACAD_REACTORS
330
DF
102
}
100
AcDbEntity
  8
0
370
              -2
390
0
  6
Continuous
 62
               0
100
AcDbCircle
 10
602.33410563048335
 20
64.733125936042313
 30
0.0
 40
1.9998779296875
  0
HATCH
  5
DF
100
AcDbEntity
  8
0
370
              -2
390
0
  6
Continuous
 62
               0
100
AcDbHatch
 10
0.0
 20
0.0
 30
0.0
210
0.0
220
0.0
230
1.0
  2
SOLID
 70
               1
 71
               1
 91
        1
 92
        1
 93
        1
 72
               2
 10
602.33410563048335
 20
64.733125936042313
 40
1.9998779296875
 50
0.0
 51
360.0
 73
               0
 97
        1
330
DE
 75
               0
 76
               1
 98
        1
 10
0.0
 20
0.0
  0
MTEXT
  5
E0
100
AcDbEntity
  8
0
390
0
 62
               0
100
AcDbMText
 10
568.4564884429833
 20
105.92062425386678
 30
0.0
 40
24.432617187500004
 41
0.0
 71
               1
 72
               1
  1
130
  7
ＭＳ ゴシック
 11
0.0
 21
1.0
 31
0.0
 73
               1
 44
0.7828267384257843
  0
POINT
  5
E1
100
AcDbEntity
  8
Defpoints
370
               0
390
0
 62
               0
100
AcDbPoint
 10
335.65002492491647
 20
64.733125936042313
 30
0.0
  0
POINT
  5
E2
100
AcDbEntity
  8
Defpoints
370
               0
390
0
 62
               0
100
AcDbPoint
 10
496.22846127265245
 20
194.73312593604231
 30
0.0
  0
POINT
  5
E3
100
AcDbEntity
  8
Defpoints
370
               0
390
0
 62
               0
100
AcDbPoint
 10
602.33410563048335
 20
194.73312593604231
 30
0.0
  0
ENDBLK
  5
E4
100
AcDbEntity
  8
notes
390
0
100
AcDbBlockEnd
  0
BLOCK
  5
E5
100
AcDbEntity
  8
notes
390
0
100
AcDbBlockBegin
  2
*D14
 70
               1
 10
0.0
 20
0.0
 30
0.0
  3
*D14
  1

  0
LINE
  5
E6
100
AcDbEntity
  8
0
370
              -2
390
0
  6
Continuous
 62
               0
100
AcDbLine
 10
1300.1060909982825
 20
59.017068678650219
 30
0.0
 11
1300.1060909982825
 21
-34.853081797636492
 31
0.0
  0
LINE
  5
E7
100
AcDbEntity
  8
0
370
              -2
390
0
  6
Continuous
 62
               0
100
AcDbLine
 10
1205.1060909982825
 20
40.146918202363565
 30
0.0
 11
1205.1060909982825
 21
-34.853081797636492
 31
0.0
  0
LINE
  5
E8
100
AcDbEntity
  8
0
370
              -2
390
0
  6
Continuous
 62
               0
100
AcDbLine
 10
1300.1060909982825
 20
-34.853081797636492
 30
0.0
 11
1205.1060909982825
 21
-34.853081797636492
 31
0.0
  0
CIRCLE
  5
E9
102
{ACAD_REACTORS
330
EA
102
}
100
AcDbEntity
  8
0
370
              -2
390
0
  6
Continuous
 62
               0
100
AcDbCircle
 10
1300.1060909982825
 20
-34.853081797636492
 30
0.0
 40
1.9998779296875
  0
HATCH
  5
EA
100
AcDbEntity
  8
0
370
              -2
390
0
  6
Continuous
 62
               0
100
AcDbHatch
 10
0.0
 20
0.0
 30
0.0
210
0.0
220
0.0
230
1.0
  2
SOLID
 70
               1
 71
               1
 91
        1
 92
        1
 93
        1
 72
               2
 10
1300.1060909982825
 20
-34.853081797636492
 40
1.9998779296875
 50
0.0
 51
360.0
 73
               0
 97
        1
330
E9
 75
               0
 76
               1
 98
        1
 10
0.0
 20
0.0
  0
CIRCLE
  5
EB
102
{ACAD_REACTORS
330
EC
102
}
100
AcDbEntity
  8
0
370
              -2
390
0
  6
Continuous
 62
               0
100
AcDbCircle
 10
1205.1060909982825
 20
-34.853081797636492
 30
0.0
 40
1.9998779296875
  0
HATCH
  5
EC
100
AcDbEntity
  8
0
370
              -2
390
0
  6
Continuous
 62
               0
100
AcDbHatch
 10
0.0
 20
0.0
 30
0.0
210
0.0
220
0.0
230
1.0
  2
SOLID
 70
               1
 71
               1
 91
        1
 92
        1
 93
        1
 72
               2
 10
1205.1060909982825
 20
-34.853081797636492
 40
1.9998779296875
 50
0.0
 51
360.0
 73
               0
 97
        1
330
EB
 75
               0
 76
               1
 98
        1
 10
0.0
 20
0.0
  0
MTEXT
  5
ED
100
AcDbEntity
  8
0
390
0
 62
               0
100
AcDbMText
 10
1240.7768469498442
 20
-0.9754646101364415
 30
0.0
 40
24.432617187500004
 41
0.0
 71
               1
 72
               1
  1
95
  7
ＭＳ ゴシック
 73
               1
 44
0.7828267384257843
  0
POINT
  5
EE
100
AcDbEntity
  8
Defpoints
370
               0
390
0
 62
               0
100
AcDbPoint
 10
1205.1060909982825
 20
65.146918202363565
 30
0.0
  0
POINT
  5
EF
100
AcDbEntity
  8
Defpoints
370
               0
390
0
 62
               0
100
AcDbPoint
 10
1300.1060909982825
 20
84.017068678650219
 30
0.0
  0
POINT
  5
F0
100
AcDbEntity
  8
Defpoints
370
               0
390
0
 62
               0
100
AcDbPoint
 10
1300.1060909982825
 20
-34.853081797636492
 30
0.0
  0
ENDBLK
  5
F1
100
AcDbEntity
  8
notes
390
0
100
AcDbBlockEnd
  0
BLOCK
  5
F2
100
AcDbEntity
  8
notes
390
0
100
AcDbBlockBegin
  2
*D15
 70
               1
 10
0.0
 20
0.0
 30
0.0
  3
*D15
  1

  0
LINE
  5
F3
100
AcDbEntity
  8
0
370
              -2
390
0
  6
Continuous
 62
               0
100
AcDbLine
 10
1063.4839796601946
 20
194.73312593604231
 30
0.0
 11
982.92096547957317
 21
194.73312593604231
 31
0.0
  0
LINE
  5
F4
100
AcDbEntity
  8
0
370
              -2
390
0
  6
Continuous
 62
               0
100
AcDbLine
 10
1062.3564282505167
 20
134.73312593604231
 30
0.0
 11
982.92096547957317
 21
134.73312593604231
 31
0.0
  0
LINE
  5
F5
100
AcDbEntity
  8
0
370
              -2
390
0
  6
Continuous
 62
               0
100
AcDbLine
 10
982.92096547957317
 20
194.73312593604231
 30
0.0
 11
982.92096547957317
 21
134.73312593604231
 31
0.0
  0
CIRCLE
  5
F6
102
{ACAD_REACTORS
330
F7
102
}
100
AcDbEntity
  8
0
370
              -2
390
0
  6
Continuous
 62
               0
100
AcDbCircle
 10
982.92096547957317
 20
194.73312593604231
 30
0.0
 40
1.9998779296875
  0
HATCH
  5
F7
100
AcDbEntity
  8
0
370
              -2
390
0
  6
Continuous
 62
               0
100
AcDbHatch
 10
0.0
 20
0.0
 30
0.0
210
0.0
220
0.0
230
1.0
  2
SOLID
 70
               1
 71
               1
 91
        1
 92
        1
 93
        1
 72
               2
 10
982.92096547957317
 20
194.73312593604231
 40
1.9998779296875
 50
0.0
 51
360.0
 73
               0
 97
        1
330
F6
 75
               0
 76
               1
 98
        1
 10
0.0
 20
0.0
  0
CIRCLE
  5
F8
102
{ACAD_REACTORS
330
F9
102
}
100
AcDbEntity
  8
0
370
              -2
390
0
  6
Continuous
 62
               0
100
AcDbCircle
 10
982.92096547957317
 20
134.73312593604231
 30
0.0
 40
1.9998779296875
  0
HATCH
  5
F9
100
AcDbEntity
  8
0
370
              -2
390
0
  6
Continuous
 62
               0
100
AcDbHatch
 10
0.0
 20
0.0
 30
0.0
210
0.0
220
0.0
230
1.0
  2
SOLID
 70
               1
 71
               1
 91
        1
 92
        1
 93
        1
 72
               2
 10
982.92096547957317
 20
134.73312593604231
 40
1.9998779296875
 50
0.0
 51
360.0
 73
               0
 97
        1
330
F8
 75
               0
 76
               1
 98
        1
 10
0.0
 20
0.0
  0
MTEXT
  5
FA
100
AcDbEntity
  8
0
390
0
 62
               0
100
AcDbMText
 10
949.04334829207312
 20
148.85812593604231
 30
0.0
 40
24.432617187500004
 41
0.0
 71
               1
 72
               1
  1
60
  7
ＭＳ ゴシック
 11
0.0
 21
1.0
 31
0.0
 73
               1
 44
0.7828267384257843
  0
POINT
  5
FB
100
AcDbEntity
  8
Defpoints
370
               0
390
0
 62
               0
100
AcDbPoint
 10
1087.3564282505167
 20
134.73312593604231
 30
0.0
  0
POINT
  5
FC
100
AcDbEntity
  8
Defpoints
370
               0
390
0
 62
               0
100
AcDbPoint
 10
1088.4839796601946
 20
194.73312593604231
 30
0.0
  0
POINT
  5
FD
100
AcDbEntity
  8
Defpoints
370
               0
390
0
 62
               0
100
AcDbPoint
 10
982.92096547957317
 20
194.73312593604231
 30
0.0
  0
ENDBLK
  5
FE
100
AcDbEntity
  8
notes
390
0
100
AcDbBlockEnd
  0
BLOCK
  5
FF
100
AcDbEntity
  8
notes
390
0
100
AcDbBlockBegin
  2
*D16
 70
               1
 10
0.0
 20
0.0
 30
0.0
  3
*D16
  1

  0
LINE
  5
100
100
AcDbEntity
  8
0
370
              -2
390
0
  6
Continuous
 62
               0
100
AcDbLine
 10
1063.166423480101
 20
134.73312593604231
 30
0.0
 11
982.92096547957317
 21
134.73312593604231
 31
0.0
  0
LINE
  5
101
100
AcDbEntity
  8
0
370
              -2
390
0
  6
Continuous
 62
               0
100
AcDbLine
 10
1150.920332245875
 20
64.733125936042313
 30
0.0
 11
982.92096547957317
 21
64.733125936042313
 31
0.0
  0
LINE
  5
102
100
AcDbEntity
  8
0
370
              -2
390
0
  6
Continuous
 62
               0
100
AcDbLine
 10
982.92096547957317
 20
134.73312593604231
 30
0.0
 11
982.92096547957317
 21
64.733125936042313
 31
0.0
  0
CIRCLE
  5
103
102
{ACAD_REACTORS
330
104
102
}
100
AcDbEntity
  8
0
370
              -2
390
0
  6
Continuous
 62
               0
100
AcDbCircle
 10
982.92096547957317
 20
134.73312593604231
 30
0.0
 40
1.9998779296875
  0
HATCH
  5
104
100
AcDbEntity
  8
0
370
              -2
390
0
  6
Continuous
 62
               0
100
AcDbHatch
 10
0.0
 20
0.0
 30
0.0
210
0.0
220
0.0
230
1.0
  2
SOLID
 70
               1
 71
               1
 91
        1
 92
        1
 93
        1
 72
               2
 10
982.92096547957317
 20
134.73312593604231
 40
1.9998779296875
 50
0.0
 51
360.0
 73
               0
 97
        1
330
103
 75
               0
 76
               1
 98
        1
 10
0.0
 20
0.0
  0
CIRCLE
  5
105
102
{ACAD_REACTORS
330
106
102
}
100
AcDbEntity
  8
0
370
              -2
390
0
  6
Continuous
 62
               0
100
AcDbCircle
 10
982.92096547957317
 20
64.733125936042313
 30
0.0
 40
1.9998779296875
  0
HATCH
  5
106
100
AcDbEntity
  8
0
370
              -2
390
0
  6
Continuous
 62
               0
100
AcDbHatch
 10
0.0
 20
0.0
 30
0.0
210
0.0
220
0.0
230
1.0
  2
SOLID
 70
               1
 71
               1
 91
        1
 92
        1
 93
        1
 72
               2
 10
982.92096547957317
 20
64.733125936042313
 40
1.9998779296875
 50
0.0
 51
360.0
 73
               0
 97
        1
330
105
 75
               0
 76
               1
 98
        1
 10
0.0
 20
0.0
  0
MTEXT
  5
107
100
AcDbEntity
  8
0
390
0
 62
               0
100
AcDbMText
 10
949.04334829207312
 20
83.858125936042313
 30
0.0
 40
24.432617187500004
 41
0.0
 71
               1
 72
               1
  1
70
  7
ＭＳ ゴシック
 11
0.0
 21
1.0
 31
0.0
 73
               1
 44
0.7828267384257843
  0
POINT
  5
108
100
AcDbEntity
  8
Defpoints
370
               0
390
0
 62
               0
100
AcDbPoint
 10
1175.920332245875
 20
64.733125936042313
 30
0.0
  0
POINT
  5
109
100
AcDbEntity
  8
Defpoints
370
               0
390
0
 62
               0
100
AcDbPoint
 10
1088.166423480101
 20
134.73312593604231
 30
0.0
  0
POINT
  5
10A
100
AcDbEntity
  8
Defpoints
370
               0
390
0
 62
               0
100
AcDbPoint
 10
982.92096547957317
 20
134.73312593604231
 30
0.0
  0
ENDBLK
  5
10B
100
AcDbEntity
  8
notes
390
0
100
AcDbBlockEnd
  0
BLOCK
  5
10C
100
AcDbEntity
  8
notes
390
0
100
AcDbBlockBegin
  2
*D17
 70
               1
 10
0.0
 20
0.0
 30
0.0
  3
*D17
  1

  0
LINE
  5
10D
100
AcDbEntity
  8
0
370
              -2
390
0
  6
Continuous
 62
               0
100
AcDbLine
 10
504.24387197526437
 20
1355.5803768800888
 30
0.0
 11
564.667849247964
 21
1355.5803768800888
 31
0.0
  0
LINE
  5
10E
100
AcDbEntity
  8
0
370
              -2
390
0
  6
Continuous
 62
               0
100
AcDbLine
 10
524.167849247964
 20
1410.5803768800888
 30
0.0
 11
564.667849247964
 21
1410.5803768800888
 31
0.0
  0
LINE
  5
10F
100
AcDbEntity
  8
0
370
              -2
390
0
  6
Continuous
 62
               0
100
AcDbLine
 10
564.667849247964
 20
1355.5803768800888
 30
0.0
 11
564.667849247964
 21
1410.5803768800888
 31
0.0
  0
CIRCLE
  5
110
102
{ACAD_REACTORS
330
111
102
}
100
AcDbEntity
  8
0
370
              -2
390
0
  6
Continuous
 62
               0
100
AcDbCircle
 10
564.667849247964
 20
1355.5803768800888
 30
0.0
 40
1.9998779296875
  0
HATCH
  5
111
100
AcDbEntity
  8
0
370
              -2
390
0
  6
Continuous
 62
               0
100
AcDbHatch
 10
0.0
 20
0.0
 30
0.0
210
0.0
220
0.0
230
1.0
  2
SOLID
 70
               1
 71
               1
 91
        1
 92
        1
 93
        1
 72
               2
 10
564.667849247964
 20
1355.5803768800888
 40
1.9998779296875
 50
0.0
 51
360.0
 73
               0
 97
        1
330
110
 75
               0
 76
               1
 98
        1
 10
0.0
 20
0.0
  0
CIRCLE
  5
112
102
{ACAD_REACTORS
330
113
102
}
100
AcDbEntity
  8
0
370
              -2
390
0
  6
Continuous
 62
               0
100
AcDbCircle
 10
564.667849247964
 20
1410.5803768800888
 30
0.0
 40
1.9998779296875
  0
HATCH
  5
113
100
AcDbEntity
  8
0
370
              -2
390
0
  6
Continuous
 62
               0
100
AcDbHatch
 10
0.0
 20
0.0
 30
0.0
210
0.0
220
0.0
230
1.0
  2
SOLID
 70
               1
 71
               1
 91
        1
 92
        1
 93
        1
 72
               2
 10
564.667849247964
 20
1410.5803768800888
 40
1.9998779296875
 50
0.0
 51
360.0
 73
               0
 97
        1
330
112
 75
               0
 76
               1
 98
        1
 10
0.0
 20
0.0
  0
MTEXT
  5
114
100
AcDbEntity
  8
0
390
0
 62
               0
100
AcDbMText
 10
530.79023206046395
 20
1367.2053768800888
 30
0.0
 40
24.432617187500004
 41
0.0
 71
               1
 72
               1
  1
55
  7
ＭＳ ゴシック
 11
0.0
 21
1.0
 31
0.0
 73
               1
 44
0.7828267384257843
  0
POINT
  5
115
100
AcDbEntity
  8
Defpoints
370
               0
390
0
 62
               0
100
AcDbPoint
 10
499.167849247964
 20
1410.5803768800888
 30
0.0
  0
POINT
  5
116
100
AcDbEntity
  8
Defpoints
370
               0
390
0
 62
               0
100
AcDbPoint
 10
479.24387197526437
 20
1355.5803768800888
 30
0.0
  0
POINT
  5
117
100
AcDbEntity
  8
Defpoints
370
               0
390
0
 62
               0
100
AcDbPoint
 10
564.667849247964
 20
1355.5803768800888
 30
0.0
  0
ENDBLK
  5
118
100
AcDbEntity
  8
notes
390
0
100
AcDbBlockEnd
  0
BLOCK
  5
119
100
AcDbEntity
  8
notes
390
0
100
AcDbBlockBegin
  2
*D18
 70
               1
 10
0.0
 20
0.0
 30
0.0
  3
*D18
  1

  0
LINE
  5
11A
100
AcDbEntity
  8
0
370
              -2
390
0
  6
Continuous
 62
               0
100
AcDbLine
 10
461.74387197526437
 20
1398.0803768800888
 30
0.0
 11
461.74387197526437
 21
1460.0092750384902
 31
0.0
  0
LINE
  5
11B
100
AcDbEntity
  8
0
370
              -2
390
0
  6
Continuous
 62
               0
100
AcDbLine
 10
502.167849247964
 20
1432.5803768800888
 30
0.0
 11
502.167849247964
 21
1460.0092750384902
 31
0.0
  0
LINE
  5
11C
100
AcDbEntity
  8
0
370
              -2
390
0
  6
Continuous
 62
               0
100
AcDbLine
 10
461.74387197526437
 20
1460.0092750384902
 30
0.0
 11
502.167849247964
 21
1460.0092750384902
 31
0.0
  0
CIRCLE
  5
11D
102
{ACAD_REACTORS
330
11E
102
}
100
AcDbEntity
  8
0
370
              -2
390
0
  6
Continuous
 62
               0
100
AcDbCircle
 10
461.74387197526437
 20
1460.0092750384902
 30
0.0
 40
1.9998779296875
  0
HATCH
  5
11E
100
AcDbEntity
  8
0
370
              -2
390
0
  6
Continuous
 62
               0
100
AcDbHatch
 10
0.0
 20
0.0
 30
0.0
210
0.0
220
0.0
230
1.0
  2
SOLID
 70
               1
 71
               1
 91
        1
 92
        1
 93
        1
 72
               2
 10
461.74387197526437
 20
1460.0092750384902
 40
1.9998779296875
 50
0.0
 51
360.0
 73
               0
 97
        1
330
11D
 75
               0
 76
               1
 98
        1
 10
0.0
 20
0.0
  0
CIRCLE
  5
11F
102
{ACAD_REACTORS
330
120
102
}
100
AcDbEntity
  8
0
370
              -2
390
0
  6
Continuous
 62
               0
100
AcDbCircle
 10
502.167849247964
 20
1460.0092750384902
 30
0.0
 40
1.9998779296875
  0
HATCH
  5
120
100
AcDbEntity
  8
0
370
              -2
390
0
  6
Continuous
 62
               0
100
AcDbHatch
 10
0.0
 20
0.0
 30
0.0
210
0.0
220
0.0
230
1.0
  2
SOLID
 70
               1
 71
               1
 91
        1
 92
        1
 93
        1
 72
               2
 10
502.167849247964
 20
1460.0092750384902
 40
1.9998779296875
 50
0.0
 51
360.0
 73
               0
 97
        1
330
11F
 75
               0
 76
               1
 98
        1
 10
0.0
 20
0.0
  0
MTEXT
  5
121
100
AcDbEntity
  8
0
390
0
 62
               0
100
AcDbMText
 10
466.08086061161418
 20
1493.8868922259901
 30
0.0
 40
24.432617187500004
 41
0.0
 71
               1
 72
               1
  1
40
  7
ＭＳ ゴシック
 73
               1
 44
0.7828267384257843
  0
POINT
  5
122
100
AcDbEntity
  8
Defpoints
370
               0
390
0
 62
               0
100
AcDbPoint
 10
502.167849247964
 20
1407.5803768800888
 30
0.0
  0
POINT
  5
123
100
AcDbEntity
  8
Defpoints
370
               0
390
0
 62
               0
100
AcDbPoint
 10
461.74387197526437
 20
1373.0803768800888
 30
0.0
  0
POINT
  5
124
100
AcDbEntity
  8
Defpoints
370
               0
390
0
 62
               0
100
AcDbPoint
 10
461.74387197526437
 20
1460.0092750384902
 30
0.0
  0
ENDBLK
  5
125
100
AcDbEntity
  8
notes
390
0
100
AcDbBlockEnd
  0
BLOCK
  5
126
100
AcDbEntity
  8
notes
390
0
100
AcDbBlockBegin
  2
*D19
 70
               1
 10
0.0
 20
0.0
 30
0.0
  3
*D19
  1

  0
LINE
  5
127
100
AcDbEntity
  8
0
370
              -2
390
0
  6
Continuous
 62
               0
100
AcDbLine
 10
1218.2000329440461
 20
194.73312593604231
 30
0.0
 11
1202.2000329440461
 21
194.73312593604231
 31
0.0
  0
LINE
  5
128
100
AcDbEntity
  8
0
370
              -2
390
0
  6
Continuous
 62
               0
100
AcDbLine
 10
1219.1362572392027
 20
89.733125936042313
 30
0.0
 11
1202.2000329440461
 21
89.733125936042313
 31
0.0
  0
LINE
  5
129
100
AcDbEntity
  8
0
370
              -2
390
0
  6
Continuous
 62
               0
100
AcDbLine
 10
1202.2000329440461
 20
194.73312593604231
 30
0.0
 11
1202.2000329440461
 21
346.26837997388668
 31
0.0
  0
LINE
  5
12A
100
AcDbEntity
  8
0
370
              -2
390
0
  6
Continuous
 62
               0
100
AcDbLine
 10
1202.2000329440461
 20
194.73312593604231
 30
0.0
 11
1202.2000329440461
 21
89.733125936042313
 31
0.0
  0
CIRCLE
  5
12B
102
{ACAD_REACTORS
330
12C
102
}
100
AcDbEntity
  8
0
370
              -2
390
0
  6
Continuous
 62
               0
100
AcDbCircle
 10
1202.2000329440461
 20
194.73312593604231
 30
0.0
 40
1.9998779296875
  0
HATCH
  5
12C
100
AcDbEntity
  8
0
370
              -2
390
0
  6
Continuous
 62
               0
100
AcDbHatch
 10
0.0
 20
0.0
 30
0.0
210
0.0
220
0.0
230
1.0
  2
SOLID
 70
               1
 71
               1
 91
        1
 92
        1
 93
        1
 72
               2
 10
1202.2000329440461
 20
194.73312593604231
 40
1.9998779296875
 50
0.0
 51
360.0
 73
               0
 97
        1
330
12B
 75
               0
 76
               1
 98
        1
 10
0.0
 20
0.0
  0
CIRCLE
  5
12D
102
{ACAD_REACTORS
330
12E
102
}
100
AcDbEntity
  8
0
370
              -2
390
0
  6
Continuous
 62
               0
100
AcDbCircle
 10
1202.2000329440461
 20
89.733125936042313
 30
0.0
 40
1.9998779296875
  0
HATCH
  5
12E
100
AcDbEntity
  8
0
370
              -2
390
0
  6
Continuous
 62
               0
100
AcDbHatch
 10
0.0
 20
0.0
 30
0.0
210
0.0
220
0.0
230
1.0
  2
SOLID
 70
               1
 71
               1
 91
        1
 92
        1
 93
        1
 72
               2
 10
1202.2000329440461
 20
89.733125936042313
 40
1.9998779296875
 50
0.0
 51
360.0
 73
               0
 97
        1
330
12D
 75
               0
 76
               1
 98
        1
 10
0.0
 20
0.0
  0
MTEXT
  5
12F
100
AcDbEntity
  8
0
390
0
 62
               0
100
AcDbMText
 10
1168.3224157565462
 20
203.39337997388668
 30
0.0
 40
24.432617187500004
 41
0.0
 71
               1
 72
               1
  1
105(深さ)
  7
ＭＳ ゴシック
 11
0.0
 21
1.0
 31
0.0
 73
               1
 44
0.7828267384257843
  0
POINT
  5
130
100
AcDbEntity
  8
Defpoints
370
               0
390
0
 62
               0
100
AcDbPoint
 10
1194.1362572392027
 20
89.733125936042313
 30
0.0
  0
POINT
  5
131
100
AcDbEntity
  8
Defpoints
370
               0
390
0
 62
               0
100
AcDbPoint
 10
1193.2000329440461
 20
194.73312593604231
 30
0.0
  0
POINT
  5
132
100
AcDbEntity
  8
Defpoints
370
               0
390
0
 62
               0
100
AcDbPoint
 10
1202.2000329440461
 20
194.73312593604231
 30
0.0
  0
ENDBLK
  5
133
100
AcDbEntity
  8
notes
390
0
100
AcDbBlockEnd
  0
BLOCK
  5
134
100
AcDbEntity
  8
ADF70-1711
390
0
100
AcDbBlockBegin
  2
*D20
 70
               1
 10
0.0
 20
0.0
 30
0.0
  3
*D20
  1

  0
LINE
  5
135
100
AcDbEntity
  8
0
370
              -2
390
0
  6
Continuous
 62
               0
100
AcDbLine
 10
202.16784924796406
 20
1435.5803768800888
 30
0.0
 11
202.16784924796406
 21
1460.0092750384902
 31
0.0
  0
LINE
  5
136
100
AcDbEntity
  8
0
370
              -2
390
0
  6
Continuous
 62
               0
100
AcDbLine
 10
402.16784924796406
 20
1435.5803768800888
 30
0.0
 11
402.16784924796406
 21
1460.0092750384902
 31
0.0
  0
LINE
  5
137
100
AcDbEntity
  8
0
370
              -2
390
0
  6
Continuous
 62
               0
100
AcDbLine
 10
202.16784924796406
 20
1460.0092750384902
 30
0.0
 11
402.16784924796406
 21
1460.0092750384902
 31
0.0
  0
CIRCLE
  5
138
102
{ACAD_REACTORS
330
139
102
}
100
AcDbEntity
  8
0
370
              -2
390
0
  6
Continuous
 62
               0
100
AcDbCircle
 10
202.16784924796406
 20
1460.0092750384902
 30
0.0
 40
1.9998779296875
  0
HATCH
  5
139
100
AcDbEntity
  8
0
370
              -2
390
0
  6
Continuous
 62
               0
100
AcDbHatch
 10
0.0
 20
0.0
 30
0.0
210
0.0
220
0.0
230
1.0
  2
SOLID
 70
               1
 71
               1
 91
        1
 92
        1
 93
        1
 72
               2
 10
202.16784924796406
 20
1460.0092750384902
 40
1.9998779296875
 50
0.0
 51
360.0
 73
               0
 97
        1
330
138
 75
               0
 76
               1
 98
        1
 10
0.0
 20
0.0
  0
CIRCLE
  5
13A
102
{ACAD_REACTORS
330
13B
102
}
100
AcDbEntity
  8
0
370
              -2
390
0
  6
Continuous
 62
               0
100
AcDbCircle
 10
402.16784924796406
 20
1460.0092750384902
 30
0.0
 40
1.9998779296875
  0
HATCH
  5
13B
100
AcDbEntity
  8
0
370
              -2
390
0
  6
Continuous
 62
               0
100
AcDbHatch
 10
0.0
 20
0.0
 30
0.0
210
0.0
220
0.0
230
1.0
  2
SOLID
 70
               1
 71
               1
 91
        1
 92
        1
 93
        1
 72
               2
 10
402.16784924796406
 20
1460.0092750384902
 40
1.9998779296875
 50
0.0
 51
360.0
 73
               0
 97
        1
330
13A
 75
               0
 76
               1
 98
        1
 10
0.0
 20
0.0
  0
MTEXT
  5
13C
100
AcDbEntity
  8
0
390
0
 62
               0
100
AcDbMText
 10
278.35534756578852
 20
1493.8868922259901
 30
0.0
 40
24.432617187500004
 41
0.0
 71
               1
 72
               1
  1
200
  7
ＭＳ ゴシック
 73
               1
 44
0.7828267384257843
  0
POINT
  5
13D
100
AcDbEntity
  8
Defpoints
370
               0
390
0
 62
               0
100
AcDbPoint
 10
402.16784924796406
 20
1410.5803768800888
 30
0.0
  0
POINT
  5
13E
100
AcDbEntity
  8
Defpoints
370
               0
390
0
 62
               0
100
AcDbPoint
 10
202.16784924796406
 20
1410.5803768800888
 30
0.0
  0
POINT
  5
13F
100
AcDbEntity
  8
Defpoints
370
               0
390
0
 62
               0
100
AcDbPoint
 10
202.16784924796406
 20
1460.0092750384902
 30
0.0
  0
ENDBLK
  5
140
100
AcDbEntity
  8
ADF70-1711
390
0
100
AcDbBlockEnd
  0
ENDSEC
  0
SECTION
  2
ENTITIES
  0
MTEXT
  5
141
100
AcDbEntity
  8
template
390
0
 62
               7
100
AcDbMText
 10
-285.36072099158628
 20
-594.72962167181447
 30
0.0
 40
16.288411458333332
 41
0.0
 71
               1
 72
               1
  1
品名
  7
ＭＳ ゴシック
 73
               1
 44
0.7828267384257843
  0
MTEXT
  5
142
100
AcDbEntity
  8
template
390
0
 62
               7
100
AcDbMText
 10
-285.36072099158628
 20
-679.72962167181447
 30
0.0
 40
16.288411458333332
 41
0.0
 71
               1
 72
               1
  1
仕様
  7
ＭＳ ゴシック
 73
               1
 44
0.7828267384257843
  0
MTEXT
  5
143
100
AcDbEntity
  8
template
390
0
 62
               7
100
AcDbMText
 10
-196.28105665208966
 20
-623.31208260931464
 30
0.0
 40
24.432617187500004
 41
0.0
 71
               1
 72
               1
  1
手洗器 -CATALANO,Proiezioni-
  7
ＭＳ ゴシック
 73
               1
 44
0.7828267384257843
  0
LINE
  5
144
100
AcDbEntity
  8
template
370
               5
390
0
  6
Continuous
 62
               7
100
AcDbLine
 10
1657.6392790079317
 20
-671.31469979681458
 30
0.0
 11
-292.36072099206831
 21
-671.31469979681458
 31
0.0
  0
LWPOLYLINE
  5
145
100
AcDbEntity
  8
template
370
               5
390
0
  6
Continuous
 62
               7
100
AcDbPolyline
 90
        5
 70
             128
 10
1657.6392790084137
 20
1958.6853002031853
 10
-292.36072099158628
 20
1958.6853002031853
 10
-292.36072099158628
 20
-841.31469979681458
 10
1657.6392790084137
 20
-841.31469979681458
 10
1657.6392790084137
 20
1958.6853002031853
  0
LINE
  5
146
100
AcDbEntity
  8
template
370
               5
390
0
  6
Continuous
 62
               7
100
AcDbLine
 10
1657.6392790079317
 20
-586.31469979681458
 30
0.0
 11
-292.36072099206831
 21
-586.31469979681458
 31
0.0
  0
LINE
  5
147
100
AcDbEntity
  8
template
370
               5
390
0
  6
Continuous
 62
               7
100
AcDbLine
 10
1657.6392790084137
 20
-756.31469979681458
 30
0.0
 11
904.63927900841361
 21
-756.31469979681458
 31
0.0
  0
MTEXT
  5
148
100
AcDbEntity
  8
template
390
0
 62
               7
100
AcDbMText
 10
-292.36072099138255
 20
-853.16852185367145
 30
0.0
 40
21.717881944444446
 41
0.0
 71
               1
 72
               1
  1
100707SH
  7
ＭＳ ゴシック
 73
               1
 44
0.7828267384257843
  0
MTEXT
  5
149
100
AcDbEntity
  8
template
390
0
 62
               7
100
AcDbMText
 10
934.51068526067309
 20
-786.22509427012221
 30
0.0
 40
24.432617187500004
 41
0.0
 71
               1
 72
               1
  1
大洋金物株式会社 ティーフォルム事業部
  7
ＭＳ ゴシック
 73
               1
 44
0.7828267384257843
  0
INSERT
  5
14A
100
AcDbEntity
  8
template
390
0
 62
               7
100
AcDbBlockReference
  2
グループ
 10
682.91831641445197
 20
551.31003443519887
 30
0.0
  0
MTEXT
  5
14B
100
AcDbEntity
  8
template
390
0
 62
               7
100
AcDbMText
 10
1504.639279008672
 20
-708.31208260931464
 30
0.0
 40
24.432617187500004
 41
0.0
 71
               1
 72
               1
  1
1:10
  7
ＭＳ ゴシック
 73
               1
 44
0.7828267384257843
  0
MTEXT
  5
14C
100
AcDbEntity
  8
template
390
0
 62
               7
100
AcDbMText
 10
1413.639279008672
 20
-679.72962167181447
 30
0.0
 40
16.288411458333332
 41
0.0
 71
               1
 72
               1
  1
縮尺
  7
ＭＳ ゴシック
 73
               1
 44
0.7828267384257843
  0
LINE
  5
14D
100
AcDbEntity
  8
template
370
               5
390
0
  6
Continuous
 62
               7
100
AcDbLine
 10
1406.639279008672
 20
-756.31469979681458
 30
0.0
 11
1406.639279008672
 21
-671.31469979681458
 31
0.0
  0
MTEXT
  5
14E
100
AcDbEntity
  8
template
390
0
 62
               7
100
AcDbMText
 10
1162.639279008672
 20
-679.72962167181447
 30
0.0
 40
16.288411458333332
 41
0.0
 71
               1
 72
               1
  1
容量
  7
ＭＳ ゴシック
 73
               1
 44
0.7828267384257843
  0
LINE
  5
14F
100
AcDbEntity
  8
template
370
               5
390
0
  6
Continuous
 62
               7
100
AcDbLine
 10
1155.639279008672
 20
-756.31469979681458
 30
0.0
 11
1155.639279008672
 21
-671.31469979681458
 31
0.0
  0
MTEXT
  5
150
100
AcDbEntity
  8
template
390
0
 62
               7
100
AcDbMText
 10
911.63927900867191
 20
-594.72962167181447
 30
0.0
 40
16.288411458333332
 41
0.0
 71
               1
 72
               1
  1
品番
  7
ＭＳ ゴシック
 73
               1
 44
0.7828267384257843
  0
MTEXT
  5
151
100
AcDbEntity
  8
template
390
0
 62
               7
100
AcDbMText
 10
911.63927900867191
 20
-679.72962167181447
 30
0.0
 40
16.288411458333332
 41
0.0
 71
               1
 72
               1
  1
重量
  7
ＭＳ ゴシック
 73
               1
 44
0.7828267384257843
  0
MTEXT
  5
152
100
AcDbEntity
  8
template
390
0
 62
               7
100
AcDbMText
 10
1000.7189433481685
 20
-623.31208260931464
 30
0.0
 40
24.432617187500004
 41
0.0
 71
               1
 72
               1
  1
ADF70-1711
  7
ＭＳ ゴシック
 73
               1
 44
0.7828267384257843
  0
LINE
  5
153
100
AcDbEntity
  8
template
370
               5
390
0
  6
Continuous
 62
               7
100
AcDbLine
 10
904.63927900867191
 20
-841.31469979681458
 30
0.0
 11
904.63927900867191
 21
-586.31469979681458
 31
0.0
  0
MTEXT
  5
154
100
AcDbEntity
  8
template
390
0
 62
               7
100
AcDbMText
 10
-196.28105665208966
 20
-708.31208260931464
 30
0.0
 40
24.432617187500004
 41
0.0
 71
               1
 72
               1
  1
壁掛け,半埋め込み/オーバーフロー無/壁取付ボルト付属/\P陶器/ホワイト
  7
ＭＳ ゴシック
 73
               1
 44
1.3047112307096407
  0
MTEXT
  5
155
100
AcDbEntity
  8
template
390
0
 62
               7
100
AcDbMText
 10
1255.5125686829101
 20
-708.37458698135936
 30
0.0
 40
24.432617187500004
 41
0.0
 71
               1
 72
               1
  1
4L
  7
ＭＳ ゴシック
 73
               1
 44
0.7828267384257843
  0
MTEXT
  5
156
100
AcDbEntity
  8
template
390
0
 62
               7
100
AcDbMText
 10
1003.1874983178245
 20
-708.40070303560799
 30
0.0
 40
24.432617187500004
 41
0.0
 71
               1
 72
               1
  1
7kg
  7
ＭＳ ゴシック
 73
               1
 44
0.7828267384257843
  0
DIMENSION
  5
157
100
AcDbEntity
  8
notes
370
               5
390
0
  6
Continuous
 62
               7
100
AcDbDimension
  2
*D4
 10
102.16784924796411
 20
1510.5803768800888
 30
0.0
 11
302.16784924796406
 21
1510.5803768800888
 31
0.0
 71
               5
 72
               1
 41
1.0
 42
0.0
  3
tform線あり
100
AcDbAlignedDimension
 13
502.167849247964
 23
1407.5803768800888
 33
0.0
 14
102.16784924796411
 24
1407.5803768800888
 34
0.0
100
AcDbRotatedDimension
1001
ACAD
1000
DSTYLE
1002
{
1070
             279
1070
               2
1070
             340
1005
35
1070
             147
1040
5.0
1002
}
  0
DIMENSION
  5
158
100
AcDbEntity
  8
notes
370
               5
390
0
  6
Continuous
 62
               7
100
AcDbDimension
  2
*D5
 10
602.167849247964
 20
1410.5803768800888
 30
0.0
 11
607.167849247964
 21
1306.0092750384906
 31
0.0
 70
             128
 71
               5
 72
               1
 41
1.0
 42
0.0
  3
tform線あり
100
AcDbAlignedDimension
 13
482.167849247964
 23
1190.5803768800884
 33
0.0
 14
502.167849247964
 24
1410.5803768800888
 34
0.0
 50
90.0
100
AcDbRotatedDimension
1001
ACAD
1000
DSTYLE
1002
{
1070
             279
1070
               2
1070
             340
1005
35
1070
             147
1040
5.0
1002
}
  0
DIMENSION
  5
159
100
AcDbEntity
  8
notes
370
               5
390
0
  6
Continuous
 62
               7
100
AcDbDimension
  2
*D6
 10
2.1678492479641136
 20
1380.5803768800888
 30
0.0
 11
2.1678492479641136
 21
1395.5803768800888
 31
0.0
 71
               5
 72
               1
 41
1.0
 42
0.0
  3
tform線あり
100
AcDbAlignedDimension
 13
105.16784924796411
 23
1410.5803768800888
 33
0.0
 14
102.16784924796411
 24
1380.5803768800888
 34
0.0
 50
90.0
100
AcDbRotatedDimension
1001
ACAD
1000
DSTYLE
1002
{
1070
             279
1070
               2
1070
             340
1005
35
1070
             147
1040
5.0
1002
}
  0
DIMENSION
  5
15A
100
AcDbEntity
  8
notes
370
               5
390
0
  6
Continuous
 62
               7
100
AcDbDimension
  2
*D7
 10
2.1678492479641136
 20
1380.5803768800888
 30
0.0
 11
2.1678492479641136
 21
1293.0803768800888
 31
0.0
 71
               5
 72
               1
 41
1.0
 42
0.0
  3
tform線あり
100
AcDbAlignedDimension
 13
102.80293251692581
 23
1205.5803768800888
 33
0.0
 14
102.16784924796411
 24
1380.5803768800888
 34
0.0
 50
90.0
100
AcDbRotatedDimension
1001
ACAD
1000
DSTYLE
1002
{
1070
             271
1070
               0
1070
             279
1070
               2
1070
             340
1005
35
1070
             147
1040
5.0
1002
}
  0
DIMENSION
  5
15B
100
AcDbEntity
  8
notes
370
               5
390
0
  6
Continuous
 62
               7
100
AcDbDimension
  2
*D8
 10
122.16784924796411
 20
1090.5803768800743
 30
0.0
 11
302.16784924796406
 21
1090.5803768800743
 31
0.0
 71
               5
 72
               1
 41
1.0
 42
0.0
  3
tform線あり
100
AcDbAlignedDimension
 13
482.167849247964
 23
1190.5803768800884
 33
0.0
 14
122.16784924796411
 24
1190.5803768800884
 34
0.0
100
AcDbRotatedDimension
1001
ACAD
1000
DSTYLE
1002
{
1070
             279
1070
               2
1070
             340
1005
35
1070
             147
1040
5.0
1002
}
  0
DIMENSION
  5
15C
100
AcDbEntity
  8
notes
370
               5
390
0
  6
Continuous
 62
               7
100
AcDbDimension
  2
*D9
 10
1436.1518469498442
 20
1410.5803768800888
 30
0.0
 11
1436.1518469498442
 21
1310.5803768800886
 31
0.0
 71
               5
 72
               1
 41
1.0
 42
0.0
  3
tform線あり
100
AcDbAlignedDimension
 13
1316.0879751716348
 23
1210.5803768800884
 33
0.0
 14
1316.2795905062649
 24
1410.5803768800888
 34
0.0
 50
90.0
100
AcDbRotatedDimension
1001
ACAD
1000
DSTYLE
1002
{
1070
             279
1070
               2
1070
             340
1005
35
1070
             147
1040
5.0
1002
}
  0
DIMENSION
  5
15D
100
AcDbEntity
  8
notes
370
               5
390
0
  6
Continuous
 62
               7
100
AcDbDimension
  2
*D10
 10
956.08797517163464
 20
1090.5803768800743
 30
0.0
 11
1136.0879751716348
 21
1090.5803768800743
 31
0.0
 71
               5
 72
               1
 41
1.0
 42
0.0
  3
tform線あり
100
AcDbAlignedDimension
 13
1316.0879751716348
 23
1210.5803768800884
 33
0.0
 14
956.08797517163464
 24
1210.5803768800884
 34
0.0
100
AcDbRotatedDimension
1001
ACAD
1000
DSTYLE
1002
{
1070
             279
1070
               2
1070
             340
1005
35
1070
             147
1040
5.0
1002
}
  0
DIMENSION
  5
15E
100
AcDbEntity
  8
notes
370
               5
390
0
  6
Continuous
 62
               7
100
AcDbDimension
  2
*D11
 10
142.33410563048346
 20
294.73312593604231
 30
0.0
 11
302.33410563048341
 21
294.73312593604231
 31
0.0
 71
               5
 72
               1
 41
1.0
 42
0.0
  3
tform線あり
100
AcDbAlignedDimension
 13
462.33410563048335
 23
179.71796719088746
 33
0.0
 14
142.33410563048346
 24
179.71796719088746
 34
0.0
100
AcDbRotatedDimension
1001
ACAD
1000
DSTYLE
1002
{
1070
             279
1070
               2
1070
             340
1005
35
1070
             147
1040
5.0
1002
}
  0
DIMENSION
  5
15F
100
AcDbEntity
  8
notes
370
               5
390
0
  6
Continuous
 62
               7
100
AcDbDimension
  2
*D12
 10
2.770914299031574
 20
164.73312593604231
 30
0.0
 11
2.770914299031574
 21
179.73312593604231
 31
0.0
 71
               5
 72
               1
 41
1.0
 42
0.0
  3
tform線あり
100
AcDbAlignedDimension
 13
108.439749988318
 23
194.73312593604231
 33
0.0
 14
125.76025806400685
 24
164.73312593604231
 34
0.0
 50
90.0
100
AcDbRotatedDimension
1001
ACAD
1000
DSTYLE
1002
{
1070
             279
1070
               2
1070
             340
1005
35
1070
             147
1040
5.0
1002
}
  0
DIMENSION
  5
160
100
AcDbEntity
  8
notes
370
               5
390
0
  6
Continuous
 62
               7
100
AcDbDimension
  2
*D13
 10
602.33410563048335
 20
194.73312593604231
 30
0.0
 11
602.33410563048335
 21
129.73312593604231
 31
0.0
 71
               5
 72
               1
 41
1.0
 42
0.0
  3
tform線あり
100
AcDbAlignedDimension
 13
335.65002492491647
 23
64.733125936042313
 33
0.0
 14
496.22846127265245
 24
194.73312593604231
 34
0.0
 50
90.0
100
AcDbRotatedDimension
1001
ACAD
1000
DSTYLE
1002
{
1070
             279
1070
               2
1070
             340
1005
35
1070
             147
1040
5.0
1002
}
  0
DIMENSION
  5
161
100
AcDbEntity
  8
notes
370
               5
390
0
  6
Continuous
 62
               7
100
AcDbDimension
  2
*D14
 10
1300.1060909982825
 20
-34.853081797636492
 30
0.0
 11
1256.6518469498442
 21
-29.853081797636492
 31
0.0
 70
             128
 71
               5
 72
               1
 41
1.0
 42
0.0
  3
tform線あり
100
AcDbAlignedDimension
 13
1205.1060909982825
 23
65.146918202363565
 33
0.0
 14
1300.1060909982825
 24
84.017068678650219
 34
0.0
100
AcDbRotatedDimension
1001
ACAD
1000
DSTYLE
1002
{
1070
             279
1070
               2
1070
             340
1005
35
1070
             147
1040
5.0
1002
}
  0
DIMENSION
  5
162
100
AcDbEntity
  8
notes
370
               5
390
0
  6
Continuous
 62
               7
100
AcDbDimension
  2
*D15
 10
982.92096547957317
 20
194.73312593604231
 30
0.0
 11
982.92096547957317
 21
164.73312593604231
 31
0.0
 71
               5
 72
               1
 41
1.0
 42
0.0
  3
tform線あり
100
AcDbAlignedDimension
 13
1087.3564282505167
 23
134.73312593604231
 33
0.0
 14
1088.4839796601946
 24
194.73312593604231
 34
0.0
 50
90.0
100
AcDbRotatedDimension
1001
ACAD
1000
DSTYLE
1002
{
1070
             279
1070
               2
1070
             340
1005
35
1070
             147
1040
5.0
1002
}
  0
DIMENSION
  5
163
100
AcDbEntity
  8
notes
370
               5
390
0
  6
Continuous
 62
               7
100
AcDbDimension
  2
*D16
 10
982.92096547957317
 20
134.73312593604231
 30
0.0
 11
982.92096547957317
 21
99.733125936042313
 31
0.0
 71
               5
 72
               1
 41
1.0
 42
0.0
  3
tform線あり
100
AcDbAlignedDimension
 13
1175.920332245875
 23
64.733125936042313
 33
0.0
 14
1088.166423480101
 24
134.73312593604231
 34
0.0
 50
90.0
100
AcDbRotatedDimension
1001
ACAD
1000
DSTYLE
1002
{
1070
             279
1070
               2
1070
             340
1005
35
1070
             147
1040
5.0
1002
}
  0
DIMENSION
  5
164
100
AcDbEntity
  8
notes
370
               5
390
0
  6
Continuous
 62
               7
100
AcDbDimension
  2
*D17
 10
564.667849247964
 20
1355.5803768800888
 30
0.0
 11
564.667849247964
 21
1383.0803768800888
 31
0.0
 71
               5
 72
               1
 41
1.0
 42
0.0
  3
tform線あり
100
AcDbAlignedDimension
 13
499.167849247964
 23
1410.5803768800888
 33
0.0
 14
479.24387197526437
 24
1355.5803768800888
 34
0.0
 50
90.0
100
AcDbRotatedDimension
1001
ACAD
1000
DSTYLE
1002
{
1070
             271
1070
               0
1070
             279
1070
               2
1070
             340
1005
35
1070
             147
1040
5.0
1002
}
  0
DIMENSION
  5
165
100
AcDbEntity
  8
notes
370
               5
390
0
  6
Continuous
 62
               7
100
AcDbDimension
  2
*D18
 10
461.74387197526437
 20
1460.0092750384902
 30
0.0
 11
481.95586061161418
 21
1460.0092750384902
 31
0.0
 71
               5
 72
               1
 41
1.0
 42
0.0
  3
tform線あり
100
AcDbAlignedDimension
 13
502.167849247964
 23
1407.5803768800888
 33
0.0
 14
461.74387197526437
 24
1373.0803768800888
 34
0.0
100
AcDbRotatedDimension
1001
ACAD
1000
DSTYLE
1002
{
1070
             271
1070
               0
1070
             279
1070
               2
1070
             340
1005
35
1070
             147
1040
5.0
1002
}
  0
MTEXT
  5
166
100
AcDbEntity
  8
notes
390
0
 62
               7
100
AcDbMText
 10
-122.69082241201795
 20
814.27980587435968
 30
0.0
 40
24.432617187500004
 41
842.88315656391467
 71
               1
 72
               1
  1
＝φ30もしくはφ35の水栓取付用穴あけ加工を承ります。\P   必要な場合、ご注文の際にご指示ください。
  7
ＭＳ ゴシック
 73
               1
 44
1.0437689845677123
  0
CIRCLE
  5
167
100
AcDbEntity
  8
notes
370
               5
390
0
  6
STYLE_12
 62
               7
100
AcDbCircle
 10
-150.38390679704753
 20
803.70830416055651
 30
0.0
 40
17.5
  0
MTEXT
  5
168
100
AcDbEntity
  8
notes
390
0
 62
               7
100
AcDbMText
 10
784.88505196758513
 20
814.27980587435968
 30
0.0
 40
24.432617187500004
 41
764.7717154610109
 71
               1
 72
               1
  1
※陶器製品には寸法公差があります。\P  洗面器の収め方をご確認の上、必ず現物を合わせて\P  カウンターに切込を行ってください。
  7
ＭＳゴシック
 73
               1
 44
1.0437689845677123
  0
MTEXT
  5
169
100
AcDbEntity
  8
notes
390
0
 62
               7
100
AcDbMText
 10
526.63551898972025
 20
279.49141804797682
 30
0.0
 40
24.432617187500004
 41
0.0
 71
               1
 72
               1
  1
壁取付ボルト穴(2ヶ所)
  7
ＭＳ ゴシック
 73
               1
 44
0.7828267384257843
  0
LINE
  5
16A
100
AcDbEntity
  8
notes
370
               5
390
0
  6
Continuous
 62
               7
100
AcDbLine
 10
462.28234958547171
 20
164.73312593604004
 30
0.0
 11
547.72840659159363
 21
250.17918294216332
 31
0.0
  0
MTEXT
  5
16B
100
AcDbEntity
  8
notes
390
0
 62
               7
100
AcDbMText
 10
991.12614895483227
 20
1562.1276171875002
 30
0.0
 40
24.432617187500004
 41
0.0
 71
               1
 72
               1
  1
カウンター切込寸法
  7
ＭＳゴシック
 73
               1
 44
0.7828267384257843
  0
MTEXT
  5
16C
100
AcDbEntity
  8
notes
390
0
 62
               7
100
AcDbMText
 10
11.912459294432438
 20
-9.0431050513832361
 30
0.0
 40
24.432617187500004
 41
0.0
 71
               1
 72
               1
  1
半埋め込み
  7
ＭＳ ゴシック
 73
               1
 44
0.7828267384257843
  0
LINE
  5
16D
100
AcDbEntity
  8
notes
370
               5
390
0
  6
Continuous
 62
               7
100
AcDbLine
 10
83.354125961099044
 20
134.73312593604231
 30
0.0
 11
6.6541259610992256
 21
134.73312593604231
 31
0.0
  0
LINE
  5
16E
100
AcDbEntity
  8
notes
370
               5
390
0
  6
Continuous
 62
               7
100
AcDbLine
 10
31.654125961099226
 20
134.73312593604231
 30
0.0
 11
31.654125961099226
 21
5.0
 31
0.0
  0
DIMENSION
  5
16F
100
AcDbEntity
  8
notes
370
               5
390
0
  6
Continuous
 62
               7
100
AcDbDimension
  2
*D19
 10
1202.2000329440461
 20
194.73312593604231
 30
0.0
 11
1207.2000329440461
 21
203.39337997388668
 31
0.0
 70
             128
 71
               5
 72
               1
 41
1.0
 42
0.0
  3
tform線あり
100
AcDbAlignedDimension
 13
1194.1362572392027
 23
89.733125936042313
 33
0.0
 14
1193.2000329440461
 24
194.73312593604231
 34
0.0
 50
90.0
100
AcDbRotatedDimension
1001
ACAD
1000
DSTYLE
1002
{
1070
             279
1070
               2
1070
             340
1005
35
1070
               3
1000
<>(深さ)
1070
             174
1070
               0
1070
             147
1040
5.0
1002
}
  0
LINE
  5
170
100
AcDbEntity
  8
ADF70-1711
370
              15
390
0
  6
Continuous
 62
               7
100
AcDbLine
 10
165.57408002167358
 20
82.544685765765905
 30
0.0
 11
165.24037050702646
 21
82.549116290244172
 31
0.0
  0
ARC
  5
171
100
AcDbEntity
  8
ADF70-1711
370
              15
390
0
  6
Continuous
 62
               7
100
AcDbCircle
 10
108.439749988318
 20
188.73312593604231
 30
0.0
 40
6.0
100
AcDbArc
 50
90.0
 51
180.99999999976714
  0
LINE
  5
172
100
AcDbEntity
  8
ADF70-1711
370
              15
390
0
  6
Continuous
 62
               7
100
AcDbLine
 10
302.33410563048335
 20
194.73312593604231
 30
0.0
 11
122.43761772050675
 21
194.73312593604231
 31
0.0
  0
LINE
  5
173
100
AcDbEntity
  8
ADF70-1711
370
              15
390
0
  6
Continuous
 62
               7
100
AcDbLine
 10
122.43761772050675
 20
194.73312593604231
 30
0.0
 11
108.43974998831618
 21
194.73312593604231
 31
0.0
  0
LWPOLYLINE
  5
174
100
AcDbEntity
  8
ADF70-1711
370
              15
390
0
  6
Continuous
 62
               7
100
AcDbPolyline
 90
        8
 70
             128
 10
172.94996869934215
 20
82.390813582348244
 10
172.40996914487636
 20
82.401824607896401
 42
-0.0000751929511577
 10
169.5881368848768
 20
82.459788580441398
 10
169.03607840674022
 20
82.47121161083578
 42
-0.000120651440244
 10
167.31838049648195
 20
82.507168371843989
 10
167.2894818347861
 20
82.507780287158141
 42
-0.0001654317125979
 10
165.62960173498141
 20
82.543476896630352
 10
165.57436352249715
 20
82.544684218714053
  0
ARC
  5
175
100
AcDbEntity
  8
ADF70-1711
370
              15
390
0
  6
Continuous
 62
               7
100
AcDbCircle
 10
107.31219857864016
 20
138.73312593604231
 30
0.0
 40
4.0000000000000542
100
AcDbArc
 50
181.00000000000173
 51
269.99999999979156
  0
LINE
  5
176
100
AcDbEntity
  8
ADF70-1711
370
              15
390
0
  6
Continuous
 62
               7
100
AcDbLine
 10
123.30976170114263
 20
134.73312593604231
 30
0.0
 11
302.33410563048335
 21
134.73312593604231
 31
0.0
  0
LINE
  5
177
100
AcDbEntity
  8
ADF70-1711
370
              15
390
0
  6
Continuous
 62
               7
100
AcDbLine
 10
102.44066381737866
 20
188.62841149741934
 30
0.0
 11
103.31280779801455
 21
138.66331631029306
 31
0.0
  0
LINE
  5
178
100
AcDbEntity
  8
ADF70-1711
370
              15
390
0
  6
Continuous
 62
               7
100
AcDbLine
 10
123.30976170114263
 20
134.73312593604231
 30
0.0
 11
107.31219857864016
 21
134.73312593604231
 31
0.0
  0
LINE
  5
179
100
AcDbEntity
  8
ADF70-1711
370
              15
390
0
  6
Continuous
 62
               7
100
AcDbLine
 10
481.358449559826
 20
134.73312593604231
 30
0.0
 11
302.33410563048335
 21
134.73312593604231
 31
0.0
  0
LINE
  5
17A
100
AcDbEntity
  8
ADF70-1711
370
              15
390
0
  6
Continuous
 62
               7
100
AcDbLine
 10
481.358449559826
 20
134.73312593604231
 30
0.0
 11
497.35601268232847
 21
134.73312593604231
 31
0.0
  0
ARC
  5
17B
100
AcDbEntity
  8
ADF70-1711
370
              15
390
0
  6
Continuous
 62
               7
100
AcDbCircle
 10
497.35601268232847
 20
138.73312593604231
 30
0.0
 40
4.0
100
AcDbArc
 50
270.00000000020844
 51
358.99999999999824
  0
LINE
  5
17C
100
AcDbEntity
  8
ADF70-1711
370
              15
390
0
  6
Continuous
 62
               7
100
AcDbLine
 10
502.22754744358997
 20
188.62841149741934
 30
0.0
 11
501.35540346295409
 21
138.66331631029306
 31
0.0
  0
ARC
  5
17D
100
AcDbEntity
  8
ADF70-1711
370
              15
390
0
  6
Continuous
 62
               7
100
AcDbCircle
 10
496.22846127265245
 20
188.73312593604231
 30
0.0
 40
6.0000000000005631
100
AcDbArc
 50
359.00000000023283
 51
90.0
  0
LINE
  5
17E
100
AcDbEntity
  8
ADF70-1711
370
              15
390
0
  6
Continuous
 62
               7
100
AcDbLine
 10
302.33410563048335
 20
194.73312593604231
 30
0.0
 11
496.22846127265245
 21
194.73312593604231
 31
0.0
  0
LWPOLYLINE
  5
17F
100
AcDbEntity
  8
ADF70-1711
370
              15
390
0
  6
Continuous
 62
               7
100
AcDbPolyline
 90
        8
 70
             128
 10
431.71824256162643
 20
82.390813582348244
 10
432.25824211619511
 20
82.401824607898618
 42
0.0000751929509731
 10
435.08007437609274
 20
82.459788580441625
 10
435.63213285405527
 20
82.471211610832313
 42
0.0001206514406466
 10
437.34983076448668
 20
82.507168371845125
 10
437.37872942615718
 20
82.507780287158766
 42
0.0001654317115912
 10
439.03860952598723
 20
82.543476896630352
 10
439.09384773847148
 20
82.544684218714053
  0
LINE
  5
180
100
AcDbEntity
  8
ADF70-1711
370
              15
390
0
  6
Continuous
 62
               7
100
AcDbLine
 10
335.65002492491647
 20
65.146918202362201
 30
0.0
 11
269.01818633605205
 21
65.146918202362201
 31
0.0
  0
LINE
  5
181
100
AcDbEntity
  8
ADF70-1711
370
              15
390
0
  6
Continuous
 62
               7
100
AcDbLine
 10
439.09413123929505
 20
82.544685765765905
 30
0.0
 11
439.42784075394218
 21
82.549116290244172
 31
0.0
  0
SPLINE
  5
182
100
AcDbEntity
  8
ADF70-1711
370
              15
390
0
  6
Continuous
 62
               7
100
AcDbSpline
210
0.0
220
0.0
230
1.0
 70
              12
 71
               2
 72
             114
 73
             111
 74
               0
 42
0.000001
 43
0.000001
 40
0.0
 40
0.0
 40
0.0
 40
1.0
 40
1.0
 40
2.0
 40
2.0
 40
3.0
 40
3.0
 40
4.0
 40
4.0
 40
5.0
 40
5.0
 40
6.0
 40
6.0
 40
7.0
 40
7.0
 40
8.0
 40
8.0
 40
9.0
 40
9.0
 40
10.0
 40
10.0
 40
11.0
 40
11.0
 40
12.0
 40
12.0
 40
13.0
 40
13.0
 40
14.0
 40
14.0
 40
15.0
 40
15.0
 40
16.0
 40
16.0
 40
17.0
 40
17.0
 40
18.0
 40
18.0
 40
19.0
 40
19.0
 40
20.0
 40
20.0
 40
21.0
 40
21.0
 40
22.0
 40
22.0
 40
23.0
 40
23.0
 40
24.0
 40
24.0
 40
25.0
 40
25.0
 40
26.0
 40
26.0
 40
27.0
 40
27.0
 40
28.0
 40
28.0
 40
29.0
 40
29.0
 40
30.0
 40
30.0
 40
31.0
 40
31.0
 40
32.0
 40
32.0
 40
33.0
 40
33.0
 40
34.0
 40
34.0
 40
35.0
 40
35.0
 40
36.0
 40
36.0
 40
37.0
 40
37.0
 40
38.0
 40
38.0
 40
39.0
 40
39.0
 40
40.0
 40
40.0
 40
41.0
 40
41.0
 40
42.0
 40
42.0
 40
43.0
 40
43.0
 40
44.0
 40
44.0
 40
45.0
 40
45.0
 40
46.0
 40
46.0
 40
47.0
 40
47.0
 40
48.0
 40
48.0
 40
49.0
 40
49.0
 40
50.0
 40
50.0
 40
51.0
 40
51.0
 40
52.0
 40
52.0
 40
53.0
 40
53.0
 40
54.0
 40
54.0
 40
55.0
 40
55.0
 40
55.0
 10
439.4277724612092
 20
82.54909515811795
 30
0.0
 41
1.0
 10
439.45006706904303
 20
82.5495658274005
 30
0.0
 41
1.0
 10
439.75114124328854
 20
82.55646744086215
 30
0.0
 41
1.0
 10
440.05221541753525
 20
82.5633690543238
 30
0.0
 41
0.9997590098908566
 10
440.35269645773758
 20
82.583479627305849
 30
0.0
 41
1.0
 10
440.52520595886961
 20
82.595025330523129
 30
0.0
 41
1.0
 10
440.69771546000163
 20
82.606571033740408
 30
0.0
 41
1.0
 10
441.34321550246869
 20
82.64977301315696
 30
0.0
 41
0.9996511167202969
 10
441.98553349666804
 20
82.727001959662118
 30
0.0
 41
1.0
 10
442.13105248025266
 20
82.744498398965106
 30
0.0
 41
1.0
 10
442.27657146383729
 20
82.761994838268151
 30
0.0
 41
1.0
 10
443.02417443505897
 20
82.851882698164673
 30
0.0
 41
0.999394744203762
 10
443.76371789158281
 20
82.993535463224759
 30
0.0
 41
1.0
 10
444.50326134810712
 20
83.13518822828496
 30
0.0
 41
0.9998356523216849
 10
445.23718341352378
 20
83.303558153838821
 30
0.0
 41
1.0
 10
445.23906938490103
 20
83.303990816754094
 30
0.0
 41
1.0
 10
445.24095535627828
 20
83.30442347966931
 30
0.0
 41
1.0
 10
445.97864936444915
 20
83.473658731053604
 30
0.0
 41
0.9994661308446865
 10
446.70371589291335
 20
83.690710681754354
 30
0.0
 41
1.0
 10
446.83755678343158
 20
83.730776558787738
 30
0.0
 41
1.0
 10
446.97139767394981
 20
83.77084243582118
 30
0.0
 41
1.0
 10
447.81019340979833
 20
84.021939740079631
 30
0.0
 41
0.9995879043270582
 10
448.63319682941153
 20
84.320759943526298
 30
0.0
 41
1.0
 10
448.66959938115997
 20
84.333977164330236
 30
0.0
 41
1.0
 10
448.70600193290846
 20
84.34719438513423
 30
0.0
 41
1.0
 10
449.45620024902468
 20
84.619580146972908
 30
0.0
 41
0.9997114787604291
 10
450.19245127407964
 20
84.927680690402156
 30
0.0
 41
1.0
 10
450.23663406665298
 20
84.946169958245378
 30
0.0
 41
1.0
 10
450.28081685922632
 20
84.964659226088543
 30
0.0
 41
1.0
 10
450.92870229913439
 20
85.235781233831347
 30
0.0
 41
0.9997899183284252
 10
451.56493142330226
 20
85.533229024021182
 30
0.0
 41
1.0
 10
451.60560626397097
 20
85.552245194475574
 30
0.0
 41
1.0
 10
451.64628110463968
 20
85.571261364929967
 30
0.0
 41
1.0
 10
452.20116054746984
 20
85.830676814210847
 30
0.0
 41
0.9998807670186615
 10
452.74776459565498
 20
86.107103270810455
 30
0.0
 41
1.0
 10
452.78013658837091
 20
86.123474308070854
 30
0.0
 41
1.0
 10
452.81250858108683
 20
86.139845345331253
 30
0.0
 41
1.0
 10
453.29436864383928
 20
86.383529727409723
 30
0.0
 41
0.9999176232684049
 10
453.7698148946655
 20
86.639502500802962
 30
0.0
 41
1.0
 10
454.24526114549241
 20
86.895475274196599
 30
0.0
 41
0.9999529782659002
 10
454.71565362127535
 20
87.160620737805289
 30
0.0
 41
1.0
 10
454.77781569423274
 20
87.195659545825606
 30
0.0
 41
1.0
 10
454.83997776719013
 20
87.23069835384598
 30
0.0
 41
1.0
 10
455.43469438888741
 20
87.565921433495078
 30
0.0
 41
0.9999008021484244
 10
456.01973277886123
 20
87.917762953942656
 30
0.0
 41
1.0
 10
456.29278898508613
 20
88.081978691597328
 30
0.0
 41
1.0
 10
456.56584519131104
 20
88.246194429251943
 30
0.0
 41
1.0
 10
457.37943447300239
 20
88.735486234364089
 30
0.0
 41
0.9998228490977654
 10
458.17403158450713
 20
89.255052803940259
 30
0.0
 41
1.0
 10
458.38880482543772
 20
89.395487490162225
 30
0.0
 41
1.0
 10
458.6035780663683
 20
89.53592217638419
 30
0.0
 41
1.0
 10
458.96862869601119
 20
89.774619373515975
 30
0.0
 41
0.9999650162973351
 10
459.32963517983978
 20
90.019389945180308
 30
0.0
 41
1.0
 10
459.36097534367167
 20
90.04063928601164
 30
0.0
 41
1.0
 10
459.39231550750355
 20
90.061888626842972
 30
0.0
 41
1.0
 10
459.69064166366866
 20
90.264160516844925
 30
0.0
 41
0.9999734139006129
 10
459.98598628929437
 20
90.470761497116825
 30
0.0
 41
1.0
 10
460.28133091492236
 20
90.677362477390261
 30
0.0
 41
0.9999680288955004
 10
460.57333378032047
 20
90.888660228288586
 30
0.0
 41
1.0
 10
460.61308944590201
 20
90.917428037506397
 30
0.0
 41
1.0
 10
460.65284511148354
 20
90.946195846724265
 30
0.0
 41
1.0
 10
461.0243593080454
 20
91.215029216058724
 30
0.0
 41
0.9998881309248913
 10
461.38766604057815
 20
91.494854870371171
 30
0.0
 41
1.0
 10
461.47951625600012
 20
91.565599627700635
 30
0.0
 41
1.0
 10
461.57136647142204
 20
91.636344385030043
 30
0.0
 41
1.0
 10
462.0033773854517
 20
91.969087287551247
 30
0.0
 41
0.9997683943679571
 10
462.42066945357226
 20
92.32011235631802
 30
0.0
 41
1.0
 10
462.4686239629246
 20
92.360451572490774
 30
0.0
 41
1.0
 10
462.51657847227693
 20
92.400790788663528
 30
0.0
 41
1.0
 10
462.83796152169202
 20
92.671137425084169
 30
0.0
 41
0.999892138860648
 10
463.15126556481744
 20
92.950806774204864
 30
0.0
 41
1.0
 10
463.46456960794251
 20
93.230476123325332
 30
0.0
 41
0.9998786919276622
 10
463.76901061812038
 20
93.519768431549892
 30
0.0
 41
1.0
 10
463.77038219973224
 20
93.52107176453444
 30
0.0
 41
1.0
 10
463.77175378134405
 20
93.522375097518932
 30
0.0
 41
1.0
 10
464.07893795474536
 20
93.814274071712305
 30
0.0
 41
0.9998623906917794
 10
464.37626967897415
 20
94.116202827036659
 30
0.0
 41
1.0
 10
464.41360626914388
 20
94.154116676382046
 30
0.0
 41
1.0
 10
464.45094285931361
 20
94.192030525727375
 30
0.0
 41
1.0
 10
464.82295309213976
 20
94.569792390380258
 30
0.0
 41
0.9996536340523813
 10
465.17457138267116
 20
94.966604962606823
 30
0.0
 41
1.0
 10
465.19346269403036
 20
94.987924383904613
 30
0.0
 41
1.0
 10
465.21235400538956
 20
95.009243805202402
 30
0.0
 41
1.0
 10
465.52619500146147
 20
95.363422945472337
 30
0.0
 41
0.9998340712513045
 10
465.82692625836614
 20
95.728799115107165
 30
0.0
 41
1.0
 10
466.12765751527144
 20
96.094175284742732
 30
0.0
 41
0.999739001331907
 10
466.41138460857314
 20
96.47290734140546
 30
0.0
 41
1.0
 10
466.43797253594909
 20
96.508398137509232
 30
0.0
 41
1.0
 10
466.46456046332503
 20
96.543888933613005
 30
0.0
 41
1.0
 10
466.80146341137879
 20
96.993602582483504
 30
0.0
 41
0.9996283740203851
 10
467.11335626534242
 20
97.46100905444672
 30
0.0
 41
1.0
 10
467.17172696512523
 20
97.548484103986311
 30
0.0
 41
1.0
 10
467.23009766490804
 20
97.635959153525903
 30
0.0
 41
1.0
 10
467.53719571761587
 20
98.096180077278461
 30
0.0
 41
0.9994427368711004
 10
467.81290231571518
 20
98.575865791471131
 30
0.0
 41
1.0
 10
467.83599507716406
 20
98.616043530577315
 30
0.0
 41
1.0
 10
467.85908783861294
 20
98.656221269683499
 30
0.0
 41
1.0
 10
468.0886089138146
 20
99.055551505663914
 30
0.0
 41
0.9998358993741386
 10
468.30351351788875
 20
99.462934093015917
 30
0.0
 41
1.0
 10
468.51841812196284
 20
99.870316680367807
 30
0.0
 41
0.9996741594724773
 10
468.71225178264143
 20
100.28813610705544
 30
0.0
 41
1.0
 10
468.74200391798888
 20
100.35226851878463
 30
0.0
 41
1.0
 10
468.77175605333639
 20
100.41640093051382
 30
0.0
 41
1.0
 10
469.02509398470988
 20
100.96248518065977
 30
0.0
 41
0.9994831575829172
 10
469.24281671585891
 20
101.52372036137433
 30
0.0
 41
1.0
 10
469.25456298084271
 20
101.5539993180829
 30
0.0
 41
1.0
 10
469.26630924582656
 20
101.58427827479142
 30
0.0
 41
1.0
 10
469.48319857767621
 20
102.14336515889102
 30
0.0
 41
0.9995751976650029
 10
469.66714424752706
 20
102.71413929704494
 30
0.0
 41
1.0
 10
469.66910564037869
 20
102.72023254135746
 30
0.0
 41
1.0
 10
469.67106703323032
 20
102.72632578566999
 30
0.0
 41
1.0
  0
ARC
  5
183
100
AcDbEntity
  8
ADF70-1711
370
              15
390
0
  6
Continuous
 62
               7
100
AcDbCircle
 10
335.65002492491647
 20
68.146918202362201
 30
0.0
 40
3.0
100
AcDbArc
 50
270.00000000020844
 51
355.00000000000011
  0
ARC
  5
184
100
AcDbEntity
  8
ADF70-1711
370
              15
390
0
  6
Continuous
 62
               7
100
AcDbCircle
 10
347.00344364250657
 20
71.710533432869113
 30
0.0
 40
7.9996233247706066
100
AcDbArc
 50
92.044788389026337
 51
175.0005721193651
  0
LINE
  5
185
100
AcDbEntity
  8
ADF70-1711
370
              15
390
0
  6
Continuous
 62
               7
100
AcDbLine
 10
339.03425165686883
 20
72.407667015974937
 30
0.0
 11
338.63860901919168
 21
67.885450974120147
 31
0.0
  0
LWPOLYLINE
  5
186
100
AcDbEntity
  8
ADF70-1711
370
              15
390
0
  6
Continuous
 62
               7
100
AcDbPolyline
 90
       21
 70
             128
 10
346.71803758481644
 20
79.705062016005002
 42
-0.0001087129676063
 10
355.4841471327677
 20
80.013577010028939
 10
359.16880631867377
 20
80.142453003472099
 42
-0.0005313095033134
 10
375.30488279848225
 20
80.689667498399217
 10
378.07814637708827
 20
80.780765559123097
 42
-0.0002141259448936
 10
392.35628203665681
 20
81.24366238401916
 10
393.43315697830269
 20
81.278112992438537
 42
-0.0001905361139351
 10
405.55788704097165
 20
81.661373563569384
 10
408.00814579970893
 20
81.73789116192205
 42
-0.0002641523644106
 10
415.23262156663247
 20
81.959679413303263
 10
415.37243388440265
 20
81.963897658479539
 42
-0.0006453563117417
 10
422.31766106680686
 20
82.164468398397901
 10
423.7004603845038
 20
82.202615945939158
 42
-0.0012891708279591
 10
427.8806173342208
 20
82.307149403939945
 10
429.56777022698947
 20
82.344987643075171
 42
-0.0004681071474036
 10
430.37390713395587
 20
82.362312015040914
 10
430.44411426694626
 20
82.363755051019496
 42
0.0011034343153592
 10
431.10981968721705
 20
82.378907760165646
 10
431.17987432525592
 20
82.380657025108803
 42
-0.0029736821538626
 10
431.70549648695112
 20
82.390654236439502
 10
431.72298933978334
 20
82.390867997588145
  0
LINE
  5
187
100
AcDbEntity
  8
ADF70-1711
370
              15
390
0
  6
Continuous
 62
               7
100
AcDbLine
 10
479.96184918690403
 20
134.73312593604231
 30
0.0
 11
469.67106610633516
 21
102.72632290280825
 31
0.0
  0
SPLINE
  5
188
100
AcDbEntity
  8
ADF70-1711
370
              15
390
0
  6
Continuous
 62
               7
100
AcDbSpline
210
0.0
220
0.0
230
1.0
 70
              12
 71
               2
 72
             114
 73
             111
 74
               0
 42
0.000001
 43
0.000001
 40
0.0
 40
0.0
 40
0.0
 40
1.0
 40
1.0
 40
2.0
 40
2.0
 40
3.0
 40
3.0
 40
4.0
 40
4.0
 40
5.0
 40
5.0
 40
6.0
 40
6.0
 40
7.0
 40
7.0
 40
8.0
 40
8.0
 40
9.0
 40
9.0
 40
10.0
 40
10.0
 40
11.0
 40
11.0
 40
12.0
 40
12.0
 40
13.0
 40
13.0
 40
14.0
 40
14.0
 40
15.0
 40
15.0
 40
16.0
 40
16.0
 40
17.0
 40
17.0
 40
18.0
 40
18.0
 40
19.0
 40
19.0
 40
20.0
 40
20.0
 40
21.0
 40
21.0
 40
22.0
 40
22.0
 40
23.0
 40
23.0
 40
24.0
 40
24.0
 40
25.0
 40
25.0
 40
26.0
 40
26.0
 40
27.0
 40
27.0
 40
28.0
 40
28.0
 40
29.0
 40
29.0
 40
30.0
 40
30.0
 40
31.0
 40
31.0
 40
32.0
 40
32.0
 40
33.0
 40
33.0
 40
34.0
 40
34.0
 40
35.0
 40
35.0
 40
36.0
 40
36.0
 40
37.0
 40
37.0
 40
38.0
 40
38.0
 40
39.0
 40
39.0
 40
40.0
 40
40.0
 40
41.0
 40
41.0
 40
42.0
 40
42.0
 40
43.0
 40
43.0
 40
44.0
 40
44.0
 40
45.0
 40
45.0
 40
46.0
 40
46.0
 40
47.0
 40
47.0
 40
48.0
 40
48.0
 40
49.0
 40
49.0
 40
50.0
 40
50.0
 40
51.0
 40
51.0
 40
52.0
 40
52.0
 40
53.0
 40
53.0
 40
54.0
 40
54.0
 40
55.0
 40
55.0
 40
55.0
 10
165.24043879975943
 20
82.54909515811795
 30
0.0
 41
1.0
 10
165.21814419204748
 20
82.549565827397771
 30
0.0
 41
1.0
 10
164.91707001947179
 20
82.556467440816448
 30
0.0
 41
1.0
 10
164.61599584689543
 20
82.563369054235181
 30
0.0
 41
0.999759009893783
 10
164.31551480835515
 20
82.583479627025383
 30
0.0
 41
1.0
 10
164.14300530817491
 20
82.595025330132785
 30
0.0
 41
1.0
 10
163.97049580799467
 20
82.606571033240186
 30
0.0
 41
1.0
 10
163.32499576909368
 20
82.649773012245191
 30
0.0
 41
0.9996511167242748
 10
162.68267777841049
 20
82.727001957961022
 30
0.0
 41
1.0
 10
162.53715881308881
 20
82.744498394985158
 30
0.0
 41
1.0
 10
162.39163984776724
 20
82.761994832009293
 30
0.0
 41
1.0
 10
161.64403700059108
 20
82.851882676564571
 30
0.0
 41
0.9993947443977448
 10
160.90449366516623
 20
82.993535409448157
 30
0.0
 41
1.0
 10
160.16495032974126
 20
83.135188142331799
 30
0.0
 41
0.9998356523767552
 10
159.43102838315656
 20
83.303558026876885
 30
0.0
 41
1.0
 10
159.42914249577052
 20
83.303990670488247
 30
0.0
 41
1.0
 10
159.4272566083846
 20
83.304423314099665
 30
0.0
 41
1.0
 10
158.68956288702805
 20
83.473658485867645
 30
0.0
 41
0.9994661313676708
 10
157.96449663261592
 20
83.690710315179103
 30
0.0
 41
1.0
 10
157.83065581885398
 20
83.730776161971448
 30
0.0
 41
1.0
 10
157.69681500509205
 20
83.770842008763793
 30
0.0
 41
1.0
 10
156.85802005404094
 20
84.021939032566991
 30
0.0
 41
0.9995879049549242
 10
156.0350173887673
 20
84.320758874980982
 30
0.0
 41
1.0
 10
155.99861480677487
 20
84.333976102911606
 30
0.0
 41
1.0
 10
155.96221222478255
 20
84.347193330842231
 30
0.0
 41
1.0
 10
155.21201472349321
 20
84.619578717395086
 30
0.0
 41
0.9997114792664894
 10
154.47576448131986
 20
84.927678815817615
 30
0.0
 41
1.0
 10
154.43158172754113
 20
84.946168060381524
 30
0.0
 41
1.0
 10
154.3873989737624
 20
84.96465730494549
 30
0.0
 41
1.0
 10
153.73951423914446
 20
85.235778914241109
 30
0.0
 41
0.9997899187104785
 10
153.10328579226007
 20
85.533226253696455
 30
0.0
 41
1.0
 10
153.06261101430414
 20
85.552242386258854
 30
0.0
 41
1.0
 10
153.02193623634832
 20
85.571258518821253
 30
0.0
 41
1.0
 10
152.46705734537341
 20
85.830673593152937
 30
0.0
 41
0.9998807670712879
 10
151.92045383532241
 20
86.107099654226147
 30
0.0
 41
1.0
 10
151.88808199876507
 20
86.123470605207444
 30
0.0
 41
1.0
 10
151.85571016220763
 20
86.139841556188799
 30
0.0
 41
1.0
 10
151.37385032527231
 20
86.383525715298902
 30
0.0
 41
0.9999176235494186
 10
150.89840428324624
 20
86.639498239173406
 30
0.0
 41
1.0
 10
150.42295824121902
 20
86.895470763048593
 30
0.0
 41
0.9999529777425512
 10
149.95256599801689
 20
87.160616023969283
 30
0.0
 41
1.0
 10
149.89040403634249
 20
87.195654759802323
 30
0.0
 41
1.0
 10
149.8282420746682
 20
87.230693495635421
 30
0.0
 41
1.0
 10
149.23352590811578
 20
87.565916228223159
 30
0.0
 41
0.9999008097508777
 10
148.64848758350229
 20
87.917756757348741
 30
0.0
 41
1.0
 10
148.3754259624875
 20
88.081975307108166
 30
0.0
 41
1.0
 10
148.10236434147282
 20
88.246193856867592
 30
0.0
 41
1.0
 10
147.28877779708023
 20
88.735482691847096
 30
0.0
 41
0.9998228087111692
 10
146.49418553868327
 20
89.255049600096925
 30
0.0
 41
1.0
 10
146.27941434351123
 20
89.395483897911163
 30
0.0
 41
1.0
 10
146.06464314833931
 20
89.535918195725401
 30
0.0
 41
1.0
 10
145.69959328028847
 20
89.774616508345332
 30
0.0
 41
0.9999650470490926
 10
145.3385857764697
 20
90.019385527622887
 30
0.0
 41
1.0
 10
145.30724549533022
 20
90.040634753185373
 30
0.0
 41
1.0
 10
145.27590521419074
 20
90.061883978747858
 30
0.0
 41
1.0
 10
144.97757827264968
 20
90.264154546901352
 30
0.0
 41
0.9999733991963353
 10
144.68223367557221
 20
90.470755407906097
 30
0.0
 41
1.0
 10
144.38688907849553
 20
90.677356268910216
 30
0.0
 41
0.9999680290479472
 10
144.09488623164361
 20
90.888653888915826
 30
0.0
 41
1.0
 10
144.05513060896419
 20
90.917421651095424
 30
0.0
 41
1.0
 10
144.01537498628477
 20
90.946189413275022
 30
0.0
 41
1.0
 10
143.64386089407549
 20
91.215022557638747
 30
0.0
 41
0.9998881314465377
 10
143.28055423961814
 20
91.494847958634296
 30
0.0
 41
1.0
 10
143.18870407815882
 20
91.565592625561067
 30
0.0
 41
1.0
 10
143.0968539166995
 20
91.636337292487838
 30
0.0
 41
1.0
 10
142.66484334368113
 20
91.969079702642034
 30
0.0
 41
0.9997683954357687
 10
142.24755156023821
 20
92.320104223414717
 30
0.0
 41
1.0
 10
142.19959706597569
 20
92.360443391438821
 30
0.0
 41
1.0
 10
142.15164257171318
 20
92.400782559462925
 30
0.0
 41
1.0
 10
141.83025977679404
 20
92.671128744188536
 30
0.0
 41
0.9998921393442013
 10
141.51695595638193
 20
92.950797613712609
 30
0.0
 41
1.0
 10
141.20365213596847
 20
93.230466483237933
 30
0.0
 41
0.9998786924327162
 10
140.89921131469703
 20
93.51975828542146
 30
0.0
 41
1.0
 10
140.89783973172553
 20
93.521061618226781
 30
0.0
 41
1.0
 10
140.89646814875414
 20
93.522364951032102
 30
0.0
 41
1.0
 10
140.58928416153947
 20
93.814263418826386
 30
0.0
 41
0.9998623912282787
 10
140.29195258706352
 20
94.116191642617139
 30
0.0
 41
1.0
 10
140.25461603317558
 20
94.154105407469444
 30
0.0
 41
1.0
 10
140.21727947928775
 20
94.19201917232175
 30
0.0
 41
1.0
 10
139.84526977642088
 20
94.569780591726158
 30
0.0
 41
0.9996536552151359
 10
139.49365135349763
 20
94.966592125931527
 30
0.0
 41
1.0
 10
139.47476004850159
 20
94.987911508619959
 30
0.0
 41
1.0
 10
139.45586874350568
 20
95.009230891308391
 30
0.0
 41
1.0
 10
139.14202790995705
 20
95.363409326048441
 30
0.0
 41
0.9998340718884623
 10
138.84129676420889
 20
95.728784763666397
 30
0.0
 41
1.0
 10
138.54056561846062
 20
96.09416020128424
 30
0.0
 41
0.999739002302246
 10
138.25683857058709
 20
96.472891497514183
 30
0.0
 41
1.0
 10
138.23025049267471
 20
96.508382428983396
 30
0.0
 41
1.0
 10
138.20366241476222
 20
96.543873360452551
 30
0.0
 41
1.0
 10
137.86675921106507
 20
96.993586519618987
 30
0.0
 41
0.9996283740564311
 10
137.55486607390924
 20
97.46099251571377
 30
0.0
 41
1.0
 10
137.4964950787828
 20
97.548467839374041
 30
0.0
 41
1.0
 10
137.43812408365636
 20
97.635943163034312
 30
0.0
 41
1.0
 10
137.13102493789302
 20
98.096164838426944
 30
0.0
 41
0.9994427348019743
 10
136.85531735879249
 20
98.57585140969735
 30
0.0
 41
1.0
 10
136.83222462615345
 20
98.616029027509001
 30
0.0
 41
1.0
 10
136.8091318935144
 20
98.656206645320651
 30
0.0
 41
1.0
 10
136.57960977969242
 20
99.05553798096679
 30
0.0
 41
0.9998358986740196
 10
136.36470420900696
 20
99.462921721499868
 30
0.0
 41
1.0
 10
136.14979863832207
 20
99.870305462031808
 30
0.0
 41
0.9996741570782481
 10
135.95596414952377
 20
100.28812612608925
 30
0.0
 41
1.0
 10
135.92621179535467
 20
100.35225892543411
 30
0.0
 41
1.0
 10
135.89645944118547
 20
100.41639172477898
 30
0.0
 41
1.0
 10
135.64312024404899
 20
100.96247798752592
 30
0.0
 41
0.9994831535216129
 10
135.42539652089113
 20
101.52371531303169
 30
0.0
 41
1.0
 10
135.41365018990166
 20
101.55399441763916
 30
0.0
 41
1.0
 10
135.40190385891219
 20
101.58427352224669
 30
0.0
 41
1.0
 10
135.18501347551
 20
102.1433627062043
 30
0.0
 41
0.999575194095886
 10
135.00106702968878
 20
102.71413924663074
 30
0.0
 41
1.0
 10
134.99910562870991
 20
102.72023251616196
 30
0.0
 41
1.0
 10
134.99714422773104
 20
102.72632578569318
 30
0.0
 41
1.0
  0
ARC
  5
189
100
AcDbEntity
  8
ADF70-1711
370
              15
390
0
  6
Continuous
 62
               7
100
AcDbCircle
 10
269.01818633605205
 20
68.146918202362201
 30
0.0
 40
2.9999999999999738
100
AcDbArc
 50
184.99999999999983
 51
269.99999999979156
  0
ARC
  5
18A
100
AcDbEntity
  8
ADF70-1711
370
              15
390
0
  6
Continuous
 62
               7
100
AcDbCircle
 10
257.66476761846195
 20
71.710533432869113
 30
0.0
 40
7.9996233247718607
100
AcDbArc
 50
4.9994278806337844
 51
87.955211610973649
  0
LINE
  5
18B
100
AcDbEntity
  8
ADF70-1711
370
              15
390
0
  6
Continuous
 62
               7
100
AcDbLine
 10
265.63395960409787
 20
72.407667015974937
 30
0.0
 11
266.02960224177684
 21
67.885450974120147
 31
0.0
  0
LWPOLYLINE
  5
18C
100
AcDbEntity
  8
ADF70-1711
370
              15
390
0
  6
Continuous
 62
               7
100
AcDbPolyline
 90
       18
 70
             128
 10
257.95017367615208
 20
79.705062016005002
 42
0.0001694598750875
 10
246.57267249718137
 20
80.104410074388966
 10
243.92850717866065
 20
80.196322504846819
 42
0.0005041652567948
 10
227.261972818093
 20
80.75883398475429
 10
217.74485310626881
 20
81.070438871041574
 42
0.0004688215288635
 10
199.94096992569564
 20
81.636653846449178
 10
193.40479223141762
 20
81.838388581611071
 42
0.0001885304251029
 10
188.6726791341606
 20
81.982656100908287
 42
0.0004926424997534
 10
183.94037584676937
 20
82.120476656978553
 10
181.69279411169578
 20
82.183717457496414
 42
0.0014207764476113
 10
177.02929689127438
 20
82.301674477817585
 10
175.10044082395024
 20
82.344978281717317
 42
0.000473913574045
 10
174.29430412701271
 20
82.362312015042278
 10
174.22409699403914
 20
82.363755051020689
 42
-0.0011034343136299
 10
173.55839157375061
 20
82.378907760166328
 10
173.48833693570333
 20
82.380657025109315
 42
0.0029736821517788
 10
172.96271477401746
 20
82.390654236439502
 10
172.94522192118524
 20
82.390867997588145
  0
LINE
  5
18D
100
AcDbEntity
  8
ADF70-1711
370
              15
390
0
  6
Continuous
 62
               7
100
AcDbLine
 10
124.7063620740646
 20
134.73312593604231
 30
0.0
 11
134.99714439006857
 21
102.72632528078128
 31
0.0
  0
LINE
  5
18E
100
AcDbEntity
  8
ADF70-1711
370
              15
390
0
  6
Continuous
 62
               7
100
AcDbLine
 10
267.62117086524881
 20
79.704929940588102
 30
0.0
 11
337.62117086524881
 21
79.705078429666969
 31
0.0
  0
LINE
  5
18F
100
AcDbEntity
  8
ADF70-1711
370
              15
390
0
  6
Continuous
 62
               7
100
AcDbLine
 10
122.16784924796411
 20
1190.5803768800884
 30
0.0
 11
302.167849247964
 21
1190.5803768800884
 31
0.0
  0
ARC
  5
190
100
AcDbEntity
  8
ADF70-1711
370
              15
390
0
  6
Continuous
 62
               7
100
AcDbCircle
 10
122.16784924796411
 20
1210.5803768800884
 30
0.0
 40
20.0
100
AcDbArc
 50
180.0
 51
270.0
  0
LINE
  5
191
100
AcDbEntity
  8
ADF70-1711
370
              15
390
0
  6
Continuous
 62
               7
100
AcDbLine
 10
302.167849247964
 20
1410.5803768800888
 30
0.0
 11
105.16784924796411
 21
1410.5803768800888
 31
0.0
  0
ARC
  5
192
100
AcDbEntity
  8
ADF70-1711
370
              15
390
0
  6
Continuous
 62
               7
100
AcDbCircle
 10
105.16784924796411
 20
1407.5803768800888
 30
0.0
 40
3.0
100
AcDbArc
 50
90.0
 51
180.0
  0
LINE
  5
193
100
AcDbEntity
  8
ADF70-1711
370
              15
390
0
  6
Continuous
 62
               7
100
AcDbLine
 10
102.16784924796411
 20
1407.5803768800888
 30
0.0
 11
102.16784924796411
 21
1210.5803768800884
 31
0.0
  0
ARC
  5
194
100
AcDbEntity
  8
ADF70-1711
370
              15
390
0
  6
Continuous
 62
               7
100
AcDbCircle
 10
302.16784924804585
 20
1312.1918493506241
 30
0.0
 40
38.000000000000455
100
AcDbArc
 50
90.0
 51
270.0
  0
ARC
  5
195
100
AcDbEntity
  8
ADF70-1711
370
              15
390
0
  6
Continuous
 62
               7
100
AcDbCircle
 10
302.16784924804585
 20
1312.1918493506241
 30
0.0
 40
22.499999999998636
100
AcDbArc
 50
90.0
 51
270.0
  0
LINE
  5
196
100
AcDbEntity
  8
ADF70-1711
370
              15
390
0
  6
Continuous
 62
               7
100
AcDbLine
 10
302.167849247964
 20
1205.5803768800888
 30
0.0
 11
138.38580724831399
 21
1205.5803768800888
 31
0.0
  0
LINE
  5
197
100
AcDbEntity
  8
ADF70-1711
370
              15
390
0
  6
Continuous
 62
               7
100
AcDbLine
 10
141.91899711919177
 20
1190.5803768800743
 30
0.0
 11
302.167849247964
 21
1190.5803768800884
 31
0.0
  0
LINE
  5
198
100
AcDbEntity
  8
ADF70-1711
370
              15
390
0
  6
Continuous
 62
               7
100
AcDbLine
 10
186.78488866185569
 20
1262.3312913389032
 30
0.0
 11
417.55080983407049
 21
1262.3312913389032
 31
0.0
  0
LINE
  5
199
100
AcDbEntity
  8
ADF70-1711
370
              15
390
0
  6
Continuous
 62
               7
100
AcDbLine
 10
302.16784924796582
 20
1380.5803768800888
 30
0.0
 11
221.99863520978204
 21
1380.5803768800888
 31
0.0
  0
ARC
  5
19A
100
AcDbEntity
  8
ADF70-1711
370
              15
390
0
  6
Continuous
 62
               7
100
AcDbCircle
 10
221.99863520978204
 20
1343.580376880087
 30
0.0
 40
37.0
100
AcDbArc
 50
90.0
 51
154.29940381141242
  0
LINE
  5
19B
100
AcDbEntity
  8
ADF70-1711
370
              15
390
0
  6
Continuous
 62
               7
100
AcDbLine
 10
482.167849247964
 20
1190.5803768800884
 30
0.0
 11
302.167849247964
 21
1190.5803768800884
 31
0.0
  0
LINE
  5
19C
100
AcDbEntity
  8
ADF70-1711
370
              15
390
0
  6
Continuous
 62
               7
100
AcDbLine
 10
302.167849247964
 20
1410.5803768800888
 30
0.0
 11
499.167849247964
 21
1410.5803768800888
 31
0.0
  0
ARC
  5
19D
100
AcDbEntity
  8
ADF70-1711
370
              15
390
0
  6
Continuous
 62
               7
100
AcDbCircle
 10
499.167849247964
 20
1407.5803768800888
 30
0.0
 40
3.0
100
AcDbArc
 50
0.0
 51
90.0
  0
LINE
  5
19E
100
AcDbEntity
  8
ADF70-1711
370
              15
390
0
  6
Continuous
 62
               7
100
AcDbLine
 10
502.167849247964
 20
1407.5803768800888
 30
0.0
 11
502.167849247964
 21
1210.5803768800884
 31
0.0
  0
ARC
  5
19F
100
AcDbEntity
  8
ADF70-1711
370
              15
390
0
  6
Continuous
 62
               7
100
AcDbCircle
 10
482.167849247964
 20
1210.5803768800884
 30
0.0
 40
20.0
100
AcDbArc
 50
270.0
 51
0.0
  0
ARC
  5
1A0
100
AcDbEntity
  8
ADF70-1711
370
              15
390
0
  6
Continuous
 62
               7
100
AcDbCircle
 10
302.16784924804585
 20
1312.1918493506241
 30
0.0
 40
38.0
100
AcDbArc
 50
270.0
 51
90.0
  0
ARC
  5
1A1
100
AcDbEntity
  8
ADF70-1711
370
              15
390
0
  6
Continuous
 62
               7
100
AcDbCircle
 10
302.16784924804585
 20
1312.1918493506241
 30
0.0
 40
22.499999999998181
100
AcDbArc
 50
270.0
 51
90.0
  0
LINE
  5
1A2
100
AcDbEntity
  8
ADF70-1711
370
              15
390
0
  6
Continuous
 62
               7
100
AcDbLine
 10
302.167849247964
 20
1205.5803768800888
 30
0.0
 11
465.94989124760832
 21
1205.5803768800888
 31
0.0
  0
LINE
  5
1A3
100
AcDbEntity
  8
ADF70-1711
370
              15
390
0
  6
Continuous
 62
               7
100
AcDbLine
 10
462.41670137673452
 20
1190.5803768800743
 30
0.0
 11
302.167849247964
 21
1190.5803768800884
 31
0.0
  0
LINE
  5
1A4
100
AcDbEntity
  8
ADF70-1711
370
              15
390
0
  6
Continuous
 62
               7
100
AcDbLine
 10
302.16784924795854
 20
1380.5803768800888
 30
0.0
 11
382.33706328614778
 21
1380.5803768800888
 31
0.0
  0
LINE
  5
1A5
100
AcDbEntity
  8
ADF70-1711
370
              15
390
0
  6
Continuous
 62
               7
100
AcDbLine
 10
234.16747164856122
 20
1362.0524073623446
 30
0.0
 11
370.16822684736678
 21
1362.0524073623455
 31
0.0
  0
LINE
  5
1A6
100
AcDbEntity
  8
ADF70-1711
370
              15
390
0
  6
Continuous
 62
               7
100
AcDbLine
 10
479.46597888041327
 20
1227.0854037902818
 30
0.0
 11
415.6767461137332
 21
1359.6261099252324
 31
0.0
  0
ARC
  5
1A7
100
AcDbEntity
  8
ADF70-1711
370
              15
390
0
  6
Continuous
 62
               7
100
AcDbCircle
 10
382.33706328614778
 20
1343.580376880087
 30
0.0
 40
36.999999999999375
100
AcDbArc
 50
25.700596188588818
 51
90.0
  0
LINE
  5
1A8
100
AcDbEntity
  8
ADF70-1711
370
              15
390
0
  6
Continuous
 62
               7
100
AcDbLine
 10
124.86971961550933
 20
1227.0854037902823
 30
0.0
 11
188.65895238219662
 21
1359.6261099252324
 31
0.0
  0
LINE
  5
1A9
100
AcDbEntity
  8
ADF70-1711
370
              15
390
0
  6
STYLE_12
 62
               7
100
AcDbLine
 10
1185.9892477856502
 20
76.176110832306847
 30
0.0
 11
1223.6103536393566
 21
76.176110832306847
 31
0.0
  0
LINE
  5
1AA
100
AcDbEntity
  8
ADF70-1711
370
              15
390
0
  6
STYLE_12
 62
               7
100
AcDbLine
 10
1242.3522317824613
 20
90.568672540421801
 30
0.0
 11
1167.5527272426971
 21
90.568672540421801
 31
0.0
  0
LWPOLYLINE
  5
1AB
100
AcDbEntity
  8
ADF70-1711
370
              15
390
0
  6
STYLE_12
 62
               7
100
AcDbPolyline
 90
        3
 70
             128
 10
1244.9217718867258
 20
91.193805956011317
 42
0.1377989308029671
 10
1237.5272480524691
 20
87.853771801483788
 10
1223.6103536393566
 20
76.176110832306847
  0
LINE
  5
1AC
100
AcDbEntity
  8
ADF70-1711
370
              15
390
0
  6
Continuous
 62
               7
100
AcDbLine
 10
1236.6861462161135
 20
67.471734075933568
 30
0.0
 11
1237.006842142564
 21
71.137305288563482
 31
0.0
  0
LWPOLYLINE
  5
1AD
100
AcDbEntity
  8
ADF70-1711
370
              15
390
0
  6
Continuous
 62
               7
100
AcDbPolyline
 90
        4
 70
             128
 10
1245.4814375269088
 20
80.154518524230923
 10
1245.4982226087604
 20
80.157043734661158
 42
-0.0000158577403794
 10
1251.1988343177072
 20
81.014480171360162
 10
1251.2160749335671
 20
81.017072903478663
  0
LWPOLYLINE
  5
1AE
100
AcDbEntity
  8
ADF70-1711
370
              15
390
0
  6
STYLE_12
 62
               7
100
AcDbPolyline
 90
        5
 70
             128
 10
1276.5204092164386
 20
194.73312593604231
 42
0.3888787318528412
 10
1269.5470463297952
 20
188.34321613527817
 10
1262.2922562300755
 20
105.42058584991781
 42
-0.3465119554030057
 10
1249.5801461336723
 20
91.894744389696541
 10
1244.917747123056
 20
91.193195526457828
  0
LINE
  5
1AF
100
AcDbEntity
  8
ADF70-1711
370
              15
390
0
  6
STYLE_12
 62
               7
100
AcDbLine
 10
1223.6103536393566
 20
76.176110832306847
 30
0.0
 11
1223.6103536393566
 21
65.146918202363565
 31
0.0
  0
LINE
  5
1B0
100
AcDbEntity
  8
ADF70-1711
370
              15
390
0
  6
Continuous
 62
               7
100
AcDbLine
 10
1297.1060909982825
 20
81.017068678650219
 30
0.0
 11
1251.2160475668256
 21
81.017068678650219
 31
0.0
  0
ARC
  5
1B1
100
AcDbEntity
  8
ADF70-1711
370
              15
390
0
  6
Continuous
 62
               7
100
AcDbCircle
 10
1297.1060909982825
 20
84.017068678650219
 30
0.0
 40
3.0
100
AcDbArc
 50
270.0
 51
0.0
  0
LINE
  5
1B2
100
AcDbEntity
  8
ADF70-1711
370
              15
390
0
  6
Continuous
 62
               7
100
AcDbLine
 10
1300.1060909983044
 20
156.60613511788932
 30
0.0
 11
1300.1060909982825
 21
84.017068678650219
 31
0.0
  0
ARC
  5
1B3
100
AcDbEntity
  8
ADF70-1711
370
              15
390
0
  6
Continuous
 62
               7
100
AcDbCircle
 10
1246.9687891234826
 20
70.265747861084208
 30
0.0
 40
10.000000000003478
100
AcDbArc
 50
98.553634328591954
 51
175.00000000002672
  0
LINE
  5
1B4
100
AcDbEntity
  8
ADF70-1711
370
              15
390
0
  6
STYLE_12
 62
               7
100
AcDbLine
 10
1185.9892477856502
 20
76.176110832306847
 30
0.0
 11
1185.9892477856502
 21
65.146918202363565
 31
0.0
  0
LWPOLYLINE
  5
1B5
100
AcDbEntity
  8
ADF70-1711
370
              15
390
0
  6
STYLE_12
 62
               7
100
AcDbPolyline
 90
        4
 70
             128
 10
1160.1401825850389
 20
92.100680091209767
 42
-0.2217603407679419
 10
1151.1360728033342
 20
98.403745742997387
 10
1097.5410051601721
 20
191.23312593604231
 42
0.2679491924303697
 10
1091.4788273336999
 20
194.73312593604231
 42
0.2679491924303697
  0
LWPOLYLINE
  5
1B6
100
AcDbEntity
  8
ADF70-1711
370
              15
390
0
  6
STYLE_12
 62
               7
100
AcDbPolyline
 90
        4
 70
             128
 10
1185.9892477856502
 20
76.176110832306847
 10
1171.7113578046478
 20
88.156683049355877
 42
0.1316680862011359
 10
1165.1425607001893
 20
91.219518367367243
 10
1160.1401825850335
 20
92.100680091209767
  0
ARC
  5
1B7
100
AcDbEntity
  8
ADF70-1711
370
              15
390
0
  6
Continuous
 62
               7
100
AcDbCircle
 10
1089.2939748897788
 20
188.73312593604231
 30
0.0
 40
6.0
100
AcDbArc
 50
90.0
 51
180.99999999976714
  0
LINE
  5
1B8
100
AcDbEntity
  8
ADF70-1711
370
              15
390
0
  6
Continuous
 62
               7
100
AcDbLine
 10
1083.2948887188395
 20
188.62841149741752
 30
0.0
 11
1084.1670326994754
 21
138.66331631029124
 31
0.0
  0
LINE
  5
1B9
100
AcDbEntity
  8
ADF70-1711
370
              15
390
0
  6
Continuous
 62
               7
100
AcDbLine
 10
1172.9134684096005
 20
67.471583339759604
 30
0.0
 11
1172.4525034222261
 21
72.740437257076962
 31
0.0
  0
LINE
  5
1BA
100
AcDbEntity
  8
ADF70-1711
370
              15
390
0
  6
Continuous
 62
               7
100
AcDbLine
 10
1089.2939748897788
 20
194.73312593604231
 30
0.0
 11
1091.4788273336817
 21
194.73312593604231
 31
0.0
  0
LINE
  5
1BB
100
AcDbEntity
  8
ADF70-1711
370
              15
390
0
  6
Continuous
 62
               7
100
AcDbLine
 10
1165.8707679361578
 20
79.921893608387734
 30
0.0
 11
1158.2319271993365
 21
81.2674644382775
 31
0.0
  0
ARC
  5
1BC
100
AcDbEntity
  8
ADF70-1711
370
              15
390
0
  6
Continuous
 62
               7
100
AcDbCircle
 10
1164.4829458374697
 20
72.043191315343108
 30
0.0
 40
7.9999999999989058
100
AcDbArc
 50
4.9999999982219645
 51
80.009914554683078
  0
LINE
  5
1BD
100
AcDbEntity
  8
ADF70-1711
370
              15
390
0
  6
Continuous
 62
               7
100
AcDbLine
 10
1088.166423480101
 20
134.73312593604231
 30
0.0
 11
1300.1060909983044
 21
134.73312593604231
 31
0.0
  0
LINE
  5
1BE
100
AcDbEntity
  8
ADF70-1711
370
              15
390
0
  6
Continuous
 62
               7
100
AcDbLine
 10
173.26880102905301
 20
1283.8363182490962
 30
0.0
 11
200.82778882097762
 21
1341.0981404074892
 31
0.0
  0
LINE
  5
1BF
100
AcDbEntity
  8
ADF70-1711
370
              15
390
0
  6
Continuous
 62
               7
100
AcDbLine
 10
431.06689746687505
 20
1283.8363182490962
 30
0.0
 11
403.5079096749522
 21
1341.0981404074882
 31
0.0
  0
ARC
  5
1C0
100
AcDbEntity
  8
ADF70-1711
370
              15
390
0
  6
Continuous
 62
               7
100
AcDbCircle
 10
234.16747164856122
 20
1325.0524073623446
 30
0.0
 40
37.0
100
AcDbArc
 50
90.0
 51
154.29940381140113
  0
ARC
  5
1C1
100
AcDbEntity
  8
ADF70-1711
370
              15
390
0
  6
Continuous
 62
               7
100
AcDbCircle
 10
370.16822684736678
 20
1325.0524073623455
 30
0.0
 40
37.00000000000135
100
AcDbArc
 50
25.70059618859516
 51
90.0
  0
ARC
  5
1C2
100
AcDbEntity
  8
ADF70-1711
370
              15
390
0
  6
Continuous
 62
               7
100
AcDbCircle
 10
186.78488866185569
 20
1277.3312913389032
 30
0.0
 40
14.999999999999925
100
AcDbArc
 50
154.29940381139977
 51
270.0
  0
ARC
  5
1C3
100
AcDbEntity
  8
ADF70-1711
370
              15
390
0
  6
Continuous
 62
               7
100
AcDbCircle
 10
417.55080983407049
 20
1277.3312913389032
 30
0.0
 40
15.0
100
AcDbArc
 50
270.0
 51
25.700596188597018
  0
ARC
  5
1C4
100
AcDbEntity
  8
ADF70-1711
370
              15
390
0
  6
Continuous
 62
               7
100
AcDbCircle
 10
1162.3944030525631
 20
104.90374574304388
 30
0.0
 40
24.000000000053504
100
AcDbArc
 50
210.00000000006978
 51
260.01434697609682
  0
LINE
  5
1C5
100
AcDbEntity
  8
ADF70-1711
370
              15
390
0
  6
Continuous
 62
               7
100
AcDbLine
 10
1117.459589447215
 20
134.73312593604231
 30
0.0
 11
1141.6097933617039
 21
92.903745742993749
 31
0.0
  0
ARC
  5
1C6
100
AcDbEntity
  8
ADF70-1711
370
              15
390
0
  6
Continuous
 62
               7
100
AcDbCircle
 10
1297.1060909983134
 20
191.73312593604231
 30
0.0
 40
3.0
100
AcDbArc
 50
0.0
 51
90.0
  0
LINE
  5
1C7
100
AcDbEntity
  8
ADF70-1711
370
              15
390
0
  6
Continuous
 62
               7
100
AcDbLine
 10
1300.1060909983044
 20
156.60613511788932
 30
0.0
 11
1300.1060909983134
 21
191.73312593604231
 31
0.0
  0
ARC
  5
1C8
100
AcDbEntity
  8
ADF70-1711
370
              15
390
0
  6
Continuous
 62
               7
100
AcDbCircle
 10
1088.166423480101
 20
138.73312593604231
 30
0.0
 40
4.0000000000000542
100
AcDbArc
 50
181.00000000000173
 51
270.0
  0
LINE
  5
1C9
100
AcDbEntity
  8
ADF70-1711
370
              15
390
0
  6
Continuous
 62
               7
100
AcDbLine
 10
1089.2939748897788
 20
194.73312593604231
 30
0.0
 11
1297.1060909983134
 21
194.73312593604231
 31
0.0
  0
LINE
  5
1CA
100
AcDbEntity
  8
ADF70-1711
370
              15
390
0
  6
Continuous
 62
               7
100
AcDbLine
 10
1233.7337576603368
 20
64.733125936042313
 30
0.0
 11
1175.920332245875
 21
64.733125936042313
 31
0.0
  0
CIRCLE
  5
1CB
100
AcDbEntity
  8
ADF70-1711
370
              15
390
0
  6
STYLE_12
 62
               7
100
AcDbCircle
 10
461.74387197526437
 20
1355.5803768800888
 30
0.0
 40
17.5
  0
LINE
  5
1CC
100
AcDbEntity
  8
ADF70-1711
370
              15
390
0
  6
STYLE_13
 62
               7
100
AcDbLine
 10
177.0785480858612
 20
194.73312593604231
 30
0.0
 11
191.0764158180499
 21
194.73312593604231
 31
0.0
  0
LINE
  5
1CD
100
AcDbEntity
  8
ADF70-1711
370
               5
390
0
  6
STYLE_12
 62
               7
100
AcDbLine
 10
956.15184694984407
 20
1190.5803768800884
 30
0.0
 11
1136.1518469498442
 21
1190.5803768800884
 31
0.0
  0
ARC
  5
1CE
100
AcDbEntity
  8
ADF70-1711
370
               5
390
0
  6
STYLE_12
 62
               7
100
AcDbCircle
 10
956.15184694984407
 20
1210.5803768800884
 30
0.0
 40
20.0
100
AcDbArc
 50
180.0
 51
270.0
  0
LINE
  5
1CF
100
AcDbEntity
  8
ADF70-1711
370
               5
390
0
  6
STYLE_12
 62
               7
100
AcDbLine
 10
1136.1518469498442
 20
1410.5803768800888
 30
0.0
 11
939.15184694984407
 21
1410.5803768800888
 31
0.0
  0
ARC
  5
1D0
100
AcDbEntity
  8
ADF70-1711
370
               5
390
0
  6
STYLE_12
 62
               7
100
AcDbCircle
 10
939.15184694984407
 20
1407.5803768800888
 30
0.0
 40
3.0
100
AcDbArc
 50
90.0
 51
180.0
  0
LINE
  5
1D1
100
AcDbEntity
  8
ADF70-1711
370
               5
390
0
  6
STYLE_12
 62
               7
100
AcDbLine
 10
936.15184694984407
 20
1407.5803768800888
 30
0.0
 11
936.15184694984407
 21
1210.5803768800884
 31
0.0
  0
ARC
  5
1D2
100
AcDbEntity
  8
ADF70-1711
370
               5
390
0
  6
STYLE_12
 62
               7
100
AcDbCircle
 10
1136.151846949926
 20
1312.1918493506241
 30
0.0
 40
22.499999999998636
100
AcDbArc
 50
90.0
 51
270.0
  0
LINE
  5
1D3
100
AcDbEntity
  8
ADF70-1711
370
               5
390
0
  6
STYLE_12
 62
               7
100
AcDbLine
 10
975.90299482107173
 20
1190.5803768800743
 30
0.0
 11
1136.1518469498442
 21
1190.5803768800884
 31
0.0
  0
LINE
  5
1D4
100
AcDbEntity
  8
ADF70-1711
370
               5
390
0
  6
STYLE_12
 62
               7
100
AcDbLine
 10
1316.1518469498442
 20
1190.5803768800884
 30
0.0
 11
1136.1518469498442
 21
1190.5803768800884
 31
0.0
  0
LINE
  5
1D5
100
AcDbEntity
  8
ADF70-1711
370
               5
390
0
  6
STYLE_12
 62
               7
100
AcDbLine
 10
1136.1518469498442
 20
1410.5803768800888
 30
0.0
 11
1333.1518469498442
 21
1410.5803768800888
 31
0.0
  0
LINE
  5
1D6
100
AcDbEntity
  8
ADF70-1711
370
               5
390
0
  6
STYLE_12
 62
               7
100
AcDbLine
 10
1336.1518469498442
 20
1407.5803768800888
 30
0.0
 11
1336.1518469498442
 21
1210.5803768800884
 31
0.0
  0
ARC
  5
1D7
100
AcDbEntity
  8
ADF70-1711
370
               5
390
0
  6
STYLE_12
 62
               7
100
AcDbCircle
 10
1316.1518469498442
 20
1210.5803768800884
 30
0.0
 40
20.0
100
AcDbArc
 50
270.0
 51
0.0
  0
ARC
  5
1D8
100
AcDbEntity
  8
ADF70-1711
370
               5
390
0
  6
STYLE_12
 62
               7
100
AcDbCircle
 10
1136.151846949926
 20
1312.1918493506241
 30
0.0
 40
22.499999999998181
100
AcDbArc
 50
270.0
 51
90.0
  0
LINE
  5
1D9
100
AcDbEntity
  8
ADF70-1711
370
               5
390
0
  6
STYLE_12
 62
               7
100
AcDbLine
 10
1296.4006990786147
 20
1190.5803768800743
 30
0.0
 11
1136.1518469498442
 21
1190.5803768800884
 31
0.0
  0
CIRCLE
  5
1DA
100
AcDbEntity
  8
ADF70-1711
370
               5
390
0
  6
STYLE_12
 62
               7
100
AcDbCircle
 10
983.5758242225437
 20
1363.8572109390443
 30
0.0
 40
17.5
  0
CIRCLE
  5
1DB
100
AcDbEntity
  8
ADF70-1711
370
               5
390
0
  6
STYLE_12
 62
               7
100
AcDbCircle
 10
1288.7278696771446
 20
1363.8572109390443
 30
0.0
 40
17.5
  0
LINE
  5
1DC
100
AcDbEntity
  8
ADF70-1711
370
              15
390
0
  6
Continuous
 62
               7
100
AcDbLine
 10
1316.0879751716348
 20
1210.5803768800884
 30
0.0
 11
956.08797517163464
 21
1210.5803768800884
 31
0.0
  0
LINE
  5
1DD
100
AcDbEntity
  8
ADF70-1711
370
              15
390
0
  6
Continuous
 62
               7
100
AcDbLine
 10
1316.0879751716348
 20
1210.5803768800884
 30
0.0
 11
1316.0879751716348
 21
1410.5803768800888
 31
0.0
  0
LINE
  5
1DE
100
AcDbEntity
  8
ADF70-1711
370
              15
390
0
  6
Continuous
 62
               7
100
AcDbLine
 10
956.08797517163464
 20
1210.5803768800884
 30
0.0
 11
956.08797517163464
 21
1410.5803768800888
 31
0.0
  0
LINE
  5
1DF
100
AcDbEntity
  8
ADF70-1711
370
              15
390
0
  6
Continuous
 62
               7
100
AcDbLine
 10
956.02410339342339
 20
1410.5803768800888
 30
0.0
 11
1316.2795905062649
 21
1410.5803768800888
 31
0.0
  0
LINE
  5
1E0
100
AcDbEntity
  8
ADF70-1711
370
              15
390
0
  6
STYLE_12
 62
               7
100
AcDbLine
 10
462.33410563048335
 20
184.71796719088746
 30
0.0
 11
462.33410563048335
 21
144.74828468119716
 31
0.0
  0
LINE
  5
1E1
100
AcDbEntity
  8
ADF70-1711
370
              15
390
0
  6
STYLE_12
 62
               7
100
AcDbLine
 10
482.31894688532691
 20
164.73312593604231
 30
0.0
 11
442.34926437563797
 21
164.73312593604231
 31
0.0
  0
CIRCLE
  5
1E2
100
AcDbEntity
  8
ADF70-1711
370
              15
390
0
  6
STYLE_12
 62
               7
100
AcDbCircle
 10
462.33410563048335
 20
164.70837407499943
 30
0.0
 40
10.0
  0
LINE
  5
1E3
100
AcDbEntity
  8
ADF70-1711
370
              15
390
0
  6
STYLE_12
 62
               7
100
AcDbLine
 10
142.33410563048346
 20
184.71796719088746
 30
0.0
 11
142.33410563048346
 21
144.74828468119716
 31
0.0
  0
LINE
  5
1E4
100
AcDbEntity
  8
ADF70-1711
370
              15
390
0
  6
STYLE_12
 62
               7
100
AcDbLine
 10
162.31894688532702
 20
164.73312593604231
 30
0.0
 11
122.34926437563809
 21
164.73312593604231
 31
0.0
  0
CIRCLE
  5
1E5
100
AcDbEntity
  8
ADF70-1711
370
              15
390
0
  6
STYLE_12
 62
               7
100
AcDbCircle
 10
142.33410563048346
 20
164.70837407499943
 30
0.0
 40
10.0
  0
LWPOLYLINE
  5
1E6
100
AcDbEntity
  8
ADF70-1711
370
              15
390
0
  6
STYLE_12
 62
               7
100
AcDbPolyline
 90
        6
 70
             128
 10
179.40199354191373
 20
92.100680091209767
 42
-0.2307939373304102
 10
171.90222477924232
 20
97.860260613025503
 10
171.63143097795762
 20
98.403745742997387
 10
125.37879342273197
 20
191.23312593604231
 10
125.19032482143371
 20
191.61138379049396
 42
0.2844566613406328
 10
120.14712330580994
 20
194.73312593604231
 42
0.2844566613406328
  0
LINE
  5
1E7
100
AcDbEntity
  8
ADF70-1711
370
              15
390
0
  6
STYLE_12
 62
               7
100
AcDbLine
 10
283.35729632119256
 20
76.176110832305483
 30
0.0
 11
320.97840217489914
 21
76.176110832305483
 31
0.0
  0
LINE
  5
1E8
100
AcDbEntity
  8
ADF70-1711
370
              15
390
0
  6
STYLE_12
 62
               7
100
AcDbLine
 10
339.72028031800397
 20
90.568672540420437
 30
0.0
 11
264.92077577823949
 21
90.568672540420437
 31
0.0
  0
LWPOLYLINE
  5
1E9
100
AcDbEntity
  8
ADF70-1711
370
              15
390
0
  6
STYLE_12
 62
               7
100
AcDbPolyline
 90
        3
 70
             128
 10
342.28982042226829
 20
91.193805956009953
 42
0.1377989308029787
 10
334.8952965880116
 20
87.853771801482424
 10
320.97840217489914
 20
76.176110832305483
  0
LINE
  5
1EA
100
AcDbEntity
  8
ADF70-1711
370
              15
390
0
  6
STYLE_12
 62
               7
100
AcDbLine
 10
320.97840217489914
 20
76.176110832305483
 30
0.0
 11
320.97840217489914
 21
65.146918202362201
 31
0.0
  0
LINE
  5
1EB
100
AcDbEntity
  8
ADF70-1711
370
              15
390
0
  6
STYLE_12
 62
               7
100
AcDbLine
 10
283.35729632119256
 20
76.176110832305483
 30
0.0
 11
283.35729632119256
 21
65.146918202362201
 31
0.0
  0
LWPOLYLINE
  5
1EC
100
AcDbEntity
  8
ADF70-1711
370
              15
390
0
  6
STYLE_12
 62
               7
100
AcDbPolyline
 90
        4
 70
             128
 10
283.35729632119256
 20
76.176110832305483
 10
269.0794063401903
 20
88.156683049354513
 42
0.1316680862011352
 10
262.51060923573169
 20
91.219518367365879
 10
257.50823112057589
 20
92.100680091208403
  0
LINE
  5
1ED
100
AcDbEntity
  8
ADF70-1711
370
              15
390
0
  6
STYLE_12
 62
               7
100
AcDbLine
 10
179.40199354191373
 20
92.100680091209767
 30
0.0
 11
264.35800472524221
 21
90.893889448289258
 31
0.0
  0
LWPOLYLINE
  5
1EE
100
AcDbEntity
  8
ADF70-1711
370
              15
390
0
  6
STYLE_12
 62
               7
100
AcDbPolyline
 90
        6
 70
             128
 10
424.93370495417798
 20
92.100680091209767
 42
0.2307939373304093
 10
432.43347371684933
 20
97.860260613025389
 10
432.70426751813409
 20
98.403745742997387
 10
478.95690507335974
 20
191.23312593604231
 10
479.145373674658
 20
191.61138379049396
 42
-0.2844566613406371
 10
484.18857519028177
 20
194.73312593604231
 42
-0.2844566613406371
  0
LINE
  5
1EF
100
AcDbEntity
  8
ADF70-1711
370
              15
390
0
  6
STYLE_12
 62
               7
100
AcDbLine
 10
424.93370495417798
 20
92.100680091209767
 30
0.0
 11
339.97769377084956
 21
90.893889448289258
 31
0.0
  0
CIRCLE
  5
1F0
100
AcDbEntity
  8
ADF70-1711
370
              15
390
0
  6
STYLE_12
 62
               7
100
AcDbCircle
 10
142.59182652082734
 20
1355.5803768800888
 30
0.0
 40
17.5
  0
ARC
  5
1F1
100
AcDbEntity
  8
ADF70-1711
370
              15
390
0
  6
Continuous
 62
               7
100
AcDbCircle
 10
138.38580724831411
 20
1220.5803768800888
 30
0.0
 40
15.000000000000083
100
AcDbArc
 50
154.29940381140099
 51
269.9999999999996
  0
ARC
  5
1F2
100
AcDbEntity
  8
ADF70-1711
370
              15
390
0
  6
Continuous
 62
               7
100
AcDbCircle
 10
465.94989124760826
 20
1220.5803768800888
 30
0.0
 40
15.0
100
AcDbArc
 50
270.00000000000011
 51
25.700596188596307
  0
DIMENSION
  5
1F3
100
AcDbEntity
  8
ADF70-1711
370
               5
390
0
  6
Continuous
 62
               7
100
AcDbDimension
  2
*D20
 10
202.16784924796406
 20
1460.0092750384902
 30
0.0
 11
302.16784924796406
 21
1460.0092750384902
 31
0.0
 71
               5
 72
               1
 41
1.0
 42
0.0
  3
tform線あり
100
AcDbAlignedDimension
 13
402.16784924796406
 23
1410.5803768800888
 33
0.0
 14
202.16784924796406
 24
1410.5803768800888
 34
0.0
100
AcDbRotatedDimension
1001
ACAD
1000
DSTYLE
1002
{
1070
             279
1070
               2
1070
             340
1005
35
1070
             147
1040
5.0
1002
}
  0
ARC
  5
1F4
100
AcDbEntity
  8
ADF70-1711
370
              15
390
0
  6
Continuous
 62
               7
100
AcDbCircle
 10
1233.697555527981
 20
67.733125936042256
 30
0.0
 40
2.9999999999999432
100
AcDbArc
 50
270.0
 51
355.00000000002632
  0
ARC
  5
1F5
100
AcDbEntity
  8
ADF70-1711
370
              15
390
0
  6
Continuous
 62
               7
100
AcDbCircle
 10
1175.9020459100266
 20
67.733125936042313
 30
0.0
 40
3.0000000000000377
100
AcDbArc
 50
184.99999999822015
 51
269.99999999999886
  0
ENDSEC
  0
SECTION
  2
OBJECTS
  0
DICTIONARY
  5
19
100
AcDbDictionary
280
               0
281
               1
  3
ACAD_GROUP
350
1A
  3
ACAD_MLINESTYLE
350
1B
  3
ACAD_LAYOUT
350
1E
  3
ACAD_PLOTSETTINGS
350
22
  3
ACAD_PLOTSTYLENAME
350
1F
  0
DICTIONARY
  5
1A
102
{ACAD_REACTORS
330
19
102
}
100
AcDbDictionary
280
               0
281
               1
  0
DICTIONARY
  5
1B
102
{ACAD_REACTORS
330
19
102
}
100
AcDbDictionary
280
               0
281
               1
  3
Standard
350
1C
  0
MLINESTYLE
  5
1C
102
{ACAD_REACTORS
330
1B
102
}
100
AcDbMlineStyle
  2
Standard
 70
               0
  3

 62
               0
 51
90.0
 52
90.0
 71
               2
 49
0.5
 62
             256
  6
ByLayer
 49
-0.5
 62
             256
  6
ByLayer
  0
ACDBDICTIONARYWDFLT
  5
1F
102
{ACAD_REACTORS
330
19
102
}
100
AcDbDictionary
281
               1
  3
Normal
350
1D
100
AcDbDictionaryWithDefault
340
1D
  0
ACDBPLACEHOLDER
  5
1D
102
{ACAD_REACTORS
330
1F
102
}
  0
LAYOUT
  5
20
102
{ACAD_REACTORS
330
1E
102
}
100
AcDbPlotSettings
  1

  2

  4

  6

 40
0.0
 41
0.0
 42
0.0
 43
0.0
 44
0.0
 45
0.0
 46
0.0
 47
0.0
 48
0.0
 49
0.0
140
0.0
141
0.0
142
1.0
143
1.0
 70
            1024
 72
               0
 73
               0
 74
               0
  7

 75
               0
147
1.0
148
0.0
149
0.0
100
AcDbLayout
  1
Model
 70
               0
 71
               0
 10
0.0
 20
0.0
 11
0.0
 21
0.0
 12
0.0
 22
0.0
 32
0.0
 14
0.0
 24
0.0
 34
0.0
 15
0.0
 25
0.0
 35
0.0
146
0.0
 13
0.0
 23
0.0
 33
0.0
 16
0.0
 26
0.0
 36
0.0
 17
0.0
 27
0.0
 37
0.0
 76
               0
330
A
331
0
345
0
346
0
  0
LAYOUT
  5
21
102
{ACAD_REACTORS
330
1E
102
}
100
AcDbPlotSettings
  1

  2

  4

  6

 40
0.0
 41
0.0
 42
0.0
 43
0.0
 44
0.0
 45
0.0
 46
0.0
 47
0.0
 48
0.0
 49
0.0
140
0.0
141
0.0
142
1.0
143
1.0
 70
               0
 72
               0
 73
               0
 74
               0
  7

 75
               0
147
1.0
148
0.0
149
0.0
100
AcDbLayout
  1
Layout1
 70
               0
 71
               0
 10
0.0
 20
0.0
 11
0.0
 21
0.0
 12
0.0
 22
0.0
 32
0.0
 14
0.0
 24
0.0
 34
0.0
 15
0.0
 25
0.0
 35
0.0
146
0.0
 13
0.0
 23
0.0
 33
0.0
 16
0.0
 26
0.0
 36
0.0
 17
0.0
 27
0.0
 37
0.0
 76
               0
330
B
331
0
345
0
346
0
  0
DICTIONARY
  5
1E
102
{ACAD_REACTORS
330
19
102
}
100
AcDbDictionary
280
               0
281
               1
  3
Layout1
350
21
  3
Model
350
20
  0
DICTIONARY
  5
22
102
{ACAD_REACTORS
330
19
102
}
100
AcDbDictionary
280
               0
281
               1
  0
ENDSEC
  0
EOF
