  0
SECTION
  2
HEADER
  9
$ACADVER
  1
AC1015
  9
$ACADMAINTVER
 70
               6
  9
$DWGCODEPAGE
  3
ANSI_932
  9
$INSBASE
 10
0.0
 20
0.0
 30
0.0
  9
$EXTMIN
 10
-975.00000000024102
 20
-1431.5255224711129
 30
-14.834305555555552
  9
$EXTMAX
 10
975.00000000024102
 20
1405.9972926412997
 30
14.834305555555552
  9
$LIMMIN
 10
0.0
 20
0.0
  9
$LIMMAX
 10
0.0
 20
0.0
  9
$ORTHOMODE
 70
               0
  9
$REGENMODE
 70
               1
  9
$FILLMODE
 70
               1
  9
$QTEXTMODE
 70
               0
  9
$MIRRTEXT
 70
               1
  9
$LTSCALE
 40
50.799999999999997
  9
$ATTMODE
 70
               1
  9
$TEXTSIZE
 40
0.2
  9
$TRACEWID
 40
1.0
  9
$TEXTSTYLE
  7
Standard
  9
$CLAYER
  8
notes
  9
$CELTYPE
  6
Continuous
  9
$CECOLOR
 62
             256
  9
$CELTSCALE
 40
1.0
  9
$DISPSILH
 70
               0
  9
$DIMSCALE
 40
1.0
  9
$DIMASZ
 40
31.75
  9
$DIMEXO
 40
0.0
  9
$DIMDLI
 40
6.9999999999999396
  9
$DIMRND
 40
0.0
  9
$DIMDLE
 40
0.0
  9
$DIMEXE
 40
19.999999999996199
  9
$DIMTP
 40
0.0
  9
$DIMTM
 40
0.0
  9
$DIMTXT
 40
24.432617187500004
  9
$DIMCEN
 40
0.0
  9
$DIMTSZ
 40
0.0
  9
$DIMTOL
 70
               0
  9
$DIMLIM
 70
               0
  9
$DIMTIH
 70
               0
  9
$DIMTOH
 70
               0
  9
$DIMSE1
 70
               0
  9
$DIMSE2
 70
               0
  9
$DIMTAD
 70
               1
  9
$DIMZIN
 70
              11
  9
$DIMBLK
  1
VW_FILLEDARROW
  9
$DIMASO
 70
               1
  9
$DIMSHO
 70
               1
  9
$DIMPOST
  1
<>
  9
$DIMAPOST
  1
[]
  9
$DIMALT
 70
               0
  9
$DIMALTD
 70
               1
  9
$DIMALTF
 40
1.0
  9
$DIMLFAC
 40
1.0
  9
$DIMTOFL
 70
               0
  9
$DIMTVP
 40
0.0
  9
$DIMTIX
 70
               1
  9
$DIMSOXD
 70
               0
  9
$DIMSAH
 70
               0
  9
$DIMBLK1
  1

  9
$DIMBLK2
  1

  9
$DIMSTYLE
  2
JIS
  9
$DIMCLRD
 70
               0
  9
$DIMCLRE
 70
               0
  9
$DIMCLRT
 70
               0
  9
$DIMTFAC
 40
1.0
  9
$DIMGAP
 40
1.00000000000108
  9
$DIMJUST
 70
               0
  9
$DIMSD1
 70
               0
  9
$DIMSD2
 70
               0
  9
$DIMTOLJ
 70
               1
  9
$DIMTZIN
 70
              11
  9
$DIMALTZ
 70
              11
  9
$DIMALTTZ
 70
              11
  9
$DIMUPT
 70
               0
  9
$DIMDEC
 70
               1
  9
$DIMTDEC
 70
               1
  9
$DIMALTU
 70
               2
  9
$DIMALTTD
 70
               2
  9
$DIMTXSTY
  7
ＭＳ ゴシック
  9
$DIMAUNIT
 70
               0
  9
$DIMADEC
 70
               2
  9
$DIMALTRND
 40
0.0
  9
$DIMAZIN
 70
               0
  9
$DIMDSEP
 70
              46
  9
$DIMATFIT
 70
               0
  9
$DIMFRAC
 70
               2
  9
$DIMLDRBLK
  1

  9
$DIMLUNIT
 70
               2
  9
$DIMLWD
 70
              -2
  9
$DIMLWE
 70
              -2
  9
$DIMTMOVE
 70
               0
  9
$LUNITS
 70
               2
  9
$LUPREC
 70
               4
  9
$SKETCHINC
 40
0.1
  9
$FILLETRAD
 40
0.0
  9
$AUNITS
 70
               0
  9
$AUPREC
 70
               0
  9
$MENU
  1
acad
  9
$ELEVATION
 40
0.0
  9
$PELEVATION
 40
0.0
  9
$THICKNESS
 40
0.0
  9
$LIMCHECK
 70
               0
  9
$CHAMFERA
 40
0.0
  9
$CHAMFERB
 40
0.0
  9
$CHAMFERC
 40
0.0
  9
$CHAMFERD
 40
0.0
  9
$SKPOLY
 70
               0
  9
$TDCREATE
 40
2456029.408611111
  9
$TDUCREATE
 40
0.000000000
  9
$TDUPDATE
 40
2456029.408611111
  9
$TDUUPDATE
 40
0.000000000
  9
$TDINDWG
 40
0.0000000000
  9
$TDUSRTIMER
 40
0.0000000000
  9
$USRTIMER
 70
               1
  9
$ANGBASE
 50
0.0
  9
$ANGDIR
 70
               0
  9
$PDMODE
 70
               1
  9
$PDSIZE
 40
-2.0
  9
$PLINEWID
 40
0.0
  9
$SPLFRAME
 70
               0
  9
$SPLINETYPE
 70
               6
  9
$SPLINESEGS
 70
               8
  9
$HANDSEED
  5
1F0
  9
$SURFTAB1
 70
               6
  9
$SURFTAB2
 70
               6
  9
$SURFTYPE
 70
               6
  9
$SURFU
 70
               6
  9
$SURFV
 70
               6
  9
$UCSBASE
  2

  9
$UCSNAME
  2

  9
$UCSORG
 10
0.0
 20
0.0
 30
0.0
  9
$UCSXDIR
 10
1.0
 20
0.0
 30
0.0
  9
$UCSYDIR
 10
0.0
 20
1.0
 30
0.0
  9
$UCSORTHOREF
  2

  9
$UCSORTHOVIEW
 70
               0
  9
$UCSORGTOP
 10
0.0
 20
0.0
 30
0.0
  9
$UCSORGBOTTOM
 10
0.0
 20
0.0
 30
0.0
  9
$UCSORGLEFT
 10
0.0
 20
0.0
 30
0.0
  9
$UCSORGRIGHT
 10
0.0
 20
0.0
 30
0.0
  9
$UCSORGFRONT
 10
0.0
 20
0.0
 30
0.0
  9
$UCSORGBACK
 10
0.0
 20
0.0
 30
0.0
  9
$PUCSBASE
  2

  9
$PUCSNAME
  2

  9
$PUCSORG
 10
0.0
 20
0.0
 30
0.0
  9
$PUCSXDIR
 10
1.0
 20
0.0
 30
0.0
  9
$PUCSYDIR
 10
0.0
 20
1.0
 30
0.0
  9
$PUCSORTHOREF
  2

  9
$PUCSORTHOVIEW
 70
               0
  9
$PUCSORGTOP
 10
0.0
 20
0.0
 30
0.0
  9
$PUCSORGBOTTOM
 10
0.0
 20
0.0
 30
0.0
  9
$PUCSORGLEFT
 10
0.0
 20
0.0
 30
0.0
  9
$PUCSORGRIGHT
 10
0.0
 20
0.0
 30
0.0
  9
$PUCSORGFRONT
 10
0.0
 20
0.0
 30
0.0
  9
$PUCSORGBACK
 10
0.0
 20
0.0
 30
0.0
  9
$USERI1
 70
               0
  9
$USERI2
 70
               0
  9
$USERI3
 70
               0
  9
$USERI4
 70
               0
  9
$USERI5
 70
               0
  9
$USERR1
 40
0.0
  9
$USERR2
 40
0.0
  9
$USERR3
 40
0.0
  9
$USERR4
 40
0.0
  9
$USERR5
 40
0.0
  9
$WORLDVIEW
 70
               1
  9
$SHADEDGE
 70
               3
  9
$SHADEDIF
 70
              70
  9
$TILEMODE
 70
               1
  9
$MAXACTVP
 70
              64
  9
$PINSBASE
 10
0.0
 20
0.0
 30
0.0
  9
$PLIMCHECK
 70
               0
  9
$PEXTMIN
 10
1.0000000000000000E+20
 20
1.0000000000000000E+20
 30
1.0000000000000000E+20
  9
$PEXTMAX
 10
-1.0000000000000000E+20
 20
-1.0000000000000000E+20
 30
-1.0000000000000000E+20
  9
$PLIMMIN
 10
0.0
 20
0.0
  9
$PLIMMAX
 10
12.0
 20
9.0
  9
$UNITMODE
 70
               0
  9
$VISRETAIN
 70
               0
  9
$PLINEGEN
 70
               1
  9
$PSLTSCALE
 70
               0
  9
$TREEDEPTH
 70
            3020
  9
$CMLSTYLE
  2
Standard
  9
$CMLJUST
 70
               0
  9
$CMLSCALE
 40
1.0
  9
$PROXYGRAPHICS
 70
               0
  9
$MEASUREMENT
 70
               1
  9
$CELWEIGHT
370
               0
  9
$ENDCAPS
280
               0
  9
$JOINSTYLE
280
               0
  9
$LWDISPLAY
290
               1
  9
$INSUNITS
 70
               4
  9
$HYPERLINKBASE
  1

  9
$STYLESHEET
  1

  9
$XEDIT
290
               1
  9
$CEPSNTYPE
380
               0
  9
$PSTYLEMODE
290
               1
  9
$FINGERPRINTGUID
  2

  9
$VERSIONGUID
  2

  9
$EXTNAMES
290
               1
  9
$PSVPSCALE
 40
0.0
  0
ENDSEC
  0
SECTION
  2
CLASSES
  0
CLASS
  1
LWPOLYLINE
  2
AcDbPolyline
  3
AutoCAD 2000
 90
        0
280
               0
281
               1
  0
CLASS
  1
IMAGE
  2
AcDbRasterImage
  3
ISM
 90
      127
280
               0
281
               1
  0
CLASS
  1
OLE2FRAME
  2
AcDbOle2Frame
  3
AutoCAD 2000
 90
        0
280
               0
281
               1
  0
CLASS
  1
HATCH
  2
AcDbHatch
  3
AutoCAD 2000
 90
        0
280
               0
281
               1
  0
CLASS
  1
DICTIONARYVAR
  2
AcDbDictionaryVar
  3
AutoCAD 2000
 90
        0
280
               0
281
               0
  0
CLASS
  1
RASTERVARIABLES
  2
AcDbRasterVariables
  3
ISM
 90
        0
280
               0
281
               0
  0
CLASS
  1
IMAGEDEF
  2
AcDbRasterImageDef
  3
ISM
 90
        0
280
               0
281
               0
  0
CLASS
  1
IMAGEDEF_REACTOR
  2
AcDbRasterImageDefReactor
  3
ISM
 90
        1
280
               0
281
               0
  0
CLASS
  1
IDBUFFER
  2
AcDbIdBuffer
  3
AutoCAD 2000
 90
        0
280
               0
281
               0
  0
CLASS
  1
SPATIAL_FILTER
  2
AcDbSpatialFilter
  3
AutoCAD 2000
 90
        0
280
               0
281
               0
  0
CLASS
  1
XRECORD
  2
AcDbXrecord
  3
AutoCAD 2000
 90
        0
280
               0
281
               0
  0
CLASS
  1
SORTENTSTABLE
  2
AcDbSortentsTable
  3
AutoCAD 2000
 90
        0
280
               0
281
               0
  0
CLASS
  1
LAYER_INDEX
  2
AcDbLayerIndex
  3
AutoCAD 2000
 90
        0
280
               0
281
               0
  0
CLASS
  1
SPATIAL_INDEX
  2
AcDbSpatialIndex
  3
AutoCAD 2000
 90
        0
280
               0
281
               0
  0
CLASS
  1
OBJECT_PTR
  2
CAseDLPNTableRecord
  3
"ASE-LPNTableRecord"
 90
        1
280
               0
281
               0
  0
CLASS
  1
LAYOUT
  2
AcDbLayout
  3
AutoCAD 2000
 90
        0
280
               0
281
               0
  0
CLASS
  1
PLOTSETTINGS
  2
AcDbPlotSettings
  3
AutoCAD 2000
 90
        0
280
               0
281
               0
  0
CLASS
  1
ACDBDICTIONARYWDFLT
  2
AcDbDictionaryWithDefault
  3
AutoCAD 2000
 90
        0
280
               0
281
               0
  0
CLASS
  1
ACDBPLACEHOLDER
  2
AcDbPlaceHolder
  3
AutoCAD 2000
 90
        0
280
               0
281
               0
  0
ENDSEC
  0
SECTION
  2
TABLES
  0
TABLE
  2
VPORT
  5
7
100
AcDbSymbolTable
 70
               1
  0
VPORT
  5
15
100
AcDbSymbolTableRecord
100
AcDbViewportTableRecord
  2
*ACTIVE
 70
               0
 10
0.0
 20
0.0
 11
1.0
 21
1.0
 12
0.0
 22
-12.764114914906486
 13
0.0
 23
0.0
 14
1.0
 24
1.0
 15
0.0
 25
0.0
 16
0.0
 26
0.0
 36
1.0
 17
0.0
 27
0.0
 37
0.0
 40
2837.5228151124129
 41
0.688564
 42
50.0
 43
0.0
 44
0.0
 50
0.0
 51
0.0
 71
               0
 72
            2000
 73
               1
 74
               1
 75
               0
 76
               0
 77
               0
 78
               0
281
               0
 65
               0
110
0.0
120
0.0
130
0.0
111
1.0
121
0.0
131
0.0
112
0.0
122
1.0
132
0.0
345
0
346
0
 79
               0
146
0.0
  0
ENDTAB
  0
TABLE
  2
LTYPE
  5
4
100
AcDbSymbolTable
 70
              16
  0
LTYPE
  5
11
100
AcDbSymbolTableRecord
100
AcDbLinetypeTableRecord
  2
ByBlock
 70
              64
  3

 72
              65
 73
               0
 40
0.0
  0
LTYPE
  5
12
100
AcDbSymbolTableRecord
100
AcDbLinetypeTableRecord
  2
ByLayer
 70
              64
  3

 72
              65
 73
               0
 40
0.0
  0
LTYPE
  5
13
100
AcDbSymbolTableRecord
100
AcDbLinetypeTableRecord
  2
Continuous
 70
              64
  3
Solid line
 72
              65
 73
               0
 40
0.0
  0
LTYPE
  5
37
100
AcDbSymbolTableRecord
100
AcDbLinetypeTableRecord
  2
STYLE_01
 70
               0
  3

 72
              65
 73
               2
 40
3.7499999999999996
 49
2.4999999999999996
 74
               0
 49
-1.2499999999999998
 74
               0
  0
LTYPE
  5
38
100
AcDbSymbolTableRecord
100
AcDbLinetypeTableRecord
  2
STYLE_02
 70
               0
  3

 72
              65
 73
               4
 40
0.3937007874015748
 49
0.1968503937007874
 74
               0
 49
-0.0984251968503937
 74
               0
 49
0.0005
 74
               0
 49
-0.0979251968503937
 74
               0
  0
LTYPE
  5
39
100
AcDbSymbolTableRecord
100
AcDbLinetypeTableRecord
  2
STYLE_03
 70
               0
  3

 72
              65
 73
               2
 40
1.25
 49
1.0416400000000001
 74
               0
 49
-0.2083599999999999
 74
               0
  0
LTYPE
  5
3A
100
AcDbSymbolTableRecord
100
AcDbLinetypeTableRecord
  2
STYLE_04
 70
               0
  3

 72
              65
 73
               2
 40
1.5277099999999999
 49
1.3194249999999998
 74
               0
 49
-0.208285
 74
               0
  0
LTYPE
  5
3B
100
AcDbSymbolTableRecord
100
AcDbLinetypeTableRecord
  2
STYLE_05
 70
               0
  3

 72
              65
 73
               2
 40
0.20828
 49
0.069425
 74
               0
 49
-0.138855
 74
               0
  0
LTYPE
  5
3C
100
AcDbSymbolTableRecord
100
AcDbLinetypeTableRecord
  2
STYLE_06
 70
               0
  3

 72
              65
 73
               4
 40
1.0416400000000001
 49
0.625
 74
               0
 49
-0.20828
 74
               0
 49
0.06943
 74
               0
 49
-0.13893
 74
               0
  0
LTYPE
  5
3D
100
AcDbSymbolTableRecord
100
AcDbLinetypeTableRecord
  2
STYLE_07
 70
               0
  3

 72
              65
 73
               6
 40
1.875
 49
0.625
 74
               0
 49
-0.20828
 74
               0
 49
0.6250000000000001
 74
               0
 49
-0.2083599999999999
 74
               0
 49
0.06943
 74
               0
 49
-0.1389299999999999
 74
               0
  0
LTYPE
  5
3E
100
AcDbSymbolTableRecord
100
AcDbLinetypeTableRecord
  2
STYLE_08
 70
               0
  3

 72
              65
 73
               6
 40
1.25
 49
0.625
 74
               0
 49
-0.20828
 74
               0
 49
0.06943
 74
               0
 49
-0.13893
 74
               0
 49
0.0694299999999999
 74
               0
 49
-0.13893
 74
               0
  0
LTYPE
  5
3F
100
AcDbSymbolTableRecord
100
AcDbLinetypeTableRecord
  2
STYLE_09
 70
               0
  3

 72
              65
 73
               4
 40
5.0
 49
3.75
 74
               0
 49
-0.2777849999999998
 74
               0
 49
0.6944300000000003
 74
               0
 49
-0.2777849999999998
 74
               0
  0
LTYPE
  5
40
100
AcDbSymbolTableRecord
100
AcDbLinetypeTableRecord
  2
STYLE_10
 70
               0
  3

 72
              65
 73
               6
 40
5.9375
 49
3.75
 74
               0
 49
-0.2777849999999998
 74
               0
 49
0.6944300000000003
 74
               0
 49
-0.2777849999999998
 74
               0
 49
0.625
 74
               0
 49
-0.3125
 74
               0
  0
LTYPE
  5
41
100
AcDbSymbolTableRecord
100
AcDbLinetypeTableRecord
  2
STYLE_11
 70
               0
  3

 72
              65
 73
               2
 40
0.0694444881889764
 49
0.0347222440944882
 74
               0
 49
-0.0347222440944882
 74
               0
  0
LTYPE
  5
42
100
AcDbSymbolTableRecord
100
AcDbLinetypeTableRecord
  2
STYLE_12
 70
               0
  3

 72
              65
 73
               2
 40
0.3937007874015748
 49
0.1968503937007874
 74
               0
 49
-0.1968503937007874
 74
               0
  0
LTYPE
  5
43
100
AcDbSymbolTableRecord
100
AcDbLinetypeTableRecord
  2
STYLE_13
 70
               0
  3

 72
              65
 73
               2
 40
0.41664
 49
0.20828
 74
               0
 49
-0.20836
 74
               0
  0
ENDTAB
  0
TABLE
  2
LAYER
  5
2
100
AcDbSymbolTable
 70
               5
  0
LAYER
  5
14
100
AcDbSymbolTableRecord
100
AcDbLayerTableRecord
  2
0
 70
               0
 62
               7
  6
Continuous
290
               1
370
              -3
390
1D
  0
LAYER
  5
44
100
AcDbSymbolTableRecord
100
AcDbLayerTableRecord
  2
Defpoints
 70
               0
 62
               7
  6
Continuous
290
               0
370
              -3
390
1D
  0
LAYER
  5
45
100
AcDbSymbolTableRecord
100
AcDbLayerTableRecord
  2
template
 70
               0
 62
               7
  6
Continuous
290
               1
370
              -3
390
1D
  0
LAYER
  5
46
100
AcDbSymbolTableRecord
100
AcDbLayerTableRecord
  2
notes
 70
               0
 62
               7
  6
Continuous
290
               1
370
              -3
390
1D
  0
LAYER
  5
47
100
AcDbSymbolTableRecord
100
AcDbLayerTableRecord
  2
ADF70-2202
 70
               0
 62
               7
  6
Continuous
290
               1
370
              -3
390
1D
  0
ENDTAB
  0
TABLE
  2
STYLE
  5
3
100
AcDbSymbolTable
 70
               2
  0
STYLE
  5
17
100
AcDbSymbolTableRecord
100
AcDbTextStyleTableRecord
  2
Standard
 70
               0
 40
0.0
 41
1.0
 50
0.0
 71
               0
 42
0.0
  3
txt
  4
BIGFONT.SHX
  0
STYLE
  5
36
100
AcDbSymbolTableRecord
100
AcDbTextStyleTableRecord
  2
ＭＳ ゴシック
 70
               0
 40
0.0
 41
1.0
 50
0.0
 71
               0
 42
0.0
  3

  4
ＭＳ ゴシック
1001
ACAD
1000
ＭＳ ゴシック
1071
        0
  0
ENDTAB
  0
TABLE
  2
VIEW
  5
5
100
AcDbSymbolTable
 70
               0
  0
ENDTAB
  0
TABLE
  2
UCS
  5
6
100
AcDbSymbolTable
 70
               0
  0
ENDTAB
  0
TABLE
  2
APPID
  5
8
100
AcDbSymbolTable
 70
               1
  0
APPID
  5
16
100
AcDbSymbolTableRecord
100
AcDbRegAppTableRecord
  2
ACAD
 70
               0
  0
ENDTAB
  0
TABLE
  2
DIMSTYLE
  5
9
100
AcDbSymbolTable
 70
               3
100
AcDbDimStyleTable
 71
               0
  0
DIMSTYLE
105
18
100
AcDbSymbolTableRecord
100
AcDbDimStyleTableRecord
  2
Standard
 70
               0
  3

  4

 40
1.0
 41
0.18
 42
0.0625
 43
0.38
 44
0.18
 45
0.0
 46
0.0
 47
0.0
 48
0.0
 71
               0
 72
               0
 73
               1
 74
               1
 75
               0
 76
               0
 77
               0
 78
               0
 79
               0
140
0.18
141
0.09
142
0.0
143
25.399999999999999
144
1.0
145
0.0
146
1.0
147
0.09
148
0.0
170
               0
171
               2
172
               0
173
               0
174
               0
175
               0
176
               0
177
               0
178
               0
179
               0
271
               4
272
               4
273
               2
274
               2
275
               0
276
               0
277
               2
278
              46
279
               0
280
               0
281
               0
282
               0
283
               1
284
               0
285
               0
286
               0
288
               0
289
               3
340
17
341
0
342
0
343
0
344
0
371
              -2
372
              -2
  0
DIMSTYLE
105
50
100
AcDbSymbolTableRecord
100
AcDbDimStyleTableRecord
  2
tform線あり
 70
               0
  3
<>
  4
[]
 40
1.0
 41
9.9993896484374982
 42
24.999999999999996
 43
0.9999999999999999
 44
0.0
 45
0.0
 46
0.0
 47
0.0
 48
0.0
 71
               0
 72
               0
 73
               0
 74
               0
 75
               0
 76
               0
 77
               1
 78
              11
 79
               0
140
24.432617187500004
141
0.0
142
0.0
143
1.0
144
1.0
145
0.0
146
1.0
147
0.4999999999999999
148
0.0
170
               0
171
               1
172
               0
173
               0
174
               1
175
               0
176
               0
177
               0
178
               0
179
               2
271
               1
272
               1
273
               2
274
               2
275
               0
276
               2
277
               2
278
              46
279
               0
280
               0
281
               0
282
               0
283
               1
284
              11
285
              11
286
              11
288
               0
289
               0
340
36
341
48
342
48
343
0
344
0
371
              -2
372
              -2
  0
DIMSTYLE
105
55
100
AcDbSymbolTableRecord
100
AcDbDimStyleTableRecord
  2
JIS
 70
               0
  3
<>
  4
[]
 40
1.0
 41
31.75
 42
0.0
 43
6.9999999999999396
 44
19.999999999996199
 45
0.0
 46
0.0
 47
0.0
 48
0.0
 71
               0
 72
               0
 73
               0
 74
               0
 75
               0
 76
               0
 77
               1
 78
              11
 79
               0
140
24.432617187500004
141
0.0
142
0.0
143
1.0
144
1.0
145
0.0
146
1.0
147
1.00000000000108
148
0.0
170
               0
171
               1
172
               0
173
               0
174
               1
175
               0
176
               0
177
               0
178
               0
179
               2
271
               1
272
               1
273
               2
274
               2
275
               0
276
               2
277
               2
278
              46
279
               0
280
               0
281
               0
282
               0
283
               1
284
              11
285
              11
286
              11
288
               0
289
               0
340
36
341
51
342
51
343
0
344
0
371
              -2
372
              -2
  0
ENDTAB
  0
TABLE
  2
BLOCK_RECORD
  5
1
100
AcDbSymbolTable
 70
              21
  0
BLOCK_RECORD
  5
A
100
AcDbSymbolTableRecord
100
AcDbBlockTableRecord
  2
*MODEL_SPACE
340
20
  0
BLOCK_RECORD
  5
B
100
AcDbSymbolTableRecord
100
AcDbBlockTableRecord
  2
*PAPER_SPACE
340
21
  0
BLOCK_RECORD
  5
48
100
AcDbSymbolTableRecord
100
AcDbBlockTableRecord
  2
_DOT
340
0
  0
BLOCK_RECORD
  5
51
100
AcDbSymbolTableRecord
100
AcDbBlockTableRecord
  2
VW_FILLEDARROW
340
0
  0
BLOCK_RECORD
  5
23
100
AcDbSymbolTableRecord
100
AcDbBlockTableRecord
  2
グループ
340
0
102
{BLKREFS
331
154
102
}
  0
BLOCK_RECORD
  5
24
100
AcDbSymbolTableRecord
100
AcDbBlockTableRecord
  2
*D3
340
0
  0
BLOCK_RECORD
  5
25
100
AcDbSymbolTableRecord
100
AcDbBlockTableRecord
  2
*D4
340
0
  0
BLOCK_RECORD
  5
26
100
AcDbSymbolTableRecord
100
AcDbBlockTableRecord
  2
*D5
340
0
  0
BLOCK_RECORD
  5
27
100
AcDbSymbolTableRecord
100
AcDbBlockTableRecord
  2
*D6
340
0
  0
BLOCK_RECORD
  5
28
100
AcDbSymbolTableRecord
100
AcDbBlockTableRecord
  2
*D7
340
0
  0
BLOCK_RECORD
  5
29
100
AcDbSymbolTableRecord
100
AcDbBlockTableRecord
  2
*D8
340
0
  0
BLOCK_RECORD
  5
2A
100
AcDbSymbolTableRecord
100
AcDbBlockTableRecord
  2
*D9
340
0
  0
BLOCK_RECORD
  5
2B
100
AcDbSymbolTableRecord
100
AcDbBlockTableRecord
  2
*D10
340
0
  0
BLOCK_RECORD
  5
2C
100
AcDbSymbolTableRecord
100
AcDbBlockTableRecord
  2
*D11
340
0
  0
BLOCK_RECORD
  5
2D
100
AcDbSymbolTableRecord
100
AcDbBlockTableRecord
  2
*D12
340
0
  0
BLOCK_RECORD
  5
2E
100
AcDbSymbolTableRecord
100
AcDbBlockTableRecord
  2
*D13
340
0
  0
BLOCK_RECORD
  5
2F
100
AcDbSymbolTableRecord
100
AcDbBlockTableRecord
  2
*D14
340
0
  0
BLOCK_RECORD
  5
30
100
AcDbSymbolTableRecord
100
AcDbBlockTableRecord
  2
*D15
340
0
  0
BLOCK_RECORD
  5
31
100
AcDbSymbolTableRecord
100
AcDbBlockTableRecord
  2
*D16
340
0
  0
BLOCK_RECORD
  5
32
100
AcDbSymbolTableRecord
100
AcDbBlockTableRecord
  2
*D17
340
0
  0
BLOCK_RECORD
  5
33
100
AcDbSymbolTableRecord
100
AcDbBlockTableRecord
  2
*D18
340
0
  0
BLOCK_RECORD
  5
34
100
AcDbSymbolTableRecord
100
AcDbBlockTableRecord
  2
*D19
340
0
  0
BLOCK_RECORD
  5
35
100
AcDbSymbolTableRecord
100
AcDbBlockTableRecord
  2
*D20
340
0
  0
ENDTAB
  0
ENDSEC
  0
SECTION
  2
BLOCKS
  0
BLOCK
  5
D
100
AcDbEntity
  8
0
390
0
100
AcDbBlockBegin
  2
*MODEL_SPACE
 70
               0
 10
0.0
 20
0.0
 30
0.0
  3
*MODEL_SPACE
  1

  0
ENDBLK
  5
E
100
AcDbEntity
  8
0
390
0
100
AcDbBlockEnd
  0
BLOCK
  5
F
100
AcDbEntity
 67
               1
  8
0
390
0
100
AcDbBlockBegin
  2
*PAPER_SPACE
 70
               0
 10
0.0
 20
0.0
 30
0.0
  3
*PAPER_SPACE
  1

  0
ENDBLK
  5
10
100
AcDbEntity
 67
               1
  8
0
390
0
100
AcDbBlockEnd
  0
BLOCK
  5
49
100
AcDbEntity
  8
0
390
0
100
AcDbBlockBegin
  2
_DOT
 70
               0
 10
0.0
 20
0.0
 30
0.0
  3
_DOT
  1

  0
POLYLINE
  5
4A
100
AcDbEntity
  8
0
370
              -2
390
0
  6
ByBlock
 62
               0
100
AcDb2dPolyline
 66
               1
 10
0.0
 20
0.0
 30
0.0
 70
               1
 40
0.5
 41
0.5
  0
VERTEX
  5
4B
100
AcDbEntity
  8
0
370
              -2
390
0
  6
ByBlock
 62
               0
100
AcDbVertex
100
AcDb2dVertex
 10
-0.25
 20
0.0
 30
0.0
 42
1.0
  0
VERTEX
  5
4C
100
AcDbEntity
  8
0
370
              -2
390
0
  6
ByBlock
 62
               0
100
AcDbVertex
100
AcDb2dVertex
 10
0.25
 20
0.0
 30
0.0
 42
1.0
  0
SEQEND
  5
4D
100
AcDbEntity
  8
0
390
0
  0
LINE
  5
4E
100
AcDbEntity
  8
0
370
              -2
390
0
  6
ByBlock
 62
               0
100
AcDbLine
 10
-0.5
 20
0.0
 30
0.0
 11
-1.0
 21
0.0
 31
0.0
  0
ENDBLK
  5
4F
100
AcDbEntity
  8
0
390
0
100
AcDbBlockEnd
  0
BLOCK
  5
52
100
AcDbEntity
  8
0
370
              -2
390
0
  6
ByBlock
 62
               0
100
AcDbBlockBegin
  2
VW_FILLEDARROW
 70
               0
 10
0.0
 20
0.0
 30
0.0
  3
VW_FILLEDARROW
  1

  0
SOLID
  5
53
100
AcDbEntity
  8
0
370
              -2
390
0
 62
               0
100
AcDbTrace
 10
0.0
 20
0.0
 30
0.0
 11
-0.9921874999999999
 21
-0.2658558393652545
 31
0.0
 12
-0.9921874999999999
 22
0.2658558393652548
 32
0.0
 13
-0.9921874999999999
 23
0.2658558393652548
 33
0.0
  0
ENDBLK
  5
54
100
AcDbEntity
  8
0
390
0
100
AcDbBlockEnd
  0
BLOCK
  5
56
100
AcDbEntity
  8
template
390
0
100
AcDbBlockBegin
  2
グループ
 70
               0
 10
0.0
 20
0.0
 30
0.0
  3
グループ
  1

  0
LWPOLYLINE
  5
57
100
AcDbEntity
  8
0
370
              15
390
0
  6
Continuous
 62
               7
100
AcDbPolyline
 90
        8
 70
             129
 10
-3294.5108584025097
 20
-222.65239881239404
 10
-3294.5108584025097
 20
-228.64978750596993
 10
-3304.0120553205129
 20
-228.64978750596993
 10
-3304.0120553205129
 20
-253.10075076947874
 10
-3312.3674325822958
 20
-253.10075076947874
 10
-3312.3674325822958
 20
-228.64978750596993
 10
-3321.7003895286052
 20
-228.64978750596993
 10
-3321.7003895286052
 20
-222.65239881239404
  0
LWPOLYLINE
  5
58
100
AcDbEntity
  8
0
370
              15
390
0
  6
Continuous
 62
               7
100
AcDbPolyline
 90
      101
 70
             128
 10
-3281.7825665719529
 20
-223.38064730533051
 10
-3281.7672165431668
 20
-223.37628654864514
 42
-0.022222160781234
 10
-3281.4772119664967
 20
-223.30766208340083
 10
-3281.4614182025052
 20
-223.30465866030423
 42
-0.0146883565597729
 10
-3281.198715497279
 20
-223.26265547335447
 42
-0.012745884419214
 10
-3280.9340765301258
 20
-223.23511850528195
 10
-3280.8716214518131
 20
-223.23022508269378
 42
-0.0198099018565701
 10
-3280.4807723423405
 20
-223.21513992529714
 10
-3280.4289608728923
 20
-223.21519370096223
 42
-0.0147617382764874
 10
-3279.9343374119185
 20
-223.2303137262071
 10
-3279.861645957043
 20
-223.23468633309483
 42
-0.0162624548999547
 10
-3279.4714923275787
 20
-223.2709192083671
 10
-3279.3499599363176
 20
-223.28620576736395
 42
-0.0080020874645632
 10
-3279.2043809052284
 20
-223.30688861463204
 10
-3279.166061434631
 20
-223.31295989244344
 42
-0.0053821929680754
 10
-3279.097577329318
 20
-223.3245674162647
 10
-3279.8239830285165
 20
-225.50549587197861
 42
0.0108667757397704
 10
-3279.8913000986481
 20
-225.49230875675866
 10
-3279.9287681218375
 20
-225.48581101416426
 42
0.0170663203307088
 10
-3280.0719849087527
 20
-225.46598141687249
 10
-3280.1398602414356
 20
-225.45893424628503
 42
0.0220162375265428
 10
-3280.4202396492888
 20
-225.44225188551493
 10
-3280.4980952163428
 20
-225.4410525182484
 42
0.0282606915791534
 10
-3280.8337315399212
 20
-225.45485579521744
 10
-3280.8776448136964
 20
-225.45915578522141
 42
0.016967721368644
 10
-3281.1235693086519
 20
-225.49169283477306
 42
0.0190576269874873
 10
-3281.3664772712355
 20
-225.54183970688015
 10
-3281.3727364593433
 20
-225.54338268098877
 42
0.0213685642845605
 10
-3281.6231209438201
 20
-225.61658296609332
 10
-3281.6286108387371
 20
-225.61844596215258
 42
0.0237595297604394
 10
-3281.8821057236396
 20
-225.71813048404985
 10
-3281.8872077976657
 20
-225.72042225952634
 42
0.0261857468812923
 10
-3282.1393785738965
 20
-225.84995859690153
 10
-3282.1498047629821
 20
-225.85602407136918
 42
0.0272553062020064
 10
-3282.3862345382204
 20
-226.01139627731357
 10
-3282.4209975517347
 20
-226.03705742540907
 42
0.0325996893188888
 10
-3282.5711528953816
 20
-226.16380529837716
 10
-3282.5948623245026
 20
-226.18662332688771
 42
0.0138050960638988
 10
-3282.6867454807152
 20
-226.2800729884417
 42
0.0125280103790428
 10
-3282.7735880135415
 20
-226.37823631503335
 10
-3282.797268458457
 20
-226.4063948132291
 42
0.020521802472057
 10
-3282.9223685339662
 20
-226.56818812745203
 10
-3282.9448348744577
 20
-226.59984785728511
 42
0.0163110129594536
 10
-3283.1005452537179
 20
-226.83517829236979
 10
-3283.1032691497599
 20
-226.8396020543405
 42
0.013189734188569
 10
-3283.2500696706579
 20
-227.09273414669059
 10
-3283.2517697660323
 20
-227.09585238584066
 42
0.0107895576062709
 10
-3283.3895464682391
 20
-227.36206759546755
 10
-3283.3902793577681
 20
-227.36356182812233
 42
0.0091371507211665
 10
-3283.5187593064074
 20
-227.63808702585908
 10
-3283.5485049378267
 20
-227.70479353304074
 42
0.0135418326351155
 10
-3283.7202188768965
 20
-228.11973131830442
 10
-3283.7538236853384
 20
-228.20759746060594
 42
0.0092834542418715
 10
-3283.9250527452537
 20
-228.68149595889611
 10
-3283.950669872967
 20
-228.75673702867692
 42
0.0054261043576069
 10
-3284.0583080212646
 20
-229.08450100175457
 10
-3284.075834007474
 20
-229.13988916408607
 42
0.0008225090833128
 10
-3284.1445040592716
 20
-229.35815792213384
 10
-3285.1291931912051
 20
-232.38304921539043
 10
-3281.8965693511313
 20
-232.38304921539043
 10
-3282.4007617809848
 20
-234.28752751374282
 10
-3285.6568180629683
 20
-234.28752751374282
 10
-3291.4859670953219
 20
-253.10075057974768
 10
-3293.3110647056324
 20
-253.10075057974768
 10
-3287.4763866701314
 20
-234.28752751374282
 10
-3289.8815030391715
 20
-234.28752751374282
 10
-3289.3773106093181
 20
-232.38304921539043
 10
-3286.9487617983682
 20
-232.38304921539043
 10
-3286.0886068801797
 20
-229.74663621469153
 42
-0.0005863560656416
 10
-3286.0518722020543
 20
-229.62980979464947
 10
-3285.9757843683155
 20
-229.38881749501434
 42
-0.0087522378924329
 10
-3285.7763162248534
 20
-228.79354140785196
 10
-3285.6840519494403
 20
-228.53340123934066
 42
-0.0077400953832625
 10
-3285.4261182903142
 20
-227.84039656180664
 10
-3285.4103533187345
 20
-227.79996567841849
 42
-0.0082369946328445
 10
-3285.1632688481232
 20
-227.19588661222485
 42
-0.0085725238364812
 10
-3284.8960227521225
 20
-226.60046057294201
 10
-3284.7943931511177
 20
-226.38403947096248
 42
-0.0168109410602718
 10
-3284.5074487223833
 20
-225.8228319448483
 10
-3284.3816053319479
 20
-225.59586791189278
 42
-0.0007817726860867
 10
-3284.3273209818676
 20
-225.49832366681983
 10
-3284.3271926758543
 20
-225.49809395809058
 42
-0.0036626142164191
 10
-3284.2723048118291
 20
-225.40149607811486
 42
-0.0080221150645521
 10
-3284.2151805564067
 20
-225.30621684333659
 10
-3284.1844806050613
 20
-225.2568258942398
 42
-0.0202139325573582
 10
-3284.0568248652507
 20
-225.06884429355318
 10
-3284.0027574000669
 20
-224.99576542931754
 42
-0.0249323791798598
 10
-3283.7435946063488
 20
-224.67972018716432
 10
-3283.7194547922209
 20
-224.65310591425066
 42
-0.0242132121535371
 10
-3283.3797740506775
 20
-224.31322242804592
 10
-3283.3318624779286
 20
-224.26971329186122
 42
-0.0251017527859383
 10
-3283.047880777287
 20
-224.03672054609581
 10
-3283.0464353004832
 20
-224.03565128852404
 42
-0.0130868069038289
 10
-3282.7481746505164
 20
-223.82687081997437
 10
-3282.7466128313731
 20
-223.82583737969912
 42
-0.0290329526392516
 10
-3282.4355016899799
 20
-223.64501187807002
 10
-3282.405656127994
 20
-223.62990949523046
 42
-0.0160250190053172
 10
-3282.1397517142295
 20
-223.5058933850172
 42
-0.026760037478215
 10
-3281.8644756367621
 20
-223.40514506446897
 10
-3281.8377397172399
 20
-223.39695250564296
 42
-0.004998158765081
 10
-3281.7825665719529
 20
-223.38064730533051
 42
-0.004998158765081
  0
LWPOLYLINE
  5
59
100
AcDbEntity
  8
0
370
              15
390
0
  6
Continuous
 62
               7
100
AcDbPolyline
 90
      118
 70
             128
 10
-3261.968199007506
 20
-232.45703254321779
 10
-3260.0930770830064
 20
-232.45703254321779
 10
-3260.9311159886065
 20
-235.13859906961784
 42
-0.0010587229237507
 10
-3260.8996601730432
 20
-235.10169453627287
 10
-3260.8414660824023
 20
-235.03371228008677
 42
-0.0071874740409956
 10
-3260.6910908643035
 20
-234.86307158805661
 10
-3260.5493680910422
 20
-234.70683544674455
 42
-0.0148118053512128
 10
-3260.099238798321
 20
-234.23922160072297
 10
-3260.0120164634245
 20
-234.15382427987487
 42
-0.0086273358689451
 10
-3259.6764676624189
 20
-233.83644864586154
 10
-3259.6326339461866
 20
-233.79639900152259
 42
-0.0103138323110341
 10
-3259.37461024396
 20
-233.57023586419018
 10
-3259.3288358376362
 20
-233.53175381693268
 42
-0.0060206748567086
 10
-3259.1559877735208
 20
-233.38995916617557
 10
-3259.1539566426154
 20
-233.38833346052883
 42
-0.0067069027278123
 10
-3258.9816638279722
 20
-233.25418282674934
 10
-3258.9791150620385
 20
-233.25225265686836
 42
-0.0076184352059309
 10
-3258.8082097961747
 20
-233.12687778163024
 42
-0.0089652861662637
 10
-3258.6332488334415
 20
-233.0072445212985
 10
-3258.5968971132988
 20
-232.98333330781725
 42
-0.0156916245948137
 10
-3258.4009376161348
 20
-232.86307082134033
 42
-0.0023299011058227
 10
-3258.2006755721404
 20
-232.7498928817912
 10
-3258.185291439775
 20
-232.74129288673475
 42
-0.0107669341494995
 10
-3257.9510546146735
 20
-232.616892753385
 10
-3257.928789813599
 20
-232.60567600343529
 42
-0.0078058045900816
 10
-3257.645199695643
 20
-232.4683145477953
 10
-3257.6352926079371
 20
-232.46370541992837
 42
-0.0181829330466947
 10
-3257.3249832033225
 20
-232.33284167883303
 10
-3257.2709277607528
 20
-232.31232655888843
 42
-0.0208411536022511
 10
-3256.9218427933047
 20
-232.19623609639609
 10
-3256.9074866931783
 20
-232.19211765144291
 42
-0.0222799817141043
 10
-3256.5787668992598
 20
-232.1134760853023
 10
-3256.5698779360237
 20
-232.11176407471737
 42
-0.0215509523892003
 10
-3256.2534069677431
 20
-232.06484838618292
 10
-3256.2109250066924
 20
-232.06041085939188
 42
-0.0182545924878892
 10
-3255.9768162273886
 20
-232.04456703400115
 10
-3255.9374152110458
 20
-232.04334248892209
 42
-0.0072962856524574
 10
-3255.7814923313517
 20
-232.04077316039979
 10
-3255.7523926607846
 20
-232.04071832499605
 42
-0.0059227516334517
 10
-3255.6546431616352
 20
-232.04169203678646
 10
-3255.6254009441423
 20
-232.04232980339023
 42
-0.001183311193047
 10
-3255.5861496604307
 20
-232.04327880769983
 10
-3256.3815362560381
 20
-234.58201275279885
 42
0.0143932051657872
 10
-3256.4079376383879
 20
-234.57181378275362
 10
-3256.4152096108055
 20
-234.56924256389618
 42
0.0234388603494613
 10
-3256.4570404767401
 20
-234.55662332818039
 10
-3256.4657221396506
 20
-234.55444236617586
 42
0.0199162743019514
 10
-3256.5260109737324
 20
-234.54182563084038
 10
-3256.5468249115365
 20
-234.53832843141231
 42
0.0293643550666221
 10
-3256.6498997702975
 20
-234.5271783857591
 10
-3256.6745849510162
 20
-234.52596676874055
 42
0.0214606686879826
 10
-3256.8277258669673
 20
-234.52502820832305
 10
-3256.8370977777868
 20
-234.52537311986737
 42
0.0167564054174839
 10
-3257.0086179688974
 20
-234.53745016223561
 10
-3257.017077761654
 20
-234.53833150266257
 42
0.0137677553251312
 10
-3257.2044310749188
 20
-234.56308081120599
 10
-3257.2117828144264
 20
-234.56425873117405
 42
0.0118497261476834
 10
-3257.412280578531
 20
-234.60127608136369
 10
-3257.4184305857752
 20
-234.60256294408327
 42
0.0106421143873253
 10
-3257.6293114730634
 20
-234.65139531965877
 10
-3257.6342202814494
 20
-234.65264266234317
 42
0.0099746379687406
 10
-3257.8526787506125
 20
-234.71281719065809
 10
-3257.9142267907819
 20
-234.73109906928858
 42
0.0191613675864846
 10
-3258.2502112532957
 20
-234.84507644957475
 10
-3258.3382710260444
 20
-234.87876335989998
 42
0.0205274080142814
 10
-3258.723577797944
 20
-235.04459176772616
 10
-3258.7812270799232
 20
-235.07225973229717
 42
0.0181256912180892
 10
-3259.0395040205931
 20
-235.20794355127634
 10
-3259.0924594039097
 20
-235.23826116449263
 42
0.0140709242417886
 10
-3259.237414338535
 20
-235.32675583792548
 10
-3259.2636632071531
 20
-235.34381265664067
 42
0.0086667884379193
 10
-3259.3525893686965
 20
-235.40381532452375
 42
0.0036408192043965
 10
-3259.4400226067642
 20
-235.46599618234097
 10
-3259.4752494811983
 20
-235.49143712822888
 42
0.005226078128572
 10
-3259.6314781785782
 20
-235.60676951485479
 10
-3259.647685034849
 20
-235.61899762548126
 42
0.0050024435890839
 10
-3259.8336883779234
 20
-235.76228019375557
 10
-3259.8490065344231
 20
-235.77432621618925
 42
0.0136138710275664
 10
-3260.0594478027488
 20
-235.94929272110298
 10
-3260.0931156785418
 20
-235.97887169381681
 42
0.0172815186920249
 10
-3260.3575192202011
 20
-236.22786836643749
 10
-3260.3600815660466
 20
-236.23045418358731
 42
0.0189403858001104
 10
-3260.6106633646314
 20
-236.50325944839864
 10
-3260.6432948581632
 20
-236.54160337989066
 42
0.018504419950683
 10
-3260.8352512971419
 20
-236.78485196101167
 42
0.0088565243901255
 10
-3261.0137114037675
 20
-237.03836838115734
 10
-3261.0228893834192
 20
-237.05190976092172
 42
0.0157195347219819
 10
-3261.2061099897496
 20
-237.34143197023153
 10
-3261.2521929316845
 20
-237.41958416725922
 42
0.009545187978676
 10
-3261.4172784818215
 20
-237.71217880961478
 10
-3261.428426400747
 20
-237.73284948173858
 42
0.0100351706242108
 10
-3261.5604701499105
 20
-237.98990504223752
 42
0.0086935915410403
 10
-3261.6828013016989
 20
-238.25173818763002
 10
-3261.6861220431188
 20
-238.25918051061376
 42
0.0072580174872818
 10
-3261.806468495075
 20
-238.53977250222351
 10
-3261.8097301283701
 20
-238.54769252821472
 42
0.0060005122623574
 10
-3261.9289307967233
 20
-238.84730219884742
 10
-3261.9321417750543
 20
-238.85566372672463
 42
0.0049017786987548
 10
-3262.0510419339103
 20
-239.17459270732445
 10
-3262.0542077403024
 20
-239.18334564455938
 42
0.0039415167611667
 10
-3262.1736440183763
 20
-239.52188770702335
 10
-3262.1767751210109
 20
-239.53099090784872
 42
0.0031035838755328
 10
-3262.297579906689
 20
-239.88943076957494
 10
-3262.3006899512347
 20
-239.89885139099704
 42
0.0025070747153455
 10
-3262.4235913025632
 20
-240.27749860798264
 10
-3262.4608851989751
 20
-240.39439027319395
 42
0.0029081910280803
 10
-3262.6529034967575
 20
-241.00855393139142
 10
-3262.6937066653036
 20
-241.14177717376151
 42
0.0009266453731591
 10
-3262.9621240395873
 20
-242.02400163358257
 10
-3262.9830115121154
 20
-242.09311351244611
 42
-0.0005809993668935
 10
-3263.26034819285
 20
-243.00692161955988
 10
-3263.3266299910861
 20
-243.22440655160082
 42
-0.0012018708172709
 10
-3263.4736143005521
 20
-243.70256921624025
 10
-3263.5259341521023
 20
-243.87132835705697
 42
-0.0002691059612581
 10
-3263.5695036332859
 20
-244.011595977448
 10
-3266.402459531575
 20
-253.10075057974768
 10
-3268.2204484235535
 20
-253.10075057974768
 10
-3261.968199007506
 20
-232.45703254321779
  0
SPLINE
  5
5A
100
AcDbEntity
  8
0
370
              15
390
0
  6
Continuous
 62
               7
100
AcDbSpline
210
0.0
220
0.0
230
1.0
 70
              13
 71
               2
 72
             782
 73
             779
 74
               0
 42
0.000001
 43
0.000001
 40
0.0
 40
0.0
 40
0.0
 40
1.0
 40
1.0
 40
2.0
 40
2.0
 40
3.0
 40
3.0
 40
4.0
 40
4.0
 40
5.0
 40
5.0
 40
6.0
 40
6.0
 40
7.0
 40
7.0
 40
8.0
 40
8.0
 40
9.0
 40
9.0
 40
10.0
 40
10.0
 40
11.0
 40
11.0
 40
12.0
 40
12.0
 40
13.0
 40
13.0
 40
14.0
 40
14.0
 40
15.0
 40
15.0
 40
16.0
 40
16.0
 40
17.0
 40
17.0
 40
18.0
 40
18.0
 40
19.0
 40
19.0
 40
20.0
 40
20.0
 40
21.0
 40
21.0
 40
22.0
 40
22.0
 40
23.0
 40
23.0
 40
24.0
 40
24.0
 40
25.0
 40
25.0
 40
26.0
 40
26.0
 40
27.0
 40
27.0
 40
28.0
 40
28.0
 40
29.0
 40
29.0
 40
30.0
 40
30.0
 40
31.0
 40
31.0
 40
32.0
 40
32.0
 40
33.0
 40
33.0
 40
34.0
 40
34.0
 40
35.0
 40
35.0
 40
36.0
 40
36.0
 40
37.0
 40
37.0
 40
38.0
 40
38.0
 40
39.0
 40
39.0
 40
40.0
 40
40.0
 40
41.0
 40
41.0
 40
42.0
 40
42.0
 40
43.0
 40
43.0
 40
44.0
 40
44.0
 40
45.0
 40
45.0
 40
46.0
 40
46.0
 40
47.0
 40
47.0
 40
48.0
 40
48.0
 40
49.0
 40
49.0
 40
50.0
 40
50.0
 40
51.0
 40
51.0
 40
52.0
 40
52.0
 40
53.0
 40
53.0
 40
54.0
 40
54.0
 40
55.0
 40
55.0
 40
56.0
 40
56.0
 40
57.0
 40
57.0
 40
58.0
 40
58.0
 40
59.0
 40
59.0
 40
60.0
 40
60.0
 40
61.0
 40
61.0
 40
62.0
 40
62.0
 40
63.0
 40
63.0
 40
64.0
 40
64.0
 40
65.0
 40
65.0
 40
66.0
 40
66.0
 40
67.0
 40
67.0
 40
68.0
 40
68.0
 40
69.0
 40
69.0
 40
70.0
 40
70.0
 40
71.0
 40
71.0
 40
72.0
 40
72.0
 40
73.0
 40
73.0
 40
74.0
 40
74.0
 40
75.0
 40
75.0
 40
76.0
 40
76.0
 40
77.0
 40
77.0
 40
78.0
 40
78.0
 40
79.0
 40
79.0
 40
80.0
 40
80.0
 40
81.0
 40
81.0
 40
82.0
 40
82.0
 40
83.0
 40
83.0
 40
84.0
 40
84.0
 40
85.0
 40
85.0
 40
86.0
 40
86.0
 40
87.0
 40
87.0
 40
88.0
 40
88.0
 40
89.0
 40
89.0
 40
90.0
 40
90.0
 40
91.0
 40
91.0
 40
92.0
 40
92.0
 40
93.0
 40
93.0
 40
94.0
 40
94.0
 40
95.0
 40
95.0
 40
96.0
 40
96.0
 40
97.0
 40
97.0
 40
98.0
 40
98.0
 40
99.0
 40
99.0
 40
100.0
 40
100.0
 40
101.0
 40
101.0
 40
102.0
 40
102.0
 40
103.0
 40
103.0
 40
104.0
 40
104.0
 40
105.0
 40
105.0
 40
106.0
 40
106.0
 40
107.0
 40
107.0
 40
108.0
 40
108.0
 40
109.0
 40
109.0
 40
110.0
 40
110.0
 40
111.0
 40
111.0
 40
112.0
 40
112.0
 40
113.0
 40
113.0
 40
114.0
 40
114.0
 40
115.0
 40
115.0
 40
116.0
 40
116.0
 40
117.0
 40
117.0
 40
118.0
 40
118.0
 40
119.0
 40
119.0
 40
120.0
 40
120.0
 40
121.0
 40
121.0
 40
122.0
 40
122.0
 40
123.0
 40
123.0
 40
124.0
 40
124.0
 40
125.0
 40
125.0
 40
126.0
 40
126.0
 40
127.0
 40
127.0
 40
128.0
 40
128.0
 40
129.0
 40
129.0
 40
130.0
 40
130.0
 40
131.0
 40
131.0
 40
132.0
 40
132.0
 40
133.0
 40
133.0
 40
134.0
 40
134.0
 40
135.0
 40
135.0
 40
136.0
 40
136.0
 40
137.0
 40
137.0
 40
138.0
 40
138.0
 40
139.0
 40
139.0
 40
140.0
 40
140.0
 40
141.0
 40
141.0
 40
142.0
 40
142.0
 40
143.0
 40
143.0
 40
144.0
 40
144.0
 40
145.0
 40
145.0
 40
146.0
 40
146.0
 40
147.0
 40
147.0
 40
148.0
 40
148.0
 40
149.0
 40
149.0
 40
150.0
 40
150.0
 40
151.0
 40
151.0
 40
152.0
 40
152.0
 40
153.0
 40
153.0
 40
154.0
 40
154.0
 40
155.0
 40
155.0
 40
156.0
 40
156.0
 40
157.0
 40
157.0
 40
158.0
 40
158.0
 40
159.0
 40
159.0
 40
160.0
 40
160.0
 40
161.0
 40
161.0
 40
162.0
 40
162.0
 40
163.0
 40
163.0
 40
164.0
 40
164.0
 40
165.0
 40
165.0
 40
166.0
 40
166.0
 40
167.0
 40
167.0
 40
168.0
 40
168.0
 40
169.0
 40
169.0
 40
170.0
 40
170.0
 40
171.0
 40
171.0
 40
172.0
 40
172.0
 40
173.0
 40
173.0
 40
174.0
 40
174.0
 40
175.0
 40
175.0
 40
176.0
 40
176.0
 40
177.0
 40
177.0
 40
178.0
 40
178.0
 40
179.0
 40
179.0
 40
180.0
 40
180.0
 40
181.0
 40
181.0
 40
182.0
 40
182.0
 40
183.0
 40
183.0
 40
184.0
 40
184.0
 40
185.0
 40
185.0
 40
186.0
 40
186.0
 40
187.0
 40
187.0
 40
188.0
 40
188.0
 40
189.0
 40
189.0
 40
190.0
 40
190.0
 40
191.0
 40
191.0
 40
192.0
 40
192.0
 40
193.0
 40
193.0
 40
194.0
 40
194.0
 40
195.0
 40
195.0
 40
196.0
 40
196.0
 40
197.0
 40
197.0
 40
198.0
 40
198.0
 40
199.0
 40
199.0
 40
200.0
 40
200.0
 40
201.0
 40
201.0
 40
202.0
 40
202.0
 40
203.0
 40
203.0
 40
204.0
 40
204.0
 40
205.0
 40
205.0
 40
206.0
 40
206.0
 40
207.0
 40
207.0
 40
208.0
 40
208.0
 40
209.0
 40
209.0
 40
210.0
 40
210.0
 40
211.0
 40
211.0
 40
212.0
 40
212.0
 40
213.0
 40
213.0
 40
214.0
 40
214.0
 40
215.0
 40
215.0
 40
216.0
 40
216.0
 40
217.0
 40
217.0
 40
218.0
 40
218.0
 40
219.0
 40
219.0
 40
220.0
 40
220.0
 40
221.0
 40
221.0
 40
222.0
 40
222.0
 40
223.0
 40
223.0
 40
224.0
 40
224.0
 40
225.0
 40
225.0
 40
226.0
 40
226.0
 40
227.0
 40
227.0
 40
228.0
 40
228.0
 40
229.0
 40
229.0
 40
230.0
 40
230.0
 40
231.0
 40
231.0
 40
232.0
 40
232.0
 40
233.0
 40
233.0
 40
234.0
 40
234.0
 40
235.0
 40
235.0
 40
236.0
 40
236.0
 40
237.0
 40
237.0
 40
238.0
 40
238.0
 40
239.0
 40
239.0
 40
240.0
 40
240.0
 40
241.0
 40
241.0
 40
242.0
 40
242.0
 40
243.0
 40
243.0
 40
244.0
 40
244.0
 40
245.0
 40
245.0
 40
246.0
 40
246.0
 40
247.0
 40
247.0
 40
248.0
 40
248.0
 40
249.0
 40
249.0
 40
250.0
 40
250.0
 40
251.0
 40
251.0
 40
252.0
 40
252.0
 40
253.0
 40
253.0
 40
254.0
 40
254.0
 40
255.0
 40
255.0
 40
256.0
 40
256.0
 40
257.0
 40
257.0
 40
258.0
 40
258.0
 40
259.0
 40
259.0
 40
260.0
 40
260.0
 40
261.0
 40
261.0
 40
262.0
 40
262.0
 40
263.0
 40
263.0
 40
264.0
 40
264.0
 40
265.0
 40
265.0
 40
266.0
 40
266.0
 40
267.0
 40
267.0
 40
268.0
 40
268.0
 40
269.0
 40
269.0
 40
270.0
 40
270.0
 40
271.0
 40
271.0
 40
272.0
 40
272.0
 40
273.0
 40
273.0
 40
274.0
 40
274.0
 40
275.0
 40
275.0
 40
276.0
 40
276.0
 40
277.0
 40
277.0
 40
278.0
 40
278.0
 40
279.0
 40
279.0
 40
280.0
 40
280.0
 40
281.0
 40
281.0
 40
282.0
 40
282.0
 40
283.0
 40
283.0
 40
284.0
 40
284.0
 40
285.0
 40
285.0
 40
286.0
 40
286.0
 40
287.0
 40
287.0
 40
288.0
 40
288.0
 40
289.0
 40
289.0
 40
290.0
 40
290.0
 40
291.0
 40
291.0
 40
292.0
 40
292.0
 40
293.0
 40
293.0
 40
294.0
 40
294.0
 40
295.0
 40
295.0
 40
296.0
 40
296.0
 40
297.0
 40
297.0
 40
298.0
 40
298.0
 40
299.0
 40
299.0
 40
300.0
 40
300.0
 40
301.0
 40
301.0
 40
302.0
 40
302.0
 40
303.0
 40
303.0
 40
304.0
 40
304.0
 40
305.0
 40
305.0
 40
306.0
 40
306.0
 40
307.0
 40
307.0
 40
308.0
 40
308.0
 40
309.0
 40
309.0
 40
310.0
 40
310.0
 40
311.0
 40
311.0
 40
312.0
 40
312.0
 40
313.0
 40
313.0
 40
314.0
 40
314.0
 40
315.0
 40
315.0
 40
316.0
 40
316.0
 40
317.0
 40
317.0
 40
318.0
 40
318.0
 40
319.0
 40
319.0
 40
320.0
 40
320.0
 40
321.0
 40
321.0
 40
322.0
 40
322.0
 40
323.0
 40
323.0
 40
324.0
 40
324.0
 40
325.0
 40
325.0
 40
326.0
 40
326.0
 40
327.0
 40
327.0
 40
328.0
 40
328.0
 40
329.0
 40
329.0
 40
330.0
 40
330.0
 40
331.0
 40
331.0
 40
332.0
 40
332.0
 40
333.0
 40
333.0
 40
334.0
 40
334.0
 40
335.0
 40
335.0
 40
336.0
 40
336.0
 40
337.0
 40
337.0
 40
338.0
 40
338.0
 40
339.0
 40
339.0
 40
340.0
 40
340.0
 40
341.0
 40
341.0
 40
342.0
 40
342.0
 40
343.0
 40
343.0
 40
344.0
 40
344.0
 40
345.0
 40
345.0
 40
346.0
 40
346.0
 40
347.0
 40
347.0
 40
348.0
 40
348.0
 40
349.0
 40
349.0
 40
350.0
 40
350.0
 40
351.0
 40
351.0
 40
352.0
 40
352.0
 40
353.0
 40
353.0
 40
354.0
 40
354.0
 40
355.0
 40
355.0
 40
356.0
 40
356.0
 40
357.0
 40
357.0
 40
358.0
 40
358.0
 40
359.0
 40
359.0
 40
360.0
 40
360.0
 40
361.0
 40
361.0
 40
362.0
 40
362.0
 40
363.0
 40
363.0
 40
364.0
 40
364.0
 40
365.0
 40
365.0
 40
366.0
 40
366.0
 40
367.0
 40
367.0
 40
368.0
 40
368.0
 40
369.0
 40
369.0
 40
370.0
 40
370.0
 40
371.0
 40
371.0
 40
372.0
 40
372.0
 40
373.0
 40
373.0
 40
374.0
 40
374.0
 40
375.0
 40
375.0
 40
376.0
 40
376.0
 40
377.0
 40
377.0
 40
378.0
 40
378.0
 40
379.0
 40
379.0
 40
380.0
 40
380.0
 40
381.0
 40
381.0
 40
382.0
 40
382.0
 40
383.0
 40
383.0
 40
384.0
 40
384.0
 40
385.0
 40
385.0
 40
386.0
 40
386.0
 40
387.0
 40
387.0
 40
388.0
 40
388.0
 40
389.0
 40
389.0
 40
389.0
 10
-3251.6394945567731
 20
-232.44610617985541
 30
0.0
 41
1.0
 10
-3250.8210704480525
 20
-232.44610617985541
 30
0.0
 41
1.0
 10
-3250.0026463393324
 20
-232.44610617985541
 30
0.0
 41
1.0
 10
-3250.4164000748492
 20
-233.78873244410511
 30
0.0
 41
1.0
 10
-3250.830153810366
 20
-235.13135870835481
 30
0.0
 41
1.0
 10
-3250.8118143151673
 20
-235.10265793539571
 30
0.0
 41
0.999995726439481
 10
-3250.7933073182967
 20
-235.07406488518322
 30
0.0
 41
1.0
 10
-3250.7628779941947
 20
-235.02705200686211
 30
0.0
 41
1.0
 10
-3250.7324486700927
 20
-234.98003912854097
 30
0.0
 41
1.0
 10
-3250.6530830249867
 20
-234.8574203216381
 30
0.0
 41
0.9995394069080992
 10
-3250.5664246334336
 20
-234.7398422598952
 30
0.0
 41
1.0
 10
-3250.5306677711751
 20
-234.69132736730302
 30
0.0
 41
1.0
 10
-3250.4949109089162
 20
-234.64281247471084
 30
0.0
 41
1.0
 10
-3250.3611842410983
 20
-234.46137219958413
 30
0.0
 41
0.9994460617143391
 10
-3250.2156837598086
 20
-234.28922980193249
 30
0.0
 41
1.0
 10
-3250.2112955788325
 20
-234.28403812154892
 30
0.0
 41
1.0
 10
-3250.2069073978569
 20
-234.27884644116534
 30
0.0
 41
1.0
 10
-3250.0701832785198
 20
-234.11708740428205
 30
0.0
 41
0.9994359394934309
 10
-3249.9229090481695
 20
-233.96487120311826
 30
0.0
 41
1.0
 10
-3249.9205256942137
 20
-233.96240787274257
 30
0.0
 41
1.0
 10
-3249.9181423402579
 20
-233.95994454236688
 30
0.0
 41
1.0
 10
-3249.775634817815
 20
-233.81265500195093
 30
0.0
 41
0.9995293688568088
 10
-3249.6243631368361
 20
-233.67438178978944
 30
0.0
 41
1.0
 10
-3249.6050693775733
 20
-233.65674590413883
 30
0.0
 41
1.0
 10
-3249.5857756183104
 20
-233.63911001848822
 30
0.0
 41
1.0
 10
-3249.473091455854
 20
-233.5361085776259
 30
0.0
 41
0.9997087614802792
 10
-3249.3555685668989
 20
-233.43866429682748
 30
0.0
 41
1.0
 10
-3249.3364024937291
 20
-233.42277271832421
 30
0.0
 41
1.0
 10
-3249.3172364205589
 20
-233.40688113982091
 30
0.0
 41
1.0
 10
-3249.2380456779501
 20
-233.34122001603475
 30
0.0
 41
0.9999595338693027
 10
-3249.1576864070885
 20
-233.2769942853746
 30
0.0
 41
1.0
 10
-3249.0773271362218
 20
-233.21276855471058
 30
0.0
 41
0.999974941750579
 10
-3248.9960666018742
 20
-233.14968700076111
 30
0.0
 41
1.0
 10
-3248.9750804557048
 20
-233.13339571345404
 30
0.0
 41
1.0
 10
-3248.9540943095353
 20
-233.11710442614694
 30
0.0
 41
1.0
 10
-3248.8695264242488
 20
-233.05145541631788
 30
0.0
 41
0.9999792037122777
 10
-3248.7841188244875
 20
-232.98690263468063
 30
0.0
 41
1.0
 10
-3248.7632939985351
 20
-232.97116281239209
 30
0.0
 41
1.0
 10
-3248.7424691725828
 20
-232.95542299010356
 30
0.0
 41
1.0
 10
-3248.698711224647
 20
-232.92234985298319
 30
0.0
 41
0.9999993373899672
 10
-3248.655029538575
 20
-232.88917605761299
 30
0.0
 41
1.0
 10
-3248.611347852428
 20
-232.85600226218656
 30
0.0
 41
0.9999160953816548
 10
-3248.5668214415036
 20
-232.82397119698456
 30
0.0
 41
1.0
 10
-3248.533999554088
 20
-232.80036004140271
 30
0.0
 41
1.0
 10
-3248.5011776666729
 20
-232.77674888582089
 30
0.0
 41
1.0
 10
-3248.3910074809155
 20
-232.69749550945355
 30
0.0
 41
0.9980964527231323
 10
-3248.271918487415
 20
-232.63240803659772
 30
0.0
 41
1.0
 10
-3248.2348858804867
 20
-232.61216805700445
 30
0.0
 41
1.0
 10
-3248.1978532735584
 20
-232.59192807741118
 30
0.0
 41
1.0
 10
-3248.0185262602849
 20
-232.4939178267098
 30
0.0
 41
0.998457281057318
 10
-3247.8294376939257
 20
-232.41639556536313
 30
0.0
 41
1.0
 10
-3247.8257914245314
 20
-232.4149006730259
 30
0.0
 41
1.0
 10
-3247.8221451551376
 20
-232.41340578068869
 30
0.0
 41
1.0
 10
-3247.6403491275705
 20
-232.33887330401774
 30
0.0
 41
0.998783852803355
 10
-3247.4520964690078
 20
-232.28260766385097
 30
0.0
 41
1.0
 10
-3247.4478585198076
 20
-232.28134101016036
 30
0.0
 41
1.0
 10
-3247.4436205706079
 20
-232.28007435646978
 30
0.0
 41
1.0
 10
-3247.2638438104482
 20
-232.22634202368533
 30
0.0
 41
0.9990652816208006
 10
-3247.0800978787329
 20
-232.18833834414318
 30
0.0
 41
1.0
 10
-3247.0749094777011
 20
-232.18726524103664
 30
0.0
 41
1.0
 10
-3247.0697210766698
 20
-232.18619213793011
 30
0.0
 41
1.0
 10
-3246.8963519470149
 20
-232.15033466460108
 30
0.0
 41
0.9992909934270748
 10
-3246.7207761805585
 20
-232.12762423213462
 30
0.0
 41
1.0
 10
-3246.5452004140966
 20
-232.10491379966791
 30
0.0
 41
0.9994553539448612
 10
-3246.368508981006
 20
-232.09383449546181
 30
0.0
 41
1.0
 10
-3246.333074573211
 20
-232.09161260741405
 30
0.0
 41
1.0
 10
-3246.2976401654164
 20
-232.08939071936629
 30
0.0
 41
1.0
 10
-3246.1314143988457
 20
-232.07896765695469
 30
0.0
 41
0.9990928098293097
 10
-3245.9649046069435
 20
-232.08272729818907
 30
0.0
 41
1.0
 10
-3245.9263427716714
 20
-232.08359798972205
 30
0.0
 41
1.0
 10
-3245.8877809363998
 20
-232.08446868125503
 30
0.0
 41
1.0
 10
-3245.7983948150363
 20
-232.08648693942396
 30
0.0
 41
0.9998382089205802
 10
-3245.7091391322547
 20
-232.09171906595168
 30
0.0
 41
1.0
 10
-3245.7087092260344
 20
-232.09174426685396
 30
0.0
 41
1.0
 10
-3245.7082793198138
 20
-232.09176946775625
 30
0.0
 41
1.0
 10
-3245.6198834494639
 20
-232.09695119248011
 30
0.0
 41
0.9997558016758696
 10
-3245.5318028722677
 20
-232.10603370784622
 30
0.0
 41
1.0
 10
-3245.531326733837
 20
-232.10608280532892
 30
0.0
 41
1.0
 10
-3245.5308505954058
 20
-232.10613190281165
 30
0.0
 41
1.0
 10
-3245.4437222950651
 20
-232.11511622321285
 30
0.0
 41
0.9996565144181159
 10
-3245.3571844417247
 20
-232.12865352990173
 30
0.0
 41
1.0
 10
-3245.3567185163483
 20
-232.12872641563291
 30
0.0
 41
1.0
 10
-3245.3562525909715
 20
-232.12879930136413
 30
0.0
 41
1.0
 10
-3245.2706465883871
 20
-232.14219083659003
 30
0.0
 41
0.9995321806867975
 10
-3245.1860195080544
 20
-232.16079132502
 30
0.0
 41
1.0
 10
-3245.1856303134828
 20
-232.16087686748583
 30
0.0
 41
1.0
 10
-3245.1852411189111
 20
-232.16096240995165
 30
0.0
 41
1.0
 10
-3245.1013924277258
 20
-232.17939181344937
 30
0.0
 41
0.9993819199219441
 10
-3245.0190458935303
 20
-232.20366719670994
 30
0.0
 41
1.0
 10
-3245.0188074600328
 20
-232.20373748581923
 30
0.0
 41
1.0
 10
-3245.0185690265348
 20
-232.20380777492852
 30
0.0
 41
1.0
 10
-3244.9366993593349
 20
-232.2279425799704
 30
0.0
 41
0.999208856850576
 10
-3244.857006840346
 20
-232.25850781576503
 30
0.0
 41
1.0
 10
-3244.7773258494644
 20
-232.28906741649956
 30
0.0
 41
0.9990226101774602
 10
-3244.7006551795598
 20
-232.3265448481128
 30
0.0
 41
1.0
 10
-3244.6239960377657
 20
-232.36401664466368
 30
0.0
 41
0.9988424273971266
 10
-3244.5512924105547
 20
-232.40868141991595
 30
0.0
 41
1.0
 10
-3244.551024702173
 20
-232.40884588398978
 30
0.0
 41
1.0
 10
-3244.5507569937909
 20
-232.40901034806359
 30
0.0
 41
1.0
 10
-3244.477517949821
 20
-232.4540040514602
 30
0.0
 41
0.9986928844491495
 10
-3244.4092550831106
 20
-232.50623978574032
 30
0.0
 41
1.0
 10
-3244.4086737908874
 20
-232.50668459896835
 30
0.0
 41
1.0
 10
-3244.4080924986647
 20
-232.50712941219638
 30
0.0
 41
1.0
 10
-3244.3386670475115
 20
-232.56025477292945
 30
0.0
 41
0.9986007262275219
 10
-3244.2752408777455
 20
-232.62041554262288
 30
0.0
 41
1.0
 10
-3244.2743464622872
 20
-232.62126391045919
 30
0.0
 41
1.0
 10
-3244.2734520468284
 20
-232.6221122782955
 30
0.0
 41
1.0
 10
-3244.2082370461485
 20
-232.68396978365749
 30
0.0
 41
0.9985581491379225
 10
-3244.1500294344478
 20
-232.75246227392853
 30
0.0
 41
1.0
 10
-3244.1407709808509
 20
-232.76335663163141
 30
0.0
 41
1.0
 10
-3244.131512527254
 20
-232.77425098933429
 30
0.0
 41
1.0
 10
-3244.0547880083632
 20
-232.86453219500532
 30
0.0
 41
0.9970460233517516
 10
-3243.9927961072058
 20
-232.9654992791836
 30
0.0
 41
1.0
 10
-3243.9783267421221
 20
-232.98906573827142
 30
0.0
 41
1.0
 10
-3243.9638573770385
 20
-233.01263219735924
 30
0.0
 41
1.0
 10
-3243.924120677028
 20
-233.07735192138844
 30
0.0
 41
0.998846881663625
 10
-3243.8907743062782
 20
-233.14558437381288
 30
0.0
 41
1.0
 10
-3243.8837382837846
 20
-233.15998129495466
 30
0.0
 41
1.0
 10
-3243.8767022612915
 20
-233.17437821609641
 30
0.0
 41
1.0
 10
-3243.8574279355257
 20
-233.21381682624255
 30
0.0
 41
0.9998431189998035
 10
-3243.8395626080319
 20
-233.2539133806813
 30
0.0
 41
1.0
 10
-3243.821697280533
 20
-233.29400993513056
 30
0.0
 41
0.9999989989912167
 10
-3243.8037185570779
 20
-233.33405577278862
 30
0.0
 41
1.0
 10
-3243.7975462455024
 20
-233.34780398955985
 30
0.0
 41
1.0
 10
-3243.7913739339265
 20
-233.36155220633111
 30
0.0
 41
1.0
 10
-3243.7610505873167
 20
-233.42909447753732
 30
0.0
 41
0.999879035631876
 10
-3243.7328427071807
 20
-233.49754722947097
 30
0.0
 41
1.0
 10
-3243.7260075258928
 20
-233.51413433090727
 30
0.0
 41
1.0
 10
-3243.7191723446044
 20
-233.53072143234354
 30
0.0
 41
1.0
 10
-3243.6956146822276
 20
-233.58788938722148
 30
0.0
 41
0.9998227574562221
 10
-3243.6742259338398
 20
-233.64590369549512
 30
0.0
 41
1.0
 10
-3243.6528371854483
 20
-233.70391800377777
 30
0.0
 41
0.9996797971041616
 10
-3243.6344109004867
 20
-233.76294012290384
 30
0.0
 41
1.0
 10
-3243.6305070977633
 20
-233.77544458106621
 30
0.0
 41
1.0
 10
-3243.6266032950398
 20
-233.78794903922858
 30
0.0
 41
1.0
 10
-3243.6003694046299
 20
-233.87198007468211
 30
0.0
 41
0.9979274938732203
 10
-3243.5851448811513
 20
-233.9586844333401
 30
0.0
 41
1.0
 10
-3243.5829211938913
 20
-233.97134843415404
 30
0.0
 41
1.0
 10
-3243.5806975066312
 20
-233.98401243496795
 30
0.0
 41
1.0
 10
-3243.5697675669308
 20
-234.04625894226737
 30
0.0
 41
0.9994985982136613
 10
-3243.5627994017532
 20
-234.10907244341945
 30
0.0
 41
1.0
 10
-3243.5558312365765
 20
-234.17188594455763
 30
0.0
 41
0.9996372611201468
 10
-3243.5522553708088
 20
-234.23498352323614
 30
0.0
 41
1.0
 10
-3243.5520867933192
 20
-234.23795814032206
 30
0.0
 41
1.0
 10
-3243.5519182158296
 20
-234.24093275740802
 30
0.0
 41
1.0
 10
-3243.5480051950831
 20
-234.30997957025113
 30
0.0
 41
0.9997730630734959
 10
-3243.5470368815954
 20
-234.37913039428173
 30
0.0
 41
1.0
 10
-3243.5469797751775
 20
-234.38320857342686
 30
0.0
 41
1.0
 10
-3243.5469226687592
 20
-234.38728675257198
 30
0.0
 41
1.0
 10
-3243.5458401424348
 20
-234.46459393488482
 30
0.0
 41
0.9998772614071656
 10
-3243.5471802291663
 20
-234.54189708144386
 30
0.0
 41
1.0
 10
-3243.5472694923651
 20
-234.54704624528398
 30
0.0
 41
1.0
 10
-3243.5473587555639
 20
-234.55219540912412
 30
0.0
 41
1.0
 10
-3243.548877368693
 20
-234.63979688336249
 30
0.0
 41
0.9999415567325509
 10
-3243.5522896789389
 20
-234.72734504504157
 30
0.0
 41
1.0
 10
-3243.5525309996142
 20
-234.73353650477486
 30
0.0
 41
1.0
 10
-3243.5527723202895
 20
-234.73972796450812
 30
0.0
 41
1.0
 10
-3243.5566672718869
 20
-234.83965904567515
 30
0.0
 41
0.9999716810432063
 10
-3243.5620658550065
 20
-234.9395201839211
 30
0.0
 41
1.0
 10
-3243.5652786537953
 20
-234.99894943357572
 30
0.0
 41
1.0
 10
-3243.5684914525841
 20
-235.0583786832303
 30
0.0
 41
1.0
 10
-3243.5765653617359
 20
-235.20772708449562
 30
0.0
 41
0.9999819129900921
 10
-3243.5864351533519
 20
-235.35696756219363
 30
0.0
 41
1.0
 10
-3243.5963049449683
 20
-235.506208039905
 30
0.0
 41
1.0
 10
-3243.5987442655323
 20
-235.54340108575434
 30
0.0
 41
1.0
 10
-3243.5760460316978
 20
-235.50466008841988
 30
0.0
 41
0.999998212805476
 10
-3243.5532014729561
 20
-235.46600519448413
 30
0.0
 41
1.0
 10
-3243.526291913066
 20
-235.42047198042022
 30
0.0
 41
1.0
 10
-3243.4993823531759
 20
-235.37493876635631
 30
0.0
 41
1.0
 10
-3243.4227186746489
 20
-235.24521744428478
 30
0.0
 41
0.9998609190057887
 10
-3243.3417713617855
 20
-235.11812506235285
 30
0.0
 41
1.0
 10
-3243.3121230402994
 20
-235.07157532938882
 30
0.0
 41
1.0
 10
-3243.2824747188133
 20
-235.0250255964248
 30
0.0
 41
1.0
 10
-3243.2002024985813
 20
-234.89585302643863
 30
0.0
 41
0.9999067609734522
 10
-3243.1144334891237
 20
-234.76897533700651
 30
0.0
 41
1.0
 10
-3243.1120287859176
 20
-234.76541807094378
 30
0.0
 41
1.0
 10
-3243.1096240827114
 20
-234.76186080488108
 30
0.0
 41
1.0
 10
-3243.0286644796533
 20
-234.6420976475564
 30
0.0
 41
0.9998784952149228
 10
-3242.9440108699782
 20
-234.52491643085648
 30
0.0
 41
1.0
 10
-3242.8593572603027
 20
-234.40773521415491
 30
0.0
 41
0.9998532968283559
 10
-3242.770739639484
 20
-234.29352230569015
 30
0.0
 41
1.0
 10
-3242.7507778504901
 20
-234.26779498466641
 30
0.0
 41
1.0
 10
-3242.7308160614962
 20
-234.24206766364264
 30
0.0
 41
1.0
 10
-3242.6123320117358
 20
-234.08936205267179
 30
0.0
 41
0.9991551975795134
 10
-3242.4817075621095
 20
-233.94690249058499
 30
0.0
 41
1.0
 10
-3242.4781979461268
 20
-233.94307488895765
 30
0.0
 41
1.0
 10
-3242.4746883301445
 20
-233.93924728733029
 30
0.0
 41
1.0
 10
-3242.3510831124818
 20
-233.80444292849697
 30
0.0
 41
0.9997418144181191
 10
-3242.2214809727857
 20
-233.67539351788901
 30
0.0
 41
1.0
 10
-3242.0918788330864
 20
-233.5463441072778
 30
0.0
 41
0.9989238204633738
 10
-3241.9508762848354
 20
-233.42985914523857
 30
0.0
 41
1.0
 10
-3241.9056286066952
 20
-233.39247915362938
 30
0.0
 41
1.0
 10
-3241.8603809285551
 20
-233.3550991620202
 30
0.0
 41
1.0
 10
-3241.7201408713331
 20
-233.23924410872885
 30
0.0
 41
0.9990825084096473
 10
-3241.5705009387293
 20
-233.13581511089626
 30
0.0
 41
1.0
 10
-3241.5604555746718
 20
-233.12887189781631
 30
0.0
 41
1.0
 10
-3241.5504102106142
 20
-233.12192868473636
 30
0.0
 41
1.0
 10
-3241.4208610061264
 20
-233.03238611306389
 30
0.0
 41
0.9998164899825263
 10
-3241.2879768027497
 20
-232.94787187154691
 30
0.0
 41
1.0
 10
-3241.276131242229
 20
-232.94033810502458
 30
0.0
 41
1.0
 10
-3241.2642856817083
 20
-232.93280433850222
 30
0.0
 41
1.0
 10
-3241.1550925993806
 20
-232.86335763003478
 30
0.0
 41
0.9997473449131107
 10
-3241.0428886421237
 20
-232.79888867221484
 30
0.0
 41
1.0
 10
-3240.9306846848785
 20
-232.73441971440161
 30
0.0
 41
0.9999327861146579
 10
-3240.8170160741111
 20
-232.67256972271787
 30
0.0
 41
1.0
 10
-3240.8164640715504
 20
-232.67226936403864
 30
0.0
 41
1.0
 10
-3240.8159120689893
 20
-232.67196900535941
 30
0.0
 41
1.0
 10
-3240.7011394531032
 20
-232.60951829631921
 30
0.0
 41
0.9996956420484136
 10
-3240.5834261272598
 20
-232.55280482934299
 30
0.0
 41
1.0
 10
-3240.5529857223664
 20
-232.53813885261269
 30
0.0
 41
1.0
 10
-3240.5225453174735
 20
-232.52347287588239
 30
0.0
 41
1.0
 10
-3240.4195682107338
 20
-232.47385921744112
 30
0.0
 41
0.9998070570176931
 10
-3240.3147218217937
 20
-232.42832863054048
 30
0.0
 41
1.0
 10
-3240.209875432854
 20
-232.38279804363975
 30
0.0
 41
0.9997827436147012
 10
-3240.1032224962482
 20
-232.34167687232963
 30
0.0
 41
1.0
 10
-3240.0839996466143
 20
-232.33426529869624
 30
0.0
 41
1.0
 10
-3240.0647767969804
 20
-232.32685372506285
 30
0.0
 41
1.0
 10
-3239.9196781611085
 20
-232.27090940648628
 30
0.0
 41
0.9988031841976254
 10
-3239.7698077985033
 20
-232.22940934231846
 30
0.0
 41
1.0
 10
-3239.7448905501396
 20
-232.22250959651151
 30
0.0
 41
1.0
 10
-3239.719973301776
 20
-232.21560985070457
 30
0.0
 41
1.0
 10
-3239.5527032761293
 20
-232.16929170829803
 30
0.0
 41
0.9984748040550644
 10
-3239.3813463674805
 20
-232.14169747603296
 30
0.0
 41
1.0
 10
-3239.3766072312319
 20
-232.14093431551959
 30
0.0
 41
1.0
 10
-3239.3718680949837
 20
-232.14017115500619
 30
0.0
 41
1.0
 10
-3239.2099894588328
 20
-232.11410324376843
 30
0.0
 41
0.9984436495480707
 10
-3239.0462147151065
 20
-232.10622528994941
 30
0.0
 41
1.0
 10
-3239.024517506974
 20
-232.1051816027497
 30
0.0
 41
1.0
 10
-3239.0028202988415
 20
-232.10413791554998
 30
0.0
 41
1.0
 10
-3238.8824399713799
 20
-232.09834733613079
 30
0.0
 41
0.998795478933576
 10
-3238.7620717264722
 20
-232.10438386387295
 30
0.0
 41
1.0
 10
-3238.7421069339803
 20
-232.10538510821141
 30
0.0
 41
1.0
 10
-3238.7221421414883
 20
-232.10638635254989
 30
0.0
 41
1.0
 10
-3238.6417034815695
 20
-232.11042039161455
 30
0.0
 41
0.999794159587647
 10
-3238.5614947034683
 20
-232.11771445753629
 30
0.0
 41
1.0
 10
-3238.481285925378
 20
-232.12500852345698
 30
0.0
 41
0.9998589466236957
 10
-3238.4013673785162
 20
-232.13499237790774
 30
0.0
 41
1.0
 10
-3238.3689611767095
 20
-232.13904073482681
 30
0.0
 41
1.0
 10
-3238.3365549749024
 20
-232.14308909174588
 30
0.0
 41
1.0
 10
-3238.1918240244308
 20
-232.16116966003443
 30
0.0
 41
0.9993495063249464
 10
-3238.048772780664
 20
-232.1896353697762
 30
0.0
 41
1.0
 10
-3238.015839083514
 20
-232.19618883299063
 30
0.0
 41
1.0
 10
-3237.9829053863637
 20
-232.20274229620506
 30
0.0
 41
1.0
 10
-3237.8736115631577
 20
-232.22449063034043
 30
0.0
 41
0.9996788715560099
 10
-3237.7655599912
 20
-232.25174842970409
 30
0.0
 41
1.0
 10
-3237.7634969886622
 20
-232.25226885627671
 30
0.0
 41
1.0
 10
-3237.7614339861243
 20
-232.25278928284936
 30
0.0
 41
1.0
 10
-3237.6575084192455
 20
-232.27900622906643
 30
0.0
 41
0.9995480654492376
 10
-3237.5553461840141
 20
-232.31142118569153
 30
0.0
 41
1.0
 10
-3237.5536565418861
 20
-232.31195729060499
 30
0.0
 41
1.0
 10
-3237.5519668997586
 20
-232.31249339551849
 30
0.0
 41
1.0
 10
-3237.4531839487854
 20
-232.34383614231587
 30
0.0
 41
0.9993867959457247
 10
-3237.3568367903417
 20
-232.38201551160569
 30
0.0
 41
1.0
 10
-3237.3555938412565
 20
-232.38250805350208
 30
0.0
 41
1.0
 10
-3237.3543508921712
 20
-232.3830005953985
 30
0.0
 41
1.0
 10
-3237.260489631899
 20
-232.42019488089548
 30
0.0
 41
0.9992050256521068
 10
-3237.1698899568664
 20
-232.46474878013419
 30
0.0
 41
1.0
 10
-3237.1691552741522
 20
-232.46511007259585
 30
0.0
 41
1.0
 10
-3237.168420591438
 20
-232.46547136505748
 30
0.0
 41
1.0
 10
-3237.079290281833
 20
-232.50930267937309
 30
0.0
 41
0.9990222350742291
 10
-3236.9943802204393
 20
-232.56083594707127
 30
0.0
 41
1.0
 10
-3236.9941963351548
 20
-232.56094754997719
 30
0.0
 41
1.0
 10
-3236.9940124498703
 20
-232.56105915288313
 30
0.0
 41
1.0
 10
-3236.9094701590429
 20
-232.61236921477143
 30
0.0
 41
0.9988642743805007
 10
-3236.8301956244268
 20
-232.6714934022948
 30
0.0
 41
1.0
 10
-3236.7509210898093
 20
-232.73061758981819
 30
0.0
 41
0.9987681233309391
 10
-3236.6778973055334
 20
-232.79730828121879
 30
0.0
 41
1.0
 10
-3236.6775683775668
 20
-232.79760868243397
 30
0.0
 41
1.0
 10
-3236.6772394495997
 20
-232.79790908364919
 30
0.0
 41
1.0
 10
-3236.6035578093915
 20
-232.86520057747921
 30
0.0
 41
0.9987496570899127
 10
-3236.5369640040649
 20
-232.93951339156519
 30
0.0
 41
1.0
 10
-3236.5361918343042
 20
-232.94037506492302
 30
0.0
 41
1.0
 10
-3236.535419664544
 20
-232.94123673828085
 30
0.0
 41
1.0
 10
-3236.4672815196986
 20
-233.01727289907922
 30
0.0
 41
0.9988147669825553
 10
-3236.4068592654767
 20
-233.09957390591788
 30
0.0
 41
1.0
 10
-3236.405739939396
 20
-233.10109853727431
 30
0.0
 41
1.0
 10
-3236.4046206133153
 20
-233.10262316863077
 30
0.0
 41
1.0
 10
-3236.3419597069328
 20
-233.18797343818207
 30
0.0
 41
0.9989452636217995
 10
-3236.2873927939677
 20
-233.27871212734539
 30
0.0
 41
1.0
 10
-3236.2860440678851
 20
-233.28095490836691
 30
0.0
 41
1.0
 10
-3236.284695341802
 20
-233.28319768938843
 30
0.0
 41
1.0
 10
-3236.2274309766699
 20
-233.37842194059778
 30
0.0
 41
0.9991046436070703
 10
-3236.1784217633494
 20
-233.47814637362055
 30
0.0
 41
1.0
 10
-3236.1769579017587
 20
-233.48112505369483
 30
0.0
 41
1.0
 10
-3236.1754940401679
 20
-233.48410373376908
 30
0.0
 41
1.0
 10
-3236.1235571036655
 20
-233.58978552694197
 30
0.0
 41
0.9992763831100954
 10
-3236.0798039751094
 20
-233.69910958890111
 30
0.0
 41
1.0
 10
-3236.0783247054469
 20
-233.70280577643189
 30
0.0
 41
1.0
 10
-3236.0768454357849
 20
-233.70650196396264
 30
0.0
 41
1.0
 10
-3236.0301337679034
 20
-233.82321840098393
 30
0.0
 41
0.9994163472882921
 10
-3235.9915007367144
 20
-233.94285198944587
 30
0.0
 41
1.0
 10
-3235.990262584467
 20
-233.94668613323103
 30
0.0
 41
1.0
 10
-3235.9890244322191
 20
-233.95052027701615
 30
0.0
 41
1.0
 10
-3235.949140871202
 20
-234.07402633849341
 30
0.0
 41
0.9997268055890151
 10
-3235.9150728152899
 20
-234.19926137044445
 30
0.0
 41
1.0
 10
-3235.914142635022
 20
-234.20268073654756
 30
0.0
 41
1.0
 10
-3235.9132124547541
 20
-234.20610010265071
 30
0.0
 41
1.0
 10
-3235.8810047593793
 20
-234.32449640238949
 30
0.0
 41
0.9996701319000024
 10
-3235.8549191426073
 20
-234.44439035565858
 30
0.0
 41
1.0
 10
-3235.8288335258371
 20
-234.5642843089222
 30
0.0
 41
0.9995785451110585
 10
-3235.8097499484966
 20
-234.68549006995528
 30
0.0
 41
1.0
 10
-3235.805530166323
 20
-234.71229122472016
 30
0.0
 41
1.0
 10
-3235.8013103841495
 20
-234.73909237948502
 30
0.0
 41
1.0
 10
-3235.7747354082112
 20
-234.90787835318767
 30
0.0
 41
0.9979925101216365
 10
-3235.7697098222852
 20
-235.07866968127837
 30
0.0
 41
1.0
 10
-3235.7688850098602
 20
-235.10670040476089
 30
0.0
 41
1.0
 10
-3235.7680601974357
 20
-235.1347311282434
 30
0.0
 41
1.0
 10
-3235.7646842363588
 20
-235.24946100937089
 30
0.0
 41
0.9995314902263722
 10
-3235.7683344284969
 20
-235.36418249312203
 30
0.0
 41
1.0
 10
-3235.771984620636
 20
-235.47890397688039
 30
0.0
 41
0.9996245486944917
 10
-3235.7819137157676
 20
-235.59325324801131
 30
0.0
 41
1.0
 10
-3235.7820767637613
 20
-235.59513100413986
 30
0.0
 41
1.0
 10
-3235.7822398117551
 20
-235.59700876026841
 30
0.0
 41
1.0
 10
-3235.7924950028732
 20
-235.71511354365413
 30
0.0
 41
0.9997286095000816
 10
-3235.8082403264439
 20
-235.83261245253937
 30
0.0
 41
1.0
 10
-3235.8086338190951
 20
-235.83554887725035
 30
0.0
 41
1.0
 10
-3235.8090273117468
 20
-235.83848530196133
 30
0.0
 41
1.0
 10
-3235.8255596206195
 20
-235.96185706026597
 30
0.0
 41
0.9998265533969218
 10
-3235.8466750793532
 20
-236.08452753505887
 30
0.0
 41
1.0
 10
-3235.8473516214895
 20
-236.08845791356106
 30
0.0
 41
1.0
 10
-3235.8480281636257
 20
-236.09238829206322
 30
0.0
 41
1.0
 10
-3235.8704967066333
 20
-236.22291952387098
 30
0.0
 41
0.9999022530853839
 10
-3235.896606171244
 20
-236.35277149251456
 30
0.0
 41
1.0
 10
-3235.8975848124082
 20
-236.35763863489711
 30
0.0
 41
1.0
 10
-3235.8985634535729
 20
-236.36250577727969
 30
0.0
 41
1.0
 10
-3235.9266302005167
 20
-236.50209203070426
 30
0.0
 41
0.9999524761933021
 10
-3235.9574131693539
 20
-236.64110452388093
 30
0.0
 41
1.0
 10
-3235.9586892765265
 20
-236.64686728317156
 30
0.0
 41
1.0
 10
-3235.9599653836995
 20
-236.65263004246219
 30
0.0
 41
1.0
 10
-3235.9933005668895
 20
-236.80316805424914
 30
0.0
 41
0.9999813588712267
 10
-3236.0284715676889
 20
-236.95328776691878
 30
0.0
 41
1.0
 10
-3236.0300254931417
 20
-236.95992035732539
 30
0.0
 41
1.0
 10
-3236.0315794185944
 20
-236.966552947732
 30
0.0
 41
1.0
 10
-3236.0698582703094
 20
-237.12993784125888
 30
0.0
 41
0.9999955237680148
 10
-3236.1091141482998
 20
-237.29309074490527
 30
0.0
 41
1.0
 10
-3236.1213957839263
 20
-237.34413493539529
 30
0.0
 41
1.0
 10
-3236.1336774195524
 20
-237.39517912588531
 30
0.0
 41
1.0
 10
-3236.1974965688241
 20
-237.66042041062937
 30
0.0
 41
0.9999993604811732
 10
-3236.2619155160155
 20
-237.92551666140884
 30
0.0
 41
1.0
 10
-3236.2666343515398
 20
-237.94493556935575
 30
0.0
 41
1.0
 10
-3236.2713531870641
 20
-237.96435447730266
 30
0.0
 41
1.0
 10
-3236.3452098053249
 20
-238.26828854406335
 30
0.0
 41
0.9999659914729662
 10
-3236.424069401211
 20
-238.57096309062587
 30
0.0
 41
1.0
 10
-3236.4290220901412
 20
-238.58997222780582
 30
0.0
 41
1.0
 10
-3236.4339747790709
 20
-238.60898136498577
 30
0.0
 41
1.0
 10
-3236.5227397528129
 20
-238.9496741858938
 30
0.0
 41
0.9999441976025968
 10
-3236.6186827857737
 20
-239.28841561118298
 30
0.0
 41
1.0
 10
-3236.6353833042022
 20
-239.34737932372113
 30
0.0
 41
1.0
 10
-3236.6520838226306
 20
-239.40634303625927
 30
0.0
 41
1.0
 10
-3236.7814278924579
 20
-239.8630118866555
 30
0.0
 41
0.9999625120740145
 10
-3236.9186606597946
 20
-240.31737242069522
 30
0.0
 41
1.0
 10
-3236.9544506028651
 20
-240.43586844728171
 30
0.0
 41
1.0
 10
-3236.9902405459361
 20
-240.55436447386819
 30
0.0
 41
1.0
 10
-3237.0647607499777
 20
-240.80109155197081
 30
0.0
 41
0.9999793386321553
 10
-3237.1424467731131
 20
-241.04684019120191
 30
0.0
 41
1.0
 10
-3237.2201327962507
 20
-241.29258883043804
 30
0.0
 41
1.0
 10
-3237.2309123551213
 20
-241.32660673481269
 30
0.0
 41
1.0
 10
-3239.0812854083906
 20
-247.21367865728018
 30
0.0
 41
1.0
 10
-3240.9316584616599
 20
-253.10075057974768
 30
0.0
 41
1.0
 10
-3241.8929151516832
 20
-253.10075057974768
 30
0.0
 41
1.0
 10
-3242.8541718417068
 20
-253.10075057974768
 30
0.0
 41
1.0
 10
-3241.2352270630281
 20
-247.95272207795824
 30
0.0
 41
1.0
 10
-3239.6162822843498
 20
-242.8046935761688
 30
0.0
 41
1.0
 10
-3239.5711164611666
 20
-242.66066235386995
 30
0.0
 41
1.0
 10
-3239.5259506379834
 20
-242.51663113157113
 30
0.0
 41
1.0
 10
-3239.3556462206279
 20
-241.97354010243254
 30
0.0
 41
0.999991165788689
 10
-3239.1899134089585
 20
-241.42903657110287
 30
0.0
 41
1.0
 10
-3239.1602174654627
 20
-241.33147263106844
 30
0.0
 41
1.0
 10
-3239.1305215219672
 20
-241.233908691034
 30
0.0
 41
1.0
 10
-3239.024180597281
 20
-240.88453303974919
 30
0.0
 41
0.9999952428188637
 10
-3238.9199970079535
 20
-240.53450801538963
 30
0.0
 41
1.0
 10
-3238.9149375376137
 20
-240.51750974108924
 30
0.0
 41
1.0
 10
-3238.9098780672734
 20
-240.50051146678885
 30
0.0
 41
1.0
 10
-3238.8158134186197
 20
-240.18448299101169
 30
0.0
 41
0.9999931687561741
 10
-3238.7240875807547
 20
-239.86776777776959
 30
0.0
 41
1.0
 10
-3238.7191523163037
 20
-239.85072706852807
 30
0.0
 41
1.0
 10
-3238.7142170518528
 20
-239.83368635928656
 30
0.0
 41
1.0
 10
-3238.6323617428893
 20
-239.55105256452754
 30
0.0
 41
0.9999893840807952
 10
-3238.5531145164241
 20
-239.2676764352525
 30
0.0
 41
1.0
 10
-3238.4738672899566
 20
-238.98430030596685
 30
0.0
 41
0.9999833980072261
 10
-3238.3978910492087
 20
-238.70002972291414
 30
0.0
 41
1.0
 10
-3238.3888871124891
 20
-238.66634084444667
 30
0.0
 41
1.0
 10
-3238.3798831757699
 20
-238.63265196597919
 30
0.0
 41
1.0
 10
-3238.3109186269089
 20
-238.37461613370422
 30
0.0
 41
0.9999233658067392
 10
-3238.2483636556935
 20
-238.11495197499949
 30
0.0
 41
1.0
 10
-3238.1858086844736
 20
-237.85528781627704
 30
0.0
 41
1.0
 10
-3238.1463252656158
 20
-237.69148115185089
 30
0.0
 41
1.0
 10
-3238.1413466616436
 20
-237.67082619000121
 30
0.0
 41
1.0
 10
-3238.1363680576715
 20
-237.65017122815155
 30
0.0
 41
1.0
 10
-3238.1068418467617
 20
-237.52767448743805
 30
0.0
 41
0.999986867084173
 10
-3238.0785727627622
 20
-237.40488154177933
 30
0.0
 41
1.0
 10
-3238.0746752756022
 20
-237.38795195435381
 30
0.0
 41
1.0
 10
-3238.0707777884427
 20
-237.37102236692832
 30
0.0
 41
1.0
 10
-3238.0503036787645
 20
-237.28208859612707
 30
0.0
 41
0.9999778173345587
 10
-3238.0310160806503
 20
-237.19288997890339
 30
0.0
 41
1.0
 10
-3238.0117284825369
 20
-237.10369136168129
 30
0.0
 41
0.9999602692860165
 10
-3237.9940341239067
 20
-237.01416307325707
 30
0.0
 41
1.0
 10
-3237.9908302918279
 20
-236.99795261836616
 30
0.0
 41
1.0
 10
-3237.9876264597492
 20
-236.98174216347525
 30
0.0
 41
1.0
 10
-3237.9635244369624
 20
-236.85979296527276
 30
0.0
 41
0.9995617985320479
 10
-3237.9466810897434
 20
-236.73663121756337
 30
0.0
 41
1.0
 10
-3237.9442165998371
 20
-236.71861040019866
 30
0.0
 41
1.0
 10
-3237.9417521099308
 20
-236.70058958283397
 30
0.0
 41
1.0
 10
-3237.9214688488833
 20
-236.55227453313617
 30
0.0
 41
0.9991121410639895
 10
-3237.9137434952954
 20
-236.40277843433284
 30
0.0
 41
1.0
 10
-3237.9128247052709
 20
-236.38499859775862
 30
0.0
 41
1.0
 10
-3237.9119059152463
 20
-236.3672187611844
 30
0.0
 41
1.0
 10
-3237.9060181417071
 20
-236.25328233552861
 30
0.0
 41
0.9989792494906555
 10
-3237.9104372338243
 20
-236.13927949962829
 30
0.0
 41
1.0
 10
-3237.9110852056933
 20
-236.12256325369162
 30
0.0
 41
1.0
 10
-3237.9117331775624
 20
-236.10584700775499
 30
0.0
 41
1.0
 10
-3237.9148563259423
 20
-236.02527666372026
 30
0.0
 41
0.9997820295394396
 10
-3237.9213403233175
 20
-235.94490694198589
 30
0.0
 41
1.0
 10
-3237.9278243206936
 20
-235.86453722023677
 30
0.0
 41
0.9998335105971828
 10
-3237.9372365162062
 20
-235.78445760378239
 30
0.0
 41
1.0
 10
-3237.938831440882
 20
-235.77088787330405
 30
0.0
 41
1.0
 10
-3237.9404263655579
 20
-235.75731814282574
 30
0.0
 41
1.0
 10
-3237.9530284104221
 20
-235.65009906540917
 30
0.0
 41
0.9996876457879517
 10
-3237.9709723232208
 20
-235.54364363769312
 30
0.0
 41
1.0
 10
-3237.9732039863666
 20
-235.53040390245008
 30
0.0
 41
1.0
 10
-3237.9754356495118
 20
-235.51716416720703
 30
0.0
 41
1.0
 10
-3237.9892314709323
 20
-235.43531802324941
 30
0.0
 41
0.9995547496493853
 10
-3238.0078847928244
 20
-235.35444052606044
 30
0.0
 41
1.0
 10
-3238.0082587496954
 20
-235.35281911535554
 30
0.0
 41
1.0
 10
-3238.0086327065669
 20
-235.35119770465062
 30
0.0
 41
1.0
 10
-3238.0265381147174
 20
-235.27356302886989
 30
0.0
 41
0.9994899427175342
 10
-3238.0493630233968
 20
-235.19722974603485
 30
0.0
 41
1.0
 10
-3238.0498215501375
 20
-235.19569629624624
 30
0.0
 41
1.0
 10
-3238.0502800768782
 20
-235.1941628464576
 30
0.0
 41
1.0
 10
-3238.0721879320758
 20
-235.12089646320086
 30
0.0
 41
0.9993784877591144
 10
-3238.0992035671825
 20
-235.04935575804143
 30
0.0
 41
1.0
 10
-3238.0997352581576
 20
-235.04794777532544
 30
0.0
 41
1.0
 10
-3238.1002669491327
 20
-235.04653979260948
 30
0.0
 41
1.0
 10
-3238.1262192022878
 20
-234.97781505288589
 30
0.0
 41
0.999243083225565
 10
-3238.1574357374484
 20
-234.91131590081409
 30
0.0
 41
1.0
 10
-3238.1580178535037
 20
-234.91007584569957
 30
0.0
 41
1.0
 10
-3238.158599969559
 20
-234.90883579058502
 30
0.0
 41
1.0
 10
-3238.1886522726068
 20
-234.84481674874789
 30
0.0
 41
0.9990789632799011
 10
-3238.2240828993845
 20
-234.78361013699623
 30
0.0
 41
1.0
 10
-3238.2246786055639
 20
-234.7825810511419
 30
0.0
 41
1.0
 10
-3238.2252743117429
 20
-234.7815519652876
 30
0.0
 41
1.0
 10
-3238.259513526159
 20
-234.72240352525071
 30
0.0
 41
0.9988874801122053
 10
-3238.2991728021934
 20
-234.66674381282871
 30
0.0
 41
1.0
 10
-3238.2997283282598
 20
-234.66596416115112
 30
0.0
 41
1.0
 10
-3238.3002838543262
 20
-234.66518450947351
 30
0.0
 41
1.0
 10
-3238.3388320782274
 20
-234.61108410040768
 30
0.0
 41
0.9986762060689658
 10
-3238.382734549501
 20
-234.56123038597173
 30
0.0
 41
1.0
 10
-3238.3831785098328
 20
-234.56072624415557
 30
0.0
 41
1.0
 10
-3238.3836224701645
 20
-234.56022210233942
 30
0.0
 41
1.0
 10
-3238.4266370207761
 20
-234.51137667153378
 30
0.0
 41
0.9984621642489484
 10
-3238.4747945775553
 20
-234.46759337106141
 30
0.0
 41
1.0
 10
-3238.4750412120734
 20
-234.46736913889652
 30
0.0
 41
1.0
 10
-3238.4752878465915
 20
-234.46714490673165
 30
0.0
 41
1.0
 10
-3238.5229521343344
 20
-234.42381007058935
 30
0.0
 41
0.9982724693850829
 10
-3238.5753707661747
 20
-234.3863657200726
 30
0.0
 41
1.0
 10
-3238.6277893980177
 20
-234.34892136955381
 30
0.0
 41
0.9981399180158096
 10
-3238.6843754614119
 20
-234.31813485011008
 30
0.0
 41
1.0
 10
-3238.6844211234893
 20
-234.31811000695362
 30
0.0
 41
1.0
 10
-3238.6844667855662
 20
-234.31808516379715
 30
0.0
 41
1.0
 10
-3238.7411441731156
 20
-234.28724895803953
 30
0.0
 41
0.9980927086834638
 10
-3238.801189524183
 20
-234.26363214918692
 30
0.0
 41
1.0
 10
-3238.8016296938949
 20
-234.2634590233119
 30
0.0
 41
1.0
 10
-3238.8020698636064
 20
-234.26328589743684
 30
0.0
 41
1.0
 10
-3238.8629955540946
 20
-234.2393228368349
 30
0.0
 41
0.9981411356562758
 10
-3238.9263840754952
 20
-234.22295019532879
 30
0.0
 41
1.0
 10
-3238.9272661921968
 20
-234.22272235312332
 30
0.0
 41
1.0
 10
-3238.928148308898
 20
-234.22249451091784
 30
0.0
 41
1.0
 10
-3238.9933010636996
 20
-234.20566618500172
 30
0.0
 41
0.9983031812937601
 10
-3239.0599684926929
 20
-234.19652682382545
 30
0.0
 41
1.0
 10
-3239.0688395180982
 20
-234.19531070515393
 30
0.0
 41
1.0
 10
-3239.0777105435036
 20
-234.19409458648244
 30
0.0
 41
1.0
 10
-3239.1320601860093
 20
-234.18664385649114
 30
0.0
 41
0.9983887708262488
 10
-3239.1869040353004
 20
-234.18539918285808
 30
0.0
 41
1.0
 10
-3239.1949674405182
 20
-234.18521618498323
 30
0.0
 41
1.0
 10
-3239.2030308457361
 20
-234.18503318710836
 30
0.0
 41
1.0
 10
-3239.241747884596
 20
-234.18415450922478
 30
0.0
 41
0.9998869563079654
 10
-3239.2804738377959
 20
-234.18444037858444
 30
0.0
 41
1.0
 10
-3239.3191997909835
 20
-234.18472624794401
 30
0.0
 41
0.999997232009809
 10
-3239.357923970203
 20
-234.1851943474731
 30
0.0
 41
1.0
 10
-3239.377276986786
 20
-234.18542828756253
 30
0.0
 41
1.0
 10
-3239.396630003369
 20
-234.18566222765196
 30
0.0
 41
1.0
 10
-3239.4740602157358
 20
-234.18659820735962
 30
0.0
 41
0.9997304945086697
 10
-3239.5513635219786
 20
-234.19112730114588
 30
0.0
 41
1.0
 10
-3239.5604131636824
 20
-234.1916575071358
 30
0.0
 41
1.0
 10
-3239.5694628053861
 20
-234.19218771312569
 30
0.0
 41
1.0
 10
-3239.6648653950269
 20
-234.19777721889119
 30
0.0
 41
0.999788830641505
 10
-3239.7599577308711
 20
-234.20728218338039
 30
0.0
 41
1.0
 10
-3239.7686787924458
 20
-234.20815389801265
 30
0.0
 41
1.0
 10
-3239.7773998540201
 20
-234.20902561264495
 30
0.0
 41
1.0
 10
-3239.8899343130079
 20
-234.22027400639811
 30
0.0
 41
0.9984170238190416
 10
-3240.0004934603603
 20
-234.24409008833413
 30
0.0
 41
1.0
 10
-3240.0368745913465
 20
-234.25192712414025
 30
0.0
 41
1.0
 10
-3240.0732557223332
 20
-234.25976415994637
 30
0.0
 41
1.0
 10
-3240.1884467907539
 20
-234.2845780264561
 30
0.0
 41
0.997659285420052
 10
-3240.2991749571593
 20
-234.32487670360308
 30
0.0
 41
1.0
 10
-3240.4099031235633
 20
-234.36517538075
 30
0.0
 41
0.9993255074352618
 10
-3240.5173749223563
 20
-234.41349227924351
 30
0.0
 41
1.0
 10
-3240.5220001012785
 20
-234.41557165544282
 30
0.0
 41
1.0
 10
-3240.5266252802012
 20
-234.41765103164209
 30
0.0
 41
1.0
 10
-3240.6433474368382
 20
-234.47012668253353
 30
0.0
 41
0.9976475078273962
 10
-3240.7517947811498
 20
-234.53807467219289
 30
0.0
 41
1.0
 10
-3240.7701371752819
 20
-234.54956715100562
 30
0.0
 41
1.0
 10
-3240.788479569414
 20
-234.56105962981835
 30
0.0
 41
1.0
 10
-3240.87268176097
 20
-234.61381675058936
 30
0.0
 41
0.9995131336407482
 10
-3240.9534294759283
 20
-234.67172296254307
 30
0.0
 41
1.0
 10
-3241.0341771908893
 20
-234.72962917449891
 30
0.0
 41
0.9995810107606107
 10
-3241.1114388386227
 20
-234.79211085696878
 30
0.0
 41
1.0
 10
-3241.1144088698284
 20
-234.79451272842999
 30
0.0
 41
1.0
 10
-3241.1173789010345
 20
-234.79691459989124
 30
0.0
 41
1.0
 10
-3241.2005806111883
 20
-234.86420002529019
 30
0.0
 41
0.9996617837954097
 10
-3241.2801712983269
 20
-234.93572048085326
 30
0.0
 41
1.0
 10
-3241.2923020491999
 20
-234.94662121384056
 30
0.0
 41
1.0
 10
-3241.3044328000733
 20
-234.95752194682788
 30
0.0
 41
1.0
 10
-3241.3727083274694
 20
-235.01887456229991
 30
0.0
 41
0.9997267750053327
 10
-3241.4380418357541
 20
-235.08335109882603
 30
0.0
 41
1.0
 10
-3241.5033753440375
 20
-235.14782763535132
 30
0.0
 41
0.9999667288964962
 10
-3241.56764828719
 20
-235.21336144225117
 30
0.0
 41
1.0
 10
-3241.636475734962
 20
-235.28353910100674
 30
0.0
 41
1.0
 10
-3241.7053031827345
 20
-235.35371675976228
 30
0.0
 41
1.0
 10
-3241.9072310214337
 20
-235.5596058841756
 30
0.0
 41
0.9988205335174913
 10
-3242.0882366384162
 20
-235.7841101162403
 30
0.0
 41
1.0
 10
-3242.1188766033183
 20
-235.82211336666694
 30
0.0
 41
1.0
 10
-3242.1495165682204
 20
-235.86011661709358
 30
0.0
 41
1.0
 10
-3242.3918021150103
 20
-236.16062735001495
 30
0.0
 41
0.9997077826755429
 10
-3242.6192800661129
 20
-236.47249714422793
 30
0.0
 41
1.0
 10
-3242.6210034812443
 20
-236.47485992760872
 30
0.0
 41
1.0
 10
-3242.6227268963758
 20
-236.47722271098951
 30
0.0
 41
1.0
 10
-3242.8536516777449
 20
-236.7938180719697
 30
0.0
 41
0.9989147567078586
 10
-3243.0541151806319
 20
-237.13052753316137
 30
0.0
 41
1.0
 10
-3243.0788563259366
 20
-237.17208411370984
 30
0.0
 41
1.0
 10
-3243.1035974712408
 20
-237.21364069425834
 30
0.0
 41
1.0
 10
-3243.2588087698773
 20
-237.47434207870924
 30
0.0
 41
0.9997476598180952
 10
-3243.4021537573858
 20
-237.74175182728982
 30
0.0
 41
1.0
 10
-3243.5454987448966
 20
-238.00916157587437
 30
0.0
 41
0.999625896710941
 10
-3243.6740069968287
 20
-238.28400951249944
 30
0.0
 41
1.0
 10
-3243.6872069062783
 20
-238.31224091259571
 30
0.0
 41
1.0
 10
-3243.7004068157285
 20
-238.34047231269201
 30
0.0
 41
1.0
 10
-3243.8406155367275
 20
-238.64034471064252
 30
0.0
 41
0.9998735413946447
 10
-3243.9712168834471
 20
-238.9445243101087
 30
0.0
 41
1.0
 10
-3243.9746597115122
 20
-238.9525428955838
 30
0.0
 41
1.0
 10
-3243.9781025395773
 20
-238.96056148105893
 30
0.0
 41
1.0
 10
-3244.1018182301723
 20
-239.24870390958787
 30
0.0
 41
0.9999377418860864
 10
-3244.2190730323423
 20
-239.53953537725135
 30
0.0
 41
1.0
 10
-3244.3363278345282
 20
-239.830366844954
 30
0.0
 41
0.9999508299507547
 10
-3244.4477917779118
 20
-240.12346652179227
 30
0.0
 41
1.0
 10
-3244.4508725465657
 20
-240.13156754773433
 30
0.0
 41
1.0
 10
-3244.4539533152201
 20
-240.13966857367643
 30
0.0
 41
1.0
 10
-3244.571578795918
 20
-240.44897030241464
 30
0.0
 41
0.9999609228437673
 10
-3244.6837173987883
 20
-240.76030331841966
 30
0.0
 41
1.0
 10
-3244.6866734091418
 20
-240.76851015883983
 30
0.0
 41
1.0
 10
-3244.6896294194953
 20
-240.77671699925997
 30
0.0
 41
1.0
 10
-3244.8076800430695
 20
-241.10446369609747
 30
0.0
 41
0.999967460740562
 10
-3244.92042756914
 20
-241.4340723160991
 30
0.0
 41
1.0
 10
-3244.9718259596993
 20
-241.58433151178238
 30
0.0
 41
1.0
 10
-3245.0232243502592
 20
-241.73459070746566
 30
0.0
 41
1.0
 10
-3245.1392349570178
 20
-242.07373868997081
 30
0.0
 41
0.9999287532306243
 10
-3245.2471163609903
 20
-242.41555942895218
 30
0.0
 41
1.0
 10
-3245.2935936171343
 20
-242.56282197333815
 30
0.0
 41
1.0
 10
-3245.3400708732784
 20
-242.71008451772408
 30
0.0
 41
1.0
 10
-3245.3549977649755
 20
-242.75738016797422
 30
0.0
 41
0.9999998223481702
 10
-3245.3698682736913
 20
-242.8046935761688
 30
0.0
 41
1.0
 10
-3246.9905244104866
 20
-247.95272207795824
 30
0.0
 41
1.0
 10
-3248.6111805472824
 20
-253.10075057974768
 30
0.0
 41
1.0
 10
-3249.516488991173
 20
-253.10075057974768
 30
0.0
 41
1.0
 10
-3250.421797435064
 20
-253.10075057974768
 30
0.0
 41
1.0
 10
-3248.5697130236781
 20
-247.21367865728018
 30
0.0
 41
1.0
 10
-3246.7176286122922
 20
-241.32660673481269
 30
0.0
 41
1.0
 10
-3246.7075068539893
 20
-241.29456352136299
 30
0.0
 41
1.0
 10
-3246.6348991851396
 20
-241.06426397953715
 30
0.0
 41
1.0
 10
-3246.5622915162821
 20
-240.83396443768743
 30
0.0
 41
0.9999825681974471
 10
-3246.4924084770664
 20
-240.60282354260741
 30
0.0
 41
1.0
 10
-3246.4441174149074
 20
-240.44309895911681
 30
0.0
 41
1.0
 10
-3246.3958263527484
 20
-240.28337437562618
 30
0.0
 41
1.0
 10
-3246.2986739994358
 20
-239.96203915386678
 30
0.0
 41
0.9999672528961643
 10
-3246.2067351938176
 20
-239.63917360829635
 30
0.0
 41
1.0
 10
-3246.2039463101441
 20
-239.62937976289334
 30
0.0
 41
1.0
 10
-3246.2011574264707
 20
-239.6195859174903
 30
0.0
 41
1.0
 10
-3246.1147963881922
 20
-239.31630806270323
 30
0.0
 41
0.9999899749128244
 10
-3246.0311547786596
 20
-239.01226897425761
 30
0.0
 41
1.0
 10
-3246.0210488596476
 20
-238.97553373659952
 30
0.0
 41
1.0
 10
-3246.0109429406357
 20
-238.93879849894142
 30
0.0
 41
1.0
 10
-3245.9475131691315
 20
-238.70822988582879
 30
0.0
 41
0.9999214200502129
 10
-3245.8898837407469
 20
-238.47614354359587
 30
0.0
 41
1.0
 10
-3245.8771178885581
 20
-238.42473265816622
 30
0.0
 41
1.0
 10
-3245.8643520363694
 20
-238.37332177273657
 30
0.0
 41
1.0
 10
-3245.8322543123618
 20
-238.24405720135576
 30
0.0
 41
0.999982868165595
 10
-3245.8016720603741
 20
-238.11442572691908
 30
0.0
 41
1.0
 10
-3245.7710898083756
 20
-237.98479425243798
 30
0.0
 41
0.9999389844480465
 10
-3245.7433788195831
 20
-237.854518796523
 30
0.0
 41
1.0
 10
-3245.736241075866
 20
-237.82096269269985
 30
0.0
 41
1.0
 10
-3245.729103332149
 20
-237.78740658887671
 30
0.0
 41
1.0
 10
-3245.6871168559242
 20
-237.59001892532584
 30
0.0
 41
0.9998933699441267
 10
-3245.6509125915259
 20
-237.39148931759195
 30
0.0
 41
1.0
 10
-3245.6495397663048
 20
-237.38396129687098
 30
0.0
 41
1.0
 10
-3245.6481669410841
 20
-237.37643327615001
 30
0.0
 41
1.0
 10
-3245.6092170262491
 20
-237.16284762699775
 30
0.0
 41
0.9996850305193649
 10
-3245.5810333499908
 20
-236.94757662156084
 30
0.0
 41
1.0
 10
-3245.5790383166222
 20
-236.93233826744574
 30
0.0
 41
1.0
 10
-3245.5770432832537
 20
-236.91709991333062
 30
0.0
 41
1.0
 10
-3245.5496354207939
 20
-236.7077546861691
 30
0.0
 41
0.9994697936706721
 10
-3245.5359108615735
 20
-236.49706949083236
 30
0.0
 41
1.0
 10
-3245.5354337923236
 20
-236.48974601861715
 30
0.0
 41
1.0
 10
-3245.5349567230737
 20
-236.48242254640192
 30
0.0
 41
1.0
 10
-3245.5221863023535
 20
-236.28638429549758
 30
0.0
 41
0.999180489313651
 10
-3245.5253146186269
 20
-236.08995544552818
 30
0.0
 41
1.0
 10
-3245.5253984974488
 20
-236.0846886441195
 30
0.0
 41
1.0
 10
-3245.5254823762712
 20
-236.07942184271081
 30
0.0
 41
1.0
 10
-3245.5284429348994
 20
-235.89352659555885
 30
0.0
 41
0.9988448329321373
 10
-3245.5492344805234
 20
-235.70877400572135
 30
0.0
 41
1.0
 10
-3245.5508285542264
 20
-235.69460914994971
 30
0.0
 41
1.0
 10
-3245.5524226279294
 20
-235.6804442941781
 30
0.0
 41
1.0
 10
-3245.5700260261469
 20
-235.52402141588769
 30
0.0
 41
0.9985503209458166
 10
-3245.6043422984467
 20
-235.37039723179873
 30
0.0
 41
1.0
 10
-3245.6119282905183
 20
-235.33643690439584
 30
0.0
 41
1.0
 10
-3245.61951428259
 20
-235.30247657699294
 30
0.0
 41
1.0
 10
-3245.6386585707469
 20
-235.2167730477064
 30
0.0
 41
0.9991036781370102
 10
-3245.6649834323971
 20
-235.13299596038451
 30
0.0
 41
1.0
 10
-3245.6689656578556
 20
-235.12032279786609
 30
0.0
 41
1.0
 10
-3245.672947883314
 20
-235.10764963534766
 30
0.0
 41
1.0
 10
-3245.6913082940505
 20
-235.0492188730525
 30
0.0
 41
0.9998874504368244
 10
-3245.7114135017268
 20
-234.99136527083624
 30
0.0
 41
1.0
 10
-3245.7315187094041
 20
-234.93351166861711
 30
0.0
 41
0.9994041637543911
 10
-3245.755567322336
 20
-234.87718296473264
 30
0.0
 41
1.0
 10
-3245.7597641065622
 20
-234.86735290024507
 30
0.0
 41
1.0
 10
-3245.7639608907889
 20
-234.85752283575746
 30
0.0
 41
1.0
 10
-3245.7918397217823
 20
-234.79222266979193
 30
0.0
 41
0.9991846840700889
 10
-3245.8248960784754
 20
-234.72938463851187
 30
0.0
 41
1.0
 10
-3245.8260326848722
 20
-234.72722402205375
 30
0.0
 41
1.0
 10
-3245.827169291269
 20
-234.72506340559565
 30
0.0
 41
1.0
 10
-3245.8579524351699
 20
-234.66654660722884
 30
0.0
 41
0.9989253167922675
 10
-3245.8940218592234
 20
-234.61113167884139
 30
0.0
 41
1.0
 10
-3245.8950759838972
 20
-234.60951218407959
 30
0.0
 41
1.0
 10
-3245.896130108571
 20
-234.60789268931779
 30
0.0
 41
1.0
 10
-3245.9300912832778
 20
-234.55571675045161
 30
0.0
 41
0.9986467172836689
 10
-3245.9692884359156
 20
-234.50735071682163
 30
0.0
 41
1.0
 10
-3245.9701625646148
 20
-234.5062721145452
 30
0.0
 41
1.0
 10
-3245.9710366933141
 20
-234.50519351226876
 30
0.0
 41
1.0
 10
-3246.0084855885511
 20
-234.45898468319413
 30
0.0
 41
0.9984001104266737
 10
-3246.0509123190704
 20
-234.41729957582322
 30
0.0
 41
1.0
 10
-3246.0514994571804
 20
-234.41672270094148
 30
0.0
 41
1.0
 10
-3246.0520865952903
 20
-234.41614582605973
 30
0.0
 41
1.0
 10
-3246.0933390495875
 20
-234.37561446845456
 30
0.0
 41
0.9982442159082665
 10
-3246.1390951509229
 20
-234.34024590719423
 30
0.0
 41
1.0
 10
-3246.1393099463871
 20
-234.34007987454908
 30
0.0
 41
1.0
 10
-3246.1395247418513
 20
-234.33991384190389
 30
0.0
 41
1.0
 10
-3246.1848512522606
 20
-234.30487734593211
 30
0.0
 41
0.9982450060833294
 10
-3246.2340022313301
 20
-234.27544556290047
 30
0.0
 41
1.0
 10
-3246.2831532104005
 20
-234.24601377986784
 30
0.0
 41
0.9983922639636604
 10
-3246.3353195165651
 20
-234.22233414521358
 30
0.0
 41
1.0
 10
-3246.3355463938906
 20
-234.22223115973179
 30
0.0
 41
1.0
 10
-3246.3357732712157
 20
-234.22212817424997
 30
0.0
 41
1.0
 10
-3246.3883933320285
 20
-234.19824256863365
 30
0.0
 41
0.9986517147151439
 10
-3246.4432063048976
 20
-234.17994144951146
 30
0.0
 41
1.0
 10
-3246.4438842263253
 20
-234.17971510307996
 30
0.0
 41
1.0
 10
-3246.4445621477535
 20
-234.17948875664842
 30
0.0
 41
1.0
 10
-3246.5007309634789
 20
-234.1607349446634
 30
0.0
 41
0.9989435598957394
 10
-3246.5583843506297
 20
-234.14721724242901
 30
0.0
 41
1.0
 10
-3246.5594644702105
 20
-234.14696399217613
 30
0.0
 41
1.0
 10
-3246.5605445897918
 20
-234.14671074192324
 30
0.0
 41
1.0
 10
-3246.6203582161074
 20
-234.13268653918252
 30
0.0
 41
0.9992249241239823
 10
-3246.6810897250048
 20
-234.12341119646743
 30
0.0
 41
1.0
 10
-3246.6825034132953
 20
-234.12319528805963
 30
0.0
 41
1.0
 10
-3246.6839171015863
 20
-234.12297937965184
 30
0.0
 41
1.0
 10
-3246.7474759870615
 20
-234.11327222012147
 30
0.0
 41
0.9994396597833779
 10
-3246.8115419236024
 20
-234.10783929777529
 30
0.0
 41
1.0
 10
-3246.8306825910804
 20
-234.10621613005662
 30
0.0
 41
1.0
 10
-3246.849823258558
 20
-234.10459296233796
 30
0.0
 41
1.0
 10
-3246.9521705300494
 20
-234.0959137045549
 30
0.0
 41
0.9987693403120872
 10
-3247.0548741536363
 20
-234.09741676800761
 30
0.0
 41
1.0
 10
-3247.065128487865
 20
-234.09756683978182
 30
0.0
 41
1.0
 10
-3247.0753828220936
 20
-234.09771691155603
 30
0.0
 41
1.0
 10
-3247.1849385882724
 20
-234.09932025584362
 30
0.0
 41
0.9989753644966709
 10
-3247.2939005882872
 20
-234.11082326276858
 30
0.0
 41
1.0
 10
-3247.4028625883052
 20
-234.12232626969376
 30
0.0
 41
0.998319006730481
 10
-3247.5097613992698
 20
-234.14636126148076
 30
0.0
 41
1.0
 10
-3247.5186623508762
 20
-234.14836254004334
 30
0.0
 41
1.0
 10
-3247.5275633024821
 20
-234.15036381860591
 30
0.0
 41
1.0
 10
-3247.6522640166627
 20
-234.17840136751823
 30
0.0
 41
0.9985539388301683
 10
-3247.7732337703405
 20
-234.21966504356425
 30
0.0
 41
1.0
 10
-3247.7755792012999
 20
-234.22046508737978
 30
0.0
 41
1.0
 10
-3247.7779246322593
 20
-234.22126513119531
 30
0.0
 41
1.0
 10
-3247.9035852478569
 20
-234.26412889487244
 30
0.0
 41
0.9988468746494087
 10
-3248.0245555901588
 20
-234.31884697993544
 30
0.0
 41
1.0
 10
-3248.0277384121473
 20
-234.32028665449513
 30
0.0
 41
1.0
 10
-3248.0309212341353
 20
-234.32172632905485
 30
0.0
 41
1.0
 10
-3248.1582572204134
 20
-234.37932376323712
 30
0.0
 41
0.9991322885918815
 10
-3248.28035780447
 20
-234.44731909541903
 30
0.0
 41
1.0
 10
-3248.2979598155107
 20
-234.45712129740687
 30
0.0
 41
1.0
 10
-3248.3155618265509
 20
-234.46692349939471
 30
0.0
 41
1.0
 10
-3248.4177385076096
 20
-234.52382361517635
 30
0.0
 41
0.9993860037850221
 10
-3248.5156795116882
 20
-234.58773963076783
 30
0.0
 41
1.0
 10
-3248.5212978245399
 20
-234.59140612546253
 30
0.0
 41
1.0
 10
-3248.5269161373922
 20
-234.59507262015725
 30
0.0
 41
1.0
 10
-3248.6136205157645
 20
-234.65165564635802
 30
0.0
 41
0.9998821494952664
 10
-3248.6985468915746
 20
-234.71087387643308
 30
0.0
 41
1.0
 10
-3248.7834732673859
 20
-234.7700921065086
 30
0.0
 41
0.9997976482743514
 10
-3248.8659488977933
 20
-234.83267851455327
 30
0.0
 41
1.0
 10
-3248.8805851625971
 20
-234.84378520433225
 30
0.0
 41
1.0
 10
-3248.8952214274009
 20
-234.85489189411123
 30
0.0
 41
1.0
 10
-3249.0069695874054
 20
-234.93969168170565
 30
0.0
 41
0.9998091630800634
 10
-3249.1153198654292
 20
-235.02879203240346
 30
0.0
 41
1.0
 10
-3249.1283256179131
 20
-235.03948713285479
 30
0.0
 41
1.0
 10
-3249.141331370397
 20
-235.05018223330615
 30
0.0
 41
1.0
 10
-3249.2756931533745
 20
-235.16067278489595
 30
0.0
 41
0.9995035112317754
 10
-3249.4028290311376
 20
-235.27940660190973
 30
0.0
 41
1.0
 10
-3249.4124763415302
 20
-235.28841634807264
 30
0.0
 41
1.0
 10
-3249.4221236519229
 20
-235.29742609423559
 30
0.0
 41
1.0
 10
-3249.5455467146853
 20
-235.41269246598901
 30
0.0
 41
0.9994630424298716
 10
-3249.661155120466
 20
-235.53579520922131
 30
0.0
 41
1.0
 10
-3249.664837959238
 20
-235.53971678873495
 30
0.0
 41
1.0
 10
-3249.6685207980099
 20
-235.54363836824857
 30
0.0
 41
1.0
 10
-3249.7767635262512
 20
-235.65889795245758
 30
0.0
 41
0.999516069374937
 10
-3249.8776295557818
 20
-235.78066537032907
 30
0.0
 41
1.0
 10
-3249.8795632758633
 20
-235.78299979453811
 30
0.0
 41
1.0
 10
-3249.8814969959449
 20
-235.78533421874712
 30
0.0
 41
1.0
 10
-3249.9784955853161
 20
-235.90243278820407
 30
0.0
 41
0.9996561470514449
 10
-3250.0692218039803
 20
-236.02445555065083
 30
0.0
 41
1.0
 10
-3250.0753794698849
 20
-236.03273733969672
 30
0.0
 41
1.0
 10
-3250.0815371357894
 20
-236.04101912874262
 30
0.0
 41
1.0
 10
-3250.1599480226482
 20
-236.1464783131027
 30
0.0
 41
0.9998349055172275
 10
-3250.2344753045782
 20
-236.2547168967634
 30
0.0
 41
1.0
 10
-3250.3090025865145
 20
-236.36295548043287
 30
0.0
 41
0.9999728109558279
 10
-3250.3819254824175
 20
-236.47228140597701
 30
0.0
 41
1.0
 10
-3250.3832406978308
 20
-236.47425317548203
 30
0.0
 41
1.0
 10
-3250.3845559132442
 20
-236.47622494498705
 30
0.0
 41
1.0
 10
-3250.4601092399707
 20
-236.58949440953688
 30
0.0
 41
0.9999972147378577
 10
-3250.5351270503315
 20
-236.703119252352
 30
0.0
 41
1.0
 10
-3250.5400985929641
 20
-236.71064934083986
 30
0.0
 41
1.0
 10
-3250.5450701355967
 20
-236.71817942932773
 30
0.0
 41
1.0
 10
-3250.6300310312158
 20
-236.84686444910926
 30
0.0
 41
0.999937197900739
 10
-3250.7120863806163
 20
-236.97742136288048
 30
0.0
 41
1.0
 10
-3250.71559526498
 20
-236.98300429094843
 30
0.0
 41
1.0
 10
-3250.7191041493434
 20
-236.98858721901638
 30
0.0
 41
1.0
 10
-3250.8081772674755
 20
-237.13030998893097
 30
0.0
 41
0.9998272025610607
 10
-3250.8919206583591
 20
-237.27524586567606
 30
0.0
 41
1.0
 10
-3250.9071358303809
 20
-237.3015789801284
 30
0.0
 41
1.0
 10
-3250.9223510024021
 20
-237.32791209458071
 30
0.0
 41
1.0
 10
-3251.0365247373311
 20
-237.52551420023423
 30
0.0
 41
0.9995217214838512
 10
-3251.1382644268847
 20
-237.72979652809204
 30
0.0
 41
1.0
 10
-3251.1459079895258
 20
-237.74514397780737
 30
0.0
 41
1.0
 10
-3251.1535515521668
 20
-237.76049142752271
 30
0.0
 41
1.0
 10
-3251.2404568447519
 20
-237.93498788559393
 30
0.0
 41
0.9998269762607681
 10
-3251.3208113110195
 20
-238.1125961723094
 30
0.0
 41
1.0
 10
-3251.4011657772899
 20
-238.29020445902873
 30
0.0
 41
0.9998944747386711
 10
-3251.4763265718534
 20
-238.47007218465504
 30
0.0
 41
1.0
 10
-3251.4812802414417
 20
-238.48192683956557
 30
0.0
 41
1.0
 10
-3251.48623391103
 20
-238.49378149447614
 30
0.0
 41
1.0
 10
-3251.5668809715876
 20
-238.6867784345051
 30
0.0
 41
0.9999506734409115
 10
-3251.6436785004958
 20
-238.88133923937232
 30
0.0
 41
1.0
 10
-3251.6582784657703
 20
-238.91832716118751
 30
0.0
 41
1.0
 10
-3251.6728784310449
 20
-238.95531508300269
 30
0.0
 41
1.0
 10
-3251.7204760294089
 20
-239.07590004425282
 30
0.0
 41
0.9999912393955022
 10
-3251.7670624734219
 20
-239.19687924692425
 30
0.0
 41
1.0
 10
-3251.8136489174512
 20
-239.31785844963827
 30
0.0
 41
0.9999927113989282
 10
-3251.8593102118512
 20
-239.43918985715618
 30
0.0
 41
1.0
 10
-3251.8732786432424
 20
-239.47630683913803
 30
0.0
 41
1.0
 10
-3251.8872470746337
 20
-239.51342382111989
 30
0.0
 41
1.0
 10
-3251.9608452318171
 20
-239.70898919260318
 30
0.0
 41
0.9999487550950025
 10
-3252.0304688567849
 20
-239.90600455777368
 30
0.0
 41
1.0
 10
-3252.054062466731
 20
-239.97276786809209
 30
0.0
 41
1.0
 10
-3252.0776560766767
 20
-240.03953117841053
 30
0.0
 41
1.0
 10
-3252.1723417110434
 20
-240.30746501322375
 30
0.0
 41
0.999980843694914
 10
-3252.2637032996809
 20
-240.57655044447711
 30
0.0
 41
1.0
 10
-3252.3550648883252
 20
-240.84563587575036
 30
0.0
 41
0.9999873932921186
 10
-3252.4437195970481
 20
-241.11562523077887
 30
0.0
 41
1.0
 10
-3252.4638119539136
 20
-241.17681456351983
 30
0.0
 41
1.0
 10
-3252.4839043107791
 20
-241.23800389626081
 30
0.0
 41
1.0
 10
-3252.612743733227
 20
-241.63037191675309
 30
0.0
 41
0.9999794883026361
 10
-3252.7365465181792
 20
-242.02435812301044
 30
0.0
 41
1.0
 10
-3252.7476987776317
 20
-242.05984873329521
 30
0.0
 41
1.0
 10
-3252.7588510370842
 20
-242.09533934357998
 30
0.0
 41
1.0
 10
-3252.9014092009793
 20
-242.54901209565995
 30
0.0
 41
0.9999982761761049
 10
-3253.0422816409819
 20
-243.0032111177411
 30
0.0
 41
1.0
 10
-3254.6304219735543
 20
-248.05198084874439
 30
0.0
 41
1.0
 10
-3256.2185623061268
 20
-253.10075057974768
 30
0.0
 41
1.0
 10
-3257.1673129176033
 20
-253.10075057974768
 30
0.0
 41
1.0
 10
-3258.1160635290798
 20
-253.10075057974768
 30
0.0
 41
1.0
 10
-3254.8777790429267
 20
-242.77342837980154
 30
0.0
 41
1.0
 10
-3251.6394945567731
 20
-232.44610617985541
 30
0.0
 41
1.0
  0
LWPOLYLINE
  5
5B
100
AcDbEntity
  8
0
370
              15
390
0
  6
Continuous
 62
               7
100
AcDbPolyline
 90
      232
 70
             128
 10
-3277.3430403306002
 20
-233.53044901137059
 42
0.00043708006918
 10
-3277.3959175046652
 20
-233.59911565061782
 10
-3277.4352017357996
 20
-233.6502227635234
 42
0.0030481992154841
 10
-3277.5655404528438
 20
-233.82194445576778
 10
-3277.6040521246696
 20
-233.87333123965573
 42
0.0042058245766079
 10
-3277.8080371753795
 20
-234.15033698478499
 10
-3277.8604422978397
 20
-234.22276983151016
 42
0.0120948898738927
 10
-3278.1564862145942
 20
-234.65351943604838
 10
-3278.2526787137281
 20
-234.80100017129121
 42
0.0141601263952491
 10
-3278.5563227606453
 20
-235.29666950801948
 10
-3278.5958600280705
 20
-235.3655134754502
 42
0.0071131081306667
 10
-3278.8011323513097
 20
-235.73501627428936
 42
0.0068458791011497
 10
-3278.9960118781646
 20
-236.11010783778937
 10
-3279.0028237406104
 20
-236.12366955148912
 42
0.006412088029037
 10
-3279.2009659906503
 20
-236.53109402639879
 10
-3279.2085006761718
 20
-236.54710588312923
 42
0.0058857236445948
 10
-3279.4112560680283
 20
-236.99148199413031
 10
-3279.4194309943373
 20
-237.00997214779818
 42
0.0053189741892908
 10
-3279.6281353070085
 20
-237.49593562172498
 10
-3279.6368831126861
 20
-237.51691749991221
 42
0.0047503650417747
 10
-3279.8528568388192
 20
-238.04911693307781
 10
-3279.8621250871847
 20
-238.07259330922977
 42
0.0042071762174046
 10
-3280.0866724709149
 20
-238.65568690330488
 10
-3280.0964218732615
 20
-238.68165307816923
 42
0.0036680086487323
 10
-3280.330876516573
 20
-239.32028846269915
 10
-3280.3410842964213
 20
-239.34873699704497
 42
0.0032573142632238
 10
-3280.5867165824102
 20
-240.04758965686199
 10
-3280.6553671032366
 20
-240.24705274087395
 42
0.0026133366648182
 10
-3281.0038123019867
 20
-241.27691602452319
 10
-3281.0670690895026
 20
-241.46714685996201
 42
0.0020592950745327
 10
-3281.2809321584546
 20
-242.11925051252933
 10
-3281.2839839496082
 20
-242.12868700091013
 42
0.0025609928534171
 10
-3281.4858044511034
 20
-242.76383222330492
 10
-3281.4883958182536
 20
-242.77213456432031
 42
0.003136235624335
 10
-3281.6778866039072
 20
-243.39289742042502
 10
-3281.6800176468382
 20
-243.40003872664838
 42
0.0037229918031073
 10
-3281.8568180337611
 20
-244.00902402861027
 10
-3281.8584966229687
 20
-244.01497091878932
 42
0.0043077623710102
 10
-3282.0222374250325
 20
-244.61478965055369
 42
0.0047654161820879
 10
-3282.1750661475394
 20
-245.21747573941931
 10
-3282.2095307563877
 20
-245.35903751660578
 42
0.0112969368448109
 10
-3282.4053951145338
 20
-246.25072967724492
 10
-3282.4334015036275
 20
-246.39355772332783
 42
0.0130056762571649
 10
-3282.6342387472741
 20
-247.58049879497275
 10
-3282.65477849742
 20
-247.72457690844081
 42
0.0138721532143073
 10
-3282.7584815019591
 20
-248.63140639427547
 10
-3282.7777769898694
 20
-248.85490411623374
 42
0.0071254697014183
 10
-3282.81112363579
 20
-249.31809112504777
 10
-3282.8160846099563
 20
-249.40409511965615
 42
0.0028881799205744
 10
-3282.8312229032426
 20
-249.69583682945051
 42
0.0060297297136988
 10
-3282.8411551030185
 20
-249.98778576557854
 10
-3282.8422173846857
 20
-250.03617813751276
 42
0.0229523164164228
 10
-3282.8344863569
 20
-250.35893298378198
 10
-3282.8302605833796
 20
-250.41933651779635
 42
0.0123673300657081
 10
-3282.8111819368614
 20
-250.62045724297298
 42
0.0128577674465542
 10
-3282.7819865464553
 20
-250.82035509289963
 10
-3282.7748606730679
 20
-250.86168390749674
 42
0.0285717853758829
 10
-3282.7103666713733
 20
-251.13980005880603
 10
-3282.6966981477049
 20
-251.18645482828992
 42
0.0316283099161149
 10
-3282.5808875677913
 20
-251.5054693301131
 10
-3282.5778388760359
 20
-251.51245570243793
 42
0.033898482423986
 10
-3282.4284071650691
 20
-251.8000216666278
 10
-3282.4260984356961
 20
-251.80381269590882
 42
0.0350228718362195
 10
-3282.2437381450254
 20
-252.06086468058061
 10
-3282.2428528932469
 20
-252.06194375834903
 42
0.0347476747533901
 10
-3282.0284282060102
 20
-252.2891288055647
 42
0.0331337701915336
 10
-3281.7851848802616
 20
-252.48525746764383
 10
-3281.7840847817479
 20
-252.48603017081462
 42
0.0305233319078431
 10
-3281.5155400861763
 20
-252.651158340905
 10
-3281.5123100416731
 20
-252.65288235276864
 42
0.0273744481156768
 10
-3281.2197563301006
 20
-252.78902049665837
 10
-3281.2146517949614
 20
-252.79106408112875
 42
0.0240964406195307
 10
-3280.8991747193181
 20
-252.90004780740938
 10
-3280.8925913901057
 20
-252.90197254708517
 42
0.0209636179808647
 10
-3280.555191237454
 20
-252.98544069501702
 10
-3280.5475587770043
 20
-252.98699260801868
 42
0.0181388704691506
 10
-3280.1892363850047
 20
-253.04640870123274
 10
-3280.1809555366276
 20
-253.04747488504972
 42
0.0156086547588693
 10
-3279.8027681724393
 20
-253.08421107162636
 10
-3279.7595729201089
 20
-253.08704957410549
 42
0.0137148329021476
 10
-3279.4318997748128
 20
-253.09956982935671
 10
-3279.3859635848721
 20
-253.1000642624719
 42
0.0051057823881772
 10
-3279.1498179982946
 20
-253.10019451688106
 42
0.0052256693321911
 10
-3278.9137207145109
 20
-253.09544569241677
 10
-3278.8434939307663
 20
-253.09329872640274
 42
0.0161507179050397
 10
-3278.467756852664
 20
-253.06964835607604
 10
-3278.4477438922922
 20
-253.06773816078862
 42
0.0101216737827349
 10
-3278.0337166708009
 20
-253.01974523042298
 10
-3277.9996633813748
 20
-253.01509753361347
 42
0.0245291776403693
 10
-3277.522873725824
 20
-252.92602245553718
 10
-3277.4380504102974
 20
-252.90582653519084
 42
0.0143509212562129
 10
-3277.0814193063602
 20
-252.8100219014126
 42
0.0156557857032123
 10
-3276.7312032416348
 20
-252.69301068559457
 10
-3276.7237020271382
 20
-252.69024052383963
 42
0.0170137333633433
 10
-3276.3671060314587
 20
-252.54458290896937
 10
-3276.3600021090492
 20
-252.54139507340483
 42
0.0183105364408071
 10
-3276.0006524408827
 20
-252.36406003158038
 10
-3275.9937056762442
 20
-252.36030959670836
 42
0.0194899958151168
 10
-3275.6352249352635
 20
-252.14833061481986
 10
-3275.6282110559232
 20
-252.14380527252263
 42
0.0204869852953101
 10
-3275.2741967538232
 20
-251.89428525743162
 10
-3275.2669311452428
 20
-251.88870519208842
 42
0.0212516938562491
 10
-3274.9209412141308
 20
-251.5988011951907
 10
-3274.8744245200601
 20
-251.55633388510131
 42
0.0215248918254229
 10
-3274.6143983511711
 20
-251.29756960610564
 10
-3274.5693686167933
 20
-251.24872548475901
 42
0.0114578554948511
 10
-3274.4145764631135
 20
-251.07290255129749
 10
-3274.403381927129
 20
-251.05958378775441
 42
0.0061531305135633
 10
-3274.2769072811325
 20
-250.9052942544464
 42
0.0006325587122494
 10
-3274.1525287967524
 20
-250.74929087848415
 10
-3274.1294886619289
 20
-250.72031735811129
 42
0.0041897761558529
 10
-3273.9610332579191
 20
-250.50479798200109
 10
-3273.9025711380646
 20
-250.42869663506428
 42
0.0092993880039843
 10
-3273.6259592108304
 20
-250.05441787116618
 10
-3273.5435647176328
 20
-249.93848086759914
 42
0.0159321727094575
 10
-3273.1969582349993
 20
-249.41630664685567
 10
-3273.1526020996057
 20
-249.34462708259787
 42
0.0085547317023314
 10
-3272.918090334284
 20
-248.950752133381
 42
0.0084601156887105
 10
-3272.6971141568474
 20
-248.54912528435833
 10
-3272.688998683012
 20
-248.53376560207585
 42
0.0081429654285163
 10
-3272.4657494125681
 20
-248.09404408952207
 10
-3272.4568892483903
 20
-248.07586524751571
 42
0.007657458131974
 10
-3272.2304817378322
 20
-247.5926823722825
 10
-3272.2210020970997
 20
-247.57161789395957
 42
0.0070682724199638
 10
-3271.9905571892946
 20
-247.0395805891819
 10
-3271.9805669053112
 20
-247.01559140016673
 42
0.0064559514443889
 10
-3271.7452336971337
 20
-246.42927913365733
 10
-3271.7348243389652
 20
-246.40234420820559
 42
0.0058311413906767
 10
-3271.4937776021993
 20
-245.756312113814
 10
-3271.4830225248147
 20
-245.7264277726614
 42
0.0052312425823169
 10
-3271.2354412467475
 20
-245.01522535874892
 10
-3271.224397410394
 20
-244.98239864675713
 42
0.0046680544795637
 10
-3270.9694689826547
 20
-244.20057233098785
 10
-3270.9274768326218
 20
-244.06758909372851
 42
0.0041666856444158
 10
-3270.7241908202209
 20
-243.4046203187047
 10
-3270.6865283795428
 20
-243.27803921100366
 42
0.0015170975158967
 10
-3270.5653418011443
 20
-242.86617085955731
 42
-0.0004887993113905
 10
-3270.4450020280256
 20
-242.45405244753127
 10
-3270.3685247705262
 20
-242.19309506157424
 42
0.0002583378931342
 10
-3270.0953102002982
 20
-241.25903835783458
 10
-3270.0135373508547
 20
-240.97893909870831
 42
0.0006636169669224
 10
-3269.8196695908737
 20
-240.3115861752251
 10
-3269.8145729365347
 20
-240.2939545923731
 42
0.00105891313249
 10
-3269.63312423561
 20
-239.6612232492962
 10
-3269.6281421651342
 20
-239.64371034229342
 42
0.0015655524458425
 10
-3269.4598719579471
 20
-239.04509366307525
 10
-3269.4550417575147
 20
-239.02770150407687
 42
0.0021640440481038
 10
-3269.3007517855458
 20
-238.46267448612127
 10
-3269.2961175661185
 20
-238.44540975613671
 42
0.0028763871850169
 10
-3269.1566018480626
 20
-237.9134418052804
 10
-3269.1522159838978
 20
-237.89631782713582
 42
0.0037310511941827
 10
-3269.0282592920585
 20
-237.39687023310205
 10
-3269.0241840717663
 20
-237.37990996184323
 42
0.0047652197768638
 10
-3268.9165601712612
 20
-236.91243219355147
 10
-3268.9128695719291
 20
-236.89567263836284
 42
0.0060276699297958
 10
-3268.8223394727843
 20
-236.45959684325726
 10
-3268.8191207825002
 20
-236.44309562897419
 42
0.0075824337755095
 10
-3268.7464314730796
 20
-236.03782846452191
 10
-3268.7437860957016
 20
-236.02167351708403
 42
0.0095130624602379
 10
-3268.689670860068
 20
-235.64658416399959
 10
-3268.682684636186
 20
-235.590650605885
 42
0.0121054653235081
 10
-3268.656093305608
 20
-235.3257547774092
 10
-3268.6552268158507
 20
-235.31435133451129
 42
0.0069050827375262
 10
-3268.6401379978106
 20
-235.07141010763587
 10
-3268.6390026981417
 20
-235.04788385057864
 42
0.0169063976714352
 10
-3268.6361754191616
 20
-234.85169112329038
 10
-3268.6373460706936
 20
-234.79135536190873
 42
0.0052007732947288
 10
-3268.6395995192861
 20
-234.71576197178911
 42
0.005403812329684
 10
-3268.6595630311226
 20
-234.59574367579305
 10
-3268.6646488869956
 20
-234.567085189198
 42
0.0112050460487862
 10
-3268.7000332490579
 20
-234.39075875084066
 10
-3268.7178582110946
 20
-234.31121716413816
 42
0.0240764468016334
 10
-3268.8087555772422
 20
-233.98098012863167
 10
-3268.8273143400565
 20
-233.92435996363454
 42
0.0256812331837711
 10
-3268.9706772602431
 20
-233.55263575738581
 10
-3268.9760866860652
 20
-233.54050442239421
 42
0.02683605012123
 10
-3269.1455139269146
 20
-233.2095112883751
 10
-3269.1510503345485
 20
-233.19999161806493
 42
0.0274670231727447
 10
-3269.3432513109628
 20
-232.90770424314553
 10
-3269.3486326109246
 20
-232.90042509560527
 42
0.0275035967099185
 10
-3269.5602054904875
 20
-232.64490920530011
 10
-3269.5652749914548
 20
-232.63943011766901
 42
0.0269557673532605
 10
-3269.7926785348936
 20
-232.41878783170739
 10
-3269.7974215926811
 20
-232.4146578772426
 42
0.0259124802216127
 10
-3270.0369764241068
 20
-232.22696735009424
 10
-3270.0415072692867
 20
-232.22378184776539
 42
0.024516215300734
 10
-3270.2894236223838
 20
-232.06704883865348
 10
-3270.2939501687079
 20
-232.06448864145273
 42
0.0229282588835621
 10
-3270.5463697255354
 20
-231.9366204489537
 10
-3270.5511502193749
 20
-231.93446814919045
 42
0.0212984135686283
 10
-3270.8041881718336
 20
-231.83326923194943
 10
-3270.8094924568077
 20
-231.8314056691878
 42
0.019755546234034
 10
-3271.0592707945261
 20
-231.75459025122461
 42
0.018351189679188
 10
-3271.3141995199894
 20
-231.69700734425925
 10
-3271.4005647167132
 20
-231.68080455387405
 42
0.033805787715814
 10
-3271.6860720659729
 20
-231.64699614873382
 10
-3271.7770774710157
 20
-231.6424164934723
 42
0.0091990524478418
 10
-3271.8829245796487
 20
-231.63904063755035
 42
0.0028333980809638
 10
-3271.9888384956412
 20
-231.6382125300336
 10
-3271.989753948691
 20
-231.63821056020959
 42
-0.0023619827824253
 10
-3272.0974999638047
 20
-231.63746971913099
 10
-3272.1339051339728
 20
-231.63704741266804
 42
0.0008824598480973
 10
-3272.3144611237817
 20
-231.63527163443013
 10
-3272.3583225562288
 20
-231.63491767290418
 42
0.0038132665768401
 10
-3272.6266054521079
 20
-231.63479873683758
 10
-3272.6431391069009
 20
-231.63491750298112
 42
0.0060665569329173
 10
-3272.9444195984952
 20
-231.64073780240204
 10
-3272.9586699305173
 20
-231.64118611036952
 42
0.0080356953330892
 10
-3273.2881286468591
 20
-231.65685383243655
 10
-3273.3001986619438
 20
-231.65762241537686
 42
0.0098996399106499
 10
-3273.652961746594
 20
-231.68710764457495
 10
-3273.6630074559698
 20
-231.68814794077321
 42
0.0117740981361589
 10
-3274.0341643143165
 20
-231.73544018830285
 10
-3274.0423870108007
 20
-231.73668530487384
 42
0.0137435215134509
 10
-3274.426975830288
 20
-231.80578227843597
 10
-3274.4336328694094
 20
-231.80716817466907
 42
0.0158359869381089
 10
-3274.8266299632123
 20
-231.90206026314996
 10
-3274.8320431500788
 20
-231.90355020402035
 42
0.0180554124030005
 10
-3275.2283581946913
 20
-232.02818822025901
 10
-3275.2329149827747
 20
-232.02980425652538
 42
0.0203657431286208
 10
-3275.6273925005908
 20
-232.18806459804321
 10
-3275.6315360395934
 20
-232.18992621948303
 42
0.0226819684655274
 10
-3276.0189720957951
 20
-232.38556879815286
 10
-3276.0231718868154
 20
-232.38793439007384
 42
0.0248634984609752
 10
-3276.3983538279949
 20
-232.62456103601988
 10
-3276.4465487567768
 20
-232.65841807784417
 42
0.026704419088543
 10
-3276.7208414536972
 20
-232.87385845371489
 42
0.0139303002197421
 10
-3276.9770086196331
 20
-233.11109729462427
 10
-3276.9818620053566
 20
-233.11584995748694
 42
0.0283460963450365
 10
-3277.2259345995858
 20
-233.38358061793454
 10
-3277.2656031047404
 20
-233.43238219540513
 42
0.0070695364826894
 10
-3277.3430403306002
 20
-233.53044901137059
 42
0.0070695364826894
  0
LWPOLYLINE
  5
5C
100
AcDbEntity
  8
0
370
              15
390
0
  6
Continuous
 62
               7
100
AcDbPolyline
 90
      226
 70
             128
 10
-3280.8718607678466
 20
-249.25203781755454
 42
-0.0026277636611889
 10
-3280.8719386516464
 20
-249.18526589177037
 10
-3280.8717212934143
 20
-249.13211067436839
 42
-0.0088680296757751
 10
-3280.8679446771225
 20
-248.95909489199619
 10
-3280.8655983180088
 20
-248.89981486651175
 42
-0.0077381705614724
 10
-3280.8495522072462
 20
-248.60855437071567
 10
-3280.8486842960729
 20
-248.59626613702846
 42
-0.0068872530546335
 10
-3280.8220522163274
 20
-248.28104438498926
 10
-3280.8208479921386
 20
-248.26880340594073
 42
-0.0062130021489766
 10
-3280.7832542753163
 20
-247.92993371474518
 10
-3280.7817503717756
 20
-247.9177598427857
 42
-0.005672692967959
 10
-3280.7328285122826
 20
-247.55556462073528
 10
-3280.7310550666289
 20
-247.54347082042693
 42
-0.0052341884501358
 10
-3280.670444480375
 20
-247.15827756494284
 10
-3280.6684264915925
 20
-247.14627263491661
 42
-0.0049768450180708
 10
-3280.5956878101792
 20
-246.73842806755491
 10
-3280.571438795444
 20
-246.60988008447805
 42
-0.0089029805631503
 10
-3280.4343579436572
 20
-245.94810463709089
 10
-3280.4016125683311
 20
-245.80307320653219
 42
-0.0080318257100733
 10
-3280.1720639539908
 20
-244.85736357467954
 10
-3280.1600790275425
 20
-244.81123293948838
 42
-0.0074265721316431
 10
-3279.8760674886921
 20
-243.78116836110704
 10
-3279.8561879455897
 20
-243.71303430056722
 42
-0.0069711922704903
 10
-3279.5288833670688
 20
-242.64676656019049
 10
-3279.4689314199813
 20
-242.46074520187614
 42
-0.0052070422900008
 10
-3279.2395061947041
 20
-241.77347312478855
 10
-3279.2222250024752
 20
-241.7234458440079
 42
-0.0009167004448393
 10
-3279.0191331152423
 20
-241.13898999601736
 42
-0.0025162726941063
 10
-3278.8120354849466
 20
-240.55594873176383
 10
-3278.7748108731817
 20
-240.45279918596992
 42
-0.0028212681458025
 10
-3278.5266349542112
 20
-239.77706855377835
 10
-3278.5168041914671
 20
-239.75076110911959
 42
-0.0031964916824845
 10
-3278.2805119337982
 20
-239.13055634697457
 10
-3278.2708774797966
 20
-239.10574635682519
 42
-0.0036281836451697
 10
-3278.0457715186981
 20
-238.5383056759382
 10
-3278.0363331085414
 20
-238.5150082444371
 42
-0.0041269166835456
 10
-3277.8217154118815
 20
-237.9975673484571
 10
-3277.789082455472
 20
-237.92068890212289
 42
-0.0047472213058918
 10
-3277.632037649907
 20
-237.56026743421262
 10
-3277.6251435687018
 20
-237.54484683688756
 42
-0.0025651660001942
 10
-3277.4767855348487
 20
-237.21751878113218
 42
-0.0057144634995157
 10
-3277.3230358410851
 20
-236.89270910778487
 10
-3277.295005135677
 20
-236.83520072537718
 42
-0.006538806837784
 10
-3277.1115381079362
 20
-236.47096822871049
 10
-3277.1030796521654
 20
-236.45470864935604
 42
-0.0074510843036375
 10
-3276.9268974062797
 20
-236.12802036821824
 10
-3276.9187177357512
 20
-236.11337959095391
 42
-0.0084648979863389
 10
-3276.7490838826488
 20
-235.82147057998827
 10
-3276.7412277561548
 20
-235.80846358832758
 42
-0.0095638542805906
 10
-3276.5773923085662
 20
-235.54857471635887
 10
-3276.5699173648895
 20
-235.53720535489563
 42
-0.0107191626801235
 10
-3276.4111157845073
 20
-235.30659412035936
 10
-3276.4040990507751
 20
-235.29685802799327
 42
-0.0118458573917865
 10
-3276.2495509522637
 20
-235.09278583268406
 42
-0.0129184518176746
 10
-3276.0850983286609
 20
-234.896625316512
 10
-3276.0549535562991
 20
-234.86249923761389
 42
-0.0217742579641677
 10
-3275.8783412339635
 20
-234.67929246736401
 10
-3275.8675956894995
 20
-234.66907563415748
 42
-0.0097266568648514
 10
-3275.7015380706475
 20
-234.51722805972372
 42
-0.0187720905740902
 10
-3275.5271904947667
 20
-234.37515920634132
 10
-3275.4964845040777
 20
-234.35200012393389
 42
-0.0179428207515059
 10
-3275.2640637840877
 20
-234.1894479468267
 10
-3275.2604114571723
 20
-234.18708401193919
 42
-0.0170047877704073
 10
-3275.0246478196414
 20
-234.04562349778746
 10
-3275.0208648308953
 20
-234.04352519275136
 42
-0.0160190788359535
 10
-3274.7839562832596
 20
-233.9218738907631
 42
-0.0151102861496856
 10
-3274.5399245008111
 20
-233.81519111470769
 10
-3274.4875379986015
 20
-233.7941509818138
 42
-0.0271945441881467
 10
-3274.1288754395409
 20
-233.67228617110726
 10
-3274.0598106390557
 20
-233.65293662984166
 42
-0.0237596594020086
 10
-3273.6440137920326
 20
-233.55748591785994
 10
-3273.5759509383015
 20
-233.54523122973308
 42
-0.0213715440563037
 10
-3273.2900760068569
 20
-233.50628419822328
 10
-3273.2299288406407
 20
-233.50069448352255
 42
-0.0101465655827208
 10
-3273.0624363086445
 20
-233.48855094025828
 10
-3273.0530959224448
 20
-233.48806402526094
 42
-0.0100375910883776
 10
-3272.9039418218836
 20
-233.48328820733582
 10
-3272.8936825522028
 20
-233.48316576832136
 42
-0.0103625633382426
 10
-3272.7649745575482
 20
-233.48429720184799
 10
-3272.7427089062808
 20
-233.4849545603129
 42
-0.0115689250207703
 10
-3272.6586581687534
 20
-233.48938406655805
 42
-0.0072438037432919
 10
-3272.574819889312
 20
-233.49697326630761
 10
-3272.5580193798414
 20
-233.49873980903158
 42
-0.0217917313133169
 10
-3272.44144961653
 20
-233.51615970175229
 10
-3272.3758495259581
 20
-233.52890631016766
 42
-0.0332943556745644
 10
-3272.1714573609333
 20
-233.58294660147419
 10
-3272.1412847923843
 20
-233.59311467859226
 42
-0.0184824084817889
 10
-3272.002779735918
 20
-233.64556569397917
 42
-0.0198002050693909
 10
-3271.8687053954186
 20
-233.70844975417847
 10
-3271.8668187580415
 20
-233.7094275410584
 42
-0.0212242342974581
 10
-3271.7346798156354
 20
-233.78519027985385
 10
-3271.732864520096
 20
-233.78633608205985
 42
-0.022609060579038
 10
-3271.6043606188737
 20
-233.87581572562465
 10
-3271.6025161771367
 20
-233.87722797861181
 42
-0.0238457052260516
 10
-3271.4793340958508
 20
-233.98122387446759
 10
-3271.4773813672846
 20
-233.9830387522403
 42
-0.0248160564150685
 10
-3271.3611798599864
 20
-234.10231335344685
 10
-3271.3590762265821
 20
-234.10469868715347
 42
-0.0254109591461802
 10
-3271.2514710087171
 20
-234.23998707311657
 10
-3271.2492229868021
 20
-234.24312862151839
 42
-0.0255528488285968
 10
-3271.1517763080078
 20
-234.39515567574739
 10
-3271.1494452080888
 20
-234.39923728736028
 42
-0.0252146793215598
 10
-3271.0636641820793
 20
-234.56873953335904
 10
-3271.0613619429223
 20
-234.57392161527014
 42
-0.0244265635959176
 10
-3270.9887072491615
 20
-234.76166818731508
 10
-3270.97946084769
 20
-234.78953360566132
 42
-0.023131961288372
 10
-3270.9335380687003
 20
-234.9528346524562
 42
-0.0112130424361633
 10
-3270.8989020461604
 20
-235.11903825265392
 10
-3270.8976995210496
 20
-235.12553483953218
 42
-0.0210527881257563
 10
-3270.8720130456795
 20
-235.30659048496543
 10
-3270.8685024508568
 20
-235.34199603352067
 42
-0.0190029892404547
 10
-3270.8530609773111
 20
-235.59553187981737
 10
-3270.8522510008679
 20
-235.63100749416196
 42
-0.0137974553657507
 10
-3270.853799853704
 20
-235.9560389009086
 10
-3270.8546453086587
 20
-235.98215764547822
 42
-0.0081336634219091
 10
-3270.8695046438816
 20
-236.28750511308749
 42
-0.0073526923569808
 10
-3270.8938131772566
 20
-236.59225335737716
 10
-3270.8950746010391
 20
-236.60559003203866
 42
-0.00668861386789
 10
-3270.9308101870884
 20
-236.93617607555944
 10
-3270.9324672765556
 20
-236.94979769452732
 42
-0.0061359187354963
 10
-3270.980317878606
 20
-237.30656167462629
 10
-3270.9823553796791
 20
-237.32045647745656
 42
-0.005669861006586
 10
-3271.0430057104477
 20
-237.70373504630297
 10
-3271.0454111437693
 20
-237.71789416552531
 42
-0.0052721077278655
 10
-3271.11954334456
 20
-238.12802150515563
 10
-3271.1223064934111
 20
-238.14243814058921
 42
-0.004928927217608
 10
-3271.2106006115214
 20
-238.57974665176096
 10
-3271.2137131061936
 20
-238.59441550452743
 42
-0.0047415956711161
 10
-3271.3169510977268
 20
-239.05921226194394
 10
-3271.3517193080852
 20
-239.20901935732127
 42
-0.0084404470904111
 10
-3271.541735751649
 20
-239.9692433818222
 10
-3271.5478624396428
 20
-239.99210750600582
 42
-0.0039635940255541
 10
-3271.7693161239245
 20
-240.79309637024448
 10
-3271.7826929191065
 20
-240.84002798684503
 42
-0.0072475040839329
 10
-3272.0501398069591
 20
-241.72924770320367
 10
-3272.1203521337911
 20
-241.95098805318941
 42
-0.0051345458828991
 10
-3272.4071115058559
 20
-242.82531324101842
 10
-3272.4286377726412
 20
-242.88873950820161
 42
-0.0019150016601852
 10
-3272.68417117949
 20
-243.63228862837445
 10
-3272.690638783919
 20
-243.6508760933902
 42
-0.0021524362746143
 10
-3272.9391168349503
 20
-244.35520191500393
 10
-3272.9483272556272
 20
-244.38095549325081
 42
-0.0024331286821783
 10
-3273.1845825146825
 20
-245.03155480142357
 10
-3273.1936304672286
 20
-245.05609810776593
 42
-0.0027449721790877
 10
-3273.4182450380686
 20
-245.65522798670236
 10
-3273.4271350454437
 20
-245.67855057651019
 42
-0.0031083229770142
 10
-3273.6406775320706
 20
-246.22847461413426
 10
-3273.6494136637434
 20
-246.25056432998548
 42
-0.0035311343280478
 10
-3273.8524548493378
 20
-246.75354745572213
 10
-3273.8610401884948
 20
-246.77439017925522
 42
-0.004024564093879
 10
-3274.0541519922799
 20
-247.23269950182487
 10
-3274.0625881058763
 20
-247.25227886988168
 42
-0.004601513585208
 10
-3274.2463443990468
 20
-247.66818389953914
 10
-3274.2546305768792
 20
-247.68648103900057
 42
-0.0052768638274366
 10
-3274.4296080958311
 20
-248.06225392326155
 10
-3274.4377403064505
 20
-248.07924726178902
 42
-0.0060672675645417
 10
-3274.604519919224
 20
-248.41716288491898
 10
-3274.6124893997057
 20
-248.43282814391679
 42
-0.0069904648871991
 10
-3274.7716577937067
 20
-248.73516395057993
 10
-3274.7794491933269
 20
-248.74947449982417
 42
-0.0080637022759064
 10
-3274.9316010536631
 20
-249.01850980296035
 10
-3274.9391900862865
 20
-249.03143766854785
 42
-0.0093006455670827
 10
-3275.0849307628259
 20
-249.26945206706421
 10
-3275.0922814295691
 20
-249.28097003623628
 42
-0.0107060778059648
 10
-3275.2322299730085
 20
-249.4902403536164
 10
-3275.2392917412903
 20
-249.5003258961857
 42
-0.0122723111408755
 10
-3275.3740854594862
 20
-249.68311922567125
 10
-3275.3744116830471
 20
-249.68353961348953
 42
-0.0141836319623942
 10
-3275.5179932860137
 20
-249.85810937131043
 10
-3275.5249410416645
 20
-249.86608437157406
 42
-0.0175957477189856
 10
-3275.6648472097004
 20
-250.01570525998
 42
-0.0080466359680596
 10
-3275.8123109747194
 20
-250.15802778812042
 10
-3275.8583455192484
 20
-250.20104822622238
 42
-0.0269600260401312
 10
-3276.111625765227
 20
-250.41337148472803
 10
-3276.1781929015347
 20
-250.46332289935987
 42
-0.0178362839753027
 10
-3276.4181373911842
 20
-250.63034082560785
 10
-3276.4253823621848
 20
-250.6350093378129
 42
-0.0174650732643912
 10
-3276.661718559626
 20
-250.77587030277186
 42
-0.016924013016238
 10
-3276.90718480548
 20
-250.90016256254771
 10
-3276.9531709610415
 20
-250.92152451811648
 42
-0.0318883036835322
 10
-3277.303521816661
 20
-251.05786282762651
 10
-3277.3718873518292
 20
-251.07956344810302
 42
-0.0284435909894336
 10
-3277.7479374781169
 20
-251.17578088357675
 10
-3277.7830956386151
 20
-251.18267447940516
 42
-0.0243909341004347
 10
-3278.0965390995348
 20
-251.22839551043535
 10
-3278.1468198263055
 20
-251.23324105733695
 42
-0.0196639292932556
 10
-3278.3624154038334
 20
-251.24548934285053
 10
-3278.4142394749979
 20
-251.24639260358728
 42
-0.0100501510711505
 10
-3278.5266627566607
 20
-251.24609220523416
 10
-3278.5583226180042
 20
-251.24537113334887
 42
-0.0019752031104085
 10
-3278.6074149546866
 20
-251.2440589731392
 10
-3278.6101752579134
 20
-251.24397428131275
 42
0.0065378751958465
 10
-3278.6537518326631
 20
-251.24320739009795
 42
-0.016797469461922
 10
-3278.6972826555943
 20
-251.24154749157194
 10
-3278.7013619948571
 20
-251.24125448067696
 42
-0.0081283276311878
 10
-3278.7529217925926
 20
-251.23670748703938
 10
-3278.7646613664742
 20
-251.23547956946072
 42
-0.0126703440165416
 10
-3278.8393796622686
 20
-251.22574477838921
 10
-3278.8621675299446
 20
-251.22218652247398
 42
-0.0117852088431916
 10
-3278.9817065157768
 20
-251.20062352731679
 10
-3279.0370869675398
 20
-251.18927998708227
 42
-0.0251774592296549
 10
-3279.2639310065483
 20
-251.13078197764912
 10
-3279.3086501963976
 20
-251.11681515831438
 42
-0.0146525199892728
 10
-3279.495043183937
 20
-251.05254863111588
 42
-0.0166929435867535
 10
-3279.6770208400644
 20
-250.97674149806105
 10
-3279.681677471337
 20
-250.97461659744727
 42
-0.0191684358430887
 10
-3279.8668611025878
 20
-250.88138051365669
 10
-3279.8701936883435
 20
-250.87953926610396
 42
-0.0221181781799559
 10
-3280.0535039922465
 20
-250.76740576773253
 10
-3280.0558537962543
 20
-250.76582146974215
 42
-0.0254984685377543
 10
-3280.2321439466405
 20
-250.63341031977177
 10
-3280.2546260943395
 20
-250.61465801083776
 42
-0.0292492648817155
 10
-3280.3793950331842
 20
-250.4975652111932
 42
-0.0159048957487869
 10
-3280.4932350306308
 20
-250.36954521959797
 10
-3280.4945538212132
 20
-250.36796360657411
 42
-0.0343813379572698
 10
-3280.5971910828403
 20
-250.22609228080378
 10
-3280.6286826141995
 20
-250.17558888871187
 42
-0.036911727570528
 10
-3280.7145751160979
 20
-250.01211164776214
 42
-0.019175137991754
 10
-3280.7817685016526
 20
-249.83970704176309
 10
-3280.7835318254147
 20
-249.83461369708129
 42
-0.0378178042225802
 10
-3280.8333265441988
 20
-249.64567292099773
 10
-3280.8393218399315
 20
-249.6131123027894
 42
-0.018484604646427
 10
-3280.8600390392235
 20
-249.47135948225809
 42
-0.0179866351308719
 10
-3280.8703720442973
 20
-249.32846866916995
 10
-3280.8704284867426
 20
-249.32691098256441
 42
-0.0085497186139063
 10
-3280.8718607678466
 20
-249.25203781755454
 42
-0.0085497186139063
  0
ENDBLK
  5
5D
100
AcDbEntity
  8
template
390
0
100
AcDbBlockEnd
  0
BLOCK
  5
5E
100
AcDbEntity
  8
notes
390
0
100
AcDbBlockBegin
  2
*D3
 70
               1
 10
0.0
 20
0.0
 30
0.0
  3
*D3
  1

  0
LINE
  5
5F
100
AcDbEntity
  8
0
370
              -2
390
0
  6
Continuous
 62
               0
100
AcDbLine
 10
-776.47414777514769
 20
703.12091357294844
 30
0.0
 11
-776.47414777514769
 21
960.2675357402336
 31
0.0
  0
LINE
  5
60
100
AcDbEntity
  8
0
370
              -2
390
0
  6
Continuous
 62
               0
100
AcDbLine
 10
23.525852219941044
 20
709.33534338075447
 30
0.0
 11
23.525852219941044
 21
960.2675357402336
 31
0.0
  0
LINE
  5
61
100
AcDbEntity
  8
0
370
              -2
390
0
  6
Continuous
 62
               0
100
AcDbLine
 10
-776.47414777514769
 20
960.2675357402336
 30
0.0
 11
23.525852219941044
 21
960.2675357402336
 31
0.0
  0
CIRCLE
  5
62
102
{ACAD_REACTORS
330
63
102
}
100
AcDbEntity
  8
0
370
              -2
390
0
  6
Continuous
 62
               0
100
AcDbCircle
 10
-776.47414777514769
 20
960.2675357402336
 30
0.0
 40
4.99969482421875
  0
HATCH
  5
63
100
AcDbEntity
  8
0
370
              -2
390
0
  6
Continuous
 62
               0
100
AcDbHatch
 10
0.0
 20
0.0
 30
0.0
210
0.0
220
0.0
230
1.0
  2
SOLID
 70
               1
 71
               1
 91
        1
 92
        1
 93
        1
 72
               2
 10
-776.47414777514769
 20
960.2675357402336
 40
4.99969482421875
 50
0.0
 51
360.0
 73
               0
 97
        1
330
62
 75
               0
 76
               1
 98
        1
 10
0.0
 20
0.0
  0
CIRCLE
  5
64
102
{ACAD_REACTORS
330
65
102
}
100
AcDbEntity
  8
0
370
              -2
390
0
  6
Continuous
 62
               0
100
AcDbCircle
 10
23.525852219941044
 20
960.2675357402336
 30
0.0
 40
4.99969482421875
  0
HATCH
  5
65
100
AcDbEntity
  8
0
370
              -2
390
0
  6
Continuous
 62
               0
100
AcDbHatch
 10
0.0
 20
0.0
 30
0.0
210
0.0
220
0.0
230
1.0
  2
SOLID
 70
               1
 71
               1
 91
        1
 92
        1
 93
        1
 72
               2
 10
23.525852219941044
 20
960.2675357402336
 40
4.99969482421875
 50
0.0
 51
360.0
 73
               0
 97
        1
330
64
 75
               0
 76
               1
 98
        1
 10
0.0
 20
0.0
  0
MTEXT
  5
66
100
AcDbEntity
  8
0
390
0
 62
               0
100
AcDbMText
 10
-400.28664945977926
 20
994.14515292773376
 30
0.0
 40
24.432617187500004
 41
0.0
 71
               1
 72
               1
  1
800
  7
ＭＳ ゴシック
 73
               1
 44
0.7828267384257843
  0
POINT
  5
67
100
AcDbEntity
  8
Defpoints
370
               0
390
0
 62
               0
100
AcDbPoint
 10
23.525852219941044
 20
684.33534338075447
 30
0.0
  0
POINT
  5
68
100
AcDbEntity
  8
Defpoints
370
               0
390
0
 62
               0
100
AcDbPoint
 10
-776.47414777514769
 20
678.12091357294844
 30
0.0
  0
POINT
  5
69
100
AcDbEntity
  8
Defpoints
370
               0
390
0
 62
               0
100
AcDbPoint
 10
-776.47414777514769
 20
960.2675357402336
 30
0.0
  0
ENDBLK
  5
6A
100
AcDbEntity
  8
notes
390
0
100
AcDbBlockEnd
  0
BLOCK
  5
6B
100
AcDbEntity
  8
notes
390
0
100
AcDbBlockBegin
  2
*D4
 70
               1
 10
0.0
 20
0.0
 30
0.0
  3
*D4
  1

  0
LINE
  5
6C
100
AcDbEntity
  8
0
370
              -2
390
0
  6
Continuous
 62
               0
100
AcDbLine
 10
45.601589653606425
 20
810.26604832285534
 30
0.0
 11
123.52585221994104
 21
810.26604832285534
 31
0.0
  0
LINE
  5
6D
100
AcDbEntity
  8
0
370
              -2
390
0
  6
Continuous
 62
               0
100
AcDbLine
 10
37.477082157572113
 20
330.26753574023382
 30
0.0
 11
123.52585221994104
 21
330.26753574023382
 31
0.0
  0
LINE
  5
6E
100
AcDbEntity
  8
0
370
              -2
390
0
  6
Continuous
 62
               0
100
AcDbLine
 10
123.52585221994104
 20
810.26604832285534
 30
0.0
 11
123.52585221994104
 21
330.26753574023382
 31
0.0
  0
CIRCLE
  5
6F
102
{ACAD_REACTORS
330
70
102
}
100
AcDbEntity
  8
0
370
              -2
390
0
  6
Continuous
 62
               0
100
AcDbCircle
 10
123.52585221994104
 20
810.26604832285534
 30
0.0
 40
4.99969482421875
  0
HATCH
  5
70
100
AcDbEntity
  8
0
370
              -2
390
0
  6
Continuous
 62
               0
100
AcDbHatch
 10
0.0
 20
0.0
 30
0.0
210
0.0
220
0.0
230
1.0
  2
SOLID
 70
               1
 71
               1
 91
        1
 92
        1
 93
        1
 72
               2
 10
123.52585221994104
 20
810.26604832285534
 40
4.99969482421875
 50
0.0
 51
360.0
 73
               0
 97
        1
330
6F
 75
               0
 76
               1
 98
        1
 10
0.0
 20
0.0
  0
CIRCLE
  5
71
102
{ACAD_REACTORS
330
72
102
}
100
AcDbEntity
  8
0
370
              -2
390
0
  6
Continuous
 62
               0
100
AcDbCircle
 10
123.52585221994104
 20
330.26753574023382
 30
0.0
 40
4.99969482421875
  0
HATCH
  5
72
100
AcDbEntity
  8
0
370
              -2
390
0
  6
Continuous
 62
               0
100
AcDbHatch
 10
0.0
 20
0.0
 30
0.0
210
0.0
220
0.0
230
1.0
  2
SOLID
 70
               1
 71
               1
 91
        1
 92
        1
 93
        1
 72
               2
 10
123.52585221994104
 20
330.26753574023382
 40
4.99969482421875
 50
0.0
 51
360.0
 73
               0
 97
        1
330
71
 75
               0
 76
               1
 98
        1
 10
0.0
 20
0.0
  0
MTEXT
  5
73
100
AcDbEntity
  8
0
390
0
 62
               0
100
AcDbMText
 10
89.648235032440425
 20
546.4542903493691
 30
0.0
 40
24.432617187500004
 41
0.0
 71
               1
 72
               1
  1
480
  7
ＭＳ ゴシック
 11
0.0
 21
1.0
 31
0.0
 73
               1
 44
0.7828267384257843
  0
POINT
  5
74
100
AcDbEntity
  8
Defpoints
370
               0
390
0
 62
               0
100
AcDbPoint
 10
12.477082157572113
 20
330.26753574023382
 30
0.0
  0
POINT
  5
75
100
AcDbEntity
  8
Defpoints
370
               0
390
0
 62
               0
100
AcDbPoint
 10
20.601589653606425
 20
810.26604832285534
 30
0.0
  0
POINT
  5
76
100
AcDbEntity
  8
Defpoints
370
               0
390
0
 62
               0
100
AcDbPoint
 10
123.52585221994104
 20
810.26604832285534
 30
0.0
  0
ENDBLK
  5
77
100
AcDbEntity
  8
notes
390
0
100
AcDbBlockEnd
  0
BLOCK
  5
78
100
AcDbEntity
  8
notes
390
0
100
AcDbBlockBegin
  2
*D5
 70
               1
 10
0.0
 20
0.0
 30
0.0
  3
*D5
  1

  0
LINE
  5
79
100
AcDbEntity
  8
0
370
              -2
390
0
  6
Continuous
 62
               0
100
AcDbLine
 10
-801.70562390609939
 20
675.26604832285534
 30
0.0
 11
-876.47414777514859
 21
675.26604832285534
 31
0.0
  0
LINE
  5
7A
100
AcDbEntity
  8
0
370
              -2
390
0
  6
Continuous
 62
               0
100
AcDbLine
 10
-801.70562390609939
 20
810.26753574023382
 30
0.0
 11
-876.47414777514859
 21
810.26753574023382
 31
0.0
  0
LINE
  5
7B
100
AcDbEntity
  8
0
370
              -2
390
0
  6
Continuous
 62
               0
100
AcDbLine
 10
-876.47414777514859
 20
675.26604832285534
 30
0.0
 11
-876.47414777514859
 21
810.26753574023382
 31
0.0
  0
CIRCLE
  5
7C
102
{ACAD_REACTORS
330
7D
102
}
100
AcDbEntity
  8
0
370
              -2
390
0
  6
Continuous
 62
               0
100
AcDbCircle
 10
-876.47414777514859
 20
675.26604832285534
 30
0.0
 40
4.99969482421875
  0
HATCH
  5
7D
100
AcDbEntity
  8
0
370
              -2
390
0
  6
Continuous
 62
               0
100
AcDbHatch
 10
0.0
 20
0.0
 30
0.0
210
0.0
220
0.0
230
1.0
  2
SOLID
 70
               1
 71
               1
 91
        1
 92
        1
 93
        1
 72
               2
 10
-876.47414777514859
 20
675.26604832285534
 40
4.99969482421875
 50
0.0
 51
360.0
 73
               0
 97
        1
330
7C
 75
               0
 76
               1
 98
        1
 10
0.0
 20
0.0
  0
CIRCLE
  5
7E
102
{ACAD_REACTORS
330
7F
102
}
100
AcDbEntity
  8
0
370
              -2
390
0
  6
Continuous
 62
               0
100
AcDbCircle
 10
-876.47414777514859
 20
810.26753574023382
 30
0.0
 40
4.99969482421875
  0
HATCH
  5
7F
100
AcDbEntity
  8
0
370
              -2
390
0
  6
Continuous
 62
               0
100
AcDbHatch
 10
0.0
 20
0.0
 30
0.0
210
0.0
220
0.0
230
1.0
  2
SOLID
 70
               1
 71
               1
 91
        1
 92
        1
 93
        1
 72
               2
 10
-876.47414777514859
 20
810.26753574023382
 40
4.99969482421875
 50
0.0
 51
360.0
 73
               0
 97
        1
330
7E
 75
               0
 76
               1
 98
        1
 10
0.0
 20
0.0
  0
MTEXT
  5
80
100
AcDbEntity
  8
0
390
0
 62
               0
100
AcDbMText
 10
-910.3517649626483
 20
718.9542903493691
 30
0.0
 40
24.432617187500004
 41
0.0
 71
               1
 72
               1
  1
135
  7
ＭＳ ゴシック
 11
0.0
 21
1.0
 31
0.0
 73
               1
 44
0.7828267384257843
  0
POINT
  5
81
100
AcDbEntity
  8
Defpoints
370
               0
390
0
 62
               0
100
AcDbPoint
 10
-776.70562390609939
 20
810.26753574023382
 30
0.0
  0
POINT
  5
82
100
AcDbEntity
  8
Defpoints
370
               0
390
0
 62
               0
100
AcDbPoint
 10
-776.70562390609939
 20
675.26604832285534
 30
0.0
  0
POINT
  5
83
100
AcDbEntity
  8
Defpoints
370
               0
390
0
 62
               0
100
AcDbPoint
 10
-876.47414777514859
 20
675.26604832285534
 30
0.0
  0
ENDBLK
  5
84
100
AcDbEntity
  8
notes
390
0
100
AcDbBlockEnd
  0
BLOCK
  5
85
100
AcDbEntity
  8
notes
390
0
100
AcDbBlockBegin
  2
*D6
 70
               1
 10
0.0
 20
0.0
 30
0.0
  3
*D6
  1

  0
LINE
  5
86
100
AcDbEntity
  8
0
370
              -2
390
0
  6
Continuous
 62
               0
100
AcDbLine
 10
-801.68920514030742
 20
675.26604832285534
 30
0.0
 11
-876.47414777514859
 21
675.26604832285534
 31
0.0
  0
LINE
  5
87
100
AcDbEntity
  8
0
370
              -2
390
0
  6
Continuous
 62
               0
100
AcDbLine
 10
-798.83888810676854
 20
385.26604832285534
 30
0.0
 11
-876.47414777514859
 21
385.26604832285534
 31
0.0
  0
LINE
  5
88
100
AcDbEntity
  8
0
370
              -2
390
0
  6
Continuous
 62
               0
100
AcDbLine
 10
-876.47414777514859
 20
675.26604832285534
 30
0.0
 11
-876.47414777514859
 21
385.26604832285534
 31
0.0
  0
CIRCLE
  5
89
102
{ACAD_REACTORS
330
8A
102
}
100
AcDbEntity
  8
0
370
              -2
390
0
  6
Continuous
 62
               0
100
AcDbCircle
 10
-876.47414777514859
 20
675.26604832285534
 30
0.0
 40
4.99969482421875
  0
HATCH
  5
8A
100
AcDbEntity
  8
0
370
              -2
390
0
  6
Continuous
 62
               0
100
AcDbHatch
 10
0.0
 20
0.0
 30
0.0
210
0.0
220
0.0
230
1.0
  2
SOLID
 70
               1
 71
               1
 91
        1
 92
        1
 93
        1
 72
               2
 10
-876.47414777514859
 20
675.26604832285534
 40
4.99969482421875
 50
0.0
 51
360.0
 73
               0
 97
        1
330
89
 75
               0
 76
               1
 98
        1
 10
0.0
 20
0.0
  0
CIRCLE
  5
8B
102
{ACAD_REACTORS
330
8C
102
}
100
AcDbEntity
  8
0
370
              -2
390
0
  6
Continuous
 62
               0
100
AcDbCircle
 10
-876.47414777514859
 20
385.26604832285534
 30
0.0
 40
4.99969482421875
  0
HATCH
  5
8C
100
AcDbEntity
  8
0
370
              -2
390
0
  6
Continuous
 62
               0
100
AcDbHatch
 10
0.0
 20
0.0
 30
0.0
210
0.0
220
0.0
230
1.0
  2
SOLID
 70
               1
 71
               1
 91
        1
 92
        1
 93
        1
 72
               2
 10
-876.47414777514859
 20
385.26604832285534
 40
4.99969482421875
 50
0.0
 51
360.0
 73
               0
 97
        1
330
8B
 75
               0
 76
               1
 98
        1
 10
0.0
 20
0.0
  0
MTEXT
  5
8D
100
AcDbEntity
  8
0
390
0
 62
               0
100
AcDbMText
 10
-910.3517649626483
 20
506.45354664067986
 30
0.0
 40
24.432617187500004
 41
0.0
 71
               1
 72
               1
  1
290
  7
ＭＳ ゴシック
 11
0.0
 21
1.0
 31
0.0
 73
               1
 44
0.7828267384257843
  0
POINT
  5
8E
100
AcDbEntity
  8
Defpoints
370
               0
390
0
 62
               0
100
AcDbPoint
 10
-773.83888810676854
 20
385.26604832285534
 30
0.0
  0
POINT
  5
8F
100
AcDbEntity
  8
Defpoints
370
               0
390
0
 62
               0
100
AcDbPoint
 10
-776.68920514030742
 20
675.26604832285534
 30
0.0
  0
POINT
  5
90
100
AcDbEntity
  8
Defpoints
370
               0
390
0
 62
               0
100
AcDbPoint
 10
-876.47414777514859
 20
675.26604832285534
 30
0.0
  0
ENDBLK
  5
91
100
AcDbEntity
  8
notes
390
0
100
AcDbBlockEnd
  0
BLOCK
  5
92
100
AcDbEntity
  8
notes
390
0
100
AcDbBlockBegin
  2
*D7
 70
               1
 10
0.0
 20
0.0
 30
0.0
  3
*D7
  1

  0
LINE
  5
93
100
AcDbEntity
  8
0
370
              -2
390
0
  6
Continuous
 62
               0
100
AcDbLine
 10
-641.47414777514769
 20
304.17917443310535
 30
0.0
 11
-641.47414777514769
 21
230.26604832285534
 31
0.0
  0
LINE
  5
94
100
AcDbEntity
  8
0
370
              -2
390
0
  6
Continuous
 62
               0
100
AcDbLine
 10
-111.42850265759535
 20
304.17917443310535
 30
0.0
 11
-111.42850265759535
 21
230.26604832285534
 31
0.0
  0
LINE
  5
95
100
AcDbEntity
  8
0
370
              -2
390
0
  6
Continuous
 62
               0
100
AcDbLine
 10
-641.47414777514769
 20
230.26604832285534
 30
0.0
 11
-111.42850265759535
 21
230.26604832285534
 31
0.0
  0
CIRCLE
  5
96
102
{ACAD_REACTORS
330
97
102
}
100
AcDbEntity
  8
0
370
              -2
390
0
  6
Continuous
 62
               0
100
AcDbCircle
 10
-641.47414777514769
 20
230.26604832285534
 30
0.0
 40
4.99969482421875
  0
HATCH
  5
97
100
AcDbEntity
  8
0
370
              -2
390
0
  6
Continuous
 62
               0
100
AcDbHatch
 10
0.0
 20
0.0
 30
0.0
210
0.0
220
0.0
230
1.0
  2
SOLID
 70
               1
 71
               1
 91
        1
 92
        1
 93
        1
 72
               2
 10
-641.47414777514769
 20
230.26604832285534
 40
4.99969482421875
 50
0.0
 51
360.0
 73
               0
 97
        1
330
96
 75
               0
 76
               1
 98
        1
 10
0.0
 20
0.0
  0
CIRCLE
  5
98
102
{ACAD_REACTORS
330
99
102
}
100
AcDbEntity
  8
0
370
              -2
390
0
  6
Continuous
 62
               0
100
AcDbCircle
 10
-111.42850265759535
 20
230.26604832285534
 30
0.0
 40
4.99969482421875
  0
HATCH
  5
99
100
AcDbEntity
  8
0
370
              -2
390
0
  6
Continuous
 62
               0
100
AcDbHatch
 10
0.0
 20
0.0
 30
0.0
210
0.0
220
0.0
230
1.0
  2
SOLID
 70
               1
 71
               1
 91
        1
 92
        1
 93
        1
 72
               2
 10
-111.42850265759535
 20
230.26604832285534
 40
4.99969482421875
 50
0.0
 51
360.0
 73
               0
 97
        1
330
98
 75
               0
 76
               1
 98
        1
 10
0.0
 20
0.0
  0
MTEXT
  5
9A
100
AcDbEntity
  8
0
390
0
 62
               0
100
AcDbMText
 10
-400.26382689854745
 20
264.14366551035528
 30
0.0
 40
24.432617187500004
 41
0.0
 71
               1
 72
               1
  1
530
  7
ＭＳ ゴシック
 73
               1
 44
0.7828267384257843
  0
POINT
  5
9B
100
AcDbEntity
  8
Defpoints
370
               0
390
0
 62
               0
100
AcDbPoint
 10
-111.42850265759535
 20
329.17917443310535
 30
0.0
  0
POINT
  5
9C
100
AcDbEntity
  8
Defpoints
370
               0
390
0
 62
               0
100
AcDbPoint
 10
-641.47414777514769
 20
329.17917443310535
 30
0.0
  0
POINT
  5
9D
100
AcDbEntity
  8
Defpoints
370
               0
390
0
 62
               0
100
AcDbPoint
 10
-641.47414777514769
 20
230.26604832285534
 30
0.0
  0
ENDBLK
  5
9E
100
AcDbEntity
  8
notes
390
0
100
AcDbBlockEnd
  0
BLOCK
  5
9F
100
AcDbEntity
  8
notes
390
0
100
AcDbBlockBegin
  2
*D8
 70
               1
 10
0.0
 20
0.0
 30
0.0
  3
*D8
  1

  0
LINE
  5
A0
100
AcDbEntity
  8
0
370
              -2
390
0
  6
Continuous
 62
               0
100
AcDbLine
 10
-111.42850265759535
 20
305.26753574023382
 30
0.0
 11
-111.42850265759535
 21
230.26604832285534
 31
0.0
  0
LINE
  5
A1
100
AcDbEntity
  8
0
370
              -2
390
0
  6
Continuous
 62
               0
100
AcDbLine
 10
23.525852219941044
 20
315.17224806730223
 30
0.0
 11
23.525852219941044
 21
230.26604832285534
 31
0.0
  0
LINE
  5
A2
100
AcDbEntity
  8
0
370
              -2
390
0
  6
Continuous
 62
               0
100
AcDbLine
 10
-111.42850265759535
 20
230.26604832285534
 30
0.0
 11
23.525852219941044
 21
230.26604832285534
 31
0.0
  0
CIRCLE
  5
A3
102
{ACAD_REACTORS
330
A4
102
}
100
AcDbEntity
  8
0
370
              -2
390
0
  6
Continuous
 62
               0
100
AcDbCircle
 10
-111.42850265759535
 20
230.26604832285534
 30
0.0
 40
4.99969482421875
  0
HATCH
  5
A4
100
AcDbEntity
  8
0
370
              -2
390
0
  6
Continuous
 62
               0
100
AcDbHatch
 10
0.0
 20
0.0
 30
0.0
210
0.0
220
0.0
230
1.0
  2
SOLID
 70
               1
 71
               1
 91
        1
 92
        1
 93
        1
 72
               2
 10
-111.42850265759535
 20
230.26604832285534
 40
4.99969482421875
 50
0.0
 51
360.0
 73
               0
 97
        1
330
A3
 75
               0
 76
               1
 98
        1
 10
0.0
 20
0.0
  0
CIRCLE
  5
A5
102
{ACAD_REACTORS
330
A6
102
}
100
AcDbEntity
  8
0
370
              -2
390
0
  6
Continuous
 62
               0
100
AcDbCircle
 10
23.525852219941044
 20
230.26604832285534
 30
0.0
 40
4.99969482421875
  0
HATCH
  5
A6
100
AcDbEntity
  8
0
370
              -2
390
0
  6
Continuous
 62
               0
100
AcDbHatch
 10
0.0
 20
0.0
 30
0.0
210
0.0
220
0.0
230
1.0
  2
SOLID
 70
               1
 71
               1
 91
        1
 92
        1
 93
        1
 72
               2
 10
23.525852219941044
 20
230.26604832285534
 40
4.99969482421875
 50
0.0
 51
360.0
 73
               0
 97
        1
330
A5
 75
               0
 76
               1
 98
        1
 10
0.0
 20
0.0
  0
MTEXT
  5
A7
100
AcDbEntity
  8
0
390
0
 62
               0
100
AcDbMText
 10
-67.763826901003085
 20
264.14366551035528
 30
0.0
 40
24.432617187500004
 41
0.0
 71
               1
 72
               1
  1
135
  7
ＭＳ ゴシック
 73
               1
 44
0.7828267384257843
  0
POINT
  5
A8
100
AcDbEntity
  8
Defpoints
370
               0
390
0
 62
               0
100
AcDbPoint
 10
23.525852219941044
 20
340.17224806730223
 30
0.0
  0
POINT
  5
A9
100
AcDbEntity
  8
Defpoints
370
               0
390
0
 62
               0
100
AcDbPoint
 10
-111.42850265759535
 20
330.26753574023382
 30
0.0
  0
POINT
  5
AA
100
AcDbEntity
  8
Defpoints
370
               0
390
0
 62
               0
100
AcDbPoint
 10
-111.42850265759535
 20
230.26604832285534
 30
0.0
  0
ENDBLK
  5
AB
100
AcDbEntity
  8
notes
390
0
100
AcDbBlockEnd
  0
BLOCK
  5
AC
100
AcDbEntity
  8
notes
390
0
100
AcDbBlockBegin
  2
*D9
 70
               1
 10
0.0
 20
0.0
 30
0.0
  3
*D9
  1

  0
LINE
  5
AD
100
AcDbEntity
  8
0
370
              -2
390
0
  6
Continuous
 62
               0
100
AcDbLine
 10
-236.47414777760332
 20
-398.00804714753872
 30
0.0
 11
-236.47414777760332
 21
-303.00804714753872
 31
0.0
  0
LINE
  5
AE
100
AcDbEntity
  8
0
370
              -2
390
0
  6
Continuous
 62
               0
100
AcDbLine
 10
-516.47414777760332
 20
-398.00804714753872
 30
0.0
 11
-516.47414777760332
 21
-303.00804714753872
 31
0.0
  0
LINE
  5
AF
100
AcDbEntity
  8
0
370
              -2
390
0
  6
Continuous
 62
               0
100
AcDbLine
 10
-236.47414777760332
 20
-303.00804714753872
 30
0.0
 11
-516.47414777760332
 21
-303.00804714753872
 31
0.0
  0
CIRCLE
  5
B0
102
{ACAD_REACTORS
330
B1
102
}
100
AcDbEntity
  8
0
370
              -2
390
0
  6
Continuous
 62
               0
100
AcDbCircle
 10
-236.47414777760332
 20
-303.00804714753872
 30
0.0
 40
4.99969482421875
  0
HATCH
  5
B1
100
AcDbEntity
  8
0
370
              -2
390
0
  6
Continuous
 62
               0
100
AcDbHatch
 10
0.0
 20
0.0
 30
0.0
210
0.0
220
0.0
230
1.0
  2
SOLID
 70
               1
 71
               1
 91
        1
 92
        1
 93
        1
 72
               2
 10
-236.47414777760332
 20
-303.00804714753872
 40
4.99969482421875
 50
0.0
 51
360.0
 73
               0
 97
        1
330
B0
 75
               0
 76
               1
 98
        1
 10
0.0
 20
0.0
  0
CIRCLE
  5
B2
102
{ACAD_REACTORS
330
B3
102
}
100
AcDbEntity
  8
0
370
              -2
390
0
  6
Continuous
 62
               0
100
AcDbCircle
 10
-516.47414777760332
 20
-303.00804714753872
 30
0.0
 40
4.99969482421875
  0
HATCH
  5
B3
100
AcDbEntity
  8
0
370
              -2
390
0
  6
Continuous
 62
               0
100
AcDbHatch
 10
0.0
 20
0.0
 30
0.0
210
0.0
220
0.0
230
1.0
  2
SOLID
 70
               1
 71
               1
 91
        1
 92
        1
 93
        1
 72
               2
 10
-516.47414777760332
 20
-303.00804714753872
 40
4.99969482421875
 50
0.0
 51
360.0
 73
               0
 97
        1
330
B2
 75
               0
 76
               1
 98
        1
 10
0.0
 20
0.0
  0
MTEXT
  5
B4
100
AcDbEntity
  8
0
390
0
 62
               0
100
AcDbMText
 10
-400.28664945977926
 20
-269.13042996003867
 30
0.0
 40
24.432617187500004
 41
0.0
 71
               1
 72
               1
  1
280
  7
ＭＳ ゴシック
 73
               1
 44
0.7828267384257843
  0
POINT
  5
B5
100
AcDbEntity
  8
Defpoints
370
               0
390
0
 62
               0
100
AcDbPoint
 10
-516.47414777760332
 20
-423.00804714753872
 30
0.0
  0
POINT
  5
B6
100
AcDbEntity
  8
Defpoints
370
               0
390
0
 62
               0
100
AcDbPoint
 10
-236.47414777760332
 20
-423.00804714753872
 30
0.0
  0
POINT
  5
B7
100
AcDbEntity
  8
Defpoints
370
               0
390
0
 62
               0
100
AcDbPoint
 10
-236.47414777760332
 20
-303.00804714753872
 30
0.0
  0
ENDBLK
  5
B8
100
AcDbEntity
  8
notes
390
0
100
AcDbBlockEnd
  0
BLOCK
  5
B9
100
AcDbEntity
  8
notes
390
0
100
AcDbBlockBegin
  2
*D10
 70
               1
 10
0.0
 20
0.0
 30
0.0
  3
*D10
  1

  0
LINE
  5
BA
100
AcDbEntity
  8
0
370
              -2
390
0
  6
Continuous
 62
               0
100
AcDbLine
 10
773.62304977723625
 20
-378.00804714753872
 30
0.0
 11
773.62304977723625
 21
-303.00804714753872
 31
0.0
  0
LINE
  5
BB
100
AcDbEntity
  8
0
370
              -2
390
0
  6
Continuous
 62
               0
100
AcDbLine
 10
838.62453844013771
 20
-379.29127456833135
 30
0.0
 11
838.62453844013771
 21
-303.00804714753872
 31
0.0
  0
LINE
  5
BC
100
AcDbEntity
  8
0
370
              -2
390
0
  6
Continuous
 62
               0
100
AcDbLine
 10
773.62304977723625
 20
-303.00804714753872
 30
0.0
 11
838.62453844013771
 21
-303.00804714753872
 31
0.0
  0
CIRCLE
  5
BD
102
{ACAD_REACTORS
330
BE
102
}
100
AcDbEntity
  8
0
370
              -2
390
0
  6
Continuous
 62
               0
100
AcDbCircle
 10
773.62304977723625
 20
-303.00804714753872
 30
0.0
 40
4.99969482421875
  0
HATCH
  5
BE
100
AcDbEntity
  8
0
370
              -2
390
0
  6
Continuous
 62
               0
100
AcDbHatch
 10
0.0
 20
0.0
 30
0.0
210
0.0
220
0.0
230
1.0
  2
SOLID
 70
               1
 71
               1
 91
        1
 92
        1
 93
        1
 72
               2
 10
773.62304977723625
 20
-303.00804714753872
 40
4.99969482421875
 50
0.0
 51
360.0
 73
               0
 97
        1
330
BD
 75
               0
 76
               1
 98
        1
 10
0.0
 20
0.0
  0
CIRCLE
  5
BF
102
{ACAD_REACTORS
330
C0
102
}
100
AcDbEntity
  8
0
370
              -2
390
0
  6
Continuous
 62
               0
100
AcDbCircle
 10
838.62453844013771
 20
-303.00804714753872
 30
0.0
 40
4.99969482421875
  0
HATCH
  5
C0
100
AcDbEntity
  8
0
370
              -2
390
0
  6
Continuous
 62
               0
100
AcDbHatch
 10
0.0
 20
0.0
 30
0.0
210
0.0
220
0.0
230
1.0
  2
SOLID
 70
               1
 71
               1
 91
        1
 92
        1
 93
        1
 72
               2
 10
838.62453844013771
 20
-303.00804714753872
 40
4.99969482421875
 50
0.0
 51
360.0
 73
               0
 97
        1
330
BF
 75
               0
 76
               1
 98
        1
 10
0.0
 20
0.0
  0
MTEXT
  5
C1
100
AcDbEntity
  8
0
390
0
 62
               0
100
AcDbMText
 10
790.24879410868698
 20
-269.13042996003867
 30
0.0
 40
24.432617187500004
 41
0.0
 71
               1
 72
               1
  1
65
  7
ＭＳ ゴシック
 73
               1
 44
0.7828267384257843
  0
POINT
  5
C2
100
AcDbEntity
  8
Defpoints
370
               0
390
0
 62
               0
100
AcDbPoint
 10
838.62453844013771
 20
-404.29127456833135
 30
0.0
  0
POINT
  5
C3
100
AcDbEntity
  8
Defpoints
370
               0
390
0
 62
               0
100
AcDbPoint
 10
773.62304977723625
 20
-403.00804714753872
 30
0.0
  0
POINT
  5
C4
100
AcDbEntity
  8
Defpoints
370
               0
390
0
 62
               0
100
AcDbPoint
 10
773.62304977723625
 20
-303.00804714753872
 30
0.0
  0
ENDBLK
  5
C5
100
AcDbEntity
  8
notes
390
0
100
AcDbBlockEnd
  0
BLOCK
  5
C6
100
AcDbEntity
  8
notes
390
0
100
AcDbBlockBegin
  2
*D11
 70
               1
 10
0.0
 20
0.0
 30
0.0
  3
*D11
  1

  0
LINE
  5
C7
100
AcDbEntity
  8
0
370
              -2
390
0
  6
Continuous
 62
               0
100
AcDbLine
 10
618.62453844013453
 20
-587.79665696844017
 30
0.0
 11
618.62453844013453
 21
-678.00804714753872
 31
0.0
  0
LINE
  5
C8
100
AcDbEntity
  8
0
370
              -2
390
0
  6
Continuous
 62
               0
100
AcDbLine
 10
838.62453844013771
 20
-554.77662515799807
 30
0.0
 11
838.62453844013771
 21
-678.00804714753872
 31
0.0
  0
LINE
  5
C9
100
AcDbEntity
  8
0
370
              -2
390
0
  6
Continuous
 62
               0
100
AcDbLine
 10
618.62453844013453
 20
-678.00804714753872
 30
0.0
 11
838.62453844013771
 21
-678.00804714753872
 31
0.0
  0
CIRCLE
  5
CA
102
{ACAD_REACTORS
330
CB
102
}
100
AcDbEntity
  8
0
370
              -2
390
0
  6
Continuous
 62
               0
100
AcDbCircle
 10
618.62453844013453
 20
-678.00804714753872
 30
0.0
 40
4.99969482421875
  0
HATCH
  5
CB
100
AcDbEntity
  8
0
370
              -2
390
0
  6
Continuous
 62
               0
100
AcDbHatch
 10
0.0
 20
0.0
 30
0.0
210
0.0
220
0.0
230
1.0
  2
SOLID
 70
               1
 71
               1
 91
        1
 92
        1
 93
        1
 72
               2
 10
618.62453844013453
 20
-678.00804714753872
 40
4.99969482421875
 50
0.0
 51
360.0
 73
               0
 97
        1
330
CA
 75
               0
 76
               1
 98
        1
 10
0.0
 20
0.0
  0
CIRCLE
  5
CC
102
{ACAD_REACTORS
330
CD
102
}
100
AcDbEntity
  8
0
370
              -2
390
0
  6
Continuous
 62
               0
100
AcDbCircle
 10
838.62453844013771
 20
-678.00804714753872
 30
0.0
 40
4.99969482421875
  0
HATCH
  5
CD
100
AcDbEntity
  8
0
370
              -2
390
0
  6
Continuous
 62
               0
100
AcDbHatch
 10
0.0
 20
0.0
 30
0.0
210
0.0
220
0.0
230
1.0
  2
SOLID
 70
               1
 71
               1
 91
        1
 92
        1
 93
        1
 72
               2
 10
838.62453844013771
 20
-678.00804714753872
 40
4.99969482421875
 50
0.0
 51
360.0
 73
               0
 97
        1
330
CC
 75
               0
 76
               1
 98
        1
 10
0.0
 20
0.0
  0
MTEXT
  5
CE
100
AcDbEntity
  8
0
390
0
 62
               0
100
AcDbMText
 10
704.81203675796087
 20
-644.13042996003878
 30
0.0
 40
24.432617187500004
 41
0.0
 71
               1
 72
               1
  1
220
  7
ＭＳ ゴシック
 73
               1
 44
0.7828267384257843
  0
POINT
  5
CF
100
AcDbEntity
  8
Defpoints
370
               0
390
0
 62
               0
100
AcDbPoint
 10
838.62453844013771
 20
-529.77662515799807
 30
0.0
  0
POINT
  5
D0
100
AcDbEntity
  8
Defpoints
370
               0
390
0
 62
               0
100
AcDbPoint
 10
618.62453844013453
 20
-562.79665696844017
 30
0.0
  0
POINT
  5
D1
100
AcDbEntity
  8
Defpoints
370
               0
390
0
 62
               0
100
AcDbPoint
 10
618.62453844013453
 20
-678.00804714753872
 30
0.0
  0
ENDBLK
  5
D2
100
AcDbEntity
  8
notes
390
0
100
AcDbBlockEnd
  0
BLOCK
  5
D3
100
AcDbEntity
  8
notes
390
0
100
AcDbBlockBegin
  2
*D12
 70
               1
 10
0.0
 20
0.0
 30
0.0
  3
*D12
  1

  0
LINE
  5
D4
100
AcDbEntity
  8
0
370
              -2
390
0
  6
Continuous
 62
               0
100
AcDbLine
 10
338.14859897781298
 20
-403.00804714753872
 30
0.0
 11
258.69143304469935
 21
-403.00804714753872
 31
0.0
  0
LINE
  5
D5
100
AcDbEntity
  8
0
370
              -2
390
0
  6
Continuous
 62
               0
100
AcDbLine
 10
338.5624334246595
 20
-423.00804714753872
 30
0.0
 11
258.69143304469935
 21
-423.00804714753872
 31
0.0
  0
LINE
  5
D6
100
AcDbEntity
  8
0
370
              -2
390
0
  6
Continuous
 62
               0
100
AcDbLine
 10
258.69143304469935
 20
-403.00804714753872
 30
0.0
 11
258.69143304469935
 21
-356.25
 31
0.0
  0
LINE
  5
D7
100
AcDbEntity
  8
0
370
              -2
390
0
  6
Continuous
 62
               0
100
AcDbLine
 10
258.69143304469935
 20
-403.00804714753872
 30
0.0
 11
258.69143304469935
 21
-423.00804714753872
 31
0.0
  0
CIRCLE
  5
D8
102
{ACAD_REACTORS
330
D9
102
}
100
AcDbEntity
  8
0
370
              -2
390
0
  6
Continuous
 62
               0
100
AcDbCircle
 10
258.69143304469935
 20
-403.00804714753872
 30
0.0
 40
4.99969482421875
  0
HATCH
  5
D9
100
AcDbEntity
  8
0
370
              -2
390
0
  6
Continuous
 62
               0
100
AcDbHatch
 10
0.0
 20
0.0
 30
0.0
210
0.0
220
0.0
230
1.0
  2
SOLID
 70
               1
 71
               1
 91
        1
 92
        1
 93
        1
 72
               2
 10
258.69143304469935
 20
-403.00804714753872
 40
4.99969482421875
 50
0.0
 51
360.0
 73
               0
 97
        1
330
D8
 75
               0
 76
               1
 98
        1
 10
0.0
 20
0.0
  0
CIRCLE
  5
DA
102
{ACAD_REACTORS
330
DB
102
}
100
AcDbEntity
  8
0
370
              -2
390
0
  6
Continuous
 62
               0
100
AcDbCircle
 10
258.69143304469935
 20
-423.00804714753872
 30
0.0
 40
4.99969482421875
  0
HATCH
  5
DB
100
AcDbEntity
  8
0
370
              -2
390
0
  6
Continuous
 62
               0
100
AcDbHatch
 10
0.0
 20
0.0
 30
0.0
210
0.0
220
0.0
230
1.0
  2
SOLID
 70
               1
 71
               1
 91
        1
 92
        1
 93
        1
 72
               2
 10
258.69143304469935
 20
-423.00804714753872
 40
4.99969482421875
 50
0.0
 51
360.0
 73
               0
 97
        1
330
DA
 75
               0
 76
               1
 98
        1
 10
0.0
 20
0.0
  0
MTEXT
  5
DC
100
AcDbEntity
  8
0
390
0
 62
               0
100
AcDbMText
 10
224.81381585719919
 20
-388.0
 30
0.0
 40
24.432617187500004
 41
0.0
 71
               1
 72
               1
  1
20
  7
ＭＳ ゴシック
 11
0.0
 21
1.0
 31
0.0
 73
               1
 44
0.7828267384257843
  0
POINT
  5
DD
100
AcDbEntity
  8
Defpoints
370
               0
390
0
 62
               0
100
AcDbPoint
 10
363.5624334246595
 20
-423.00804714753872
 30
0.0
  0
POINT
  5
DE
100
AcDbEntity
  8
Defpoints
370
               0
390
0
 62
               0
100
AcDbPoint
 10
363.14859897781298
 20
-403.00804714753872
 30
0.0
  0
POINT
  5
DF
100
AcDbEntity
  8
Defpoints
370
               0
390
0
 62
               0
100
AcDbPoint
 10
258.69143304469935
 20
-403.00804714753872
 30
0.0
  0
ENDBLK
  5
E0
100
AcDbEntity
  8
notes
390
0
100
AcDbBlockEnd
  0
BLOCK
  5
E1
100
AcDbEntity
  8
notes
390
0
100
AcDbBlockBegin
  2
*D13
 70
               1
 10
0.0
 20
0.0
 30
0.0
  3
*D13
  1

  0
LINE
  5
E2
100
AcDbEntity
  8
0
370
              -2
390
0
  6
Continuous
 62
               0
100
AcDbLine
 10
479.39447424434547
 20
-563.00804714753872
 30
0.0
 11
258.4414330446989
 21
-563.00804714753872
 31
0.0
  0
LINE
  5
E3
100
AcDbEntity
  8
0
370
              -2
390
0
  6
Continuous
 62
               0
100
AcDbLine
 10
338.5624334246595
 20
-423.00804714753872
 30
0.0
 11
258.4414330446989
 21
-423.00804714753872
 31
0.0
  0
LINE
  5
E4
100
AcDbEntity
  8
0
370
              -2
390
0
  6
Continuous
 62
               0
100
AcDbLine
 10
258.4414330446989
 20
-563.00804714753872
 30
0.0
 11
258.4414330446989
 21
-423.00804714753872
 31
0.0
  0
CIRCLE
  5
E5
102
{ACAD_REACTORS
330
E6
102
}
100
AcDbEntity
  8
0
370
              -2
390
0
  6
Continuous
 62
               0
100
AcDbCircle
 10
258.4414330446989
 20
-563.00804714753872
 30
0.0
 40
4.99969482421875
  0
HATCH
  5
E6
100
AcDbEntity
  8
0
370
              -2
390
0
  6
Continuous
 62
               0
100
AcDbHatch
 10
0.0
 20
0.0
 30
0.0
210
0.0
220
0.0
230
1.0
  2
SOLID
 70
               1
 71
               1
 91
        1
 92
        1
 93
        1
 72
               2
 10
258.4414330446989
 20
-563.00804714753872
 40
4.99969482421875
 50
0.0
 51
360.0
 73
               0
 97
        1
330
E5
 75
               0
 76
               1
 98
        1
 10
0.0
 20
0.0
  0
CIRCLE
  5
E7
102
{ACAD_REACTORS
330
E8
102
}
100
AcDbEntity
  8
0
370
              -2
390
0
  6
Continuous
 62
               0
100
AcDbCircle
 10
258.4414330446989
 20
-423.00804714753872
 30
0.0
 40
4.99969482421875
  0
HATCH
  5
E8
100
AcDbEntity
  8
0
370
              -2
390
0
  6
Continuous
 62
               0
100
AcDbHatch
 10
0.0
 20
0.0
 30
0.0
210
0.0
220
0.0
230
1.0
  2
SOLID
 70
               1
 71
               1
 91
        1
 92
        1
 93
        1
 72
               2
 10
258.4414330446989
 20
-423.00804714753872
 40
4.99969482421875
 50
0.0
 51
360.0
 73
               0
 97
        1
330
E7
 75
               0
 76
               1
 98
        1
 10
0.0
 20
0.0
  0
MTEXT
  5
E9
100
AcDbEntity
  8
0
390
0
 62
               0
100
AcDbMText
 10
224.56381585719873
 20
-502.6108820861275
 30
0.0
 40
24.432617187500004
 41
0.0
 71
               1
 72
               1
  1
140
  7
ＭＳ ゴシック
 11
0.0
 21
1.0
 31
0.0
 73
               1
 44
0.7828267384257843
  0
POINT
  5
EA
100
AcDbEntity
  8
Defpoints
370
               0
390
0
 62
               0
100
AcDbPoint
 10
363.5624334246595
 20
-423.00804714753872
 30
0.0
  0
POINT
  5
EB
100
AcDbEntity
  8
Defpoints
370
               0
390
0
 62
               0
100
AcDbPoint
 10
504.39447424434547
 20
-563.00804714753872
 30
0.0
  0
POINT
  5
EC
100
AcDbEntity
  8
Defpoints
370
               0
390
0
 62
               0
100
AcDbPoint
 10
258.4414330446989
 20
-563.00804714753872
 30
0.0
  0
ENDBLK
  5
ED
100
AcDbEntity
  8
notes
390
0
100
AcDbBlockEnd
  0
BLOCK
  5
EE
100
AcDbEntity
  8
notes
390
0
100
AcDbBlockBegin
  2
*D14
 70
               1
 10
0.0
 20
0.0
 30
0.0
  3
*D14
  1

  0
LINE
  5
EF
100
AcDbEntity
  8
0
370
              -2
390
0
  6
Continuous
 62
               0
100
AcDbLine
 10
479.39447424434547
 20
-563.00804714753872
 30
0.0
 11
258.56643304469935
 21
-563.00804714753872
 31
0.0
  0
LINE
  5
F0
100
AcDbEntity
  8
0
370
              -2
390
0
  6
Continuous
 62
               0
100
AcDbLine
 10
570.70492990635103
 20
-578.00804714753872
 30
0.0
 11
258.56643304469935
 21
-578.00804714753872
 31
0.0
  0
LINE
  5
F1
100
AcDbEntity
  8
0
370
              -2
390
0
  6
Continuous
 62
               0
100
AcDbLine
 10
258.56643304469935
 20
-578.00804714753872
 30
0.0
 11
258.56643304469935
 21
-625.63304714753872
 31
0.0
  0
LINE
  5
F2
100
AcDbEntity
  8
0
370
              -2
390
0
  6
Continuous
 62
               0
100
AcDbLine
 10
258.56643304469935
 20
-563.00804714753872
 30
0.0
 11
258.56643304469935
 21
-578.00804714753872
 31
0.0
  0
CIRCLE
  5
F3
102
{ACAD_REACTORS
330
F4
102
}
100
AcDbEntity
  8
0
370
              -2
390
0
  6
Continuous
 62
               0
100
AcDbCircle
 10
258.56643304469935
 20
-563.00804714753872
 30
0.0
 40
4.99969482421875
  0
HATCH
  5
F4
100
AcDbEntity
  8
0
370
              -2
390
0
  6
Continuous
 62
               0
100
AcDbHatch
 10
0.0
 20
0.0
 30
0.0
210
0.0
220
0.0
230
1.0
  2
SOLID
 70
               1
 71
               1
 91
        1
 92
        1
 93
        1
 72
               2
 10
258.56643304469935
 20
-563.00804714753872
 40
4.99969482421875
 50
0.0
 51
360.0
 73
               0
 97
        1
330
F3
 75
               0
 76
               1
 98
        1
 10
0.0
 20
0.0
  0
CIRCLE
  5
F5
102
{ACAD_REACTORS
330
F6
102
}
100
AcDbEntity
  8
0
370
              -2
390
0
  6
Continuous
 62
               0
100
AcDbCircle
 10
258.56643304469935
 20
-578.00804714753872
 30
0.0
 40
4.99969482421875
  0
HATCH
  5
F6
100
AcDbEntity
  8
0
370
              -2
390
0
  6
Continuous
 62
               0
100
AcDbHatch
 10
0.0
 20
0.0
 30
0.0
210
0.0
220
0.0
230
1.0
  2
SOLID
 70
               1
 71
               1
 91
        1
 92
        1
 93
        1
 72
               2
 10
258.56643304469935
 20
-578.00804714753872
 40
4.99969482421875
 50
0.0
 51
360.0
 73
               0
 97
        1
330
F5
 75
               0
 76
               1
 98
        1
 10
0.0
 20
0.0
  0
MTEXT
  5
F7
100
AcDbEntity
  8
0
390
0
 62
               0
100
AcDbMText
 10
224.68881585719919
 20
-625.63304714753872
 30
0.0
 40
24.432617187500004
 41
0.0
 71
               1
 72
               1
  1
15
  7
ＭＳ ゴシック
 11
0.0
 21
1.0
 31
0.0
 73
               1
 44
0.7828267384257843
  0
POINT
  5
F8
100
AcDbEntity
  8
Defpoints
370
               0
390
0
 62
               0
100
AcDbPoint
 10
595.70492990635103
 20
-578.00804714753872
 30
0.0
  0
POINT
  5
F9
100
AcDbEntity
  8
Defpoints
370
               0
390
0
 62
               0
100
AcDbPoint
 10
504.39447424434547
 20
-563.00804714753872
 30
0.0
  0
POINT
  5
FA
100
AcDbEntity
  8
Defpoints
370
               0
390
0
 62
               0
100
AcDbPoint
 10
258.56643304469935
 20
-563.00804714753872
 30
0.0
  0
ENDBLK
  5
FB
100
AcDbEntity
  8
notes
390
0
100
AcDbBlockEnd
  0
BLOCK
  5
FC
100
AcDbEntity
  8
notes
390
0
100
AcDbBlockBegin
  2
*D15
 70
               1
 10
0.0
 20
0.0
 30
0.0
  3
*D15
  1

  0
LINE
  5
FD
100
AcDbEntity
  8
0
370
              -2
390
0
  6
Continuous
 62
               0
100
AcDbLine
 10
582.41178637015491
 20
-523.00804714753872
 30
0.0
 11
577.48455655542512
 21
-523.00804714753872
 31
0.0
  0
LINE
  5
FE
100
AcDbEntity
  8
0
370
              -2
390
0
  6
Continuous
 62
               0
100
AcDbLine
 10
582.41178637015491
 20
-403.00804714753872
 30
0.0
 11
577.48455655542512
 21
-403.00804714753872
 31
0.0
  0
LINE
  5
FF
100
AcDbEntity
  8
0
370
              -2
390
0
  6
Continuous
 62
               0
100
AcDbLine
 10
577.48455655542512
 20
-403.00804714753872
 30
0.0
 11
577.48455655542512
 21
-243.92338040395202
 31
0.0
  0
LINE
  5
100
100
AcDbEntity
  8
0
370
              -2
390
0
  6
Continuous
 62
               0
100
AcDbLine
 10
577.48455655542512
 20
-523.00804714753872
 30
0.0
 11
577.48455655542512
 21
-403.00804714753872
 31
0.0
  0
CIRCLE
  5
101
102
{ACAD_REACTORS
330
102
102
}
100
AcDbEntity
  8
0
370
              -2
390
0
  6
Continuous
 62
               0
100
AcDbCircle
 10
577.48455655542512
 20
-523.00804714753872
 30
0.0
 40
4.99969482421875
  0
HATCH
  5
102
100
AcDbEntity
  8
0
370
              -2
390
0
  6
Continuous
 62
               0
100
AcDbHatch
 10
0.0
 20
0.0
 30
0.0
210
0.0
220
0.0
230
1.0
  2
SOLID
 70
               1
 71
               1
 91
        1
 92
        1
 93
        1
 72
               2
 10
577.48455655542512
 20
-523.00804714753872
 40
4.99969482421875
 50
0.0
 51
360.0
 73
               0
 97
        1
330
101
 75
               0
 76
               1
 98
        1
 10
0.0
 20
0.0
  0
CIRCLE
  5
103
102
{ACAD_REACTORS
330
104
102
}
100
AcDbEntity
  8
0
370
              -2
390
0
  6
Continuous
 62
               0
100
AcDbCircle
 10
577.48455655542512
 20
-403.00804714753872
 30
0.0
 40
4.99969482421875
  0
HATCH
  5
104
100
AcDbEntity
  8
0
370
              -2
390
0
  6
Continuous
 62
               0
100
AcDbHatch
 10
0.0
 20
0.0
 30
0.0
210
0.0
220
0.0
230
1.0
  2
SOLID
 70
               1
 71
               1
 91
        1
 92
        1
 93
        1
 72
               2
 10
577.48455655542512
 20
-403.00804714753872
 40
4.99969482421875
 50
0.0
 51
360.0
 73
               0
 97
        1
330
103
 75
               0
 76
               1
 98
        1
 10
0.0
 20
0.0
  0
MTEXT
  5
105
100
AcDbEntity
  8
0
390
0
 62
               0
100
AcDbMText
 10
543.60693936792495
 20
-386.79838040395202
 30
0.0
 40
24.432617187500004
 41
0.0
 71
               1
 72
               1
  1
120(深さ)
  7
ＭＳ ゴシック
 11
0.0
 21
1.0
 31
0.0
 73
               1
 44
0.7828267384257843
  0
POINT
  5
106
100
AcDbEntity
  8
Defpoints
370
               0
390
0
 62
               0
100
AcDbPoint
 10
557.41178637015491
 20
-403.00804714753872
 30
0.0
  0
POINT
  5
107
100
AcDbEntity
  8
Defpoints
370
               0
390
0
 62
               0
100
AcDbPoint
 10
557.41178637015491
 20
-523.00804714753872
 30
0.0
  0
POINT
  5
108
100
AcDbEntity
  8
Defpoints
370
               0
390
0
 62
               0
100
AcDbPoint
 10
577.48455655542512
 20
-523.00804714753872
 30
0.0
  0
ENDBLK
  5
109
100
AcDbEntity
  8
notes
390
0
100
AcDbBlockEnd
  0
BLOCK
  5
10A
100
AcDbEntity
  8
notes
390
0
100
AcDbBlockBegin
  2
*D16
 70
               1
 10
0.0
 20
0.0
 30
0.0
  3
*D16
  1

  0
LINE
  5
10B
100
AcDbEntity
  8
0
370
              -2
390
0
  6
Continuous
 62
               0
100
AcDbLine
 10
-561.47414777760332
 20
-443.00804714753872
 30
0.0
 11
-876.47414777514859
 21
-443.00804714753872
 31
0.0
  0
LINE
  5
10C
100
AcDbEntity
  8
0
370
              -2
390
0
  6
Continuous
 62
               0
100
AcDbLine
 10
-797.27070626321347
 20
-403.00804714753872
 30
0.0
 11
-876.47414777514859
 21
-403.00804714753872
 31
0.0
  0
LINE
  5
10D
100
AcDbEntity
  8
0
370
              -2
390
0
  6
Continuous
 62
               0
100
AcDbLine
 10
-876.47414777514859
 20
-443.00804714753872
 30
0.0
 11
-876.47414777514859
 21
-403.00804714753872
 31
0.0
  0
CIRCLE
  5
10E
102
{ACAD_REACTORS
330
10F
102
}
100
AcDbEntity
  8
0
370
              -2
390
0
  6
Continuous
 62
               0
100
AcDbCircle
 10
-876.47414777514859
 20
-443.00804714753872
 30
0.0
 40
4.99969482421875
  0
HATCH
  5
10F
100
AcDbEntity
  8
0
370
              -2
390
0
  6
Continuous
 62
               0
100
AcDbHatch
 10
0.0
 20
0.0
 30
0.0
210
0.0
220
0.0
230
1.0
  2
SOLID
 70
               1
 71
               1
 91
        1
 92
        1
 93
        1
 72
               2
 10
-876.47414777514859
 20
-443.00804714753872
 40
4.99969482421875
 50
0.0
 51
360.0
 73
               0
 97
        1
330
10E
 75
               0
 76
               1
 98
        1
 10
0.0
 20
0.0
  0
CIRCLE
  5
110
102
{ACAD_REACTORS
330
111
102
}
100
AcDbEntity
  8
0
370
              -2
390
0
  6
Continuous
 62
               0
100
AcDbCircle
 10
-876.47414777514859
 20
-403.00804714753872
 30
0.0
 40
4.99969482421875
  0
HATCH
  5
111
100
AcDbEntity
  8
0
370
              -2
390
0
  6
Continuous
 62
               0
100
AcDbHatch
 10
0.0
 20
0.0
 30
0.0
210
0.0
220
0.0
230
1.0
  2
SOLID
 70
               1
 71
               1
 91
        1
 92
        1
 93
        1
 72
               2
 10
-876.47414777514859
 20
-403.00804714753872
 40
4.99969482421875
 50
0.0
 51
360.0
 73
               0
 97
        1
330
110
 75
               0
 76
               1
 98
        1
 10
0.0
 20
0.0
  0
MTEXT
  5
112
100
AcDbEntity
  8
0
390
0
 62
               0
100
AcDbMText
 10
-910.3517649626483
 20
-438.88304714753872
 30
0.0
 40
24.432617187500004
 41
0.0
 71
               1
 72
               1
  1
40
  7
ＭＳ ゴシック
 11
0.0
 21
1.0
 31
0.0
 73
               1
 44
0.7828267384257843
  0
POINT
  5
113
100
AcDbEntity
  8
Defpoints
370
               0
390
0
 62
               0
100
AcDbPoint
 10
-772.27070626321347
 20
-403.00804714753872
 30
0.0
  0
POINT
  5
114
100
AcDbEntity
  8
Defpoints
370
               0
390
0
 62
               0
100
AcDbPoint
 10
-536.47414777760332
 20
-443.00804714753872
 30
0.0
  0
POINT
  5
115
100
AcDbEntity
  8
Defpoints
370
               0
390
0
 62
               0
100
AcDbPoint
 10
-876.47414777514859
 20
-443.00804714753872
 30
0.0
  0
ENDBLK
  5
116
100
AcDbEntity
  8
notes
390
0
100
AcDbBlockEnd
  0
BLOCK
  5
117
100
AcDbEntity
  8
notes
390
0
100
AcDbBlockBegin
  2
*D17
 70
               1
 10
0.0
 20
0.0
 30
0.0
  3
*D17
  1

  0
LINE
  5
118
100
AcDbEntity
  8
0
370
              -2
390
0
  6
Continuous
 62
               0
100
AcDbLine
 10
-320.12757023222093
 20
-578.00804714753872
 30
0.0
 11
123.52585221994104
 21
-578.00804714753872
 31
0.0
  0
LINE
  5
119
100
AcDbEntity
  8
0
370
              -2
390
0
  6
Continuous
 62
               0
100
AcDbLine
 10
44.688315383144072
 20
-403.00804714753872
 30
0.0
 11
123.52585221994104
 21
-403.00804714753872
 31
0.0
  0
LINE
  5
11A
100
AcDbEntity
  8
0
370
              -2
390
0
  6
Continuous
 62
               0
100
AcDbLine
 10
123.52585221994104
 20
-578.00804714753872
 30
0.0
 11
123.52585221994104
 21
-403.00804714753872
 31
0.0
  0
CIRCLE
  5
11B
102
{ACAD_REACTORS
330
11C
102
}
100
AcDbEntity
  8
0
370
              -2
390
0
  6
Continuous
 62
               0
100
AcDbCircle
 10
123.52585221994104
 20
-578.00804714753872
 30
0.0
 40
4.99969482421875
  0
HATCH
  5
11C
100
AcDbEntity
  8
0
370
              -2
390
0
  6
Continuous
 62
               0
100
AcDbHatch
 10
0.0
 20
0.0
 30
0.0
210
0.0
220
0.0
230
1.0
  2
SOLID
 70
               1
 71
               1
 91
        1
 92
        1
 93
        1
 72
               2
 10
123.52585221994104
 20
-578.00804714753872
 40
4.99969482421875
 50
0.0
 51
360.0
 73
               0
 97
        1
330
11B
 75
               0
 76
               1
 98
        1
 10
0.0
 20
0.0
  0
CIRCLE
  5
11D
102
{ACAD_REACTORS
330
11E
102
}
100
AcDbEntity
  8
0
370
              -2
390
0
  6
Continuous
 62
               0
100
AcDbCircle
 10
123.52585221994104
 20
-403.00804714753872
 30
0.0
 40
4.99969482421875
  0
HATCH
  5
11E
100
AcDbEntity
  8
0
370
              -2
390
0
  6
Continuous
 62
               0
100
AcDbHatch
 10
0.0
 20
0.0
 30
0.0
210
0.0
220
0.0
230
1.0
  2
SOLID
 70
               1
 71
               1
 91
        1
 92
        1
 93
        1
 72
               2
 10
123.52585221994104
 20
-403.00804714753872
 40
4.99969482421875
 50
0.0
 51
360.0
 73
               0
 97
        1
330
11D
 75
               0
 76
               1
 98
        1
 10
0.0
 20
0.0
  0
MTEXT
  5
11F
100
AcDbEntity
  8
0
390
0
 62
               0
100
AcDbMText
 10
89.648235032440425
 20
-510.71753975225101
 30
0.0
 40
24.432617187500004
 41
0.0
 71
               1
 72
               1
  1
175
  7
ＭＳ ゴシック
 11
0.0
 21
1.0
 31
0.0
 73
               1
 44
0.7828267384257843
  0
POINT
  5
120
100
AcDbEntity
  8
Defpoints
370
               0
390
0
 62
               0
100
AcDbPoint
 10
19.688315383144072
 20
-403.00804714753872
 30
0.0
  0
POINT
  5
121
100
AcDbEntity
  8
Defpoints
370
               0
390
0
 62
               0
100
AcDbPoint
 10
-345.12757023222093
 20
-578.00804714753872
 30
0.0
  0
POINT
  5
122
100
AcDbEntity
  8
Defpoints
370
               0
390
0
 62
               0
100
AcDbPoint
 10
123.52585221994104
 20
-578.00804714753872
 30
0.0
  0
ENDBLK
  5
123
100
AcDbEntity
  8
notes
390
0
100
AcDbBlockEnd
  0
BLOCK
  5
124
100
AcDbEntity
  8
notes
390
0
100
AcDbBlockBegin
  2
*D18
 70
               1
 10
0.0
 20
0.0
 30
0.0
  3
*D18
  1

  0
LINE
  5
125
100
AcDbEntity
  8
0
370
              -2
390
0
  6
Continuous
 62
               0
100
AcDbLine
 10
-476.38267160881969
 20
787.76753574023382
 30
0.0
 11
-476.38267160881969
 21
910.26753574023382
 31
0.0
  0
LINE
  5
126
100
AcDbEntity
  8
0
370
              -2
390
0
  6
Continuous
 62
               0
100
AcDbLine
 10
-376.38267160881969
 20
787.76753574023382
 30
0.0
 11
-376.38267160881969
 21
910.26753574023382
 31
0.0
  0
LINE
  5
127
100
AcDbEntity
  8
0
370
              -2
390
0
  6
Continuous
 62
               0
100
AcDbLine
 10
-476.38267160881969
 20
910.26753574023382
 30
0.0
 11
-376.38267160881969
 21
910.26753574023382
 31
0.0
  0
CIRCLE
  5
128
102
{ACAD_REACTORS
330
129
102
}
100
AcDbEntity
  8
0
370
              -2
390
0
  6
Continuous
 62
               0
100
AcDbCircle
 10
-476.38267160881969
 20
910.26753574023382
 30
0.0
 40
4.99969482421875
  0
HATCH
  5
129
100
AcDbEntity
  8
0
370
              -2
390
0
  6
Continuous
 62
               0
100
AcDbHatch
 10
0.0
 20
0.0
 30
0.0
210
0.0
220
0.0
230
1.0
  2
SOLID
 70
               1
 71
               1
 91
        1
 92
        1
 93
        1
 72
               2
 10
-476.38267160881969
 20
910.26753574023382
 40
4.99969482421875
 50
0.0
 51
360.0
 73
               0
 97
        1
330
128
 75
               0
 76
               1
 98
        1
 10
0.0
 20
0.0
  0
CIRCLE
  5
12A
102
{ACAD_REACTORS
330
12B
102
}
100
AcDbEntity
  8
0
370
              -2
390
0
  6
Continuous
 62
               0
100
AcDbCircle
 10
-376.38267160881969
 20
910.26753574023382
 30
0.0
 40
4.99969482421875
  0
HATCH
  5
12B
100
AcDbEntity
  8
0
370
              -2
390
0
  6
Continuous
 62
               0
100
AcDbHatch
 10
0.0
 20
0.0
 30
0.0
210
0.0
220
0.0
230
1.0
  2
SOLID
 70
               1
 71
               1
 91
        1
 92
        1
 93
        1
 72
               2
 10
-376.38267160881969
 20
910.26753574023382
 40
4.99969482421875
 50
0.0
 51
360.0
 73
               0
 97
        1
330
12A
 75
               0
 76
               1
 98
        1
 10
0.0
 20
0.0
  0
MTEXT
  5
12C
100
AcDbEntity
  8
0
390
0
 62
               0
100
AcDbMText
 10
-450.19517329099563
 20
944.14515292773376
 30
0.0
 40
24.432617187500004
 41
0.0
 71
               1
 72
               1
  1
100
  7
ＭＳ ゴシック
 73
               1
 44
0.7828267384257843
  0
POINT
  5
12D
100
AcDbEntity
  8
Defpoints
370
               0
390
0
 62
               0
100
AcDbPoint
 10
-376.38267160881969
 20
762.76753574023382
 30
0.0
  0
POINT
  5
12E
100
AcDbEntity
  8
Defpoints
370
               0
390
0
 62
               0
100
AcDbPoint
 10
-476.38267160881969
 20
762.76753574023382
 30
0.0
  0
POINT
  5
12F
100
AcDbEntity
  8
Defpoints
370
               0
390
0
 62
               0
100
AcDbPoint
 10
-476.38267160881969
 20
910.26753574023382
 30
0.0
  0
ENDBLK
  5
130
100
AcDbEntity
  8
notes
390
0
100
AcDbBlockEnd
  0
BLOCK
  5
131
100
AcDbEntity
  8
notes
390
0
100
AcDbBlockBegin
  2
*D19
 70
               1
 10
0.0
 20
0.0
 30
0.0
  3
*D19
  1

  0
LINE
  5
132
100
AcDbEntity
  8
0
370
              -2
390
0
  6
Continuous
 62
               0
100
AcDbLine
 10
-376.38267160881969
 20
787.76753574023382
 30
0.0
 11
-376.38267160881969
 21
910.26753574023382
 31
0.0
  0
LINE
  5
133
100
AcDbEntity
  8
0
370
              -2
390
0
  6
Continuous
 62
               0
100
AcDbLine
 10
-276.38267160881969
 20
787.76753574023382
 30
0.0
 11
-276.38267160881969
 21
910.26753574023382
 31
0.0
  0
LINE
  5
134
100
AcDbEntity
  8
0
370
              -2
390
0
  6
Continuous
 62
               0
100
AcDbLine
 10
-376.38267160881969
 20
910.26753574023382
 30
0.0
 11
-276.38267160881969
 21
910.26753574023382
 31
0.0
  0
CIRCLE
  5
135
102
{ACAD_REACTORS
330
136
102
}
100
AcDbEntity
  8
0
370
              -2
390
0
  6
Continuous
 62
               0
100
AcDbCircle
 10
-376.38267160881969
 20
910.26753574023382
 30
0.0
 40
4.99969482421875
  0
HATCH
  5
136
100
AcDbEntity
  8
0
370
              -2
390
0
  6
Continuous
 62
               0
100
AcDbHatch
 10
0.0
 20
0.0
 30
0.0
210
0.0
220
0.0
230
1.0
  2
SOLID
 70
               1
 71
               1
 91
        1
 92
        1
 93
        1
 72
               2
 10
-376.38267160881969
 20
910.26753574023382
 40
4.99969482421875
 50
0.0
 51
360.0
 73
               0
 97
        1
330
135
 75
               0
 76
               1
 98
        1
 10
0.0
 20
0.0
  0
CIRCLE
  5
137
102
{ACAD_REACTORS
330
138
102
}
100
AcDbEntity
  8
0
370
              -2
390
0
  6
Continuous
 62
               0
100
AcDbCircle
 10
-276.38267160881969
 20
910.26753574023382
 30
0.0
 40
4.99969482421875
  0
HATCH
  5
138
100
AcDbEntity
  8
0
370
              -2
390
0
  6
Continuous
 62
               0
100
AcDbHatch
 10
0.0
 20
0.0
 30
0.0
210
0.0
220
0.0
230
1.0
  2
SOLID
 70
               1
 71
               1
 91
        1
 92
        1
 93
        1
 72
               2
 10
-276.38267160881969
 20
910.26753574023382
 40
4.99969482421875
 50
0.0
 51
360.0
 73
               0
 97
        1
330
137
 75
               0
 76
               1
 98
        1
 10
0.0
 20
0.0
  0
MTEXT
  5
139
100
AcDbEntity
  8
0
390
0
 62
               0
100
AcDbMText
 10
-350.19517329099563
 20
944.14515292773376
 30
0.0
 40
24.432617187500004
 41
0.0
 71
               1
 72
               1
  1
100
  7
ＭＳ ゴシック
 73
               1
 44
0.7828267384257843
  0
POINT
  5
13A
100
AcDbEntity
  8
Defpoints
370
               0
390
0
 62
               0
100
AcDbPoint
 10
-276.38267160881969
 20
762.76753574023382
 30
0.0
  0
POINT
  5
13B
100
AcDbEntity
  8
Defpoints
370
               0
390
0
 62
               0
100
AcDbPoint
 10
-376.38267160881969
 20
762.76753574023382
 30
0.0
  0
POINT
  5
13C
100
AcDbEntity
  8
Defpoints
370
               0
390
0
 62
               0
100
AcDbPoint
 10
-376.38267160881969
 20
910.26753574023382
 30
0.0
  0
ENDBLK
  5
13D
100
AcDbEntity
  8
notes
390
0
100
AcDbBlockEnd
  0
BLOCK
  5
13E
100
AcDbEntity
  8
notes
390
0
100
AcDbBlockBegin
  2
*D20
 70
               1
 10
0.0
 20
0.0
 30
0.0
  3
*D20
  1

  0
LINE
  5
13F
100
AcDbEntity
  8
0
370
              -2
390
0
  6
Continuous
 62
               0
100
AcDbLine
 10
-641.47414777514769
 20
305.26753574023382
 30
0.0
 11
-641.47414777514769
 21
230.26604832285534
 31
0.0
  0
LINE
  5
140
100
AcDbEntity
  8
0
370
              -2
390
0
  6
Continuous
 62
               0
100
AcDbLine
 10
-776.47414777514769
 20
312.76114449363899
 30
0.0
 11
-776.47414777514769
 21
230.26604832285534
 31
0.0
  0
LINE
  5
141
100
AcDbEntity
  8
0
370
              -2
390
0
  6
Continuous
 62
               0
100
AcDbLine
 10
-641.47414777514769
 20
230.26604832285534
 30
0.0
 11
-776.47414777514769
 21
230.26604832285534
 31
0.0
  0
CIRCLE
  5
142
102
{ACAD_REACTORS
330
143
102
}
100
AcDbEntity
  8
0
370
              -2
390
0
  6
Continuous
 62
               0
100
AcDbCircle
 10
-641.47414777514769
 20
230.26604832285534
 30
0.0
 40
4.99969482421875
  0
HATCH
  5
143
100
AcDbEntity
  8
0
370
              -2
390
0
  6
Continuous
 62
               0
100
AcDbHatch
 10
0.0
 20
0.0
 30
0.0
210
0.0
220
0.0
230
1.0
  2
SOLID
 70
               1
 71
               1
 91
        1
 92
        1
 93
        1
 72
               2
 10
-641.47414777514769
 20
230.26604832285534
 40
4.99969482421875
 50
0.0
 51
360.0
 73
               0
 97
        1
330
142
 75
               0
 76
               1
 98
        1
 10
0.0
 20
0.0
  0
CIRCLE
  5
144
102
{ACAD_REACTORS
330
145
102
}
100
AcDbEntity
  8
0
370
              -2
390
0
  6
Continuous
 62
               0
100
AcDbCircle
 10
-776.47414777514769
 20
230.26604832285534
 30
0.0
 40
4.99969482421875
  0
HATCH
  5
145
100
AcDbEntity
  8
0
370
              -2
390
0
  6
Continuous
 62
               0
100
AcDbHatch
 10
0.0
 20
0.0
 30
0.0
210
0.0
220
0.0
230
1.0
  2
SOLID
 70
               1
 71
               1
 91
        1
 92
        1
 93
        1
 72
               2
 10
-776.47414777514769
 20
230.26604832285534
 40
4.99969482421875
 50
0.0
 51
360.0
 73
               0
 97
        1
330
144
 75
               0
 76
               1
 98
        1
 10
0.0
 20
0.0
  0
MTEXT
  5
146
100
AcDbEntity
  8
0
390
0
 62
               0
100
AcDbMText
 10
-732.78664945732362
 20
264.14366551035528
 30
0.0
 40
24.432617187500004
 41
0.0
 71
               1
 72
               1
  1
135
  7
ＭＳ ゴシック
 73
               1
 44
0.7828267384257843
  0
POINT
  5
147
100
AcDbEntity
  8
Defpoints
370
               0
390
0
 62
               0
100
AcDbPoint
 10
-776.47414777514769
 20
337.76114449363899
 30
0.0
  0
POINT
  5
148
100
AcDbEntity
  8
Defpoints
370
               0
390
0
 62
               0
100
AcDbPoint
 10
-641.47414777514769
 20
330.26753574023382
 30
0.0
  0
POINT
  5
149
100
AcDbEntity
  8
Defpoints
370
               0
390
0
 62
               0
100
AcDbPoint
 10
-641.47414777514769
 20
230.26604832285534
 30
0.0
  0
ENDBLK
  5
14A
100
AcDbEntity
  8
notes
390
0
100
AcDbBlockEnd
  0
ENDSEC
  0
SECTION
  2
ENTITIES
  0
MTEXT
  5
14B
100
AcDbEntity
  8
template
390
0
 62
               7
100
AcDbMText
 10
-967.99999999975898
 20
-1147.4176292337006
 30
0.0
 40
16.288411458333332
 41
0.0
 71
               1
 72
               1
  1
品名
  7
ＭＳ ゴシック
 73
               1
 44
0.7828267384257843
  0
MTEXT
  5
14C
100
AcDbEntity
  8
template
390
0
 62
               7
100
AcDbMText
 10
-967.99999999975898
 20
-1232.4176292337006
 30
0.0
 40
16.288411458333332
 41
0.0
 71
               1
 72
               1
  1
仕様
  7
ＭＳ ゴシック
 73
               1
 44
0.7828267384257843
  0
MTEXT
  5
14D
100
AcDbEntity
  8
template
390
0
 62
               7
100
AcDbMText
 10
-914.99999999975898
 20
-1176.0000901712006
 30
0.0
 40
24.432617187500004
 41
0.0
 71
               1
 72
               1
  1
洗面器 -CATALANO,Star-
  7
ＭＳ ゴシック
 73
               1
 44
0.7828267384257843
  0
LINE
  5
14E
100
AcDbEntity
  8
template
370
               5
390
0
  6
Continuous
 62
               7
100
AcDbLine
 10
974.99999999975898
 20
-1224.0027073587005
 30
0.0
 11
-975.00000000024102
 21
-1224.0027073587005
 31
0.0
  0
LWPOLYLINE
  5
14F
100
AcDbEntity
  8
template
370
               5
390
0
  6
Continuous
 62
               7
100
AcDbPolyline
 90
        5
 70
             128
 10
975.00000000024102
 20
1405.9972926412997
 10
-974.99999999975898
 20
1405.9972926412997
 10
-974.99999999975898
 20
-1394.0027073587005
 10
975.00000000024102
 20
-1394.0027073587005
 10
975.00000000024102
 20
1405.9972926412997
  0
LINE
  5
150
100
AcDbEntity
  8
template
370
               5
390
0
  6
Continuous
 62
               7
100
AcDbLine
 10
974.99999999975898
 20
-1139.0027073587005
 30
0.0
 11
-975.00000000024102
 21
-1139.0027073587005
 31
0.0
  0
LINE
  5
151
100
AcDbEntity
  8
template
370
               5
390
0
  6
Continuous
 62
               7
100
AcDbLine
 10
975.00000000024102
 20
-1309.0027073587005
 30
0.0
 11
222.00000000024102
 21
-1309.0027073587005
 31
0.0
  0
MTEXT
  5
152
100
AcDbEntity
  8
template
390
0
 62
               7
100
AcDbMText
 10
-974.99999999955617
 20
-1405.8565294155574
 30
0.0
 40
21.717881944444446
 41
0.0
 71
               1
 72
               1
  1
120411SO
  7
ＭＳ ゴシック
 73
               1
 44
0.7828267384257843
  0
MTEXT
  5
153
100
AcDbEntity
  8
template
390
0
 62
               7
100
AcDbMText
 10
251.87140625250095
 20
-1338.9131018320081
 30
0.0
 40
24.432617187500004
 41
0.0
 71
               1
 72
               1
  1
大洋金物株式会社 ティーフォルム事業部
  7
ＭＳ ゴシック
 73
               1
 44
0.7828267384257843
  0
INSERT
  5
154
100
AcDbEntity
  8
template
390
0
 62
               7
100
AcDbBlockReference
  2
グループ
 10
4181.9393662055845
 20
-1111.8373222112918
 30
0.0
  0
MTEXT
  5
155
100
AcDbEntity
  8
template
390
0
 62
               7
100
AcDbMText
 10
784.00000000050022
 20
-1261.0000901712006
 30
0.0
 40
24.432617187500004
 41
0.0
 71
               1
 72
               1
  1
1:10
  7
ＭＳ ゴシック
 73
               1
 44
0.7828267384257843
  0
MTEXT
  5
156
100
AcDbEntity
  8
template
390
0
 62
               7
100
AcDbMText
 10
731.00000000050022
 20
-1232.4176292337006
 30
0.0
 40
16.288411458333332
 41
0.0
 71
               1
 72
               1
  1
縮尺
  7
ＭＳ ゴシック
 73
               1
 44
0.7828267384257843
  0
LINE
  5
157
100
AcDbEntity
  8
template
370
               5
390
0
  6
Continuous
 62
               7
100
AcDbLine
 10
724.00000000050022
 20
-1309.0027073587005
 30
0.0
 11
724.00000000050022
 21
-1224.0027073587005
 31
0.0
  0
MTEXT
  5
158
100
AcDbEntity
  8
template
390
0
 62
               7
100
AcDbMText
 10
480.00000000050022
 20
-1232.4176292337006
 30
0.0
 40
16.288411458333332
 41
0.0
 71
               1
 72
               1
  1
容量
  7
ＭＳ ゴシック
 73
               1
 44
0.7828267384257843
  0
MTEXT
  5
159
100
AcDbEntity
  8
template
390
0
 62
               7
100
AcDbMText
 10
533.00000000050022
 20
-1261.0000901712006
 30
0.0
 40
24.432617187500004
 41
0.0
 71
               1
 72
               1
  1
5L
  7
ＭＳ ゴシック
 73
               1
 44
0.7828267384257843
  0
LINE
  5
15A
100
AcDbEntity
  8
template
370
               5
390
0
  6
Continuous
 62
               7
100
AcDbLine
 10
473.00000000050022
 20
-1309.0027073587005
 30
0.0
 11
473.00000000050022
 21
-1224.0027073587005
 31
0.0
  0
MTEXT
  5
15B
100
AcDbEntity
  8
template
390
0
 62
               7
100
AcDbMText
 10
229.00000000050022
 20
-1147.4176292337006
 30
0.0
 40
16.288411458333332
 41
0.0
 71
               1
 72
               1
  1
品番
  7
ＭＳ ゴシック
 73
               1
 44
0.7828267384257843
  0
MTEXT
  5
15C
100
AcDbEntity
  8
template
390
0
 62
               7
100
AcDbMText
 10
229.00000000050022
 20
-1232.4176292337006
 30
0.0
 40
16.288411458333332
 41
0.0
 71
               1
 72
               1
  1
重量
  7
ＭＳ ゴシック
 73
               1
 44
0.7828267384257843
  0
MTEXT
  5
15D
100
AcDbEntity
  8
template
390
0
 62
               7
100
AcDbMText
 10
282.00000000050022
 20
-1176.0000901712006
 30
0.0
 40
24.432617187500004
 41
0.0
 71
               1
 72
               1
  1
ADF70-2202
  7
ＭＳ ゴシック
 73
               1
 44
0.7828267384257843
  0
MTEXT
  5
15E
100
AcDbEntity
  8
template
390
0
 62
               7
100
AcDbMText
 10
282.00000000050022
 20
-1261.0000901712006
 30
0.0
 40
24.432617187500004
 41
0.0
 71
               1
 72
               1
  1
20kg
  7
ＭＳ ゴシック
 73
               1
 44
0.7828267384257843
  0
LINE
  5
15F
100
AcDbEntity
  8
template
370
               5
390
0
  6
Continuous
 62
               7
100
AcDbLine
 10
222.00000000050022
 20
-1394.0027073587005
 30
0.0
 11
222.00000000050022
 21
-1139.0027073587005
 31
0.0
  0
MTEXT
  5
160
100
AcDbEntity
  8
template
390
0
 62
               7
100
AcDbMText
 10
-914.99999999975989
 20
-1261.0000901712006
 30
0.0
 40
24.432617187500004
 41
0.0
 71
               1
 72
               1
  1
壁掛け/オーバーフロー付き/壁取付ボルト付属/\P陶器/ホワイト
  7
ＭＳ ゴシック
 73
               1
 44
1.3047112307096407
  0
LINE
  5
161
100
AcDbEntity
  8
template
370
              25
390
0
  6
Continuous
 62
               7
100
AcDbLine
 10
-601.88826837065881
 20
-1130.9424192503757
 30
0.0
 11
-601.88826839519879
 21
-1130.942419250101
 31
0.0
  0
DIMENSION
  5
162
100
AcDbEntity
  8
notes
370
               5
390
0
  6
Continuous
 62
               7
100
AcDbDimension
  2
*D3
 10
-776.47414777514769
 20
960.2675357402336
 30
0.0
 11
-376.47414777760332
 21
965.2675357402336
 31
0.0
 70
             128
 71
               5
 72
               1
 41
1.0
 42
0.0
  3
tform線あり
100
AcDbAlignedDimension
 13
23.525852219941044
 23
684.33534338075447
 33
0.0
 14
-776.47414777514769
 24
678.12091357294844
 34
0.0
100
AcDbRotatedDimension
1001
ACAD
1000
DSTYLE
1002
{
1070
             271
1070
               8
1070
             279
1070
               2
1070
             340
1005
36
1070
             147
1040
5.0
1002
}
  0
DIMENSION
  5
163
100
AcDbEntity
  8
notes
370
               5
390
0
  6
Continuous
 62
               7
100
AcDbDimension
  2
*D4
 10
123.52585221994104
 20
810.26604832285534
 30
0.0
 11
123.52585221994104
 21
570.26679203154458
 31
0.0
 71
               5
 72
               1
 41
1.0
 42
0.0
  3
tform線あり
100
AcDbAlignedDimension
 13
12.477082157572113
 23
330.26753574023382
 33
0.0
 14
20.601589653606425
 24
810.26604832285534
 34
0.0
 50
90.0
100
AcDbRotatedDimension
1001
ACAD
1000
DSTYLE
1002
{
1070
             279
1070
               2
1070
             340
1005
36
1070
             147
1040
5.0
1002
}
  0
DIMENSION
  5
164
100
AcDbEntity
  8
notes
370
               5
390
0
  6
Continuous
 62
               7
100
AcDbDimension
  2
*D5
 10
-876.47414777514859
 20
675.26604832285534
 30
0.0
 11
-876.47414777514859
 21
742.76679203154458
 31
0.0
 71
               5
 72
               1
 41
1.0
 42
0.0
  3
tform線あり
100
AcDbAlignedDimension
 13
-776.70562390609939
 23
810.26753574023382
 33
0.0
 14
-776.70562390609939
 24
675.26604832285534
 34
0.0
 50
90.0
100
AcDbRotatedDimension
1001
ACAD
1000
DSTYLE
1002
{
1070
             279
1070
               2
1070
             340
1005
36
1070
             147
1040
5.0
1002
}
  0
DIMENSION
  5
165
100
AcDbEntity
  8
notes
370
               5
390
0
  6
Continuous
 62
               7
100
AcDbDimension
  2
*D6
 10
-876.47414777514859
 20
675.26604832285534
 30
0.0
 11
-876.47414777514859
 21
530.26604832285534
 31
0.0
 71
               5
 72
               1
 41
1.0
 42
0.0
  3
tform線あり
100
AcDbAlignedDimension
 13
-773.83888810676854
 23
385.26604832285534
 33
0.0
 14
-776.68920514030742
 24
675.26604832285534
 34
0.0
 50
90.0
100
AcDbRotatedDimension
1001
ACAD
1000
DSTYLE
1002
{
1070
             279
1070
               2
1070
             340
1005
36
1070
             147
1040
5.0
1002
}
  0
DIMENSION
  5
166
100
AcDbEntity
  8
notes
370
               5
390
0
  6
Continuous
 62
               7
100
AcDbDimension
  2
*D7
 10
-641.47414777514769
 20
230.26604832285534
 30
0.0
 11
-376.45132521637152
 21
230.26604832285534
 31
0.0
 71
               5
 72
               1
 41
1.0
 42
0.0
  3
tform線あり
100
AcDbAlignedDimension
 13
-111.42850265759535
 23
329.17917443310535
 33
0.0
 14
-641.47414777514769
 24
329.17917443310535
 34
0.0
100
AcDbRotatedDimension
1001
ACAD
1000
DSTYLE
1002
{
1070
             279
1070
               2
1070
             340
1005
36
1070
             147
1040
5.0
1002
}
  0
DIMENSION
  5
167
100
AcDbEntity
  8
notes
370
               5
390
0
  6
Continuous
 62
               7
100
AcDbDimension
  2
*D8
 10
-111.42850265759535
 20
230.26604832285534
 30
0.0
 11
-43.951325218827151
 21
230.26604832285534
 31
0.0
 71
               5
 72
               1
 41
1.0
 42
0.0
  3
tform線あり
100
AcDbAlignedDimension
 13
23.525852219941044
 23
340.17224806730223
 33
0.0
 14
-111.42850265759535
 24
330.26753574023382
 34
0.0
100
AcDbRotatedDimension
1001
ACAD
1000
DSTYLE
1002
{
1070
             279
1070
               2
1070
             340
1005
36
1070
             147
1040
5.0
1002
}
  0
DIMENSION
  5
168
100
AcDbEntity
  8
notes
370
               5
390
0
  6
Continuous
 62
               7
100
AcDbDimension
  2
*D9
 10
-236.47414777760332
 20
-303.00804714753872
 30
0.0
 11
-376.47414777760332
 21
-303.00804714753872
 31
0.0
 71
               5
 72
               1
 41
1.0
 42
0.0
  3
tform線あり
100
AcDbAlignedDimension
 13
-516.47414777760332
 23
-423.00804714753872
 33
0.0
 14
-236.47414777760332
 24
-423.00804714753872
 34
0.0
100
AcDbRotatedDimension
1001
ACAD
1000
DSTYLE
1002
{
1070
             279
1070
               2
1070
             340
1005
36
1070
             147
1040
5.0
1002
}
  0
DIMENSION
  5
169
100
AcDbEntity
  8
notes
370
               5
390
0
  6
Continuous
 62
               7
100
AcDbDimension
  2
*D10
 10
773.62304977723625
 20
-303.00804714753872
 30
0.0
 11
806.12379410868698
 21
-303.00804714753872
 31
0.0
 71
               5
 72
               1
 41
1.0
 42
0.0
  3
tform線あり
100
AcDbAlignedDimension
 13
838.62453844013771
 23
-404.29127456833135
 33
0.0
 14
773.62304977723625
 24
-403.00804714753872
 34
0.0
100
AcDbRotatedDimension
1001
ACAD
1000
DSTYLE
1002
{
1070
             279
1070
               2
1070
             340
1005
36
1070
             147
1040
5.0
1002
}
  0
DIMENSION
  5
16A
100
AcDbEntity
  8
notes
370
               5
390
0
  6
Continuous
 62
               7
100
AcDbDimension
  2
*D11
 10
618.62453844013453
 20
-678.00804714753872
 30
0.0
 11
728.62453844013635
 21
-673.00804714753872
 31
0.0
 70
             128
 71
               5
 72
               1
 41
1.0
 42
0.0
  3
tform線あり
100
AcDbAlignedDimension
 13
838.62453844013771
 23
-529.77662515799807
 33
0.0
 14
618.62453844013453
 24
-562.79665696844017
 34
0.0
100
AcDbRotatedDimension
1001
ACAD
1000
DSTYLE
1002
{
1070
             279
1070
               2
1070
             340
1005
36
1070
             147
1040
5.0
1002
}
  0
DIMENSION
  5
16B
100
AcDbEntity
  8
notes
370
               5
390
0
  6
Continuous
 62
               7
100
AcDbDimension
  2
*D12
 10
258.69143304469935
 20
-403.00804714753872
 30
0.0
 11
253.69143304469935
 21
-388.0
 31
0.0
 70
             128
 71
               5
 72
               1
 41
1.0
 42
0.0
  3
tform線あり
100
AcDbAlignedDimension
 13
363.5624334246595
 23
-423.00804714753872
 33
0.0
 14
363.14859897781298
 24
-403.00804714753872
 34
0.0
 50
90.0
100
AcDbRotatedDimension
1001
ACAD
1000
DSTYLE
1002
{
1070
             279
1070
               2
1070
             340
1005
36
1070
             174
1070
               0
1070
             147
1040
5.0
1002
}
  0
DIMENSION
  5
16C
100
AcDbEntity
  8
notes
370
               5
390
0
  6
Continuous
 62
               7
100
AcDbDimension
  2
*D13
 10
258.4414330446989
 20
-563.00804714753872
 30
0.0
 11
253.4414330446989
 21
-478.79838040395202
 31
0.0
 70
             128
 71
               5
 72
               1
 41
1.0
 42
0.0
  3
tform線あり
100
AcDbAlignedDimension
 13
363.5624334246595
 23
-423.00804714753872
 33
0.0
 14
504.39447424434547
 24
-563.00804714753872
 34
0.0
 50
90.0
100
AcDbRotatedDimension
1001
ACAD
1000
DSTYLE
1002
{
1070
             279
1070
               2
1070
             340
1005
36
1070
             147
1040
5.0
1002
}
  0
DIMENSION
  5
16D
100
AcDbEntity
  8
notes
370
               5
390
0
  6
Continuous
 62
               7
100
AcDbDimension
  2
*D14
 10
258.56643304469935
 20
-563.00804714753872
 30
0.0
 11
253.56643304469935
 21
-593.88304714753872
 31
0.0
 70
             128
 71
               5
 72
               1
 41
1.0
 42
0.0
  3
tform線あり
100
AcDbAlignedDimension
 13
595.70492990635103
 23
-578.00804714753872
 33
0.0
 14
504.39447424434547
 24
-563.00804714753872
 34
0.0
 50
90.0
100
AcDbRotatedDimension
1001
ACAD
1000
DSTYLE
1002
{
1070
             279
1070
               2
1070
             340
1005
36
1070
             174
1070
               0
1070
             147
1040
5.0
1002
}
  0
DIMENSION
  5
16E
100
AcDbEntity
  8
notes
370
               5
390
0
  6
Continuous
 62
               7
100
AcDbDimension
  2
*D15
 10
577.48455655542512
 20
-523.00804714753872
 30
0.0
 11
582.48455655542512
 21
-386.79838040395202
 31
0.0
 70
             128
 71
               5
 72
               1
 41
1.0
 42
0.0
  3
tform線あり
100
AcDbAlignedDimension
 13
557.41178637015491
 23
-403.00804714753872
 33
0.0
 14
557.41178637015491
 24
-523.00804714753872
 34
0.0
 50
90.0
100
AcDbRotatedDimension
1001
ACAD
1000
DSTYLE
1002
{
1070
             279
1070
               2
1070
             340
1005
36
1070
               3
1000
<>(深さ)
1070
             174
1070
               0
1070
             147
1040
5.0
1002
}
  0
DIMENSION
  5
16F
100
AcDbEntity
  8
notes
370
               5
390
0
  6
Continuous
 62
               7
100
AcDbDimension
  2
*D16
 10
-876.47414777514859
 20
-443.00804714753872
 30
0.0
 11
-876.47414777514859
 21
-423.00804714753872
 31
0.0
 71
               5
 72
               1
 41
1.0
 42
0.0
  3
tform線あり
100
AcDbAlignedDimension
 13
-772.27070626321347
 23
-403.00804714753872
 33
0.0
 14
-536.47414777760332
 24
-443.00804714753872
 34
0.0
 50
90.0
100
AcDbRotatedDimension
1001
ACAD
1000
DSTYLE
1002
{
1070
             279
1070
               2
1070
             340
1005
36
1070
             147
1040
5.0
1002
}
  0
DIMENSION
  5
170
100
AcDbEntity
  8
notes
370
               5
390
0
  6
Continuous
 62
               7
100
AcDbDimension
  2
*D17
 10
123.52585221994104
 20
-578.00804714753872
 30
0.0
 11
128.52585221994104
 21
-486.90503807007553
 31
0.0
 70
             128
 71
               5
 72
               1
 41
1.0
 42
0.0
  3
tform線あり
100
AcDbAlignedDimension
 13
19.688315383144072
 23
-403.00804714753872
 33
0.0
 14
-345.12757023222093
 24
-578.00804714753872
 34
0.0
 50
90.0
100
AcDbRotatedDimension
1001
ACAD
1000
DSTYLE
1002
{
1070
             279
1070
               2
1070
             340
1005
36
1070
             147
1040
5.0
1002
}
  0
DIMENSION
  5
171
100
AcDbEntity
  8
notes
370
               5
390
0
  6
Continuous
 62
               7
100
AcDbDimension
  2
*D18
 10
-476.38267160881969
 20
910.26753574023382
 30
0.0
 11
-426.38267160881969
 21
910.26753574023382
 31
0.0
 71
               5
 72
               1
 41
1.0
 42
0.0
  3
tform線あり
100
AcDbAlignedDimension
 13
-376.38267160881969
 23
762.76753574023382
 33
0.0
 14
-476.38267160881969
 24
762.76753574023382
 34
0.0
100
AcDbRotatedDimension
1001
ACAD
1000
DSTYLE
1002
{
1070
             279
1070
               2
1070
             340
1005
36
1070
             147
1040
5.0
1002
}
  0
DIMENSION
  5
172
100
AcDbEntity
  8
notes
370
               5
390
0
  6
Continuous
 62
               7
100
AcDbDimension
  2
*D19
 10
-376.38267160881969
 20
910.26753574023382
 30
0.0
 11
-326.38267160881969
 21
910.26753574023382
 31
0.0
 71
               5
 72
               1
 41
1.0
 42
0.0
  3
tform線あり
100
AcDbAlignedDimension
 13
-276.38267160881969
 23
762.76753574023382
 33
0.0
 14
-376.38267160881969
 24
762.76753574023382
 34
0.0
100
AcDbRotatedDimension
1001
ACAD
1000
DSTYLE
1002
{
1070
             279
1070
               2
1070
             340
1005
36
1070
             147
1040
5.0
1002
}
  0
MTEXT
  5
173
100
AcDbEntity
  8
notes
390
0
 62
               7
100
AcDbMText
 10
-162.16936555535995
 20
-319.40345570533634
 30
0.0
 40
24.432617187500004
 41
0.0
 71
               1
 72
               1
  1
壁取付ボルト穴(2ヶ所)
  7
ＭＳ ゴシック
 73
               1
 44
0.7828267384257843
  0
LINE
  5
174
100
AcDbEntity
  8
notes
370
               5
390
0
  6
Continuous
 62
               7
100
AcDbLine
 10
-236.81409159588566
 20
-443.32041487728782
 30
0.0
 11
-141.69970415643274
 21
-355.26519609883269
 31
0.0
  0
MTEXT
  5
175
100
AcDbEntity
  8
notes
390
0
 62
               7
100
AcDbMText
 10
-771.86110364921387
 20
145.66184226924838
 30
0.0
 40
24.432617187500004
 41
839.68917656780309
 71
               1
 72
               1
  1
＝φ30もしくはφ35の水栓取付用穴あけ加工を承ります。\P  必要な場合、ご注文の際にご指示ください。
  7
ＭＳ ゴシック
 73
               1
 44
1.0437689845677123
  0
CIRCLE
  5
176
100
AcDbEntity
  8
notes
370
              15
390
0
  6
STYLE_12
 62
               7
100
AcDbCircle
 10
-791.98767967863841
 20
131.2684271348262
 30
0.0
 40
17.5
  0
DIMENSION
  5
177
100
AcDbEntity
  8
notes
370
               5
390
0
  6
Continuous
 62
               7
100
AcDbDimension
  2
*D20
 10
-641.47414777514769
 20
230.26604832285534
 30
0.0
 11
-708.97414777514769
 21
230.26604832285534
 31
0.0
 71
               5
 72
               1
 41
1.0
 42
0.0
  3
tform線あり
100
AcDbAlignedDimension
 13
-776.47414777514769
 23
337.76114449363899
 33
0.0
 14
-641.47414777514769
 24
330.26753574023382
 34
0.0
100
AcDbRotatedDimension
1001
ACAD
1000
DSTYLE
1002
{
1070
             279
1070
               2
1070
             340
1005
36
1070
             147
1040
5.0
1002
}
  0
LWPOLYLINE
  5
178
100
AcDbEntity
  8
ADF70-2202
370
              15
390
0
  6
Continuous
 62
               7
100
AcDbPolyline
 90
        7
 70
             128
 10
-566.5365728237166
 20
666.12735594871424
 10
-569.27788305248305
 20
665.76145127357768
 10
-571.65477602349165
 20
664.8481770031151
 10
-573.66576431936392
 20
663.20309338237917
 10
-575.30936052272136
 20
661.19210508650735
 10
-576.2241222105622
 20
658.81669953287746
 10
-576.59002688569853
 20
656.07538930411079
  0
LWPOLYLINE
  5
179
100
AcDbEntity
  8
ADF70-2202
370
              15
390
0
  6
Continuous
 62
               7
100
AcDbPolyline
 90
        7
 70
             128
 10
-176.49706330199206
 20
656.07538930411079
 10
-176.68150305693871
 20
658.63374719530907
 10
-177.77624224759074
 20
661.00915274893896
 10
-179.42132586832577
 20
663.020141044811
 10
-181.43231416419894
 20
664.66522466554693
 10
-183.80920713520663
 20
665.57849893600928
 10
-186.36756502640583
 20
665.94440361114584
  0
LWPOLYLINE
  5
17A
100
AcDbEntity
  8
ADF70-2202
370
              15
390
0
  6
Continuous
 62
               7
100
AcDbPolyline
 90
        7
 70
             128
 10
-186.36756502640583
 20
450.27185854837148
 10
-183.80920713520663
 20
450.63776322350782
 10
-181.43231416419894
 20
451.55103749397085
 10
-179.42132586832577
 20
453.19612111470633
 10
-177.77624224759074
 20
455.20710941057882
 10
-176.68150305693871
 20
457.58251496420849
 10
-176.49706330199206
 20
460.32382519297516
  0
LWPOLYLINE
  5
17B
100
AcDbEntity
  8
ADF70-2202
370
              15
390
0
  6
Continuous
 62
               7
100
AcDbPolyline
 90
        7
 70
             128
 10
-576.59002688569853
 20
460.32382519297516
 10
-576.2241222105622
 20
457.58251496420849
 10
-575.30936052272136
 20
455.20710941057882
 10
-573.66427690198543
 20
453.19612111470633
 10
-571.65477602349165
 20
451.55103749397085
 10
-569.27788305248305
 20
450.63776322350782
 10
-566.5365728237166
 20
450.27185854837148
  0
LINE
  5
17C
100
AcDbEntity
  8
ADF70-2202
370
              15
390
0
  6
Continuous
 62
               7
100
AcDbLine
 10
-766.42218113054423
 20
330.26753574023382
 30
0.0
 11
-376.38267160881969
 21
330.26753574023382
 31
0.0
  0
LWPOLYLINE
  5
17D
100
AcDbEntity
  8
ADF70-2202
370
              15
390
0
  6
Continuous
 62
               7
100
AcDbPolyline
 90
        7
 70
             128
 10
-776.47414777514769
 20
340.31950238483705
 10
-776.10973051738983
 20
337.76114449363899
 10
-775.194968829549
 20
335.38425152263039
 10
-773.54988520881216
 20
333.19179830656867
 10
-771.54038433031928
 20
331.72966702340113
 10
-768.98053902174252
 20
330.63195299799168
 10
-766.42218113054423
 20
330.26753574023382
  0
LINE
  5
17E
100
AcDbEntity
  8
ADF70-2202
370
              15
390
0
  6
Continuous
 62
               7
100
AcDbLine
 10
-111.42850265759535
 20
395.31950238483728
 30
0.0
 11
-111.42850265759535
 21
665.21408167825143
 31
0.0
  0
LWPOLYLINE
  5
17F
100
AcDbEntity
  8
ADF70-2202
370
              15
390
0
  6
Continuous
 62
               7
100
AcDbPolyline
 90
        7
 70
             128
 10
-121.48344413695577
 20
385.26753574023382
 10
-118.92508624575839
 20
385.63195299799213
 10
-116.54819327474888
 20
386.54671468583297
 10
-114.35574005868784
 20
388.1917983065689
 10
-112.89212135814159
 20
390.38425152263039
 10
-111.79440733273168
 20
392.76114449363922
 10
-111.42850265759535
 20
395.31950238483728
  0
LWPOLYLINE
  5
180
100
AcDbEntity
  8
ADF70-2202
370
              15
390
0
  6
Continuous
 62
               7
100
AcDbPolyline
 90
        5
 70
             128
 10
-376.38267160881969
 20
810.26753574023382
 10
-773.54988520881216
 20
810.26753574023382
 10
-775.01201649197992
 20
809.90163106509726
 10
-776.10973051738983
 20
808.80391703968803
 10
-776.47414777514769
 20
807.15883341895233
  0
LINE
  5
181
100
AcDbEntity
  8
ADF70-2202
370
              15
390
0
  6
Continuous
 62
               7
100
AcDbLine
 10
-121.48344413695577
 20
675.26604832285534
 30
0.0
 11
-631.60364605073391
 21
675.26604832285534
 31
0.0
  0
LWPOLYLINE
  5
182
100
AcDbEntity
  8
ADF70-2202
370
              15
390
0
  6
Continuous
 62
               7
100
AcDbPolyline
 90
        7
 70
             128
 10
-111.42850265759535
 20
665.21408167825143
 10
-111.79440733273168
 20
667.77243956944994
 10
-112.89212135814159
 20
670.33079746064845
 10
-114.35574005868784
 20
672.34178575652027
 10
-116.54819327474888
 20
673.98686937725597
 10
-118.92508624575839
 20
674.90014364771855
 10
-121.48344413695577
 20
675.26604832285534
  0
LINE
  5
183
100
AcDbEntity
  8
ADF70-2202
370
              15
390
0
  6
Continuous
 62
               7
100
AcDbLine
 10
-776.47414777514769
 20
807.15883341895233
 30
0.0
 11
-776.47414777514769
 21
340.31950238483705
 31
0.0
  0
LINE
  5
184
100
AcDbEntity
  8
ADF70-2202
370
              15
390
0
  6
Continuous
 62
               7
100
AcDbLine
 10
-641.47414777514769
 20
665.21408167825143
 30
0.0
 11
-641.47414777514769
 21
395.31950238483682
 31
0.0
  0
LWPOLYLINE
  5
185
100
AcDbEntity
  8
ADF70-2202
370
              15
390
0
  6
Continuous
 62
               7
100
AcDbPolyline
 90
        7
 70
             128
 10
-631.60364605073391
 20
675.26604832285534
 10
-634.16349135931068
 20
674.90014364771855
 10
-636.5388969129408
 20
673.98686937725597
 10
-638.54988520881307
 20
672.34178575652027
 10
-640.194968829549
 20
670.33079746064845
 10
-641.10824310001135
 20
667.77243956944994
 10
-641.47414777514769
 20
665.21408167825143
  0
LINE
  5
186
100
AcDbEntity
  8
ADF70-2202
370
              15
390
0
  6
Continuous
 62
               7
100
AcDbLine
 10
-121.48344413695577
 20
385.26604832285534
 30
0.0
 11
-631.60364605073391
 21
385.26604832285534
 31
0.0
  0
LINE
  5
187
100
AcDbEntity
  8
ADF70-2202
370
              15
390
0
  6
Continuous
 62
               7
100
AcDbLine
 10
-186.36756502640583
 20
450.27185854837148
 30
0.0
 11
-566.5365728237166
 21
450.27185854837148
 31
0.0
  0
LWPOLYLINE
  5
188
100
AcDbEntity
  8
ADF70-2202
370
              15
390
0
  6
Continuous
 62
               7
100
AcDbPolyline
 90
        7
 70
             128
 10
-641.47414777514769
 20
395.31950238483728
 10
-641.10824310001135
 20
392.75965707626051
 10
-640.194968829549
 20
390.38425152263039
 10
-638.54988520881307
 20
388.19031088918996
 10
-636.5388969129408
 20
386.54671468583297
 10
-634.16349135931068
 20
385.63195299799213
 10
-631.60364605073391
 20
385.26604832285534
  0
LWPOLYLINE
  5
189
100
AcDbEntity
  8
ADF70-2202
370
              15
390
0
  6
Continuous
 62
               7
100
AcDbPolyline
 90
       13
 70
             128
 10
-376.45206892506121
 20
671.42702406867897
 10
-380.8384627745636
 20
671.42702406867897
 10
-384.49453469117088
 20
671.06260681092112
 10
-385.77371363676957
 20
670.87965447335318
 10
-386.869940244801
 20
670.69670213578479
 10
-387.4187972575055
 20
670.51374979821662
 10
-387.60174959507367
 20
670.33079746064845
 10
-387.4187972575055
 20
670.14784512308006
 10
-386.869940244801
 20
669.96489278551167
 10
-385.77371363676957
 20
669.7819404479435
 10
-384.49453469117088
 20
669.7819404479435
 10
-380.8384627745636
 20
669.41752319018565
 10
-376.45206892506121
 20
669.41752319018565
  0
LWPOLYLINE
  5
18A
100
AcDbEntity
  8
ADF70-2202
370
              15
390
0
  6
Continuous
 62
               7
100
AcDbPolyline
 90
       13
 70
             128
 10
-376.45206892506121
 20
671.42702406867897
 10
-372.248627413127
 20
671.42702406867897
 10
-368.5925554965188
 20
671.06260681092112
 10
-367.13042421335194
 20
670.87965447335318
 10
-366.21714994288868
 20
670.69670213578479
 10
-365.66829293018418
 20
670.51374979821662
 10
-365.48534059261601
 20
670.33079746064845
 10
-365.66829293018418
 20
670.14784512308006
 10
-366.21714994288868
 20
669.96489278551167
 10
-367.13042421335194
 20
669.7819404479435
 10
-368.5925554965188
 20
669.7819404479435
 10
-372.248627413127
 20
669.41752319018565
 10
-376.45206892506121
 20
669.41752319018565
  0
LINE
  5
18B
100
AcDbEntity
  8
ADF70-2202
370
              15
390
0
  6
Continuous
 62
               7
100
AcDbLine
 10
-376.38267160881969
 20
810.26604832285534
 30
0.0
 11
20.601589653606425
 21
810.26604832285534
 31
0.0
  0
LWPOLYLINE
  5
18C
100
AcDbEntity
  8
ADF70-2202
370
              15
390
0
  6
Continuous
 62
               7
100
AcDbPolyline
 90
        5
 70
             128
 10
23.525852219941044
 20
340.17224806730223
 10
23.525852219941044
 20
807.15883341895233
 10
23.159947544804709
 20
808.80391703968803
 10
22.065208354152674
 20
809.90014364771855
 10
20.601589653606425
 20
810.26604832285534
  0
LWPOLYLINE
  5
18D
100
AcDbEntity
  8
ADF70-2202
370
              15
390
0
  6
Continuous
 62
               7
100
AcDbPolyline
 90
      131
 70
             128
 10
-352.80413132319427
 20
593.0178169555868
 10
-353.1700359983306
 20
597.03830612995239
 10
-354.26626260636112
 20
601.06028272169692
 42
0.0066321584164399
 10
-354.54073178365707
 20
601.76166978154765
 10
-354.60994640018635
 20
601.93185594525448
 42
0.0136122352672297
 10
-355.06008235467834
 20
602.95771754204293
 10
-355.14190144992972
 20
603.13119061027101
 42
0.0138465946512001
 10
-355.79005724559647
 20
604.41222855606111
 10
-355.79735803648873
 20
604.42571743621602
 42
0.0140208838775085
 10
-356.50051139188326
 20
605.64210313840067
 10
-356.50771879134936
 20
605.65380148572649
 42
0.0141554469853478
 10
-357.26319080926169
 20
606.80567657846768
 10
-357.27017899795737
 20
606.81570085856083
 42
0.0142457096901511
 10
-358.07528223824829
 20
607.90319182621624
 10
-358.08194400515913
 20
607.91167385309677
 42
0.0142930605249711
 10
-358.93397010466379
 20
608.93489647885849
 42
0.0142872768467872
 10
-359.84305741891876
 20
609.90777593875873
 10
-360.07190128670572
 20
610.13906356417965
 42
0.0284704206888854
 10
-361.50699761486339
 20
611.43316827703939
 10
-361.52090432401656
 20
611.44434201429453
 42
0.0141403239696973
 10
-363.03438346898292
 20
612.59150663992796
 10
-363.04034423113353
 20
612.59576478783583
 42
0.0278254285556454
 10
-364.6304502330695
 20
613.60304305747877
 10
-364.63951154773713
 20
613.60810002165363
 42
0.0137260956858963
 10
-366.29129686126726
 20
614.47135136216366
 42
0.0269404772047575
 10
-368.0059008980179
 20
615.19679742893368
 10
-368.29794085044432
 20
615.30220744714029
 42
0.026318545260268
 10
-370.64821935472719
 20
616.0132106567421
 10
-370.65197596725466
 20
616.01413450677296
 42
0.0257742767816678
 10
-373.05599017069471
 20
616.47548660992334
 10
-373.05794550772589
 20
616.47575830544201
 42
0.0253582745647798
 10
-375.49266877080481
 20
616.68900096748166
 42
0.0251075211653373
 10
-377.93607033476019
 20
616.65589290250728
 10
-378.24143200311664
 20
616.63639252620897
 42
0.0250466514490863
 10
-380.06153417730275
 20
616.42826254060242
 42
0.0125583110030804
 10
-381.86254721850855
 20
616.08365789333925
 10
-381.86382634770052
 20
616.08337967586363
 42
0.0253148377721376
 10
-383.63502750890348
 20
615.60310881383202
 42
0.0127822378033878
 10
-385.36680537698339
 20
614.98869144336754
 10
-385.36966276338899
 20
614.98759466243723
 42
0.0259326560882461
 10
-387.05261199163215
 20
614.23935907532928
 10
-387.05416352076463
 20
614.23857054911241
 42
0.0131715853079001
 10
-388.67819758465794
 20
613.35862285240478
 10
-388.68344607106883
 20
613.35559759954094
 42
0.0267943743742409
 10
-390.24050621492552
 20
612.34330891375862
 10
-390.24344908901003
 20
612.3411630349492
 42
0.0136419337766587
 10
-391.72098835992983
 20
611.20076124872708
 10
-391.72949209301623
 20
611.19381958955319
 42
0.0276754188341401
 10
-393.12247112693785
 20
609.92205233876143
 10
-393.12712573984572
 20
609.91730482160528
 42
0.0140668251301747
 10
-394.41971817652029
 20
608.52250833902826
 10
-394.43179790821341
 20
608.50871472893823
 42
0.0282959245251498
 10
-395.62286080381
 20
606.98250002258942
 10
-395.62910859588101
 20
606.97348613800227
 42
0.0142959395637764
 10
-396.6992603736926
 20
605.3311812947195
 10
-396.71406686196224
 20
605.30697268211293
 42
0.0283757643865965
 10
-397.66602787696411
 20
603.53157793044147
 10
-397.80915814552554
 20
603.2239238474142
 42
0.014081384780145
 10
-398.36576168056126
 20
601.93372551984157
 42
0.0139812605339734
 10
-398.84912161242391
 20
600.6143299814878
 10
-398.85391503569281
 20
600.60001910336223
 42
0.0138166656244129
 10
-399.27201063891698
 20
599.22692762366023
 10
-399.32272612842917
 20
599.04220073217834
 42
0.01359271541027
 10
-399.58961780302525
 20
597.95515340927568
 10
-399.62853538897434
 20
597.7757117211429
 42
0.006627692193484
 10
-399.77825955687604
 20
597.03830612995239
 10
-400.14267681463389
 20
593.0178169555868
 10
-399.77825955687604
 20
588.9973277812212
 42
0.0064978888523243
 10
-399.62872641012382
 20
588.25988131992631
 10
-399.51300499347872
 20
587.72497097694895
 42
0.027472300773461
 10
-399.02465371952894
 20
585.94649974376853
 10
-398.84892947604203
 20
585.42136825222997
 42
0.0140533448595332
 10
-398.36576168043666
 20
584.10190839067445
 10
-398.36075787930713
 20
584.08934863441436
 42
0.0141066324042475
 10
-397.81479792177379
 20
582.8239975939473
 10
-397.80972430422935
 20
582.81309488857892
 42
0.0141885603262918
 10
-397.20383481476983
 20
581.60215249869407
 42
0.0142056099801532
 10
-396.53019671392212
 20
580.42754971320551
 10
-396.35793808365815
 20
580.14603167491782
 42
0.0284281716457517
 10
-395.24285092616992
 20
578.53677461803204
 10
-395.23011293591026
 20
578.52045643362294
 42
0.0141550990376425
 10
-394.00706519227424
 20
577.04191846536696
 10
-394.00139955636314
 20
577.03545110989171
 42
0.0279261291831503
 10
-392.67198517048564
 20
575.67878826231981
 10
-392.66269794265372
 20
575.67031322454955
 42
0.013797492529911
 10
-391.2421828460856
 20
574.44411575598679
 42
0.0271086445069684
 10
-389.7278795144357
 20
573.33928664441123
 10
-389.46552690687895
 20
573.16885644679314
 42
0.0264946079797342
 10
-387.33037199251885
 20
571.93744959082028
 10
-387.32546353489306
 20
571.93495529674874
 42
0.0259295869084488
 10
-385.08309869037203
 20
570.93812211570571
 10
-385.08000185016772
 20
570.93693355618461
 42
0.0254726495850391
 10
-382.75338372871283
 20
570.17745013519448
 10
-382.75179720996675
 20
570.17702027559221
 42
0.0251731107510532
 10
-380.36345356513357
 20
569.65732411245881
 10
-380.06082751192389
 20
569.60726808262302
 42
0.0250451418864845
 10
-378.241126457885
 20
569.39921085489414
 42
0.0125392074647961
 10
-376.40875732318364
 20
569.32829088184076
 42
0.0252200111866369
 10
-374.5773771174363
 20
569.39573287673375
 42
0.0127184772980075
 10
-372.7544729525016
 20
569.60198276956544
 10
-372.75248265038681
 20
569.60225939112934
 42
0.0257793223579897
 10
-370.94870872642696
 20
569.94850114485325
 10
-370.9476058434193
 20
569.94877243542692
 42
0.0130825337917396
 10
-369.17221622646412
 20
570.43507989698082
 10
-369.16780001609186
 20
570.43641470573402
 42
0.0266218653839824
 10
-367.42976750258549
 20
571.06445789260988
 10
-367.42718927942224
 20
571.06554789910865
 42
0.0135555724524046
 10
-365.73830550863931
 20
571.83417205335058
 10
-365.73023450927303
 20
571.83811271299192
 42
0.0275500953741507
 10
-364.09636225924078
 20
572.75050922981563
 10
-364.0917162626065
 20
572.7534504319151
 42
0.0140204301303208
 10
-362.5283743844966
 20
573.8056704784949
 10
-362.51560933858309
 20
573.81479230157493
 42
0.028293269586321
 10
-361.0241371779266
 20
575.01356692712648
 10
-361.01709672526886
 20
575.01991329745601
 42
0.0143274953829958
 10
-359.61772457106781
 20
576.35595275565743
 10
-359.60009603167509
 20
576.37377643566901
 42
0.0285570547785016
 10
-358.28874267632636
 20
577.86052839093281
 10
-358.08278825793695
 20
578.1227992945669
 42
0.0142264713945969
 10
-357.26319080922258
 20
579.22995733281005
 42
0.0141554469078731
 10
-356.50771879102922
 20
580.38183242573109
 10
-356.50051139211973
 20
580.39353077214673
 42
0.0140208842081671
 10
-355.79735803814219
 20
581.60991647301967
 10
-355.79005724417675
 20
581.62340535888711
 42
0.0138465934482652
 10
-355.14190144171607
 20
582.90444331384538
 10
-355.0600824424755
 20
583.07791617682597
 42
0.0136122380176971
 10
-354.60994636681517
 20
584.1037780546485
 10
-354.54073160041389
 20
584.27396459039915
 42
0.0066321566021442
 10
-354.26626260636112
 20
584.9753511894769
 10
-353.1700359983306
 20
588.9973277812212
 10
-352.80413132319427
 20
593.0178169555868
  0
LWPOLYLINE
  5
18E
100
AcDbEntity
  8
ADF70-2202
370
              15
390
0
  6
Continuous
 62
               7
100
AcDbPolyline
 90
      151
 70
             128
 10
-339.27904509954988
 20
593.0178169555868
 10
-339.64494977468712
 20
598.31748507555199
 10
-340.74117638271764
 20
603.43568827532704
 42
0.0069992243111309
 10
-341.15079787217564
 20
604.65540102961086
 10
-341.25462109782893
 20
604.95078470420003
 42
0.0144146326642932
 10
-341.94043403442811
 20
606.73575486924324
 10
-342.06691082089401
 20
607.03856414893198
 42
0.0147008141438216
 10
-343.07347076067708
 20
609.26228898372096
 10
-343.08601249403091
 20
609.28795994204393
 42
0.0149159868382339
 10
-344.19583375164802
 20
611.39762643547556
 10
-344.20835737990819
 20
611.41980123114308
 42
0.0150834025407273
 10
-345.41630010325389
 20
613.41555454196873
 10
-345.42853508504959
 20
613.43445754129766
 42
0.0151972080131669
 10
-346.72944102647398
 20
615.31640737798193
 10
-346.74115482147045
 20
615.33229809613658
 42
0.0152587787508345
 10
-348.12982179277515
 20
617.10052849248427
 10
-348.14082349246837
 20
617.11368989937023
 42
0.0152702335735201
 10
-349.61200507294234
 20
618.76826783635988
 10
-349.62214875516656
 20
618.77899753167344
 42
0.015235459401131
 10
-351.17055247837197
 20
620.31998278760193
 10
-351.17973784609876
 20
620.32858332500973
 42
0.0151596743379343
 10
-352.80002641320971
 20
621.75603788121089
 10
-352.80819718146086
 20
621.76280757287213
 42
0.0150491563263877
 10
-354.49499169305545
 20
623.07680418981431
 10
-354.50213193823311
 20
623.08202888624146
 42
0.0149108895878676
 10
-356.25001686747419
 20
624.28265831080125
 10
-356.25614577635133
 20
624.28660461139839
 42
0.0147522143829564
 10
-358.05967516206329
 20
625.37398111736093
 42
0.0146172981449497
 10
-359.92393945903859
 20
626.35362127450912
 10
-360.3933782762706
 20
626.5830515182779
 42
0.0286059954883805
 10
-363.26922419973562
 20
627.79012561019772
 10
-363.27714140531043
 20
627.79292800543362
 42
0.0140829631806865
 10
-366.23313088566738
 20
628.74645498996779
 10
-366.23641863622743
 20
628.74741419701377
 42
0.0276330283235669
 10
-369.25149782692097
 20
629.4489891977737
 10
-369.25454592743881
 20
629.44952300139289
 42
0.013650585610863
 10
-372.31462481359085
 20
629.89971221517999
 42
0.0269783881182414
 10
-375.39638924234168
 20
630.09977069869365
 42
0.0134269851842032
 10
-378.48621025036391
 20
630.05026876699435
 42
0.0268209691193575
 10
-381.55859731745295
 20
629.75285609411821
 42
0.0134593473978734
 10
-384.60023391166033
 20
629.20862995076777
 10
-384.60271971047132
 20
629.20811577460972
 42
0.0271697457658723
 10
-387.59296719609847
 20
628.41810192431194
 42
0.0137410890852169
 10
-390.5131079549401
 20
627.38495345712886
 10
-390.51892719606167
 20
627.38271285873725
 42
0.0279245649489797
 10
-393.35097831222447
 20
626.10652518729648
 10
-393.3542184426833
 20
626.10484160636634
 42
0.014211211268516
 10
-396.07834337948771
 20
624.58955387997048
 10
-396.08927663591021
 20
624.58305876294526
 42
0.028930506865308
 10
-398.6904816711176
 20
622.82670449504712
 10
-399.10729559187803
 20
622.50869654139592
 42
0.0147358961616304
 10
-400.75846297905537
 20
621.17016170590819
 42
0.0148745601458626
 10
-402.32750618529735
 20
619.73626545389016
 10
-402.33401444173342
 20
619.72995244974618
 42
0.0150090634533255
 10
-403.82722797117458
 20
618.19190863154677
 10
-403.83453373717657
 20
618.18391702086319
 42
0.0151159713195784
 10
-405.24654036955872
 20
616.54235894874364
 10
-405.25458811915087
 20
616.53240975091353
 42
0.0151884129003623
 10
-406.58004905181679
 20
614.78798323729848
 10
-406.58874197174828
 20
614.77579089815254
 42
0.0152202255881778
 10
-407.82236066359565
 20
612.92914650933267
 10
-407.83155824169535
 20
612.91442744530377
 42
0.0152062998741919
 10
-408.96808236610104
 20
610.9662116701611
 10
-408.97760010141246
 20
610.94869347270924
 42
0.015142841905548
 10
-410.01182141896606
 20
608.89953937127189
 10
-410.02143278869971
 20
608.87897016311308
 42
0.0150278014820808
 10
-410.94818400303848
 20
606.72948800318318
 10
-410.95762496028601
 20
606.70564457503497
 42
0.0148598462371699
 10
-411.77177829291031
 20
604.45641346961929
 10
-411.7807523789179
 20
604.42911225570379
 42
0.0146448155601156
 10
-412.47719302082351
 20
602.08067412636137
 10
-412.56154786758816
 20
601.76230228776126
 42
0.0143595481867068
 10
-412.99958111505293
 20
599.89393935865428
 10
-413.06248918537858
 20
599.58608925164731
 42
0.0069725807939767
 10
-413.30334578051861
 20
598.31748507555199
 10
-413.66776303827737
 20
593.0178169555868
 10
-413.30334578051861
 20
587.71666141824358
 42
0.0069728255425319
 10
-413.06248912284991
 20
586.44810458831671
 10
-412.99958097410854
 20
586.14026567414157
 42
0.0143600249167608
 10
-412.56154778248674
 20
584.27197301193291
 10
-412.47719313389553
 20
583.95361385849651
 42
0.0146452690606076
 10
-411.78075198684019
 20
581.60526181427895
 10
-411.77177844205471
 20
581.57796326802895
 42
0.0148602690229919
 10
-410.95762445004857
 20
579.32881426776476
 10
-410.94818419000603
 20
579.30497349109032
 42
0.0150281864315107
 10
-410.0214321558833
 20
577.15556958045886
 10
-410.011821643232
 20
577.13500297481664
 42
0.0151431828710065
 10
-408.97759934720943
 20
575.08592339167262
 10
-408.96808262550803
 20
575.0684077150247
 42
0.0152065919548292
 10
-407.83155737274137
 20
573.12026285067168
 10
-407.82236095445751
 20
573.10554619479831
 42
0.0152204653540002
 10
-406.58874099965942
 20
571.25896922959419
 10
-406.58004936916313
 20
571.24677915845086
 42
0.0151885984965585
 10
-405.25458705967685
 20
569.50241669707043
 10
-405.24654070749875
 20
569.49246960439268
 42
0.0151161024607153
 10
-403.83453260911301
 20
567.85097232332691
 10
-403.82722832327636
 20
567.8429826379479
 42
0.0150091413184584
 10
-402.33401326571038
 20
566.30499645370946
 10
-402.32750654496886
 20
566.29868518412695
 42
0.0148745871808368
 10
-400.75846177633503
 20
564.86484350691694
 42
0.0147521230703447
 10
-399.10725413607088
 20
563.5264181871587
 10
-398.68902729790625
 20
563.20738808865281
 42
0.0289085410446905
 10
-396.08875025411362
 20
561.45181373513697
 10
-396.07878660185997
 20
561.44589458489327
 42
0.0142345345111826
 10
-393.35369122880638
 20
559.93022135936053
 10
-393.34949782378317
 20
559.92804293292374
 42
0.0278979952838429
 10
-390.51840007701503
 20
558.65241015326433
 10
-390.51356091504749
 20
558.6505468267876
 42
0.0137624284868884
 10
-387.59246125296795
 20
557.61714572397568
 10
-387.59028589412719
 20
557.616442877591
 42
0.0271404439474823
 10
-384.60221389013896
 20
556.82718031261857
 42
0.0134622182130012
 10
-381.55810390832994
 20
556.2825191714237
 42
0.0268119706098293
 10
-378.48571696625004
 20
555.98514457243573
 42
0.0134252709330642
 10
-375.39588609838211
 20
555.93570540739847
 42
0.0270080700379047
 10
-372.31412178100254
 20
556.13579284788602
 42
0.0136307217510405
 10
-369.25502786827292
 20
556.58588215481518
 10
-369.25096613952792
 20
556.58659336574078
 42
0.0276583788502743
 10
-366.23487716655109
 20
557.28848389891959
 10
-366.23259928658081
 20
557.28914866229843
 42
0.0140571482056813
 10
-363.27761672852648
 20
558.24243038844224
 10
-363.26866661692384
 20
558.2455981195435
 42
0.0286321280981518
 10
-360.39179832899299
 20
559.45318587156316
 10
-359.92390536454423
 20
559.6819053617362
 42
0.01459873138737
 10
-358.05967523262279
 20
560.66162292429817
 42
0.0147520743215389
 10
-356.25614576268254
 20
561.74900606384995
 10
-356.25001695915398
 20
561.75295231739506
 42
0.0149107653791598
 10
-354.50213191608236
 20
562.95358734728711
 10
-354.49499179856048
 20
562.9588119711359
 42
0.015049048174128
 10
-352.80819715330654
 20
564.27281325606282
 10
-352.80002652553048
 20
564.27958285155978
 42
0.0151595821533385
 10
-351.17973781431192
 20
565.70704122776556
 10
-351.17055259101926
 20
565.715641648879
 42
0.0152353827736651
 10
-349.62214872197819
 20
567.2566299646453
 10
-349.61200518018177
 20
567.26735952845138
 42
0.0152701717635517
 10
-348.14082345987299
 20
568.92193985151084
 10
-348.12982188986098
 20
568.93510111784281
 42
0.0152587306951219
 10
-346.74115479110333
 20
570.70333331174788
 10
-346.72944110982644
 20
570.71922388738176
 42
0.0151971723579748
 10
-345.42853505820494
 20
572.60117501744708
 10
-345.41630017058196
 20
572.62007788000528
 42
0.0150833776892546
 10
-344.20835735747551
 20
574.61583206383148
 10
-344.19583380198037
 20
574.63800673641663
 42
0.0149159710262029
 10
-343.08601247646311
 20
576.74767376620207
 10
-343.07347079431838
 20
576.77334462282647
 42
0.0147008054975995
 10
-342.06691080819655
 20
578.99706974135256
 10
-341.94043403997784
 20
579.29987898871946
 42
0.0144146293892276
 10
-341.25462110394255
 20
581.08484918855697
 10
-341.15079787422292
 20
581.38023287495525
 42
0.0069992242474778
 10
-340.74117638271764
 20
582.59994563584678
 10
-339.64494977468712
 20
587.71666141824358
 10
-339.27904509954988
 20
593.0178169555868
  0
LINE
  5
18F
100
AcDbEntity
  8
ADF70-2202
370
              15
390
0
  6
Continuous
 62
               7
100
AcDbLine
 10
-566.5365728237166
 20
666.12735594871424
 30
0.0
 11
-186.36756502640583
 21
665.94440361114584
 31
0.0
  0
LINE
  5
190
100
AcDbEntity
  8
ADF70-2202
370
              15
390
0
  6
Continuous
 62
               7
100
AcDbLine
 10
-577.5033011561618
 20
448.26087025249944
 30
0.0
 11
-625.5721685804956
 21
400.55642008592281
 31
0.0
  0
LINE
  5
191
100
AcDbEntity
  8
ADF70-2202
370
              15
390
0
  6
Continuous
 62
               7
100
AcDbLine
 10
-626.30397793076918
 20
668.86866617748069
 30
0.0
 11
-582.07264734323235
 21
663.75046297770564
 31
0.0
  0
LINE
  5
192
100
AcDbEntity
  8
ADF70-2202
370
              15
390
0
  6
Continuous
 62
               7
100
AcDbLine
 10
-576.59002688569853
 20
656.07390188673207
 30
0.0
 11
-576.59002688569853
 21
460.32382519297516
 31
0.0
  0
LINE
  5
193
100
AcDbEntity
  8
ADF70-2202
370
              15
390
0
  6
Continuous
 62
               7
100
AcDbLine
 10
-176.49706330199206
 20
656.07390188673207
 30
0.0
 11
-176.49706330199206
 21
460.32382519297516
 31
0.0
  0
LINE
  5
194
100
AcDbEntity
  8
ADF70-2202
370
              15
390
0
  6
Continuous
 62
               7
100
AcDbLine
 10
-174.85197968125613
 20
447.52906090222632
 30
0.0
 11
-127.5134341898156
 21
400.55642008592281
 31
0.0
  0
LINE
  5
195
100
AcDbEntity
  8
ADF70-2202
370
              15
390
0
  6
Continuous
 62
               7
100
AcDbLine
 10
-126.78162483954202
 20
668.86866617748069
 30
0.0
 11
-170.83000308951159
 21
663.75046297770564
 31
0.0
  0
LINE
  5
196
100
AcDbEntity
  8
ADF70-2202
370
              15
390
0
  6
Continuous
 62
               7
100
AcDbLine
 10
12.477082157572113
 20
330.26753574023382
 30
0.0
 11
-377.56242736415243
 21
330.26753574023382
 31
0.0
  0
LWPOLYLINE
  5
197
100
AcDbEntity
  8
ADF70-2202
370
              15
390
0
  6
Continuous
 62
               7
100
AcDbPolyline
 90
        7
 70
             128
 10
22.529048802175566
 20
340.31950238483705
 10
22.164631544417716
 20
337.76114449363899
 10
21.249869856576879
 20
335.38425152263039
 10
19.604786235840947
 20
333.19179830656867
 10
17.595285357347166
 20
331.72966702340113
 10
15.035440048770397
 20
330.63195299799168
 10
12.477082157572113
 20
330.26753574023382
  0
CIRCLE
  5
198
100
AcDbEntity
  8
ADF70-2202
370
              15
390
0
  6
STYLE_13
 62
               7
100
AcDbCircle
 10
-376.38267160881969
 20
745.26753574023382
 30
0.0
 40
17.5
  0
CIRCLE
  5
199
100
AcDbEntity
  8
ADF70-2202
370
              15
390
0
  6
STYLE_13
 62
               7
100
AcDbCircle
 10
-476.38267160881969
 20
745.26753574023382
 30
0.0
 40
17.5
  0
CIRCLE
  5
19A
100
AcDbEntity
  8
ADF70-2202
370
              15
390
0
  6
STYLE_13
 62
               7
100
AcDbCircle
 10
-276.38267160881969
 20
745.26753574023382
 30
0.0
 40
17.5
  0
LINE
  5
19B
100
AcDbEntity
  8
ADF70-2202
370
              15
390
0
  6
Continuous
 62
               7
100
AcDbLine
 10
-772.27070626321347
 20
-403.00804714753872
 30
0.0
 11
19.322410710462464
 21
-403.00804714753872
 31
0.0
  0
LINE
  5
19C
100
AcDbEntity
  8
ADF70-2202
370
              15
390
0
  6
Continuous
 62
               7
100
AcDbLine
 10
-772.45365860078255
 20
-422.93051551655617
 30
0.0
 11
19.505363048031541
 21
-422.93051551655617
 31
0.0
  0
LWPOLYLINE
  5
19D
100
AcDbEntity
  8
ADF70-2202
370
              15
390
0
  6
Continuous
 62
               7
100
AcDbPolyline
 90
        5
 70
             128
 10
-776.47414777514769
 20
-418.90853892481209
 10
-776.10824310001135
 20
-420.3706702079794
 10
-775.194968829549
 20
-421.83280149114694
 10
-773.9157898839494
 20
-422.747563178988
 10
-772.45365860078255
 20
-422.93051551655617
  0
LWPOLYLINE
  5
19E
100
AcDbEntity
  8
ADF70-2202
370
              15
390
0
  6
Continuous
 62
               7
100
AcDbPolyline
 90
        4
 70
             128
 10
-717.43855201836868
 20
-436.63855407776782
 10
-715.24461138492825
 20
-439.74576898167084
 10
-712.68625349372905
 20
-442.48707921043751
 10
-709.76199092739444
 20
-444.67953242649901
  0
LWPOLYLINE
  5
19F
100
AcDbEntity
  8
ADF70-2202
370
              15
390
0
  6
Continuous
 62
               7
100
AcDbPolyline
 90
        4
 70
             128
 10
-534.84765687311756
 20
-559.35197523093075
 10
-531.0086326189421
 20
-561.36296352680301
 10
-526.80519110700789
 20
-562.64214247240216
 10
-522.4187972575055
 20
-563.00804714753872
  0
LINE
  5
1A0
100
AcDbEntity
  8
ADF70-2202
370
              15
390
0
  6
Continuous
 62
               7
100
AcDbLine
 10
-534.84765687311756
 20
-559.35197523093075
 30
0.0
 11
-709.76199092739444
 21
-444.67953242649901
 31
0.0
  0
LWPOLYLINE
  5
1A1
100
AcDbEntity
  8
ADF70-2202
370
              15
390
0
  6
Continuous
 62
               7
100
AcDbPolyline
 90
        4
 70
             128
 10
-230.34654596013297
 20
-563.00804714753872
 10
-226.14310444819876
 20
-562.64214247240216
 10
-221.93966293626454
 20
-561.36296352680301
 10
-218.09915126470969
 20
-559.35197523093075
  0
LINE
  5
1A2
100
AcDbEntity
  8
ADF70-2202
370
              15
390
0
  6
Continuous
 62
               7
100
AcDbLine
 10
-230.34654596013297
 20
-563.00804714753872
 30
0.0
 11
-522.4187972575055
 21
-563.00804714753872
 31
0.0
  0
LINE
  5
1A3
100
AcDbEntity
  8
ADF70-2202
370
              15
390
0
  6
Continuous
 62
               7
100
AcDbLine
 10
-43.184817210433721
 20
-444.67953242649901
 30
0.0
 11
-218.09915126470969
 21
-559.35197523093075
 31
0.0
  0
LWPOLYLINE
  5
1A4
100
AcDbEntity
  8
ADF70-2202
370
              15
390
0
  6
Continuous
 62
               7
100
AcDbPolyline
 90
        4
 70
             128
 10
-43.184817210433721
 20
-444.67953242649901
 10
-40.260554644098193
 20
-442.48707921043751
 10
-37.702196752899908
 20
-439.74576898167084
 10
-35.509743536837959
 20
-436.63855407776782
  0
LINE
  5
1A5
100
AcDbEntity
  8
ADF70-2202
370
              15
390
0
  6
Continuous
 62
               7
100
AcDbLine
 10
-345.12757023222093
 20
-578.00804714753872
 30
0.0
 11
-407.63628556803906
 21
-578.00804714753872
 31
0.0
  0
LWPOLYLINE
  5
1A6
100
AcDbEntity
  8
ADF70-2202
370
              15
390
0
  6
Continuous
 62
               7
100
AcDbPolyline
 90
        5
 70
             128
 10
-411.84121449735176
 20
-562.29050770783374
 10
-410.74350047194184
 20
-575.26822433615075
 10
-410.19613087661583
 20
-576.54740328174967
 10
-409.09841685120682
 20
-577.64214247240216
 10
-407.63628556803906
 20
-578.00804714753872
  0
LINE
  5
1A7
100
AcDbEntity
  8
ADF70-2202
370
              15
390
0
  6
Continuous
 62
               7
100
AcDbLine
 10
-725.11511310934202
 20
-422.93051551655617
 30
0.0
 11
-717.43855201836868
 21
-436.63855407776782
 31
0.0
  0
LINE
  5
1A8
100
AcDbEntity
  8
ADF70-2202
370
              15
390
0
  6
Continuous
 62
               7
100
AcDbLine
 10
-27.831695028486138
 20
-422.93051551655617
 30
0.0
 11
-35.509743536837959
 21
-436.63855407776782
 31
0.0
  0
LWPOLYLINE
  5
1A9
100
AcDbEntity
  8
ADF70-2202
370
              15
390
0
  6
Continuous
 62
               7
100
AcDbPolyline
 90
        5
 70
             128
 10
-345.12757023222093
 20
-578.00804714753872
 10
-343.84839128662043
 20
-577.64214247240216
 10
-342.75216467859082
 20
-576.54740328174967
 10
-342.2033076658854
 20
-575.26822433615075
 10
-341.10708105785397
 20
-562.29050770783374
  0
LINE
  5
1AA
100
AcDbEntity
  8
ADF70-2202
370
              15
390
0
  6
Continuous
 62
               7
100
AcDbLine
 10
-776.10824310001135
 20
-406.84707140171486
 30
0.0
 11
-776.47414777514769
 21
-418.91002634219058
 31
0.0
  0
LWPOLYLINE
  5
1AB
100
AcDbEntity
  8
ADF70-2202
370
              15
390
0
  6
Continuous
 62
               7
100
AcDbPolyline
 90
        5
 70
             128
 10
-772.27070626321347
 20
-403.00804714753872
 10
-773.73283754638123
 20
-403.19099948510689
 10
-775.01201649197992
 20
-404.10576117294818
 10
-775.92529076244318
 20
-405.38494011854721
 10
-776.10824310001135
 20
-406.84707140171486
  0
LINE
  5
1AC
100
AcDbEntity
  8
ADF70-2202
370
              15
390
0
  6
STYLE_12
 62
               7
100
AcDbLine
 10
-216.47414777760332
 20
-443.00804714753872
 30
0.0
 11
-256.47414777760332
 21
-443.00804714753872
 31
0.0
  0
LINE
  5
1AD
100
AcDbEntity
  8
ADF70-2202
370
              15
390
0
  6
STYLE_12
 62
               7
100
AcDbLine
 10
-236.47414777760332
 20
-423.00804714753872
 30
0.0
 11
-236.47414777760332
 21
-463.00804714753872
 31
0.0
  0
CIRCLE
  5
1AE
100
AcDbEntity
  8
ADF70-2202
370
              15
390
0
  6
STYLE_12
 62
               7
100
AcDbCircle
 10
-236.47414777760332
 20
-443.09359731553036
 30
0.0
 40
10.000000000000497
  0
LINE
  5
1AF
100
AcDbEntity
  8
ADF70-2202
370
              15
390
0
  6
STYLE_12
 62
               7
100
AcDbLine
 10
-496.47414777760332
 20
-443.00804714753872
 30
0.0
 11
-536.47414777760332
 21
-443.00804714753872
 31
0.0
  0
LINE
  5
1B0
100
AcDbEntity
  8
ADF70-2202
370
              15
390
0
  6
STYLE_12
 62
               7
100
AcDbLine
 10
-516.47414777760332
 20
-423.00804714753872
 30
0.0
 11
-516.47414777760332
 21
-463.00804714753872
 31
0.0
  0
CIRCLE
  5
1B1
100
AcDbEntity
  8
ADF70-2202
370
              15
390
0
  6
STYLE_12
 62
               7
100
AcDbCircle
 10
-516.47414777760332
 20
-443.09359731553036
 30
0.0
 40
10.000000000000497
  0
LWPOLYLINE
  5
1B2
100
AcDbEntity
  8
ADF70-2202
370
              15
390
0
  6
Continuous
 62
               7
100
AcDbPolyline
 90
        5
 70
             128
 10
23.525852222396679
 20
-418.90853892481209
 10
23.159947547260344
 20
-420.3706702079794
 10
22.246673276797992
 20
-421.83280149114694
 10
20.967494331198395
 20
-422.747563178988
 10
19.505363048031541
 20
-422.93051551655617
  0
LINE
  5
1B3
100
AcDbEntity
  8
ADF70-2202
370
              15
390
0
  6
Continuous
 62
               7
100
AcDbLine
 10
23.159947547260344
 20
-406.84707140171486
 30
0.0
 11
23.525852222396679
 21
-418.91002634219058
 31
0.0
  0
LWPOLYLINE
  5
1B4
100
AcDbEntity
  8
ADF70-2202
370
              15
390
0
  6
Continuous
 62
               7
100
AcDbPolyline
 90
        5
 70
             128
 10
19.322410710462464
 20
-403.00804714753872
 10
20.784541993630228
 20
-403.19099948510689
 10
22.063720939228915
 20
-404.10576117294818
 10
22.976995209692177
 20
-405.38494011854721
 10
23.159947547260344
 20
-406.84707140171486
  0
LWPOLYLINE
  5
1B5
100
AcDbEntity
  8
ADF70-2202
370
              15
390
0
  6
Continuous
 62
               7
100
AcDbPolyline
 90
        3
 70
             128
 10
838.62453844013771
 20
-404.29127456833135
 10
838.62453844013771
 20
-403.92506349464816
 10
838.62453844013771
 20
-472.33805577996804
  0
LINE
  5
1B6
100
AcDbEntity
  8
ADF70-2202
370
              15
390
0
  6
Continuous
 62
               7
100
AcDbLine
 10
838.62453844013771
 20
-404.29127456833135
 30
0.0
 11
838.62453844013771
 21
-472.33805577996804
 31
0.0
  0
LWPOLYLINE
  5
1B7
100
AcDbEntity
  8
ADF70-2202
370
              15
390
0
  6
Continuous
 62
               7
100
AcDbPolyline
 90
        3
 70
             128
 10
838.62453844013771
 20
-403.92506349464816
 10
838.62453844013771
 20
-403.55885242096497
 10
838.62453844013771
 20
-472.70426685365032
  0
LINE
  5
1B8
100
AcDbEntity
  8
ADF70-2202
370
              15
390
0
  6
Continuous
 62
               7
100
AcDbLine
 10
838.62453844013771
 20
-403.92506349464816
 30
0.0
 11
838.62453844013771
 21
-472.70426685365032
 31
0.0
  0
LINE
  5
1B9
100
AcDbEntity
  8
ADF70-2202
370
              15
390
0
  6
Continuous
 62
               7
100
AcDbLine
 10
838.62453844013771
 20
-403.55885242096497
 30
0.0
 11
838.62453844013771
 21
-472.88886105339384
 31
0.0
  0
LINE
  5
1BA
100
AcDbEntity
  8
ADF70-2202
370
              15
390
0
  6
Continuous
 62
               7
100
AcDbLine
 10
838.62453844013771
 20
-403.55885242096497
 30
0.0
 11
838.62453844013771
 21
-472.88886105339384
 31
0.0
  0
LWPOLYLINE
  5
1BB
100
AcDbEntity
  8
ADF70-2202
370
              15
390
0
  6
Continuous
 62
               7
100
AcDbPolyline
 90
        3
 70
             128
 10
654.38668731449798
 20
-570.57194330115431
 10
653.47115963028955
 20
-571.30138812271866
 10
652.92333168266669
 20
-572.40002134376869
  0
LINE
  5
1BC
100
AcDbEntity
  8
ADF70-2202
370
              15
390
0
  6
Continuous
 62
               7
100
AcDbLine
 10
679.61721973963222
 20
-563.00804714753872
 30
0.0
 11
654.38668731449798
 21
-570.57194330115431
 31
0.0
  0
LWPOLYLINE
  5
1BD
100
AcDbEntity
  8
ADF70-2202
370
              15
390
0
  6
Continuous
 62
               7
100
AcDbPolyline
 90
       22
 70
             128
 10
690.15757186643896
 20
-563.00804714753872
 10
696.67972921453611
 20
-560.61641255718655
 42
0.0024772875713682
 10
697.15327330720265
 20
-560.40586919137957
 10
697.74458907942244
 20
-560.13944649583846
 42
0.0144234170722203
 10
699.3768461563036
 20
-559.34661626809441
 10
699.95118448178164
 20
-559.04687295816302
 42
0.0094083124180479
 10
701.77537499341497
 20
-558.05072877906559
 42
0.0092653872708978
 10
703.56110937674202
 20
-556.98716257060346
 10
703.56225512425044
 20
-556.98645108787332
 42
0.0091522310229704
 10
705.30988345467495
 20
-555.85637595548087
 10
705.74452275903059
 20
-555.56390503119985
 42
0.0178816206823276
 10
708.27500527551729
 20
-553.72636877074922
 10
708.68896137696083
 20
-553.40254883977764
 42
0.0174702509787186
 10
711.88768746726009
 20
-550.71504629667038
 10
711.89096222440548
 20
-550.71209375576882
 42
0.0171848767219415
 10
714.90230438325943
 20
-547.80335725153236
 10
715.26845182629313
 20
-547.42451674233484
 42
0.0170193643593917
 10
717.37671092069013
 20
-545.08911460335526
 42
0.0084863105910023
 10
719.36413721895906
 20
-542.64805430581282
 42
0.0170117138406337
 10
721.22342175393896
 20
-540.1104296539504
 10
721.22447136779419
 20
-540.10888980078244
 42
0.0068488956807501
 10
722.61471448103021
 20
-538.00804714753838
 42
0.0068488956807501
  0
LINE
  5
1BE
100
AcDbEntity
  8
ADF70-2202
370
              15
390
0
  6
STYLE_12
 62
               7
100
AcDbLine
 10
687.16053156247472
 20
-517.70356902965909
 30
0.0
 11
687.16053158358682
 21
-517.70356904556252
 31
0.0
  0
LINE
  5
1BF
100
AcDbEntity
  8
ADF70-2202
370
              15
390
0
  6
STYLE_12
 62
               7
100
AcDbLine
 10
643.41077574430756
 20
-536.91327510611814
 30
0.0
 11
653.47115963028955
 21
-528.31475818906733
 31
0.0
  0
LWPOLYLINE
  5
1C0
100
AcDbEntity
  8
ADF70-2202
370
              15
390
0
  6
Continuous
 62
               7
100
AcDbPolyline
 90
        3
 70
             128
 10
661.70346547365807
 20
-523.92320263067018
 10
657.31339857816147
 20
-525.75425799908658
 10
653.47115963028955
 20
-528.31475818906733
  0
LINE
  5
1C1
100
AcDbEntity
  8
ADF70-2202
370
              15
390
0
  6
STYLE_12
 62
               7
100
AcDbLine
 10
687.16053156247472
 20
-517.70356902965909
 30
0.0
 11
664.47777493762851
 21
-523.92320263067018
 31
0.0
  0
LWPOLYLINE
  5
1C2
100
AcDbEntity
  8
ADF70-2202
370
              15
390
0
  6
STYLE_12
 62
               7
100
AcDbPolyline
 90
        6
 70
             128
 10
709.11235470285555
 20
-403.00804714753872
 10
707.46589353418221
 20
-403.19264134728178
 10
705.81943236550887
 20
-403.92506349464816
 10
704.53918227051736
 20
-405.20531358963876
 10
703.62365458630984
 20
-406.66718055856904
 10
703.25744351262574
 20
-408.4982359269859
  0
LWPOLYLINE
  5
1C3
100
AcDbEntity
  8
ADF70-2202
370
              15
390
0
  6
Continuous
 62
               7
100
AcDbPolyline
 90
        7
 70
             128
 10
652.92333168266669
 20
-575.26295275781536
 10
652.73873748292317
 20
-575.81078070543913
 10
652.73873748292317
 20
-576.36158597886492
 10
652.00780399845826
 20
-577.45724187411247
 10
651.64159292477416
 20
-577.82345294779566
 10
651.09376497715039
 20
-578.00804714753872
 10
649.81202621925968
 20
-578.00804714753872
  0
LINE
  5
1C4
100
AcDbEntity
  8
ADF70-2202
370
              15
390
0
  6
Continuous
 62
               7
100
AcDbLine
 10
652.92333168266669
 20
-572.40002134376869
 30
0.0
 11
652.92333168266669
 21
-575.26295275781536
 31
0.0
  0
LINE
  5
1C5
100
AcDbEntity
  8
ADF70-2202
370
              15
390
0
  6
Continuous
 62
               7
100
AcDbLine
 10
584.32574519760328
 20
-575.26295275781536
 30
0.0
 11
583.20194441993317
 21
-560.50858208936984
 31
0.0
  0
LINE
  5
1C6
100
AcDbEntity
  8
ADF70-2202
370
              15
390
0
  6
Continuous
 62
               7
100
AcDbLine
 10
595.66637917857588
 20
-578.00804714753872
 30
0.0
 11
587.43407333520736
 21
-578.00804714753872
 31
0.0
  0
LWPOLYLINE
  5
1C7
100
AcDbEntity
  8
ADF70-2202
370
              15
390
0
  6
Continuous
 62
               7
100
AcDbPolyline
 90
        4
 70
             128
 10
584.32574519760328
 20
-575.26295275781536
 10
584.87357314522706
 20
-576.72779705254811
 10
585.97071770337516
 20
-577.64183607385553
 10
587.43407333520736
 20
-578.00804714753872
  0
LWPOLYLINE
  5
1C8
100
AcDbEntity
  8
ADF70-2202
370
              15
390
0
  6
Continuous
 62
               7
100
AcDbPolyline
 90
        5
 70
             128
 10
837.3427996822461
 20
-403.00804714753872
 10
838.07522182961247
 20
-403.00804714753872
 10
838.25832736645452
 20
-403.37425822122236
 10
838.62304977723625
 20
-403.55885242096497
 10
838.62304977723625
 20
-471.97184470628395
  0
LINE
  5
1C9
100
AcDbEntity
  8
ADF70-2202
370
              15
390
0
  6
Continuous
 62
               7
100
AcDbLine
 10
709.110866039955
 20
-403.00804714753872
 30
0.0
 11
837.3427996822461
 21
-403.00804714753872
 31
0.0
  0
LINE
  5
1CA
100
AcDbEntity
  8
ADF70-2202
370
              15
390
0
  6
Continuous
 62
               7
100
AcDbLine
 10
362.64839440335254
 20
-403.00804714753872
 30
0.0
 11
410.20819676934207
 21
-403.00804714753872
 31
0.0
  0
LWPOLYLINE
  5
1CB
100
AcDbEntity
  8
ADF70-2202
370
              15
390
0
  6
Continuous
 62
               7
100
AcDbPolyline
 90
        5
 70
             128
 10
358.4414330446989
 20
-418.01079186534366
 10
358.80615545548062
 20
-420.04403316460935
 10
359.90478867653019
 20
-421.52604015607426
 10
361.54976118230297
 20
-422.63754539967272
 10
363.5624334246595
 20
-423.00804714753872
  0
LWPOLYLINE
  5
1CC
100
AcDbEntity
  8
ADF70-2202
370
              15
390
0
  6
Continuous
 62
               7
100
AcDbPolyline
 90
        6
 70
             128
 10
362.64839440335254
 20
-403.01102447334119
 10
361.18503877152125
 20
-403.19264134728178
 10
359.90478867653019
 20
-404.10668036858874
 10
358.98926099232267
 20
-405.57152466332195
 10
358.62304991863948
 20
-407.03339163225314
 10
358.4414330446989
 20
-418.01079186534366
  0
LINE
  5
1CD
100
AcDbEntity
  8
ADF70-2202
370
              15
390
0
  6
STYLE_12
 62
               7
100
AcDbLine
 10
642.31363118615855
 20
-539.10756422241616
 30
0.0
 11
594.93544569411006
 21
-539.10756422241616
 31
0.0
  0
LINE
  5
1CE
100
AcDbEntity
  8
ADF70-2202
370
              15
390
0
  6
Continuous
 62
               7
100
AcDbLine
 10
595.66637917857588
 20
-578.00804714753872
 30
0.0
 11
641.58120903879217
 21
-578.00804714753872
 31
0.0
  0
POLYLINE
  5
1CF
100
AcDbEntity
  8
ADF70-2202
370
              15
390
0
  6
STYLE_12
 62
               7
100
AcDb2dPolyline
 66
               1
 10
0.0
 20
0.0
 30
0.0
 75
               5
  0
VERTEX
  5
1D0
100
AcDbEntity
  8
ADF70-2202
370
              15
390
0
  6
STYLE_12
 62
               7
100
AcDbVertex
100
AcDb2dVertex
 10
653.47115963028955
 20
-528.31475818906733
 30
0.0
  0
VERTEX
  5
1D1
100
AcDbEntity
  8
ADF70-2202
370
              15
390
0
  6
STYLE_12
 62
               7
100
AcDbVertex
100
AcDb2dVertex
 10
653.28805409344841
 20
-528.49637506300792
 30
0.0
  0
VERTEX
  5
1D2
100
AcDbEntity
  8
ADF70-2202
370
              15
390
0
  6
STYLE_12
 62
               7
100
AcDbVertex
100
AcDb2dVertex
 10
584.32574519760328
 20
-528.49637506300792
 30
0.0
  0
VERTEX
  5
1D3
100
AcDbEntity
  8
ADF70-2202
370
              15
390
0
  6
STYLE_12
 62
               7
100
AcDbVertex
100
AcDb2dVertex
 10
583.95953412392009
 20
-528.49637506300792
 30
0.0
  0
SEQEND
  5
1D4
100
AcDbEntity
  8
ADF70-2202
370
              15
390
0
  6
STYLE_12
 62
               7
  0
LINE
  5
1D5
100
AcDbEntity
  8
ADF70-2202
370
              15
390
0
  6
STYLE_12
 62
               7
100
AcDbLine
 10
575.54412274371043
 20
-524.84021897777961
 30
0.0
 11
486.12405007646521
 21
-515.87549098704517
 31
0.0
  0
LINE
  5
1D6
100
AcDbEntity
  8
ADF70-2202
370
              15
390
0
  6
STYLE_12
 62
               7
100
AcDbLine
 10
578.47232267027539
 20
-525.38804692540339
 30
0.0
 11
575.54412274371043
 21
-524.84021897777961
 31
0.0
  0
LINE
  5
1D7
100
AcDbEntity
  8
ADF70-2202
370
              15
390
0
  6
STYLE_12
 62
               7
100
AcDbLine
 10
581.21592839709774
 20
-526.66829702039354
 30
0.0
 11
578.47232267027539
 21
-525.38804692540339
 31
0.0
  0
LINE
  5
1D8
100
AcDbEntity
  8
ADF70-2202
370
              15
390
0
  6
STYLE_12
 62
               7
100
AcDbLine
 10
583.77642858707804
 20
-528.31475818906733
 30
0.0
 11
581.21592839709774
 21
-526.66829702039354
 31
0.0
  0
LINE
  5
1D9
100
AcDbEntity
  8
ADF70-2202
370
              15
390
0
  6
STYLE_12
 62
               7
100
AcDbLine
 10
593.83681247306049
 20
-536.91327510611814
 30
0.0
 11
583.77642858707804
 21
-528.31475818906733
 31
0.0
  0
LINE
  5
1DA
100
AcDbEntity
  8
ADF70-2202
370
              15
390
0
  6
STYLE_12
 62
               7
100
AcDbLine
 10
594.75234015726801
 20
-537.82731412742555
 30
0.0
 11
593.83681247306049
 21
-536.91327510611814
 31
0.0
  0
LINE
  5
1DB
100
AcDbEntity
  8
ADF70-2202
370
              15
390
0
  6
STYLE_12
 62
               7
100
AcDbLine
 10
594.93544569411006
 20
-539.10756422241616
 30
0.0
 11
594.75234015726801
 21
-537.82731412742555
 31
0.0
  0
LINE
  5
1DC
100
AcDbEntity
  8
ADF70-2202
370
              15
390
0
  6
STYLE_12
 62
               7
100
AcDbLine
 10
595.70492990635103
 20
-578.00804714753872
 30
0.0
 11
594.93544569411006
 21
-539.10756422241616
 31
0.0
  0
LWPOLYLINE
  5
1DD
100
AcDbEntity
  8
ADF70-2202
370
              15
390
0
  6
STYLE_12
 62
               7
100
AcDbPolyline
 90
        5
 70
             128
 10
474.59882189575001
 20
-508.55722416498406
 10
476.61149413810654
 20
-511.30231855470743
 10
479.35509986492889
 20
-513.68120187074805
 10
482.64802220227648
 20
-515.14306883967879
 10
486.12405007646521
 20
-515.87549098704517
  0
LWPOLYLINE
  5
1DE
100
AcDbEntity
  8
ADF70-2202
370
              15
390
0
  6
STYLE_12
 62
               7
100
AcDbPolyline
 90
        5
 70
             128
 10
474.59882189575001
 20
-508.55722416498406
 10
415.33068581220414
 20
-405.93773573700514
 10
414.05043571721399
 20
-404.29127456833135
 10
412.2208690116986
 20
-403.37425822122236
 10
410.20968543224262
 20
-403.01102447334119
  0
LINE
  5
1DF
100
AcDbEntity
  8
ADF70-2202
370
              15
390
0
  6
Continuous
 62
               7
100
AcDbLine
 10
690.05954009673542
 20
-563.00804714753872
 30
0.0
 11
504.39447424434547
 21
-563.00804714753872
 31
0.0
  0
LWPOLYLINE
  5
1E0
100
AcDbEntity
  8
ADF70-2202
370
              15
390
0
  6
Continuous
 62
               7
100
AcDbPolyline
 90
        7
 70
             128
 10
484.45532334632117
 20
-551.48579629262599
 10
486.65110112551974
 20
-554.77574130417065
 10
489.57781238918415
 20
-557.70542989363707
 10
492.86924606363027
 20
-559.89971900993464
 10
496.345273937819
 20
-561.72779705254902
 10
500.37061842253297
 20
-562.64183607385553
 10
504.39447424434547
 20
-563.00804714753872
  0
LINE
  5
1E1
100
AcDbEntity
  8
ADF70-2202
370
              15
390
0
  6
Continuous
 62
               7
100
AcDbLine
 10
410.2393298088291
 20
-423.00804714753872
 30
0.0
 11
484.47611963330928
 21
-551.51695547516306
 31
0.0
  0
LINE
  5
1E2
100
AcDbEntity
  8
ADF70-2202
370
              15
390
0
  6
Continuous
 62
               7
100
AcDbLine
 10
838.62304977723625
 20
-423.00804714753872
 30
0.0
 11
363.56243342465905
 21
-423.00804714753872
 31
0.0
  0
LINE
  5
1E3
100
AcDbEntity
  8
ADF70-2202
370
              15
390
0
  6
Continuous
 62
               7
100
AcDbLine
 10
838.62453844013771
 20
-471.97184470628395
 30
0.0
 11
838.62453844013771
 21
-536.54320285280596
 31
0.0
  0
SPLINE
  5
1E4
100
AcDbEntity
  8
ADF70-2202
370
              15
390
0
  6
STYLE_12
 62
               7
100
AcDbSpline
210
0.0
220
0.0
230
1.0
 70
              12
 71
               2
 72
              36
 73
              33
 74
               0
 42
0.000001
 43
0.000001
 40
0.0
 40
0.0
 40
0.0
 40
1.0
 40
1.0
 40
2.0
 40
2.0
 40
3.0
 40
3.0
 40
4.0
 40
4.0
 40
5.0
 40
5.0
 40
6.0
 40
6.0
 40
7.0
 40
7.0
 40
8.0
 40
8.0
 40
9.0
 40
9.0
 40
10.0
 40
10.0
 40
11.0
 40
11.0
 40
12.0
 40
12.0
 40
13.0
 40
13.0
 40
14.0
 40
14.0
 40
15.0
 40
15.0
 40
16.0
 40
16.0
 40
16.0
 10
699.41669322765529
 20
-451.3032489866971
 30
0.0
 41
1.0
 10
699.41669322765529
 20
-451.21095188682534
 30
0.0
 41
1.0
 10
699.41669322765529
 20
-451.11865478695358
 30
0.0
 41
1.0
 10
699.44985874788381
 20
-450.78525888383319
 30
0.0
 41
1.0
 10
699.48302426811279
 20
-450.45186298071269
 30
0.0
 41
1.0
 10
699.6834525636832
 20
-448.43706049452396
 30
0.0
 41
0.9999938695894099
 10
699.86976621111944
 20
-446.42090380799141
 30
0.0
 41
1.0
 10
699.89170992323852
 20
-446.18344422022312
 30
0.0
 41
1.0
 10
699.91365363535715
 20
-445.94598463245484
 30
0.0
 41
1.0
 10
700.05607985856295
 20
-444.40474712136938
 30
0.0
 41
0.9999989097643641
 10
700.19395378806848
 20
-442.86309570999379
 30
0.0
 41
1.0
 10
700.33182771759584
 20
-441.32144429837945
 30
0.0
 41
0.9999994744484708
 10
700.46654036761174
 20
-439.77951343180291
 30
0.0
 41
1.0
 10
700.46660889122404
 20
-439.77872910551355
 30
0.0
 41
1.0
 10
700.46667741483634
 20
-439.7779447792243
 30
0.0
 41
1.0
 10
700.6015133908013
 20
-438.23460231479316
 30
0.0
 41
0.9999998536346508
 10
700.73467980352052
 20
-436.69111489719671
 30
0.0
 41
1.0
 10
700.86783249496011
 20
-435.14778453436998
 30
0.0
 41
1.0
 10
701.0006183520577
 20
-433.60664070453277
 30
0.0
 41
1.0
 10
701.00079457722404
 20
-433.60459539387944
 30
0.0
 41
1.0
 10
701.00097080239084
 20
-433.60255008322611
 30
0.0
 41
1.0
 10
701.13340420916256
 20
-432.06549687461427
 30
0.0
 41
0.9999999093848835
 10
701.26714645354787
 20
-430.52855699642146
 30
0.0
 41
1.0
 10
701.27155048405211
 20
-430.47794673383987
 30
0.0
 41
1.0
 10
701.27595451455636
 20
-430.42733647125829
 30
0.0
 41
1.0
 10
701.40088869797546
 20
-428.99161711775355
 30
0.0
 41
0.9999995740637482
 10
701.52847309263507
 20
-427.55613084693709
 30
0.0
 41
1.0
 10
701.65605748733651
 20
-426.12064457565293
 30
0.0
 41
0.9999992374009638
 10
701.78718717371385
 20
-424.68547781943016
 30
0.0
 41
1.0
 10
701.79138185870443
 20
-424.63956851683304
 30
0.0
 41
1.0
 10
701.79557654369501
 20
-424.59365921423591
 30
0.0
 41
1.0
 10
701.79557654369501
 20
-424.50285077726562
 30
0.0
 41
1.0
 10
701.79557654369501
 20
-424.41204234029533
 30
0.0
 41
1.0
  0
LWPOLYLINE
  5
1E5
100
AcDbEntity
  8
ADF70-2202
370
              15
390
0
  6
STYLE_12
 62
               7
100
AcDbPolyline
 90
        7
 70
             128
 10
687.16053156247472
 20
-517.70356902965909
 10
689.35630934167239
 20
-516.78953000835213
 10
691.36749292112881
 20
-515.3276630394214
 10
692.83084855296102
 20
-513.49660767100499
 10
693.92948177401058
 20
-511.30231855470743
 10
694.47730972163436
 20
-508.92343523866725
 10
699.41669322765529
 20
-451.3032489866971
  0
LINE
  5
1E6
100
AcDbEntity
  8
ADF70-2202
370
              15
390
0
  6
STYLE_12
 62
               7
100
AcDbLine
 10
701.79557654369501
 20
-424.41204234029533
 30
0.0
 11
703.25744351262574
 21
-408.4982359269859
 31
0.0
  0
LINE
  5
1E7
100
AcDbEntity
  8
ADF70-2202
370
              15
390
0
  6
Continuous
 62
               7
100
AcDbLine
 10
837.3427996822461
 20
-538.00804714753872
 30
0.0
 11
722.61471448103021
 21
-538.00804714753838
 31
0.0
  0
LINE
  5
1E8
100
AcDbEntity
  8
ADF70-2202
370
              15
390
0
  6
Continuous
 62
               7
100
AcDbLine
 10
838.62453844013771
 20
-536.54320285280596
 30
0.0
 11
838.62453844013771
 21
-536.72779705254857
 31
0.0
  0
LWPOLYLINE
  5
1E9
100
AcDbEntity
  8
ADF70-2202
370
              15
390
0
  6
Continuous
 62
               7
100
AcDbPolyline
 90
        6
 70
             128
 10
837.3427996822461
 20
-538.00804714753872
 10
837.70901075592928
 20
-537.82345294779611
 10
838.07522182961247
 20
-537.82345294779611
 10
838.25832736645452
 20
-537.64183607385553
 10
838.62453844013771
 20
-537.27562500017234
 10
838.62453844013771
 20
-536.54320285280596
  0
LINE
  5
1EA
100
AcDbEntity
  8
ADF70-2202
370
              15
390
0
  6
Continuous
 62
               7
100
AcDbLine
 10
649.81351488216114
 20
-578.00804714753872
 30
0.0
 11
641.58120903879217
 21
-578.00804714753872
 31
0.0
  0
LWPOLYLINE
  5
1EB
100
AcDbEntity
  8
ADF70-2202
370
              15
390
0
  6
STYLE_12
 62
               7
100
AcDbPolyline
 90
        3
 70
             128
 10
643.41077574430756
 20
-536.91327510611814
 10
642.49524806009913
 20
-537.82731412742555
 10
642.31214252325799
 20
-539.10756422241616
  0
LINE
  5
1EC
100
AcDbEntity
  8
ADF70-2202
370
              15
390
0
  6
Continuous
 62
               7
100
AcDbLine
 10
709.11235470285555
 20
-403.00804714753872
 30
0.0
 11
410.20968543224262
 21
-403.00804714753872
 31
0.0
  0
LINE
  5
1ED
100
AcDbEntity
  8
ADF70-2202
370
              15
390
0
  6
STYLE_12
 62
               7
100
AcDbLine
 10
642.31363118615855
 20
-539.10756422241616
 30
0.0
 11
641.54414697391758
 21
-578.00804714753872
 31
0.0
  0
LINE
  5
1EE
100
AcDbEntity
  8
ADF70-2202
370
              15
390
0
  6
Continuous
 62
               7
100
AcDbLine
 10
791.12304977723625
 20
-418.00804714753872
 30
0.0
 11
791.12304977723625
 21
-403.00804714753872
 31
0.0
  0
LINE
  5
1EF
100
AcDbEntity
  8
ADF70-2202
370
              15
390
0
  6
Continuous
 62
               7
100
AcDbLine
 10
756.12304977723625
 20
-418.00804714753872
 30
0.0
 11
756.12304977723625
 21
-403.00804714753872
 31
0.0
  0
ENDSEC
  0
SECTION
  2
OBJECTS
  0
DICTIONARY
  5
19
100
AcDbDictionary
280
               0
281
               1
  3
ACAD_GROUP
350
1A
  3
ACAD_MLINESTYLE
350
1B
  3
ACAD_LAYOUT
350
1E
  3
ACAD_PLOTSETTINGS
350
22
  3
ACAD_PLOTSTYLENAME
350
1F
  0
DICTIONARY
  5
1A
102
{ACAD_REACTORS
330
19
102
}
100
AcDbDictionary
280
               0
281
               1
  0
DICTIONARY
  5
1B
102
{ACAD_REACTORS
330
19
102
}
100
AcDbDictionary
280
               0
281
               1
  3
Standard
350
1C
  0
MLINESTYLE
  5
1C
102
{ACAD_REACTORS
330
1B
102
}
100
AcDbMlineStyle
  2
Standard
 70
               0
  3

 62
               0
 51
90.0
 52
90.0
 71
               2
 49
0.5
 62
             256
  6
ByLayer
 49
-0.5
 62
             256
  6
ByLayer
  0
ACDBDICTIONARYWDFLT
  5
1F
102
{ACAD_REACTORS
330
19
102
}
100
AcDbDictionary
281
               1
  3
Normal
350
1D
100
AcDbDictionaryWithDefault
340
1D
  0
ACDBPLACEHOLDER
  5
1D
102
{ACAD_REACTORS
330
1F
102
}
  0
LAYOUT
  5
20
102
{ACAD_REACTORS
330
1E
102
}
100
AcDbPlotSettings
  1

  2

  4

  6

 40
0.0
 41
0.0
 42
0.0
 43
0.0
 44
0.0
 45
0.0
 46
0.0
 47
0.0
 48
0.0
 49
0.0
140
0.0
141
0.0
142
1.0
143
1.0
 70
            1024
 72
               0
 73
               0
 74
               0
  7

 75
               0
147
1.0
148
0.0
149
0.0
100
AcDbLayout
  1
Model
 70
               0
 71
               0
 10
0.0
 20
0.0
 11
0.0
 21
0.0
 12
0.0
 22
0.0
 32
0.0
 14
0.0
 24
0.0
 34
0.0
 15
0.0
 25
0.0
 35
0.0
146
0.0
 13
0.0
 23
0.0
 33
0.0
 16
0.0
 26
0.0
 36
0.0
 17
0.0
 27
0.0
 37
0.0
 76
               0
330
A
331
0
345
0
346
0
  0
LAYOUT
  5
21
102
{ACAD_REACTORS
330
1E
102
}
100
AcDbPlotSettings
  1

  2

  4

  6

 40
0.0
 41
0.0
 42
0.0
 43
0.0
 44
0.0
 45
0.0
 46
0.0
 47
0.0
 48
0.0
 49
0.0
140
0.0
141
0.0
142
1.0
143
1.0
 70
               0
 72
               0
 73
               0
 74
               0
  7

 75
               0
147
1.0
148
0.0
149
0.0
100
AcDbLayout
  1
Layout1
 70
               0
 71
               0
 10
0.0
 20
0.0
 11
0.0
 21
0.0
 12
0.0
 22
0.0
 32
0.0
 14
0.0
 24
0.0
 34
0.0
 15
0.0
 25
0.0
 35
0.0
146
0.0
 13
0.0
 23
0.0
 33
0.0
 16
0.0
 26
0.0
 36
0.0
 17
0.0
 27
0.0
 37
0.0
 76
               0
330
B
331
0
345
0
346
0
  0
DICTIONARY
  5
1E
102
{ACAD_REACTORS
330
19
102
}
100
AcDbDictionary
280
               0
281
               1
  3
Layout1
350
21
  3
Model
350
20
  0
DICTIONARY
  5
22
102
{ACAD_REACTORS
330
19
102
}
100
AcDbDictionary
280
               0
281
               1
  0
ENDSEC
  0
EOF
